  0
SECTION
  2
HEADER
  9
$ACADVER
  1
AC1015
  9
$ACADMAINTVER
 70
     6
  9
$DWGCODEPAGE
  3
ANSI_1252
  9
$INSBASE
 10
0.0
 20
0.0
 30
0.0
  9
$EXTMIN
 10
-98.1707983011004
 20
22.4788420013298
 30
0.0
  9
$EXTMAX
 10
85.26862892337303
 20
109.309217720686
 30
0.0
  9
$LIMMIN
 10
0.0
 20
0.0
  9
$LIMMAX
 10
12.0
 20
9.0
  9
$ORTHOMODE
 70
     0
  9
$REGENMODE
 70
     1
  9
$FILLMODE
 70
     1
  9
$QTEXTMODE
 70
     0
  9
$MIRRTEXT
 70
     1
  9
$LTSCALE
 40
1.0
  9
$ATTMODE
 70
     1
  9
$TEXTSIZE
 40
0.2
  9
$TRACEWID
 40
0.05
  9
$TEXTSTYLE
  7
Standard
  9
$CLAYER
  8
0
  9
$CELTYPE
  6
ByLayer
  9
$CECOLOR
 62
   256
  9
$CELTSCALE
 40
1.0
  9
$DISPSILH
 70
     0
  9
$DIMSCALE
 40
1.0
  9
$DIMASZ
 40
0.18
  9
$DIMEXO
 40
0.0625
  9
$DIMDLI
 40
0.38
  9
$DIMRND
 40
0.0
  9
$DIMDLE
 40
0.0
  9
$DIMEXE
 40
0.18
  9
$DIMTP
 40
0.0
  9
$DIMTM
 40
0.0
  9
$DIMTXT
 40
0.18
  9
$DIMCEN
 40
0.09
  9
$DIMTSZ
 40
0.0
  9
$DIMTOL
 70
     0
  9
$DIMLIM
 70
     0
  9
$DIMTIH
 70
     1
  9
$DIMTOH
 70
     1
  9
$DIMSE1
 70
     0
  9
$DIMSE2
 70
     0
  9
$DIMTAD
 70
     0
  9
$DIMZIN
 70
     0
  9
$DIMBLK
  1

  9
$DIMASO
 70
     1
  9
$DIMSHO
 70
     1
  9
$DIMPOST
  1

  9
$DIMAPOST
  1

  9
$DIMALT
 70
     0
  9
$DIMALTD
 70
     2
  9
$DIMALTF
 40
25.4
  9
$DIMLFAC
 40
1.0
  9
$DIMTOFL
 70
     0
  9
$DIMTVP
 40
0.0
  9
$DIMTIX
 70
     0
  9
$DIMSOXD
 70
     0
  9
$DIMSAH
 70
     0
  9
$DIMBLK1
  1

  9
$DIMBLK2
  1

  9
$DIMSTYLE
  2
Standard
  9
$DIMCLRD
 70
     0
  9
$DIMCLRE
 70
     0
  9
$DIMCLRT
 70
     0
  9
$DIMTFAC
 40
1.0
  9
$DIMGAP
 40
0.09
  9
$DIMJUST
 70
     0
  9
$DIMSD1
 70
     0
  9
$DIMSD2
 70
     0
  9
$DIMTOLJ
 70
     1
  9
$DIMTZIN
 70
     0
  9
$DIMALTZ
 70
     0
  9
$DIMALTTZ
 70
     0
  9
$DIMUPT
 70
     0
  9
$DIMDEC
 70
     4
  9
$DIMTDEC
 70
     4
  9
$DIMALTU
 70
     2
  9
$DIMALTTD
 70
     2
  9
$DIMTXSTY
  7
Standard
  9
$DIMAUNIT
 70
     0
  9
$DIMADEC
 70
     0
  9
$DIMALTRND
 40
0.0
  9
$DIMAZIN
 70
     0
  9
$DIMDSEP
 70
    46
  9
$DIMATFIT
 70
     3
  9
$DIMFRAC
 70
     0
  9
$DIMLDRBLK
  1

  9
$DIMLUNIT
 70
     2
  9
$DIMLWD
 70
    -2
  9
$DIMLWE
 70
    -2
  9
$DIMTMOVE
 70
     0
  9
$LUNITS
 70
     2
  9
$LUPREC
 70
     4
  9
$SKETCHINC
 40
0.1
  9
$FILLETRAD
 40
0.5
  9
$AUNITS
 70
     0
  9
$AUPREC
 70
     0
  9
$MENU
  1
.
  9
$ELEVATION
 40
0.0
  9
$PELEVATION
 40
0.0
  9
$THICKNESS
 40
0.0
  9
$LIMCHECK
 70
     0
  9
$CHAMFERA
 40
0.5
  9
$CHAMFERB
 40
0.5
  9
$CHAMFERC
 40
1.0
  9
$CHAMFERD
 40
0.0
  9
$SKPOLY
 70
     0
  9
$TDCREATE
 40
2455623.339661366
  9
$TDUCREATE
 40
2455623.297994699
  9
$TDUPDATE
 40
2455623.339661377
  9
$TDUUPDATE
 40
2455623.297994711
  9
$TDINDWG
 40
0.0000000116
  9
$TDUSRTIMER
 40
0.0000000116
  9
$USRTIMER
 70
     1
  9
$ANGBASE
 50
0.0
  9
$ANGDIR
 70
     0
  9
$PDMODE
 70
     0
  9
$PDSIZE
 40
0.0
  9
$PLINEWID
 40
0.0
  9
$SPLFRAME
 70
     0
  9
$SPLINETYPE
 70
     6
  9
$SPLINESEGS
 70
     8
  9
$HANDSEED
  5
133
  9
$SURFTAB1
 70
     6
  9
$SURFTAB2
 70
     6
  9
$SURFTYPE
 70
     6
  9
$SURFU
 70
     6
  9
$SURFV
 70
     6
  9
$UCSBASE
  2

  9
$UCSNAME
  2

  9
$UCSORG
 10
0.0
 20
0.0
 30
0.0
  9
$UCSXDIR
 10
1.0
 20
0.0
 30
0.0
  9
$UCSYDIR
 10
0.0
 20
1.0
 30
0.0
  9
$UCSORTHOREF
  2

  9
$UCSORTHOVIEW
 70
     0
  9
$UCSORGTOP
 10
0.0
 20
0.0
 30
0.0
  9
$UCSORGBOTTOM
 10
0.0
 20
0.0
 30
0.0
  9
$UCSORGLEFT
 10
0.0
 20
0.0
 30
0.0
  9
$UCSORGRIGHT
 10
0.0
 20
0.0
 30
0.0
  9
$UCSORGFRONT
 10
0.0
 20
0.0
 30
0.0
  9
$UCSORGBACK
 10
0.0
 20
0.0
 30
0.0
  9
$PUCSBASE
  2

  9
$PUCSNAME
  2

  9
$PUCSORG
 10
0.0
 20
0.0
 30
0.0
  9
$PUCSXDIR
 10
1.0
 20
0.0
 30
0.0
  9
$PUCSYDIR
 10
0.0
 20
1.0
 30
0.0
  9
$PUCSORTHOREF
  2

  9
$PUCSORTHOVIEW
 70
     0
  9
$PUCSORGTOP
 10
0.0
 20
0.0
 30
0.0
  9
$PUCSORGBOTTOM
 10
0.0
 20
0.0
 30
0.0
  9
$PUCSORGLEFT
 10
0.0
 20
0.0
 30
0.0
  9
$PUCSORGRIGHT
 10
0.0
 20
0.0
 30
0.0
  9
$PUCSORGFRONT
 10
0.0
 20
0.0
 30
0.0
  9
$PUCSORGBACK
 10
0.0
 20
0.0
 30
0.0
  9
$USERI1
 70
     0
  9
$USERI2
 70
     0
  9
$USERI3
 70
     0
  9
$USERI4
 70
     0
  9
$USERI5
 70
     0
  9
$USERR1
 40
16.5
  9
$USERR2
 40
0.0
  9
$USERR3
 40
0.0
  9
$USERR4
 40
0.0
  9
$USERR5
 40
0.0
  9
$WORLDVIEW
 70
     1
  9
$SHADEDGE
 70
     3
  9
$SHADEDIF
 70
    70
  9
$TILEMODE
 70
     1
  9
$MAXACTVP
 70
    64
  9
$PINSBASE
 10
0.0
 20
0.0
 30
0.0
  9
$PLIMCHECK
 70
     0
  9
$PEXTMIN
 10
1.00000000000000E+20
 20
1.00000000000000E+20
 30
1.00000000000000E+20
  9
$PEXTMAX
 10
-1.00000000000000E+20
 20
-1.00000000000000E+20
 30
-1.00000000000000E+20
  9
$PLIMMIN
 10
0.0
 20
0.0
  9
$PLIMMAX
 10
12.0
 20
9.0
  9
$UNITMODE
 70
     0
  9
$VISRETAIN
 70
     1
  9
$PLINEGEN
 70
     0
  9
$PSLTSCALE
 70
     1
  9
$TREEDEPTH
 70
  3020
  9
$CMLSTYLE
  2
Standard
  9
$CMLJUST
 70
     0
  9
$CMLSCALE
 40
1.0
  9
$PROXYGRAPHICS
 70
     1
  9
$MEASUREMENT
 70
     1
  9
$CELWEIGHT
370
    -1
  9
$ENDCAPS
280
     0
  9
$JOINSTYLE
280
     0
  9
$LWDISPLAY
290
     0
  9
$INSUNITS
 70
     1
  9
$HYPERLINKBASE
  1

  9
$STYLESHEET
  1

  9
$XEDIT
290
     1
  9
$CEPSNTYPE
380
     0
  9
$PSTYLEMODE
290
     1
  9
$FINGERPRINTGUID
  2
{EED9B3ED-9606-405D-8C1F-576D11489CFC}
  9
$VERSIONGUID
  2
{FAEB1C32-E019-11D5-929B-00C0DF256EC4}
  9
$EXTNAMES
290
     1
  9
$PSVPSCALE
 40
0.0
  9
$OLESTARTUP
290
     0
  0
ENDSEC
  0
SECTION
  2
CLASSES
  0
CLASS
  1
ACDBDICTIONARYWDFLT
  2
AcDbDictionaryWithDefault
  3
ObjectDBX Classes
 90
        0
280
     0
281
     0
  0
CLASS
  1
VISUALSTYLE
  2
AcDbVisualStyle
  3
ObjectDBX Classes
 90
     4095
280
     0
281
     0
  0
CLASS
  1
SCALE
  2
AcDbScale
  3
ObjectDBX Classes
 90
     1153
280
     0
281
     0
  0
CLASS
  1

  2
exOdDbPolyline
  3

 90
        0
280
     0
281
     1
  0
CLASS
  1
DICTIONARYVAR
  2
AcDbDictionaryVar
  3
ObjectDBX Classes
 90
        0
280
     0
281
     0
  0
CLASS
  1
ACDBPLACEHOLDER
  2
AcDbPlaceHolder
  3
ObjectDBX Classes
 90
        0
280
     0
281
     0
  0
CLASS
  1
LAYOUT
  2
AcDbLayout
  3
ObjectDBX Classes
 90
        0
280
     0
281
     0
  0
ENDSEC
  0
SECTION
  2
TABLES
  0
TABLE
  2
VPORT
  5
8
330
0
100
AcDbSymbolTable
 70
     1
  0
VPORT
  5
29
330
8
100
AcDbSymbolTableRecord
100
AcDbViewportTableRecord
  2
*Active
 70
     0
 10
0.0
 20
0.0
 11
1.0
 21
1.0
 12
-6.45108468886369
 22
65.8940298610079
 13
0.0
 23
0.0
 14
0.5
 24
0.5
 15
0.5
 25
0.5
 16
0.0
 26
0.0
 36
1.0
 17
0.0
 27
0.0
 37
0.0
 40
125.9038297161846
 41
1.60267857142857
 42
50.0
 43
0.0
 44
0.0
 50
0.0
 51
0.0
 71
     0
 72
   100
 73
     1
 74
     3
 75
     0
 76
     0
 77
     0
 78
     0
281
     0
 65
     1
110
0.0
120
0.0
130
0.0
111
1.0
121
0.0
131
0.0
112
0.0
122
1.0
132
0.0
 79
     0
146
0.0
  0
ENDTAB
  0
TABLE
  2
LTYPE
  5
5
330
0
100
AcDbSymbolTable
 70
     8
  0
LTYPE
  5
14
330
5
100
AcDbSymbolTableRecord
100
AcDbLinetypeTableRecord
  2
ByBlock
 70
     0
  3

 72
    65
 73
     0
 40
0.0
  0
LTYPE
  5
15
330
5
100
AcDbSymbolTableRecord
100
AcDbLinetypeTableRecord
  2
ByLayer
 70
     0
  3

 72
    65
 73
     0
 40
0.0
  0
LTYPE
  5
16
330
5
100
AcDbSymbolTableRecord
100
AcDbLinetypeTableRecord
  2
Continuous
 70
     0
  3
Solid line
 72
    65
 73
     0
 40
0.0
  0
LTYPE
  5
3B
330
5
100
AcDbSymbolTableRecord
100
AcDbLinetypeTableRecord
  2
DASHED
 70
     0
  3
Dashed
 72
    65
 73
     2
 40
15.0
 49
7.0
 74
     0
 49
-8.0
 74
     0
  0
LTYPE
  5
3C
330
5
100
AcDbSymbolTableRecord
100
AcDbLinetypeTableRecord
  2
DOTTED
 70
     0
  3
Dotted
 72
    65
 73
     2
 40
1.0
 49
0.0
 74
     0
 49
-1.0
 74
     0
  0
LTYPE
  5
3D
330
5
100
AcDbSymbolTableRecord
100
AcDbLinetypeTableRecord
  2
DOT_CENTER
 70
     0
  3
Dot_Center
 72
    65
 73
     4
 40
14.0
 49
12.0
 74
     0
 49
-1.0
 74
     0
 49
0.0
 74
     0
 49
-1.0
 74
     0
  0
LTYPE
  5
3E
330
5
100
AcDbSymbolTableRecord
100
AcDbLinetypeTableRecord
  2
LONG_DASHED
 70
     0
  3
Long_Dashed
 72
    65
 73
     2
 40
15.0
 49
10.0
 74
     0
 49
-5.0
 74
     0
  0
LTYPE
  5
3F
330
5
100
AcDbSymbolTableRecord
100
AcDbLinetypeTableRecord
  2
DASH_CENTER
 70
     0
  3
Dash_Center
 72
    65
 73
     4
 40
14.0
 49
11.0
 74
     0
 49
-1.0
 74
     0
 49
1.0
 74
     0
 49
-1.0
 74
     0
  0
LTYPE
  5
40
330
5
100
AcDbSymbolTableRecord
100
AcDbLinetypeTableRecord
  2
PHANTOM
 70
     0
  3
Phantom
 72
    65
 73
     6
 40
13.0
 49
10.0
 74
     0
 49
-1.0
 74
     0
 49
0.0
 74
     0
 49
-1.0
 74
     0
 49
0.0
 74
     0
 49
-1.0
 74
     0
  0
LTYPE
  5
41
330
5
100
AcDbSymbolTableRecord
100
AcDbLinetypeTableRecord
  2
CENTER_DASH_DASH
 70
     0
  3
Center_Dash_Dash
 72
    65
 73
     6
 40
14.0
 49
9.0
 74
     0
 49
-1.0
 74
     0
 49
1.0
 74
     0
 49
-1.0
 74
     0
 49
1.0
 74
     0
 49
-1.0
 74
     0
  0
ENDTAB
  0
TABLE
  2
LAYER
  5
2
330
0
100
AcDbSymbolTable
 70
     3
  0
LAYER
  5
10
330
2
100
AcDbSymbolTableRecord
100
AcDbLayerTableRecord
  2
0
 70
     0
 62
     7
  6
Continuous
370
    -3
390
F
  0
LAYER
  5
42
330
2
100
AcDbSymbolTableRecord
100
AcDbLayerTableRecord
  2
1
 70
     0
 62
     7
  6
Continuous
370
    -3
390
F
  0
LAYER
  5
43
330
2
100
AcDbSymbolTableRecord
100
AcDbLayerTableRecord
  2
RAHMEN
 70
     0
 62
     7
  6
Continuous
370
    -3
390
F
  0
ENDTAB
  0
TABLE
  2
STYLE
  5
3
330
0
100
AcDbSymbolTable
 70
     5
  0
STYLE
  5
11
330
3
100
AcDbSymbolTableRecord
100
AcDbTextStyleTableRecord
  2
Standard
 70
     0
 40
0.0
 41
1.0
 50
0.0
 71
     0
 42
0.2
  3
txt
  4

  0
STYLE
  5
6A
330
3
100
AcDbSymbolTableRecord
100
AcDbTextStyleTableRecord
  2
CONVERTER_11
 70
     0
 40
0.0
 41
0.8571123
 50
0.0
 71
     0
 42
0.2
  3
txt.shx
  4

  0
STYLE
  5
6C
330
3
100
AcDbSymbolTableRecord
100
AcDbTextStyleTableRecord
  2
CONVERTER_12
 70
     0
 40
0.0
 41
0.9171099
 50
0.0
 71
     0
 42
0.2
  3
txt.shx
  4

  0
STYLE
  5
6E
330
3
100
AcDbSymbolTableRecord
100
AcDbTextStyleTableRecord
  2
CONVERTER_13
 70
     0
 40
0.0
 41
0.8313993
 50
0.0
 71
     0
 42
0.2
  3
txt.shx
  4

  0
STYLE
  5
E5
330
3
100
AcDbSymbolTableRecord
100
AcDbTextStyleTableRecord
  2
CONVERTER_14
 70
     0
 40
0.0
 41
0.72
 50
0.0
 71
     0
 42
0.2
  3
txt.shx
  4

  0
ENDTAB
  0
TABLE
  2
VIEW
  5
6
330
0
100
AcDbSymbolTable
 70
     0
  0
ENDTAB
  0
TABLE
  2
UCS
  5
7
330
0
100
AcDbSymbolTable
 70
     0
  0
ENDTAB
  0
TABLE
  2
APPID
  5
9
330
0
100
AcDbSymbolTable
 70
     1
  0
APPID
  5
12
330
9
100
AcDbSymbolTableRecord
100
AcDbRegAppTableRecord
  2
ACAD
 70
     0
  0
ENDTAB
  0
TABLE
  2
DIMSTYLE
  5
A
330
0
100
AcDbSymbolTable
 70
     8
100
AcDbDimStyleTable
  0
DIMSTYLE
105
27
330
A
100
AcDbSymbolTableRecord
100
AcDbDimStyleTableRecord
  2
Standard
 70
     0
340
11
  0
DIMSTYLE
105
E9
102
{ACAD_REACTORS
330
EA
102
}
330
A
100
AcDbSymbolTableRecord
100
AcDbDimStyleTableRecord
  2
ME10_DIM_10
 70
     0
  3
\U+2300<>
 41
3.5
 42
2.0
 44
2.0
 71
     1
 73
     0
 74
     0
 77
     1
 78
     8
140
3.5
146
0.7
147
2.0
172
     1
173
     1
176
     2
177
     2
178
     3
271
     2
272
     0
340
E5
  0
DIMSTYLE
105
F4
102
{ACAD_REACTORS
330
F5
102
}
330
A
100
AcDbSymbolTableRecord
100
AcDbDimStyleTableRecord
  2
ME10_DIM_11
 70
     0
  3
\U+2300<>
 41
3.5
 42
2.0
 44
2.0
 71
     1
 73
     0
 74
     0
 77
     1
 78
     8
140
3.5
146
0.7
147
2.0
172
     1
173
     1
176
     2
177
     2
178
     3
271
     2
272
     0
340
E5
  0
DIMSTYLE
105
101
102
{ACAD_REACTORS
330
102
102
}
330
A
100
AcDbSymbolTableRecord
100
AcDbDimStyleTableRecord
  2
ME10_DIM_12
 70
     0
  3
\U+2300<>
 41
3.5
 42
2.0
 44
2.0
 71
     1
 73
     0
 74
     0
 77
     1
 78
     8
140
3.5
146
0.7
147
2.0
172
     1
173
     1
176
     2
177
     2
178
     3
271
     2
272
     0
340
E5
  0
DIMSTYLE
105
10C
102
{ACAD_REACTORS
330
10D
102
}
330
A
100
AcDbSymbolTableRecord
100
AcDbDimStyleTableRecord
  2
ME10_DIM_13
 70
     0
  3
<>
 41
3.5
 42
2.0
 44
2.0
 71
     1
 73
     0
 74
     0
 77
     1
 78
     8
140
3.5
146
0.7
147
2.0
172
     1
173
     1
176
     2
177
     2
178
     3
271
     2
272
     0
340
E5
  0
DIMSTYLE
105
117
102
{ACAD_REACTORS
330
118
102
}
330
A
100
AcDbSymbolTableRecord
100
AcDbDimStyleTableRecord
  2
ME10_DIM_14
 70
     0
  3
<>
 41
3.5
 42
2.0
 44
2.0
 71
     1
 73
     0
 74
     0
 77
     1
 78
     8
140
3.5
146
0.7
147
2.0
172
     1
173
     1
176
     2
177
     2
178
     3
271
     2
272
     0
340
E5
  0
DIMSTYLE
105
122
102
{ACAD_REACTORS
330
123
102
}
330
A
100
AcDbSymbolTableRecord
100
AcDbDimStyleTableRecord
  2
ME10_DIM_15
 70
     0
  3
<>
 41
3.5
 42
2.0
 44
2.0
 71
     1
 73
     0
 74
     0
 77
     1
 78
     8
140
3.5
146
0.7
147
2.0
172
     1
173
     1
176
     2
177
     2
178
     3
271
     2
272
     0
340
E5
  0
DIMSTYLE
105
12D
102
{ACAD_REACTORS
330
12E
102
}
330
A
100
AcDbSymbolTableRecord
100
AcDbDimStyleTableRecord
  2
ME10_DIM_16
 70
     0
  3
<>
 41
3.5
 42
2.0
 44
2.0
 71
     1
 73
     0
 74
     0
 77
     1
 78
     8
140
3.5
146
0.7
147
2.0
172
     1
173
     1
176
     2
177
     2
178
     3
271
     2
272
     0
340
E5
  0
ENDTAB
  0
TABLE
  2
BLOCK_RECORD
  5
1
330
0
100
AcDbSymbolTable
 70
     9
  0
BLOCK_RECORD
  5
1F
330
1
100
AcDbSymbolTableRecord
100
AcDbBlockTableRecord
  2
*Model_Space
340
22
  0
BLOCK_RECORD
  5
1B
330
1
100
AcDbSymbolTableRecord
100
AcDbBlockTableRecord
  2
*Paper_Space
340
1E
  0
BLOCK_RECORD
  5
23
330
1
100
AcDbSymbolTableRecord
100
AcDbBlockTableRecord
  2
*Paper_Space0
340
26
  0
BLOCK_RECORD
  5
44
330
1
100
AcDbSymbolTableRecord
100
AcDbBlockTableRecord
  2
Urheberrecht
340
0
102
{BLKREFS
331
69
102
}
  0
BLOCK_RECORD
  5
DF
330
1
100
AcDbSymbolTableRecord
100
AcDbBlockTableRecord
  2
*D2
340
0
  0
BLOCK_RECORD
  5
EB
330
1
100
AcDbSymbolTableRecord
100
AcDbBlockTableRecord
  2
*D3
340
0
  0
BLOCK_RECORD
  5
F6
330
1
100
AcDbSymbolTableRecord
100
AcDbBlockTableRecord
  2
*D4
340
0
  0
BLOCK_RECORD
  5
103
330
1
100
AcDbSymbolTableRecord
100
AcDbBlockTableRecord
  2
*D5
340
0
  0
BLOCK_RECORD
  5
10E
330
1
100
AcDbSymbolTableRecord
100
AcDbBlockTableRecord
  2
*D6
340
0
  0
BLOCK_RECORD
  5
119
330
1
100
AcDbSymbolTableRecord
100
AcDbBlockTableRecord
  2
*D7
340
0
  0
BLOCK_RECORD
  5
124
330
1
100
AcDbSymbolTableRecord
100
AcDbBlockTableRecord
  2
*D8
340
0
  0
ENDTAB
  0
ENDSEC
  0
SECTION
  2
BLOCKS
  0
BLOCK
  5
20
330
1F
100
AcDbEntity
  8
0
100
AcDbBlockBegin
  2
*Model_Space
 70
     0
 10
0.0
 20
0.0
 30
0.0
  3
*Model_Space
  1

  0
ENDBLK
  5
21
330
1F
100
AcDbEntity
  8
0
100
AcDbBlockEnd
  0
BLOCK
  5
1C
330
1B
100
AcDbEntity
 67
     1
  8
0
100
AcDbBlockBegin
  2
*Paper_Space
 70
     0
 10
0.0
 20
0.0
 30
0.0
  3
*Paper_Space
  1

  0
ENDBLK
  5
1D
330
1B
100
AcDbEntity
 67
     1
  8
0
100
AcDbBlockEnd
  0
BLOCK
  5
24
330
23
100
AcDbEntity
  8
0
100
AcDbBlockBegin
  2
*Paper_Space0
 70
     0
 10
0.0
 20
0.0
 30
0.0
  3
*Paper_Space0
  1

  0
ENDBLK
  5
25
330
23
100
AcDbEntity
  8
0
100
AcDbBlockEnd
  0
BLOCK
  5
45
330
44
100
AcDbEntity
  8
0
100
AcDbBlockBegin
  2
Urheberrecht
 70
     0
 10
-98.1707983011004
 20
35.35212643711898
 30
0.0
  3
Urheberrecht
  1

  0
MTEXT
  5
6B
330
44
100
AcDbEntity
  8
RAHMEN
 62
     1
100
AcDbMText
 10
-84.17079830110042
 20
35.35212643711898
 30
0.0
 40
2.0
 41
0.0
 71
     7
 72
     1
  1
Dritten zug\U+00e4nglich gemacht werden.
  7
CONVERTER_11
 11
6.123031769111886E-17
 21
1.0
 31
0.0
 73
     1
 44
1.32052821128451
  0
MTEXT
  5
6D
330
44
100
AcDbEntity
  8
RAHMEN
 62
     1
100
AcDbMText
 10
-87.17079830110042
 20
35.35212643711898
 30
0.0
 40
2.0
 41
0.0
 71
     7
 72
     1
  1
Zustimmung weder vervielf\U+00e4ltigt noch
  7
CONVERTER_12
 11
6.123031769111886E-17
 21
1.0
 31
0.0
 73
     1
 44
1.32052821128451
  0
MTEXT
  5
6F
330
44
100
AcDbEntity
  8
RAHMEN
 62
     1
100
AcDbMText
 10
-90.17079830110042
 20
35.35212643711898
 30
0.0
 40
2.0
 41
0.0
 71
     7
 72
     1
  1
bestimmten Zweck benutzt und ohne unsere
  7
CONVERTER_13
 11
6.123031769111886E-17
 21
1.0
 31
0.0
 73
     1
 44
1.32052821128451
  0
MTEXT
  5
70
330
44
100
AcDbEntity
  8
RAHMEN
 62
     1
100
AcDbMText
 10
-93.17079830110042
 20
35.35212643711898
 30
0.0
 40
2.0
 41
0.0
 71
     7
 72
     1
  1
heberrecht. Sie darf nur f\U+00fcr den von uns
  7
CONVERTER_13
 11
6.123031769111886E-17
 21
1.0
 31
0.0
 73
     1
 44
1.32052821128451
  0
MTEXT
  5
71
330
44
100
AcDbEntity
  8
RAHMEN
 62
     1
100
AcDbMText
 10
-96.1707983011004
 20
35.35212643711898
 30
0.0
 40
2.0
 41
0.0
 71
     7
 72
     1
  1
F\U+00fcr diese Unterlage behalten wir das Ur-
  7
CONVERTER_13
 11
6.123031769111886E-17
 21
1.0
 31
0.0
 73
     1
 44
1.32052821128451
  0
ENDBLK
  5
46
330
44
100
AcDbEntity
  8
0
100
AcDbBlockEnd
  0
BLOCK
  5
E7
330
DF
100
AcDbEntity
  8
0
100
AcDbBlockBegin
  2
*D2
 70
     1
 10
0.0
 20
0.0
 30
0.0
  3
*D2
  1

  0
LINE
  5
E0
330
DF
100
AcDbEntity
  8
1
  6
Continuous
 62
     2
100
AcDbLine
 10
63.6181939706963
 20
54.09500000000001
 30
0.0
 11
63.6181939706963
 21
66.095
 31
0.0
  0
LINE
  5
E1
330
DF
100
AcDbEntity
  8
1
  6
Continuous
 62
     2
100
AcDbLine
 10
51.40800000000001
 20
54.09500000000001
 30
0.0
 11
65.6181939706963
 21
54.09500000000001
 31
0.0
  0
LINE
  5
E2
330
DF
100
AcDbEntity
  8
1
  6
Continuous
 62
     2
100
AcDbLine
 10
51.40800000000001
 20
66.095
 30
0.0
 11
65.6181939706963
 21
66.095
 31
0.0
  0
SOLID
  5
E3
330
DF
100
AcDbEntity
  8
1
 62
     2
100
AcDbTrace
 10
63.15741022914042
 20
57.59500000000001
 30
0.0
 11
64.07897771225218
 21
57.59500000000001
 31
0.0
 12
63.6181939706963
 22
54.09500000000001
 32
0.0
 13
63.6181939706963
 23
54.09500000000001
 33
0.0
  0
SOLID
  5
E4
330
DF
100
AcDbEntity
  8
1
 62
     2
100
AcDbTrace
 10
64.07897771225218
 20
62.595
 30
0.0
 11
63.15741022914042
 21
62.595
 31
0.0
 12
63.6181939706963
 22
66.095
 32
0.0
 13
63.6181939706963
 23
66.095
 33
0.0
  0
MTEXT
  5
E6
330
DF
100
AcDbEntity
  8
1
 62
     3
100
AcDbMText
 10
61.6181939706963
 20
52.08245481826999
 30
0.0
 40
3.5
 41
0.0
 71
     7
 72
     1
  1
\C3;%%c\C3;\C3;12\C2;\H2.45;\S^ ;\C3;
  7
CONVERTER_14
 11
0.0
 21
1.0
 31
0.0
 73
     1
 44
0.60024009603842
  0
ENDBLK
  5
E8
330
DF
100
AcDbEntity
  8
0
100
AcDbBlockEnd
  0
BLOCK
  5
F2
330
EB
100
AcDbEntity
  8
0
100
AcDbBlockBegin
  2
*D3
 70
     1
 10
0.0
 20
0.0
 30
0.0
  3
*D3
  1

  0
LINE
  5
EC
330
EB
100
AcDbEntity
  8
1
  6
Continuous
 62
     2
100
AcDbLine
 10
73.89001224141398
 20
72.095
 30
0.0
 11
73.89001224141398
 21
48.09411389659919
 31
0.0
  0
LINE
  5
ED
330
EB
100
AcDbEntity
  8
1
  6
Continuous
 62
     2
100
AcDbLine
 10
51.40803229758137
 20
48.09411389659919
 30
0.0
 11
75.89001224141398
 21
48.09411389659919
 31
0.0
  0
LINE
  5
EE
330
EB
100
AcDbEntity
  8
1
  6
Continuous
 62
     2
100
AcDbLine
 10
51.40799999999999
 20
72.095
 30
0.0
 11
75.89001224141398
 21
72.095
 31
0.0
  0
SOLID
  5
EF
330
EB
100
AcDbEntity
  8
1
 62
     2
100
AcDbTrace
 10
74.35079598296987
 20
68.595
 30
0.0
 11
73.4292284998581
 21
68.595
 31
0.0
 12
73.89001224141398
 22
72.095
 32
0.0
 13
73.89001224141398
 23
72.095
 33
0.0
  0
SOLID
  5
F0
330
EB
100
AcDbEntity
  8
1
 62
     2
100
AcDbTrace
 10
73.4292284998581
 20
51.59411389659919
 30
0.0
 11
74.35079598296987
 21
51.59411389659919
 31
0.0
 12
73.89001224141398
 22
48.09411389659919
 32
0.0
 13
73.89001224141398
 23
48.09411389659919
 33
0.0
  0
MTEXT
  5
F1
330
EB
100
AcDbEntity
  8
1
 62
     3
100
AcDbMText
 10
71.89001224141398
 20
51.09873074957738
 30
0.0
 40
3.5
 41
0.0
 71
     7
 72
     1
  1
\C3;%%c\C3;\C3;24\C2;\H2.45;\S^ ;\C3;
  7
CONVERTER_14
 11
0.0
 21
1.0
 31
0.0
 73
     1
 44
0.60024009603842
  0
ENDBLK
  5
F3
330
EB
100
AcDbEntity
  8
0
100
AcDbBlockEnd
  0
BLOCK
  5
FF
330
F6
100
AcDbEntity
  8
0
100
AcDbBlockBegin
  2
*D4
 70
     1
 10
0.0
 20
0.0
 30
0.0
  3
*D4
  1

  0
LINE
  5
F7
330
F6
100
AcDbEntity
  8
1
  6
Continuous
 62
     2
100
AcDbLine
 10
83.26862892337303
 20
76.095
 30
0.0
 11
83.26862892337303
 21
44.095
 31
0.0
  0
LINE
  5
F8
330
F6
100
AcDbEntity
  8
1
  6
Continuous
 62
     2
100
AcDbLine
 10
51.00897713819029
 20
76.095
 30
0.0
 11
85.26862892337303
 21
76.095
 31
0.0
  0
LINE
  5
F9
330
F6
100
AcDbEntity
  8
1
  6
Continuous
 62
     2
100
AcDbLine
 10
0.70851822518441
 20
76.095
 30
0.0
 11
47.89742144358449
 21
76.095
 31
0.0
  0
LINE
  5
FA
330
F6
100
AcDbEntity
  8
1
  6
Continuous
 62
     2
100
AcDbLine
 10
51.3201327076509
 20
44.095
 30
0.0
 11
85.26862892337303
 21
44.095
 31
0.0
  0
LINE
  5
FB
330
F6
100
AcDbEntity
  8
1
  6
Continuous
 62
     2
100
AcDbLine
 10
0.69251822518439
 20
44.095
 30
0.0
 11
47.79370292043101
 21
44.095
 31
0.0
  0
SOLID
  5
FC
330
F6
100
AcDbEntity
  8
1
 62
     2
100
AcDbTrace
 10
83.72941266492892
 20
72.595
 30
0.0
 11
82.80784518181714
 21
72.595
 31
0.0
 12
83.26862892337303
 22
76.095
 32
0.0
 13
83.26862892337303
 23
76.095
 33
0.0
  0
SOLID
  5
FD
330
F6
100
AcDbEntity
  8
1
 62
     2
100
AcDbTrace
 10
82.80784518181714
 20
47.595
 30
0.0
 11
83.72941266492892
 21
47.595
 31
0.0
 12
83.26862892337303
 22
44.095
 32
0.0
 13
83.26862892337303
 23
44.095
 33
0.0
  0
MTEXT
  5
FE
330
F6
100
AcDbEntity
  8
1
 62
     3
100
AcDbMText
 10
81.26862892337303
 20
50.5640604669294
 30
0.0
 40
3.5
 41
0.0
 71
     7
 72
     1
  1
\C3;%%c\C3;\C3;32\C2;\H2.45;\S^ ;\C3;
  7
CONVERTER_14
 11
0.0
 21
1.0
 31
0.0
 73
     1
 44
0.60024009603842
  0
ENDBLK
  5
100
330
F6
100
AcDbEntity
  8
0
100
AcDbBlockEnd
  0
BLOCK
  5
10A
330
103
100
AcDbEntity
  8
0
100
AcDbBlockBegin
  2
*D5
 70
     1
 10
0.0
 20
0.0
 30
0.0
  3
*D5
  1

  0
LINE
  5
104
330
103
100
AcDbEntity
  8
1
  6
Continuous
 62
     2
100
AcDbLine
 10
49.40799999999999
 20
103.809217720686
 30
0.0
 11
-30.59200000000004
 21
103.809217720686
 31
0.0
  0
LINE
  5
105
330
103
100
AcDbEntity
  8
1
  6
Continuous
 62
     2
100
AcDbLine
 10
-30.59200000000003
 20
79.57892170224929
 30
0.0
 11
-30.59200000000003
 21
105.809217720686
 31
0.0
  0
LINE
  5
106
330
103
100
AcDbEntity
  8
1
  6
Continuous
 62
     2
100
AcDbLine
 10
49.40800000000002
 20
74.095
 30
0.0
 11
49.40800000000002
 21
105.809217720686
 31
0.0
  0
SOLID
  5
107
330
103
100
AcDbEntity
  8
1
 62
     2
100
AcDbTrace
 10
45.90799999999999
 20
103.3484339791301
 30
0.0
 11
45.90799999999999
 21
104.2700014622419
 31
0.0
 12
49.40799999999999
 22
103.809217720686
 32
0.0
 13
49.40799999999999
 23
103.809217720686
 33
0.0
  0
SOLID
  5
108
330
103
100
AcDbEntity
  8
1
 62
     2
100
AcDbTrace
 10
-27.09200000000004
 20
104.2700014622419
 30
0.0
 11
-27.09200000000004
 21
103.3484339791301
 31
0.0
 12
-30.59200000000004
 22
103.809217720686
 32
0.0
 13
-30.59200000000004
 23
103.809217720686
 33
0.0
  0
MTEXT
  5
109
330
103
100
AcDbEntity
  8
1
 62
     3
100
AcDbMText
 10
8.38713004457969
 20
105.809217720686
 30
0.0
 40
3.5
 41
0.0
 71
     7
 72
     1
  1
\C3;\C3;\C3;80\C2;\H2.45;\S^ ;\C3;
  7
CONVERTER_14
 11
0.9999999999970619
 21
2.424068405545306E-6
 31
0.0
 73
     1
 44
0.60024009603842
  0
ENDBLK
  5
10B
330
103
100
AcDbEntity
  8
0
100
AcDbBlockEnd
  0
BLOCK
  5
115
330
10E
100
AcDbEntity
  8
0
100
AcDbBlockBegin
  2
*D6
 70
     1
 10
0.0
 20
0.0
 30
0.0
  3
*D6
  1

  0
LINE
  5
10F
330
10E
100
AcDbEntity
  8
1
  6
Continuous
 62
     2
100
AcDbLine
 10
-11.49199999999994
 20
95.2150936844225
 30
0.0
 11
49.40800000000001
 21
95.2150936844225
 31
0.0
  0
LINE
  5
110
330
10E
100
AcDbEntity
  8
1
  6
Continuous
 62
     2
100
AcDbLine
 10
49.40800000000001
 20
74.095
 30
0.0
 11
49.40800000000001
 21
97.2150936844225
 31
0.0
  0
LINE
  5
111
330
10E
100
AcDbEntity
  8
1
  6
Continuous
 62
     2
100
AcDbLine
 10
-11.49199999999994
 20
86.09499999999994
 30
0.0
 11
-11.49199999999994
 21
97.2150936844225
 31
0.0
  0
SOLID
  5
112
330
10E
100
AcDbEntity
  8
1
 62
     2
100
AcDbTrace
 10
-7.99199999999994
 20
95.67587742597838
 30
0.0
 11
-7.99199999999994
 21
94.75430994286661
 31
0.0
 12
-11.49199999999994
 22
95.2150936844225
 32
0.0
 13
-11.49199999999994
 23
95.2150936844225
 33
0.0
  0
SOLID
  5
113
330
10E
100
AcDbEntity
  8
1
 62
     2
100
AcDbTrace
 10
45.90800000000001
 20
94.75430994286661
 30
0.0
 11
45.90800000000001
 21
95.67587742597838
 31
0.0
 12
49.40800000000001
 22
95.2150936844225
 32
0.0
 13
49.40800000000001
 23
95.2150936844225
 33
0.0
  0
MTEXT
  5
114
330
10E
100
AcDbEntity
  8
1
 62
     3
100
AcDbMText
 10
16.80859348031583
 20
97.2150936844225
 30
0.0
 40
3.5
 41
0.0
 71
     7
 72
     1
  1
\C3;\C3;\C3;60.9\C2;\H2.45;\S^ ;\C3;
  7
CONVERTER_14
 11
0.9999999999970619
 21
2.424068405545306E-6
 31
0.0
 73
     1
 44
0.60024009603842
  0
ENDBLK
  5
116
330
10E
100
AcDbEntity
  8
0
100
AcDbBlockEnd
  0
BLOCK
  5
120
330
119
100
AcDbEntity
  8
0
100
AcDbBlockBegin
  2
*D7
 70
     1
 10
0.0
 20
0.0
 30
0.0
  3
*D7
  1

  0
LINE
  5
11A
330
119
100
AcDbEntity
  8
1
  6
Continuous
 62
     2
100
AcDbLine
 10
-78.39200000000002
 20
24.4788420013298
 30
0.0
 11
49.40803229758137
 21
24.4788420013298
 31
0.0
  0
LINE
  5
11B
330
119
100
AcDbEntity
  8
1
  6
Continuous
 62
     2
100
AcDbLine
 10
49.4080322975814
 20
46.09411389659921
 30
0.0
 11
49.4080322975814
 21
22.4788420013298
 31
0.0
  0
LINE
  5
11C
330
119
100
AcDbEntity
  8
1
  6
Continuous
 62
     2
100
AcDbLine
 10
-78.39200000000002
 20
49.19129770515306
 30
0.0
 11
-78.39200000000002
 21
22.4788420013298
 31
0.0
  0
SOLID
  5
11D
330
119
100
AcDbEntity
  8
1
 62
     2
100
AcDbTrace
 10
-74.89200000000002
 20
24.93962574288568
 30
0.0
 11
-74.89200000000002
 21
24.01805825977391
 31
0.0
 12
-78.39200000000002
 22
24.4788420013298
 32
0.0
 13
-78.39200000000002
 23
24.4788420013298
 33
0.0
  0
SOLID
  5
11E
330
119
100
AcDbEntity
  8
1
 62
     2
100
AcDbTrace
 10
45.90803229758137
 20
24.01805825977391
 30
0.0
 11
45.90803229758137
 21
24.93962574288568
 31
0.0
 12
49.40803229758137
 22
24.4788420013298
 32
0.0
 13
49.40803229758137
 23
24.4788420013298
 33
0.0
  0
MTEXT
  5
11F
330
119
100
AcDbEntity
  8
1
 62
     3
100
AcDbMText
 10
-17.62918995799441
 20
26.4788420013298
 30
0.0
 40
3.5
 41
0.0
 71
     7
 72
     1
  1
\C3;\C3;\C3;127.8\C2;\H2.45;\S^ ;\C3;
  7
CONVERTER_14
 11
0.9999999999970619
 21
2.424068405545306E-6
 31
0.0
 73
     1
 44
0.60024009603842
  0
ENDBLK
  5
121
330
119
100
AcDbEntity
  8
0
100
AcDbBlockEnd
  0
BLOCK
  5
12B
330
124
100
AcDbEntity
  8
0
100
AcDbBlockBegin
  2
*D8
 70
     1
 10
0.0
 20
0.0
 30
0.0
  3
*D8
  1

  0
LINE
  5
125
330
124
100
AcDbEntity
  8
1
  6
Continuous
 62
     2
100
AcDbLine
 10
0.70851822518441
 20
76.095
 30
0.0
 11
35.42326753270988
 21
76.095
 31
0.0
  0
LINE
  5
126
330
124
100
AcDbEntity
  8
1
  6
Continuous
 62
     2
100
AcDbLine
 10
35.42326753270988
 20
76.095
 30
0.0
 11
37.42326753270988
 21
76.095
 31
0.0
  0
ARC
  5
127
330
124
100
AcDbEntity
  8
1
  6
Continuous
 62
     2
100
AcDbCircle
 10
-1.29148177481559
 20
76.095
 30
0.0
 40
36.71474930752547
100
AcDbArc
 50
347.307594068736
 51
18.00574989651166
  0
SOLID
  5
128
330
124
100
AcDbEntity
  8
1
 62
     2
100
AcDbTrace
 10
35.32672595543612
 20
69.684592066936
 30
0.0
 11
34.4124867718806
 21
69.8005806059418
 31
0.0
 12
35.31011657474951
 22
73.21475435569207
 32
0.0
 13
35.31011657474951
 23
73.21475435569207
 33
0.0
  0
SOLID
  5
129
330
124
100
AcDbEntity
  8
1
 62
     2
100
AcDbTrace
 10
34.79624360162561
 20
79.56907004050434
 30
0.0
 11
35.71676441447691
 21
79.61297970955992
 31
0.0
 12
35.42326753270988
 22
76.095
 32
0.0
 13
35.42326753270988
 23
76.095
 33
0.0
  0
MTEXT
  5
12A
330
124
100
AcDbEntity
  8
1
 62
     3
100
AcDbMText
 10
35.680397975741
 20
88.11199407734428
 30
0.0
 40
3.5
 41
0.0
 71
     7
 72
     1
  1
\C3;\C3;\C3;4.5%%d\C2;\H2.45;\S^ ;\C3;
  7
CONVERTER_14
 11
0.2213545369341618
 21
-0.9751934008075849
 31
0.0
 73
     1
 44
0.60024009603842
  0
ENDBLK
  5
12C
330
124
100
AcDbEntity
  8
0
100
AcDbBlockEnd
  0
ENDSEC
  0
SECTION
  2
ENTITIES
  0
INSERT
  5
69
330
1F
100
AcDbEntity
  8
1
100
AcDbBlockReference
  2
Urheberrecht
 10
-98.1707983011004
 20
35.35212643711898
 30
0.0
  0
LWPOLYLINE
  5
72
330
1F
100
AcDbEntity
  8
1
  6
Continuous
 62
     7
100
AcDbPolyline
 90
        2
 70
     0
 43
0.5
 10
-11.49199999999993
 20
68.14499999999995
 10
-11.49200000000002
 20
52.04500000000002
  0
LWPOLYLINE
  5
73
330
1F
100
AcDbEntity
  8
1
  6
Continuous
 62
     7
100
AcDbPolyline
 90
        2
 70
     0
 43
0.5
 10
-17.61699999999996
 20
82.24499999999998
 10
-17.61699999999996
 20
82.49259526419164
  0
LWPOLYLINE
  5
74
330
1F
100
AcDbEntity
  8
1
  6
Continuous
 62
     7
100
AcDbPolyline
 90
        2
 70
     0
 43
0.5
 10
-21.36699999999996
 20
82.24499999999998
 10
-21.36699999999996
 20
68.14499999999995
  0
LWPOLYLINE
  5
75
330
1F
100
AcDbEntity
  8
1
  6
Continuous
 62
     7
100
AcDbPolyline
 90
        2
 70
     0
 43
0.5
 10
-17.61699999999996
 20
37.94499999999999
 10
-17.61699999999996
 20
37.74499999999998
  0
LWPOLYLINE
  5
76
330
1F
100
AcDbEntity
  8
1
  6
Continuous
 62
     7
100
AcDbPolyline
 90
        2
 70
     0
 43
0.5
 10
-21.36699999999996
 20
37.94499999999999
 10
-21.36699999999996
 20
42.99707068367266
  0
LWPOLYLINE
  5
77
330
1F
100
AcDbEntity
  8
1
  6
Continuous
 62
     7
100
AcDbPolyline
 90
        2
 70
     0
 43
0.5
 10
-78.39200000000001
 20
53.01764973081038
 10
-78.39200000000001
 20
52.05603379520258
  0
LWPOLYLINE
  5
78
330
1F
100
AcDbEntity
  8
1
  6
DOT_CENTER
 62
     7
100
AcDbPolyline
 90
        2
 70
     0
 43
0.25
 10
-74.89200000000002
 20
60.095
 10
-39.62071870788978
 20
60.095
  0
LWPOLYLINE
  5
79
330
1F
100
AcDbEntity
  8
1
  6
DOT_CENTER
 62
     7
100
AcDbPolyline
 90
        2
 70
     0
 43
0.25
 10
-39.62071870788978
 20
60.095
 10
53.22792598941757
 20
60.095
  0
LWPOLYLINE
  5
7A
330
1F
100
AcDbEntity
  8
1
  6
Continuous
 62
     7
100
AcDbPolyline
 90
        2
 70
     0
 43
0.5
 10
-78.39200000000011
 20
67.1723502691896
 10
-78.39200000000001
 20
53.01764973081038
  0
LWPOLYLINE
  5
7B
330
1F
100
AcDbEntity
  8
1
  6
DOT_CENTER
 62
     7
100
AcDbPolyline
 90
        2
 70
     0
 43
0.25
 10
-79.97207401058246
 20
60.095
 10
-74.89200000000002
 20
60.095
  0
LWPOLYLINE
  5
7C
330
1F
100
AcDbEntity
  8
1
  6
Continuous
 62
     7
100
AcDbPolyline
 90
        2
 70
     0
 43
0.5
 10
-22.86949907475938
 20
35.095
 10
-26.39200000000002
 20
35.095
  0
LWPOLYLINE
  5
7D
330
1F
100
AcDbEntity
  8
1
  6
Continuous
 62
     7
100
AcDbPolyline
 90
        2
 70
     0
 43
0.5
 10
-21.36700000000002
 20
37.69740473580836
 10
-22.86949907475938
 20
35.095
  0
LWPOLYLINE
  5
7E
330
1F
100
AcDbEntity
  8
1
  6
Continuous
 62
     7
100
AcDbPolyline
 90
        2
 70
     0
 43
0.5
 10
-21.36699999999996
 20
37.74499999999998
 10
-21.36700000000002
 20
37.69740473580836
  0
LWPOLYLINE
  5
7F
330
1F
100
AcDbEntity
  8
1
  6
Continuous
 62
     7
100
AcDbPolyline
 90
        2
 70
     0
 43
0.5
 10
-18.03527570066251
 20
37.94499999999999
 10
-20.94872429933753
 20
37.94499999999999
  0
LWPOLYLINE
  5
80
330
1F
100
AcDbEntity
  8
1
  6
Continuous
 62
     7
100
AcDbPolyline
 90
        2
 70
     0
 43
0.5
 10
-17.61699999999996
 20
37.69740473580836
 10
-17.61699999999996
 20
37.74499999999998
  0
LWPOLYLINE
  5
81
330
1F
100
AcDbEntity
  8
1
  6
Continuous
 62
     7
100
AcDbPolyline
 90
        2
 70
     0
 43
0.5
 10
-16.11450092524069
 20
35.095
 10
-17.61699999999996
 20
37.69740473580836
  0
LWPOLYLINE
  5
82
330
1F
100
AcDbEntity
  8
1
  6
Continuous
 62
     7
100
AcDbPolyline
 90
        2
 70
     0
 43
0.5
 10
-12.49200000000002
 20
35.095
 10
-16.11450092524069
 20
35.095
  0
LWPOLYLINE
  5
83
330
1F
100
AcDbEntity
  8
1
  6
Continuous
 62
     7
100
AcDbPolyline
 90
        2
 70
     0
 43
0.5
 10
-16.11450092524069
 20
85.095
 10
-12.49200000000002
 20
85.095
  0
LWPOLYLINE
  5
84
330
1F
100
AcDbEntity
  8
1
  6
Continuous
 62
     7
100
AcDbPolyline
 90
        2
 70
     0
 43
0.5
 10
-17.61699999999996
 20
82.49259526419164
 10
-16.11450092524069
 20
85.095
  0
LWPOLYLINE
  5
85
330
1F
100
AcDbEntity
  8
1
  6
Continuous
 62
     7
100
AcDbPolyline
 90
        2
 70
     0
 43
0.5
 10
-17.61699999999996
 20
68.14499999999995
 10
-17.61699999999996
 20
82.24499999999998
  0
LWPOLYLINE
  5
86
330
1F
100
AcDbEntity
  8
1
  6
Continuous
 62
     7
100
AcDbPolyline
 90
        2
 70
     0
 43
0.5
 10
-20.92183353878829
 20
82.24499999999998
 10
-18.06216646121163
 20
82.24499999999998
  0
LWPOLYLINE
  5
87
330
1F
100
AcDbEntity
  8
1
  6
Continuous
 62
     7
100
AcDbPolyline
 90
        2
 70
     0
 43
0.5
 10
-21.36699999999996
 20
82.49259526419169
 10
-21.36699999999996
 20
82.24499999999998
  0
LWPOLYLINE
  5
88
330
1F
100
AcDbEntity
  8
1
  6
Continuous
 62
     7
100
AcDbPolyline
 90
        2
 70
     0
 43
0.5
 10
-22.86949907475938
 20
85.095
 10
-21.36699999999996
 20
82.49259526419169
  0
LWPOLYLINE
  5
89
330
1F
100
AcDbEntity
  8
1
  6
DOT_CENTER
 62
     7
100
AcDbPolyline
 90
        2
 70
     0
 43
0.25
 10
-19.49199999999996
 20
60.095
 10
-19.49199999999996
 20
85.095
  0
LWPOLYLINE
  5
8A
330
1F
100
AcDbEntity
  8
1
  6
Continuous
 62
     7
100
AcDbPolyline
 90
        2
 70
     0
 43
0.5
 10
-30.06700000000004
 20
44.56999999999999
 10
-28.39200000000002
 20
44.56999999999999
  0
LWPOLYLINE
  5
8B
330
1F
100
AcDbEntity
  8
1
  6
Continuous
 62
     7
100
AcDbPolyline
 90
        2
 70
     0
 43
0.5
 10
-31.09787385022437
 20
44.293778184334
 10
-30.06700000000004
 20
44.56999999999999
  0
LWPOLYLINE
  5
8C
330
1F
100
AcDbEntity
  8
1
  6
Continuous
 62
     7
100
AcDbPolyline
 90
        2
 70
     0
 43
0.5
 10
-31.09787385022437
 20
75.89622181566594
 10
-40.58824857269931
 20
74.5121166373431
  0
LWPOLYLINE
  5
8D
330
1F
100
AcDbEntity
  8
1
  6
Continuous
 62
     7
100
AcDbPolyline
 90
        2
 70
     0
 43
0.5
 10
-30.06700000000004
 20
75.61999999999998
 10
-31.09787385022437
 20
75.89622181566594
  0
LWPOLYLINE
  5
8E
330
1F
100
AcDbEntity
  8
1
  6
Continuous
 62
     7
100
AcDbPolyline
 90
        2
 70
     0
 43
0.5
 10
-28.39200000000002
 20
75.61999999999998
 10
-30.06700000000004
 20
75.61999999999998
  0
LWPOLYLINE
  5
8F
330
1F
100
AcDbEntity
  8
1
  6
Continuous
 62
     7
100
AcDbPolyline
 90
        2
 70
     0
 43
0.5
 10
-11.49200000000002
 20
36.095
 10
-11.49200000000002
 20
37.595
  0
LWPOLYLINE
  5
90
330
1F
100
AcDbEntity
  8
1
  6
Continuous
 62
     7
100
AcDbPolyline
 90
        2
 70
     0
 43
0.5
 10
-27.39200000000002
 20
43.56999999999999
 10
-27.39200000000002
 20
36.095
  0
LWPOLYLINE
  5
91
330
1F
100
AcDbEntity
  8
1
  6
Continuous
 62
     7
100
AcDbPolyline
 90
        2
 70
     0
 43
0.5
 10
-26.39200000000002
 20
85.095
 10
-22.86949907475938
 20
85.095
  0
LWPOLYLINE
  5
92
330
1F
100
AcDbEntity
  8
1
  6
Continuous
 62
     7
100
AcDbPolyline
 90
        2
 70
     0
 43
0.5
 10
-27.39200000000002
 20
76.61999999999998
 10
-27.39200000000002
 20
84.095
  0
LWPOLYLINE
  5
93
330
1F
100
AcDbEntity
  8
1
  6
DOT_CENTER
 62
     7
100
AcDbPolyline
 90
        2
 70
     0
 43
0.25
 10
-30.59200000000001
 20
77.57892170224929
 10
-30.59200000000001
 20
75.97
  0
LWPOLYLINE
  5
94
330
1F
100
AcDbEntity
  8
1
  6
Continuous
 62
     7
100
AcDbPolyline
 90
        2
 70
     0
 43
0.5
 10
-77.53631630606783
 20
51.06650218691362
 10
-42.60238095809265
 20
45.97163056927124
  0
LWPOLYLINE
  5
95
330
1F
100
AcDbEntity
  8
1
  6
Continuous
 62
     7
100
AcDbPolyline
 90
        2
 70
     0
 43
0.5
 10
-78.39200000000004
 20
68.13396620479736
 10
-78.39200000000011
 20
67.1723502691896
  0
LWPOLYLINE
  5
96
330
1F
100
AcDbEntity
  8
1
  6
Continuous
 62
     7
100
AcDbPolyline
 90
        2
 70
     0
 43
0.5
 10
-27.39200000000002
 20
76.61999999999998
 10
-27.39200000000002
 20
69.14499999999995
  0
LWPOLYLINE
  5
97
330
1F
100
AcDbEntity
  8
1
  6
Continuous
 62
     7
100
AcDbPolyline
 90
        2
 70
     0
 43
0.5
 10
-22.86949907475938
 20
85.095
 10
-22.86949907475938
 20
68.14499999999995
  0
LWPOLYLINE
  5
98
330
1F
100
AcDbEntity
  8
1
  6
Continuous
 62
     7
100
AcDbPolyline
 90
        2
 70
     0
 43
0.5
 10
-16.11450092524069
 20
35.095
 10
-16.11450092524069
 20
40.095
  0
LWPOLYLINE
  5
99
330
1F
100
AcDbEntity
  8
1
  6
Continuous
 62
     7
100
AcDbPolyline
 90
        2
 70
     0
 43
0.5
 10
-31.09787385022437
 20
75.89622181566594
 10
-31.09787385022437
 20
44.293778184334
  0
LWPOLYLINE
  5
9A
330
1F
100
AcDbEntity
  8
1
  6
Continuous
 62
     7
100
AcDbPolyline
 90
        2
 70
     0
 43
0.5
 10
-30.06700000000004
 20
44.56999999999999
 10
-30.06700000000004
 20
75.61999999999998
  0
LWPOLYLINE
  5
9B
330
1F
100
AcDbEntity
  8
1
  6
Continuous
 62
     7
100
AcDbPolyline
 90
        2
 70
     0
 43
0.5
 10
-21.36699999999996
 20
37.74499999999998
 10
-21.36699999999996
 20
37.94499999999999
  0
LWPOLYLINE
  5
9C
330
1F
100
AcDbEntity
  8
1
  6
Continuous
 62
     7
100
AcDbPolyline
 90
        2
 70
     0
 43
0.5
 10
-26.39200000000002
 20
68.14499999999995
 10
-11.49199999999993
 20
68.14499999999995
  0
LWPOLYLINE
  5
9D
330
1F
100
AcDbEntity
  8
1
  6
Continuous
 62
     7
100
AcDbPolyline
 90
        2
 70
     0
 43
0.5
 10
-26.39200000000002
 20
52.04500000000002
 10
-11.49200000000002
 20
52.04500000000002
  0
LWPOLYLINE
  5
9E
330
1F
100
AcDbEntity
  8
1
  6
Continuous
 62
     7
100
AcDbPolyline
 90
        2
 70
     0
 43
0.5
 10
-11.49200000000002
 20
52.04500000000002
 10
-11.49200000000002
 20
45.095
  0
LWPOLYLINE
  5
9F
330
1F
100
AcDbEntity
  8
1
  6
Continuous
 62
     7
100
AcDbPolyline
 90
        2
 70
     0
 43
0.5
 10
-16.11450092524069
 20
68.14499999999995
 10
-16.11450092524069
 20
85.095
  0
LWPOLYLINE
  5
A0
330
1F
100
AcDbEntity
  8
1
  6
Continuous
 62
     7
100
AcDbPolyline
 90
        2
 70
     0
 43
0.5
 10
-17.61699999999996
 20
52.04500000000002
 10
-17.61699999999996
 20
45.095
  0
LWPOLYLINE
  5
A1
330
1F
100
AcDbEntity
  8
1
  6
Continuous
 62
     7
100
AcDbPolyline
 90
        2
 70
     0
 43
0.5
 10
-22.52308891324557
 20
52.04500000000002
 10
-22.52308891324557
 20
45.095
  0
LWPOLYLINE
  5
A2
330
1F
100
AcDbEntity
  8
1
  6
Continuous
 62
     7
100
AcDbPolyline
 90
        2
 70
     0
 43
0.5
 10
-27.39200000000002
 20
40.095
 10
-22.86949907475938
 20
40.095
  0
LWPOLYLINE
  5
A3
330
1F
100
AcDbEntity
  8
1
  6
Continuous
 62
     7
100
AcDbPolyline
 90
        2
 70
     0
 43
0.5
 10
-22.86949907475938
 20
40.095
 10
-21.36699999999996
 20
42.66257653292092
  0
LWPOLYLINE
  5
A4
330
1F
100
AcDbEntity
  8
1
  6
Continuous
 62
     7
100
AcDbPolyline
 90
        2
 70
     0
 43
0.5
 10
-17.61700000000002
 20
42.66257653292092
 10
-16.11450092524069
 20
40.095
  0
LWPOLYLINE
  5
A5
330
1F
100
AcDbEntity
  8
1
  6
Continuous
 62
     7
100
AcDbPolyline
 90
        2
 70
     0
 43
0.5
 10
-16.11450092524069
 20
40.095
 10
-11.49200000000002
 20
40.095
  0
LWPOLYLINE
  5
A6
330
1F
100
AcDbEntity
  8
1
  6
Continuous
 62
     7
100
AcDbPolyline
 90
        2
 70
     0
 43
0.5
 10
-20.22058983848623
 20
43.79707068367267
 10
-18.76341016151378
 20
43.79707068367267
  0
LWPOLYLINE
  5
A7
330
1F
100
AcDbEntity
  8
1
  6
Continuous
 62
     7
100
AcDbPolyline
 90
        2
 70
     0
 43
0.5
 10
-11.49200000000002
 20
45.095
 10
-11.49200000000002
 20
37.595
  0
LWPOLYLINE
  5
A8
330
1F
100
AcDbEntity
  8
1
  6
Continuous
 62
     7
100
AcDbPolyline
 90
        2
 70
     0
 43
0.5
 10
-22.86949907475938
 20
40.095
 10
-22.86949907475938
 20
35.095
  0
LWPOLYLINE
  5
A9
330
1F
100
AcDbEntity
  8
1
  6
Continuous
 62
     7
100
AcDbPolyline
 90
        2
 70
     0
 43
0.5
 10
-16.46091108675446
 20
45.095
 10
-16.46091108675446
 20
52.04500000000002
  0
LWPOLYLINE
  5
AA
330
1F
100
AcDbEntity
  8
1
  6
Continuous
 62
     7
100
AcDbPolyline
 90
        2
 70
     0
 43
0.5
 10
-21.36699999999996
 20
45.095
 10
-21.36699999999996
 20
52.04500000000002
  0
LWPOLYLINE
  5
AB
330
1F
100
AcDbEntity
  8
1
  6
Continuous
 62
     7
100
AcDbPolyline
 90
        2
 70
     0
 43
0.5
 10
-17.61700000000002
 20
42.99707068367266
 10
-17.61699999999996
 20
37.94499999999999
  0
LWPOLYLINE
  5
AC
330
1F
100
AcDbEntity
  8
1
  6
Continuous
 62
     7
100
AcDbPolyline
 90
        2
 70
     0
 43
0.5
 10
-40.58824857269931
 20
74.5121166373431
 10
-77.53631630606783
 20
69.1234978130864
  0
LWPOLYLINE
  5
AD
330
1F
100
AcDbEntity
  8
1
  6
Continuous
 62
     7
100
AcDbPolyline
 90
        2
 70
     0
 43
0.5
 10
-42.60238095809265
 20
45.97163056927124
 10
-31.09787385022437
 20
44.293778184334
  0
LWPOLYLINE
  5
AE
330
1F
100
AcDbEntity
  8
1
  6
Continuous
 62
     7
100
AcDbPolyline
 90
        2
 70
     0
 43
0.5
 10
-27.39200000000002
 20
69.14499999999995
 10
-27.39200000000002
 20
51.04500000000002
  0
LWPOLYLINE
  5
AF
330
1F
100
AcDbEntity
  8
1
  6
Continuous
 62
     7
100
AcDbPolyline
 90
        2
 70
     0
 43
0.5
 10
-27.39200000000002
 20
51.04500000000002
 10
-27.39200000000002
 20
43.56999999999999
  0
LWPOLYLINE
  5
B0
330
1F
100
AcDbEntity
  8
1
  6
Continuous
 62
     7
100
AcDbPolyline
 90
        2
 70
     0
 43
0.5
 10
-26.39200000000002
 20
68.14499999999995
 10
-27.39200000000002
 20
69.14499999999995
  0
LWPOLYLINE
  5
B1
330
1F
100
AcDbEntity
  8
1
  6
Continuous
 62
     7
100
AcDbPolyline
 90
        2
 70
     0
 43
0.5
 10
-27.39200000000002
 20
51.04500000000002
 10
-26.39200000000002
 20
52.04500000000002
  0
LWPOLYLINE
  5
B2
330
1F
100
AcDbEntity
  8
1
  6
Continuous
 62
     7
100
AcDbPolyline
 90
        2
 70
     0
 43
0.25
 10
-30.59200000000001
 20
75.97
 10
-31.37321778264916
 20
75.97
  0
LWPOLYLINE
  5
B3
330
1F
100
AcDbEntity
  8
1
  6
DOT_CENTER
 62
     7
100
AcDbPolyline
 90
        2
 70
     0
 43
0.25
 10
-30.59200000000001
 20
75.97
 10
-30.59200000000001
 20
42.17892170224928
  0
LWPOLYLINE
  5
B4
330
1F
100
AcDbEntity
  8
1
  6
Continuous
 62
     7
100
AcDbPolyline
 90
        2
 70
     0
 43
0.25
 10
-31.37321778264916
 20
44.22
 10
-30.59200000000001
 20
44.22
  0
LWPOLYLINE
  5
B5
330
1F
100
AcDbEntity
  8
1
  6
Continuous
 62
     7
100
AcDbPolyline
 90
        2
 70
     0
 43
0.25
 10
-78.39200000000001
 20
52.05603379520258
 10
-78.39200000000001
 20
51.19129770515306
  0
LWPOLYLINE
  5
B6
330
1F
100
AcDbEntity
  8
1
  6
Continuous
 62
     7
100
AcDbPolyline
 90
        2
 70
     0
 43
0.25
 10
-77.53631630606783
 20
51.06650218691362
 10
-78.39200000000001
 20
51.19129770515306
  0
LWPOLYLINE
  5
B7
330
1F
100
AcDbEntity
  8
1
  6
Continuous
 62
     7
100
AcDbPolyline
 90
        2
 70
     0
 43
0.25
 10
-77.53631630606783
 20
69.1234978130864
 10
-78.39200000000001
 20
68.99870229484694
  0
LWPOLYLINE
  5
B8
330
1F
100
AcDbEntity
  8
1
  6
Continuous
 62
     7
100
AcDbPolyline
 90
        2
 70
     0
 43
0.25
 10
-78.39200000000004
 20
68.13396620479736
 10
-78.39200000000001
 20
68.99870229484694
  0
LWPOLYLINE
  5
B9
330
1F
100
AcDbEntity
  8
1
  6
DOT_CENTER
 62
     7
100
AcDbPolyline
 90
        2
 70
     0
 43
0.25
 10
-19.4920000000001
 20
35.095
 10
-19.49199999999996
 20
60.095
  0
LWPOLYLINE
  5
BA
330
1F
100
AcDbEntity
  8
1
  6
Continuous
 62
     7
100
AcDbPolyline
 90
        2
 70
     0
 43
0.5
 10
-11.49199999999993
 20
84.09499999999994
 10
-11.49199999999993
 20
80.19499999999996
  0
LWPOLYLINE
  5
BB
330
1F
100
AcDbEntity
  8
1
  6
Continuous
 62
     7
100
AcDbPolyline
 90
        2
 70
     0
 43
0.5
 10
-22.52308891324557
 20
45.095
 10
-11.49200000000002
 20
45.095
  0
LWPOLYLINE
  5
BC
330
1F
100
AcDbEntity
  8
1
  6
Continuous
 62
     7
100
AcDbPolyline
 90
        2
 70
     0
 43
0.5
 10
-22.52308891324557
 20
45.095
 10
-27.39200000000002
 20
45.095
  0
LWPOLYLINE
  5
BD
330
1F
100
AcDbEntity
  8
1
  6
Continuous
 62
     7
100
AcDbPolyline
 90
        2
 70
     0
 43
0.5
 10
-11.49199999999993
 20
80.19499999999996
 10
-11.49199999999993
 20
68.14499999999995
  0
LWPOLYLINE
  5
BE
330
1F
100
AcDbEntity
  8
1
  6
Continuous
 62
     7
100
AcDbPolyline
 90
        2
 70
     0
 43
0.5
 10
-11.49199999999993
 20
77.79499999999993
 10
-11.49199999999993
 20
77.93435559727558
  0
LWPOLYLINE
  5
BF
330
1F
100
AcDbEntity
  8
1
  6
Continuous
 62
     7
100
AcDbPolyline
 90
        2
 70
     0
 43
0.5
 10
-1.29148177481559
 20
76.095
 10
-9.49199999999999
 20
76.095
  0
LWPOLYLINE
  5
C0
330
1F
100
AcDbEntity
  8
1
  6
Continuous
 62
     7
100
AcDbPolyline
 90
        2
 70
     0
 43
0.5
 10
48.48500000000001
 20
72.17799906873906
 10
-1.29148177481559
 20
76.095
  0
LWPOLYLINE
  5
C1
330
1F
100
AcDbEntity
  8
1
  6
Continuous
 62
     7
100
AcDbPolyline
 90
        2
 70
     0
 43
0.5
 10
48.48500000000001
 20
48.02200000000002
 10
-1.30748177481561
 20
44.095
  0
LWPOLYLINE
  5
C2
330
1F
100
AcDbEntity
  8
1
  6
Continuous
 62
     7
100
AcDbPolyline
 90
        2
 70
     0
 43
0.5
 10
-1.30748177481561
 20
44.095
 10
-9.49199999999999
 20
44.095
  0
LWPOLYLINE
  5
C3
330
1F
100
AcDbEntity
  8
1
  6
Continuous
 62
     7
100
AcDbPolyline
 90
        2
 70
     0
 43
0.5
 10
49.40800000000002
 20
49.00191880269637
 10
49.40800000000002
 20
71.16499906873904
  0
LWPOLYLINE
  5
C4
330
1F
100
AcDbEntity
  8
1
  6
Continuous
 62
     7
100
AcDbPolyline
 90
        2
 70
     0
 43
0.25
 10
48.48500000000001
 20
72.17799906873906
 10
49.40800000000002
 20
72.095
  0
LWPOLYLINE
  5
C5
330
1F
100
AcDbEntity
  8
1
  6
Continuous
 62
     7
100
AcDbPolyline
 90
        2
 70
     0
 43
0.25
 10
49.40800000000002
 20
71.16499906873904
 10
49.40800000000002
 20
72.095
  0
LWPOLYLINE
  5
C6
330
1F
100
AcDbEntity
  8
1
  6
Continuous
 62
     7
100
AcDbPolyline
 90
        2
 70
     0
 43
0.25
 10
49.4080322975814
 20
49.00995986697905
 10
49.4080322975814
 20
48.10411296533826
  0
LWPOLYLINE
  5
C7
330
1F
100
AcDbEntity
  8
1
  6
Continuous
 62
     7
100
AcDbPolyline
 90
        2
 70
     0
 43
0.25
 10
48.48500000000001
 20
48.02200000000002
 10
49.4080322975814
 20
48.0941138965992
  0
LWPOLYLINE
  5
C8
330
1F
100
AcDbEntity
  8
1
  6
DASHED
 62
     7
100
AcDbPolyline
 90
        2
 70
     0
 43
0.35
 10
49.40800000000002
 20
54.095
 10
1.58081041189323
 20
54.095
  0
LWPOLYLINE
  5
C9
330
1F
100
AcDbEntity
  8
1
  6
DASHED
 62
     7
100
AcDbPolyline
 90
        2
 70
     0
 43
0.35
 10
1.58081041189323
 20
66.095
 10
49.40800000000002
 20
66.095
  0
LWPOLYLINE
  5
CA
330
1F
100
AcDbEntity
  8
1
  6
DASHED
 62
     7
100
AcDbPolyline
 90
        2
 70
     0
 43
0.35
 10
1.58081041189323
 20
54.095
 10
1.58081041189323
 20
66.095
  0
LWPOLYLINE
  5
CB
330
1F
100
AcDbEntity
  8
1
  6
Continuous
 62
     7
100
AcDbPolyline
 90
        2
 70
     0
 43
0.5
 10
-1.29148177481559
 20
76.095
 10
-1.30748177481561
 20
44.095
  0
LWPOLYLINE
  5
CC
330
1F
100
AcDbEntity
  8
1
  6
Continuous
 62
     7
100
AcDbPolyline
 90
        2
 70
     0
 43
0.5
 10
-20.94872429933753
 20
37.94499999999999
 42
0.25938294515272
 10
-21.36700000000002
 20
37.69740473580836
 42
0.25938294515272
  0
LWPOLYLINE
  5
CD
330
1F
100
AcDbEntity
  8
1
  6
Continuous
 62
     7
100
AcDbPolyline
 90
        2
 70
     0
 43
0.5
 10
-17.61699999999996
 20
37.69740473580836
 42
0.25938294515275
 10
-18.03527570066251
 20
37.94499999999999
 42
0.25938294515275
  0
LWPOLYLINE
  5
CE
330
1F
100
AcDbEntity
  8
1
  6
Continuous
 62
     7
100
AcDbPolyline
 90
        2
 70
     0
 43
0.5
 10
-21.36699999999996
 20
82.49259526419169
 42
0.27378575808396
 10
-20.92183353878829
 20
82.24499999999998
 42
0.27378575808396
  0
LWPOLYLINE
  5
CF
330
1F
100
AcDbEntity
  8
1
  6
Continuous
 62
     7
100
AcDbPolyline
 90
        2
 70
     0
 43
0.5
 10
-18.06216646121163
 20
82.24499999999998
 42
0.27378575808392
 10
-17.61699999999996
 20
82.49259526419164
 42
0.27378575808392
  0
LWPOLYLINE
  5
D0
330
1F
100
AcDbEntity
  8
1
  6
Continuous
 62
     7
100
AcDbPolyline
 90
        2
 70
     0
 43
0.5
 10
49.40800000000002
 20
71.16499906873904
 42
0.39591764548006
 10
48.48500000000001
 20
72.17799906873906
 42
0.39591764548006
  0
LWPOLYLINE
  5
D1
330
1F
100
AcDbEntity
  8
1
  6
Continuous
 62
     7
100
AcDbPolyline
 90
        2
 70
     0
 43
0.5
 10
48.48500000000001
 20
48.02200000000002
 42
0.38924272520301
 10
49.40800000000002
 20
49.00191880269637
 42
0.38924272520301
  0
LWPOLYLINE
  5
D2
330
1F
100
AcDbEntity
  8
1
  6
Continuous
 62
     7
100
AcDbPolyline
 90
        2
 70
     1
 43
0.5
 10
-24.4919999999999
 20
60.095
 42
1.0
 10
-14.49200000000002
 20
60.095
 42
1.0
  0
LWPOLYLINE
  5
D3
330
1F
100
AcDbEntity
  8
1
  6
Continuous
 62
     7
100
AcDbPolyline
 90
        2
 70
     0
 43
0.5
 10
-27.39200000000002
 20
36.095
 42
0.4142135623731
 10
-26.39200000000002
 20
35.095
 42
0.4142135623731
  0
LWPOLYLINE
  5
D4
330
1F
100
AcDbEntity
  8
1
  6
Continuous
 62
     7
100
AcDbPolyline
 90
        2
 70
     0
 43
0.5
 10
-12.49200000000002
 20
35.095
 42
0.4142135623731
 10
-11.49200000000002
 20
36.095
 42
0.4142135623731
  0
LWPOLYLINE
  5
D5
330
1F
100
AcDbEntity
  8
1
  6
Continuous
 62
     7
100
AcDbPolyline
 90
        2
 70
     0
 43
0.5
 10
-11.49199999999993
 20
84.09499999999994
 42
0.41421356237312
 10
-12.49200000000002
 20
85.095
 42
0.41421356237312
  0
LWPOLYLINE
  5
D6
330
1F
100
AcDbEntity
  8
1
  6
Continuous
 62
     7
100
AcDbPolyline
 90
        2
 70
     0
 43
0.5
 10
-26.39200000000002
 20
85.095
 42
0.4142135623731
 10
-27.39200000000002
 20
84.095
 42
0.4142135623731
  0
LWPOLYLINE
  5
D7
330
1F
100
AcDbEntity
  8
1
  6
Continuous
 62
     7
100
AcDbPolyline
 90
        2
 70
     0
 43
0.5
 10
-78.39200000000001
 20
52.05603379520258
 42
0.37240490425613
 10
-77.53631630606783
 20
51.06650218691362
 42
0.37240490425613
  0
LWPOLYLINE
  5
D8
330
1F
100
AcDbEntity
  8
1
  6
Continuous
 62
     7
100
AcDbPolyline
 90
        2
 70
     0
 43
0.5
 10
-77.53631630606783
 20
69.1234978130864
 42
0.37240490425615
 10
-78.39200000000004
 20
68.13396620479736
 42
0.37240490425615
  0
LWPOLYLINE
  5
D9
330
1F
100
AcDbEntity
  8
1
  6
Continuous
 62
     7
100
AcDbPolyline
 90
        2
 70
     0
 43
0.5
 10
-27.39200000000002
 20
43.56999999999999
 42
0.4142135623731
 10
-28.39200000000002
 20
44.56999999999999
 42
0.4142135623731
  0
LWPOLYLINE
  5
DA
330
1F
100
AcDbEntity
  8
1
  6
Continuous
 62
     7
100
AcDbPolyline
 90
        2
 70
     0
 43
0.5
 10
-28.39200000000002
 20
75.61999999999998
 42
0.4142135623731
 10
-27.39200000000002
 20
76.61999999999998
 42
0.4142135623731
  0
LWPOLYLINE
  5
DB
330
1F
100
AcDbEntity
  8
1
  6
Continuous
 62
     7
100
AcDbPolyline
 90
        2
 70
     0
 43
0.5
 10
-20.22058983848623
 20
43.79707068367267
 42
0.4142135623731
 10
-21.36699999999996
 20
42.99707068367266
 42
0.4142135623731
  0
LWPOLYLINE
  5
DC
330
1F
100
AcDbEntity
  8
1
  6
Continuous
 62
     7
100
AcDbPolyline
 90
        2
 70
     0
 43
0.5
 10
-17.61700000000002
 20
42.99707068367266
 42
0.41421356237311
 10
-18.76341016151378
 20
43.79707068367267
 42
0.41421356237311
  0
LWPOLYLINE
  5
DD
330
1F
100
AcDbEntity
  8
1
  6
Continuous
 62
     7
100
AcDbPolyline
 90
        2
 70
     0
 43
0.5
 10
-11.49199999999999
 20
78.095
 42
0.4142135623731
 10
-9.49199999999999
 20
76.095
 42
0.4142135623731
  0
LWPOLYLINE
  5
DE
330
1F
100
AcDbEntity
  8
1
  6
Continuous
 62
     7
100
AcDbPolyline
 90
        2
 70
     0
 43
0.5
 10
-9.49199999999999
 20
44.095
 42
0.4142135623731
 10
-11.49199999999999
 20
42.095
 42
0.4142135623731
  0
DIMENSION
  5
EA
330
1F
100
AcDbEntity
  8
1
100
AcDbDimension
  2
*D2
 10
63.6181939706963
 20
54.09500000000001
 30
0.0
 11
59.8681939706963
 21
60.51745481827
 31
0.0
 70
    32
  1
<>
 71
     5
 42
-1.0
 53
90.0
  3
ME10_DIM_10
100
AcDbAlignedDimension
 13
49.40800000000002
 23
66.095
 33
0.0
 14
49.40800000000002
 24
54.095
 34
0.0
 50
90.0
100
AcDbRotatedDimension
  0
DIMENSION
  5
F5
330
1F
100
AcDbEntity
  8
1
100
AcDbDimension
  2
*D3
 10
73.89001224141398
 20
72.095
 30
0.0
 11
70.14001224141398
 21
59.95373074957738
 31
0.0
 70
    32
  1
<>
 71
     5
 42
-1.0
 53
90.0
  3
ME10_DIM_11
100
AcDbAlignedDimension
 13
49.4080322975814
 23
48.0941138965992
 33
0.0
 14
49.40800000000002
 24
72.095
 34
0.0
 50
90.0
100
AcDbRotatedDimension
  0
DIMENSION
  5
102
330
1F
100
AcDbEntity
  8
1
100
AcDbDimension
  2
*D4
 10
83.26862892337303
 20
76.095
 30
0.0
 11
79.51862892337303
 21
59.41906046692941
 31
0.0
 70
    32
  1
<>
 71
     5
 42
-1.0
 53
90.0
  3
ME10_DIM_12
100
AcDbAlignedDimension
 13
-1.30748177481561
 23
44.095
 33
0.0
 14
-1.29148177481559
 24
76.095
 34
0.0
 50
90.0
100
AcDbRotatedDimension
  0
DIMENSION
  5
10D
330
1F
100
AcDbEntity
  8
1
100
AcDbDimension
  2
*D5
 10
49.40799999999999
 20
103.809217720686
 30
0.0
 11
10.48713004457969
 21
107.559217720686
 31
0.0
 70
    32
  1
<>
 71
     5
 42
-1.0
 53
0.00013888888889
  3
ME10_DIM_13
100
AcDbAlignedDimension
 13
-30.59200000000001
 23
77.57892170224929
 33
0.0
 14
49.40800000000002
 24
72.095
 34
0.0
100
AcDbRotatedDimension
  0
DIMENSION
  5
118
330
1F
100
AcDbEntity
  8
1
100
AcDbDimension
  2
*D6
 10
-11.49199999999994
 20
95.2150936844225
 30
0.0
 11
20.62359348031583
 21
98.9650936844225
 31
0.0
 70
    32
  1
<>
 71
     5
 42
-1.0
 53
0.00013888888889
  3
ME10_DIM_14
100
AcDbAlignedDimension
 13
49.40800000000002
 23
72.095
 33
0.0
 14
-11.49199999999993
 24
84.09499999999994
 34
0.0
100
AcDbRotatedDimension
  0
DIMENSION
  5
123
330
1F
100
AcDbEntity
  8
1
100
AcDbDimension
  2
*D7
 10
-78.39200000000002
 20
24.4788420013298
 30
0.0
 11
-12.97418995799441
 21
28.2288420013298
 31
0.0
 70
    32
  1
<>
 71
     5
 42
-1.0
 53
0.00013888888889
  3
ME10_DIM_15
100
AcDbAlignedDimension
 13
49.4080322975814
 23
48.0941138965992
 33
0.0
 14
-78.39200000000001
 24
51.19129770515306
 34
0.0
100
AcDbRotatedDimension
  0
DIMENSION
  5
12E
330
1F
100
AcDbEntity
  8
1
100
AcDbDimension
  2
*D8
 10
35.39496888733938
 20
74.65376631745211
 30
0.0
 11
38.16947471521654
 21
85.05205584512424
 31
0.0
 70
    37
  1
<>
 71
     5
 42
-1.0
  3
ME10_DIM_16
100
AcDb3PointAngularDimension
 13
35.31011657474951
 23
73.21475435569207
 33
0.0
 14
2.37999315593695
 24
76.095
 34
0.0
 15
-1.29148177481559
 25
76.095
 35
0.0
  0
ENDSEC
  0
SECTION
  2
OBJECTS
  0
DICTIONARY
  5
C
330
0
100
AcDbDictionary
281
     1
  3
ACAD_GROUP
350
D
  3
ACAD_LAYOUT
350
1A
  3
ACAD_MLEADERSTYLE
350
131
  3
ACAD_MLINESTYLE
350
17
  3
ACAD_PLOTSETTINGS
350
19
  3
ACAD_PLOTSTYLENAME
350
E
  3
ACAD_SCALELIST
350
47
  3
ACAD_VISUALSTYLE
350
2A
  3
AcDbVariableDictionary
350
12F
  0
DICTIONARY
  5
D
102
{ACAD_REACTORS
330
C
102
}
330
C
100
AcDbDictionary
281
     1
  0
DICTIONARY
  5
1A
102
{ACAD_REACTORS
330
C
102
}
330
C
100
AcDbDictionary
281
     1
  3
Layout1
350
1E
  3
Layout2
350
26
  3
Model
350
22
  0
DICTIONARY
  5
131
102
{ACAD_REACTORS
330
C
102
}
330
C
100
AcDbDictionary
281
     1
  0
DICTIONARY
  5
17
102
{ACAD_REACTORS
330
C
102
}
330
C
100
AcDbDictionary
281
     1
  3
Standard
350
18
  0
DICTIONARY
  5
19
102
{ACAD_REACTORS
330
C
102
}
330
C
100
AcDbDictionary
281
     1
  0
ACDBDICTIONARYWDFLT
  5
E
102
{ACAD_REACTORS
330
C
102
}
330
C
100
AcDbDictionary
281
     1
  3
Normal
350
F
100
AcDbDictionaryWithDefault
340
F
  0
DICTIONARY
  5
47
102
{ACAD_REACTORS
330
C
102
}
330
C
100
AcDbDictionary
281
     1
  3
A0
350
48
  3
A1
350
49
  3
A2
350
4A
  3
A3
350
4B
  3
A4
350
4C
  3
A5
350
4D
  3
A6
350
4E
  3
A7
350
4F
  3
A8
350
50
  3
A9
350
51
  3
B0
350
52
  3
B1
350
53
  3
B2
350
54
  3
B3
350
55
  3
B4
350
56
  3
B5
350
57
  3
B6
350
58
  3
B7
350
59
  3
B8
350
5A
  3
B9
350
5B
  3
C0
350
5C
  3
C1
350
5D
  3
C2
350
5E
  3
C3
350
5F
  3
C4
350
60
  3
C5
350
61
  3
C6
350
62
  3
C7
350
63
  3
C8
350
64
  3
C9
350
65
  3
D0
350
66
  3
D1
350
67
  3
D2
350
68
  0
DICTIONARY
  5
2A
102
{ACAD_REACTORS
330
C
102
}
330
C
100
AcDbDictionary
281
     1
  3
2dWireframe
350
2F
  3
3D Hidden
350
31
  3
3dWireframe
350
30
  3
Basic
350
32
  3
Brighten
350
36
  3
ColorChange
350
3A
  3
Conceptual
350
34
  3
Dim
350
35
  3
Facepattern
350
39
  3
Flat
350
2B
  3
FlatWithEdges
350
2C
  3
Gouraud
350
2D
  3
GouraudWithEdges
350
2E
  3
Linepattern
350
38
  3
Realistic
350
33
  3
Thicken
350
37
  0
DICTIONARY
  5
12F
102
{ACAD_REACTORS
330
C
102
}
330
C
100
AcDbDictionary
281
     1
  3
CANNOSCALE
350
132
  0
LAYOUT
  5
1E
102
{ACAD_REACTORS
330
1A
102
}
330
1A
100
AcDbPlotSettings
  1

  2
none_device
  4

  6

 40
0.0
 41
0.0
 42
0.0
 43
0.0
 44
0.0
 45
0.0
 46
0.0
 47
0.0
 48
0.0
 49
0.0
140
0.0
141
0.0
142
1.0
143
1.0
 70
   688
 72
     0
 73
     0
 74
     5
  7

 75
    16
147
1.0
148
0.0
149
0.0
100
AcDbLayout
  1
Layout1
 70
     1
 71
     1
 10
0.0
 20
0.0
 11
12.0
 21
9.0
 12
0.0
 22
0.0
 32
0.0
 14
1.00000000000000E+20
 24
1.00000000000000E+20
 34
1.00000000000000E+20
 15
-1.00000000000000E+20
 25
-1.00000000000000E+20
 35
-1.00000000000000E+20
146
0.0
 13
0.0
 23
0.0
 33
0.0
 16
1.0
 26
0.0
 36
0.0
 17
0.0
 27
1.0
 37
0.0
 76
     0
330
1B
  0
LAYOUT
  5
26
102
{ACAD_REACTORS
330
1A
102
}
330
1A
100
AcDbPlotSettings
  1

  2
none_device
  4

  6

 40
0.0
 41
0.0
 42
0.0
 43
0.0
 44
0.0
 45
0.0
 46
0.0
 47
0.0
 48
0.0
 49
0.0
140
0.0
141
0.0
142
1.0
143
1.0
 70
   688
 72
     0
 73
     0
 74
     5
  7

 75
    16
147
1.0
148
0.0
149
0.0
100
AcDbLayout
  1
Layout2
 70
     1
 71
     2
 10
0.0
 20
0.0
 11
0.0
 21
0.0
 12
0.0
 22
0.0
 32
0.0
 14
0.0
 24
0.0
 34
0.0
 15
0.0
 25
0.0
 35
0.0
146
0.0
 13
0.0
 23
0.0
 33
0.0
 16
1.0
 26
0.0
 36
0.0
 17
0.0
 27
1.0
 37
0.0
 76
     0
330
23
  0
LAYOUT
  5
22
102
{ACAD_REACTORS
330
1A
102
}
330
1A
100
AcDbPlotSettings
  1

  2
none_device
  4

  6

 40
0.0
 41
0.0
 42
0.0
 43
0.0
 44
0.0
 45
0.0
 46
0.0
 47
0.0
 48
0.0
 49
0.0
140
0.0
141
0.0
142
1.0
143
1.0
 70
  1712
 72
     0
 73
     0
 74
     0
  7

 75
     0
147
1.0
148
0.0
149
0.0
100
AcDbLayout
  1
Model
 70
     1
 71
     0
 10
0.0
 20
0.0
 11
12.0
 21
9.0
 12
0.0
 22
0.0
 32
0.0
 14
-98.1707983011004
 24
22.4788420013298
 34
0.0
 15
85.26862892337303
 25
109.309217720686
 35
0.0
146
0.0
 13
0.0
 23
0.0
 33
0.0
 16
1.0
 26
0.0
 36
0.0
 17
0.0
 27
1.0
 37
0.0
 76
     0
330
1F
331
29
  0
MLINESTYLE
  5
18
102
{ACAD_REACTORS
330
17
102
}
330
17
100
AcDbMlineStyle
  2
Standard
 70
     0
  3

 62
   256
 51
90.0
 52
90.0
 71
     2
 49
0.5
 62
   256
  6
BYLAYER
 49
-0.5
 62
   256
  6
BYLAYER
  0
ACDBPLACEHOLDER
  5
F
102
{ACAD_REACTORS
330
E
102
}
330
E
  0
SCALE
  5
48
102
{ACAD_REACTORS
330
47
102
}
330
47
100
AcDbScale
 70
     0
300
1:1
140
1.0
141
1.0
290
     1
  0
SCALE
  5
49
102
{ACAD_REACTORS
330
47
102
}
330
47
100
AcDbScale
 70
     0
300
1:2
140
1.0
141
2.0
290
     0
  0
SCALE
  5
4A
102
{ACAD_REACTORS
330
47
102
}
330
47
100
AcDbScale
 70
     0
300
1:4
140
1.0
141
4.0
290
     0
  0
SCALE
  5
4B
102
{ACAD_REACTORS
330
47
102
}
330
47
100
AcDbScale
 70
     0
300
1:5
140
1.0
141
5.0
290
     0
  0
SCALE
  5
4C
102
{ACAD_REACTORS
330
47
102
}
330
47
100
AcDbScale
 70
     0
300
1:8
140
1.0
141
8.0
290
     0
  0
SCALE
  5
4D
102
{ACAD_REACTORS
330
47
102
}
330
47
100
AcDbScale
 70
     0
300
1:10
140
1.0
141
10.0
290
     0
  0
SCALE
  5
4E
102
{ACAD_REACTORS
330
47
102
}
330
47
100
AcDbScale
 70
     0
300
1:16
140
1.0
141
16.0
290
     0
  0
SCALE
  5
4F
102
{ACAD_REACTORS
330
47
102
}
330
47
100
AcDbScale
 70
     0
300
1:20
140
1.0
141
20.0
290
     0
  0
SCALE
  5
50
102
{ACAD_REACTORS
330
47
102
}
330
47
100
AcDbScale
 70
     0
300
1:30
140
1.0
141
30.0
290
     0
  0
SCALE
  5
51
102
{ACAD_REACTORS
330
47
102
}
330
47
100
AcDbScale
 70
     0
300
1:40
140
1.0
141
40.0
290
     0
  0
SCALE
  5
52
102
{ACAD_REACTORS
330
47
102
}
330
47
100
AcDbScale
 70
     0
300
1:50
140
1.0
141
50.0
290
     0
  0
SCALE
  5
53
102
{ACAD_REACTORS
330
47
102
}
330
47
100
AcDbScale
 70
     0
300
1:100
140
1.0
141
100.0
290
     0
  0
SCALE
  5
54
102
{ACAD_REACTORS
330
47
102
}
330
47
100
AcDbScale
 70
     0
300
2:1
140
2.0
141
1.0
290
     0
  0
SCALE
  5
55
102
{ACAD_REACTORS
330
47
102
}
330
47
100
AcDbScale
 70
     0
300
4:1
140
4.0
141
1.0
290
     0
  0
SCALE
  5
56
102
{ACAD_REACTORS
330
47
102
}
330
47
100
AcDbScale
 70
     0
300
8:1
140
8.0
141
1.0
290
     0
  0
SCALE
  5
57
102
{ACAD_REACTORS
330
47
102
}
330
47
100
AcDbScale
 70
     0
300
10:1
140
10.0
141
1.0
290
     0
  0
SCALE
  5
58
102
{ACAD_REACTORS
330
47
102
}
330
47
100
AcDbScale
 70
     0
300
100:1
140
100.0
141
1.0
290
     0
  0
SCALE
  5
59
102
{ACAD_REACTORS
330
47
102
}
330
47
100
AcDbScale
 70
     0
300
1/128" = 1'-0"
140
0.0078125
141
12.0
290
     0
  0
SCALE
  5
5A
102
{ACAD_REACTORS
330
47
102
}
330
47
100
AcDbScale
 70
     0
300
1/64" = 1'-0"
140
0.015625
141
12.0
290
     0
  0
SCALE
  5
5B
102
{ACAD_REACTORS
330
47
102
}
330
47
100
AcDbScale
 70
     0
300
1/32" = 1'-0"
140
0.03125
141
12.0
290
     0
  0
SCALE
  5
5C
102
{ACAD_REACTORS
330
47
102
}
330
47
100
AcDbScale
 70
     0
300
1/16" = 1'-0"
140
0.0625
141
12.0
290
     0
  0
SCALE
  5
5D
102
{ACAD_REACTORS
330
47
102
}
330
47
100
AcDbScale
 70
     0
300
3/32" = 1'-0"
140
0.09375
141
12.0
290
     0
  0
SCALE
  5
5E
102
{ACAD_REACTORS
330
47
102
}
330
47
100
AcDbScale
 70
     0
300
1/8" = 1'-0"
140
0.125
141
12.0
290
     0
  0
SCALE
  5
5F
102
{ACAD_REACTORS
330
47
102
}
330
47
100
AcDbScale
 70
     0
300
3/16" = 1'-0"
140
0.1875
141
12.0
290
     0
  0
SCALE
  5
60
102
{ACAD_REACTORS
330
47
102
}
330
47
100
AcDbScale
 70
     0
300
1/4" = 1'-0"
140
0.25
141
12.0
290
     0
  0
SCALE
  5
61
102
{ACAD_REACTORS
330
47
102
}
330
47
100
AcDbScale
 70
     0
300
3/8" = 1'-0"
140
0.375
141
12.0
290
     0
  0
SCALE
  5
62
102
{ACAD_REACTORS
330
47
102
}
330
47
100
AcDbScale
 70
     0
300
1/2" = 1'-0"
140
0.5
141
12.0
290
     0
  0
SCALE
  5
63
102
{ACAD_REACTORS
330
47
102
}
330
47
100
AcDbScale
 70
     0
300
3/4" = 1'-0"
140
0.75
141
12.0
290
     0
  0
SCALE
  5
64
102
{ACAD_REACTORS
330
47
102
}
330
47
100
AcDbScale
 70
     0
300
1" = 1'-0"
140
1.0
141
12.0
290
     0
  0
SCALE
  5
65
102
{ACAD_REACTORS
330
47
102
}
330
47
100
AcDbScale
 70
     0
300
1-1/2" = 1'-0"
140
1.5
141
12.0
290
     0
  0
SCALE
  5
66
102
{ACAD_REACTORS
330
47
102
}
330
47
100
AcDbScale
 70
     0
300
3" = 1'-0"
140
3.0
141
12.0
290
     0
  0
SCALE
  5
67
102
{ACAD_REACTORS
330
47
102
}
330
47
100
AcDbScale
 70
     0
300
6" = 1'-0"
140
6.0
141
12.0
290
     0
  0
SCALE
  5
68
102
{ACAD_REACTORS
330
47
102
}
330
47
100
AcDbScale
 70
     0
300
1'-0" = 1'-0"
140
12.0
141
12.0
290
     0
  0
VISUALSTYLE
  5
2F
102
{ACAD_REACTORS
330
2A
102
}
330
2A
100
AcDbVisualStyle
  2
2dWireframe
 70
     4
 71
     0
 72
     2
 73
     0
 90
        0
 40
-0.6
 41
-30.0
 62
     5
 63
     7
 74
     1
 91
        4
 64
     7
 65
   257
 75
     1
175
     1
 42
1.0
 92
        0
 66
   257
 43
1.0
 76
     1
 77
     6
 78
     2
 67
     7
 79
     5
170
     0
171
     0
290
     0
174
     0
 93
        1
 44
0.0
173
     0
291
     0
 45
0.0
1001
ACAD
1000
AcDbSavedByObjectVersion
1070
     0
  0
VISUALSTYLE
  5
31
102
{ACAD_REACTORS
330
2A
102
}
330
2A
100
AcDbVisualStyle
  2
3D Hidden
 70
     6
 71
     1
 72
     2
 73
     2
 90
        0
 40
-0.6
 41
-30.0
 62
     5
 63
     7
 74
     2
 91
        2
 64
     7
 65
   257
 75
     2
175
     1
 42
40.0
 92
        0
 66
   257
 43
1.0
 76
     1
 77
     6
 78
     2
 67
     7
 79
     3
170
     0
171
     0
290
     0
174
     0
 93
        1
 44
0.0
173
     0
291
     0
 45
0.0
1001
ACAD
1000
AcDbSavedByObjectVersion
1070
     0
  0
VISUALSTYLE
  5
30
102
{ACAD_REACTORS
330
2A
102
}
330
2A
100
AcDbVisualStyle
  2
3dWireframe
 70
     5
 71
     0
 72
     2
 73
     0
 90
        0
 40
-0.6
 41
-30.0
 62
     5
 63
     7
 74
     1
 91
        4
 64
     7
 65
   257
 75
     1
175
     1
 42
1.0
 92
        0
 66
   257
 43
1.0
 76
     1
 77
     6
 78
     2
 67
     7
 79
     5
170
     0
171
     0
290
     0
174
     0
 93
        1
 44
0.0
173
     0
291
     0
 45
0.0
1001
ACAD
1000
AcDbSavedByObjectVersion
1070
     0
  0
VISUALSTYLE
  5
32
102
{ACAD_REACTORS
330
2A
102
}
330
2A
100
AcDbVisualStyle
  2
Basic
 70
     7
 71
     1
 72
     0
 73
     1
 90
        0
 40
-0.6
 41
-30.0
 62
     5
 63
     7
 74
     0
 91
        4
 64
     7
 65
   257
 75
     1
175
     1
 42
1.0
 92
        8
 66
     7
 43
1.0
 76
     1
 77
     6
 78
     2
 67
     7
 79
     5
170
     0
171
     0
290
     0
174
     0
 93
        1
 44
0.0
173
     0
291
     1
 45
0.0
1001
ACAD
1000
AcDbSavedByObjectVersion
1070
     0
  0
VISUALSTYLE
  5
36
102
{ACAD_REACTORS
330
2A
102
}
330
2A
100
AcDbVisualStyle
  2
Brighten
 70
    12
 71
     2
 72
     2
 73
     0
 90
        0
 40
-0.6
 41
-30.0
 62
     5
 63
     7
 74
     1
 91
        4
 64
     7
 65
   257
 75
     1
175
     1
 42
1.0
 92
        8
 66
     7
 43
1.0
 76
     1
 77
     6
 78
     2
 67
     7
 79
     5
170
     0
171
     0
290
     0
174
     0
 93
        1
 44
50.0
173
     0
291
     1
 45
0.0
1001
ACAD
1000
AcDbSavedByObjectVersion
1070
     0
  0
VISUALSTYLE
  5
3A
102
{ACAD_REACTORS
330
2A
102
}
330
2A
100
AcDbVisualStyle
  2
ColorChange
 70
    16
 71
     2
 72
     2
 73
     3
 90
        0
 40
-0.6
 41
-30.0
 62
     5
 63
     8
 74
     1
 91
        4
 64
     7
 65
   257
 75
     1
175
     1
 42
1.0
 92
        8
 66
     8
 43
1.0
 76
     1
 77
     6
 78
     2
 67
     7
 79
     5
170
     0
171
     0
290
     0
174
     0
 93
        1
 44
0.0
173
     0
291
     1
 45
0.0
1001
ACAD
1000
AcDbSavedByObjectVersion
1070
     0
  0
VISUALSTYLE
  5
34
102
{ACAD_REACTORS
330
2A
102
}
330
2A
100
AcDbVisualStyle
  2
Conceptual
 70
     9
 71
     3
 72
     2
 73
     0
 90
        0
 40
-0.6
 41
-30.0
 62
     5
 63
     7
 74
     2
 91
        2
 64
     7
 65
   257
 75
     1
175
     1
 42
40.0
 92
        8
 66
     7
 43
1.0
 76
     1
 77
     6
 78
     2
 67
     7
 79
     3
170
     0
171
     0
290
     0
174
     0
 93
        1
 44
0.0
173
     0
291
     0
 45
0.0
1001
ACAD
1000
AcDbSavedByObjectVersion
1070
     0
  0
VISUALSTYLE
  5
35
102
{ACAD_REACTORS
330
2A
102
}
330
2A
100
AcDbVisualStyle
  2
Dim
 70
    11
 71
     2
 72
     2
 73
     0
 90
        0
 40
-0.6
 41
-30.0
 62
     5
 63
     7
 74
     1
 91
        4
 64
     7
 65
   257
 75
     1
175
     1
 42
1.0
 92
        8
 66
     7
 43
1.0
 76
     1
 77
     6
 78
     2
 67
     7
 79
     5
170
     0
171
     0
290
     0
174
     0
 93
        1
 44
-50.0
173
     0
291
     1
 45
0.0
1001
ACAD
1000
AcDbSavedByObjectVersion
1070
     0
  0
VISUALSTYLE
  5
39
102
{ACAD_REACTORS
330
2A
102
}
330
2A
100
AcDbVisualStyle
  2
Facepattern
 70
    15
 71
     2
 72
     2
 73
     0
 90
        0
 40
-0.6
 41
-30.0
 62
     5
 63
     7
 74
     1
 91
        4
 64
     7
 65
   257
 75
     1
175
     1
 42
1.0
 92
        8
 66
     7
 43
1.0
 76
     1
 77
     6
 78
     2
 67
     7
 79
     5
170
     0
171
     0
290
     0
174
     0
 93
        1
 44
0.0
173
     0
291
     1
 45
0.0
1001
ACAD
1000
AcDbSavedByObjectVersion
1070
     0
  0
VISUALSTYLE
  5
2B
102
{ACAD_REACTORS
330
2A
102
}
330
2A
100
AcDbVisualStyle
  2
Flat
 70
     0
 71
     2
 72
     1
 73
     1
 90
        2
 40
-0.6
 41
30.0
 62
     5
 63
     7
 74
     0
 91
        4
 64
     7
 65
   257
 75
     1
175
     1
 42
1.0
 92
        8
 66
     7
 43
1.0
 76
     1
 77
     6
 78
     2
 67
     7
 79
     5
170
     0
171
     0
290
     0
174
     0
 93
       13
 44
0.0
173
     0
291
     1
 45
0.0
1001
ACAD
1000
AcDbSavedByObjectVersion
1070
     0
  0
VISUALSTYLE
  5
2C
102
{ACAD_REACTORS
330
2A
102
}
330
2A
100
AcDbVisualStyle
  2
FlatWithEdges
 70
     1
 71
     2
 72
     1
 73
     1
 90
        2
 40
-0.6
 41
30.0
 62
     5
 63
     7
 74
     1
 91
        4
 64
     7
 65
   257
 75
     1
175
     1
 42
1.0
 92
        0
 66
   257
 43
1.0
 76
     1
 77
     6
 78
     2
 67
     7
 79
     5
170
     0
171
     0
290
     0
174
     0
 93
       13
 44
0.0
173
     0
291
     1
 45
0.0
1001
ACAD
1000
AcDbSavedByObjectVersion
1070
     0
  0
VISUALSTYLE
  5
2D
102
{ACAD_REACTORS
330
2A
102
}
330
2A
100
AcDbVisualStyle
  2
Gouraud
 70
     2
 71
     2
 72
     2
 73
     1
 90
        2
 40
-0.6
 41
30.0
 62
     5
 63
     7
 74
     0
 91
        4
 64
     7
 65
   257
 75
     1
175
     1
 42
1.0
 92
        0
 66
     7
 43
1.0
 76
     1
 77
     6
 78
     2
 67
     7
 79
     5
170
     0
171
     0
290
     0
174
     0
 93
       13
 44
0.0
173
     0
291
     1
 45
0.0
1001
ACAD
1000
AcDbSavedByObjectVersion
1070
     0
  0
VISUALSTYLE
  5
2E
102
{ACAD_REACTORS
330
2A
102
}
330
2A
100
AcDbVisualStyle
  2
GouraudWithEdges
 70
     3
 71
     2
 72
     2
 73
     1
 90
        2
 40
-0.6
 41
30.0
 62
     5
 63
     7
 74
     1
 91
        4
 64
     7
 65
   257
 75
     1
175
     1
 42
1.0
 92
        0
 66
   257
 43
1.0
 76
     1
 77
     6
 78
     2
 67
     7
 79
     5
170
     0
171
     0
290
     0
174
     0
 93
       13
 44
0.0
173
     0
291
     1
 45
0.0
1001
ACAD
1000
AcDbSavedByObjectVersion
1070
     0
  0
VISUALSTYLE
  5
38
102
{ACAD_REACTORS
330
2A
102
}
330
2A
100
AcDbVisualStyle
  2
Linepattern
 70
    14
 71
     2
 72
     2
 73
     0
 90
        0
 40
-0.6
 41
-30.0
 62
     5
 63
     7
 74
     1
 91
        4
 64
     7
 65
   257
 75
     7
175
     7
 42
1.0
 92
        8
 66
     7
 43
1.0
 76
     1
 77
     6
 78
     2
 67
     7
 79
     5
170
     0
171
     0
290
     0
174
     0
 93
        1
 44
0.0
173
     0
291
     1
 45
0.0
1001
ACAD
1000
AcDbSavedByObjectVersion
1070
     0
  0
VISUALSTYLE
  5
33
102
{ACAD_REACTORS
330
2A
102
}
330
2A
100
AcDbVisualStyle
  2
Realistic
 70
     8
 71
     2
 72
     2
 73
     0
 90
        0
 40
-0.6
 41
-30.0
 62
     5
 63
     7
 74
     1
 91
        0
 64
     7
 65
   257
 75
     1
175
     1
 42
1.0
 92
        8
 66
     8
 43
1.0
 76
     1
 77
     6
 78
     2
 67
     7
 79
     5
170
     0
171
     0
290
     0
174
     0
 93
       13
 44
0.0
173
     0
291
     0
 45
0.0
1001
ACAD
1000
AcDbSavedByObjectVersion
1070
     0
  0
VISUALSTYLE
  5
37
102
{ACAD_REACTORS
330
2A
102
}
330
2A
100
AcDbVisualStyle
  2
Thicken
 70
    13
 71
     2
 72
     2
 73
     0
 90
        0
 40
-0.6
 41
-30.0
 62
     5
 63
     7
 74
     1
 91
        4
 64
     7
 65
   257
 75
     1
175
     1
 42
1.0
 92
       12
 66
     7
 43
1.0
 76
     1
 77
     6
 78
     2
 67
     7
 79
     5
170
     0
171
     0
290
     0
174
     0
 93
        1
 44
0.0
173
     0
291
     1
 45
0.0
1001
ACAD
1000
AcDbSavedByObjectVersion
1070
     0
  0
DICTIONARYVAR
  5
132
102
{ACAD_REACTORS
330
12F
102
}
330
12F
100
DictionaryVariables
280
     0
  1
1:1
  0
ENDSEC
  0
EOF
