999
DXF file: cc6-050-27.dxf
999
Pro/ENGINEER 2010430 by Parametric Technology Corporation
  0
SECTION
  2
HEADER
  9
$ACADVER
  1
AC1021
  9
$DWGCODEPAGE
  3
ANSI_1252
  9
$EXTMAX
 10
297.0
 20
210.0
 30
0.0
  9
$EXTMIN
 10
0.0
 20
0.0
 30
0.0
  9
$LIMMIN
 10
0.0
 20
0.0
  9
$LIMMAX
 10
297.0
 20
210.0
  9
$VIEWCTR
 10
148.5
 20
105.0
  9
$VIEWSIZE
 40
210.0
  9
$CLAYER
  8
0
  9
$LTSCALE
 40
16.335
  9
$CELTYPE
  6
BYLAYER
  9
$DIMSCALE
 40
1.0
  9
$DIMASZ
 40
3.5
  9
$DIMEXO
 40
1.85625
  9
$DIMDLI
 40
11.286
  9
$DIMEXE
 40
5.346
  9
$DIMCEN
 40
2.673
  9
$DIMLFAC
 40
1.0
  9
$DIMBLK
  1
_FILLED
  9
$DIMTXT
 40
3.5
  9
$DIMTOL
 70
1
  9
$DIMLIM
 70
0
  9
$DIMTFAC
 40
1.0
  9
$DIMTP
 40
0.005
  9
$DIMTM
 40
0.005
  9
$PDMODE
 70
3
  9
$PDSIZE
 40
0.3125
  9
$HANDSEED
  5
2E2
  9
$TILEMODE
 70
1
  9
$MEASUREMENT
 70
1
  9
$INSUNITS
 70
4
  0
ENDSEC
  0
SECTION
  2
CLASSES
  0
CLASS
  1
ACDBDICTIONARYWDFLT
  2
AcDbDictionaryWithDefault
  3
AutoCAD 2000
 90
0
 91
1
280
0
281
0
  0
CLASS
  1
ACDBPLACEHOLDER
  2
AcDbPlaceHolder
  3
AutoCAD 2000
 90
0
 91
1
280
0
281
0
  0
CLASS
  1
LAYOUT
  2
AcDbLayout
  3
AutoCAD 2000
 90
0
 91
0
280
0
281
0
  0
ENDSEC
  0
SECTION
  2
TABLES
  0
TABLE
  2
VPORT
  5
8
100
AcDbSymbolTable
 70
2
  0
VPORT
  5
1F4
100
AcDbSymbolTableRecord
100
AcDbViewportTableRecord
  2
*ACTIVE
 70
0
 10
0.0
 20
0.0
 11
1.0
 21
1.0
 12
148.5
 22
105.0
 13
0.0
 23
0.0
 14
1.0
 24
1.0
 15
0.0
 25
0.0
 16
0.0
 26
0.0
 36
1.0
 17
0.0
 27
0.0
 37
0.0
 40
210.0
 41
1.4142857143
 42
50.0
 43
0.0
 44
0.0
 50
0.0
 51
0.0
 71
0
 72
100
 73
1
 74
1
 75
0
 76
0
 77
0
 78
0
  0
ENDTAB
  0
TABLE
  2
LTYPE
  5
5
100
AcDbSymbolTable
 70
6
  0
LTYPE
  5
14
100
AcDbSymbolTableRecord
100
AcDbLinetypeTableRecord
  2
BYBLOCK
 70
0
  3

 72
65
 73
0
 40
0.0
  0
LTYPE
  5
15
100
AcDbSymbolTableRecord
100
AcDbLinetypeTableRecord
  2
BYLAYER
 70
0
  3

 72
65
 73
0
 40
0.0
  0
LTYPE
  5
16
100
AcDbSymbolTableRecord
100
AcDbLinetypeTableRecord
  2
CONTINUOUS
 70
64
  3
Solid line
 72
65
 73
0
 40
0.0
  0
LTYPE
  5
1F5
100
AcDbSymbolTableRecord
100
AcDbLinetypeTableRecord
  2
CENTER
 70
64
  3
____ _ ____ _ ____ _ ____ _ ____ _ ____ _ ____
 72
65
 73
4
 40
0.6
 49
0.375
 74
0
 49
-0.075
 74
0
 49
0.075
 74
0
 49
-0.075
 74
0
  0
LTYPE
  5
1F6
100
AcDbSymbolTableRecord
100
AcDbLinetypeTableRecord
  2
HIDDEN
 70
64
  3
- - - - - - - - - - - - - - - - - - - -
 72
65
 73
2
 40
0.2
 49
0.1
 74
0
 49
-0.1
 74
0
  0
LTYPE
  5
1F7
100
AcDbSymbolTableRecord
100
AcDbLinetypeTableRecord
  2
PHANTOM
 70
64
  3
_____ _ _ _____ _ _ _____ _ _ _____
 72
65
 73
6
 40
0.8
 49
0.45
 74
0
 49
-0.05
 74
0
 49
0.1
 74
0
 49
-0.05
 74
0
 49
0.1
 74
0
 49
-0.05
 74
0
  0
LTYPE
  5
1F8
100
AcDbSymbolTableRecord
100
AcDbLinetypeTableRecord
  2
DOT
 70
64
  3
. . . . . . . . . . . . . . . . . . . .
 72
65
 73
2
 40
0.2
 49
0.1
 74
0
 49
-0.1
 74
0
  0
LTYPE
  5
1F9
100
AcDbSymbolTableRecord
100
AcDbLinetypeTableRecord
  2
DASHED
 70
64
  3
- - - - - - - - - - - - - - - - - - - -
 72
65
 73
2
 40
0.2
 49
0.1
 74
0
 49
-0.1
 74
0
  0
ENDTAB
  0
TABLE
  2
LAYER
  5
2
100
AcDbSymbolTable
 70
36
  0
LAYER
  5
10
100
AcDbSymbolTableRecord
100
AcDbLayerTableRecord
  2
0
 70
0
 62
7
  6
CONTINUOUS
370
-3
390
F
  0
LAYER
  5
1FA
100
AcDbSymbolTableRecord
100
AcDbLayerTableRecord
  2
DEFAULT_1
 70
0
 62
7
  6
CENTER
370
-3
390
F
  0
LAYER
  5
1FB
100
AcDbSymbolTableRecord
100
AcDbLayerTableRecord
  2
DEFAULT_2
 70
0
 62
8
  6
HIDDEN
370
-3
390
F
  0
LAYER
  5
1FC
100
AcDbSymbolTableRecord
100
AcDbLayerTableRecord
  2
DEFAULT_3
 70
0
 62
7
  6
PHANTOM
370
-3
390
F
  0
LAYER
  5
1FD
100
AcDbSymbolTableRecord
100
AcDbLayerTableRecord
  2
ACHSEN
 70
0
 62
7
  6
CONTINUOUS
370
-3
390
F
  0
LAYER
  5
1FE
100
AcDbSymbolTableRecord
100
AcDbLayerTableRecord
  2
BEZUGSACHSEN
 70
0
 62
7
  6
CONTINUOUS
370
-3
390
F
  0
LAYER
  5
1FF
100
AcDbSymbolTableRecord
100
AcDbLayerTableRecord
  2
BEZUGSEBENE_B
 70
0
 62
7
  6
CONTINUOUS
370
-3
390
F
  0
LAYER
  5
200
100
AcDbSymbolTableRecord
100
AcDbLayerTableRecord
  2
BOHRUNGEN
 70
0
 62
7
  6
CONTINUOUS
370
-3
390
F
  0
LAYER
  5
201
100
AcDbSymbolTableRecord
100
AcDbLayerTableRecord
  2
EBENEN
 70
0
 62
7
  6
CONTINUOUS
370
-3
390
F
  0
LAYER
  5
202
100
AcDbSymbolTableRecord
100
AcDbLayerTableRecord
  2
FASEN
 70
0
 62
7
  6
CONTINUOUS
370
-3
390
F
  0
LAYER
  5
203
100
AcDbSymbolTableRecord
100
AcDbLayerTableRecord
  2
FLAECHEN
 70
0
 62
7
  6
CONTINUOUS
370
-3
390
F
  0
LAYER
  5
204
100
AcDbSymbolTableRecord
100
AcDbLayerTableRecord
  2
GEWINDE
 70
0
 62
7
  6
CONTINUOUS
370
-3
390
F
  0
LAYER
  5
205
100
AcDbSymbolTableRecord
100
AcDbLayerTableRecord
  2
KOORDSYS
 70
0
 62
7
  6
CONTINUOUS
370
-3
390
F
  0
LAYER
  5
206
100
AcDbSymbolTableRecord
100
AcDbLayerTableRecord
  2
KURVEN
 70
0
 62
7
  6
CONTINUOUS
370
-3
390
F
  0
LAYER
  5
207
100
AcDbSymbolTableRecord
100
AcDbLayerTableRecord
  2
KURVE_FUER_GTOL_DETAILANSICHT
 70
0
 62
7
  6
CONTINUOUS
370
-3
390
F
  0
LAYER
  5
208
100
AcDbSymbolTableRecord
100
AcDbLayerTableRecord
  2
KURVE_GAUGE2_POLIGON_INNENEINST
 70
0
 62
7
  6
CONTINUOUS
370
-3
390
F
  0
LAYER
  5
209
100
AcDbSymbolTableRecord
100
AcDbLayerTableRecord
  2
KURVE_PHANTOM1_GAUGE_PIN_1
 70
0
 62
7
  6
CONTINUOUS
370
-3
390
F
  0
LAYER
  5
20A
100
AcDbSymbolTableRecord
100
AcDbLayerTableRecord
  2
KURVE_PHANTOM2_GAUGE_PIN1
 70
0
 62
7
  6
CONTINUOUS
370
-3
390
F
  0
LAYER
  5
20B
100
AcDbSymbolTableRecord
100
AcDbLayerTableRecord
  2
KURVE_POLIGON_BEMASUNG
 70
0
 62
7
  6
CONTINUOUS
370
-3
390
F
  0
LAYER
  5
20C
100
AcDbSymbolTableRecord
100
AcDbLayerTableRecord
  2
LAY0001
 70
0
 62
7
  6
CONTINUOUS
370
-3
390
F
  0
LAYER
  5
20D
100
AcDbSymbolTableRecord
100
AcDbLayerTableRecord
  2
PUNKTE
 70
0
 62
7
  6
CONTINUOUS
370
-3
390
F
  0
LAYER
  5
20E
100
AcDbSymbolTableRecord
100
AcDbLayerTableRecord
  2
RUNDUNGEN
 70
0
 62
7
  6
CONTINUOUS
370
-3
390
F
  0
LAYER
  5
20F
100
AcDbSymbolTableRecord
100
AcDbLayerTableRecord
  2
S_ACHSEN
 70
0
 62
7
  6
CONTINUOUS
370
-3
390
F
  0
LAYER
  5
210
100
AcDbSymbolTableRecord
100
AcDbLayerTableRecord
  2
S_EBENEN
 70
0
 62
7
  6
CONTINUOUS
370
-3
390
F
  0
LAYER
  5
211
100
AcDbSymbolTableRecord
100
AcDbLayerTableRecord
  2
S_KOORDSYS
 70
0
 62
7
  6
CONTINUOUS
370
-3
390
F
  0
LAYER
  5
212
100
AcDbSymbolTableRecord
100
AcDbLayerTableRecord
  2
TOL_BEZUEGE
 70
0
 62
7
  6
CONTINUOUS
370
-3
390
F
  0
LAYER
  5
213
100
AcDbSymbolTableRecord
100
AcDbLayerTableRecord
  2
VERBFLAECHE
 70
0
 62
7
  6
CONTINUOUS
370
-3
390
F
  0
LAYER
  5
214
100
AcDbSymbolTableRecord
100
AcDbLayerTableRecord
  2
ZEICHNUNGSBEMASSUNGEN
 70
0
 62
7
  6
CONTINUOUS
370
-3
390
F
  0
ENDTAB
  0
TABLE
  2
STYLE
  5
3
100
AcDbSymbolTable
 70
1
  0
STYLE
  5
11
100
AcDbSymbolTableRecord
100
AcDbTextStyleTableRecord
  2
STANDARD
 70
0
 40
0.0
 41
0.7
 50
0.0
 71
0
 42
0.2
  3
txt
  4

  0
STYLE
  5
215
100
AcDbSymbolTableRecord
100
AcDbTextStyleTableRecord
  2
TEXTSTYLE_1
 70
0
 40
0.0
 41
0.8
 50
0.0
 71
0
 42
0.2
  3
gdt
  4

  0
STYLE
  5
216
100
AcDbSymbolTableRecord
100
AcDbTextStyleTableRecord
  2
TEXTSTYLE_2
 70
0
 40
0.0
 41
0.7
 50
0.0
 71
0
 42
0.2
  3
gdt
  4

  0
ENDTAB
  0
TABLE
  2
VIEW
  5
6
100
AcDbSymbolTable
 70
0
  0
ENDTAB
  0
TABLE
  2
UCS
  5
7
100
AcDbSymbolTable
 70
0
  0
ENDTAB
  0
TABLE
  2
APPID
  5
9
100
AcDbSymbolTable
 70
1
  0
APPID
  5
217
100
AcDbSymbolTableRecord
100
AcDbRegAppTableRecord
  2
ACAD
 70
0
  0
ENDTAB
  0
TABLE
  2
BLOCK_RECORD
  5
1
100
AcDbSymbolTable
 70
0
  0
BLOCK_RECORD
  5
218
100
AcDbSymbolTableRecord
100
AcDbBlockTableRecord
  2
*Model_Space
  0
BLOCK_RECORD
  5
219
100
AcDbSymbolTableRecord
100
AcDbBlockTableRecord
  2
*Paper_Space
  0
BLOCK_RECORD
  5
21A
100
AcDbSymbolTableRecord
100
AcDbBlockTableRecord
  2
_FILLED
  0
BLOCK_RECORD
  5
21B
100
AcDbSymbolTableRecord
100
AcDbBlockTableRecord
  2
*D0
  0
BLOCK_RECORD
  5
21C
100
AcDbSymbolTableRecord
100
AcDbBlockTableRecord
  2
*D1
  0
BLOCK_RECORD
  5
21D
100
AcDbSymbolTableRecord
100
AcDbBlockTableRecord
  2
*D2
  0
BLOCK_RECORD
  5
21E
100
AcDbSymbolTableRecord
100
AcDbBlockTableRecord
  2
*D3
  0
BLOCK_RECORD
  5
21F
100
AcDbSymbolTableRecord
100
AcDbBlockTableRecord
  2
*D4
  0
ENDTAB
  0
TABLE
  2
DIMSTYLE
  5
A
100
AcDbSymbolTable
 70
1
100
AcDbDimStyleTable
 71
0
  0
DIMSTYLE
105
220
100
AcDbSymbolTableRecord
100
AcDbDimStyleTableRecord
  2
STANDARD
 70
0
  3

  4

 40
1.0
 41
3.5
 42
0.0625
 43
0.38
 44
0.18
 45
0.0
 46
0.0
 47
0.005
 48
0.005
140
3.5
141
0.09
142
0.0
143
25.4
144
1.0
145
0.0
146
1.0
147
0.09
 71
1.0
 72
0.0
 73
0
 74
0
 75
0
 76
0
 77
1
 78
8
170
0
171
2
172
0
173
0
174
0
175
0
176
0
177
0
178
5
270
2
271
3
272
3
273
2
274
2
275
0
280
0
281
0
282
0
283
1
284
8
285
0
286
0
287
3
288
0
340
11
341
21A
342
21A
343
21A
344
21A
  0
DIMSTYLE
105
221
100
AcDbSymbolTableRecord
100
AcDbDimStyleTableRecord
  2
DIMSTYLE_1
 70
0
  3

  4

 40
1.0
 41
3.5
 42
0.0625
 43
0.38
 44
0.18
 45
0.0
 46
0.0
 47
0.2
 48
0.2
140
3.5
141
0.09
142
0.0
143
25.4
144
1.0
145
0.0
146
1.0
147
0.09
 71
0.0
 72
0.0
 73
0
 74
0
 75
0
 76
0
 77
1
 78
8
170
0
171
2
172
0
173
0
174
0
175
0
176
0
177
0
178
5
270
2
271
2
272
2
273
2
274
2
275
0
280
0
281
0
282
0
283
1
284
8
285
0
286
0
287
3
288
0
340
11
341
21A
342
21A
343
21A
344
21A
  0
DIMSTYLE
105
222
100
AcDbSymbolTableRecord
100
AcDbDimStyleTableRecord
  2
DIMSTYLE_2
 70
0
  3

  4

 40
1.0
 41
3.5
 42
0.0625
 43
0.38
 44
0.18
 45
0.0
 46
0.0
 47
0.3
 48
0.3
140
3.5
141
0.09
142
0.0
143
25.4
144
1.0
145
0.0
146
1.0
147
0.09
 71
0.0
 72
0.0
 73
0
 74
0
 75
0
 76
0
 77
1
 78
8
170
0
171
2
172
0
173
0
174
0
175
0
176
0
177
0
178
5
270
2
271
2
272
2
273
2
274
2
275
0
280
0
281
0
282
0
283
1
284
8
285
0
286
0
287
3
288
0
340
11
341
21A
342
21A
343
21A
344
21A
  0
DIMSTYLE
105
223
100
AcDbSymbolTableRecord
100
AcDbDimStyleTableRecord
  2
DIMSTYLE_3
 70
0
  3

  4

 40
1.0
 41
3.5
 42
0.0625
 43
0.38
 44
0.18
 45
0.0
 46
0.0
 47
0.0
 48
0.15
140
3.5
141
0.09
142
0.0
143
25.4
144
1.0
145
0.0
146
1.0
147
0.09
 71
0.0
 72
0.0
 73
0
 74
0
 75
0
 76
0
 77
1
 78
8
170
0
171
2
172
0
173
0
174
0
175
0
176
0
177
0
178
5
270
2
271
2
272
2
273
2
274
2
275
0
280
0
281
0
282
0
283
1
284
8
285
0
286
0
287
3
288
0
340
11
341
21A
342
21A
343
21A
344
21A
  0
DIMSTYLE
105
224
100
AcDbSymbolTableRecord
100
AcDbDimStyleTableRecord
  2
DIMSTYLE_4
 70
0
  3

  4

 40
1.0
 41
3.5
 42
0.0625
 43
0.38
 44
0.18
 45
0.0
 46
0.0
 47
0.0
 48
0.013
140
3.5
141
0.09
142
0.0
143
25.4
144
1.0
145
0.0
146
1.0
147
0.09
 71
0.0
 72
0.0
 73
0
 74
0
 75
0
 76
0
 77
1
 78
8
170
0
171
2
172
0
173
0
174
0
175
0
176
0
177
0
178
5
270
2
271
3
272
3
273
2
274
2
275
0
280
0
281
0
282
0
283
1
284
8
285
0
286
0
287
3
288
0
340
11
341
21A
342
21A
343
21A
344
21A
  0
ENDTAB
  0
ENDSEC
  0
SECTION
  2
BLOCKS
  0
BLOCK
  5
20
100
AcDbEntity
  8
0
100
AcDbBlockBegin
  2
*Model_Space
 70
0
 10
0.0
 20
0.0
 30
0.0
  3
*Model_Space
  1

  0
ENDBLK
  5
21
100
AcDbEntity
  8
0
100
AcDbBlockEnd
  0
BLOCK
  5
1C
100
AcDbEntity
  8
0
100
AcDbBlockBegin
  2
*Paper_Space
 70
0
 10
0.0
 20
0.0
 30
0.0
  3
*Paper_Space
  1

  0
ENDBLK
  5
1D
100
AcDbEntity
  8
0
100
AcDbBlockEnd
  0
BLOCK
  5
225
100
AcDbEntity
  8
0
100
AcDbBlockBegin
  2
_FILLED
 70
64
 10
0.0
 20
0.0
  3
_FILLED
  1

  0
SOLID
  5
226
100
AcDbEntity
  8
0
  6
BYBLOCK
 62
0
100
AcDbTrace
 10
0.0
 20
0.0
 11
-1.0
 21
0.125
 12
-1.0
 22
-0.125
 13
-1.0
 23
-0.125
  0
ENDBLK
  5
227
100
AcDbEntity
  8
0
  6
BYBLOCK
 62
0
100
AcDbBlockEnd
  0
BLOCK
  5
228
100
AcDbEntity
  8
0
100
AcDbBlockBegin
 62
2
  6
CONTINUOUS
  2
*D0
 70
65
 10
0.0
 20
0.0
  3
*D0
  1

  0
MTEXT
  5
229
100
AcDbEntity
  8
0
100
AcDbMText
 62
5
  6
CONTINUOUS
  7
STANDARD
 71
2
 72
1
 10
196.7864957829
 20
183.8624833072
 30
0.0
 11
1.0
 21
0.0
 31
0.0
 44
0.9
  1
24
 40
3.5
 41
5.5
  0
LINE
  5
22A
100
AcDbEntity
  8
0
100
AcDbLine
 62
2
  6
CONTINUOUS
 10
208.7864957829
 20
125.8846804977
 11
208.7864957829
 21
174.5043201461
  0
LINE
  5
22B
100
AcDbEntity
  8
0
100
AcDbLine
 62
2
  6
CONTINUOUS
 10
208.7864957829
 20
174.7916387265
 11
208.7864957829
 21
180.9874833072
  0
LINE
  5
22C
100
AcDbEntity
  8
0
100
AcDbLine
 62
2
  6
CONTINUOUS
 10
184.7864957829
 20
168.2945306572
 11
184.7864957829
 21
180.9874833072
  0
LINE
  5
22D
100
AcDbEntity
  8
0
100
AcDbLine
 62
2
  6
CONTINUOUS
 10
208.7864957829
 20
179.4874833072
 11
196.7864957829
 21
179.4874833072
  0
LINE
  5
22E
100
AcDbEntity
  8
0
100
AcDbLine
 62
2
  6
CONTINUOUS
 10
184.7864957829
 20
179.4874833072
 11
196.7864957829
 21
179.4874833072
  0
INSERT
  5
22F
100
AcDbEntity
  8
0
100
AcDbBlockReference
 62
2
  6
CONTINUOUS
  2
_FILLED
 10
208.7864957829
 20
179.4874833072
 41
3.5
 42
3.5
 43
3.5
  0
INSERT
  5
230
100
AcDbEntity
  8
0
100
AcDbBlockReference
 62
2
  6
CONTINUOUS
  2
_FILLED
 10
184.7864957829
 20
179.4874833072
 41
3.5
 42
3.5
 43
3.5
 50
180.0
  0
ENDBLK
  5
231
100
AcDbEntity
  8
0
  6
BYBLOCK
 62
0
100
AcDbBlockEnd
  0
BLOCK
  5
232
100
AcDbEntity
  8
0
100
AcDbBlockBegin
 62
2
  6
CONTINUOUS
  2
*D1
 70
65
 10
0.0
 20
0.0
  3
*D1
  1

  0
MTEXT
  5
233
100
AcDbEntity
  8
0
100
AcDbMText
 62
5
  6
CONTINUOUS
  7
STANDARD
 71
2
 72
1
 10
166.7864957829
 20
192.4831841314
 30
0.0
 11
1.0
 21
0.0
 31
0.0
 44
0.9
  1
84
 40
3.5
 41
5.5
  0
LINE
  5
234
100
AcDbEntity
  8
0
100
AcDbLine
 62
2
  6
CONTINUOUS
 10
208.7864957829
 20
125.8846804977
 11
208.7864957829
 21
157.7399267344
  0
LINE
  5
235
100
AcDbEntity
  8
0
100
AcDbLine
 62
2
  6
CONTINUOUS
 10
208.7864957829
 20
174.6958658663
 11
208.7864957829
 21
189.6081841314
  0
LINE
  5
236
100
AcDbEntity
  8
0
100
AcDbLine
 62
2
  6
CONTINUOUS
 10
124.7864957829
 20
119.1953147284
 11
124.7864957829
 21
189.6081841314
  0
LINE
  5
237
100
AcDbEntity
  8
0
100
AcDbLine
 62
2
  6
CONTINUOUS
 10
208.7864957829
 20
188.1081841314
 11
166.7864957829
 21
188.1081841314
  0
LINE
  5
238
100
AcDbEntity
  8
0
100
AcDbLine
 62
2
  6
CONTINUOUS
 10
124.7864957829
 20
188.1081841314
 11
166.7864957829
 21
188.1081841314
  0
INSERT
  5
239
100
AcDbEntity
  8
0
100
AcDbBlockReference
 62
2
  6
CONTINUOUS
  2
_FILLED
 10
208.7864957829
 20
188.1081841314
 41
3.5
 42
3.5
 43
3.5
  0
INSERT
  5
23A
100
AcDbEntity
  8
0
100
AcDbBlockReference
 62
2
  6
CONTINUOUS
  2
_FILLED
 10
124.7864957829
 20
188.1081841314
 41
3.5
 42
3.5
 43
3.5
 50
180.0
  0
ENDBLK
  5
23B
100
AcDbEntity
  8
0
  6
BYBLOCK
 62
0
100
AcDbBlockEnd
  0
BLOCK
  5
23C
100
AcDbEntity
  8
0
100
AcDbBlockBegin
 62
2
  6
CONTINUOUS
  2
*D2
 70
65
 10
0.0
 20
0.0
  3
*D2
  1

  0
MTEXT
  5
23D
100
AcDbEntity
  8
0
100
AcDbMText
 62
5
  6
CONTINUOUS
  7
TEXTSTYLE_2
 71
2
 72
1
 10
226.2977593208
 20
137.8814304977
 30
0.0
 11
0.0
 21
1.0
 31
0.0
 44
0.9
  1
{\Fgdt;n}\Ftxt;60
 40
3.5
 41
10.1666666667
  0
LINE
  5
23E
100
AcDbEntity
  8
0
100
AcDbLine
 62
2
  6
CONTINUOUS
 10
186.2864957829
 20
167.8439304977
 11
203.3527293991
 21
167.8439304977
  0
LINE
  5
23F
100
AcDbEntity
  8
0
100
AcDbLine
 62
2
  6
CONTINUOUS
 10
212.3618117241
 20
167.8439304977
 11
232.1727593208
 21
167.8439304977
  0
LINE
  5
240
100
AcDbEntity
  8
0
100
AcDbLine
 62
2
  6
CONTINUOUS
 10
186.2864957829
 20
107.9189304977
 11
232.1727593208
 21
107.9189304977
  0
LINE
  5
241
100
AcDbEntity
  8
0
100
AcDbLine
 62
2
  6
CONTINUOUS
 10
230.6727593208
 20
167.8439304977
 11
230.6727593208
 21
137.8814304977
  0
LINE
  5
242
100
AcDbEntity
  8
0
100
AcDbLine
 62
2
  6
CONTINUOUS
 10
230.6727593208
 20
107.9189304977
 11
230.6727593208
 21
137.8814304977
  0
INSERT
  5
243
100
AcDbEntity
  8
0
100
AcDbBlockReference
 62
2
  6
CONTINUOUS
  2
_FILLED
 10
230.6727593208
 20
167.8439304977
 41
3.5
 42
3.5
 43
3.5
 50
90.0
  0
INSERT
  5
244
100
AcDbEntity
  8
0
100
AcDbBlockReference
 62
2
  6
CONTINUOUS
  2
_FILLED
 10
230.6727593208
 20
107.9189304977
 41
3.5
 42
3.5
 43
3.5
 50
270.0
  0
ENDBLK
  5
245
100
AcDbEntity
  8
0
  6
BYBLOCK
 62
0
100
AcDbBlockEnd
  0
BLOCK
  5
246
100
AcDbEntity
  8
0
100
AcDbBlockBegin
 62
2
  6
CONTINUOUS
  2
*D3
 70
65
 10
0.0
 20
0.0
  3
*D3
  1

  0
MTEXT
  5
247
100
AcDbEntity
  8
0
100
AcDbMText
 62
5
  6
CONTINUOUS
  7
TEXTSTYLE_2
 71
2
 72
1
 10
217.1493467657
 20
137.8814304977
 30
0.0
 11
0.0
 21
1.0
 31
0.0
 44
0.9
  1
{\Fgdt;n}\Ftxt;27
 40
3.5
 41
10.1666666667
  0
LINE
  5
248
100
AcDbEntity
  8
0
100
AcDbLine
 62
2
  6
CONTINUOUS
 10
210.2864957829
 20
151.3781804977
 11
223.0243467657
 21
151.3781804977
  0
LINE
  5
249
100
AcDbEntity
  8
0
100
AcDbLine
 62
2
  6
CONTINUOUS
 10
210.2864957829
 20
124.3846804977
 11
223.0243467657
 21
124.3846804977
  0
LINE
  5
24A
100
AcDbEntity
  8
0
100
AcDbLine
 62
2
  6
CONTINUOUS
 10
221.5243467657
 20
151.3781804977
 11
221.5243467657
 21
137.8814304977
  0
LINE
  5
24B
100
AcDbEntity
  8
0
100
AcDbLine
 62
2
  6
CONTINUOUS
 10
221.5243467657
 20
124.3846804977
 11
221.5243467657
 21
137.8814304977
  0
INSERT
  5
24C
100
AcDbEntity
  8
0
100
AcDbBlockReference
 62
2
  6
CONTINUOUS
  2
_FILLED
 10
221.5243467657
 20
151.3781804977
 41
3.5
 42
3.5
 43
3.5
 50
90.0
  0
INSERT
  5
24D
100
AcDbEntity
  8
0
100
AcDbBlockReference
 62
2
  6
CONTINUOUS
  2
_FILLED
 10
221.5243467657
 20
124.3846804977
 41
3.5
 42
3.5
 43
3.5
 50
270.0
  0
ENDBLK
  5
24E
100
AcDbEntity
  8
0
  6
BYBLOCK
 62
0
100
AcDbBlockEnd
  0
BLOCK
  5
24F
100
AcDbEntity
  8
0
100
AcDbBlockBegin
 62
2
  6
CONTINUOUS
  2
*D4
 70
65
 10
0.0
 20
0.0
  3
*D4
  1

  0
MTEXT
  5
250
100
AcDbEntity
  8
0
100
AcDbMText
 62
5
  6
CONTINUOUS
  7
STANDARD
 71
2
 72
1
 10
175.2864957829
 20
99.5288325676
 30
0.0
 11
1.0
 21
0.0
 31
0.0
 44
0.9
  1
25
 40
3.5
 41
5.25
  0
LINE
  5
251
100
AcDbEntity
  8
0
100
AcDbLine
 62
2
  6
CONTINUOUS
 10
162.7864957829
 20
107.740269647
 11
162.7864957829
 21
93.6538325676
  0
LINE
  5
252
100
AcDbEntity
  8
0
100
AcDbLine
 62
2
  6
CONTINUOUS
 10
187.7864957829
 20
106.4189304977
 11
187.7864957829
 21
93.6538325676
  0
LINE
  5
253
100
AcDbEntity
  8
0
100
AcDbLine
 62
2
  6
CONTINUOUS
 10
162.7864957829
 20
95.1538325676
 11
175.2864957829
 21
95.1538325676
  0
LINE
  5
254
100
AcDbEntity
  8
0
100
AcDbLine
 62
2
  6
CONTINUOUS
 10
187.7864957829
 20
95.1538325676
 11
175.2864957829
 21
95.1538325676
  0
INSERT
  5
255
100
AcDbEntity
  8
0
100
AcDbBlockReference
 62
2
  6
CONTINUOUS
  2
_FILLED
 10
162.7864957829
 20
95.1538325676
 41
3.5
 42
3.5
 43
3.5
 50
180.0
  0
INSERT
  5
256
100
AcDbEntity
  8
0
100
AcDbBlockReference
 62
2
  6
CONTINUOUS
  2
_FILLED
 10
187.7864957829
 20
95.1538325676
 41
3.5
 42
3.5
 43
3.5
  0
ENDBLK
  5
257
100
AcDbEntity
  8
0
  6
BYBLOCK
 62
0
100
AcDbBlockEnd
  0
ENDSEC
  0
SECTION
  2
ENTITIES
  0
DIMENSION
  5
258
100
AcDbEntity
  8
0
100
AcDbDimension
 62
2
  6
CONTINUOUS
  2
*D0
 10
184.7864957829
 20
179.4874833072
 11
194.0364957829
 21
182.1124833072
 70
160
 71
2
 42
24.0
  3
DIMSTYLE_1
100
AcDbAlignedDimension
 13
208.7864957829
 23
125.8846804977
 14
184.7864957829
 24
168.2945306572
 50
180.0
100
AcDbRotatedDimension
  0
DIMENSION
  5
259
100
AcDbEntity
  8
0
100
AcDbDimension
 62
2
  6
CONTINUOUS
  2
*D1
 10
124.7864957829
 20
188.1081841314
 11
164.0364957829
 21
190.7331841314
 70
160
 71
2
 42
84.0
  3
DIMSTYLE_2
100
AcDbAlignedDimension
 13
208.7864957829
 23
125.8846804977
 14
124.7864957829
 24
119.1953147284
 50
180.0
100
AcDbRotatedDimension
  0
DIMENSION
  5
25A
100
AcDbEntity
  8
0
100
AcDbDimension
 62
2
  6
CONTINUOUS
  2
*D2
 10
230.6727593208
 20
107.9189304977
 11
229.1866130952
 21
135.6091889778
 70
160
 71
2
 42
59.925
  1
%%c<>
  3
DIMSTYLE_3
100
AcDbAlignedDimension
 13
186.2864957829
 23
167.8439304977
 14
186.2864957829
 24
107.9189304977
 50
270.0
100
AcDbRotatedDimension
  0
DIMENSION
  5
25B
100
AcDbEntity
  8
0
100
AcDbDimension
 62
2
  6
CONTINUOUS
  2
*D3
 10
221.5243467657
 20
124.3846804977
 11
220.03820054
 21
135.6091889778
 70
160
 71
2
 42
26.9935
  1
%%c<>
  3
DIMSTYLE_4
100
AcDbAlignedDimension
 13
210.2864957829
 23
151.3781804977
 14
210.2864957829
 24
124.3846804977
 50
270.0
100
AcDbRotatedDimension
  0
DIMENSION
  5
25C
100
AcDbEntity
  8
0
100
AcDbDimension
 62
2
  6
CONTINUOUS
  2
*D4
 10
187.7864957829
 20
95.1538325676
 11
172.6614957829
 21
97.7788325676
 70
160
 71
2
 42
25.0
  3
DIMSTYLE_1
100
AcDbAlignedDimension
 13
162.7864957829
 23
107.740269647
 14
187.7864957829
 24
106.4189304977
100
AcDbRotatedDimension
  0
MTEXT
  5
25D
100
AcDbEntity
  8
0
100
AcDbMText
 62
5
  6
CONTINUOUS
  7
STANDARD
 71
1
 72
1
 10
26.0685420998
 20
85.3896179834
 30
0.0
 11
1.0
 21
0.0
 31
0.0
 44
0.9
  3
Für diese Unterlage behalten wir das Ur-\Pheberrecht. Sie darf nur für den von uns \Pbestimmten Zweck benutzt und ohne unsere \PZustimmung weder vervielfältigt noch\PDritten zugänglich gemacht werden\P \PWe own the copyright of this document. It \Pde
  1
termined and may neither be copied or \Pmade accessible to outsiders without our\Ppermission.\P \PCe plan reste notre propriété. Il ne peut\Pêtre utilisé, copié ou reproduit sans notre\Paccord.\P 
 40
3.5
 41
104.8333333333
  0
LINE
  5
25E
100
AcDbEntity
  8
0
100
AcDbLine
 62
7
  6
CONTINUOUS
 10
0.0
 20
0.0
 11
0.0
 21
210.0
  0
LINE
  5
25F
100
AcDbEntity
  8
0
100
AcDbLine
 62
7
  6
CONTINUOUS
 10
0.0
 20
0.0
 11
297.0
 21
0.0
  0
LINE
  5
260
100
AcDbEntity
  8
0
100
AcDbLine
 62
7
  6
CONTINUOUS
 10
0.0
 20
210.0
 11
297.0
 21
210.0
  0
LINE
  5
261
100
AcDbEntity
  8
0
100
AcDbLine
 62
7
  6
CONTINUOUS
 10
297.0
 20
0.0
 11
297.0
 21
210.0
  0
LINE
  5
262
100
AcDbEntity
  8
0
100
AcDbLine
 62
7
  6
CONTINUOUS
 10
124.7864957829
 20
116.1890925049
 11
124.7864957829
 21
152.8426751365
  0
LINE
  5
263
100
AcDbEntity
  8
ACHSEN
100
AcDbLine
 62
7
  6
CONTINUOUS
 10
124.7864957829
 20
152.8426751365
 11
124.7864957829
 21
156.6299098117
  0
LINE
  5
264
100
AcDbEntity
  8
ACHSEN
100
AcDbLine
 62
7
  6
CONTINUOUS
 10
126.2864957829
 20
157.3784201113
 11
126.2864957829
 21
153.5926751365
  0
LINE
  5
265
100
AcDbEntity
  8
0
100
AcDbLine
 62
7
  6
CONTINUOUS
 10
126.2864957829
 20
153.5926751365
 11
126.2864957829
 21
115.3230671011
  0
LINE
  5
266
100
AcDbEntity
  8
0
100
AcDbLine
 62
9
  6
CONTINUOUS
 10
126.2864957829
 20
153.5926751365
 11
124.7864957829
 21
152.8426751365
  0
LINE
  5
267
100
AcDbEntity
  8
0
100
AcDbLine
 62
7
  6
CONTINUOUS
 10
126.2864957829
 20
115.3230671011
 11
124.7864957829
 21
116.1890925049
  0
LINE
  5
268
100
AcDbEntity
  8
0
100
AcDbLine
 62
9
  6
CONTINUOUS
 10
126.2864957829
 20
116.9453147284
 11
124.7864957829
 21
117.6953147284
  0
LINE
  5
269
100
AcDbEntity
  8
0
100
AcDbLine
 62
7
  6
CONTINUOUS
 10
162.7864976188
 20
169.0814285904
 11
163.0864977087
 21
169.3814286443
  0
LINE
  5
26A
100
AcDbEntity
  8
0
100
AcDbLine
 62
7
  6
CONTINUOUS
 10
184.7864957829
 20
106.3814304977
 11
163.0864958553
 21
106.3814304977
  0
LINE
  5
26B
100
AcDbEntity
  8
0
100
AcDbLine
 62
7
  6
CONTINUOUS
 10
176.2478206483
 20
107.8008377374
 11
173.3251709175
 21
107.8008377374
  0
LINE
  5
26C
100
AcDbEntity
  8
RUNDUNGEN
100
AcDbLine
 62
7
  6
CONTINUOUS
 10
186.7864957829
 20
107.9189304977
 11
185.7864957829
 21
107.9189304977
  0
LINE
  5
26D
100
AcDbEntity
  8
0
100
AcDbLine
 62
7
  6
CONTINUOUS
 10
185.7864957829
 20
107.9189304977
 11
186.7864957829
 21
107.9189304977
  0
LINE
  5
26E
100
AcDbEntity
  8
0
100
AcDbLine
 62
7
  6
CONTINUOUS
 10
162.7864976188
 20
106.6814324051
 11
163.0864977087
 21
106.3814323512
  0
LINE
  5
26F
100
AcDbEntity
  8
ACHSEN
100
AcDbLine
 62
7
  6
CENTER
 10
147.2864957829
 20
114.9479449907
 11
147.2864957829
 21
162.0698010623
  0
LINE
  5
270
100
AcDbEntity
  8
0
100
AcDbLine
 62
7
  6
CONTINUOUS
 10
161.0395245337
 20
115.0047016224
 11
160.791518894
 21
115.0105451062
  0
LINE
  5
271
100
AcDbEntity
  8
0
100
AcDbLine
 62
7
  6
CONTINUOUS
 10
126.2864957829
 20
115.3230671011
 11
160.7968986057
 21
114.4560456619
  0
LINE
  5
272
100
AcDbEntity
  8
0
100
AcDbLine
 62
9
  6
CONTINUOUS
 10
160.5865588719
 20
116.1990286185
 11
126.2864957829
 21
116.9453147284
  0
LINE
  5
273
100
AcDbEntity
  8
0
100
AcDbLine
 62
7
  6
CONTINUOUS
 10
207.7864957829
 20
124.3846804977
 11
190.4864957829
 21
124.3846804977
  0
LINE
  5
274
100
AcDbEntity
  8
0
100
AcDbLine
 62
7
  6
CONTINUOUS
 10
162.5865189903
 20
116.4855039408
 11
162.5864957829
 21
116.4880440406
  0
LINE
  5
275
100
AcDbEntity
  8
0
100
AcDbLine
 62
7
  6
CONTINUOUS
 10
160.5865588719
 20
158.5015308673
 11
160.5865588719
 21
154.3389612464
  0
LINE
  5
276
100
AcDbEntity
  8
0
100
AcDbLine
 62
7
  6
CONTINUOUS
 10
160.5865588719
 20
143.1063016283
 11
160.5865588719
 21
116.1990286185
  0
LINE
  5
277
100
AcDbEntity
  8
0
100
AcDbLine
 62
9
  6
CONTINUOUS
 10
160.791518894
 20
158.3066170675
 11
160.791518894
 21
152.5663727025
  0
LINE
  5
278
100
AcDbEntity
  8
0
100
AcDbLine
 62
9
  6
CONTINUOUS
 10
160.791518894
 20
146.0673736845
 11
160.791518894
 21
115.0105451062
  0
LINE
  5
279
100
AcDbEntity
  8
0
100
AcDbLine
 62
9
  6
CONTINUOUS
 10
161.4793890017
 20
115.1385372789
 11
161.4793890017
 21
115.7778738468
  0
LINE
  5
27A
100
AcDbEntity
  8
0
100
AcDbLine
 62
9
  6
CONTINUOUS
 10
161.4793890017
 20
144.2959702585
 11
161.4793890017
 21
153.5704473879
  0
LINE
  5
27B
100
AcDbEntity
  8
0
100
AcDbLine
 62
9
  6
CONTINUOUS
 10
162.391518894
 20
158.3468146366
 11
162.391518894
 21
154.2259087847
  0
LINE
  5
27C
100
AcDbEntity
  8
0
100
AcDbLine
 62
9
  6
CONTINUOUS
 10
162.391518894
 20
143.0643809509
 11
162.391518894
 21
116.3540017576
  0
LINE
  5
27D
100
AcDbEntity
  8
0
100
AcDbLine
 62
7
  6
CONTINUOUS
 10
162.5864957829
 20
116.4820154811
 11
162.5864957829
 21
142.4697620454
  0
LINE
  5
27E
100
AcDbEntity
  8
0
100
AcDbLine
 62
7
  6
CONTINUOUS
 10
162.5864957829
 20
154.6925138037
 11
162.5864957829
 21
160.4149153588
  0
LINE
  5
27F
100
AcDbEntity
  8
0
100
AcDbLine
 62
7
  6
CONTINUOUS
 10
162.7864957829
 20
106.6817061673
 11
162.7864957829
 21
169.0811548282
  0
LINE
  5
280
100
AcDbEntity
  8
0
100
AcDbLine
 62
7
  6
CONTINUOUS
 10
188.4364957829
 20
124.8346804977
 11
188.6951682965
 21
124.8346804977
  0
LINE
  5
281
100
AcDbEntity
  8
RUNDUNGEN
100
AcDbLine
 62
7
  6
CONTINUOUS
 10
188.4364957829
 20
124.8346804977
 11
188.6951682965
 21
124.8346804977
  0
LINE
  5
282
100
AcDbEntity
  8
0
100
AcDbLine
 62
7
  6
CONTINUOUS
 10
176.2478206483
 20
128.5322091832
 11
173.3251709175
 21
128.5322091832
  0
LINE
  5
283
100
AcDbEntity
  8
RUNDUNGEN
100
AcDbLine
 62
7
  6
CONTINUOUS
 10
188.915164485
 20
124.8057174501
 11
188.6951682965
 21
124.8346804977
  0
LINE
  5
284
100
AcDbEntity
  8
0
100
AcDbLine
 62
7
  6
CONTINUOUS
 10
163.0864958564
 20
106.3814304977
 11
163.0864958564
 21
169.3814304977
  0
LINE
  5
285
100
AcDbEntity
  8
0
100
AcDbLine
 62
7
  6
CONTINUOUS
 10
188.9151644848
 20
124.8057174501
 11
190.4864957829
 21
124.3846804977
  0
LINE
  5
286
100
AcDbEntity
  8
RUNDUNGEN
100
AcDbLine
 62
7
  6
CONTINUOUS
 10
188.9151644848
 20
124.8057174501
 11
190.4864957829
 21
124.3846804977
  0
LINE
  5
287
100
AcDbEntity
  8
0
100
AcDbLine
 62
9
  6
CONTINUOUS
 10
172.8921582156
 20
167.7953853442
 11
172.8921582156
 21
147.7508431167
  0
LINE
  5
288
100
AcDbEntity
  8
0
100
AcDbLine
 62
9
  6
CONTINUOUS
 10
172.8921582156
 20
128.0120178788
 11
172.8921582156
 21
107.9674756513
  0
LINE
  5
289
100
AcDbEntity
  8
0
100
AcDbLine
 62
9
  6
CONTINUOUS
 10
173.3251709175
 20
167.9620232581
 11
173.3251709175
 21
147.2306518123
  0
LINE
  5
28A
100
AcDbEntity
  8
0
100
AcDbLine
 62
9
  6
CONTINUOUS
 10
173.3251709175
 20
128.5322091832
 11
173.3251709175
 21
107.8008377374
  0
LINE
  5
28B
100
AcDbEntity
  8
ACHSEN
100
AcDbLine
 62
7
  6
CENTER
 10
174.7864957829
 20
161.2466695261
 11
174.7864957829
 21
172.3814304977
  0
LINE
  5
28C
100
AcDbEntity
  8
0
100
AcDbLine
 62
7
  6
CONTINUOUS
 10
161.4793890017
 20
115.1385372789
 11
160.7968986054
 21
114.4560468827
  0
LINE
  5
28D
100
AcDbEntity
  8
BEZUGSACHSEN
100
AcDbLine
 62
7
  6
CENTER
 10
190.7864957829
 20
137.8814304977
 11
169.7864957829
 21
137.8814304977
  0
LINE
  5
28E
100
AcDbEntity
  8
S_ACHSEN
100
AcDbLine
 62
7
  6
CENTER
 10
121.7864957829
 20
137.8814304977
 11
211.7864957829
 21
137.8814304977
  0
LINE
  5
28F
100
AcDbEntity
  8
0
100
AcDbLine
 62
9
  6
CONTINUOUS
 10
176.2478206483
 20
167.9620232581
 11
176.2478206483
 21
147.2306518123
  0
LINE
  5
290
100
AcDbEntity
  8
0
100
AcDbLine
 62
9
  6
CONTINUOUS
 10
176.2478206483
 20
128.5322091832
 11
176.2478206483
 21
107.8008377374
  0
LINE
  5
291
100
AcDbEntity
  8
0
100
AcDbLine
 62
9
  6
CONTINUOUS
 10
176.6808333502
 20
167.7953853442
 11
176.6808333502
 21
147.7508431167
  0
LINE
  5
292
100
AcDbEntity
  8
0
100
AcDbLine
 62
9
  6
CONTINUOUS
 10
176.6808333502
 20
128.0120178788
 11
176.6808333502
 21
107.9674756513
  0
LINE
  5
293
100
AcDbEntity
  8
0
100
AcDbLine
 62
7
  6
CONTINUOUS
 10
188.9151644848
 20
150.9571435454
 11
190.4864957829
 21
151.3781804977
  0
LINE
  5
294
100
AcDbEntity
  8
RUNDUNGEN
100
AcDbLine
 62
7
  6
CONTINUOUS
 10
188.9151644848
 20
150.9571435454
 11
190.4864957829
 21
151.3781804977
  0
LINE
  5
295
100
AcDbEntity
  8
0
100
AcDbLine
 62
7
  6
CONTINUOUS
 10
160.791518894
 20
146.0673736845
 11
161.0395245337
 21
146.0683879404
  0
LINE
  5
296
100
AcDbEntity
  8
0
100
AcDbLine
 62
9
  6
CONTINUOUS
 10
124.7864957829
 20
143.1063016283
 11
160.5865588719
 21
143.1063016283
  0
LINE
  5
297
100
AcDbEntity
  8
0
100
AcDbLine
 62
7
  6
CONTINUOUS
 10
184.7864957829
 20
106.3814304977
 11
184.7864957829
 21
169.3814304977
  0
LINE
  5
298
100
AcDbEntity
  8
RUNDUNGEN
100
AcDbLine
 62
7
  6
CONTINUOUS
 10
188.915164485
 20
150.9571435454
 11
188.6951682965
 21
150.9281804977
  0
LINE
  5
299
100
AcDbEntity
  8
0
100
AcDbLine
 62
7
  6
CONTINUOUS
 10
176.2478206483
 20
147.2306518123
 11
173.3251709175
 21
147.2306518123
  0
LINE
  5
29A
100
AcDbEntity
  8
RUNDUNGEN
100
AcDbLine
 62
9
  6
CONTINUOUS
 10
185.7864957829
 20
167.8439304977
 11
185.7864957829
 21
107.9189304977
  0
LINE
  5
29B
100
AcDbEntity
  8
RUNDUNGEN
100
AcDbLine
 62
9
  6
CONTINUOUS
 10
186.7864957829
 20
107.9189304977
 11
186.7864957829
 21
167.8439304977
  0
LINE
  5
29C
100
AcDbEntity
  8
RUNDUNGEN
100
AcDbLine
 62
7
  6
CONTINUOUS
 10
187.7864957829
 20
108.9189304977
 11
187.7864957829
 21
166.8439304977
  0
LINE
  5
29D
100
AcDbEntity
  8
0
100
AcDbLine
 62
9
  6
CONTINUOUS
 10
188.4364957829
 20
150.9281804977
 11
188.4364957829
 21
124.8346804977
  0
LINE
  5
29E
100
AcDbEntity
  8
RUNDUNGEN
100
AcDbLine
 62
9
  6
CONTINUOUS
 10
188.6951682965
 20
124.8346804977
 11
188.6951682965
 21
150.9281804977
  0
LINE
  5
29F
100
AcDbEntity
  8
RUNDUNGEN
100
AcDbLine
 62
9
  6
CONTINUOUS
 10
188.9151644848
 20
124.8057174501
 11
188.9151644848
 21
150.9571435454
  0
LINE
  5
2A0
100
AcDbEntity
  8
0
100
AcDbLine
 62
9
  6
CONTINUOUS
 10
126.2864957829
 20
153.5926751365
 11
160.5865588719
 21
154.3389612464
  0
LINE
  5
2A1
100
AcDbEntity
  8
0
100
AcDbLine
 62
7
  6
CONTINUOUS
 10
161.0395245337
 20
152.5712019304
 11
160.791518894
 21
152.5663727025
  0
LINE
  5
2A2
100
AcDbEntity
  8
0
100
AcDbLine
 62
7
  6
CONTINUOUS
 10
188.4364957829
 20
150.9281804977
 11
188.6951682965
 21
150.9281804977
  0
LINE
  5
2A3
100
AcDbEntity
  8
RUNDUNGEN
100
AcDbLine
 62
7
  6
CONTINUOUS
 10
188.4364957829
 20
150.9281804977
 11
188.6951682965
 21
150.9281804977
  0
LINE
  5
2A4
100
AcDbEntity
  8
0
100
AcDbLine
 62
7
  6
CONTINUOUS
 10
190.4864957829
 20
151.3781804977
 11
207.7864957829
 21
151.3781804977
  0
LINE
  5
2A5
100
AcDbEntity
  8
0
100
AcDbLine
 62
7
  6
CONTINUOUS
 10
190.4864957829
 20
151.3781804977
 11
190.4864957829
 21
124.3846804977
  0
LINE
  5
2A6
100
AcDbEntity
  8
0
100
AcDbLine
 62
7
  6
CONTINUOUS
 10
160.791518894
 20
158.3066170675
 11
162.391518894
 21
158.3468146366
  0
LINE
  5
2A7
100
AcDbEntity
  8
0
100
AcDbLine
 62
7
  6
CONTINUOUS
 10
133.050100537
 20
157.8097191879
 11
142.8364957829
 21
158.0555874999
  0
LINE
  5
2A8
100
AcDbEntity
  8
0
100
AcDbLine
 62
7
  6
CONTINUOUS
 10
151.9658571161
 20
158.2849488332
 11
160.5865588719
 21
158.5015308673
  0
LINE
  5
2A9
100
AcDbEntity
  8
0
100
AcDbLine
 62
7
  6
CONTINUOUS
 10
185.7864957829
 20
167.8439304977
 11
186.7864957829
 21
167.8439304977
  0
LINE
  5
2AA
100
AcDbEntity
  8
0
100
AcDbLine
 62
7
  6
CONTINUOUS
 10
176.2478206483
 20
167.9620232581
 11
173.3251709175
 21
167.9620232581
  0
LINE
  5
2AB
100
AcDbEntity
  8
0
100
AcDbLine
 62
7
  6
CONTINUOUS
 10
184.7864957829
 20
169.3814304977
 11
180.0087350555
 21
169.3814304977
  0
LINE
  5
2AC
100
AcDbEntity
  8
0
100
AcDbLine
 62
7
  6
CONTINUOUS
 10
169.564258473
 20
169.3814304977
 11
163.0864958553
 21
169.3814304977
  0
LINE
  5
2AD
100
AcDbEntity
  8
RUNDUNGEN
100
AcDbLine
 62
9
  6
CONTINUOUS
 10
207.7864957829
 20
124.3846804977
 11
207.7864957829
 21
151.3781804977
  0
LINE
  5
2AE
100
AcDbEntity
  8
RUNDUNGEN
100
AcDbLine
 62
7
  6
CONTINUOUS
 10
208.7864957829
 20
125.3846804977
 11
208.7864957829
 21
150.3781804977
  0
ARC
  5
2AF
100
AcDbEntity
  8
0
100
AcDbCircle
 62
7
  6
CONTINUOUS
 10
307.0206685613
 20
88.9072326248
 40
159.2595221623
100
AcDbArc
 50
156.0446773748
 51
156.4374589831
  0
ARC
  5
2B0
100
AcDbEntity
  8
ACHSEN
100
AcDbCircle
 62
7
  6
CONTINUOUS
 10
61.0282788051
 20
286.2773700499
 40
144.4768984246
100
AcDbArc
 50
296.187103939
 51
296.8519184685
  0
ARC
  5
2B1
100
AcDbEntity
  8
0
100
AcDbCircle
 62
7
  6
CONTINUOUS
 10
54.0344845861
 20
118.5719416681
 40
110.4813700666
100
AcDbArc
 50
13.4640903998
 51
14.4111621352
  0
ARC
  5
2B2
100
AcDbEntity
  8
FASEN
100
AcDbCircle
 62
7
  6
CONTINUOUS
 10
174.9734639316
 20
201.5653154503
 40
32.6353177153
100
AcDbArc
 50
260.8474675908
 51
261.3917685846
  0
ARC
  5
2B3
100
AcDbEntity
  8
FASEN
100
AcDbCircle
 62
7
  6
CONTINUOUS
 10
174.6100016969
 20
201.4987263543
 40
32.5679111774
100
AcDbArc
 50
278.6101823943
 51
279.0126155479
  0
ARC
  5
2B4
100
AcDbEntity
  8
FASEN
100
AcDbCircle
 62
7
  6
CONTINUOUS
 10
174.7452731941
 20
200.501986487
 40
31.5621569323
100
AcDbArc
 50
270.0748326876
 51
278.638276507
  0
ARC
  5
2B5
100
AcDbEntity
  8
FASEN
100
AcDbCircle
 62
7
  6
CONTINUOUS
 10
174.7994379928
 20
200.1305769481
 40
31.1907231586
100
AcDbArc
 50
261.3133631521
 51
269.9762258149
  0
ARC
  5
2B6
100
AcDbEntity
  8
RUNDUNGEN
100
AcDbCircle
 62
7
  6
CONTINUOUS
 10
186.7864957829
 20
108.9189304977
 40
1.0
100
AcDbArc
 50
270.0
 51
360.0
  0
ARC
  5
2B7
100
AcDbEntity
  8
RUNDUNGEN
100
AcDbCircle
 62
7
  6
CONTINUOUS
 10
207.7864957829
 20
150.3781804977
 40
1.0
100
AcDbArc
 50
0.0
 51
90.0
  0
ARC
  5
2B8
100
AcDbEntity
  8
RUNDUNGEN
100
AcDbCircle
 62
7
  6
CONTINUOUS
 10
207.7864957829
 20
125.3846804977
 40
1.0
100
AcDbArc
 50
270.0
 51
360.0
  0
ARC
  5
2B9
100
AcDbEntity
  8
RUNDUNGEN
100
AcDbCircle
 62
7
  6
CONTINUOUS
 10
185.7864957829
 20
106.9189304977
 40
1.0
100
AcDbArc
 50
90.0
 51
180.0
  0
ARC
  5
2BA
100
AcDbEntity
  8
0
100
AcDbCircle
 62
7
  6
CONTINUOUS
 10
162.1864957829
 20
114.4314304977
 40
1.0
100
AcDbArc
 50
53.0400606802
 51
135.0
  0
ARC
  5
2BB
100
AcDbEntity
  8
0
100
AcDbCircle
 62
7
  6
CONTINUOUS
 10
162.1864957829
 20
161.3314304977
 40
1.0
100
AcDbArc
 50
293.5781784782
 51
306.9599393198
  0
ARC
  5
2BC
100
AcDbEntity
  8
RUNDUNGEN
100
AcDbCircle
 62
7
  6
CONTINUOUS
 10
185.7864957829
 20
168.8439304977
 40
1.0
100
AcDbArc
 50
190.2817406015
 51
270.0
  0
ARC
  5
2BD
100
AcDbEntity
  8
RUNDUNGEN
100
AcDbCircle
 62
7
  6
CONTINUOUS
 10
186.7864957829
 20
166.8439304977
 40
1.0
100
AcDbArc
 50
0.0
 51
90.0
  0
ARC
  5
2BE
100
AcDbEntity
  8
0
100
AcDbCircle
 62
7
  6
CONTINUOUS
 10
188.4364957829
 20
151.7781804977
 40
0.85
100
AcDbArc
 50
220.0267341674
 51
270.0
  0
ARC
  5
2BF
100
AcDbEntity
  8
0
100
AcDbCircle
 62
7
  6
CONTINUOUS
 10
188.4364957829
 20
123.9846804977
 40
0.85
100
AcDbArc
 50
90.0
 51
139.9732658326
  0
ARC
  5
2C0
100
AcDbEntity
  8
0
100
AcDbCircle
 62
7
  6
CONTINUOUS
 10
162.3864957829
 20
158.5467515476
 40
0.2
100
AcDbArc
 50
271.439166666
 51
360.0
  0
ARC
  5
2C1
100
AcDbEntity
  8
0
100
AcDbCircle
 62
7
  6
CONTINUOUS
 10
160.7864957829
 20
158.5065539784
 40
0.2
100
AcDbArc
 50
181.439166666
 51
271.439166666
  0
LINE
  5
2C2
100
AcDbEntity
  8
FASEN
100
AcDbLine
 62
7
  6
CONTINUOUS
 10
169.7823818052
 20
169.3454981211
 11
169.5639962637
 21
169.381430496
  0
LINE
  5
2C3
100
AcDbEntity
  8
FASEN
100
AcDbLine
 62
7
  6
CONTINUOUS
 10
180.0089950799
 20
169.3814304948
 11
179.7118279457
 21
169.3329027617
  0
LINE
  5
2C4
100
AcDbEntity
  8
ACHSEN
100
AcDbLine
 62
7
  6
CONTINUOUS
 10
131.1364957829
 20
157.4854817964
 11
126.2864957829
 21
157.3784201113
  0
LINE
  5
2C5
100
AcDbEntity
  8
ACHSEN
100
AcDbLine
 62
7
  6
CONTINUOUS
 10
133.0501151308
 20
157.8079825736
 11
133.0650660689
 21
157.810088303
  0
SPLINE
  5
2C6
100
AcDbEntity
  8
ACHSEN
100
AcDbSpline
 62
7
  6
CONTINUOUS
 70
0
 71
3
 72
10
 73
6
 74
0
 42
0.0000001
 43
0.0000001
 44
0.0000000001
 40
0.0
 40
0.0
 40
0.0
 40
0.0
 40
0.0929965444
 40
0.3287693884
 40
1.0
 40
1.0
 40
1.0
 40
1.0
 10
133.0650660684
 20
157.810088303
 30
0.0
 10
133.0049644935
 20
157.8021048057
 30
0.0
 10
132.7929120632
 20
157.7707881381
 30
0.0
 10
132.1482145508
 20
157.6738406364
 30
0.0
 10
131.5659133036
 20
157.5697703431
 30
0.0
 10
131.1364957829
 20
157.4854817964
 30
0.0
  0
SPLINE
  5
2C7
100
AcDbEntity
  8
ACHSEN
100
AcDbSpline
 62
7
  6
CONTINUOUS
 70
0
 71
3
 72
11
 73
7
 74
0
 42
0.0000001
 43
0.0000001
 44
0.0000000001
 40
0.0
 40
0.0
 40
0.0
 40
0.0
 40
0.1537099379
 40
0.500508937
 40
0.8472910559
 40
1.0
 40
1.0
 40
1.0
 40
1.0
 10
151.9658571161
 20
158.2849488332
 30
0.0
 10
151.502271847
 20
158.2136718784
 30
0.0
 10
149.9880395328
 20
158.009614106
 30
0.0
 10
147.4052651053
 20
157.8241050741
 30
0.0
 10
144.8192190753
 20
157.8770522928
 30
0.0
 10
143.2999298926
 20
158.0068187856
 30
0.0
 10
142.8364957829
 20
158.0555874999
 30
0.0
  0
SPLINE
  5
2C8
100
AcDbEntity
  8
0
100
AcDbSpline
 62
7
  6
CONTINUOUS
 70
0
 71
3
 72
17
 73
13
 74
0
 42
0.0000001
 43
0.0000001
 44
0.0000000001
 40
0.0
 40
0.0
 40
0.0
 40
0.0
 40
0.2841775711
 40
0.4146661432
 40
0.5373502072
 40
0.652341305
 40
0.7602377654
 40
0.8121867936
 40
0.8638391814
 40
0.9180398508
 40
0.9497831112
 40
1.0
 40
1.0
 40
1.0
 40
1.0
 10
160.5865588719
 20
116.1990286185
 30
0.0
 10
160.5865588719
 20
116.0794551812
 30
0.0
 10
160.5864160586
 20
115.9049725215
 30
0.0
 10
160.5887960538
 20
115.6788824375
 30
0.0
 10
160.5934156216
 20
115.5240129352
 30
0.0
 10
160.6033431988
 20
115.3789138142
 30
0.0
 10
160.6194575142
 20
115.2641523405
 30
0.0
 10
160.6414259161
 20
115.1777752471
 30
0.0
 10
160.6647300433
 20
115.1154756282
 30
0.0
 10
160.6948647428
 20
115.0651306065
 30
0.0
 10
160.7359542908
 20
115.0248833411
 30
0.0
 10
160.7703949893
 20
115.0110428268
 30
0.0
 10
160.791518894
 20
115.0105451062
 30
0.0
  0
SPLINE
  5
2C9
100
AcDbEntity
  8
0
100
AcDbSpline
 62
7
  6
CONTINUOUS
 70
0
 71
3
 72
21
 73
17
 74
0
 42
0.0000001
 43
0.0000001
 44
0.0000000001
 40
0.0
 40
0.0
 40
0.0
 40
0.0
 40
0.0152736556
 40
0.0307400416
 40
0.0615944727
 40
0.0924597446
 40
0.1233512662
 40
0.1852330485
 40
0.2472659363
 40
0.3094463907
 40
0.3717660941
 40
0.4967787028
 40
0.6222117836
 40
0.747963109
 40
0.8739278454
 40
1.0
 40
1.0
 40
1.0
 40
1.0
 10
160.791518894
 20
146.0673736845
 30
0.0
 10
160.7762565788
 20
146.0673112652
 30
0.0
 10
160.7505684139
 20
146.0413141105
 30
0.0
 10
160.7248273213
 20
145.9875615746
 30
0.0
 10
160.7011797914
 20
145.9127896816
 30
0.0
 10
160.681381418
 20
145.8226948572
 30
0.0
 10
160.660403743
 20
145.7007974931
 30
0.0
 10
160.6415003429
 20
145.5472486896
 30
0.0
 10
160.6252727028
 20
145.3619647374
 30
0.0
 10
160.6135035083
 20
145.1759306701
 30
0.0
 10
160.6020488683
 20
144.9268548178
 30
0.0
 10
160.5936351043
 20
144.6144092987
 30
0.0
 10
160.5888826561
 20
144.2385138187
 30
0.0
 10
160.5870682334
 20
143.8616437625
 30
0.0
 10
160.5865948953
 20
143.4841331295
 30
0.0
 10
160.5865588719
 20
143.2322812306
 30
0.0
 10
160.5865588719
 20
143.1063016283
 30
0.0
  0
SPLINE
  5
2CA
100
AcDbEntity
  8
0
100
AcDbSpline
 62
7
  6
CONTINUOUS
 70
0
 71
3
 72
17
 73
13
 74
0
 42
0.0000001
 43
0.0000001
 44
0.0000000001
 40
0.0
 40
0.0
 40
0.0
 40
0.0
 40
0.2536810086
 40
0.3797805479
 40
0.5052013146
 40
0.6297018311
 40
0.6915472735
 40
0.7529628459
 40
0.813907906
 40
0.8744772172
 40
0.9358455192
 40
1.0
 40
1.0
 40
1.0
 40
1.0
 10
162.586503923
 20
142.458384693
 30
0.0
 10
162.58654708
 20
142.519495588
 30
0.0
 10
162.5853402714
 20
142.6110299948
 30
0.0
 10
162.5771972711
 20
142.732492823
 30
0.0
 10
162.5671837461
 20
142.8225474474
 30
0.0
 10
162.5541428395
 20
142.8966209037
 30
0.0
 10
162.5391644873
 20
142.9544157694
 30
0.0
 10
162.5247991441
 20
142.9965187849
 30
0.0
 10
162.5053697262
 20
143.0360895076
 30
0.0
 10
162.479094754
 20
143.07246305
 30
0.0
 10
162.4327256694
 20
143.0900233671
 30
0.0
 10
162.4036008012
 20
143.0740179735
 30
0.0
 10
162.391518894
 20
143.0643809509
 30
0.0
  0
SPLINE
  5
2CB
100
AcDbEntity
  8
0
100
AcDbSpline
 62
7
  6
CONTINUOUS
 70
0
 71
3
 72
17
 73
13
 74
0
 42
0.0000001
 43
0.0000001
 44
0.0000000001
 40
0.0
 40
0.0
 40
0.0
 40
0.0
 40
0.2182009024
 40
0.3349220057
 40
0.456586696
 40
0.5831112211
 40
0.7144823146
 40
0.7820564401
 40
0.8510300181
 40
0.92186225
 40
0.958727904
 40
1.0
 40
1.0
 40
1.0
 40
1.0
 10
160.5865588719
 20
154.3389612464
 30
0.0
 10
160.5865588719
 20
154.2066822322
 30
0.0
 10
160.5865411845
 20
154.0036425708
 30
0.0
 10
160.5889482934
 20
153.7268538005
 30
0.0
 10
160.5937734869
 20
153.5056813978
 30
0.0
 10
160.604059225
 20
153.2757664169
 30
0.0
 10
160.6201842484
 20
153.0790977218
 30
0.0
 10
160.6417583489
 20
152.9178968501
 30
0.0
 10
160.6643628195
 20
152.7947265581
 30
0.0
 10
160.6939586158
 20
152.6895758274
 30
0.0
 10
160.7283902905
 20
152.6101059732
 30
0.0
 10
160.7665034271
 20
152.5658855966
 30
0.0
 10
160.791518894
 20
152.5663727025
 30
0.0
  0
SPLINE
  5
2CC
100
AcDbEntity
  8
0
100
AcDbSpline
 62
7
  6
CONTINUOUS
 70
0
 71
3
 72
11
 73
7
 74
0
 42
0.0000001
 43
0.0000001
 44
0.0000000001
 40
0.0
 40
0.0
 40
0.0
 40
0.0
 40
0.2163338898
 40
0.4581730139
 40
0.72121324
 40
1.0
 40
1.0
 40
1.0
 40
1.0
 10
161.0395245337
 20
152.5712019304
 30
0.0
 10
160.9538231458
 20
152.1084803748
 30
0.0
 10
160.8315546597
 20
151.1172689774
 30
0.0
 10
160.7769726186
 20
149.5479222665
 30
0.0
 10
160.841600131
 20
147.8431358351
 30
0.0
 10
160.9609087487
 20
146.6697155182
 30
0.0
 10
161.0395245337
 20
146.0683879404
 30
0.0
  0
SPLINE
  5
2CD
100
AcDbEntity
  8
0
100
AcDbSpline
 62
7
  6
CONTINUOUS
 70
0
 71
3
 72
13
 73
9
 74
0
 42
0.0000001
 43
0.0000001
 44
0.0000000001
 40
0.0
 40
0.0
 40
0.0
 40
0.0
 40
0.1285667245
 40
0.2559092478
 40
0.3818745546
 40
0.5067668156
 40
0.7541865852
 40
1.0
 40
1.0
 40
1.0
 40
1.0
 10
176.2478206483
 20
128.5322091832
 30
0.0
 10
176.2786967738
 20
128.5322091832
 30
0.0
 10
176.340602076
 20
128.5198735051
 30
0.0
 10
176.4208247404
 20
128.4731923265
 30
0.0
 10
176.4871592346
 20
128.4103274105
 30
0.0
 10
176.5597268818
 20
128.3147274599
 30
0.0
 10
176.6276422819
 20
128.1815842095
 30
0.0
 10
176.6652566314
 20
128.0689594302
 30
0.0
 10
176.6808333502
 20
128.0120178788
 30
0.0
  0
SPLINE
  5
2CE
100
AcDbEntity
  8
0
100
AcDbSpline
 62
7
  6
CONTINUOUS
 70
0
 71
3
 72
9
 73
5
 74
0
 42
0.0000001
 43
0.0000001
 44
0.0000000001
 40
0.0
 40
0.0
 40
0.0
 40
0.0
 40
0.1680195226
 40
1.0
 40
1.0
 40
1.0
 40
1.0
 10
176.6808333502
 20
107.9674756513
 30
0.0
 10
176.6639850771
 20
107.9471555354
 30
0.0
 10
176.5485317946
 20
107.8386745591
 30
0.0
 10
176.3785275596
 20
107.8008377374
 30
0.0
 10
176.2478206483
 20
107.8008377374
 30
0.0
  0
SPLINE
  5
2CF
100
AcDbEntity
  8
0
100
AcDbSpline
 62
7
  6
CONTINUOUS
 70
0
 71
3
 72
13
 73
9
 74
0
 42
0.0000001
 43
0.0000001
 44
0.0000000001
 40
0.0
 40
0.0
 40
0.0
 40
0.0
 40
0.245829845
 40
0.4932657448
 40
0.6181824002
 40
0.7441443063
 40
0.871468278
 40
1.0
 40
1.0
 40
1.0
 40
1.0
 10
172.8921582156
 20
128.0120178788
 30
0.0
 10
172.9077360281
 20
128.0689634286
 30
0.0
 10
172.9453528928
 20
128.1815969486
 30
0.0
 10
173.0132798247
 20
128.3147478248
 30
0.0
 10
173.0858497576
 20
128.4103616287
 30
0.0
 10
173.1522097262
 20
128.473196141
 30
0.0
 10
173.23240256
 20
128.5199049849
 30
0.0
 10
173.2943030937
 20
128.5322091832
 30
0.0
 10
173.3251709175
 20
128.5322091832
 30
0.0
  0
SPLINE
  5
2D0
100
AcDbEntity
  8
0
100
AcDbSpline
 62
7
  6
CONTINUOUS
 70
0
 71
3
 72
9
 73
5
 74
0
 42
0.0000001
 43
0.0000001
 44
0.0000000001
 40
0.0
 40
0.0
 40
0.0
 40
0.0
 40
0.3641598889
 40
1.0
 40
1.0
 40
1.0
 40
1.0
 10
173.3251709175
 20
107.8008377374
 30
0.0
 10
173.2677944956
 20
107.8008377374
 30
0.0
 10
173.1116081626
 20
107.8169568314
 30
0.0
 10
172.9561021719
 20
107.8903550703
 30
0.0
 10
172.8921582156
 20
107.9674756513
 30
0.0
  0
SPLINE
  5
2D1
100
AcDbEntity
  8
0
100
AcDbSpline
 62
7
  6
CONTINUOUS
 70
0
 71
3
 72
9
 73
5
 74
0
 42
0.0000001
 43
0.0000001
 44
0.0000000001
 40
0.0
 40
0.0
 40
0.0
 40
0.0
 40
0.3642526053
 40
1.0
 40
1.0
 40
1.0
 40
1.0
 10
176.2478206483
 20
167.9620232581
 30
0.0
 10
176.3052120548
 20
167.9620232581
 30
0.0
 10
176.4614015133
 20
167.9459087026
 30
0.0
 10
176.6168982986
 20
167.8724951854
 30
0.0
 10
176.6808333502
 20
167.7953853442
 30
0.0
  0
LINE
  5
2D2
100
AcDbEntity
  8
0
100
AcDbLine
 62
7
  6
CONTINUOUS
 10
160.7968974146
 20
114.4560456919
 11
161.0395245337
 21
115.0047016224
  0
SPLINE
  5
2D3
100
AcDbEntity
  8
0
100
AcDbSpline
 62
7
  6
CONTINUOUS
 70
0
 71
3
 72
13
 73
9
 74
0
 42
0.0000001
 43
0.0000001
 44
0.0000000001
 40
0.0
 40
0.0
 40
0.0
 40
0.0
 40
0.2458129499
 40
0.4932318695
 40
0.6181231838
 40
0.7440886555
 40
0.8714319464
 40
1.0
 40
1.0
 40
1.0
 40
1.0
 10
176.6808333502
 20
147.7508431167
 30
0.0
 10
176.6652566632
 20
147.6939016814
 30
0.0
 10
176.6276424492
 20
147.5812772374
 30
0.0
 10
176.5597273901
 20
147.4481343573
 30
0.0
 10
176.4871599291
 20
147.352534946
 30
0.0
 10
176.4208264681
 20
147.2896687505
 30
0.0
 10
176.3406025472
 20
147.2429888103
 30
0.0
 10
176.2786970884
 20
147.2306518123
 30
0.0
 10
176.2478206483
 20
147.2306518123
 30
0.0
  0
SPLINE
  5
2D4
100
AcDbEntity
  8
0
100
AcDbSpline
 62
7
  6
CONTINUOUS
 70
0
 71
3
 72
9
 73
5
 74
0
 42
0.0000001
 43
0.0000001
 44
0.0000000001
 40
0.0
 40
0.0
 40
0.0
 40
0.0
 40
0.1680322176
 40
1.0
 40
1.0
 40
1.0
 40
1.0
 10
172.8921582156
 20
167.7953853442
 30
0.0
 10
172.9090077745
 20
167.815707011
 30
0.0
 10
173.0244623513
 20
167.9241870431
 30
0.0
 10
173.1944659004
 20
167.9620232581
 30
0.0
 10
173.3251709175
 20
167.9620232581
 30
0.0
  0
SPLINE
  5
2D5
100
AcDbEntity
  8
0
100
AcDbSpline
 62
7
  6
CONTINUOUS
 70
0
 71
3
 72
13
 73
9
 74
0
 42
0.0000001
 43
0.0000001
 44
0.0000000001
 40
0.0
 40
0.0
 40
0.0
 40
0.0
 40
0.1285321752
 40
0.2558566244
 40
0.3818189329
 40
0.5067353151
 40
0.7541705408
 40
1.0
 40
1.0
 40
1.0
 40
1.0
 10
173.3251709175
 20
147.2306518123
 30
0.0
 10
173.294302986
 20
147.2306518123
 30
0.0
 10
173.2324023283
 20
147.2429564324
 30
0.0
 10
173.1522090164
 20
147.2896650236
 30
0.0
 10
173.0858491613
 20
147.352499949
 30
0.0
 10
173.0132796601
 20
147.4481138663
 30
0.0
 10
172.9453527123
 20
147.5812643467
 30
0.0
 10
172.9077360031
 20
147.6938976584
 30
0.0
 10
172.8921582156
 20
147.7508431167
 30
0.0
  0
SPLINE
  5
2D6
100
AcDbEntity
  8
0
100
AcDbSpline
 62
7
  6
CONTINUOUS
 70
0
 71
3
 72
13
 73
9
 74
0
 42
0.0000001
 43
0.0000001
 44
0.0000000001
 40
0.0
 40
0.0
 40
0.0
 40
0.0
 40
0.1753307868
 40
0.3422637982
 40
0.4768046258
 40
0.5947351366
 40
0.8062611466
 40
1.0
 40
1.0
 40
1.0
 40
1.0
 10
162.391518894
 20
116.3540017576
 30
0.0
 10
162.3276061491
 20
116.3809419193
 30
0.0
 10
162.1898291057
 20
116.4096799053
 30
0.0
 10
162.0021821075
 20
116.3609010874
 30
0.0
 10
161.8605974238
 20
116.2720591844
 30
0.0
 10
161.7241322011
 20
116.1484565725
 30
0.0
 10
161.5957135145
 20
115.9845799664
 30
0.0
 10
161.5146735175
 20
115.8459089741
 30
0.0
 10
161.4793890017
 20
115.7778738468
 30
0.0
  0
SPLINE
  5
2D7
100
AcDbEntity
  8
0
100
AcDbSpline
 62
7
  6
CONTINUOUS
 70
0
 71
3
 72
13
 73
9
 74
0
 42
0.0000001
 43
0.0000001
 44
0.0000000001
 40
0.0
 40
0.0
 40
0.0
 40
0.0
 40
0.2871857844
 40
0.4477281833
 40
0.5504595041
 40
0.6385386311
 40
0.8121667373
 40
1.0
 40
1.0
 40
1.0
 40
1.0
 10
162.391518894
 20
116.3540017576
 30
0.0
 10
162.4182091533
 20
116.3427514209
 30
0.0
 10
162.4625836478
 20
116.3295514934
 30
0.0
 10
162.5195145641
 20
116.3359227041
 30
0.0
 10
162.550192367
 20
116.3555236194
 30
0.0
 10
162.5724413174
 20
116.3854465149
 30
0.0
 10
162.5852598225
 20
116.4300664964
 30
0.0
 10
162.5865506034
 20
116.4665658017
 30
0.0
 10
162.5865046325
 20
116.4855098913
 30
0.0
  0
SPLINE
  5
2D8
100
AcDbEntity
  8
0
100
AcDbSpline
 62
7
  6
CONTINUOUS
 70
0
 71
3
 72
17
 73
13
 74
0
 42
0.0000001
 43
0.0000001
 44
0.0000000001
 40
0.0
 40
0.0
 40
0.0
 40
0.0
 40
0.125135549
 40
0.2502986125
 40
0.3754807531
 40
0.5006727147
 40
0.6258456077
 40
0.6884746641
 40
0.7511065344
 40
0.8746656069
 40
0.9373062378
 40
1.0
 40
1.0
 40
1.0
 40
1.0
 10
161.4793890017
 20
144.2959702585
 30
0.0
 10
161.4964573453
 20
144.2246439499
 30
0.0
 10
161.5327239072
 20
144.0824702684
 30
0.0
 10
161.5947703808
 20
143.8712767584
 30
0.0
 10
161.6663515399
 20
143.6630390686
 30
0.0
 10
161.7506915949
 20
143.4595364605
 30
0.0
 10
161.8358609485
 20
143.2966535657
 30
0.0
 10
161.9195153548
 20
143.175342018
 30
0.0
 10
162.0143504752
 20
143.0660148655
 30
0.0
 10
162.1489588574
 20
142.9799387268
 30
0.0
 10
162.299485889
 20
143.0015316152
 30
0.0
 10
162.3627937082
 20
143.0414685696
 30
0.0
 10
162.391518894
 20
143.0643809509
 30
0.0
  0
SPLINE
  5
2D9
100
AcDbEntity
  8
0
100
AcDbSpline
 62
7
  6
CONTINUOUS
 70
0
 71
3
 72
13
 73
9
 74
0
 42
0.0000001
 43
0.0000001
 44
0.0000000001
 40
0.0
 40
0.0
 40
0.0
 40
0.0
 40
0.1670510693
 40
0.3289369806
 40
0.4609641718
 40
0.578209763
 40
0.7939442568
 40
1.0
 40
1.0
 40
1.0
 40
1.0
 10
162.391518894
 20
154.2259087847
 30
0.0
 10
162.3270854432
 20
154.2501438897
 30
0.0
 10
162.1878844503
 20
154.2720782322
 30
0.0
 10
162.001276462
 20
154.2156020599
 30
0.0
 10
161.8598154238
 20
154.1200386053
 30
0.0
 10
161.7222868265
 20
153.9856711363
 30
0.0
 10
161.592867122
 20
153.8032988777
 30
0.0
 10
161.5138671554
 20
153.6480466365
 30
0.0
 10
161.4793890017
 20
153.5704473879
 30
0.0
  0
SPLINE
  5
2DA
100
AcDbEntity
  8
0
100
AcDbSpline
 62
7
  6
CONTINUOUS
 70
0
 71
3
 72
16
 73
12
 74
0
 42
0.0000001
 43
0.0000001
 44
0.0000000001
 40
0.0
 40
0.0
 40
0.0
 40
0.0
 40
0.0743965135
 40
0.1556627402
 40
0.2298193637
 40
0.29809286
 40
0.4258659311
 40
0.5470924886
 40
0.6642319821
 40
0.778389894
 40
1.0
 40
1.0
 40
1.0
 40
1.0
 10
162.391518894
 20
154.2259087847
 30
0.0
 10
162.4048188558
 20
154.2209063214
 30
0.0
 10
162.4361385332
 20
154.2172099495
 30
0.0
 10
162.476986736
 20
154.2386091995
 30
0.0
 10
162.5045309683
 20
154.2718003811
 30
0.0
 10
162.5303109536
 20
154.3166660541
 30
0.0
 10
162.5510046963
 20
154.374002318
 30
0.0
 10
162.5669972401
 20
154.4421358923
 30
0.0
 10
162.5771251105
 20
154.5087621755
 30
0.0
 10
162.5852458617
 20
154.5949195326
 30
0.0
 10
162.5865531223
 20
154.6591156649
 30
0.0
 10
162.5865046325
 20
154.7014428613
 30
0.0
  0
SPLINE
  5
2DB
100
AcDbEntity
  8
0
100
AcDbSpline
 62
7
  6
CONTINUOUS
 70
0
 71
3
 72
9
 73
5
 74
0
 42
0.0000001
 43
0.0000001
 44
0.0000000001
 40
0.0
 40
0.0
 40
0.0
 40
0.0
 40
0.2573720101
 40
1.0
 40
1.0
 40
1.0
 40
1.0
 10
161.4793890017
 20
115.7778738468
 30
0.0
 10
161.4442496134
 20
115.7101185527
 30
0.0
 10
161.305261478
 20
115.4481469017
 30
0.0
 10
161.1562779874
 20
115.1914377516
 30
0.0
 10
161.0395245337
 20
115.0047016224
 30
0.0
  0
ELLIPSE
  5
2DC
100
AcDbEntity
  8
0
100
AcDbEllipse
 62
7
  6
CONTINUOUS
 10
160.4393415935
 20
137.8814304977
 30
0.0
 11
-14.7536831607
 21
31.0932549156
 31
0.0
 40
0.3419987131
 41
-2.9837864669
 42
-2.0503530678
  0
ELLIPSE
  5
2DD
100
AcDbEntity
  8
0
100
AcDbEllipse
 62
7
  6
CONTINUOUS
 10
160.4393415935
 20
137.8814304977
 30
0.0
 11
14.7536831607
 21
31.0932549156
 31
0.0
 40
0.3419987131
 41
-1.0912395858
 42
-0.1578061866
  0
ELLIPSE
  5
2DE
100
AcDbEntity
  8
0
100
AcDbEllipse
 62
7
  6
CONTINUOUS
 10
189.1336499722
 20
137.8814304977
 30
0.0
 11
-14.7536831607
 21
31.0932549156
 31
0.0
 40
0.3419987131
 41
0.1578061866
 42
1.0912395858
  0
ELLIPSE
  5
2DF
100
AcDbEntity
  8
0
100
AcDbEllipse
 62
7
  6
CONTINUOUS
 10
189.1336499722
 20
137.8814304977
 30
0.0
 11
14.7536831607
 21
31.0932549156
 31
0.0
 40
0.3419987131
 41
-4.2328322393
 42
-3.2993988402
  0
ENDSEC
  0
SECTION
  2
OBJECTS
  0
DICTIONARY
  5
C
100
AcDbDictionary
280
0
281
1
  3
ACAD_GROUP
350
D
  3
ACAD_MLINESTYLE
350
17
  3
ACAD_LAYOUT
350
1A
  3
ACAD_PLOTSETTINGS
350
19
  3
ACAD_PLOTSTYLENAME
350
E
  0
DICTIONARY
  5
D
102
{ACAD_REACTORS
330
C
102
}
100
AcDbDictionary
280
0
281
1
  0
ACDBDICTIONARYWDFLT
  5
E
102
{ACAD_REACTORS
330
C
102
}
100
AcDbDictionary
281
1
  3
Normal
350
F
100
AcDbDictionaryWithDefault
340
F
  0
DICTIONARY
  5
17
102
{ACAD_REACTORS
330
C
102
}
100
AcDbDictionary
280
0
281
1
  3
Standard
350
18
  0
DICTIONARY
  5
19
102
{ACAD_REACTORS
330
C
102
}
100
AcDbDictionary
281
1
  0
DICTIONARY
  5
1A
102
{ACAD_REACTORS
330
C
102
}
100
AcDbDictionary
281
1
  3
Model
350
2E0
  3
Layout1
350
2E1
  0
ACDBPLACEHOLDER
  5
F
102
{ACAD_REACTORS
330
E
102
}
  0
MLINESTYLE
  5
18
102
{ACAD_REACTORS
330
17
102
}
100
AcDbMlineStyle
  2
STANDARD
 70
0
  3

 62
256
 51
90.0
 52
90.0
 71
2
 49
0.5
 62
256
  6
BYLAYER
 49
-0.5
 62
256
  6
BYLAYER
  0
LAYOUT
  5
2E0
102
{ACAD_REACTORS
330
1A
102
}
100
AcDbPlotSettings
  1

  2
none_device
  4
ISO_A4_(297.00_x_210.00_MM)
  6

 40
0.0
 41
0.0
 42
0.0
 43
0.0
 44
297.0
 45
210.0
 46
0.0
 47
0.0
 48
0.0
 49
0.0
140
0.0
141
0.0
142
1.0
143
1.0
 70
1024
 72
1
 73
0
 74
0
  7

 75
0
147
1.0
148
0.0
149
0.0
100
AcDbLayout
  1
Model
 70
0
 71
0
 10
0.0
 20
0.0
 11
297.0
 21
210.0
 12
0.0
 22
0.0
 32
0.0
 14
0.0
 24
0.0
 34
0.0
 15
0.0
 25
0.0
 35
0.0
146
0.0
 13
0.0
 23
0.0
 33
0.0
 16
1.0
 26
0.0
 36
0.0
 17
0.0
 27
1.0
 37
0.0
 76
0
330
218
345
0
346
0
  0
LAYOUT
  5
2E1
102
{ACAD_REACTORS
330
1A
102
}
100
AcDbPlotSettings
  1

  2
none_device
  4
ISO_A4_(297.00_x_210.00_MM)
  6

 40
0.0
 41
0.0
 42
0.0
 43
0.0
 44
297.0
 45
210.0
 46
0.0
 47
0.0
 48
0.0
 49
0.0
140
0.0
141
0.0
142
1.0
143
1.0
 70
0
 72
1
 73
0
 74
0
  7

 75
0
147
1.0
148
0.0
149
0.0
100
AcDbLayout
  1
Layout1
 70
0
 71
1
 10
0.0
 20
0.0
 11
297.0
 21
210.0
 12
0.0
 22
0.0
 32
0.0
 14
0.0
 24
0.0
 34
0.0
 15
0.0
 25
0.0
 35
0.0
146
0.0
 13
0.0
 23
0.0
 33
0.0
 16
1.0
 26
0.0
 36
0.0
 17
0.0
 27
1.0
 37
0.0
 76
0
330
219
345
0
346
0
  0
ENDSEC
  0
EOF
