999
DXF file: cc6-050-22.dxf
999
Pro/ENGINEER 2010430 by Parametric Technology Corporation
  0
SECTION
  2
HEADER
  9
$ACADVER
  1
AC1021
  9
$DWGCODEPAGE
  3
ANSI_1252
  9
$EXTMAX
 10
297.0
 20
210.0
 30
0.0
  9
$EXTMIN
 10
0.0
 20
0.0
 30
0.0
  9
$LIMMIN
 10
0.0
 20
0.0
  9
$LIMMAX
 10
297.0
 20
210.0
  9
$VIEWCTR
 10
148.5
 20
105.0
  9
$VIEWSIZE
 40
210.0
  9
$CLAYER
  8
0
  9
$LTSCALE
 40
16.335
  9
$CELTYPE
  6
BYLAYER
  9
$DIMSCALE
 40
1.0
  9
$DIMASZ
 40
3.5
  9
$DIMEXO
 40
1.85625
  9
$DIMDLI
 40
11.286
  9
$DIMEXE
 40
5.346
  9
$DIMCEN
 40
2.673
  9
$DIMLFAC
 40
1.0
  9
$DIMBLK
  1
_FILLED
  9
$DIMTXT
 40
3.5
  9
$DIMTOL
 70
1
  9
$DIMLIM
 70
0
  9
$DIMTFAC
 40
1.0
  9
$DIMTP
 40
0.005
  9
$DIMTM
 40
0.005
  9
$PDMODE
 70
3
  9
$PDSIZE
 40
0.3125
  9
$HANDSEED
  5
2E2
  9
$TILEMODE
 70
1
  9
$MEASUREMENT
 70
1
  9
$INSUNITS
 70
4
  0
ENDSEC
  0
SECTION
  2
CLASSES
  0
CLASS
  1
ACDBDICTIONARYWDFLT
  2
AcDbDictionaryWithDefault
  3
AutoCAD 2000
 90
0
 91
1
280
0
281
0
  0
CLASS
  1
ACDBPLACEHOLDER
  2
AcDbPlaceHolder
  3
AutoCAD 2000
 90
0
 91
1
280
0
281
0
  0
CLASS
  1
LAYOUT
  2
AcDbLayout
  3
AutoCAD 2000
 90
0
 91
0
280
0
281
0
  0
ENDSEC
  0
SECTION
  2
TABLES
  0
TABLE
  2
VPORT
  5
8
100
AcDbSymbolTable
 70
2
  0
VPORT
  5
1F4
100
AcDbSymbolTableRecord
100
AcDbViewportTableRecord
  2
*ACTIVE
 70
0
 10
0.0
 20
0.0
 11
1.0
 21
1.0
 12
148.5
 22
105.0
 13
0.0
 23
0.0
 14
1.0
 24
1.0
 15
0.0
 25
0.0
 16
0.0
 26
0.0
 36
1.0
 17
0.0
 27
0.0
 37
0.0
 40
210.0
 41
1.4142857143
 42
50.0
 43
0.0
 44
0.0
 50
0.0
 51
0.0
 71
0
 72
100
 73
1
 74
1
 75
0
 76
0
 77
0
 78
0
  0
ENDTAB
  0
TABLE
  2
LTYPE
  5
5
100
AcDbSymbolTable
 70
6
  0
LTYPE
  5
14
100
AcDbSymbolTableRecord
100
AcDbLinetypeTableRecord
  2
BYBLOCK
 70
0
  3

 72
65
 73
0
 40
0.0
  0
LTYPE
  5
15
100
AcDbSymbolTableRecord
100
AcDbLinetypeTableRecord
  2
BYLAYER
 70
0
  3

 72
65
 73
0
 40
0.0
  0
LTYPE
  5
16
100
AcDbSymbolTableRecord
100
AcDbLinetypeTableRecord
  2
CONTINUOUS
 70
64
  3
Solid line
 72
65
 73
0
 40
0.0
  0
LTYPE
  5
1F5
100
AcDbSymbolTableRecord
100
AcDbLinetypeTableRecord
  2
CENTER
 70
64
  3
____ _ ____ _ ____ _ ____ _ ____ _ ____ _ ____
 72
65
 73
4
 40
0.6
 49
0.375
 74
0
 49
-0.075
 74
0
 49
0.075
 74
0
 49
-0.075
 74
0
  0
LTYPE
  5
1F6
100
AcDbSymbolTableRecord
100
AcDbLinetypeTableRecord
  2
HIDDEN
 70
64
  3
- - - - - - - - - - - - - - - - - - - -
 72
65
 73
2
 40
0.2
 49
0.1
 74
0
 49
-0.1
 74
0
  0
LTYPE
  5
1F7
100
AcDbSymbolTableRecord
100
AcDbLinetypeTableRecord
  2
PHANTOM
 70
64
  3
_____ _ _ _____ _ _ _____ _ _ _____
 72
65
 73
6
 40
0.8
 49
0.45
 74
0
 49
-0.05
 74
0
 49
0.1
 74
0
 49
-0.05
 74
0
 49
0.1
 74
0
 49
-0.05
 74
0
  0
LTYPE
  5
1F8
100
AcDbSymbolTableRecord
100
AcDbLinetypeTableRecord
  2
DOT
 70
64
  3
. . . . . . . . . . . . . . . . . . . .
 72
65
 73
2
 40
0.2
 49
0.1
 74
0
 49
-0.1
 74
0
  0
LTYPE
  5
1F9
100
AcDbSymbolTableRecord
100
AcDbLinetypeTableRecord
  2
DASHED
 70
64
  3
- - - - - - - - - - - - - - - - - - - -
 72
65
 73
2
 40
0.2
 49
0.1
 74
0
 49
-0.1
 74
0
  0
ENDTAB
  0
TABLE
  2
LAYER
  5
2
100
AcDbSymbolTable
 70
36
  0
LAYER
  5
10
100
AcDbSymbolTableRecord
100
AcDbLayerTableRecord
  2
0
 70
0
 62
7
  6
CONTINUOUS
370
-3
390
F
  0
LAYER
  5
1FA
100
AcDbSymbolTableRecord
100
AcDbLayerTableRecord
  2
DEFAULT_1
 70
0
 62
7
  6
CENTER
370
-3
390
F
  0
LAYER
  5
1FB
100
AcDbSymbolTableRecord
100
AcDbLayerTableRecord
  2
DEFAULT_2
 70
0
 62
8
  6
HIDDEN
370
-3
390
F
  0
LAYER
  5
1FC
100
AcDbSymbolTableRecord
100
AcDbLayerTableRecord
  2
DEFAULT_3
 70
0
 62
7
  6
PHANTOM
370
-3
390
F
  0
LAYER
  5
1FD
100
AcDbSymbolTableRecord
100
AcDbLayerTableRecord
  2
ACHSEN
 70
0
 62
7
  6
CONTINUOUS
370
-3
390
F
  0
LAYER
  5
1FE
100
AcDbSymbolTableRecord
100
AcDbLayerTableRecord
  2
BEZUGSACHSEN
 70
0
 62
7
  6
CONTINUOUS
370
-3
390
F
  0
LAYER
  5
1FF
100
AcDbSymbolTableRecord
100
AcDbLayerTableRecord
  2
BEZUGSEBENE_B
 70
0
 62
7
  6
CONTINUOUS
370
-3
390
F
  0
LAYER
  5
200
100
AcDbSymbolTableRecord
100
AcDbLayerTableRecord
  2
BOHRUNGEN
 70
0
 62
7
  6
CONTINUOUS
370
-3
390
F
  0
LAYER
  5
201
100
AcDbSymbolTableRecord
100
AcDbLayerTableRecord
  2
EBENEN
 70
0
 62
7
  6
CONTINUOUS
370
-3
390
F
  0
LAYER
  5
202
100
AcDbSymbolTableRecord
100
AcDbLayerTableRecord
  2
FASEN
 70
0
 62
7
  6
CONTINUOUS
370
-3
390
F
  0
LAYER
  5
203
100
AcDbSymbolTableRecord
100
AcDbLayerTableRecord
  2
FLAECHEN
 70
0
 62
7
  6
CONTINUOUS
370
-3
390
F
  0
LAYER
  5
204
100
AcDbSymbolTableRecord
100
AcDbLayerTableRecord
  2
GEWINDE
 70
0
 62
7
  6
CONTINUOUS
370
-3
390
F
  0
LAYER
  5
205
100
AcDbSymbolTableRecord
100
AcDbLayerTableRecord
  2
KOORDSYS
 70
0
 62
7
  6
CONTINUOUS
370
-3
390
F
  0
LAYER
  5
206
100
AcDbSymbolTableRecord
100
AcDbLayerTableRecord
  2
KURVEN
 70
0
 62
7
  6
CONTINUOUS
370
-3
390
F
  0
LAYER
  5
207
100
AcDbSymbolTableRecord
100
AcDbLayerTableRecord
  2
KURVE_FUER_GTOL_DETAILANSICHT
 70
0
 62
7
  6
CONTINUOUS
370
-3
390
F
  0
LAYER
  5
208
100
AcDbSymbolTableRecord
100
AcDbLayerTableRecord
  2
KURVE_GAUGE2_POLIGON_INNENEINST
 70
0
 62
7
  6
CONTINUOUS
370
-3
390
F
  0
LAYER
  5
209
100
AcDbSymbolTableRecord
100
AcDbLayerTableRecord
  2
KURVE_PHANTOM1_GAUGE_PIN_1
 70
0
 62
7
  6
CONTINUOUS
370
-3
390
F
  0
LAYER
  5
20A
100
AcDbSymbolTableRecord
100
AcDbLayerTableRecord
  2
KURVE_PHANTOM2_GAUGE_PIN1
 70
0
 62
7
  6
CONTINUOUS
370
-3
390
F
  0
LAYER
  5
20B
100
AcDbSymbolTableRecord
100
AcDbLayerTableRecord
  2
KURVE_POLIGON_BEMASUNG
 70
0
 62
7
  6
CONTINUOUS
370
-3
390
F
  0
LAYER
  5
20C
100
AcDbSymbolTableRecord
100
AcDbLayerTableRecord
  2
LAY0001
 70
0
 62
7
  6
CONTINUOUS
370
-3
390
F
  0
LAYER
  5
20D
100
AcDbSymbolTableRecord
100
AcDbLayerTableRecord
  2
PUNKTE
 70
0
 62
7
  6
CONTINUOUS
370
-3
390
F
  0
LAYER
  5
20E
100
AcDbSymbolTableRecord
100
AcDbLayerTableRecord
  2
RUNDUNGEN
 70
0
 62
7
  6
CONTINUOUS
370
-3
390
F
  0
LAYER
  5
20F
100
AcDbSymbolTableRecord
100
AcDbLayerTableRecord
  2
S_ACHSEN
 70
0
 62
7
  6
CONTINUOUS
370
-3
390
F
  0
LAYER
  5
210
100
AcDbSymbolTableRecord
100
AcDbLayerTableRecord
  2
S_EBENEN
 70
0
 62
7
  6
CONTINUOUS
370
-3
390
F
  0
LAYER
  5
211
100
AcDbSymbolTableRecord
100
AcDbLayerTableRecord
  2
S_KOORDSYS
 70
0
 62
7
  6
CONTINUOUS
370
-3
390
F
  0
LAYER
  5
212
100
AcDbSymbolTableRecord
100
AcDbLayerTableRecord
  2
TOL_BEZUEGE
 70
0
 62
7
  6
CONTINUOUS
370
-3
390
F
  0
LAYER
  5
213
100
AcDbSymbolTableRecord
100
AcDbLayerTableRecord
  2
VERBFLAECHE
 70
0
 62
7
  6
CONTINUOUS
370
-3
390
F
  0
LAYER
  5
214
100
AcDbSymbolTableRecord
100
AcDbLayerTableRecord
  2
ZEICHNUNGSBEMASSUNGEN
 70
0
 62
7
  6
CONTINUOUS
370
-3
390
F
  0
ENDTAB
  0
TABLE
  2
STYLE
  5
3
100
AcDbSymbolTable
 70
1
  0
STYLE
  5
11
100
AcDbSymbolTableRecord
100
AcDbTextStyleTableRecord
  2
STANDARD
 70
0
 40
0.0
 41
0.7
 50
0.0
 71
0
 42
0.2
  3
txt
  4

  0
STYLE
  5
215
100
AcDbSymbolTableRecord
100
AcDbTextStyleTableRecord
  2
TEXTSTYLE_1
 70
0
 40
0.0
 41
0.8
 50
0.0
 71
0
 42
0.2
  3
gdt
  4

  0
STYLE
  5
216
100
AcDbSymbolTableRecord
100
AcDbTextStyleTableRecord
  2
TEXTSTYLE_2
 70
0
 40
0.0
 41
0.7
 50
0.0
 71
0
 42
0.2
  3
gdt
  4

  0
ENDTAB
  0
TABLE
  2
VIEW
  5
6
100
AcDbSymbolTable
 70
0
  0
ENDTAB
  0
TABLE
  2
UCS
  5
7
100
AcDbSymbolTable
 70
0
  0
ENDTAB
  0
TABLE
  2
APPID
  5
9
100
AcDbSymbolTable
 70
1
  0
APPID
  5
217
100
AcDbSymbolTableRecord
100
AcDbRegAppTableRecord
  2
ACAD
 70
0
  0
ENDTAB
  0
TABLE
  2
BLOCK_RECORD
  5
1
100
AcDbSymbolTable
 70
0
  0
BLOCK_RECORD
  5
218
100
AcDbSymbolTableRecord
100
AcDbBlockTableRecord
  2
*Model_Space
  0
BLOCK_RECORD
  5
219
100
AcDbSymbolTableRecord
100
AcDbBlockTableRecord
  2
*Paper_Space
  0
BLOCK_RECORD
  5
21A
100
AcDbSymbolTableRecord
100
AcDbBlockTableRecord
  2
_FILLED
  0
BLOCK_RECORD
  5
21B
100
AcDbSymbolTableRecord
100
AcDbBlockTableRecord
  2
*D0
  0
BLOCK_RECORD
  5
21C
100
AcDbSymbolTableRecord
100
AcDbBlockTableRecord
  2
*D1
  0
BLOCK_RECORD
  5
21D
100
AcDbSymbolTableRecord
100
AcDbBlockTableRecord
  2
*D2
  0
BLOCK_RECORD
  5
21E
100
AcDbSymbolTableRecord
100
AcDbBlockTableRecord
  2
*D3
  0
BLOCK_RECORD
  5
21F
100
AcDbSymbolTableRecord
100
AcDbBlockTableRecord
  2
*D4
  0
ENDTAB
  0
TABLE
  2
DIMSTYLE
  5
A
100
AcDbSymbolTable
 70
1
100
AcDbDimStyleTable
 71
0
  0
DIMSTYLE
105
220
100
AcDbSymbolTableRecord
100
AcDbDimStyleTableRecord
  2
STANDARD
 70
0
  3

  4

 40
1.0
 41
3.5
 42
0.0625
 43
0.38
 44
0.18
 45
0.0
 46
0.0
 47
0.005
 48
0.005
140
3.5
141
0.09
142
0.0
143
25.4
144
1.0
145
0.0
146
1.0
147
0.09
 71
1.0
 72
0.0
 73
0
 74
0
 75
0
 76
0
 77
1
 78
8
170
0
171
2
172
0
173
0
174
0
175
0
176
0
177
0
178
5
270
2
271
3
272
3
273
2
274
2
275
0
280
0
281
0
282
0
283
1
284
8
285
0
286
0
287
3
288
0
340
11
341
21A
342
21A
343
21A
344
21A
  0
DIMSTYLE
105
221
100
AcDbSymbolTableRecord
100
AcDbDimStyleTableRecord
  2
DIMSTYLE_1
 70
0
  3

  4

 40
1.0
 41
3.5
 42
0.0625
 43
0.38
 44
0.18
 45
0.0
 46
0.0
 47
0.2
 48
0.2
140
3.5
141
0.09
142
0.0
143
25.4
144
1.0
145
0.0
146
1.0
147
0.09
 71
0.0
 72
0.0
 73
0
 74
0
 75
0
 76
0
 77
1
 78
8
170
0
171
2
172
0
173
0
174
0
175
0
176
0
177
0
178
5
270
2
271
2
272
2
273
2
274
2
275
0
280
0
281
0
282
0
283
1
284
8
285
0
286
0
287
3
288
0
340
11
341
21A
342
21A
343
21A
344
21A
  0
DIMSTYLE
105
222
100
AcDbSymbolTableRecord
100
AcDbDimStyleTableRecord
  2
DIMSTYLE_2
 70
0
  3

  4

 40
1.0
 41
3.5
 42
0.0625
 43
0.38
 44
0.18
 45
0.0
 46
0.0
 47
0.3
 48
0.3
140
3.5
141
0.09
142
0.0
143
25.4
144
1.0
145
0.0
146
1.0
147
0.09
 71
0.0
 72
0.0
 73
0
 74
0
 75
0
 76
0
 77
1
 78
8
170
0
171
2
172
0
173
0
174
0
175
0
176
0
177
0
178
5
270
2
271
2
272
2
273
2
274
2
275
0
280
0
281
0
282
0
283
1
284
8
285
0
286
0
287
3
288
0
340
11
341
21A
342
21A
343
21A
344
21A
  0
DIMSTYLE
105
223
100
AcDbSymbolTableRecord
100
AcDbDimStyleTableRecord
  2
DIMSTYLE_3
 70
0
  3

  4

 40
1.0
 41
3.5
 42
0.0625
 43
0.38
 44
0.18
 45
0.0
 46
0.0
 47
0.0
 48
0.15
140
3.5
141
0.09
142
0.0
143
25.4
144
1.0
145
0.0
146
1.0
147
0.09
 71
0.0
 72
0.0
 73
0
 74
0
 75
0
 76
0
 77
1
 78
8
170
0
171
2
172
0
173
0
174
0
175
0
176
0
177
0
178
5
270
2
271
2
272
2
273
2
274
2
275
0
280
0
281
0
282
0
283
1
284
8
285
0
286
0
287
3
288
0
340
11
341
21A
342
21A
343
21A
344
21A
  0
DIMSTYLE
105
224
100
AcDbSymbolTableRecord
100
AcDbDimStyleTableRecord
  2
DIMSTYLE_4
 70
0
  3

  4

 40
1.0
 41
3.5
 42
0.0625
 43
0.38
 44
0.18
 45
0.0
 46
0.0
 47
0.0
 48
0.013
140
3.5
141
0.09
142
0.0
143
25.4
144
1.0
145
0.0
146
1.0
147
0.09
 71
0.0
 72
0.0
 73
0
 74
0
 75
0
 76
0
 77
1
 78
8
170
0
171
2
172
0
173
0
174
0
175
0
176
0
177
0
178
5
270
2
271
3
272
3
273
2
274
2
275
0
280
0
281
0
282
0
283
1
284
8
285
0
286
0
287
3
288
0
340
11
341
21A
342
21A
343
21A
344
21A
  0
ENDTAB
  0
ENDSEC
  0
SECTION
  2
BLOCKS
  0
BLOCK
  5
20
100
AcDbEntity
  8
0
100
AcDbBlockBegin
  2
*Model_Space
 70
0
 10
0.0
 20
0.0
 30
0.0
  3
*Model_Space
  1

  0
ENDBLK
  5
21
100
AcDbEntity
  8
0
100
AcDbBlockEnd
  0
BLOCK
  5
1C
100
AcDbEntity
  8
0
100
AcDbBlockBegin
  2
*Paper_Space
 70
0
 10
0.0
 20
0.0
 30
0.0
  3
*Paper_Space
  1

  0
ENDBLK
  5
1D
100
AcDbEntity
  8
0
100
AcDbBlockEnd
  0
BLOCK
  5
225
100
AcDbEntity
  8
0
100
AcDbBlockBegin
  2
_FILLED
 70
64
 10
0.0
 20
0.0
  3
_FILLED
  1

  0
SOLID
  5
226
100
AcDbEntity
  8
0
  6
BYBLOCK
 62
0
100
AcDbTrace
 10
0.0
 20
0.0
 11
-1.0
 21
0.125
 12
-1.0
 22
-0.125
 13
-1.0
 23
-0.125
  0
ENDBLK
  5
227
100
AcDbEntity
  8
0
  6
BYBLOCK
 62
0
100
AcDbBlockEnd
  0
BLOCK
  5
228
100
AcDbEntity
  8
0
100
AcDbBlockBegin
 62
2
  6
CONTINUOUS
  2
*D0
 70
65
 10
0.0
 20
0.0
  3
*D0
  1

  0
MTEXT
  5
229
100
AcDbEntity
  8
0
100
AcDbMText
 62
5
  6
CONTINUOUS
  7
STANDARD
 71
2
 72
1
 10
198.7602730482
 20
184.6486776231
 30
0.0
 11
1.0
 21
0.0
 31
0.0
 44
0.9
  1
22
 40
3.5
 41
5.5
  0
LINE
  5
22A
100
AcDbEntity
  8
0
100
AcDbLine
 62
2
  6
CONTINUOUS
 10
209.7602730482
 20
130.9477022707
 11
209.7602730482
 21
179.567341919
  0
LINE
  5
22B
100
AcDbEntity
  8
0
100
AcDbLine
 62
2
  6
CONTINUOUS
 10
209.7602730482
 20
179.8546604994
 11
209.7602730482
 21
181.7736776231
  0
LINE
  5
22C
100
AcDbEntity
  8
0
100
AcDbLine
 62
2
  6
CONTINUOUS
 10
187.7602730482
 20
165.7760769795
 11
187.7602730482
 21
181.7736776231
  0
LINE
  5
22D
100
AcDbEntity
  8
0
100
AcDbLine
 62
2
  6
CONTINUOUS
 10
209.7602730482
 20
180.2736776231
 11
198.7602730482
 21
180.2736776231
  0
LINE
  5
22E
100
AcDbEntity
  8
0
100
AcDbLine
 62
2
  6
CONTINUOUS
 10
187.7602730482
 20
180.2736776231
 11
198.7602730482
 21
180.2736776231
  0
INSERT
  5
22F
100
AcDbEntity
  8
0
100
AcDbBlockReference
 62
2
  6
CONTINUOUS
  2
_FILLED
 10
209.7602730482
 20
180.2736776231
 41
3.5
 42
3.5
 43
3.5
  0
INSERT
  5
230
100
AcDbEntity
  8
0
100
AcDbBlockReference
 62
2
  6
CONTINUOUS
  2
_FILLED
 10
187.7602730482
 20
180.2736776231
 41
3.5
 42
3.5
 43
3.5
 50
180.0
  0
ENDBLK
  5
231
100
AcDbEntity
  8
0
  6
BYBLOCK
 62
0
100
AcDbBlockEnd
  0
BLOCK
  5
232
100
AcDbEntity
  8
0
100
AcDbBlockBegin
 62
2
  6
CONTINUOUS
  2
*D1
 70
65
 10
0.0
 20
0.0
  3
*D1
  1

  0
MTEXT
  5
233
100
AcDbEntity
  8
0
100
AcDbMText
 62
5
  6
CONTINUOUS
  7
STANDARD
 71
2
 72
1
 10
172.9646758069
 20
196.6047627296
 30
0.0
 11
1.0
 21
0.0
 31
0.0
 44
0.9
  1
82
 40
3.5
 41
5.5
  0
LINE
  5
234
100
AcDbEntity
  8
0
100
AcDbLine
 62
2
  6
CONTINUOUS
 10
209.7602730482
 20
130.9477022707
 11
209.7602730482
 21
162.8029485073
  0
LINE
  5
235
100
AcDbEntity
  8
0
100
AcDbLine
 62
2
  6
CONTINUOUS
 10
209.7602730482
 20
168.3778345883
 11
209.7602730482
 21
193.7297627296
  0
LINE
  5
236
100
AcDbEntity
  8
0
100
AcDbLine
 62
2
  6
CONTINUOUS
 10
127.7602730482
 20
121.7583365014
 11
127.7602730482
 21
193.7297627296
  0
LINE
  5
237
100
AcDbEntity
  8
0
100
AcDbLine
 62
2
  6
CONTINUOUS
 10
209.7602730482
 20
192.2297627296
 11
168.7602730482
 21
192.2297627296
  0
LINE
  5
238
100
AcDbEntity
  8
0
100
AcDbLine
 62
2
  6
CONTINUOUS
 10
127.7602730482
 20
192.2297627296
 11
168.7602730482
 21
192.2297627296
  0
INSERT
  5
239
100
AcDbEntity
  8
0
100
AcDbBlockReference
 62
2
  6
CONTINUOUS
  2
_FILLED
 10
209.7602730482
 20
192.2297627296
 41
3.5
 42
3.5
 43
3.5
  0
INSERT
  5
23A
100
AcDbEntity
  8
0
100
AcDbBlockReference
 62
2
  6
CONTINUOUS
  2
_FILLED
 10
127.7602730482
 20
192.2297627296
 41
3.5
 42
3.5
 43
3.5
 50
180.0
  0
ENDBLK
  5
23B
100
AcDbEntity
  8
0
  6
BYBLOCK
 62
0
100
AcDbBlockEnd
  0
BLOCK
  5
23C
100
AcDbEntity
  8
0
100
AcDbBlockBegin
 62
2
  6
CONTINUOUS
  2
*D2
 70
65
 10
0.0
 20
0.0
  3
*D2
  1

  0
MTEXT
  5
23D
100
AcDbEntity
  8
0
100
AcDbMText
 62
5
  6
CONTINUOUS
  7
TEXTSTYLE_2
 71
2
 72
1
 10
227.5418966694
 20
140.4444522707
 30
0.0
 11
0.0
 21
1.0
 31
0.0
 44
0.9
  1
{\Fgdt;n}\Ftxt;48
 40
3.5
 41
10.1666666667
  0
LINE
  5
23E
100
AcDbEntity
  8
0
100
AcDbLine
 62
2
  6
CONTINUOUS
 10
189.2602730482
 20
164.4069522707
 11
206.1576037225
 21
164.4069522707
  0
LINE
  5
23F
100
AcDbEntity
  8
0
100
AcDbLine
 62
2
  6
CONTINUOUS
 10
211.6645069975
 20
164.4069522707
 11
233.4168966694
 21
164.4069522707
  0
LINE
  5
240
100
AcDbEntity
  8
0
100
AcDbLine
 62
2
  6
CONTINUOUS
 10
189.2602730482
 20
116.4819522707
 11
233.4168966694
 21
116.4819522707
  0
LINE
  5
241
100
AcDbEntity
  8
0
100
AcDbLine
 62
2
  6
CONTINUOUS
 10
231.9168966694
 20
164.4069522707
 11
231.9168966694
 21
140.4444522707
  0
LINE
  5
242
100
AcDbEntity
  8
0
100
AcDbLine
 62
2
  6
CONTINUOUS
 10
231.9168966694
 20
116.4819522707
 11
231.9168966694
 21
140.4444522707
  0
INSERT
  5
243
100
AcDbEntity
  8
0
100
AcDbBlockReference
 62
2
  6
CONTINUOUS
  2
_FILLED
 10
231.9168966694
 20
164.4069522707
 41
3.5
 42
3.5
 43
3.5
 50
90.0
  0
INSERT
  5
244
100
AcDbEntity
  8
0
100
AcDbBlockReference
 62
2
  6
CONTINUOUS
  2
_FILLED
 10
231.9168966694
 20
116.4819522707
 41
3.5
 42
3.5
 43
3.5
 50
270.0
  0
ENDBLK
  5
245
100
AcDbEntity
  8
0
  6
BYBLOCK
 62
0
100
AcDbBlockEnd
  0
BLOCK
  5
246
100
AcDbEntity
  8
0
100
AcDbBlockBegin
 62
2
  6
CONTINUOUS
  2
*D3
 70
65
 10
0.0
 20
0.0
  3
*D3
  1

  0
MTEXT
  5
247
100
AcDbEntity
  8
0
100
AcDbMText
 62
5
  6
CONTINUOUS
  7
TEXTSTYLE_2
 71
2
 72
1
 10
217.1790701434
 20
140.4444522707
 30
0.0
 11
0.0
 21
1.0
 31
0.0
 44
0.9
  1
{\Fgdt;n}\Ftxt;22
 40
3.5
 41
10.1666666667
  0
LINE
  5
248
100
AcDbEntity
  8
0
100
AcDbLine
 62
2
  6
CONTINUOUS
 10
211.2602730482
 20
151.4412022707
 11
223.0540701434
 21
151.4412022707
  0
LINE
  5
249
100
AcDbEntity
  8
0
100
AcDbLine
 62
2
  6
CONTINUOUS
 10
211.2602730482
 20
129.4477022707
 11
223.0540701434
 21
129.4477022707
  0
LINE
  5
24A
100
AcDbEntity
  8
0
100
AcDbLine
 62
2
  6
CONTINUOUS
 10
221.5540701434
 20
151.4412022707
 11
221.5540701434
 21
140.4444522707
  0
LINE
  5
24B
100
AcDbEntity
  8
0
100
AcDbLine
 62
2
  6
CONTINUOUS
 10
221.5540701434
 20
129.4477022707
 11
221.5540701434
 21
140.4444522707
  0
INSERT
  5
24C
100
AcDbEntity
  8
0
100
AcDbBlockReference
 62
2
  6
CONTINUOUS
  2
_FILLED
 10
221.5540701434
 20
151.4412022707
 41
3.5
 42
3.5
 43
3.5
 50
90.0
  0
INSERT
  5
24D
100
AcDbEntity
  8
0
100
AcDbBlockReference
 62
2
  6
CONTINUOUS
  2
_FILLED
 10
221.5540701434
 20
129.4477022707
 41
3.5
 42
3.5
 43
3.5
 50
270.0
  0
ENDBLK
  5
24E
100
AcDbEntity
  8
0
  6
BYBLOCK
 62
0
100
AcDbBlockEnd
  0
BLOCK
  5
24F
100
AcDbEntity
  8
0
100
AcDbBlockBegin
 62
2
  6
CONTINUOUS
  2
*D4
 70
65
 10
0.0
 20
0.0
  3
*D4
  1

  0
MTEXT
  5
250
100
AcDbEntity
  8
0
100
AcDbMText
 62
5
  6
CONTINUOUS
  7
STANDARD
 71
2
 72
1
 10
178.2602730482
 20
103.0551951169
 30
0.0
 11
1.0
 21
0.0
 31
0.0
 44
0.9
  1
25
 40
3.5
 41
5.25
  0
LINE
  5
251
100
AcDbEntity
  8
0
100
AcDbLine
 62
2
  6
CONTINUOUS
 10
165.7602730482
 20
107.9337963298
 11
165.7602730482
 21
97.1801951169
  0
LINE
  5
252
100
AcDbEntity
  8
0
100
AcDbLine
 62
2
  6
CONTINUOUS
 10
190.7602730482
 20
114.9819522707
 11
190.7602730482
 21
97.1801951169
  0
LINE
  5
253
100
AcDbEntity
  8
0
100
AcDbLine
 62
2
  6
CONTINUOUS
 10
165.7602730482
 20
98.6801951169
 11
178.2602730482
 21
98.6801951169
  0
LINE
  5
254
100
AcDbEntity
  8
0
100
AcDbLine
 62
2
  6
CONTINUOUS
 10
190.7602730482
 20
98.6801951169
 11
178.2602730482
 21
98.6801951169
  0
INSERT
  5
255
100
AcDbEntity
  8
0
100
AcDbBlockReference
 62
2
  6
CONTINUOUS
  2
_FILLED
 10
165.7602730482
 20
98.6801951169
 41
3.5
 42
3.5
 43
3.5
 50
180.0
  0
INSERT
  5
256
100
AcDbEntity
  8
0
100
AcDbBlockReference
 62
2
  6
CONTINUOUS
  2
_FILLED
 10
190.7602730482
 20
98.6801951169
 41
3.5
 42
3.5
 43
3.5
  0
ENDBLK
  5
257
100
AcDbEntity
  8
0
  6
BYBLOCK
 62
0
100
AcDbBlockEnd
  0
ENDSEC
  0
SECTION
  2
ENTITIES
  0
DIMENSION
  5
258
100
AcDbEntity
  8
0
100
AcDbDimension
 62
2
  6
CONTINUOUS
  2
*D0
 10
187.7602730482
 20
180.2736776231
 11
196.0102730482
 21
182.8986776231
 70
160
 71
2
 42
22.0
  3
DIMSTYLE_1
100
AcDbAlignedDimension
 13
209.7602730482
 23
130.9477022707
 14
187.7602730482
 24
165.7760769795
 50
180.0
100
AcDbRotatedDimension
  0
DIMENSION
  5
259
100
AcDbEntity
  8
0
100
AcDbDimension
 62
2
  6
CONTINUOUS
  2
*D1
 10
127.7602730482
 20
192.2297627296
 11
170.2146758069
 21
194.8547627296
 70
160
 71
2
 42
82.0
  3
DIMSTYLE_2
100
AcDbAlignedDimension
 13
209.7602730482
 23
130.9477022707
 14
127.7602730482
 24
121.7583365014
 50
180.0
100
AcDbRotatedDimension
  0
DIMENSION
  5
25A
100
AcDbEntity
  8
0
100
AcDbDimension
 62
2
  6
CONTINUOUS
  2
*D2
 10
231.9168966694
 20
116.4819522707
 11
230.4307504437
 21
138.1722107507
 70
160
 71
2
 42
47.925
  1
%%c<>
  3
DIMSTYLE_3
100
AcDbAlignedDimension
 13
189.2602730482
 23
164.4069522707
 14
189.2602730482
 24
116.4819522707
 50
270.0
100
AcDbRotatedDimension
  0
DIMENSION
  5
25B
100
AcDbEntity
  8
0
100
AcDbDimension
 62
2
  6
CONTINUOUS
  2
*D3
 10
221.5540701434
 20
129.4477022707
 11
220.0679239177
 21
138.1722107507
 70
160
 71
2
 42
21.9935
  1
%%c<>
  3
DIMSTYLE_4
100
AcDbAlignedDimension
 13
211.2602730482
 23
151.4412022707
 14
211.2602730482
 24
129.4477022707
 50
270.0
100
AcDbRotatedDimension
  0
DIMENSION
  5
25C
100
AcDbEntity
  8
0
100
AcDbDimension
 62
2
  6
CONTINUOUS
  2
*D4
 10
190.7602730482
 20
98.6801951169
 11
175.6352730482
 21
101.3051951169
 70
160
 71
2
 42
25.0
  3
DIMSTYLE_1
100
AcDbAlignedDimension
 13
165.7602730482
 23
107.9337963298
 14
190.7602730482
 24
114.9819522707
100
AcDbRotatedDimension
  0
MTEXT
  5
25D
100
AcDbEntity
  8
0
100
AcDbMText
 62
5
  6
CONTINUOUS
  7
STANDARD
 71
1
 72
1
 10
32.4434483753
 20
86.2394746042
 30
0.0
 11
1.0
 21
0.0
 31
0.0
 44
0.9
  3
Für diese Unterlage behalten wir das Ur-\Pheberrecht. Sie darf nur für den von uns \Pbestimmten Zweck benutzt und ohne unsere \PZustimmung weder vervielfältigt noch\PDritten zugänglich gemacht werden\P \PWe own the copyright of this document. It \Pde
  1
termined and may neither be copied or \Pmade accessible to outsiders without our\Ppermission.\P \PCe plan reste notre propriété. Il ne peut\Pêtre utilisé, copié ou reproduit sans notre\Paccord.\P 
 40
3.5
 41
104.8333333333
  0
LINE
  5
25E
100
AcDbEntity
  8
0
100
AcDbLine
 62
7
  6
CONTINUOUS
 10
0.0
 20
0.0
 11
0.0
 21
210.0
  0
LINE
  5
25F
100
AcDbEntity
  8
0
100
AcDbLine
 62
7
  6
CONTINUOUS
 10
0.0
 20
0.0
 11
297.0
 21
0.0
  0
LINE
  5
260
100
AcDbEntity
  8
0
100
AcDbLine
 62
7
  6
CONTINUOUS
 10
0.0
 20
210.0
 11
297.0
 21
210.0
  0
LINE
  5
261
100
AcDbEntity
  8
0
100
AcDbLine
 62
7
  6
CONTINUOUS
 10
297.0
 20
0.0
 11
297.0
 21
210.0
  0
LINE
  5
262
100
AcDbEntity
  8
0
100
AcDbLine
 62
7
  6
CONTINUOUS
 10
127.7602730482
 20
118.7521142778
 11
127.7602730482
 21
155.4056969094
  0
LINE
  5
263
100
AcDbEntity
  8
ACHSEN
100
AcDbLine
 62
7
  6
CONTINUOUS
 10
127.7602730482
 20
155.4056969094
 11
127.7602730482
 21
159.1929315847
  0
LINE
  5
264
100
AcDbEntity
  8
ACHSEN
100
AcDbLine
 62
7
  6
CONTINUOUS
 10
129.2602730482
 20
159.9414418843
 11
129.2602730482
 21
156.1556969094
  0
LINE
  5
265
100
AcDbEntity
  8
0
100
AcDbLine
 62
7
  6
CONTINUOUS
 10
129.2602730482
 20
156.1556969094
 11
129.2602730482
 21
117.886088874
  0
LINE
  5
266
100
AcDbEntity
  8
0
100
AcDbLine
 62
9
  6
CONTINUOUS
 10
129.2602730482
 20
156.1556969094
 11
127.7602730482
 21
155.4056969094
  0
LINE
  5
267
100
AcDbEntity
  8
0
100
AcDbLine
 62
7
  6
CONTINUOUS
 10
129.2602730482
 20
117.886088874
 11
127.7602730482
 21
118.7521142778
  0
LINE
  5
268
100
AcDbEntity
  8
0
100
AcDbLine
 62
9
  6
CONTINUOUS
 10
129.2602730482
 20
119.5083365014
 11
127.7602730482
 21
120.2583365014
  0
LINE
  5
269
100
AcDbEntity
  8
0
100
AcDbLine
 62
7
  6
CONTINUOUS
 10
165.7602748842
 20
171.6444503634
 11
166.0602749741
 21
171.9444504173
  0
LINE
  5
26A
100
AcDbEntity
  8
0
100
AcDbLine
 62
7
  6
CONTINUOUS
 10
187.7602730482
 20
108.9444522707
 11
166.0602731206
 21
108.9444522707
  0
LINE
  5
26B
100
AcDbEntity
  8
0
100
AcDbLine
 62
7
  6
CONTINUOUS
 10
179.2215979137
 20
110.3638595104
 11
176.2989481828
 21
110.3638595104
  0
LINE
  5
26C
100
AcDbEntity
  8
ACHSEN
100
AcDbLine
 62
7
  6
CENTER
 10
150.2602730482
 20
117.5109667637
 11
150.2602730482
 21
164.6328228353
  0
LINE
  5
26D
100
AcDbEntity
  8
RUNDUNGEN
100
AcDbLine
 62
7
  6
CONTINUOUS
 10
189.7602730482
 20
116.4819522707
 11
188.7602730482
 21
116.4819522707
  0
LINE
  5
26E
100
AcDbEntity
  8
0
100
AcDbLine
 62
7
  6
CONTINUOUS
 10
188.7602730482
 20
116.4819522707
 11
189.7602730482
 21
116.4819522707
  0
LINE
  5
26F
100
AcDbEntity
  8
0
100
AcDbLine
 62
9
  6
CONTINUOUS
 10
163.5603361373
 20
118.7620503915
 11
129.2602730482
 21
119.5083365014
  0
LINE
  5
270
100
AcDbEntity
  8
0
100
AcDbLine
 62
7
  6
CONTINUOUS
 10
164.0133017991
 20
117.5677233954
 11
163.7652961594
 21
117.5735668792
  0
LINE
  5
271
100
AcDbEntity
  8
0
100
AcDbLine
 62
7
  6
CONTINUOUS
 10
129.2602730482
 20
117.886088874
 11
163.7706758711
 21
117.0190674349
  0
LINE
  5
272
100
AcDbEntity
  8
0
100
AcDbLine
 62
7
  6
CONTINUOUS
 10
165.7602748842
 20
109.2444541781
 11
166.0602749741
 21
108.9444541242
  0
LINE
  5
273
100
AcDbEntity
  8
0
100
AcDbLine
 62
7
  6
CONTINUOUS
 10
163.5603361373
 20
161.0645526403
 11
163.5603361373
 21
156.9019830194
  0
LINE
  5
274
100
AcDbEntity
  8
0
100
AcDbLine
 62
7
  6
CONTINUOUS
 10
163.5603361373
 20
145.6693234013
 11
163.5603361373
 21
118.7620503915
  0
LINE
  5
275
100
AcDbEntity
  8
0
100
AcDbLine
 62
9
  6
CONTINUOUS
 10
163.7652961594
 20
160.8696388405
 11
163.7652961594
 21
155.1293944755
  0
LINE
  5
276
100
AcDbEntity
  8
0
100
AcDbLine
 62
9
  6
CONTINUOUS
 10
163.7652961594
 20
148.6303954575
 11
163.7652961594
 21
117.5735668792
  0
LINE
  5
277
100
AcDbEntity
  8
0
100
AcDbLine
 62
9
  6
CONTINUOUS
 10
164.4531662671
 20
117.7015590519
 11
164.4531662671
 21
118.3408956198
  0
LINE
  5
278
100
AcDbEntity
  8
0
100
AcDbLine
 62
9
  6
CONTINUOUS
 10
164.4531662671
 20
146.8589920315
 11
164.4531662671
 21
156.1334691609
  0
LINE
  5
279
100
AcDbEntity
  8
0
100
AcDbLine
 62
7
  6
CONTINUOUS
 10
208.7602730482
 20
129.4477022707
 11
193.4602730482
 21
129.4477022707
  0
LINE
  5
27A
100
AcDbEntity
  8
0
100
AcDbLine
 62
7
  6
CONTINUOUS
 10
191.4102730482
 20
129.8977022707
 11
191.6689455619
 21
129.8977022707
  0
LINE
  5
27B
100
AcDbEntity
  8
RUNDUNGEN
100
AcDbLine
 62
7
  6
CONTINUOUS
 10
191.4102730482
 20
129.8977022707
 11
191.6689455619
 21
129.8977022707
  0
LINE
  5
27C
100
AcDbEntity
  8
0
100
AcDbLine
 62
7
  6
CONTINUOUS
 10
179.2215979137
 20
131.0952309562
 11
176.2989481828
 21
131.0952309562
  0
LINE
  5
27D
100
AcDbEntity
  8
0
100
AcDbLine
 62
7
  6
CONTINUOUS
 10
165.5602962557
 20
119.0485257138
 11
165.5602730482
 21
119.0510658136
  0
LINE
  5
27E
100
AcDbEntity
  8
0
100
AcDbLine
 62
9
  6
CONTINUOUS
 10
165.3652961594
 20
160.9098364096
 11
165.3652961594
 21
156.7889305577
  0
LINE
  5
27F
100
AcDbEntity
  8
0
100
AcDbLine
 62
9
  6
CONTINUOUS
 10
165.3652961594
 20
145.6274027239
 11
165.3652961594
 21
118.9170235306
  0
LINE
  5
280
100
AcDbEntity
  8
0
100
AcDbLine
 62
7
  6
CONTINUOUS
 10
165.5602730482
 20
119.0450372541
 11
165.5602730482
 21
145.0327838183
  0
LINE
  5
281
100
AcDbEntity
  8
0
100
AcDbLine
 62
7
  6
CONTINUOUS
 10
165.5602730482
 20
157.2555355766
 11
165.5602730482
 21
162.9779371317
  0
LINE
  5
282
100
AcDbEntity
  8
0
100
AcDbLine
 62
7
  6
CONTINUOUS
 10
165.7602730482
 20
109.2447279403
 11
165.7602730482
 21
171.6441766012
  0
LINE
  5
283
100
AcDbEntity
  8
0
100
AcDbLine
 62
7
  6
CONTINUOUS
 10
166.0602731218
 20
108.9444522707
 11
166.0602731218
 21
171.9444522707
  0
LINE
  5
284
100
AcDbEntity
  8
RUNDUNGEN
100
AcDbLine
 62
7
  6
CONTINUOUS
 10
191.8889417504
 20
129.868739223
 11
191.6689455619
 21
129.8977022707
  0
LINE
  5
285
100
AcDbEntity
  8
0
100
AcDbLine
 62
7
  6
CONTINUOUS
 10
191.8889417502
 20
129.8687392231
 11
193.4602730482
 21
129.4477022707
  0
LINE
  5
286
100
AcDbEntity
  8
RUNDUNGEN
100
AcDbLine
 62
7
  6
CONTINUOUS
 10
191.8889417502
 20
129.8687392231
 11
193.4602730482
 21
129.4477022707
  0
LINE
  5
287
100
AcDbEntity
  8
0
100
AcDbLine
 62
9
  6
CONTINUOUS
 10
175.865935481
 20
170.3584071172
 11
175.865935481
 21
150.3138648897
  0
LINE
  5
288
100
AcDbEntity
  8
0
100
AcDbLine
 62
9
  6
CONTINUOUS
 10
175.865935481
 20
130.5750396518
 11
175.865935481
 21
110.5304974242
  0
LINE
  5
289
100
AcDbEntity
  8
0
100
AcDbLine
 62
9
  6
CONTINUOUS
 10
176.2989481828
 20
170.525045031
 11
176.2989481828
 21
149.7936735852
  0
LINE
  5
28A
100
AcDbEntity
  8
0
100
AcDbLine
 62
9
  6
CONTINUOUS
 10
176.2989481828
 20
131.0952309562
 11
176.2989481828
 21
110.3638595104
  0
LINE
  5
28B
100
AcDbEntity
  8
ACHSEN
100
AcDbLine
 62
7
  6
CENTER
 10
177.7602730482
 20
165.1750780405
 11
177.7602730482
 21
174.9444522707
  0
LINE
  5
28C
100
AcDbEntity
  8
0
100
AcDbLine
 62
7
  6
CONTINUOUS
 10
191.8889417502
 20
151.0201653184
 11
193.4602730482
 21
151.4412022707
  0
LINE
  5
28D
100
AcDbEntity
  8
RUNDUNGEN
100
AcDbLine
 62
7
  6
CONTINUOUS
 10
191.8889417502
 20
151.0201653184
 11
193.4602730482
 21
151.4412022707
  0
LINE
  5
28E
100
AcDbEntity
  8
BEZUGSACHSEN
100
AcDbLine
 62
7
  6
CENTER
 10
193.7602730482
 20
140.4444522707
 11
173.7602730482
 21
140.4444522707
  0
LINE
  5
28F
100
AcDbEntity
  8
S_ACHSEN
100
AcDbLine
 62
7
  6
CENTER
 10
124.7602730482
 20
140.4444522707
 11
212.7602730482
 21
140.4444522707
  0
LINE
  5
290
100
AcDbEntity
  8
0
100
AcDbLine
 62
9
  6
CONTINUOUS
 10
179.2215979137
 20
170.525045031
 11
179.2215979137
 21
149.7936735852
  0
LINE
  5
291
100
AcDbEntity
  8
0
100
AcDbLine
 62
9
  6
CONTINUOUS
 10
179.2215979137
 20
131.0952309562
 11
179.2215979137
 21
110.3638595104
  0
LINE
  5
292
100
AcDbEntity
  8
0
100
AcDbLine
 62
9
  6
CONTINUOUS
 10
179.6546106155
 20
170.3584071172
 11
179.6546106155
 21
150.3138648897
  0
LINE
  5
293
100
AcDbEntity
  8
0
100
AcDbLine
 62
9
  6
CONTINUOUS
 10
179.6546106155
 20
130.5750396518
 11
179.6546106155
 21
110.5304974242
  0
LINE
  5
294
100
AcDbEntity
  8
0
100
AcDbLine
 62
7
  6
CONTINUOUS
 10
164.4531662671
 20
117.7015590519
 11
163.7706758708
 21
117.0190686556
  0
LINE
  5
295
100
AcDbEntity
  8
RUNDUNGEN
100
AcDbLine
 62
7
  6
CONTINUOUS
 10
191.8889417504
 20
151.0201653184
 11
191.6689455619
 21
150.9912022707
  0
LINE
  5
296
100
AcDbEntity
  8
0
100
AcDbLine
 62
7
  6
CONTINUOUS
 10
163.7652961594
 20
148.6303954575
 11
164.0133017991
 21
148.6314097134
  0
LINE
  5
297
100
AcDbEntity
  8
0
100
AcDbLine
 62
9
  6
CONTINUOUS
 10
127.7602730482
 20
145.6693234013
 11
163.5603361373
 21
145.6693234013
  0
LINE
  5
298
100
AcDbEntity
  8
0
100
AcDbLine
 62
7
  6
CONTINUOUS
 10
179.2215979137
 20
149.7936735852
 11
176.2989481828
 21
149.7936735852
  0
LINE
  5
299
100
AcDbEntity
  8
0
100
AcDbLine
 62
7
  6
CONTINUOUS
 10
191.4102730482
 20
150.9912022707
 11
191.6689455619
 21
150.9912022707
  0
LINE
  5
29A
100
AcDbEntity
  8
RUNDUNGEN
100
AcDbLine
 62
7
  6
CONTINUOUS
 10
191.4102730482
 20
150.9912022707
 11
191.6689455619
 21
150.9912022707
  0
LINE
  5
29B
100
AcDbEntity
  8
0
100
AcDbLine
 62
7
  6
CONTINUOUS
 10
193.4602730482
 20
151.4412022707
 11
208.7602730482
 21
151.4412022707
  0
LINE
  5
29C
100
AcDbEntity
  8
0
100
AcDbLine
 62
7
  6
CONTINUOUS
 10
187.7602730482
 20
108.9444522707
 11
187.7602730482
 21
171.9444522707
  0
LINE
  5
29D
100
AcDbEntity
  8
RUNDUNGEN
100
AcDbLine
 62
9
  6
CONTINUOUS
 10
188.7602730482
 20
164.4069522707
 11
188.7602730482
 21
116.4819522707
  0
LINE
  5
29E
100
AcDbEntity
  8
RUNDUNGEN
100
AcDbLine
 62
9
  6
CONTINUOUS
 10
189.7602730482
 20
116.4819522707
 11
189.7602730482
 21
164.4069522707
  0
LINE
  5
29F
100
AcDbEntity
  8
RUNDUNGEN
100
AcDbLine
 62
7
  6
CONTINUOUS
 10
190.7602730482
 20
117.4819522707
 11
190.7602730482
 21
163.4069522707
  0
LINE
  5
2A0
100
AcDbEntity
  8
0
100
AcDbLine
 62
9
  6
CONTINUOUS
 10
129.2602730482
 20
156.1556969094
 11
163.5603361373
 21
156.9019830194
  0
LINE
  5
2A1
100
AcDbEntity
  8
0
100
AcDbLine
 62
7
  6
CONTINUOUS
 10
164.0133017991
 20
155.1342237034
 11
163.7652961594
 21
155.1293944755
  0
LINE
  5
2A2
100
AcDbEntity
  8
0
100
AcDbLine
 62
9
  6
CONTINUOUS
 10
191.4102730482
 20
150.9912022707
 11
191.4102730482
 21
129.8977022707
  0
LINE
  5
2A3
100
AcDbEntity
  8
RUNDUNGEN
100
AcDbLine
 62
9
  6
CONTINUOUS
 10
191.6689455619
 20
129.8977022707
 11
191.6689455619
 21
150.9912022707
  0
LINE
  5
2A4
100
AcDbEntity
  8
RUNDUNGEN
100
AcDbLine
 62
9
  6
CONTINUOUS
 10
191.8889417502
 20
129.8687392231
 11
191.8889417502
 21
151.0201653184
  0
LINE
  5
2A5
100
AcDbEntity
  8
0
100
AcDbLine
 62
7
  6
CONTINUOUS
 10
193.4602730482
 20
151.4412022707
 11
193.4602730482
 21
129.4477022707
  0
LINE
  5
2A6
100
AcDbEntity
  8
0
100
AcDbLine
 62
7
  6
CONTINUOUS
 10
163.7652961594
 20
160.8696388405
 11
165.3652961594
 21
160.9098364096
  0
LINE
  5
2A7
100
AcDbEntity
  8
0
100
AcDbLine
 62
7
  6
CONTINUOUS
 10
136.0238778023
 20
160.3727409609
 11
145.8102730482
 21
160.6186092729
  0
LINE
  5
2A8
100
AcDbEntity
  8
0
100
AcDbLine
 62
7
  6
CONTINUOUS
 10
154.9396343815
 20
160.8479706061
 11
163.5603361373
 21
161.0645526403
  0
LINE
  5
2A9
100
AcDbEntity
  8
0
100
AcDbLine
 62
7
  6
CONTINUOUS
 10
188.7602730482
 20
164.4069522707
 11
189.7602730482
 21
164.4069522707
  0
LINE
  5
2AA
100
AcDbEntity
  8
0
100
AcDbLine
 62
7
  6
CONTINUOUS
 10
179.2215979137
 20
170.525045031
 11
176.2989481828
 21
170.525045031
  0
LINE
  5
2AB
100
AcDbEntity
  8
0
100
AcDbLine
 62
7
  6
CONTINUOUS
 10
187.7602730482
 20
171.9444522707
 11
182.9825142713
 21
171.9444522707
  0
LINE
  5
2AC
100
AcDbEntity
  8
0
100
AcDbLine
 62
7
  6
CONTINUOUS
 10
172.5380337432
 20
171.9444522707
 11
166.0602731206
 21
171.9444522707
  0
LINE
  5
2AD
100
AcDbEntity
  8
RUNDUNGEN
100
AcDbLine
 62
9
  6
CONTINUOUS
 10
208.7602730482
 20
129.4477022707
 11
208.7602730482
 21
151.4412022707
  0
LINE
  5
2AE
100
AcDbEntity
  8
RUNDUNGEN
100
AcDbLine
 62
7
  6
CONTINUOUS
 10
209.7602730482
 20
150.4412022707
 11
209.7602730482
 21
130.4477022707
  0
ARC
  5
2AF
100
AcDbEntity
  8
0
100
AcDbCircle
 62
7
  6
CONTINUOUS
 10
309.9944458202
 20
91.4702544006
 40
159.2595221552
100
AcDbArc
 50
156.0446773748
 51
156.4374589831
  0
ARC
  5
2B0
100
AcDbEntity
  8
ACHSEN
100
AcDbCircle
 62
7
  6
CONTINUOUS
 10
64.0020560705
 20
288.8403918229
 40
144.4768984247
100
AcDbArc
 50
296.187103939
 51
296.8519184685
  0
ARC
  5
2B1
100
AcDbEntity
  8
0
100
AcDbCircle
 62
7
  6
CONTINUOUS
 10
57.0082618528
 20
121.1349634414
 40
110.4813700653
100
AcDbArc
 50
13.4640903998
 51
14.4111621352
  0
ARC
  5
2B2
100
AcDbEntity
  8
FASEN
100
AcDbCircle
 62
7
  6
CONTINUOUS
 10
177.9471900351
 20
204.1280111395
 40
32.634987648
100
AcDbArc
 50
260.8474651402
 51
261.3917687663
  0
ARC
  5
2B3
100
AcDbEntity
  8
FASEN
100
AcDbCircle
 62
7
  6
CONTINUOUS
 10
177.5838206145
 20
204.0615018909
 40
32.5676614754
100
AcDbArc
 50
278.6101559695
 51
279.0125991135
  0
ARC
  5
2B4
100
AcDbEntity
  8
FASEN
100
AcDbCircle
 62
7
  6
CONTINUOUS
 10
177.7190501398
 20
203.0650115516
 40
31.5621602243
100
AcDbArc
 50
270.0748332601
 51
278.6382567561
  0
ARC
  5
2B5
100
AcDbEntity
  8
FASEN
100
AcDbCircle
 62
7
  6
CONTINUOUS
 10
177.7732139285
 20
202.693581553
 40
31.1907059899
100
AcDbArc
 50
261.3133577274
 51
269.9762282444
  0
ARC
  5
2B6
100
AcDbEntity
  8
RUNDUNGEN
100
AcDbCircle
 62
7
  6
CONTINUOUS
 10
189.7602730482
 20
163.4069522707
 40
1.0
100
AcDbArc
 50
0.0
 51
90.0
  0
ARC
  5
2B7
100
AcDbEntity
  8
RUNDUNGEN
100
AcDbCircle
 62
7
  6
CONTINUOUS
 10
208.7602730482
 20
130.4477022707
 40
1.0
100
AcDbArc
 50
270.0
 51
360.0
  0
ARC
  5
2B8
100
AcDbEntity
  8
RUNDUNGEN
100
AcDbCircle
 62
7
  6
CONTINUOUS
 10
188.7602730482
 20
165.4069522707
 40
1.0
100
AcDbArc
 50
180.0000000001
 51
270.0
  0
ARC
  5
2B9
100
AcDbEntity
  8
RUNDUNGEN
100
AcDbCircle
 62
7
  6
CONTINUOUS
 10
188.7602730482
 20
115.4819522707
 40
1.0
100
AcDbArc
 50
90.0
 51
179.9999999998
  0
ARC
  5
2BA
100
AcDbEntity
  8
0
100
AcDbCircle
 62
7
  6
CONTINUOUS
 10
165.1602730482
 20
116.9944522707
 40
1.0
100
AcDbArc
 50
53.0400606802
 51
135.0
  0
ARC
  5
2BB
100
AcDbEntity
  8
0
100
AcDbCircle
 62
7
  6
CONTINUOUS
 10
165.1602730482
 20
163.8944522707
 40
1.0
100
AcDbArc
 50
293.5781784782
 51
306.9599393198
  0
ARC
  5
2BC
100
AcDbEntity
  8
RUNDUNGEN
100
AcDbCircle
 62
7
  6
CONTINUOUS
 10
208.7602730482
 20
150.4412022707
 40
1.0
100
AcDbArc
 50
0.0
 51
90.0
  0
ARC
  5
2BD
100
AcDbEntity
  8
RUNDUNGEN
100
AcDbCircle
 62
7
  6
CONTINUOUS
 10
189.7602730482
 20
117.4819522707
 40
1.0
100
AcDbArc
 50
270.0
 51
360.0
  0
ARC
  5
2BE
100
AcDbEntity
  8
0
100
AcDbCircle
 62
7
  6
CONTINUOUS
 10
191.4102730482
 20
151.8412022707
 40
0.85
100
AcDbArc
 50
220.0267341674
 51
270.0
  0
ARC
  5
2BF
100
AcDbEntity
  8
0
100
AcDbCircle
 62
7
  6
CONTINUOUS
 10
191.4102730482
 20
129.0477022707
 40
0.85
100
AcDbArc
 50
90.0
 51
139.9732658326
  0
ARC
  5
2C0
100
AcDbEntity
  8
0
100
AcDbCircle
 62
7
  6
CONTINUOUS
 10
165.3602730482
 20
161.1097733205
 40
0.2
100
AcDbArc
 50
271.439166666
 51
360.0
  0
ARC
  5
2C1
100
AcDbEntity
  8
0
100
AcDbCircle
 62
7
  6
CONTINUOUS
 10
163.7602730482
 20
161.0695757514
 40
0.2
100
AcDbArc
 50
181.439166666
 51
271.439166666
  0
LINE
  5
2C2
100
AcDbEntity
  8
FASEN
100
AcDbLine
 62
7
  6
CONTINUOUS
 10
172.7561590322
 20
171.9085198971
 11
172.5377735237
 21
171.944452269
  0
LINE
  5
2C3
100
AcDbEntity
  8
FASEN
100
AcDbLine
 62
7
  6
CONTINUOUS
 10
182.9827723534
 20
171.9444522678
 11
182.6855985208
 21
171.8959234541
  0
LINE
  5
2C4
100
AcDbEntity
  8
ACHSEN
100
AcDbLine
 62
7
  6
CONTINUOUS
 10
134.1102730482
 20
160.0485035694
 11
129.2602730482
 21
159.9414418843
  0
LINE
  5
2C5
100
AcDbEntity
  8
ACHSEN
100
AcDbLine
 62
7
  6
CONTINUOUS
 10
136.0238923962
 20
160.3710043466
 11
136.0388433342
 21
160.373110076
  0
SPLINE
  5
2C6
100
AcDbEntity
  8
ACHSEN
100
AcDbSpline
 62
7
  6
CONTINUOUS
 70
0
 71
3
 72
10
 73
6
 74
0
 42
0.0000001
 43
0.0000001
 44
0.0000000001
 40
0.0
 40
0.0
 40
0.0
 40
0.0
 40
0.0929965444
 40
0.3287693884
 40
1.0
 40
1.0
 40
1.0
 40
1.0
 10
136.0388433338
 20
160.3731100759
 30
0.0
 10
135.9787417589
 20
160.3651265788
 30
0.0
 10
135.7666893286
 20
160.3338099108
 30
0.0
 10
135.1219918162
 20
160.2368624097
 30
0.0
 10
134.539690569
 20
160.1327921161
 30
0.0
 10
134.1102730482
 20
160.0485035694
 30
0.0
  0
SPLINE
  5
2C7
100
AcDbEntity
  8
ACHSEN
100
AcDbSpline
 62
7
  6
CONTINUOUS
 70
0
 71
3
 72
11
 73
7
 74
0
 42
0.0000001
 43
0.0000001
 44
0.0000000001
 40
0.0
 40
0.0
 40
0.0
 40
0.0
 40
0.1537099379
 40
0.500508937
 40
0.8472910559
 40
1.0
 40
1.0
 40
1.0
 40
1.0
 10
154.9396343815
 20
160.8479706061
 30
0.0
 10
154.4760491124
 20
160.7766936514
 30
0.0
 10
152.9618167982
 20
160.572635879
 30
0.0
 10
150.3790423707
 20
160.3871268471
 30
0.0
 10
147.7929963407
 20
160.4400740658
 30
0.0
 10
146.273707158
 20
160.5698405586
 30
0.0
 10
145.8102730482
 20
160.6186092729
 30
0.0
  0
SPLINE
  5
2C8
100
AcDbEntity
  8
0
100
AcDbSpline
 62
7
  6
CONTINUOUS
 70
0
 71
3
 72
17
 73
13
 74
0
 42
0.0000001
 43
0.0000001
 44
0.0000000001
 40
0.0
 40
0.0
 40
0.0
 40
0.0
 40
0.2841775711
 40
0.4146661432
 40
0.5373502072
 40
0.652341305
 40
0.7602377654
 40
0.8121867936
 40
0.8638391814
 40
0.9180398508
 40
0.9497831112
 40
1.0
 40
1.0
 40
1.0
 40
1.0
 10
163.5603361373
 20
118.7620503915
 30
0.0
 10
163.5603361373
 20
118.6424769542
 30
0.0
 10
163.560193324
 20
118.4679942945
 30
0.0
 10
163.5625733192
 20
118.2419042104
 30
0.0
 10
163.567192887
 20
118.0870347082
 30
0.0
 10
163.5771204642
 20
117.9419355872
 30
0.0
 10
163.5932347796
 20
117.8271741134
 30
0.0
 10
163.6152031815
 20
117.74079702
 30
0.0
 10
163.6385073087
 20
117.6784974012
 30
0.0
 10
163.6686420081
 20
117.6281523795
 30
0.0
 10
163.7097315562
 20
117.5879051141
 30
0.0
 10
163.7441722547
 20
117.5740645998
 30
0.0
 10
163.7652961594
 20
117.5735668792
 30
0.0
  0
SPLINE
  5
2C9
100
AcDbEntity
  8
0
100
AcDbSpline
 62
7
  6
CONTINUOUS
 70
0
 71
3
 72
21
 73
17
 74
0
 42
0.0000001
 43
0.0000001
 44
0.0000000001
 40
0.0
 40
0.0
 40
0.0
 40
0.0
 40
0.0152736556
 40
0.0307400416
 40
0.0615944727
 40
0.0924597446
 40
0.1233512662
 40
0.1852330485
 40
0.2472659363
 40
0.3094463907
 40
0.3717660941
 40
0.4967787028
 40
0.6222117836
 40
0.747963109
 40
0.8739278454
 40
1.0
 40
1.0
 40
1.0
 40
1.0
 10
163.7652961594
 20
148.6303954575
 30
0.0
 10
163.7500338441
 20
148.6303330381
 30
0.0
 10
163.7243456793
 20
148.6043358834
 30
0.0
 10
163.6986045866
 20
148.5505833476
 30
0.0
 10
163.6749570568
 20
148.4758114546
 30
0.0
 10
163.6551586834
 20
148.3857166302
 30
0.0
 10
163.6341810084
 20
148.2638192661
 30
0.0
 10
163.6152776083
 20
148.1102704626
 30
0.0
 10
163.5990499682
 20
147.9249865104
 30
0.0
 10
163.5872807737
 20
147.7389524431
 30
0.0
 10
163.5758261337
 20
147.4898765907
 30
0.0
 10
163.5674123696
 20
147.1774310716
 30
0.0
 10
163.5626599215
 20
146.8015355917
 30
0.0
 10
163.5608454988
 20
146.4246655355
 30
0.0
 10
163.5603721607
 20
146.0471549025
 30
0.0
 10
163.5603361373
 20
145.7953030036
 30
0.0
 10
163.5603361373
 20
145.6693234013
 30
0.0
  0
SPLINE
  5
2CA
100
AcDbEntity
  8
0
100
AcDbSpline
 62
7
  6
CONTINUOUS
 70
0
 71
3
 72
17
 73
13
 74
0
 42
0.0000001
 43
0.0000001
 44
0.0000000001
 40
0.0
 40
0.0
 40
0.0
 40
0.0
 40
0.2182009024
 40
0.3349220057
 40
0.456586696
 40
0.5831112211
 40
0.7144823146
 40
0.7820564401
 40
0.8510300181
 40
0.92186225
 40
0.958727904
 40
1.0
 40
1.0
 40
1.0
 40
1.0
 10
163.5603361373
 20
156.9019830194
 30
0.0
 10
163.5603361373
 20
156.7697040051
 30
0.0
 10
163.5603184499
 20
156.5666643438
 30
0.0
 10
163.5627255588
 20
156.2898755735
 30
0.0
 10
163.5675507523
 20
156.0687031708
 30
0.0
 10
163.5778364904
 20
155.8387881899
 30
0.0
 10
163.5939615138
 20
155.6421194948
 30
0.0
 10
163.6155356143
 20
155.4809186231
 30
0.0
 10
163.6381400849
 20
155.3577483311
 30
0.0
 10
163.6677358812
 20
155.2525976004
 30
0.0
 10
163.7021675559
 20
155.1731277462
 30
0.0
 10
163.7402806925
 20
155.1289073695
 30
0.0
 10
163.7652961594
 20
155.1293944755
 30
0.0
  0
SPLINE
  5
2CB
100
AcDbEntity
  8
0
100
AcDbSpline
 62
7
  6
CONTINUOUS
 70
0
 71
3
 72
17
 73
13
 74
0
 42
0.0000001
 43
0.0000001
 44
0.0000000001
 40
0.0
 40
0.0
 40
0.0
 40
0.0
 40
0.2536810086
 40
0.3797805479
 40
0.5052013146
 40
0.6297018311
 40
0.6915472735
 40
0.7529628459
 40
0.813907906
 40
0.8744772172
 40
0.9358455192
 40
1.0
 40
1.0
 40
1.0
 40
1.0
 10
165.5602811884
 20
145.0214064659
 30
0.0
 10
165.5603243453
 20
145.082517361
 30
0.0
 10
165.5591175367
 20
145.1740517677
 30
0.0
 10
165.5509745364
 20
145.295514596
 30
0.0
 10
165.5409610115
 20
145.3855692204
 30
0.0
 10
165.5279201049
 20
145.4596426766
 30
0.0
 10
165.5129417527
 20
145.5174375424
 30
0.0
 10
165.4985764094
 20
145.5595405579
 30
0.0
 10
165.4791469916
 20
145.5991112806
 30
0.0
 10
165.4528720193
 20
145.635484823
 30
0.0
 10
165.4065029348
 20
145.65304514
 30
0.0
 10
165.3773780666
 20
145.6370397465
 30
0.0
 10
165.3652961594
 20
145.6274027239
 30
0.0
  0
SPLINE
  5
2CC
100
AcDbEntity
  8
0
100
AcDbSpline
 62
7
  6
CONTINUOUS
 70
0
 71
3
 72
11
 73
7
 74
0
 42
0.0000001
 43
0.0000001
 44
0.0000000001
 40
0.0
 40
0.0
 40
0.0
 40
0.0
 40
0.2163338898
 40
0.4581730139
 40
0.72121324
 40
1.0
 40
1.0
 40
1.0
 40
1.0
 10
164.0133017991
 20
155.1342237034
 30
0.0
 10
163.9276004111
 20
154.6715021477
 30
0.0
 10
163.8053319251
 20
153.6802907503
 30
0.0
 10
163.750749884
 20
152.1109440395
 30
0.0
 10
163.8153773964
 20
150.4061576081
 30
0.0
 10
163.9346860141
 20
149.2327372912
 30
0.0
 10
164.0133017991
 20
148.6314097134
 30
0.0
  0
SPLINE
  5
2CD
100
AcDbEntity
  8
0
100
AcDbSpline
 62
7
  6
CONTINUOUS
 70
0
 71
3
 72
13
 73
9
 74
0
 42
0.0000001
 43
0.0000001
 44
0.0000000001
 40
0.0
 40
0.0
 40
0.0
 40
0.0
 40
0.1285667245
 40
0.2559092478
 40
0.3818745546
 40
0.5067668156
 40
0.7541865852
 40
1.0
 40
1.0
 40
1.0
 40
1.0
 10
179.2215979137
 20
131.0952309562
 30
0.0
 10
179.2524740392
 20
131.0952309562
 30
0.0
 10
179.3143793414
 20
131.0828952781
 30
0.0
 10
179.3946020058
 20
131.0362140995
 30
0.0
 10
179.4609365
 20
130.9733491835
 30
0.0
 10
179.5335041472
 20
130.8777492328
 30
0.0
 10
179.6014195473
 20
130.7446059825
 30
0.0
 10
179.6390338968
 20
130.6319812032
 30
0.0
 10
179.6546106155
 20
130.5750396518
 30
0.0
  0
SPLINE
  5
2CE
100
AcDbEntity
  8
0
100
AcDbSpline
 62
7
  6
CONTINUOUS
 70
0
 71
3
 72
10
 73
6
 74
0
 42
0.0000001
 43
0.0000001
 44
0.0000000001
 40
0.0
 40
0.0
 40
0.0
 40
0.0
 40
0.1662549575
 40
0.4944772016
 40
1.0
 40
1.0
 40
1.0
 40
1.0
 10
179.6546106155
 20
110.5304974242
 30
0.0
 10
179.6377623425
 20
110.5101773083
 30
0.0
 10
179.580074568
 20
110.4558089441
 30
0.0
 10
179.4357744083
 20
110.3834317846
 30
0.0
 10
179.301860159
 20
110.3638595104
 30
0.0
 10
179.2215979137
 20
110.3638595104
 30
0.0
  0
SPLINE
  5
2CF
100
AcDbEntity
  8
0
100
AcDbSpline
 62
7
  6
CONTINUOUS
 70
0
 71
3
 72
13
 73
9
 74
0
 42
0.0000001
 43
0.0000001
 44
0.0000000001
 40
0.0
 40
0.0
 40
0.0
 40
0.0
 40
0.245829845
 40
0.4932657448
 40
0.6181824002
 40
0.7441443063
 40
0.871468278
 40
1.0
 40
1.0
 40
1.0
 40
1.0
 10
175.865935481
 20
130.5750396518
 30
0.0
 10
175.8815132935
 20
130.6319852015
 30
0.0
 10
175.9191301582
 20
130.7446187215
 30
0.0
 10
175.9870570901
 20
130.8777695977
 30
0.0
 10
176.059627023
 20
130.9733834017
 30
0.0
 10
176.1259869916
 20
131.0362179139
 30
0.0
 10
176.2061798254
 20
131.0829267578
 30
0.0
 10
176.2680803591
 20
131.0952309562
 30
0.0
 10
176.2989481828
 20
131.0952309562
 30
0.0
  0
SPLINE
  5
2D0
100
AcDbEntity
  8
0
100
AcDbSpline
 62
7
  6
CONTINUOUS
 70
0
 71
3
 72
9
 73
5
 74
0
 42
0.0000001
 43
0.0000001
 44
0.0000000001
 40
0.0
 40
0.0
 40
0.0
 40
0.0
 40
0.3641598889
 40
1.0
 40
1.0
 40
1.0
 40
1.0
 10
176.2989481828
 20
110.3638595104
 30
0.0
 10
176.241571761
 20
110.3638595104
 30
0.0
 10
176.0853854279
 20
110.3799786044
 30
0.0
 10
175.9298794373
 20
110.4533768433
 30
0.0
 10
175.865935481
 20
110.5304974242
 30
0.0
  0
SPLINE
  5
2D1
100
AcDbEntity
  8
0
100
AcDbSpline
 62
7
  6
CONTINUOUS
 70
0
 71
3
 72
9
 73
5
 74
0
 42
0.0000001
 43
0.0000001
 44
0.0000000001
 40
0.0
 40
0.0
 40
0.0
 40
0.0
 40
0.3642526053
 40
1.0
 40
1.0
 40
1.0
 40
1.0
 10
179.2215979137
 20
170.525045031
 30
0.0
 10
179.2789893202
 20
170.525045031
 30
0.0
 10
179.4351787787
 20
170.5089304755
 30
0.0
 10
179.590675564
 20
170.4355169584
 30
0.0
 10
179.6546106155
 20
170.3584071172
 30
0.0
  0
LINE
  5
2D2
100
AcDbEntity
  8
0
100
AcDbLine
 62
7
  6
CONTINUOUS
 10
163.77067468
 20
117.0190674648
 11
164.0133017991
 21
117.5677233954
  0
SPLINE
  5
2D3
100
AcDbEntity
  8
0
100
AcDbSpline
 62
7
  6
CONTINUOUS
 70
0
 71
3
 72
13
 73
9
 74
0
 42
0.0000001
 43
0.0000001
 44
0.0000000001
 40
0.0
 40
0.0
 40
0.0
 40
0.0
 40
0.2458129499
 40
0.4932318695
 40
0.6181231838
 40
0.7440886555
 40
0.8714319464
 40
1.0
 40
1.0
 40
1.0
 40
1.0
 10
179.6546106155
 20
150.3138648897
 30
0.0
 10
179.6390339285
 20
150.2569234544
 30
0.0
 10
179.6014197146
 20
150.1442990104
 30
0.0
 10
179.5335046555
 20
150.0111561302
 30
0.0
 10
179.4609371944
 20
149.915556719
 30
0.0
 10
179.3946037335
 20
149.8526905235
 30
0.0
 10
179.3143798126
 20
149.8060105833
 30
0.0
 10
179.2524743538
 20
149.7936735852
 30
0.0
 10
179.2215979137
 20
149.7936735852
 30
0.0
  0
SPLINE
  5
2D4
100
AcDbEntity
  8
0
100
AcDbSpline
 62
7
  6
CONTINUOUS
 70
0
 71
3
 72
9
 73
5
 74
0
 42
0.0000001
 43
0.0000001
 44
0.0000000001
 40
0.0
 40
0.0
 40
0.0
 40
0.0
 40
0.1680322176
 40
1.0
 40
1.0
 40
1.0
 40
1.0
 10
175.865935481
 20
170.3584071172
 30
0.0
 10
175.8827850399
 20
170.378728784
 30
0.0
 10
175.9982396167
 20
170.487208816
 30
0.0
 10
176.1682431658
 20
170.525045031
 30
0.0
 10
176.2989481828
 20
170.525045031
 30
0.0
  0
SPLINE
  5
2D5
100
AcDbEntity
  8
0
100
AcDbSpline
 62
7
  6
CONTINUOUS
 70
0
 71
3
 72
13
 73
9
 74
0
 42
0.0000001
 43
0.0000001
 44
0.0000000001
 40
0.0
 40
0.0
 40
0.0
 40
0.0
 40
0.1285321752
 40
0.2558566244
 40
0.3818189329
 40
0.5067353151
 40
0.7541705408
 40
1.0
 40
1.0
 40
1.0
 40
1.0
 10
176.2989481828
 20
149.7936735852
 30
0.0
 10
176.2680802513
 20
149.7936735852
 30
0.0
 10
176.2061795937
 20
149.8059782054
 30
0.0
 10
176.1259862818
 20
149.8526867966
 30
0.0
 10
176.0596264267
 20
149.915521722
 30
0.0
 10
175.9870569255
 20
150.0111356393
 30
0.0
 10
175.9191299777
 20
150.1442861196
 30
0.0
 10
175.8815132685
 20
150.2569194313
 30
0.0
 10
175.865935481
 20
150.3138648897
 30
0.0
  0
SPLINE
  5
2D6
100
AcDbEntity
  8
0
100
AcDbSpline
 62
7
  6
CONTINUOUS
 70
0
 71
3
 72
13
 73
9
 74
0
 42
0.0000001
 43
0.0000001
 44
0.0000000001
 40
0.0
 40
0.0
 40
0.0
 40
0.0
 40
0.1753307868
 40
0.3422637982
 40
0.4768046258
 40
0.5947351366
 40
0.8062611466
 40
1.0
 40
1.0
 40
1.0
 40
1.0
 10
165.3652961594
 20
118.9170235306
 30
0.0
 10
165.3013834145
 20
118.9439636923
 30
0.0
 10
165.1636063711
 20
118.9727016783
 30
0.0
 10
164.9759593729
 20
118.9239228603
 30
0.0
 10
164.8343746892
 20
118.8350809574
 30
0.0
 10
164.6979094665
 20
118.7114783455
 30
0.0
 10
164.5694907799
 20
118.5476017394
 30
0.0
 10
164.4884507829
 20
118.4089307471
 30
0.0
 10
164.4531662671
 20
118.3408956198
 30
0.0
  0
SPLINE
  5
2D7
100
AcDbEntity
  8
0
100
AcDbSpline
 62
7
  6
CONTINUOUS
 70
0
 71
3
 72
13
 73
9
 74
0
 42
0.0000001
 43
0.0000001
 44
0.0000000001
 40
0.0
 40
0.0
 40
0.0
 40
0.0
 40
0.2871857844
 40
0.4477281833
 40
0.5504595041
 40
0.6385386311
 40
0.8121667373
 40
1.0
 40
1.0
 40
1.0
 40
1.0
 10
165.3652961594
 20
118.9170235306
 30
0.0
 10
165.3919864187
 20
118.9057731939
 30
0.0
 10
165.4363609132
 20
118.8925732664
 30
0.0
 10
165.4932918295
 20
118.8989444771
 30
0.0
 10
165.5239696324
 20
118.9185453924
 30
0.0
 10
165.5462185828
 20
118.9484682879
 30
0.0
 10
165.5590370879
 20
118.9930882693
 30
0.0
 10
165.5603278688
 20
119.0295875746
 30
0.0
 10
165.5602818979
 20
119.0485316643
 30
0.0
  0
SPLINE
  5
2D8
100
AcDbEntity
  8
0
100
AcDbSpline
 62
7
  6
CONTINUOUS
 70
0
 71
3
 72
17
 73
13
 74
0
 42
0.0000001
 43
0.0000001
 44
0.0000000001
 40
0.0
 40
0.0
 40
0.0
 40
0.0
 40
0.125135549
 40
0.2502986125
 40
0.3754807531
 40
0.5006727147
 40
0.6258456077
 40
0.6884746641
 40
0.7511065344
 40
0.8746656069
 40
0.9373062378
 40
1.0
 40
1.0
 40
1.0
 40
1.0
 10
164.4531662671
 20
146.8589920315
 30
0.0
 10
164.4702346107
 20
146.7876657229
 30
0.0
 10
164.5065011726
 20
146.6454920413
 30
0.0
 10
164.5685476461
 20
146.4342985314
 30
0.0
 10
164.6401288053
 20
146.2260608416
 30
0.0
 10
164.7244688602
 20
146.0225582335
 30
0.0
 10
164.8096382139
 20
145.8596753386
 30
0.0
 10
164.8932926202
 20
145.7383637909
 30
0.0
 10
164.9881277406
 20
145.6290366385
 30
0.0
 10
165.1227361228
 20
145.5429604997
 30
0.0
 10
165.2732631544
 20
145.5645533881
 30
0.0
 10
165.3365709736
 20
145.6044903425
 30
0.0
 10
165.3652961594
 20
145.6274027239
 30
0.0
  0
SPLINE
  5
2D9
100
AcDbEntity
  8
0
100
AcDbSpline
 62
7
  6
CONTINUOUS
 70
0
 71
3
 72
13
 73
9
 74
0
 42
0.0000001
 43
0.0000001
 44
0.0000000001
 40
0.0
 40
0.0
 40
0.0
 40
0.0
 40
0.1670510693
 40
0.3289369806
 40
0.4609641718
 40
0.578209763
 40
0.7939442568
 40
1.0
 40
1.0
 40
1.0
 40
1.0
 10
165.3652961594
 20
156.7889305577
 30
0.0
 10
165.3008627086
 20
156.8131656627
 30
0.0
 10
165.1616617157
 20
156.8351000051
 30
0.0
 10
164.9750537274
 20
156.7786238329
 30
0.0
 10
164.8335926892
 20
156.6830603783
 30
0.0
 10
164.6960640919
 20
156.5486929093
 30
0.0
 10
164.5666443874
 20
156.3663206506
 30
0.0
 10
164.4876444208
 20
156.2110684095
 30
0.0
 10
164.4531662671
 20
156.1334691609
 30
0.0
  0
SPLINE
  5
2DA
100
AcDbEntity
  8
0
100
AcDbSpline
 62
7
  6
CONTINUOUS
 70
0
 71
3
 72
16
 73
12
 74
0
 42
0.0000001
 43
0.0000001
 44
0.0000000001
 40
0.0
 40
0.0
 40
0.0
 40
0.0
 40
0.0743965135
 40
0.1556627402
 40
0.2298193637
 40
0.29809286
 40
0.4258659311
 40
0.5470924886
 40
0.6642319821
 40
0.778389894
 40
1.0
 40
1.0
 40
1.0
 40
1.0
 10
165.3652961594
 20
156.7889305577
 30
0.0
 10
165.3785961212
 20
156.7839280944
 30
0.0
 10
165.4099157986
 20
156.7802317225
 30
0.0
 10
165.4507640014
 20
156.8016309725
 30
0.0
 10
165.4783082337
 20
156.8348221541
 30
0.0
 10
165.504088219
 20
156.8796878271
 30
0.0
 10
165.5247819617
 20
156.9370240909
 30
0.0
 10
165.5407745055
 20
157.0051576653
 30
0.0
 10
165.5509023759
 20
157.0717839484
 30
0.0
 10
165.5590231271
 20
157.1579413055
 30
0.0
 10
165.5603303876
 20
157.2221374379
 30
0.0
 10
165.5602818979
 20
157.2644646343
 30
0.0
  0
SPLINE
  5
2DB
100
AcDbEntity
  8
0
100
AcDbSpline
 62
7
  6
CONTINUOUS
 70
0
 71
3
 72
9
 73
5
 74
0
 42
0.0000001
 43
0.0000001
 44
0.0000000001
 40
0.0
 40
0.0
 40
0.0
 40
0.0
 40
0.2573720101
 40
1.0
 40
1.0
 40
1.0
 40
1.0
 10
164.4531662671
 20
118.3408956198
 30
0.0
 10
164.4180268788
 20
118.2731403256
 30
0.0
 10
164.2790387433
 20
118.0111686746
 30
0.0
 10
164.1300552528
 20
117.7544595246
 30
0.0
 10
164.0133017991
 20
117.5677233954
 30
0.0
  0
ELLIPSE
  5
2DC
100
AcDbEntity
  8
0
100
AcDbEllipse
 62
7
  6
CONTINUOUS
 10
163.4131188589
 20
140.4444522707
 30
0.0
 11
-14.7536831607
 21
31.0932549156
 31
0.0
 40
0.3419987131
 41
-2.9837864669
 42
-2.0503530678
  0
ELLIPSE
  5
2DD
100
AcDbEntity
  8
0
100
AcDbEllipse
 62
7
  6
CONTINUOUS
 10
163.4131188589
 20
140.4444522707
 30
0.0
 11
14.7536831607
 21
31.0932549156
 31
0.0
 40
0.3419987131
 41
-1.0912395858
 42
-0.1578061866
  0
ELLIPSE
  5
2DE
100
AcDbEntity
  8
0
100
AcDbEllipse
 62
7
  6
CONTINUOUS
 10
192.1074272376
 20
140.4444522707
 30
0.0
 11
-14.7536831607
 21
31.0932549156
 31
0.0
 40
0.3419987131
 41
0.1578061866
 42
1.0912395858
  0
ELLIPSE
  5
2DF
100
AcDbEntity
  8
0
100
AcDbEllipse
 62
7
  6
CONTINUOUS
 10
192.1074272376
 20
140.4444522707
 30
0.0
 11
14.7536831607
 21
31.0932549156
 31
0.0
 40
0.3419987131
 41
-4.2328322393
 42
-3.2993988402
  0
ENDSEC
  0
SECTION
  2
OBJECTS
  0
DICTIONARY
  5
C
100
AcDbDictionary
280
0
281
1
  3
ACAD_GROUP
350
D
  3
ACAD_MLINESTYLE
350
17
  3
ACAD_LAYOUT
350
1A
  3
ACAD_PLOTSETTINGS
350
19
  3
ACAD_PLOTSTYLENAME
350
E
  0
DICTIONARY
  5
D
102
{ACAD_REACTORS
330
C
102
}
100
AcDbDictionary
280
0
281
1
  0
ACDBDICTIONARYWDFLT
  5
E
102
{ACAD_REACTORS
330
C
102
}
100
AcDbDictionary
281
1
  3
Normal
350
F
100
AcDbDictionaryWithDefault
340
F
  0
DICTIONARY
  5
17
102
{ACAD_REACTORS
330
C
102
}
100
AcDbDictionary
280
0
281
1
  3
Standard
350
18
  0
DICTIONARY
  5
19
102
{ACAD_REACTORS
330
C
102
}
100
AcDbDictionary
281
1
  0
DICTIONARY
  5
1A
102
{ACAD_REACTORS
330
C
102
}
100
AcDbDictionary
281
1
  3
Model
350
2E0
  3
Layout1
350
2E1
  0
ACDBPLACEHOLDER
  5
F
102
{ACAD_REACTORS
330
E
102
}
  0
MLINESTYLE
  5
18
102
{ACAD_REACTORS
330
17
102
}
100
AcDbMlineStyle
  2
STANDARD
 70
0
  3

 62
256
 51
90.0
 52
90.0
 71
2
 49
0.5
 62
256
  6
BYLAYER
 49
-0.5
 62
256
  6
BYLAYER
  0
LAYOUT
  5
2E0
102
{ACAD_REACTORS
330
1A
102
}
100
AcDbPlotSettings
  1

  2
none_device
  4
ISO_A4_(297.00_x_210.00_MM)
  6

 40
0.0
 41
0.0
 42
0.0
 43
0.0
 44
297.0
 45
210.0
 46
0.0
 47
0.0
 48
0.0
 49
0.0
140
0.0
141
0.0
142
1.0
143
1.0
 70
1024
 72
1
 73
0
 74
0
  7

 75
0
147
1.0
148
0.0
149
0.0
100
AcDbLayout
  1
Model
 70
0
 71
0
 10
0.0
 20
0.0
 11
297.0
 21
210.0
 12
0.0
 22
0.0
 32
0.0
 14
0.0
 24
0.0
 34
0.0
 15
0.0
 25
0.0
 35
0.0
146
0.0
 13
0.0
 23
0.0
 33
0.0
 16
1.0
 26
0.0
 36
0.0
 17
0.0
 27
1.0
 37
0.0
 76
0
330
218
345
0
346
0
  0
LAYOUT
  5
2E1
102
{ACAD_REACTORS
330
1A
102
}
100
AcDbPlotSettings
  1

  2
none_device
  4
ISO_A4_(297.00_x_210.00_MM)
  6

 40
0.0
 41
0.0
 42
0.0
 43
0.0
 44
297.0
 45
210.0
 46
0.0
 47
0.0
 48
0.0
 49
0.0
140
0.0
141
0.0
142
1.0
143
1.0
 70
0
 72
1
 73
0
 74
0
  7

 75
0
147
1.0
148
0.0
149
0.0
100
AcDbLayout
  1
Layout1
 70
0
 71
1
 10
0.0
 20
0.0
 11
297.0
 21
210.0
 12
0.0
 22
0.0
 32
0.0
 14
0.0
 24
0.0
 34
0.0
 15
0.0
 25
0.0
 35
0.0
146
0.0
 13
0.0
 23
0.0
 33
0.0
 16
1.0
 26
0.0
 36
0.0
 17
0.0
 27
1.0
 37
0.0
 76
0
330
219
345
0
346
0
  0
ENDSEC
  0
EOF
