999
DXF file: cc6-022-16-7.dxf
999
Pro/ENGINEER 2010430 by Parametric Technology Corporation
  0
SECTION
  2
HEADER
  9
$ACADVER
  1
AC1021
  9
$DWGCODEPAGE
  3
ANSI_1252
  9
$EXTMAX
 10
297.0
 20
210.0
 30
0.0
  9
$EXTMIN
 10
0.0
 20
0.0
 30
0.0
  9
$LIMMIN
 10
0.0
 20
0.0
  9
$LIMMAX
 10
297.0
 20
210.0
  9
$VIEWCTR
 10
148.5
 20
105.0
  9
$VIEWSIZE
 40
210.0
  9
$CLAYER
  8
0
  9
$LTSCALE
 40
16.335
  9
$CELTYPE
  6
BYLAYER
  9
$DIMSCALE
 40
1.0
  9
$DIMASZ
 40
3.5
  9
$DIMEXO
 40
1.85625
  9
$DIMDLI
 40
11.286
  9
$DIMEXE
 40
5.346
  9
$DIMCEN
 40
2.673
  9
$DIMLFAC
 40
1.0
  9
$DIMBLK
  1
_FILLED
  9
$DIMTXT
 40
3.5
  9
$DIMTOL
 70
1
  9
$DIMLIM
 70
0
  9
$DIMTFAC
 40
1.0
  9
$DIMTP
 40
0.005
  9
$DIMTM
 40
0.005
  9
$PDMODE
 70
3
  9
$PDSIZE
 40
0.3125
  9
$HANDSEED
  5
2F7
  9
$TILEMODE
 70
1
  9
$MEASUREMENT
 70
1
  9
$INSUNITS
 70
4
  0
ENDSEC
  0
SECTION
  2
CLASSES
  0
CLASS
  1
ACDBDICTIONARYWDFLT
  2
AcDbDictionaryWithDefault
  3
AutoCAD 2000
 90
0
 91
1
280
0
281
0
  0
CLASS
  1
ACDBPLACEHOLDER
  2
AcDbPlaceHolder
  3
AutoCAD 2000
 90
0
 91
1
280
0
281
0
  0
CLASS
  1
LAYOUT
  2
AcDbLayout
  3
AutoCAD 2000
 90
0
 91
0
280
0
281
0
  0
ENDSEC
  0
SECTION
  2
TABLES
  0
TABLE
  2
VPORT
  5
8
100
AcDbSymbolTable
 70
2
  0
VPORT
  5
1F4
100
AcDbSymbolTableRecord
100
AcDbViewportTableRecord
  2
*ACTIVE
 70
0
 10
0.0
 20
0.0
 11
1.0
 21
1.0
 12
148.5
 22
105.0
 13
0.0
 23
0.0
 14
1.0
 24
1.0
 15
0.0
 25
0.0
 16
0.0
 26
0.0
 36
1.0
 17
0.0
 27
0.0
 37
0.0
 40
210.0
 41
1.4142857143
 42
50.0
 43
0.0
 44
0.0
 50
0.0
 51
0.0
 71
0
 72
100
 73
1
 74
1
 75
0
 76
0
 77
0
 78
0
  0
ENDTAB
  0
TABLE
  2
LTYPE
  5
5
100
AcDbSymbolTable
 70
6
  0
LTYPE
  5
14
100
AcDbSymbolTableRecord
100
AcDbLinetypeTableRecord
  2
BYBLOCK
 70
0
  3

 72
65
 73
0
 40
0.0
  0
LTYPE
  5
15
100
AcDbSymbolTableRecord
100
AcDbLinetypeTableRecord
  2
BYLAYER
 70
0
  3

 72
65
 73
0
 40
0.0
  0
LTYPE
  5
16
100
AcDbSymbolTableRecord
100
AcDbLinetypeTableRecord
  2
CONTINUOUS
 70
64
  3
Solid line
 72
65
 73
0
 40
0.0
  0
LTYPE
  5
1F5
100
AcDbSymbolTableRecord
100
AcDbLinetypeTableRecord
  2
CENTER
 70
64
  3
____ _ ____ _ ____ _ ____ _ ____ _ ____ _ ____
 72
65
 73
4
 40
0.6
 49
0.375
 74
0
 49
-0.075
 74
0
 49
0.075
 74
0
 49
-0.075
 74
0
  0
LTYPE
  5
1F6
100
AcDbSymbolTableRecord
100
AcDbLinetypeTableRecord
  2
HIDDEN
 70
64
  3
- - - - - - - - - - - - - - - - - - - -
 72
65
 73
2
 40
0.2
 49
0.1
 74
0
 49
-0.1
 74
0
  0
LTYPE
  5
1F7
100
AcDbSymbolTableRecord
100
AcDbLinetypeTableRecord
  2
PHANTOM
 70
64
  3
_____ _ _ _____ _ _ _____ _ _ _____
 72
65
 73
6
 40
0.8
 49
0.45
 74
0
 49
-0.05
 74
0
 49
0.1
 74
0
 49
-0.05
 74
0
 49
0.1
 74
0
 49
-0.05
 74
0
  0
LTYPE
  5
1F8
100
AcDbSymbolTableRecord
100
AcDbLinetypeTableRecord
  2
DOT
 70
64
  3
. . . . . . . . . . . . . . . . . . . .
 72
65
 73
2
 40
0.2
 49
0.1
 74
0
 49
-0.1
 74
0
  0
LTYPE
  5
1F9
100
AcDbSymbolTableRecord
100
AcDbLinetypeTableRecord
  2
DASHED
 70
64
  3
- - - - - - - - - - - - - - - - - - - -
 72
65
 73
2
 40
0.2
 49
0.1
 74
0
 49
-0.1
 74
0
  0
ENDTAB
  0
TABLE
  2
LAYER
  5
2
100
AcDbSymbolTable
 70
36
  0
LAYER
  5
10
100
AcDbSymbolTableRecord
100
AcDbLayerTableRecord
  2
0
 70
0
 62
7
  6
CONTINUOUS
370
-3
390
F
  0
LAYER
  5
1FA
100
AcDbSymbolTableRecord
100
AcDbLayerTableRecord
  2
DEFAULT_1
 70
0
 62
7
  6
CENTER
370
-3
390
F
  0
LAYER
  5
1FB
100
AcDbSymbolTableRecord
100
AcDbLayerTableRecord
  2
DEFAULT_2
 70
0
 62
8
  6
HIDDEN
370
-3
390
F
  0
LAYER
  5
1FC
100
AcDbSymbolTableRecord
100
AcDbLayerTableRecord
  2
DEFAULT_3
 70
0
 62
7
  6
PHANTOM
370
-3
390
F
  0
LAYER
  5
1FD
100
AcDbSymbolTableRecord
100
AcDbLayerTableRecord
  2
ACHSEN
 70
0
 62
7
  6
CONTINUOUS
370
-3
390
F
  0
LAYER
  5
1FE
100
AcDbSymbolTableRecord
100
AcDbLayerTableRecord
  2
BEZUGSACHSEN
 70
0
 62
7
  6
CONTINUOUS
370
-3
390
F
  0
LAYER
  5
1FF
100
AcDbSymbolTableRecord
100
AcDbLayerTableRecord
  2
BEZUGSEBENE_B
 70
0
 62
7
  6
CONTINUOUS
370
-3
390
F
  0
LAYER
  5
200
100
AcDbSymbolTableRecord
100
AcDbLayerTableRecord
  2
BOHRUNGEN
 70
0
 62
7
  6
CONTINUOUS
370
-3
390
F
  0
LAYER
  5
201
100
AcDbSymbolTableRecord
100
AcDbLayerTableRecord
  2
EBENEN
 70
0
 62
7
  6
CONTINUOUS
370
-3
390
F
  0
LAYER
  5
202
100
AcDbSymbolTableRecord
100
AcDbLayerTableRecord
  2
FASEN
 70
0
 62
7
  6
CONTINUOUS
370
-3
390
F
  0
LAYER
  5
203
100
AcDbSymbolTableRecord
100
AcDbLayerTableRecord
  2
FLAECHEN
 70
0
 62
7
  6
CONTINUOUS
370
-3
390
F
  0
LAYER
  5
204
100
AcDbSymbolTableRecord
100
AcDbLayerTableRecord
  2
GEWINDE
 70
0
 62
7
  6
CONTINUOUS
370
-3
390
F
  0
LAYER
  5
205
100
AcDbSymbolTableRecord
100
AcDbLayerTableRecord
  2
KOORDSYS
 70
0
 62
7
  6
CONTINUOUS
370
-3
390
F
  0
LAYER
  5
206
100
AcDbSymbolTableRecord
100
AcDbLayerTableRecord
  2
KURVEN
 70
0
 62
7
  6
CONTINUOUS
370
-3
390
F
  0
LAYER
  5
207
100
AcDbSymbolTableRecord
100
AcDbLayerTableRecord
  2
KURVE_FUER_GTOL_DETAILANSICHT
 70
0
 62
7
  6
CONTINUOUS
370
-3
390
F
  0
LAYER
  5
208
100
AcDbSymbolTableRecord
100
AcDbLayerTableRecord
  2
KURVE_GAUGE2_POLIGON_INNENEINST
 70
0
 62
7
  6
CONTINUOUS
370
-3
390
F
  0
LAYER
  5
209
100
AcDbSymbolTableRecord
100
AcDbLayerTableRecord
  2
KURVE_PHANTOM1_GAUGE_PIN_1
 70
0
 62
7
  6
CONTINUOUS
370
-3
390
F
  0
LAYER
  5
20A
100
AcDbSymbolTableRecord
100
AcDbLayerTableRecord
  2
KURVE_PHANTOM2_GAUGE_PIN1
 70
0
 62
7
  6
CONTINUOUS
370
-3
390
F
  0
LAYER
  5
20B
100
AcDbSymbolTableRecord
100
AcDbLayerTableRecord
  2
KURVE_POLIGON_BEMASUNG
 70
0
 62
7
  6
CONTINUOUS
370
-3
390
F
  0
LAYER
  5
20C
100
AcDbSymbolTableRecord
100
AcDbLayerTableRecord
  2
PUNKTE
 70
0
 62
7
  6
CONTINUOUS
370
-3
390
F
  0
LAYER
  5
20D
100
AcDbSymbolTableRecord
100
AcDbLayerTableRecord
  2
RUNDUNGEN
 70
0
 62
7
  6
CONTINUOUS
370
-3
390
F
  0
LAYER
  5
20E
100
AcDbSymbolTableRecord
100
AcDbLayerTableRecord
  2
S_ACHSEN
 70
0
 62
7
  6
CONTINUOUS
370
-3
390
F
  0
LAYER
  5
20F
100
AcDbSymbolTableRecord
100
AcDbLayerTableRecord
  2
S_EBENEN
 70
0
 62
7
  6
CONTINUOUS
370
-3
390
F
  0
LAYER
  5
210
100
AcDbSymbolTableRecord
100
AcDbLayerTableRecord
  2
S_KOORDSYS
 70
0
 62
7
  6
CONTINUOUS
370
-3
390
F
  0
LAYER
  5
211
100
AcDbSymbolTableRecord
100
AcDbLayerTableRecord
  2
TOL_BEZUEGE
 70
0
 62
7
  6
CONTINUOUS
370
-3
390
F
  0
LAYER
  5
212
100
AcDbSymbolTableRecord
100
AcDbLayerTableRecord
  2
VERBFLAECHE
 70
0
 62
7
  6
CONTINUOUS
370
-3
390
F
  0
LAYER
  5
213
100
AcDbSymbolTableRecord
100
AcDbLayerTableRecord
  2
ZEICHNUNGSBEMASSUNGEN
 70
0
 62
7
  6
CONTINUOUS
370
-3
390
F
  0
ENDTAB
  0
TABLE
  2
STYLE
  5
3
100
AcDbSymbolTable
 70
1
  0
STYLE
  5
11
100
AcDbSymbolTableRecord
100
AcDbTextStyleTableRecord
  2
STANDARD
 70
0
 40
0.0
 41
0.7
 50
0.0
 71
0
 42
0.2
  3
txt
  4

  0
STYLE
  5
214
100
AcDbSymbolTableRecord
100
AcDbTextStyleTableRecord
  2
TEXTSTYLE_1
 70
0
 40
0.0
 41
0.8
 50
0.0
 71
0
 42
0.2
  3
gdt
  4

  0
STYLE
  5
215
100
AcDbSymbolTableRecord
100
AcDbTextStyleTableRecord
  2
TEXTSTYLE_2
 70
0
 40
0.0
 41
0.7
 50
0.0
 71
0
 42
0.2
  3
gdt
  4

  0
ENDTAB
  0
TABLE
  2
VIEW
  5
6
100
AcDbSymbolTable
 70
0
  0
ENDTAB
  0
TABLE
  2
UCS
  5
7
100
AcDbSymbolTable
 70
0
  0
ENDTAB
  0
TABLE
  2
APPID
  5
9
100
AcDbSymbolTable
 70
1
  0
APPID
  5
216
100
AcDbSymbolTableRecord
100
AcDbRegAppTableRecord
  2
ACAD
 70
0
  0
ENDTAB
  0
TABLE
  2
BLOCK_RECORD
  5
1
100
AcDbSymbolTable
 70
0
  0
BLOCK_RECORD
  5
217
100
AcDbSymbolTableRecord
100
AcDbBlockTableRecord
  2
*Model_Space
  0
BLOCK_RECORD
  5
218
100
AcDbSymbolTableRecord
100
AcDbBlockTableRecord
  2
*Paper_Space
  0
BLOCK_RECORD
  5
219
100
AcDbSymbolTableRecord
100
AcDbBlockTableRecord
  2
_FILLED
  0
BLOCK_RECORD
  5
21A
100
AcDbSymbolTableRecord
100
AcDbBlockTableRecord
  2
*D0
  0
BLOCK_RECORD
  5
21B
100
AcDbSymbolTableRecord
100
AcDbBlockTableRecord
  2
*D1
  0
BLOCK_RECORD
  5
21C
100
AcDbSymbolTableRecord
100
AcDbBlockTableRecord
  2
*D2
  0
BLOCK_RECORD
  5
21D
100
AcDbSymbolTableRecord
100
AcDbBlockTableRecord
  2
*D3
  0
BLOCK_RECORD
  5
21E
100
AcDbSymbolTableRecord
100
AcDbBlockTableRecord
  2
*D4
  0
BLOCK_RECORD
  5
21F
100
AcDbSymbolTableRecord
100
AcDbBlockTableRecord
  2
*D5
  0
ENDTAB
  0
TABLE
  2
DIMSTYLE
  5
A
100
AcDbSymbolTable
 70
1
100
AcDbDimStyleTable
 71
0
  0
DIMSTYLE
105
220
100
AcDbSymbolTableRecord
100
AcDbDimStyleTableRecord
  2
STANDARD
 70
0
  3

  4

 40
1.0
 41
3.5
 42
0.0625
 43
0.38
 44
0.18
 45
0.0
 46
0.0
 47
0.005
 48
0.005
140
3.5
141
0.09
142
0.0
143
25.4
144
1.0
145
0.0
146
1.0
147
0.09
 71
1.0
 72
0.0
 73
0
 74
0
 75
0
 76
0
 77
1
 78
8
170
0
171
2
172
0
173
0
174
0
175
0
176
0
177
0
178
5
270
2
271
3
272
3
273
2
274
2
275
0
280
0
281
0
282
0
283
1
284
8
285
0
286
0
287
3
288
0
340
11
341
219
342
219
343
219
344
219
  0
DIMSTYLE
105
221
100
AcDbSymbolTableRecord
100
AcDbDimStyleTableRecord
  2
DIMSTYLE_1
 70
0
  3

  4

 40
1.0
 41
3.5
 42
0.0625
 43
0.38
 44
0.18
 45
0.0
 46
0.0
 47
0.5
 48
0.5
140
3.5
141
0.09
142
0.0
143
25.4
144
1.0
145
0.0
146
1.0
147
0.09
 71
0.0
 72
0.0
 73
0
 74
0
 75
0
 76
0
 77
1
 78
8
170
0
171
2
172
0
173
0
174
0
175
0
176
0
177
0
178
5
270
2
271
2
272
2
273
2
274
2
275
0
280
0
281
0
282
0
283
1
284
8
285
0
286
0
287
3
288
0
340
11
341
219
342
219
343
219
344
219
  0
DIMSTYLE
105
222
100
AcDbSymbolTableRecord
100
AcDbDimStyleTableRecord
  2
DIMSTYLE_2
 70
0
  3

  4

 40
1.0
 41
3.5
 42
0.0625
 43
0.38
 44
0.18
 45
0.0
 46
0.0
 47
0.0
 48
0.1
140
3.5
141
0.09
142
0.0
143
25.4
144
1.0
145
0.0
146
1.0
147
0.09
 71
0.0
 72
0.0
 73
0
 74
0
 75
0
 76
0
 77
1
 78
8
170
0
171
2
172
0
173
0
174
0
175
0
176
0
177
0
178
5
270
2
271
2
272
2
273
2
274
2
275
0
280
0
281
0
282
0
283
1
284
8
285
0
286
0
287
3
288
0
340
11
341
219
342
219
343
219
344
219
  0
DIMSTYLE
105
223
100
AcDbSymbolTableRecord
100
AcDbDimStyleTableRecord
  2
DIMSTYLE_3
 70
0
  3

  4

 40
1.0
 41
3.5
 42
0.0625
 43
0.38
 44
0.18
 45
0.0
 46
0.0
 47
0.02
 48
0.02
140
3.5
141
0.09
142
0.0
143
25.4
144
1.0
145
0.0
146
1.0
147
0.09
 71
0.0
 72
0.0
 73
0
 74
0
 75
0
 76
0
 77
1
 78
8
170
0
171
2
172
0
173
0
174
0
175
0
176
0
177
0
178
5
270
2
271
2
272
2
273
2
274
2
275
0
280
0
281
0
282
0
283
1
284
8
285
0
286
0
287
3
288
0
340
11
341
219
342
219
343
219
344
219
  0
ENDTAB
  0
ENDSEC
  0
SECTION
  2
BLOCKS
  0
BLOCK
  5
20
100
AcDbEntity
  8
0
100
AcDbBlockBegin
  2
*Model_Space
 70
0
 10
0.0
 20
0.0
 30
0.0
  3
*Model_Space
  1

  0
ENDBLK
  5
21
100
AcDbEntity
  8
0
100
AcDbBlockEnd
  0
BLOCK
  5
1C
100
AcDbEntity
  8
0
100
AcDbBlockBegin
  2
*Paper_Space
 70
0
 10
0.0
 20
0.0
 30
0.0
  3
*Paper_Space
  1

  0
ENDBLK
  5
1D
100
AcDbEntity
  8
0
100
AcDbBlockEnd
  0
BLOCK
  5
224
100
AcDbEntity
  8
0
100
AcDbBlockBegin
  2
_FILLED
 70
64
 10
0.0
 20
0.0
  3
_FILLED
  1

  0
SOLID
  5
225
100
AcDbEntity
  8
0
  6
BYBLOCK
 62
0
100
AcDbTrace
 10
0.0
 20
0.0
 11
-1.0
 21
0.125
 12
-1.0
 22
-0.125
 13
-1.0
 23
-0.125
  0
ENDBLK
  5
226
100
AcDbEntity
  8
0
  6
BYBLOCK
 62
0
100
AcDbBlockEnd
  0
BLOCK
  5
227
100
AcDbEntity
  8
0
100
AcDbBlockBegin
 62
2
  6
CONTINUOUS
  2
*D0
 70
65
 10
0.0
 20
0.0
  3
*D0
  1

  0
MTEXT
  5
228
100
AcDbEntity
  8
0
100
AcDbMText
 62
5
  6
CONTINUOUS
  7
STANDARD
 71
2
 72
1
 10
176.4334510051
 20
165.5754122705
 30
0.0
 11
1.0
 21
0.0
 31
0.0
 44
0.9
  1
127.4
 40
3.5
 41
12.25
  0
LINE
  5
229
100
AcDbEntity
  8
0
100
AcDbLine
 62
2
  6
CONTINUOUS
 10
240.1334510051
 20
115.4877666825
 11
240.1334510051
 21
138.2112004723
  0
LINE
  5
22A
100
AcDbEntity
  8
0
100
AcDbLine
 62
2
  6
CONTINUOUS
 10
240.1334510051
 20
140.1930091123
 11
240.1334510051
 21
162.7004122705
  0
LINE
  5
22B
100
AcDbEntity
  8
0
100
AcDbLine
 62
2
  6
CONTINUOUS
 10
112.7334510051
 20
155.781277849
 11
112.7334510051
 21
162.7004122705
  0
LINE
  5
22C
100
AcDbEntity
  8
0
100
AcDbLine
 62
2
  6
CONTINUOUS
 10
240.1334510051
 20
161.2004122705
 11
176.4334510051
 21
161.2004122705
  0
LINE
  5
22D
100
AcDbEntity
  8
0
100
AcDbLine
 62
2
  6
CONTINUOUS
 10
112.7334510051
 20
161.2004122705
 11
176.4334510051
 21
161.2004122705
  0
INSERT
  5
22E
100
AcDbEntity
  8
0
100
AcDbBlockReference
 62
2
  6
CONTINUOUS
  2
_FILLED
 10
240.1334510051
 20
161.2004122705
 41
3.5
 42
3.5
 43
3.5
  0
INSERT
  5
22F
100
AcDbEntity
  8
0
100
AcDbBlockReference
 62
2
  6
CONTINUOUS
  2
_FILLED
 10
112.7334510051
 20
161.2004122705
 41
3.5
 42
3.5
 43
3.5
 50
180.0
  0
ENDBLK
  5
230
100
AcDbEntity
  8
0
  6
BYBLOCK
 62
0
100
AcDbBlockEnd
  0
BLOCK
  5
231
100
AcDbEntity
  8
0
100
AcDbBlockBegin
 62
2
  6
CONTINUOUS
  2
*D1
 70
65
 10
0.0
 20
0.0
  3
*D1
  1

  0
MTEXT
  5
232
100
AcDbEntity
  8
0
100
AcDbMText
 62
5
  6
CONTINUOUS
  7
STANDARD
 71
2
 72
1
 10
146.4334510051
 20
191.1940443342
 30
0.0
 11
1.0
 21
0.0
 31
0.0
 44
0.9
  1
187.4
 40
3.5
 41
12.25
  0
LINE
  5
233
100
AcDbEntity
  8
0
100
AcDbLine
 62
2
  6
CONTINUOUS
 10
240.1334510051
 20
115.4877666825
 11
240.1334510051
 21
176.5279365904
  0
LINE
  5
234
100
AcDbEntity
  8
0
100
AcDbLine
 62
2
  6
CONTINUOUS
 10
240.1334510051
 20
183.527027027
 11
240.1334510051
 21
188.3190443342
  0
LINE
  5
235
100
AcDbEntity
  8
0
100
AcDbLine
 62
2
  6
CONTINUOUS
 10
52.7334510051
 20
104.8016509132
 11
52.7334510051
 21
188.3190443342
  0
LINE
  5
236
100
AcDbEntity
  8
0
100
AcDbLine
 62
2
  6
CONTINUOUS
 10
240.1334510051
 20
186.8190443342
 11
146.4334510051
 21
186.8190443342
  0
LINE
  5
237
100
AcDbEntity
  8
0
100
AcDbLine
 62
2
  6
CONTINUOUS
 10
52.7334510051
 20
186.8190443342
 11
146.4334510051
 21
186.8190443342
  0
INSERT
  5
238
100
AcDbEntity
  8
0
100
AcDbBlockReference
 62
2
  6
CONTINUOUS
  2
_FILLED
 10
240.1334510051
 20
186.8190443342
 41
3.5
 42
3.5
 43
3.5
  0
INSERT
  5
239
100
AcDbEntity
  8
0
100
AcDbBlockReference
 62
2
  6
CONTINUOUS
  2
_FILLED
 10
52.7334510051
 20
186.8190443342
 41
3.5
 42
3.5
 43
3.5
 50
180.0
  0
ENDBLK
  5
23A
100
AcDbEntity
  8
0
  6
BYBLOCK
 62
0
100
AcDbBlockEnd
  0
BLOCK
  5
23B
100
AcDbEntity
  8
0
100
AcDbBlockBegin
 62
2
  6
CONTINUOUS
  2
*D2
 70
65
 10
0.0
 20
0.0
  3
*D2
  1

  0
MTEXT
  5
23C
100
AcDbEntity
  8
0
100
AcDbMText
 62
5
  6
CONTINUOUS
  7
TEXTSTYLE_2
 71
2
 72
1
 10
266.2791730923
 20
123.4877666825
 30
0.0
 11
0.0
 21
1.0
 31
0.0
 44
0.9
  1
{\Fgdt;n}\Ftxt;22
 40
3.5
 41
10.1666666667
  0
LINE
  5
23D
100
AcDbEntity
  8
0
100
AcDbLine
 62
2
  6
CONTINUOUS
 10
225.6584510051
 20
134.4627666825
 11
238.8797700254
 21
134.4627666825
  0
LINE
  5
23E
100
AcDbEntity
  8
0
100
AcDbLine
 62
2
  6
CONTINUOUS
 10
244.4985571221
 20
134.4627666825
 11
272.1541730923
 21
134.4627666825
  0
LINE
  5
23F
100
AcDbEntity
  8
0
100
AcDbLine
 62
2
  6
CONTINUOUS
 10
225.6584510051
 20
112.5127666825
 11
272.1541730923
 21
112.5127666825
  0
LINE
  5
240
100
AcDbEntity
  8
0
100
AcDbLine
 62
2
  6
CONTINUOUS
 10
270.6541730923
 20
134.4627666825
 11
270.6541730923
 21
123.4877666825
  0
LINE
  5
241
100
AcDbEntity
  8
0
100
AcDbLine
 62
2
  6
CONTINUOUS
 10
270.6541730923
 20
112.5127666825
 11
270.6541730923
 21
123.4877666825
  0
INSERT
  5
242
100
AcDbEntity
  8
0
100
AcDbBlockReference
 62
2
  6
CONTINUOUS
  2
_FILLED
 10
270.6541730923
 20
134.4627666825
 41
3.5
 42
3.5
 43
3.5
 50
90.0
  0
INSERT
  5
243
100
AcDbEntity
  8
0
100
AcDbBlockReference
 62
2
  6
CONTINUOUS
  2
_FILLED
 10
270.6541730923
 20
112.5127666825
 41
3.5
 42
3.5
 43
3.5
 50
270.0
  0
ENDBLK
  5
244
100
AcDbEntity
  8
0
  6
BYBLOCK
 62
0
100
AcDbBlockEnd
  0
BLOCK
  5
245
100
AcDbEntity
  8
0
100
AcDbBlockBegin
 62
2
  6
CONTINUOUS
  2
*D3
 70
65
 10
0.0
 20
0.0
  3
*D3
  1

  0
MTEXT
  5
246
100
AcDbEntity
  8
0
100
AcDbMText
 62
5
  6
CONTINUOUS
  7
STANDARD
 71
2
 72
1
 10
165.4334510051
 20
175.6847492808
 30
0.0
 11
1.0
 21
0.0
 31
0.0
 44
0.9
  1
149.4
 40
3.5
 41
12.25
  0
LINE
  5
247
100
AcDbEntity
  8
0
100
AcDbLine
 62
2
  6
CONTINUOUS
 10
240.1334510051
 20
115.4877666825
 11
240.1334510051
 21
172.8097492808
  0
LINE
  5
248
100
AcDbEntity
  8
0
100
AcDbLine
 62
2
  6
CONTINUOUS
 10
90.7334510051
 20
156.3425907191
 11
90.7334510051
 21
172.8097492808
  0
LINE
  5
249
100
AcDbEntity
  8
0
100
AcDbLine
 62
2
  6
CONTINUOUS
 10
240.1334510051
 20
171.3097492808
 11
165.4334510051
 21
171.3097492808
  0
LINE
  5
24A
100
AcDbEntity
  8
0
100
AcDbLine
 62
2
  6
CONTINUOUS
 10
90.7334510051
 20
171.3097492808
 11
165.4334510051
 21
171.3097492808
  0
INSERT
  5
24B
100
AcDbEntity
  8
0
100
AcDbBlockReference
 62
2
  6
CONTINUOUS
  2
_FILLED
 10
240.1334510051
 20
171.3097492808
 41
3.5
 42
3.5
 43
3.5
  0
INSERT
  5
24C
100
AcDbEntity
  8
0
100
AcDbBlockReference
 62
2
  6
CONTINUOUS
  2
_FILLED
 10
90.7334510051
 20
171.3097492808
 41
3.5
 42
3.5
 43
3.5
 50
180.0
  0
ENDBLK
  5
24D
100
AcDbEntity
  8
0
  6
BYBLOCK
 62
0
100
AcDbBlockEnd
  0
BLOCK
  5
24E
100
AcDbEntity
  8
0
100
AcDbBlockBegin
 62
2
  6
CONTINUOUS
  2
*D4
 70
65
 10
0.0
 20
0.0
  3
*D4
  1

  0
MTEXT
  5
24F
100
AcDbEntity
  8
0
100
AcDbMText
 62
5
  6
CONTINUOUS
  7
TEXTSTYLE_2
 71
2
 72
1
 10
257.5219691021
 20
123.4877666825
 30
0.0
 11
0.0
 21
1.0
 31
0.0
 44
0.9
  1
{\Fgdt;n}\Ftxt;16
 40
3.5
 41
9.4166666667
  0
LINE
  5
250
100
AcDbEntity
  8
0
100
AcDbLine
 62
2
  6
CONTINUOUS
 10
241.6334510051
 20
115.4877666825
 11
263.1227535972
 21
115.4877666825
  0
LINE
  5
251
100
AcDbEntity
  8
0
100
AcDbLine
 62
2
  6
CONTINUOUS
 10
241.6334510051
 20
131.4877666825
 11
263.3969691021
 21
131.4877666825
  0
LINE
  5
252
100
AcDbEntity
  8
0
100
AcDbLine
 62
2
  6
CONTINUOUS
 10
261.8969691021
 20
115.4877666825
 11
261.8969691021
 21
123.4877666825
  0
LINE
  5
253
100
AcDbEntity
  8
0
100
AcDbLine
 62
2
  6
CONTINUOUS
 10
261.8969691021
 20
131.4877666825
 11
261.8969691021
 21
123.4877666825
  0
INSERT
  5
254
100
AcDbEntity
  8
0
100
AcDbBlockReference
 62
2
  6
CONTINUOUS
  2
_FILLED
 10
261.8969691021
 20
115.4877666825
 41
3.5
 42
3.5
 43
3.5
 50
270.0
  0
INSERT
  5
255
100
AcDbEntity
  8
0
100
AcDbBlockReference
 62
2
  6
CONTINUOUS
  2
_FILLED
 10
261.8969691021
 20
131.4877666825
 41
3.5
 42
3.5
 43
3.5
 50
90.0
  0
ENDBLK
  5
256
100
AcDbEntity
  8
0
  6
BYBLOCK
 62
0
100
AcDbBlockEnd
  0
BLOCK
  5
257
100
AcDbEntity
  8
0
100
AcDbBlockBegin
 62
2
  6
CONTINUOUS
  2
*D5
 70
65
 10
0.0
 20
0.0
  3
*D5
  1

  0
MTEXT
  5
258
100
AcDbEntity
  8
0
100
AcDbMText
 62
5
  6
CONTINUOUS
  7
STANDARD
 71
2
 72
1
 10
170.7334510051
 20
184.5034982059
 30
0.0
 11
1.0
 21
0.0
 31
0.0
 44
0.9
  1
160
 40
3.5
 41
7.5
  0
LINE
  5
259
100
AcDbEntity
  8
0
100
AcDbLine
 62
2
  6
CONTINUOUS
 10
250.7334510051
 20
135.9627666825
 11
250.7334510051
 21
181.6284982059
  0
LINE
  5
25A
100
AcDbEntity
  8
0
100
AcDbLine
 62
2
  6
CONTINUOUS
 10
90.7334510051
 20
163.0783451602
 11
90.7334510051
 21
181.6284982059
  0
LINE
  5
25B
100
AcDbEntity
  8
0
100
AcDbLine
 62
2
  6
CONTINUOUS
 10
250.7334510051
 20
180.1284982059
 11
170.7334510051
 21
180.1284982059
  0
LINE
  5
25C
100
AcDbEntity
  8
0
100
AcDbLine
 62
2
  6
CONTINUOUS
 10
90.7334510051
 20
180.1284982059
 11
170.7334510051
 21
180.1284982059
  0
INSERT
  5
25D
100
AcDbEntity
  8
0
100
AcDbBlockReference
 62
2
  6
CONTINUOUS
  2
_FILLED
 10
250.7334510051
 20
180.1284982059
 41
3.5
 42
3.5
 43
3.5
  0
INSERT
  5
25E
100
AcDbEntity
  8
0
100
AcDbBlockReference
 62
2
  6
CONTINUOUS
  2
_FILLED
 10
90.7334510051
 20
180.1284982059
 41
3.5
 42
3.5
 43
3.5
 50
180.0
  0
ENDBLK
  5
25F
100
AcDbEntity
  8
0
  6
BYBLOCK
 62
0
100
AcDbBlockEnd
  0
ENDSEC
  0
SECTION
  2
ENTITIES
  0
DIMENSION
  5
260
100
AcDbEntity
  8
0
100
AcDbDimension
 62
2
  6
CONTINUOUS
  2
*D0
 10
112.7334510051
 20
161.2004122705
 11
170.3084510051
 21
163.8254122705
 70
160
 71
2
 42
127.4
  3
DIMSTYLE_1
100
AcDbAlignedDimension
 13
240.1334510051
 23
115.4877666825
 14
112.7334510051
 24
155.781277849
 50
180.0
100
AcDbRotatedDimension
  0
DIMENSION
  5
261
100
AcDbEntity
  8
0
100
AcDbDimension
 62
2
  6
CONTINUOUS
  2
*D1
 10
52.7334510051
 20
186.8190443342
 11
140.3084510051
 21
189.4440443342
 70
160
 71
2
 42
187.4
  3
DIMSTYLE_1
100
AcDbAlignedDimension
 13
240.1334510051
 23
115.4877666825
 14
52.7334510051
 24
104.8016509132
 50
180.0
100
AcDbRotatedDimension
  0
DIMENSION
  5
262
100
AcDbEntity
  8
0
100
AcDbDimension
 62
2
  6
CONTINUOUS
  2
*D2
 10
270.6541730923
 20
112.5127666825
 11
269.1680268666
 21
121.2155251625
 70
160
 71
2
 42
21.95
  1
%%c<>
  3
DIMSTYLE_2
100
AcDbAlignedDimension
 13
225.6584510051
 23
134.4627666825
 14
225.6584510051
 24
112.5127666825
 50
270.0
100
AcDbRotatedDimension
  0
DIMENSION
  5
263
100
AcDbEntity
  8
0
100
AcDbDimension
 62
2
  6
CONTINUOUS
  2
*D3
 10
90.7334510051
 20
171.3097492808
 11
159.3084510051
 21
173.9347492808
 70
160
 71
2
 42
149.4
  3
DIMSTYLE_1
100
AcDbAlignedDimension
 13
240.1334510051
 23
115.4877666825
 14
90.7334510051
 24
156.3425907191
 50
180.0
100
AcDbRotatedDimension
  0
DIMENSION
  5
264
100
AcDbEntity
  8
0
100
AcDbDimension
 62
2
  6
CONTINUOUS
  2
*D4
 10
261.8969691021
 20
131.4877666825
 11
260.3268090734
 21
121.3831495369
 70
160
 71
2
 42
16.0
  1
%%c<>
  3
DIMSTYLE_3
100
AcDbAlignedDimension
 13
241.6334510051
 23
115.4877666825
 14
241.6334510051
 24
131.4877666825
 50
90.0
100
AcDbRotatedDimension
  0
DIMENSION
  5
265
100
AcDbEntity
  8
0
100
AcDbDimension
 62
2
  6
CONTINUOUS
  2
*D5
 10
90.7334510051
 20
180.1284982059
 11
166.9834510051
 21
182.7534982059
 70
160
 71
2
 42
160.0
  3
DIMSTYLE_1
100
AcDbAlignedDimension
 13
250.7334510051
 23
135.9627666825
 14
90.7334510051
 24
163.0783451602
 50
180.0
100
AcDbRotatedDimension
  0
MTEXT
  5
266
100
AcDbEntity
  8
0
100
AcDbMText
 62
5
  6
CONTINUOUS
  7
STANDARD
 71
1
 72
1
 10
11.7414566008
 20
86.6920803015
 30
0.0
 11
1.0
 21
0.0
 31
0.0
 44
0.9
  3
Für diese Unterlage behalten wir das Ur-\Pheberrecht. Sie darf nur für den von uns \Pbestimmten Zweck benutzt und ohne unsere \PZustimmung weder vervielfältigt noch\PDritten zugänglich gemacht werden\P \PWe own the copyright of this document. It \Pde
  1
termined and may neither be copied or \Pmade accessible to outsiders without our\Ppermission.\P \PCe plan reste notre propriété. Il ne peut\Pêtre utilisé, copié ou reproduit sans notre\Paccord.\P 
 40
3.5
 41
104.8333333333
  0
LINE
  5
267
100
AcDbEntity
  8
0
100
AcDbLine
 62
7
  6
CONTINUOUS
 10
0.0
 20
0.0
 11
0.0
 21
210.0
  0
LINE
  5
268
100
AcDbEntity
  8
0
100
AcDbLine
 62
7
  6
CONTINUOUS
 10
0.0
 20
0.0
 11
297.0
 21
0.0
  0
LINE
  5
269
100
AcDbEntity
  8
0
100
AcDbLine
 62
7
  6
CONTINUOUS
 10
0.0
 20
210.0
 11
297.0
 21
210.0
  0
LINE
  5
26A
100
AcDbEntity
  8
0
100
AcDbLine
 62
7
  6
CONTINUOUS
 10
297.0
 20
0.0
 11
297.0
 21
210.0
  0
LINE
  5
26B
100
AcDbEntity
  8
0
100
AcDbLine
 62
7
  6
CONTINUOUS
 10
52.7334510051
 20
101.7954286896
 11
52.7334510051
 21
138.4490113212
  0
LINE
  5
26C
100
AcDbEntity
  8
KURVEN
100
AcDbLine
 62
4
  6
CONTINUOUS
 10
52.7334510051
 20
100.9670885068
 11
52.7334510051
 21
142.6993406694
  0
LINE
  5
26D
100
AcDbEntity
  8
ACHSEN
100
AcDbLine
 62
7
  6
CONTINUOUS
 10
52.7334510051
 20
138.4490113212
 11
52.7334510051
 21
142.2362459965
  0
LINE
  5
26E
100
AcDbEntity
  8
ACHSEN
100
AcDbLine
 62
7
  6
CONTINUOUS
 10
54.2334510051
 20
142.984756296
 11
54.2334510051
 21
139.1990113212
  0
LINE
  5
26F
100
AcDbEntity
  8
0
100
AcDbLine
 62
7
  6
CONTINUOUS
 10
54.2334510051
 20
139.1990113212
 11
54.2334510051
 21
100.9294032858
  0
LINE
  5
270
100
AcDbEntity
  8
ACHSEN
100
AcDbLine
 62
7
  6
CENTER
 10
75.2334510051
 20
100.5542811754
 11
75.2334510051
 21
139.4603660389
  0
LINE
  5
271
100
AcDbEntity
  8
0
100
AcDbLine
 62
7
  6
CONTINUOUS
 10
90.7334528411
 20
154.6877647751
 11
91.033452931
 21
154.987764829
  0
LINE
  5
272
100
AcDbEntity
  8
0
100
AcDbLine
 62
7
  6
CONTINUOUS
 10
88.5335140942
 20
144.1078670521
 11
88.5335140942
 21
139.9452974311
  0
LINE
  5
273
100
AcDbEntity
  8
0
100
AcDbLine
 62
7
  6
CONTINUOUS
 10
88.5335140942
 20
128.7126378131
 11
88.5335140942
 21
101.8053648032
  0
LINE
  5
274
100
AcDbEntity
  8
0
100
AcDbLine
 62
9
  6
CONTINUOUS
 10
88.7384741162
 20
143.9129532522
 11
88.7384741162
 21
138.1727088872
  0
LINE
  5
275
100
AcDbEntity
  8
0
100
AcDbLine
 62
9
  6
CONTINUOUS
 10
88.7384741162
 20
131.6737098692
 11
88.7384741162
 21
100.616881291
  0
LINE
  5
276
100
AcDbEntity
  8
0
100
AcDbLine
 62
9
  6
CONTINUOUS
 10
89.4263442239
 20
100.7448734637
 11
89.4263442239
 21
101.3842100315
  0
LINE
  5
277
100
AcDbEntity
  8
0
100
AcDbLine
 62
9
  6
CONTINUOUS
 10
89.4263442239
 20
129.9023064432
 11
89.4263442239
 21
139.1767835727
  0
LINE
  5
278
100
AcDbEntity
  8
0
100
AcDbLine
 62
9
  6
CONTINUOUS
 10
90.3384741162
 20
143.9531508214
 11
90.3384741162
 21
139.8322449694
  0
LINE
  5
279
100
AcDbEntity
  8
0
100
AcDbLine
 62
9
  6
CONTINUOUS
 10
90.3384741162
 20
128.6707171356
 11
90.3384741162
 21
101.9603379424
  0
LINE
  5
27A
100
AcDbEntity
  8
0
100
AcDbLine
 62
7
  6
CONTINUOUS
 10
90.7334510051
 20
92.288042352
 11
90.7334510051
 21
154.6874910129
  0
LINE
  5
27B
100
AcDbEntity
  8
0
100
AcDbLine
 62
7
  6
CONTINUOUS
 10
91.0334510787
 20
91.9877666825
 11
91.0334510787
 21
154.9877666825
  0
LINE
  5
27C
100
AcDbEntity
  8
0
100
AcDbLine
 62
7
  6
CONTINUOUS
 10
90.5333861533
 20
140.2773412682
 11
90.5334510051
 21
146.0212515435
  0
LINE
  5
27D
100
AcDbEntity
  8
0
100
AcDbLine
 62
7
  6
CONTINUOUS
 10
90.5333861533
 20
102.077598591
 11
90.5333550387
 21
128.1129918966
  0
LINE
  5
27E
100
AcDbEntity
  8
0
100
AcDbLine
 62
9
  6
CONTINUOUS
 10
54.2334510051
 20
139.1990113212
 11
52.7334510051
 21
138.4490113212
  0
LINE
  5
27F
100
AcDbEntity
  8
0
100
AcDbLine
 62
7
  6
CONTINUOUS
 10
54.2334510051
 20
100.9294032858
 11
52.7334510051
 21
101.7954286896
  0
LINE
  5
280
100
AcDbEntity
  8
0
100
AcDbLine
 62
7
  6
CONTINUOUS
 10
90.7334528411
 20
92.2877685898
 11
91.033452931
 21
91.9877685359
  0
LINE
  5
281
100
AcDbEntity
  8
0
100
AcDbLine
 62
9
  6
CONTINUOUS
 10
100.8391134378
 20
153.4017215289
 11
100.8391134378
 21
133.3571793014
  0
LINE
  5
282
100
AcDbEntity
  8
0
100
AcDbLine
 62
9
  6
CONTINUOUS
 10
100.8391134378
 20
113.6183540635
 11
100.8391134378
 21
93.573811836
  0
LINE
  5
283
100
AcDbEntity
  8
0
100
AcDbLine
 62
9
  6
CONTINUOUS
 10
54.2334510051
 20
102.5516509132
 11
52.7334510051
 21
103.3016509132
  0
LINE
  5
284
100
AcDbEntity
  8
0
100
AcDbLine
 62
9
  6
CONTINUOUS
 10
101.2721261397
 20
153.5683594428
 11
101.2721261397
 21
132.836987997
  0
LINE
  5
285
100
AcDbEntity
  8
0
100
AcDbLine
 62
9
  6
CONTINUOUS
 10
101.2721261397
 20
114.138545368
 11
101.2721261397
 21
93.4071739222
  0
LINE
  5
286
100
AcDbEntity
  8
ACHSEN
100
AcDbLine
 62
7
  6
CENTER
 10
102.7334510051
 20
150.7860454444
 11
102.7334510051
 21
157.9877666825
  0
LINE
  5
287
100
AcDbEntity
  8
0
100
AcDbLine
 62
9
  6
CONTINUOUS
 10
104.1947758705
 20
153.5683594428
 11
104.1947758705
 21
132.836987997
  0
LINE
  5
288
100
AcDbEntity
  8
0
100
AcDbLine
 62
9
  6
CONTINUOUS
 10
104.1947758705
 20
114.138545368
 11
104.1947758705
 21
93.4071739222
  0
LINE
  5
289
100
AcDbEntity
  8
0
100
AcDbLine
 62
9
  6
CONTINUOUS
 10
104.6277885724
 20
153.4017215289
 11
104.6277885724
 21
133.3571793014
  0
LINE
  5
28A
100
AcDbEntity
  8
0
100
AcDbLine
 62
9
  6
CONTINUOUS
 10
104.6277885724
 20
113.6183540635
 11
104.6277885724
 21
93.573811836
  0
LINE
  5
28B
100
AcDbEntity
  8
0
100
AcDbLine
 62
7
  6
CONTINUOUS
 10
112.7334510051
 20
91.9877666825
 11
112.7334510051
 21
154.9877666825
  0
LINE
  5
28C
100
AcDbEntity
  8
RUNDUNGEN
100
AcDbLine
 62
9
  6
CONTINUOUS
 10
120.5193747588
 20
137.6619146013
 11
120.5193747588
 21
109.3136187636
  0
LINE
  5
28D
100
AcDbEntity
  8
0
100
AcDbLine
 62
7
  6
CONTINUOUS
 10
89.4263442239
 20
100.7448734637
 11
88.7438538277
 21
100.0623830674
  0
LINE
  5
28E
100
AcDbEntity
  8
0
100
AcDbLine
 62
7
  6
CONTINUOUS
 10
112.7334510051
 20
91.9877666825
 11
91.0334510775
 21
91.9877666825
  0
LINE
  5
28F
100
AcDbEntity
  8
0
100
AcDbLine
 62
7
  6
CONTINUOUS
 10
104.1947758705
 20
93.4071739222
 11
101.2721261397
 21
93.4071739222
  0
LINE
  5
290
100
AcDbEntity
  8
0
100
AcDbLine
 62
9
  6
CONTINUOUS
 10
88.5335140942
 20
101.8053648032
 11
54.2334510051
 21
102.5516509132
  0
LINE
  5
291
100
AcDbEntity
  8
0
100
AcDbLine
 62
7
  6
CONTINUOUS
 10
88.9864797559
 20
100.6110378072
 11
88.7384741162
 21
100.616881291
  0
LINE
  5
292
100
AcDbEntity
  8
0
100
AcDbLine
 62
7
  6
CONTINUOUS
 10
54.2334510051
 20
100.9294032858
 11
88.7438538279
 21
100.0623818467
  0
LINE
  5
293
100
AcDbEntity
  8
DEFAULT_1
100
AcDbLine
 62
5
  6
CENTER
 10
250.7334510051
 20
112.5127666825
 11
232.7334510051
 21
112.5127666825
  0
LINE
  5
294
100
AcDbEntity
  8
0
100
AcDbLine
 62
7
  6
CONTINUOUS
 10
223.7442374427
 20
112.5127666825
 11
167.7334510051
 21
112.5127666825
  0
LINE
  5
295
100
AcDbEntity
  8
RUNDUNGEN
100
AcDbLine
 62
7
  6
CONTINUOUS
 10
239.6715707898
 20
113.9877666825
 11
226.0476645675
 21
113.9877666825
  0
LINE
  5
296
100
AcDbEntity
  8
0
100
AcDbLine
 62
7
  6
CONTINUOUS
 10
226.0476645675
 20
113.9877666825
 11
239.6715707898
 21
113.9877666825
  0
LINE
  5
297
100
AcDbEntity
  8
0
100
AcDbLine
 62
7
  6
CONTINUOUS
 10
104.1947758705
 20
114.138545368
 11
101.2721261397
 21
114.138545368
  0
LINE
  5
298
100
AcDbEntity
  8
0
100
AcDbLine
 62
2
  6
CONTINUOUS
 10
227.6334510051
 20
114.4877666825
 11
239.9602459243
 21
114.4877666825
  0
LINE
  5
299
100
AcDbEntity
  8
DEFAULT_1
100
AcDbLine
 62
5
  6
CENTER
 10
239.9602459243
 20
114.4877666825
 11
247.2534510051
 21
114.4877666825
  0
LINE
  5
29A
100
AcDbEntity
  8
S_ACHSEN
100
AcDbLine
 62
7
  6
CENTER
 10
49.7334510051
 20
123.4877666825
 11
253.7334510051
 21
123.4877666825
  0
LINE
  5
29B
100
AcDbEntity
  8
0
100
AcDbLine
 62
7
  6
CONTINUOUS
 10
88.7384741162
 20
131.6737098692
 11
88.9864797559
 21
131.6747241251
  0
LINE
  5
29C
100
AcDbEntity
  8
0
100
AcDbLine
 62
9
  6
CONTINUOUS
 10
52.7334510051
 20
128.7126378131
 11
88.5335140942
 21
128.7126378131
  0
LINE
  5
29D
100
AcDbEntity
  8
0
100
AcDbLine
 62
2
  6
CONTINUOUS
 10
227.6334510051
 20
132.4877666825
 11
239.9602459243
 21
132.4877666825
  0
LINE
  5
29E
100
AcDbEntity
  8
DEFAULT_1
100
AcDbLine
 62
5
  6
CENTER
 10
239.9602459243
 20
132.4877666825
 11
247.2534510051
 21
132.4877666825
  0
LINE
  5
29F
100
AcDbEntity
  8
0
100
AcDbLine
 62
7
  6
CONTINUOUS
 10
104.1947758705
 20
132.836987997
 11
101.2721261397
 21
132.836987997
  0
LINE
  5
2A0
100
AcDbEntity
  8
0
100
AcDbLine
 62
7
  6
CONTINUOUS
 10
226.0476645675
 20
132.9877666825
 11
239.6715707898
 21
132.9877666825
  0
LINE
  5
2A1
100
AcDbEntity
  8
0
100
AcDbLine
 62
9
  6
CONTINUOUS
 10
167.7334510051
 20
134.4627666825
 11
167.7334510051
 21
112.5127666825
  0
LINE
  5
2A2
100
AcDbEntity
  8
0
100
AcDbLine
 62
9
  6
CONTINUOUS
 10
54.2334510051
 20
139.1990113212
 11
88.5335140942
 21
139.9452974311
  0
LINE
  5
2A3
100
AcDbEntity
  8
0
100
AcDbLine
 62
7
  6
CONTINUOUS
 10
88.9864797559
 20
138.1775381152
 11
88.7384741162
 21
138.1727088872
  0
LINE
  5
2A4
100
AcDbEntity
  8
0
100
AcDbLine
 62
7
  6
CONTINUOUS
 10
167.7334510051
 20
134.4627666825
 11
223.7442374427
 21
134.4627666825
  0
LINE
  5
2A5
100
AcDbEntity
  8
DEFAULT_1
100
AcDbLine
 62
5
  6
CENTER
 10
232.7334510051
 20
134.4627666825
 11
250.7334510051
 21
134.4627666825
  0
LINE
  5
2A6
100
AcDbEntity
  8
0
100
AcDbLine
 62
7
  6
CONTINUOUS
 10
88.7384741162
 20
143.9129532522
 11
90.3384741162
 21
143.9531508214
  0
LINE
  5
2A7
100
AcDbEntity
  8
0
100
AcDbLine
 62
7
  6
CONTINUOUS
 10
60.9970557592
 20
143.4160553726
 11
70.7834510051
 21
143.6619236847
  0
LINE
  5
2A8
100
AcDbEntity
  8
0
100
AcDbLine
 62
7
  6
CONTINUOUS
 10
79.9128123383
 20
143.8912850179
 11
88.5335140942
 21
144.1078670521
  0
LINE
  5
2A9
100
AcDbEntity
  8
0
100
AcDbLine
 62
7
  6
CONTINUOUS
 10
104.1947758705
 20
153.5683594428
 11
101.2721261397
 21
153.5683594428
  0
LINE
  5
2AA
100
AcDbEntity
  8
0
100
AcDbLine
 62
7
  6
CONTINUOUS
 10
112.7334510051
 20
154.9877666825
 11
107.9557283051
 21
154.9877666825
  0
LINE
  5
2AB
100
AcDbEntity
  8
0
100
AcDbLine
 62
7
  6
CONTINUOUS
 10
97.5111737051
 20
154.9877666825
 11
91.0334510775
 21
154.9877666825
  0
LINE
  5
2AC
100
AcDbEntity
  8
RUNDUNGEN
100
AcDbLine
 62
7
  6
CONTINUOUS
 10
225.3405577863
 20
113.6948734637
 11
224.4513442239
 21
112.8056599013
  0
LINE
  5
2AD
100
AcDbEntity
  8
0
100
AcDbLine
 62
7
  6
CONTINUOUS
 10
224.4513442239
 20
112.8056599013
 11
225.3405577863
 21
113.6948734637
  0
LINE
  5
2AE
100
AcDbEntity
  8
RUNDUNGEN
100
AcDbLine
 62
7
  6
CONTINUOUS
 10
225.3405577863
 20
133.2806599013
 11
224.4513442239
 21
134.1698734637
  0
LINE
  5
2AF
100
AcDbEntity
  8
0
100
AcDbLine
 62
7
  6
CONTINUOUS
 10
224.4513442239
 20
134.1698734637
 11
225.3405577863
 21
133.2806599013
  0
LINE
  5
2B0
100
AcDbEntity
  8
RUNDUNGEN
100
AcDbLine
 62
9
  6
CONTINUOUS
 10
223.7442374427
 20
112.5127666825
 11
223.7442374427
 21
134.4627666825
  0
LINE
  5
2B1
100
AcDbEntity
  8
RUNDUNGEN
100
AcDbLine
 62
9
  6
CONTINUOUS
 10
224.4513442239
 20
112.8056599013
 11
224.4513442239
 21
134.1698734637
  0
LINE
  5
2B2
100
AcDbEntity
  8
RUNDUNGEN
100
AcDbLine
 62
9
  6
CONTINUOUS
 10
225.3405577863
 20
133.2806599013
 11
225.3405577863
 21
113.6948734637
  0
LINE
  5
2B3
100
AcDbEntity
  8
RUNDUNGEN
100
AcDbLine
 62
9
  6
CONTINUOUS
 10
226.0476645675
 20
132.9877666825
 11
226.0476645675
 21
113.9877666825
  0
LINE
  5
2B4
100
AcDbEntity
  8
0
100
AcDbLine
 62
7
  6
CONTINUOUS
 10
227.6334510051
 20
132.9877666825
 11
227.6334510051
 21
113.9877666825
  0
LINE
  5
2B5
100
AcDbEntity
  8
DEFAULT_1
100
AcDbLine
 62
5
  6
CENTER
 10
232.7334510051
 20
112.5127666825
 11
232.7334510051
 21
113.9877666825
  0
LINE
  5
2B6
100
AcDbEntity
  8
DEFAULT_1
100
AcDbLine
 62
5
  6
CENTER
 10
232.7334510051
 20
132.9877666825
 11
232.7334510051
 21
134.4627666825
  0
LINE
  5
2B7
100
AcDbEntity
  8
FASEN
100
AcDbLine
 62
7
  6
CONTINUOUS
 10
240.1334510137
 20
114.7877666974
 11
239.6715707992
 21
113.9877666988
  0
LINE
  5
2B8
100
AcDbEntity
  8
FASEN
100
AcDbLine
 62
7
  6
CONTINUOUS
 10
239.6715707898
 20
113.9877666825
 11
239.6715707898
 21
132.9877666825
  0
LINE
  5
2B9
100
AcDbEntity
  8
0
100
AcDbLine
 62
7
  6
CONTINUOUS
 10
239.9602459243
 20
132.4877666825
 11
239.9602459243
 21
114.4877666825
  0
LINE
  5
2BA
100
AcDbEntity
  8
FASEN
100
AcDbLine
 62
7
  6
CONTINUOUS
 10
240.1334510051
 20
114.7877666835
 11
240.1334510051
 21
132.1877666815
  0
LINE
  5
2BB
100
AcDbEntity
  8
FASEN
100
AcDbLine
 62
7
  6
CONTINUOUS
 10
240.1334510129
 20
132.187766669
 11
239.6715707982
 21
132.9877666678
  0
LINE
  5
2BC
100
AcDbEntity
  8
DEFAULT_1
100
AcDbLine
 62
5
  6
CENTER
 10
247.2534510051
 20
114.4877666825
 11
247.2534510051
 21
132.4877666825
  0
LINE
  5
2BD
100
AcDbEntity
  8
DEFAULT_1
100
AcDbLine
 62
5
  6
CENTER
 10
250.7334510051
 20
134.4627666825
 11
250.7334510051
 21
112.5127666825
  0
ARC
  5
2BE
100
AcDbEntity
  8
0
100
AcDbCircle
 62
7
  6
CONTINUOUS
 10
-18.0185601906
 20
104.1782778531
 40
110.4813700655
100
AcDbArc
 50
13.4640903998
 51
14.4111621352
  0
ARC
  5
2BF
100
AcDbEntity
  8
ACHSEN
100
AcDbCircle
 62
7
  6
CONTINUOUS
 10
65.9950226248
 20
107.9193634972
 40
35.8451025481
100
AcDbArc
 50
98.0149288422
 51
101.1172700805
  0
ARC
  5
2C0
100
AcDbEntity
  8
0
100
AcDbCircle
 62
7
  6
CONTINUOUS
 10
90.1334510051
 20
100.0377666825
 40
1.0
100
AcDbArc
 50
53.102347605
 51
135.0
  0
ARC
  5
2C1
100
AcDbEntity
  8
ACHSEN
100
AcDbCircle
 62
7
  6
CONTINUOUS
 10
-11.0247659715
 20
271.8837062323
 40
144.476898422
100
AcDbArc
 50
296.1871039389
 51
296.8519184685
  0
ARC
  5
2C2
100
AcDbEntity
  8
FASEN
100
AcDbCircle
 62
7
  6
CONTINUOUS
 10
102.0620001416
 20
190.2320500916
 40
35.7337367509
100
AcDbArc
 50
278.5204051949
 51
279.493718058
  0
ARC
  5
2C3
100
AcDbEntity
  8
FASEN
100
AcDbCircle
 62
7
  6
CONTINUOUS
 10
103.0220703111
 20
187.8094031877
 40
33.2811101164
100
AcDbArc
 50
260.5303395517
 51
261.5207019096
  0
ARC
  5
2C4
100
AcDbEntity
  8
FASEN
100
AcDbCircle
 62
7
  6
CONTINUOUS
 10
102.693477609
 20
186.0909339199
 40
31.5447665876
100
AcDbArc
 50
270.0726049912
 51
278.5005101089
  0
ARC
  5
2C5
100
AcDbEntity
  8
FASEN
100
AcDbCircle
 62
7
  6
CONTINUOUS
 10
102.7461365297
 20
185.7261899793
 40
31.1799999004
100
AcDbArc
 50
261.4577528719
 51
269.9766893187
  0
ARC
  5
2C6
100
AcDbEntity
  8
0
100
AcDbCircle
 62
7
  6
CONTINUOUS
 10
90.1334510051
 20
146.9377666825
 40
1.0
100
AcDbArc
 50
293.5781784782
 51
306.897652395
  0
ARC
  5
2C7
100
AcDbEntity
  8
0
100
AcDbCircle
 62
7
  6
CONTINUOUS
 10
90.3334510051
 20
144.1530877323
 40
0.2
100
AcDbArc
 50
271.439166666
 51
360.0
  0
ARC
  5
2C8
100
AcDbEntity
  8
0
100
AcDbCircle
 62
7
  6
CONTINUOUS
 10
88.7334510051
 20
144.1128901632
 40
0.2
100
AcDbArc
 50
181.439166666
 51
271.439166666
  0
ARC
  5
2C9
100
AcDbEntity
  8
0
100
AcDbCircle
 62
7
  6
CONTINUOUS
 10
167.7334510051
 20
-237.4872333175
 40
350.0
100
AcDbArc
 50
90.0
 51
97.7526847994
  0
ARC
  5
2CA
100
AcDbEntity
  8
RUNDUNGEN
100
AcDbCircle
 62
7
  6
CONTINUOUS
 10
167.7334510051
 20
-237.4872333175
 40
350.0
100
AcDbArc
 50
90.0
 51
97.7526847994
  0
ARC
  5
2CB
100
AcDbEntity
  8
0
100
AcDbCircle
 62
7
  6
CONTINUOUS
 10
234.9676237819
 20
74.5135688102
 40
159.2595221605
100
AcDbArc
 50
156.0446773748
 51
156.4374589831
  0
ARC
  5
2CC
100
AcDbEntity
  8
RUNDUNGEN
100
AcDbCircle
 62
7
  6
CONTINUOUS
 10
121.7334510051
 20
100.3958825672
 40
9.0
100
AcDbArc
 50
97.7526847996
 51
179.9999999984
  0
ARC
  5
2CD
100
AcDbEntity
  8
RUNDUNGEN
100
AcDbCircle
 62
7
  6
CONTINUOUS
 10
226.0476645675
 20
112.9877666825
 40
1.0
100
AcDbArc
 50
90.0
 51
135.0000000778
  0
ARC
  5
2CE
100
AcDbEntity
  8
RUNDUNGEN
100
AcDbCircle
 62
7
  6
CONTINUOUS
 10
223.7442374427
 20
113.5127666825
 40
1.0
100
AcDbArc
 50
270.0000000067
 51
315.0000000707
  0
ARC
  5
2CF
100
AcDbEntity
  8
0
100
AcDbCircle
 62
7
  6
CONTINUOUS
 10
167.7334510051
 20
484.4627666825
 40
350.0
100
AcDbArc
 50
262.2473152006
 51
270.0
  0
ARC
  5
2D0
100
AcDbEntity
  8
RUNDUNGEN
100
AcDbCircle
 62
7
  6
CONTINUOUS
 10
167.7334510051
 20
484.4627666825
 40
350.0
100
AcDbArc
 50
262.2473152006
 51
270.0
  0
ARC
  5
2D1
100
AcDbEntity
  8
RUNDUNGEN
100
AcDbCircle
 62
7
  6
CONTINUOUS
 10
121.7334510051
 20
146.5796507977
 40
9.0
100
AcDbArc
 50
180.000000004
 51
262.2473152001
  0
ARC
  5
2D2
100
AcDbEntity
  8
RUNDUNGEN
100
AcDbCircle
 62
7
  6
CONTINUOUS
 10
226.0476645675
 20
133.9877666825
 40
1.0
100
AcDbArc
 50
224.9999998999
 51
270.0
  0
ARC
  5
2D3
100
AcDbEntity
  8
RUNDUNGEN
100
AcDbCircle
 62
7
  6
CONTINUOUS
 10
223.7442374427
 20
133.4627666825
 40
1.0
100
AcDbArc
 50
44.9999999293
 51
89.9999999933
  0
LINE
  5
2D4
100
AcDbEntity
  8
FASEN
100
AcDbLine
 62
7
  6
CONTINUOUS
 10
97.5464850262
 20
154.9818194148
 11
97.5109983408
 21
154.9877336223
  0
LINE
  5
2D5
100
AcDbEntity
  8
FASEN
100
AcDbLine
 62
7
  6
CONTINUOUS
 10
107.9181884166
 20
154.9814480095
 11
107.9559036694
 21
154.9877336223
  0
LINE
  5
2D6
100
AcDbEntity
  8
ACHSEN
100
AcDbLine
 62
7
  6
CONTINUOUS
 10
59.0834510051
 20
143.0918179811
 11
54.2334510051
 21
142.984756296
  0
LINE
  5
2D7
100
AcDbEntity
  8
ACHSEN
100
AcDbLine
 62
7
  6
CONTINUOUS
 10
60.8742220368
 20
143.3968061011
 11
60.997070353
 21
143.4143187583
  0
LINE
  5
2D8
100
AcDbEntity
  8
ACHSEN
100
AcDbLine
 62
7
  6
CONTINUOUS
 10
60.997070353
 20
143.4143187583
 11
61.0120212911
 21
143.4164244878
  0
LINE
  5
2D9
100
AcDbEntity
  8
ACHSEN
100
AcDbLine
 62
7
  6
CONTINUOUS
 10
61.0120212907
 20
143.4164244877
 11
60.9970999033
 21
143.4143229302
  0
SPLINE
  5
2DA
100
AcDbEntity
  8
ACHSEN
100
AcDbSpline
 62
7
  6
CONTINUOUS
 70
0
 71
3
 72
11
 73
7
 74
0
 42
0.0000001
 43
0.0000001
 44
0.0000000001
 40
0.0
 40
0.0
 40
0.0
 40
0.0
 40
0.1537099379
 40
0.500508937
 40
0.8472910559
 40
1.0
 40
1.0
 40
1.0
 40
1.0
 10
79.9128123383
 20
143.8912850179
 30
0.0
 10
79.4492270692
 20
143.8200080632
 30
0.0
 10
77.934994755
 20
143.6159502908
 30
0.0
 10
75.3522203275
 20
143.4304412589
 30
0.0
 10
72.7661742976
 20
143.4833884776
 30
0.0
 10
71.2468851149
 20
143.6131549703
 30
0.0
 10
70.7834510051
 20
143.6619236847
 30
0.0
  0
LINE
  5
2DB
100
AcDbEntity
  8
FASEN
100
AcDbLine
 62
7
  6
CONTINUOUS
 10
97.5109983409
 20
154.9877336223
 11
97.5488525663
 21
154.9814243233
  0
SPLINE
  5
2DC
100
AcDbEntity
  8
0
100
AcDbSpline
 62
7
  6
CONTINUOUS
 70
0
 71
3
 72
9
 73
5
 74
0
 42
0.0000001
 43
0.0000001
 44
0.0000000001
 40
0.0
 40
0.0
 40
0.0
 40
0.0
 40
0.1680195226
 40
1.0
 40
1.0
 40
1.0
 40
1.0
 10
104.6277885724
 20
93.573811836
 30
0.0
 10
104.6109402994
 20
93.5534917201
 30
0.0
 10
104.4954870168
 20
93.4450107439
 30
0.0
 10
104.3254827818
 20
93.4071739222
 30
0.0
 10
104.1947758705
 20
93.4071739222
 30
0.0
  0
SPLINE
  5
2DD
100
AcDbEntity
  8
0
100
AcDbSpline
 62
7
  6
CONTINUOUS
 70
0
 71
3
 72
11
 73
7
 74
0
 42
0.0000001
 43
0.0000001
 44
0.0000000001
 40
0.0
 40
0.0
 40
0.0
 40
0.0
 40
0.2468743153
 40
0.4953615093
 40
0.7464260843
 40
1.0
 40
1.0
 40
1.0
 40
1.0
 10
100.8391134378
 20
113.6183540635
 30
0.0
 10
100.8546912504
 20
113.6752996133
 30
0.0
 10
100.8922200278
 20
113.7880584666
 30
0.0
 10
100.9742915233
 20
113.9475826355
 30
0.0
 10
101.0910238844
 20
114.0876697416
 30
0.0
 10
101.2114861719
 20
114.138545368
 30
0.0
 10
101.2721261397
 20
114.138545368
 30
0.0
  0
SPLINE
  5
2DE
100
AcDbEntity
  8
0
100
AcDbSpline
 62
7
  6
CONTINUOUS
 70
0
 71
3
 72
9
 73
5
 74
0
 42
0.0000001
 43
0.0000001
 44
0.0000000001
 40
0.0
 40
0.0
 40
0.0
 40
0.0
 40
0.3641598889
 40
1.0
 40
1.0
 40
1.0
 40
1.0
 10
101.2721261397
 20
93.4071739222
 30
0.0
 10
101.2147497179
 20
93.4071739222
 30
0.0
 10
101.0585633848
 20
93.4232930162
 30
0.0
 10
100.9030573941
 20
93.4966912551
 30
0.0
 10
100.8391134378
 20
93.573811836
 30
0.0
  0
SPLINE
  5
2DF
100
AcDbEntity
  8
0
100
AcDbSpline
 62
7
  6
CONTINUOUS
 70
0
 71
3
 72
9
 73
5
 74
0
 42
0.0000001
 43
0.0000001
 44
0.0000000001
 40
0.0
 40
0.0
 40
0.0
 40
0.0
 40
0.3642526053
 40
1.0
 40
1.0
 40
1.0
 40
1.0
 10
104.1947758705
 20
153.5683594428
 30
0.0
 10
104.252167277
 20
153.5683594428
 30
0.0
 10
104.4083567356
 20
153.5522448873
 30
0.0
 10
104.5638535209
 20
153.4788313702
 30
0.0
 10
104.6277885724
 20
153.4017215289
 30
0.0
  0
SPLINE
  5
2E0
100
AcDbEntity
  8
0
100
AcDbSpline
 62
7
  6
CONTINUOUS
 70
0
 71
3
 72
11
 73
7
 74
0
 42
0.0000001
 43
0.0000001
 44
0.0000000001
 40
0.0
 40
0.0
 40
0.0
 40
0.0
 40
0.2468553946
 40
0.4953235696
 40
0.7463663429
 40
1.0
 40
1.0
 40
1.0
 40
1.0
 10
104.6277885724
 20
133.3571793014
 30
0.0
 10
104.6122118854
 20
133.3002378662
 30
0.0
 10
104.5746878862
 20
133.1874858001
 30
0.0
 10
104.4926190749
 20
133.0279778452
 30
0.0
 10
104.375908903
 20
132.887864176
 30
0.0
 10
104.2554303911
 20
132.836987997
 30
0.0
 10
104.1947758705
 20
132.836987997
 30
0.0
  0
SPLINE
  5
2E1
100
AcDbEntity
  8
0
100
AcDbSpline
 62
7
  6
CONTINUOUS
 70
0
 71
3
 72
9
 73
5
 74
0
 42
0.0000001
 43
0.0000001
 44
0.0000000001
 40
0.0
 40
0.0
 40
0.0
 40
0.0
 40
0.1680322176
 40
1.0
 40
1.0
 40
1.0
 40
1.0
 10
100.8391134378
 20
153.4017215289
 30
0.0
 10
100.8559629968
 20
153.4220431958
 30
0.0
 10
100.9714175736
 20
153.5305232278
 30
0.0
 10
101.1414211227
 20
153.5683594428
 30
0.0
 10
101.2721261397
 20
153.5683594428
 30
0.0
  0
SPLINE
  5
2E2
100
AcDbEntity
  8
0
100
AcDbSpline
 62
7
  6
CONTINUOUS
 70
0
 71
3
 72
11
 73
7
 74
0
 42
0.0000001
 43
0.0000001
 44
0.0000000001
 40
0.0
 40
0.0
 40
0.0
 40
0.0
 40
0.2535749038
 40
0.5046395871
 40
0.753126088
 40
1.0
 40
1.0
 40
1.0
 40
1.0
 10
101.2721261397
 20
132.836987997
 30
0.0
 10
101.2114859339
 20
132.836987997
 30
0.0
 10
101.0910232615
 20
132.8878636887
 30
0.0
 10
100.9742914025
 20
133.0279513686
 30
0.0
 10
100.8922198566
 20
133.1874751961
 30
0.0
 10
100.8546912254
 20
133.3002338431
 30
0.0
 10
100.8391134378
 20
133.3571793014
 30
0.0
  0
SPLINE
  5
2E3
100
AcDbEntity
  8
0
100
AcDbSpline
 62
7
  6
CONTINUOUS
 70
0
 71
3
 72
15
 73
11
 74
0
 42
0.0000001
 43
0.0000001
 44
0.0000000001
 40
0.0
 40
0.0
 40
0.0
 40
0.0
 40
0.2503260428
 40
0.3755427651
 40
0.500769311
 40
0.625976783
 40
0.7510377775
 40
0.8746309833
 40
0.9372889186
 40
1.0
 40
1.0
 40
1.0
 40
1.0
 10
89.4263442239
 20
129.9023064432
 30
0.0
 10
89.4604789759
 20
129.7596619135
 30
0.0
 10
89.5178677303
 20
129.5469712773
 30
0.0
 10
89.6133701392
 20
129.2693798333
 30
0.0
 10
89.6973877656
 20
129.0658584176
 30
0.0
 10
89.8007674213
 20
128.8705702673
 30
0.0
 10
89.9287276909
 20
128.693743733
 30
0.0
 10
90.0957657385
 20
128.5862990147
 30
0.0
 10
90.2464710541
 20
128.6078629346
 30
0.0
 10
90.3097489305
 20
128.6478047543
 30
0.0
 10
90.3384741162
 20
128.6707171356
 30
0.0
  0
SPLINE
  5
2E4
100
AcDbEntity
  8
0
100
AcDbSpline
 62
7
  6
CONTINUOUS
 70
0
 71
3
 72
13
 73
9
 74
0
 42
0.0000001
 43
0.0000001
 44
0.0000000001
 40
0.0
 40
0.0
 40
0.0
 40
0.0
 40
0.1670510693
 40
0.3289369806
 40
0.4609641718
 40
0.578209763
 40
0.7939442568
 40
1.0
 40
1.0
 40
1.0
 40
1.0
 10
90.3384741162
 20
139.8322449694
 30
0.0
 10
90.2740406654
 20
139.8564800744
 30
0.0
 10
90.1348396725
 20
139.8784144169
 30
0.0
 10
89.9482316842
 20
139.8219382447
 30
0.0
 10
89.8067706461
 20
139.72637479
 30
0.0
 10
89.6692420487
 20
139.592007321
 30
0.0
 10
89.5398223442
 20
139.4096350624
 30
0.0
 10
89.4608223776
 20
139.2543828213
 30
0.0
 10
89.4263442239
 20
139.1767835727
 30
0.0
  0
SPLINE
  5
2E5
100
AcDbEntity
  8
0
100
AcDbSpline
 62
7
  6
CONTINUOUS
 70
0
 71
3
 72
15
 73
11
 74
0
 42
0.0000001
 43
0.0000001
 44
0.0000000001
 40
0.0
 40
0.0
 40
0.0
 40
0.0
 40
0.0735479282
 40
0.1546005725
 40
0.2292557381
 40
0.2979289731
 40
0.4260365971
 40
0.5473626904
 40
0.7785364517
 40
1.0
 40
1.0
 40
1.0
 40
1.0
 10
90.3384741162
 20
139.8322449694
 30
0.0
 10
90.350925935
 20
139.8275615149
 30
0.0
 10
90.3800761887
 20
139.8234810024
 30
0.0
 10
90.4195456803
 20
139.8417230297
 30
0.0
 10
90.4471073553
 20
139.8721263233
 30
0.0
 10
90.4730023654
 20
139.914004006
 30
0.0
 10
90.4940883292
 20
139.9679342286
 30
0.0
 10
90.5157270397
 20
140.0522048882
 30
0.0
 10
90.5295972267
 20
140.1554157734
 30
0.0
 10
90.5330217163
 20
140.2372771236
 30
0.0
 10
90.5333647984
 20
140.2773343699
 30
0.0
  0
SPLINE
  5
2E6
100
AcDbEntity
  8
0
100
AcDbSpline
 62
7
  6
CONTINUOUS
 70
0
 71
3
 72
9
 73
5
 74
0
 42
0.0000001
 43
0.0000001
 44
0.0000000001
 40
0.0
 40
0.0
 40
0.0
 40
0.0
 40
0.2573720101
 40
1.0
 40
1.0
 40
1.0
 40
1.0
 10
89.4263442239
 20
101.3842100315
 30
0.0
 10
89.3912048357
 20
101.3164547374
 30
0.0
 10
89.2522167002
 20
101.0544830864
 30
0.0
 10
89.1032332096
 20
100.7977739364
 30
0.0
 10
88.9864797559
 20
100.6110378072
 30
0.0
  0
SPLINE
  5
2E7
100
AcDbEntity
  8
0
100
AcDbSpline
 62
7
  6
CONTINUOUS
 70
0
 71
3
 72
15
 73
11
 74
0
 42
0.0000001
 43
0.0000001
 44
0.0000000001
 40
0.0
 40
0.0
 40
0.0
 40
0.0
 40
0.2846444905
 40
0.5382195662
 40
0.6533996007
 40
0.761473341
 40
0.8135077243
 40
0.8652449798
 40
0.9195347039
 40
1.0
 40
1.0
 40
1.0
 40
1.0
 10
88.5335140942
 20
101.8053648032
 30
0.0
 10
88.5335140942
 20
101.6857913659
 30
0.0
 10
88.5335090622
 20
101.4597301388
 30
0.0
 10
88.5367115379
 20
101.1851384883
 30
0.0
 10
88.5502662796
 20
100.9852542148
 30
0.0
 10
88.5664679312
 20
100.8704726544
 30
0.0
 10
88.5882916293
 20
100.7841380661
 30
0.0
 10
88.6120312589
 20
100.7217084515
 30
0.0
 10
88.6508174903
 20
100.6541795018
 30
0.0
 10
88.7046816393
 20
100.6176775079
 30
0.0
 10
88.7384741162
 20
100.616881291
 30
0.0
  0
SPLINE
  5
2E8
100
AcDbEntity
  8
0
100
AcDbSpline
 62
7
  6
CONTINUOUS
 70
0
 71
3
 72
13
 73
9
 74
0
 42
0.0000001
 43
0.0000001
 44
0.0000000001
 40
0.0
 40
0.0
 40
0.0
 40
0.0
 40
0.1753307868
 40
0.3422637982
 40
0.4768046258
 40
0.5947351366
 40
0.8062611466
 40
1.0
 40
1.0
 40
1.0
 40
1.0
 10
90.3384741162
 20
101.9603379424
 30
0.0
 10
90.2745613713
 20
101.987278104
 30
0.0
 10
90.136784328
 20
102.01601609
 30
0.0
 10
89.9491373298
 20
101.9672372721
 30
0.0
 10
89.8075526461
 20
101.8783953691
 30
0.0
 10
89.6710874233
 20
101.7547927572
 30
0.0
 10
89.5426687368
 20
101.5909161511
 30
0.0
 10
89.4616287398
 20
101.4522451588
 30
0.0
 10
89.4263442239
 20
101.3842100315
 30
0.0
  0
SPLINE
  5
2E9
100
AcDbEntity
  8
0
100
AcDbSpline
 62
7
  6
CONTINUOUS
 70
0
 71
3
 72
8
 73
4
 74
0
 42
0.0000001
 43
0.0000001
 44
0.0000000001
 40
0.0
 40
0.0
 40
0.0
 40
0.0
 40
1.0
 40
1.0
 40
1.0
 40
1.0
 10
90.5333290517
 20
128.1129893424
 30
0.0
 10
90.5328993619
 20
128.1747013312
 30
0.0
 10
90.5310165561
 20
128.2364481707
 30
0.0
 10
90.5267166872
 20
128.298011677
 30
0.0
  0
SPLINE
  5
2EA
100
AcDbEntity
  8
0
100
AcDbSpline
 62
7
  6
CONTINUOUS
 70
0
 71
3
 72
15
 73
11
 74
0
 42
0.0000001
 43
0.0000001
 44
0.0000000001
 40
0.0
 40
0.0
 40
0.0
 40
0.0
 40
0.2529176222
 40
0.3785524811
 40
0.5034347146
 40
0.6273379652
 40
0.7499890146
 40
0.8710889694
 40
0.9340922305
 40
1.0
 40
1.0
 40
1.0
 40
1.0
 10
90.5267166872
 20
128.298011677
 30
0.0
 10
90.5238437694
 20
128.3391447687
 30
0.0
 10
90.5179783299
 20
128.4006415601
 30
0.0
 10
90.5050066641
 20
128.4817252545
 30
0.0
 10
90.4919904178
 20
128.5413742288
 30
0.0
 10
90.4735015291
 20
128.5993370132
 30
0.0
 10
90.4485683441
 20
128.6533810421
 30
0.0
 10
90.4082280091
 20
128.6911433919
 30
0.0
 10
90.365012
 20
128.6891813458
 30
0.0
 10
90.3468741939
 20
128.6774173807
 30
0.0
 10
90.3384741162
 20
128.6707171356
 30
0.0
  0
SPLINE
  5
2EB
100
AcDbEntity
  8
0
100
AcDbSpline
 62
7
  6
CONTINUOUS
 70
0
 71
3
 72
12
 73
8
 74
0
 42
0.0000001
 43
0.0000001
 44
0.0000000001
 40
0.0
 40
0.0
 40
0.0
 40
0.0
 40
0.2873076234
 40
0.4555854673
 40
0.6473090081
 40
0.8177551754
 40
1.0
 40
1.0
 40
1.0
 40
1.0
 10
90.3384741162
 20
101.9603379424
 30
0.0
 10
90.3638604001
 20
101.9496372505
 30
0.0
 10
90.4065274632
 20
101.9370613067
 30
0.0
 10
90.470332656
 20
101.9412198089
 30
0.0
 10
90.5132651533
 20
101.9755723075
 30
0.0
 10
90.5300950239
 20
102.0263726083
 30
0.0
 10
90.5330413338
 20
102.060135444
 30
0.0
 10
90.5333647984
 20
102.0776075573
 30
0.0
  0
SPLINE
  5
2EC
100
AcDbEntity
  8
0
100
AcDbSpline
 62
7
  6
CONTINUOUS
 70
0
 71
3
 72
11
 73
7
 74
0
 42
0.0000001
 43
0.0000001
 44
0.0000000001
 40
0.0
 40
0.0
 40
0.0
 40
0.0
 40
0.2536313865
 40
0.5046749499
 40
0.7531440587
 40
1.0
 40
1.0
 40
1.0
 40
1.0
 10
104.1947758705
 20
114.138545368
 30
0.0
 10
104.2554298375
 20
114.138545368
 30
0.0
 10
104.3759076786
 20
114.0876691447
 30
0.0
 10
104.4926188507
 20
113.9475565782
 30
0.0
 10
104.5746876407
 20
113.7880479279
 30
0.0
 10
104.6122118536
 20
113.6752956149
 30
0.0
 10
104.6277885724
 20
113.6183540635
 30
0.0
  0
SPLINE
  5
2ED
100
AcDbEntity
  8
0
100
AcDbSpline
 62
7
  6
CONTINUOUS
 70
0
 71
3
 72
21
 73
17
 74
0
 42
0.0000001
 43
0.0000001
 44
0.0000000001
 40
0.0
 40
0.0
 40
0.0
 40
0.0
 40
0.0152736556
 40
0.0307400416
 40
0.0615944727
 40
0.0924597446
 40
0.1233512662
 40
0.1852330485
 40
0.2472659363
 40
0.3094463907
 40
0.3717660941
 40
0.4967787028
 40
0.6222117836
 40
0.747963109
 40
0.8739278454
 40
1.0
 40
1.0
 40
1.0
 40
1.0
 10
88.7384741162
 20
131.6737098692
 30
0.0
 10
88.723211801
 20
131.6736474499
 30
0.0
 10
88.6975236361
 20
131.6476502952
 30
0.0
 10
88.6717825435
 20
131.5938977594
 30
0.0
 10
88.6481350136
 20
131.5191258663
 30
0.0
 10
88.6283366403
 20
131.429031042
 30
0.0
 10
88.6073589653
 20
131.3071336778
 30
0.0
 10
88.5884555652
 20
131.1535848744
 30
0.0
 10
88.5722279251
 20
130.9683009222
 30
0.0
 10
88.5604587305
 20
130.7822668548
 30
0.0
 10
88.5490040906
 20
130.5331910025
 30
0.0
 10
88.5405903265
 20
130.2207454834
 30
0.0
 10
88.5358378783
 20
129.8448500034
 30
0.0
 10
88.5340234557
 20
129.4679799472
 30
0.0
 10
88.5335501175
 20
129.0904693143
 30
0.0
 10
88.5335140942
 20
128.8386174153
 30
0.0
 10
88.5335140942
 20
128.7126378131
 30
0.0
  0
SPLINE
  5
2EE
100
AcDbEntity
  8
0
100
AcDbSpline
 62
7
  6
CONTINUOUS
 70
0
 71
3
 72
17
 73
13
 74
0
 42
0.0000001
 43
0.0000001
 44
0.0000000001
 40
0.0
 40
0.0
 40
0.0
 40
0.0
 40
0.2182009024
 40
0.3349220057
 40
0.456586696
 40
0.5831112211
 40
0.7144823146
 40
0.7820564401
 40
0.8510300181
 40
0.92186225
 40
0.958727904
 40
1.0
 40
1.0
 40
1.0
 40
1.0
 10
88.5335140942
 20
139.9452974311
 30
0.0
 10
88.5335140942
 20
139.8130184169
 30
0.0
 10
88.5334964068
 20
139.6099787555
 30
0.0
 10
88.5359035156
 20
139.3331899852
 30
0.0
 10
88.5407287092
 20
139.1120175825
 30
0.0
 10
88.5510144472
 20
138.8821026016
 30
0.0
 10
88.5671394706
 20
138.6854339065
 30
0.0
 10
88.5887135712
 20
138.5242330349
 30
0.0
 10
88.6113180418
 20
138.4010627428
 30
0.0
 10
88.640913838
 20
138.2959120121
 30
0.0
 10
88.6753455128
 20
138.2164421579
 30
0.0
 10
88.7134586493
 20
138.1722217813
 30
0.0
 10
88.7384741162
 20
138.1727088872
 30
0.0
  0
SPLINE
  5
2EF
100
AcDbEntity
  8
0
100
AcDbSpline
 62
7
  6
CONTINUOUS
 70
0
 71
3
 72
10
 73
6
 74
0
 42
0.0000001
 43
0.0000001
 44
0.0000000001
 40
0.0
 40
0.0
 40
0.0
 40
0.0
 40
0.2163947382
 40
0.4583018846
 40
1.0
 40
1.0
 40
1.0
 40
1.0
 10
88.9864797559
 20
138.1775381152
 30
0.0
 10
88.900778368
 20
137.7148165595
 30
0.0
 10
88.7784417758
 20
136.7235546682
 30
0.0
 10
88.7032630498
 20
134.5485414835
 30
0.0
 10
88.833767885
 20
132.8428083657
 30
0.0
 10
88.9864797559
 20
131.6747241251
 30
0.0
  0
LINE
  5
2F0
100
AcDbEntity
  8
0
100
AcDbLine
 62
7
  6
CONTINUOUS
 10
88.7438526368
 20
100.0623818766
 11
88.9864797559
 21
100.6110378072
  0
ELLIPSE
  5
2F1
100
AcDbEntity
  8
0
100
AcDbEllipse
 62
7
  6
CONTINUOUS
 10
117.0806051945
 20
123.4877666825
 30
0.0
 11
-14.7536831607
 21
31.0932549156
 31
0.0
 40
0.3419987131
 41
0.1578061866
 42
1.0912395858
  0
ELLIPSE
  5
2F2
100
AcDbEntity
  8
0
100
AcDbEllipse
 62
7
  6
CONTINUOUS
 10
117.0806051945
 20
123.4877666825
 30
0.0
 11
14.7536831607
 21
31.0932549156
 31
0.0
 40
0.3419987131
 41
-4.2328322393
 42
-3.2993988402
  0
ELLIPSE
  5
2F3
100
AcDbEntity
  8
0
100
AcDbEllipse
 62
7
  6
CONTINUOUS
 10
88.3862968157
 20
123.4877666825
 30
0.0
 11
14.7536831607
 21
31.0932549156
 31
0.0
 40
0.3419987131
 41
-1.0912395858
 42
-0.1578061866
  0
ELLIPSE
  5
2F4
100
AcDbEntity
  8
0
100
AcDbEllipse
 62
7
  6
CONTINUOUS
 10
88.3862968157
 20
123.4877666825
 30
0.0
 11
-14.7536831607
 21
31.0932549156
 31
0.0
 40
0.3419987131
 41
-2.9837864669
 42
-2.0503530678
  0
ENDSEC
  0
SECTION
  2
OBJECTS
  0
DICTIONARY
  5
C
100
AcDbDictionary
280
0
281
1
  3
ACAD_GROUP
350
D
  3
ACAD_MLINESTYLE
350
17
  3
ACAD_LAYOUT
350
1A
  3
ACAD_PLOTSETTINGS
350
19
  3
ACAD_PLOTSTYLENAME
350
E
  0
DICTIONARY
  5
D
102
{ACAD_REACTORS
330
C
102
}
100
AcDbDictionary
280
0
281
1
  0
ACDBDICTIONARYWDFLT
  5
E
102
{ACAD_REACTORS
330
C
102
}
100
AcDbDictionary
281
1
  3
Normal
350
F
100
AcDbDictionaryWithDefault
340
F
  0
DICTIONARY
  5
17
102
{ACAD_REACTORS
330
C
102
}
100
AcDbDictionary
280
0
281
1
  3
Standard
350
18
  0
DICTIONARY
  5
19
102
{ACAD_REACTORS
330
C
102
}
100
AcDbDictionary
281
1
  0
DICTIONARY
  5
1A
102
{ACAD_REACTORS
330
C
102
}
100
AcDbDictionary
281
1
  3
Model
350
2F5
  3
Layout1
350
2F6
  0
ACDBPLACEHOLDER
  5
F
102
{ACAD_REACTORS
330
E
102
}
  0
MLINESTYLE
  5
18
102
{ACAD_REACTORS
330
17
102
}
100
AcDbMlineStyle
  2
STANDARD
 70
0
  3

 62
256
 51
90.0
 52
90.0
 71
2
 49
0.5
 62
256
  6
BYLAYER
 49
-0.5
 62
256
  6
BYLAYER
  0
LAYOUT
  5
2F5
102
{ACAD_REACTORS
330
1A
102
}
100
AcDbPlotSettings
  1

  2
none_device
  4
ISO_A4_(297.00_x_210.00_MM)
  6

 40
0.0
 41
0.0
 42
0.0
 43
0.0
 44
297.0
 45
210.0
 46
0.0
 47
0.0
 48
0.0
 49
0.0
140
0.0
141
0.0
142
1.0
143
1.0
 70
1024
 72
1
 73
0
 74
0
  7

 75
0
147
1.0
148
0.0
149
0.0
100
AcDbLayout
  1
Model
 70
0
 71
0
 10
0.0
 20
0.0
 11
297.0
 21
210.0
 12
0.0
 22
0.0
 32
0.0
 14
0.0
 24
0.0
 34
0.0
 15
0.0
 25
0.0
 35
0.0
146
0.0
 13
0.0
 23
0.0
 33
0.0
 16
1.0
 26
0.0
 36
0.0
 17
0.0
 27
1.0
 37
0.0
 76
0
330
217
345
0
346
0
  0
LAYOUT
  5
2F6
102
{ACAD_REACTORS
330
1A
102
}
100
AcDbPlotSettings
  1

  2
none_device
  4
ISO_A4_(297.00_x_210.00_MM)
  6

 40
0.0
 41
0.0
 42
0.0
 43
0.0
 44
297.0
 45
210.0
 46
0.0
 47
0.0
 48
0.0
 49
0.0
140
0.0
141
0.0
142
1.0
143
1.0
 70
0
 72
1
 73
0
 74
0
  7

 75
0
147
1.0
148
0.0
149
0.0
100
AcDbLayout
  1
Layout1
 70
0
 71
1
 10
0.0
 20
0.0
 11
297.0
 21
210.0
 12
0.0
 22
0.0
 32
0.0
 14
0.0
 24
0.0
 34
0.0
 15
0.0
 25
0.0
 35
0.0
146
0.0
 13
0.0
 23
0.0
 33
0.0
 16
1.0
 26
0.0
 36
0.0
 17
0.0
 27
1.0
 37
0.0
 76
0
330
218
345
0
346
0
  0
ENDSEC
  0
EOF
