999
DXF file: cc6-021-16-7.dxf
999
Pro/ENGINEER 2010430 by Parametric Technology Corporation
  0
SECTION
  2
HEADER
  9
$ACADVER
  1
AC1021
  9
$DWGCODEPAGE
  3
ANSI_1252
  9
$EXTMAX
 10
297.0
 20
210.0
 30
0.0
  9
$EXTMIN
 10
0.0
 20
0.0
 30
0.0
  9
$LIMMIN
 10
0.0
 20
0.0
  9
$LIMMAX
 10
297.0
 20
210.0
  9
$VIEWCTR
 10
148.5
 20
105.0
  9
$VIEWSIZE
 40
210.0
  9
$CLAYER
  8
0
  9
$LTSCALE
 40
16.335
  9
$CELTYPE
  6
BYLAYER
  9
$DIMSCALE
 40
1.0
  9
$DIMASZ
 40
3.5
  9
$DIMEXO
 40
1.85625
  9
$DIMDLI
 40
11.286
  9
$DIMEXE
 40
5.346
  9
$DIMCEN
 40
2.673
  9
$DIMLFAC
 40
1.0
  9
$DIMBLK
  1
_FILLED
  9
$DIMTXT
 40
3.5
  9
$DIMTOL
 70
1
  9
$DIMLIM
 70
0
  9
$DIMTFAC
 40
1.0
  9
$DIMTP
 40
0.005
  9
$DIMTM
 40
0.005
  9
$PDMODE
 70
3
  9
$PDSIZE
 40
0.3125
  9
$HANDSEED
  5
2FB
  9
$TILEMODE
 70
1
  9
$MEASUREMENT
 70
1
  9
$INSUNITS
 70
4
  0
ENDSEC
  0
SECTION
  2
CLASSES
  0
CLASS
  1
ACDBDICTIONARYWDFLT
  2
AcDbDictionaryWithDefault
  3
AutoCAD 2000
 90
0
 91
1
280
0
281
0
  0
CLASS
  1
ACDBPLACEHOLDER
  2
AcDbPlaceHolder
  3
AutoCAD 2000
 90
0
 91
1
280
0
281
0
  0
CLASS
  1
LAYOUT
  2
AcDbLayout
  3
AutoCAD 2000
 90
0
 91
0
280
0
281
0
  0
ENDSEC
  0
SECTION
  2
TABLES
  0
TABLE
  2
VPORT
  5
8
100
AcDbSymbolTable
 70
2
  0
VPORT
  5
1F4
100
AcDbSymbolTableRecord
100
AcDbViewportTableRecord
  2
*ACTIVE
 70
0
 10
0.0
 20
0.0
 11
1.0
 21
1.0
 12
148.5
 22
105.0
 13
0.0
 23
0.0
 14
1.0
 24
1.0
 15
0.0
 25
0.0
 16
0.0
 26
0.0
 36
1.0
 17
0.0
 27
0.0
 37
0.0
 40
210.0
 41
1.4142857143
 42
50.0
 43
0.0
 44
0.0
 50
0.0
 51
0.0
 71
0
 72
100
 73
1
 74
1
 75
0
 76
0
 77
0
 78
0
  0
ENDTAB
  0
TABLE
  2
LTYPE
  5
5
100
AcDbSymbolTable
 70
6
  0
LTYPE
  5
14
100
AcDbSymbolTableRecord
100
AcDbLinetypeTableRecord
  2
BYBLOCK
 70
0
  3

 72
65
 73
0
 40
0.0
  0
LTYPE
  5
15
100
AcDbSymbolTableRecord
100
AcDbLinetypeTableRecord
  2
BYLAYER
 70
0
  3

 72
65
 73
0
 40
0.0
  0
LTYPE
  5
16
100
AcDbSymbolTableRecord
100
AcDbLinetypeTableRecord
  2
CONTINUOUS
 70
64
  3
Solid line
 72
65
 73
0
 40
0.0
  0
LTYPE
  5
1F5
100
AcDbSymbolTableRecord
100
AcDbLinetypeTableRecord
  2
CENTER
 70
64
  3
____ _ ____ _ ____ _ ____ _ ____ _ ____ _ ____
 72
65
 73
4
 40
0.6
 49
0.375
 74
0
 49
-0.075
 74
0
 49
0.075
 74
0
 49
-0.075
 74
0
  0
LTYPE
  5
1F6
100
AcDbSymbolTableRecord
100
AcDbLinetypeTableRecord
  2
HIDDEN
 70
64
  3
- - - - - - - - - - - - - - - - - - - -
 72
65
 73
2
 40
0.2
 49
0.1
 74
0
 49
-0.1
 74
0
  0
LTYPE
  5
1F7
100
AcDbSymbolTableRecord
100
AcDbLinetypeTableRecord
  2
PHANTOM
 70
64
  3
_____ _ _ _____ _ _ _____ _ _ _____
 72
65
 73
6
 40
0.8
 49
0.45
 74
0
 49
-0.05
 74
0
 49
0.1
 74
0
 49
-0.05
 74
0
 49
0.1
 74
0
 49
-0.05
 74
0
  0
LTYPE
  5
1F8
100
AcDbSymbolTableRecord
100
AcDbLinetypeTableRecord
  2
DOT
 70
64
  3
. . . . . . . . . . . . . . . . . . . .
 72
65
 73
2
 40
0.2
 49
0.1
 74
0
 49
-0.1
 74
0
  0
LTYPE
  5
1F9
100
AcDbSymbolTableRecord
100
AcDbLinetypeTableRecord
  2
DASHED
 70
64
  3
- - - - - - - - - - - - - - - - - - - -
 72
65
 73
2
 40
0.2
 49
0.1
 74
0
 49
-0.1
 74
0
  0
ENDTAB
  0
TABLE
  2
LAYER
  5
2
100
AcDbSymbolTable
 70
36
  0
LAYER
  5
10
100
AcDbSymbolTableRecord
100
AcDbLayerTableRecord
  2
0
 70
0
 62
7
  6
CONTINUOUS
370
-3
390
F
  0
LAYER
  5
1FA
100
AcDbSymbolTableRecord
100
AcDbLayerTableRecord
  2
DEFAULT_1
 70
0
 62
7
  6
CENTER
370
-3
390
F
  0
LAYER
  5
1FB
100
AcDbSymbolTableRecord
100
AcDbLayerTableRecord
  2
DEFAULT_2
 70
0
 62
8
  6
HIDDEN
370
-3
390
F
  0
LAYER
  5
1FC
100
AcDbSymbolTableRecord
100
AcDbLayerTableRecord
  2
DEFAULT_3
 70
0
 62
7
  6
PHANTOM
370
-3
390
F
  0
LAYER
  5
1FD
100
AcDbSymbolTableRecord
100
AcDbLayerTableRecord
  2
ACHSEN
 70
0
 62
7
  6
CONTINUOUS
370
-3
390
F
  0
LAYER
  5
1FE
100
AcDbSymbolTableRecord
100
AcDbLayerTableRecord
  2
BEZUGSACHSEN
 70
0
 62
7
  6
CONTINUOUS
370
-3
390
F
  0
LAYER
  5
1FF
100
AcDbSymbolTableRecord
100
AcDbLayerTableRecord
  2
BEZUGSEBENE_B
 70
0
 62
7
  6
CONTINUOUS
370
-3
390
F
  0
LAYER
  5
200
100
AcDbSymbolTableRecord
100
AcDbLayerTableRecord
  2
BOHRUNGEN
 70
0
 62
7
  6
CONTINUOUS
370
-3
390
F
  0
LAYER
  5
201
100
AcDbSymbolTableRecord
100
AcDbLayerTableRecord
  2
EBENEN
 70
0
 62
7
  6
CONTINUOUS
370
-3
390
F
  0
LAYER
  5
202
100
AcDbSymbolTableRecord
100
AcDbLayerTableRecord
  2
FASEN
 70
0
 62
7
  6
CONTINUOUS
370
-3
390
F
  0
LAYER
  5
203
100
AcDbSymbolTableRecord
100
AcDbLayerTableRecord
  2
FLAECHEN
 70
0
 62
7
  6
CONTINUOUS
370
-3
390
F
  0
LAYER
  5
204
100
AcDbSymbolTableRecord
100
AcDbLayerTableRecord
  2
GEWINDE
 70
0
 62
7
  6
CONTINUOUS
370
-3
390
F
  0
LAYER
  5
205
100
AcDbSymbolTableRecord
100
AcDbLayerTableRecord
  2
KOORDSYS
 70
0
 62
7
  6
CONTINUOUS
370
-3
390
F
  0
LAYER
  5
206
100
AcDbSymbolTableRecord
100
AcDbLayerTableRecord
  2
KURVEN
 70
0
 62
7
  6
CONTINUOUS
370
-3
390
F
  0
LAYER
  5
207
100
AcDbSymbolTableRecord
100
AcDbLayerTableRecord
  2
KURVE_FUER_GTOL_DETAILANSICHT
 70
0
 62
7
  6
CONTINUOUS
370
-3
390
F
  0
LAYER
  5
208
100
AcDbSymbolTableRecord
100
AcDbLayerTableRecord
  2
KURVE_GAUGE2_POLIGON_INNENEINST
 70
0
 62
7
  6
CONTINUOUS
370
-3
390
F
  0
LAYER
  5
209
100
AcDbSymbolTableRecord
100
AcDbLayerTableRecord
  2
KURVE_PHANTOM1_GAUGE_PIN_1
 70
0
 62
7
  6
CONTINUOUS
370
-3
390
F
  0
LAYER
  5
20A
100
AcDbSymbolTableRecord
100
AcDbLayerTableRecord
  2
KURVE_PHANTOM2_GAUGE_PIN1
 70
0
 62
7
  6
CONTINUOUS
370
-3
390
F
  0
LAYER
  5
20B
100
AcDbSymbolTableRecord
100
AcDbLayerTableRecord
  2
KURVE_POLIGON_BEMASUNG
 70
0
 62
7
  6
CONTINUOUS
370
-3
390
F
  0
LAYER
  5
20C
100
AcDbSymbolTableRecord
100
AcDbLayerTableRecord
  2
PUNKTE
 70
0
 62
7
  6
CONTINUOUS
370
-3
390
F
  0
LAYER
  5
20D
100
AcDbSymbolTableRecord
100
AcDbLayerTableRecord
  2
RUNDUNGEN
 70
0
 62
7
  6
CONTINUOUS
370
-3
390
F
  0
LAYER
  5
20E
100
AcDbSymbolTableRecord
100
AcDbLayerTableRecord
  2
S_ACHSEN
 70
0
 62
7
  6
CONTINUOUS
370
-3
390
F
  0
LAYER
  5
20F
100
AcDbSymbolTableRecord
100
AcDbLayerTableRecord
  2
S_EBENEN
 70
0
 62
7
  6
CONTINUOUS
370
-3
390
F
  0
LAYER
  5
210
100
AcDbSymbolTableRecord
100
AcDbLayerTableRecord
  2
S_KOORDSYS
 70
0
 62
7
  6
CONTINUOUS
370
-3
390
F
  0
LAYER
  5
211
100
AcDbSymbolTableRecord
100
AcDbLayerTableRecord
  2
TOL_BEZUEGE
 70
0
 62
7
  6
CONTINUOUS
370
-3
390
F
  0
LAYER
  5
212
100
AcDbSymbolTableRecord
100
AcDbLayerTableRecord
  2
VERBFLAECHE
 70
0
 62
7
  6
CONTINUOUS
370
-3
390
F
  0
LAYER
  5
213
100
AcDbSymbolTableRecord
100
AcDbLayerTableRecord
  2
ZEICHNUNGSBEMASSUNGEN
 70
0
 62
7
  6
CONTINUOUS
370
-3
390
F
  0
ENDTAB
  0
TABLE
  2
STYLE
  5
3
100
AcDbSymbolTable
 70
1
  0
STYLE
  5
11
100
AcDbSymbolTableRecord
100
AcDbTextStyleTableRecord
  2
STANDARD
 70
0
 40
0.0
 41
0.7
 50
0.0
 71
0
 42
0.2
  3
txt
  4

  0
STYLE
  5
214
100
AcDbSymbolTableRecord
100
AcDbTextStyleTableRecord
  2
TEXTSTYLE_1
 70
0
 40
0.0
 41
0.8
 50
0.0
 71
0
 42
0.2
  3
gdt
  4

  0
STYLE
  5
215
100
AcDbSymbolTableRecord
100
AcDbTextStyleTableRecord
  2
TEXTSTYLE_2
 70
0
 40
0.0
 41
0.7
 50
0.0
 71
0
 42
0.2
  3
gdt
  4

  0
ENDTAB
  0
TABLE
  2
VIEW
  5
6
100
AcDbSymbolTable
 70
0
  0
ENDTAB
  0
TABLE
  2
UCS
  5
7
100
AcDbSymbolTable
 70
0
  0
ENDTAB
  0
TABLE
  2
APPID
  5
9
100
AcDbSymbolTable
 70
1
  0
APPID
  5
216
100
AcDbSymbolTableRecord
100
AcDbRegAppTableRecord
  2
ACAD
 70
0
  0
ENDTAB
  0
TABLE
  2
BLOCK_RECORD
  5
1
100
AcDbSymbolTable
 70
0
  0
BLOCK_RECORD
  5
217
100
AcDbSymbolTableRecord
100
AcDbBlockTableRecord
  2
*Model_Space
  0
BLOCK_RECORD
  5
218
100
AcDbSymbolTableRecord
100
AcDbBlockTableRecord
  2
*Paper_Space
  0
BLOCK_RECORD
  5
219
100
AcDbSymbolTableRecord
100
AcDbBlockTableRecord
  2
_FILLED
  0
BLOCK_RECORD
  5
21A
100
AcDbSymbolTableRecord
100
AcDbBlockTableRecord
  2
*D0
  0
BLOCK_RECORD
  5
21B
100
AcDbSymbolTableRecord
100
AcDbBlockTableRecord
  2
*D1
  0
BLOCK_RECORD
  5
21C
100
AcDbSymbolTableRecord
100
AcDbBlockTableRecord
  2
*D2
  0
BLOCK_RECORD
  5
21D
100
AcDbSymbolTableRecord
100
AcDbBlockTableRecord
  2
*D3
  0
BLOCK_RECORD
  5
21E
100
AcDbSymbolTableRecord
100
AcDbBlockTableRecord
  2
*D4
  0
BLOCK_RECORD
  5
21F
100
AcDbSymbolTableRecord
100
AcDbBlockTableRecord
  2
*D5
  0
ENDTAB
  0
TABLE
  2
DIMSTYLE
  5
A
100
AcDbSymbolTable
 70
1
100
AcDbDimStyleTable
 71
0
  0
DIMSTYLE
105
220
100
AcDbSymbolTableRecord
100
AcDbDimStyleTableRecord
  2
STANDARD
 70
0
  3

  4

 40
1.0
 41
3.5
 42
0.0625
 43
0.38
 44
0.18
 45
0.0
 46
0.0
 47
0.005
 48
0.005
140
3.5
141
0.09
142
0.0
143
25.4
144
1.0
145
0.0
146
1.0
147
0.09
 71
1.0
 72
0.0
 73
0
 74
0
 75
0
 76
0
 77
1
 78
8
170
0
171
2
172
0
173
0
174
0
175
0
176
0
177
0
178
5
270
2
271
3
272
3
273
2
274
2
275
0
280
0
281
0
282
0
283
1
284
8
285
0
286
0
287
3
288
0
340
11
341
219
342
219
343
219
344
219
  0
DIMSTYLE
105
221
100
AcDbSymbolTableRecord
100
AcDbDimStyleTableRecord
  2
DIMSTYLE_1
 70
0
  3

  4

 40
1.0
 41
3.5
 42
0.0625
 43
0.38
 44
0.18
 45
0.0
 46
0.0
 47
0.3
 48
0.3
140
3.5
141
0.09
142
0.0
143
25.4
144
1.0
145
0.0
146
1.0
147
0.09
 71
0.0
 72
0.0
 73
0
 74
0
 75
0
 76
0
 77
1
 78
8
170
0
171
2
172
0
173
0
174
0
175
0
176
0
177
0
178
5
270
2
271
2
272
2
273
2
274
2
275
0
280
0
281
0
282
0
283
1
284
8
285
0
286
0
287
3
288
0
340
11
341
219
342
219
343
219
344
219
  0
DIMSTYLE
105
222
100
AcDbSymbolTableRecord
100
AcDbDimStyleTableRecord
  2
DIMSTYLE_2
 70
0
  3

  4

 40
1.0
 41
3.5
 42
0.0625
 43
0.38
 44
0.18
 45
0.0
 46
0.0
 47
0.5
 48
0.5
140
3.5
141
0.09
142
0.0
143
25.4
144
1.0
145
0.0
146
1.0
147
0.09
 71
0.0
 72
0.0
 73
0
 74
0
 75
0
 76
0
 77
1
 78
8
170
0
171
2
172
0
173
0
174
0
175
0
176
0
177
0
178
5
270
2
271
2
272
2
273
2
274
2
275
0
280
0
281
0
282
0
283
1
284
8
285
0
286
0
287
3
288
0
340
11
341
219
342
219
343
219
344
219
  0
DIMSTYLE
105
223
100
AcDbSymbolTableRecord
100
AcDbDimStyleTableRecord
  2
DIMSTYLE_3
 70
0
  3

  4

 40
1.0
 41
3.5
 42
0.0625
 43
0.38
 44
0.18
 45
0.0
 46
0.0
 47
0.0
 48
0.1
140
3.5
141
0.09
142
0.0
143
25.4
144
1.0
145
0.0
146
1.0
147
0.09
 71
0.0
 72
0.0
 73
0
 74
0
 75
0
 76
0
 77
1
 78
8
170
0
171
2
172
0
173
0
174
0
175
0
176
0
177
0
178
5
270
2
271
2
272
2
273
2
274
2
275
0
280
0
281
0
282
0
283
1
284
8
285
0
286
0
287
3
288
0
340
11
341
219
342
219
343
219
344
219
  0
DIMSTYLE
105
224
100
AcDbSymbolTableRecord
100
AcDbDimStyleTableRecord
  2
DIMSTYLE_4
 70
0
  3

  4

 40
1.0
 41
3.5
 42
0.0625
 43
0.38
 44
0.18
 45
0.0
 46
0.0
 47
0.02
 48
0.02
140
3.5
141
0.09
142
0.0
143
25.4
144
1.0
145
0.0
146
1.0
147
0.09
 71
0.0
 72
0.0
 73
0
 74
0
 75
0
 76
0
 77
1
 78
8
170
0
171
2
172
0
173
0
174
0
175
0
176
0
177
0
178
5
270
2
271
2
272
2
273
2
274
2
275
0
280
0
281
0
282
0
283
1
284
8
285
0
286
0
287
3
288
0
340
11
341
219
342
219
343
219
344
219
  0
ENDTAB
  0
ENDSEC
  0
SECTION
  2
BLOCKS
  0
BLOCK
  5
20
100
AcDbEntity
  8
0
100
AcDbBlockBegin
  2
*Model_Space
 70
0
 10
0.0
 20
0.0
 30
0.0
  3
*Model_Space
  1

  0
ENDBLK
  5
21
100
AcDbEntity
  8
0
100
AcDbBlockEnd
  0
BLOCK
  5
1C
100
AcDbEntity
  8
0
100
AcDbBlockBegin
  2
*Paper_Space
 70
0
 10
0.0
 20
0.0
 30
0.0
  3
*Paper_Space
  1

  0
ENDBLK
  5
1D
100
AcDbEntity
  8
0
100
AcDbBlockEnd
  0
BLOCK
  5
225
100
AcDbEntity
  8
0
100
AcDbBlockBegin
  2
_FILLED
 70
64
 10
0.0
 20
0.0
  3
_FILLED
  1

  0
SOLID
  5
226
100
AcDbEntity
  8
0
  6
BYBLOCK
 62
0
100
AcDbTrace
 10
0.0
 20
0.0
 11
-1.0
 21
0.125
 12
-1.0
 22
-0.125
 13
-1.0
 23
-0.125
  0
ENDBLK
  5
227
100
AcDbEntity
  8
0
  6
BYBLOCK
 62
0
100
AcDbBlockEnd
  0
BLOCK
  5
228
100
AcDbEntity
  8
0
100
AcDbBlockBegin
 62
2
  6
CONTINUOUS
  2
*D0
 70
65
 10
0.0
 20
0.0
  3
*D0
  1

  0
MTEXT
  5
229
100
AcDbEntity
  8
0
100
AcDbMText
 62
5
  6
CONTINUOUS
  7
STANDARD
 71
2
 72
1
 10
204.9761047954
 20
169.6173080605
 30
0.0
 11
1.0
 21
0.0
 31
0.0
 44
0.9
  1
67.4
 40
3.5
 41
10.25
  0
LINE
  5
22A
100
AcDbEntity
  8
0
100
AcDbLine
 62
2
  6
CONTINUOUS
 10
238.6761047954
 20
137.7619686682
 11
238.6761047954
 21
166.7423080605
  0
LINE
  5
22B
100
AcDbEntity
  8
0
100
AcDbLine
 62
2
  6
CONTINUOUS
 10
171.2761047954
 20
152.913653788
 11
171.2761047954
 21
166.7423080605
  0
LINE
  5
22C
100
AcDbEntity
  8
0
100
AcDbLine
 62
2
  6
CONTINUOUS
 10
238.6761047954
 20
165.2423080605
 11
204.9761047954
 21
165.2423080605
  0
LINE
  5
22D
100
AcDbEntity
  8
0
100
AcDbLine
 62
2
  6
CONTINUOUS
 10
171.2761047954
 20
165.2423080605
 11
204.9761047954
 21
165.2423080605
  0
INSERT
  5
22E
100
AcDbEntity
  8
0
100
AcDbBlockReference
 62
2
  6
CONTINUOUS
  2
_FILLED
 10
238.6761047954
 20
165.2423080605
 41
3.5
 42
3.5
 43
3.5
  0
INSERT
  5
22F
100
AcDbEntity
  8
0
100
AcDbBlockReference
 62
2
  6
CONTINUOUS
  2
_FILLED
 10
171.2761047954
 20
165.2423080605
 41
3.5
 42
3.5
 43
3.5
 50
180.0
  0
ENDBLK
  5
230
100
AcDbEntity
  8
0
  6
BYBLOCK
 62
0
100
AcDbBlockEnd
  0
BLOCK
  5
231
100
AcDbEntity
  8
0
100
AcDbBlockBegin
 62
2
  6
CONTINUOUS
  2
*D1
 70
65
 10
0.0
 20
0.0
  3
*D1
  1

  0
MTEXT
  5
232
100
AcDbEntity
  8
0
100
AcDbMText
 62
5
  6
CONTINUOUS
  7
STANDARD
 71
2
 72
1
 10
174.9761047954
 20
195.7840794173
 30
0.0
 11
1.0
 21
0.0
 31
0.0
 44
0.9
  1
127.4
 40
3.5
 41
12.25
  0
LINE
  5
233
100
AcDbEntity
  8
0
100
AcDbLine
 62
2
  6
CONTINUOUS
 10
238.6761047954
 20
138.6390200277
 11
238.6761047954
 21
181.1327066008
  0
LINE
  5
234
100
AcDbEntity
  8
0
100
AcDbLine
 62
2
  6
CONTINUOUS
 10
238.6761047954
 20
187.5453469335
 11
238.6761047954
 21
192.9090794173
  0
LINE
  5
235
100
AcDbEntity
  8
0
100
AcDbLine
 62
2
  6
CONTINUOUS
 10
111.2761047954
 20
147.9942345292
 11
111.2761047954
 21
192.9090794173
  0
LINE
  5
236
100
AcDbEntity
  8
0
100
AcDbLine
 62
2
  6
CONTINUOUS
 10
238.6761047954
 20
191.4090794173
 11
174.9761047954
 21
191.4090794173
  0
LINE
  5
237
100
AcDbEntity
  8
0
100
AcDbLine
 62
2
  6
CONTINUOUS
 10
111.2761047954
 20
191.4090794173
 11
174.9761047954
 21
191.4090794173
  0
INSERT
  5
238
100
AcDbEntity
  8
0
100
AcDbBlockReference
 62
2
  6
CONTINUOUS
  2
_FILLED
 10
238.6761047954
 20
191.4090794173
 41
3.5
 42
3.5
 43
3.5
  0
INSERT
  5
239
100
AcDbEntity
  8
0
100
AcDbBlockReference
 62
2
  6
CONTINUOUS
  2
_FILLED
 10
111.2761047954
 20
191.4090794173
 41
3.5
 42
3.5
 43
3.5
 50
180.0
  0
ENDBLK
  5
23A
100
AcDbEntity
  8
0
  6
BYBLOCK
 62
0
100
AcDbBlockEnd
  0
BLOCK
  5
23B
100
AcDbEntity
  8
0
100
AcDbBlockBegin
 62
2
  6
CONTINUOUS
  2
*D2
 70
65
 10
0.0
 20
0.0
  3
*D2
  1

  0
MTEXT
  5
23C
100
AcDbEntity
  8
0
100
AcDbMText
 62
5
  6
CONTINUOUS
  7
TEXTSTYLE_2
 71
2
 72
1
 10
266.0551428771
 20
126.3479213083
 30
0.0
 11
0.0
 21
1.0
 31
0.0
 44
0.9
  1
{\Fgdt;n}\Ftxt;22
 40
3.5
 41
10.1666666667
  0
LINE
  5
23D
100
AcDbEntity
  8
0
100
AcDbLine
 62
2
  6
CONTINUOUS
 10
224.2011047954
 20
137.3229213083
 11
237.4224238156
 21
137.3229213083
  0
LINE
  5
23E
100
AcDbEntity
  8
0
100
AcDbLine
 62
2
  6
CONTINUOUS
 10
243.0412109124
 20
137.3229213083
 11
248.9097218801
 21
137.3229213083
  0
LINE
  5
23F
100
AcDbEntity
  8
0
100
AcDbLine
 62
2
  6
CONTINUOUS
 10
252.9053038156
 20
137.3229213083
 11
271.9301428771
 21
137.3229213083
  0
LINE
  5
240
100
AcDbEntity
  8
0
100
AcDbLine
 62
2
  6
CONTINUOUS
 10
224.2011047954
 20
115.3729213083
 11
271.9301428771
 21
115.3729213083
  0
LINE
  5
241
100
AcDbEntity
  8
0
100
AcDbLine
 62
2
  6
CONTINUOUS
 10
270.4301428771
 20
137.3229213083
 11
270.4301428771
 21
126.3479213083
  0
LINE
  5
242
100
AcDbEntity
  8
0
100
AcDbLine
 62
2
  6
CONTINUOUS
 10
270.4301428771
 20
115.3729213083
 11
270.4301428771
 21
126.3479213083
  0
INSERT
  5
243
100
AcDbEntity
  8
0
100
AcDbBlockReference
 62
2
  6
CONTINUOUS
  2
_FILLED
 10
270.4301428771
 20
137.3229213083
 41
3.5
 42
3.5
 43
3.5
 50
90.0
  0
INSERT
  5
244
100
AcDbEntity
  8
0
100
AcDbBlockReference
 62
2
  6
CONTINUOUS
  2
_FILLED
 10
270.4301428771
 20
115.3729213083
 41
3.5
 42
3.5
 43
3.5
 50
270.0
  0
ENDBLK
  5
245
100
AcDbEntity
  8
0
  6
BYBLOCK
 62
0
100
AcDbBlockEnd
  0
BLOCK
  5
246
100
AcDbEntity
  8
0
100
AcDbBlockBegin
 62
2
  6
CONTINUOUS
  2
*D3
 70
65
 10
0.0
 20
0.0
  3
*D3
  1

  0
MTEXT
  5
247
100
AcDbEntity
  8
0
100
AcDbMText
 62
5
  6
CONTINUOUS
  7
STANDARD
 71
2
 72
1
 10
193.9761047954
 20
179.7266450709
 30
0.0
 11
1.0
 21
0.0
 31
0.0
 44
0.9
  1
89.4
 40
3.5
 41
10.25
  0
LINE
  5
248
100
AcDbEntity
  8
0
100
AcDbLine
 62
2
  6
CONTINUOUS
 10
238.6761047954
 20
137.1772677618
 11
238.6761047954
 21
176.8516450709
  0
LINE
  5
249
100
AcDbEntity
  8
0
100
AcDbLine
 62
2
  6
CONTINUOUS
 10
149.2761047954
 20
159.8344278827
 11
149.2761047954
 21
176.8516450709
  0
LINE
  5
24A
100
AcDbEntity
  8
0
100
AcDbLine
 62
2
  6
CONTINUOUS
 10
238.6761047954
 20
175.3516450709
 11
193.9761047954
 21
175.3516450709
  0
LINE
  5
24B
100
AcDbEntity
  8
0
100
AcDbLine
 62
2
  6
CONTINUOUS
 10
149.2761047954
 20
175.3516450709
 11
193.9761047954
 21
175.3516450709
  0
INSERT
  5
24C
100
AcDbEntity
  8
0
100
AcDbBlockReference
 62
2
  6
CONTINUOUS
  2
_FILLED
 10
238.6761047954
 20
175.3516450709
 41
3.5
 42
3.5
 43
3.5
  0
INSERT
  5
24D
100
AcDbEntity
  8
0
100
AcDbBlockReference
 62
2
  6
CONTINUOUS
  2
_FILLED
 10
149.2761047954
 20
175.3516450709
 41
3.5
 42
3.5
 43
3.5
 50
180.0
  0
ENDBLK
  5
24E
100
AcDbEntity
  8
0
  6
BYBLOCK
 62
0
100
AcDbBlockEnd
  0
BLOCK
  5
24F
100
AcDbEntity
  8
0
100
AcDbBlockBegin
 62
2
  6
CONTINUOUS
  2
*D4
 70
65
 10
0.0
 20
0.0
  3
*D4
  1

  0
MTEXT
  5
250
100
AcDbEntity
  8
0
100
AcDbMText
 62
5
  6
CONTINUOUS
  7
TEXTSTYLE_2
 71
2
 72
1
 10
257.3609738105
 20
126.3479213083
 30
0.0
 11
0.0
 21
1.0
 31
0.0
 44
0.9
  1
{\Fgdt;n}\Ftxt;16
 40
3.5
 41
9.4166666667
  0
LINE
  5
251
100
AcDbEntity
  8
0
100
AcDbLine
 62
2
  6
CONTINUOUS
 10
240.1761047954
 20
118.3479213083
 11
263.2359738105
 21
118.3479213083
  0
LINE
  5
252
100
AcDbEntity
  8
0
100
AcDbLine
 62
2
  6
CONTINUOUS
 10
240.1761047954
 20
134.3479213083
 11
263.2359738105
 21
134.3479213083
  0
LINE
  5
253
100
AcDbEntity
  8
0
100
AcDbLine
 62
2
  6
CONTINUOUS
 10
261.7359738105
 20
118.3479213083
 11
261.7359738105
 21
126.3479213083
  0
LINE
  5
254
100
AcDbEntity
  8
0
100
AcDbLine
 62
2
  6
CONTINUOUS
 10
261.7359738105
 20
134.3479213083
 11
261.7359738105
 21
126.3479213083
  0
INSERT
  5
255
100
AcDbEntity
  8
0
100
AcDbBlockReference
 62
2
  6
CONTINUOUS
  2
_FILLED
 10
261.7359738105
 20
118.3479213083
 41
3.5
 42
3.5
 43
3.5
 50
270.0
  0
INSERT
  5
256
100
AcDbEntity
  8
0
100
AcDbBlockReference
 62
2
  6
CONTINUOUS
  2
_FILLED
 10
261.7359738105
 20
134.3479213083
 41
3.5
 42
3.5
 43
3.5
 50
90.0
  0
ENDBLK
  5
257
100
AcDbEntity
  8
0
  6
BYBLOCK
 62
0
100
AcDbBlockEnd
  0
BLOCK
  5
258
100
AcDbEntity
  8
0
100
AcDbBlockBegin
 62
2
  6
CONTINUOUS
  2
*D5
 70
65
 10
0.0
 20
0.0
  3
*D5
  1

  0
MTEXT
  5
259
100
AcDbEntity
  8
0
100
AcDbMText
 62
5
  6
CONTINUOUS
  7
STANDARD
 71
2
 72
1
 10
199.2761047954
 20
188.545393996
 30
0.0
 11
1.0
 21
0.0
 31
0.0
 44
0.9
  1
100
 40
3.5
 41
7.5
  0
LINE
  5
25A
100
AcDbEntity
  8
0
100
AcDbLine
 62
2
  6
CONTINUOUS
 10
249.2761047954
 20
138.8229213083
 11
249.2761047954
 21
185.670393996
  0
LINE
  5
25B
100
AcDbEntity
  8
0
100
AcDbLine
 62
2
  6
CONTINUOUS
 10
149.2761047954
 20
159.2497269763
 11
149.2761047954
 21
185.670393996
  0
LINE
  5
25C
100
AcDbEntity
  8
0
100
AcDbLine
 62
2
  6
CONTINUOUS
 10
249.2761047954
 20
184.170393996
 11
199.2761047954
 21
184.170393996
  0
LINE
  5
25D
100
AcDbEntity
  8
0
100
AcDbLine
 62
2
  6
CONTINUOUS
 10
149.2761047954
 20
184.170393996
 11
199.2761047954
 21
184.170393996
  0
INSERT
  5
25E
100
AcDbEntity
  8
0
100
AcDbBlockReference
 62
2
  6
CONTINUOUS
  2
_FILLED
 10
249.2761047954
 20
184.170393996
 41
3.5
 42
3.5
 43
3.5
  0
INSERT
  5
25F
100
AcDbEntity
  8
0
100
AcDbBlockReference
 62
2
  6
CONTINUOUS
  2
_FILLED
 10
149.2761047954
 20
184.170393996
 41
3.5
 42
3.5
 43
3.5
 50
180.0
  0
ENDBLK
  5
260
100
AcDbEntity
  8
0
  6
BYBLOCK
 62
0
100
AcDbBlockEnd
  0
ENDSEC
  0
SECTION
  2
ENTITIES
  0
DIMENSION
  5
261
100
AcDbEntity
  8
0
100
AcDbDimension
 62
2
  6
CONTINUOUS
  2
*D0
 10
171.2761047954
 20
165.2423080605
 11
199.8511047954
 21
167.8673080605
 70
160
 71
2
 42
67.4
  3
DIMSTYLE_1
100
AcDbAlignedDimension
 13
238.6761047954
 23
137.7619686682
 14
171.2761047954
 24
152.913653788
 50
180.0
100
AcDbRotatedDimension
  0
DIMENSION
  5
262
100
AcDbEntity
  8
0
100
AcDbDimension
 62
2
  6
CONTINUOUS
  2
*D1
 10
111.2761047954
 20
191.4090794173
 11
168.8511047954
 21
194.0340794173
 70
160
 71
2
 42
127.4
  3
DIMSTYLE_2
100
AcDbAlignedDimension
 13
238.6761047954
 23
138.6390200277
 14
111.2761047954
 24
147.9942345292
 50
180.0
100
AcDbRotatedDimension
  0
DIMENSION
  5
263
100
AcDbEntity
  8
0
100
AcDbDimension
 62
2
  6
CONTINUOUS
  2
*D2
 10
270.4301428771
 20
115.3729213083
 11
268.9439966515
 21
124.0756797883
 70
160
 71
2
 42
21.95
  1
%%c<>
  3
DIMSTYLE_3
100
AcDbAlignedDimension
 13
224.2011047954
 23
137.3229213083
 14
224.2011047954
 24
115.3729213083
 50
270.0
100
AcDbRotatedDimension
  0
DIMENSION
  5
264
100
AcDbEntity
  8
0
100
AcDbDimension
 62
2
  6
CONTINUOUS
  2
*D3
 10
149.2761047954
 20
175.3516450709
 11
188.8511047954
 21
177.9766450709
 70
160
 71
2
 42
89.4
  3
DIMSTYLE_1
100
AcDbAlignedDimension
 13
238.6761047954
 23
137.1772677618
 14
149.2761047954
 24
159.8344278827
 50
180.0
100
AcDbRotatedDimension
  0
DIMENSION
  5
265
100
AcDbEntity
  8
0
100
AcDbDimension
 62
2
  6
CONTINUOUS
  2
*D4
 10
261.7359738105
 20
134.3479213083
 11
260.1658137818
 21
124.2433041627
 70
160
 71
2
 42
16.0
  1
%%c<>
  3
DIMSTYLE_4
100
AcDbAlignedDimension
 13
240.1761047954
 23
118.3479213083
 14
240.1761047954
 24
134.3479213083
 50
90.0
100
AcDbRotatedDimension
  0
DIMENSION
  5
266
100
AcDbEntity
  8
0
100
AcDbDimension
 62
2
  6
CONTINUOUS
  2
*D5
 10
149.2761047954
 20
184.170393996
 11
195.5261047954
 21
186.795393996
 70
160
 71
2
 42
100.0
  3
DIMSTYLE_1
100
AcDbAlignedDimension
 13
249.2761047954
 23
138.8229213083
 14
149.2761047954
 24
159.2497269763
 50
180.0
100
AcDbRotatedDimension
  0
MTEXT
  5
267
100
AcDbEntity
  8
0
100
AcDbMText
 62
5
  6
CONTINUOUS
  7
STANDARD
 71
1
 72
1
 10
20.6303930146
 20
90.4486632432
 30
0.0
 11
1.0
 21
0.0
 31
0.0
 44
0.9
  3
Für diese Unterlage behalten wir das Ur-\Pheberrecht. Sie darf nur für den von uns \Pbestimmten Zweck benutzt und ohne unsere \PZustimmung weder vervielfältigt noch\PDritten zugänglich gemacht werden\P \PWe own the copyright of this document. It \Pde
  1
termined and may neither be copied or \Pmade accessible to outsiders without our\Ppermission.\P \PCe plan reste notre propriété. Il ne peut\Pêtre utilisé, copié ou reproduit sans notre\Paccord.\P 
 40
3.5
 41
104.8333333333
  0
LINE
  5
268
100
AcDbEntity
  8
0
100
AcDbLine
 62
7
  6
CONTINUOUS
 10
0.0
 20
0.0
 11
0.0
 21
210.0
  0
LINE
  5
269
100
AcDbEntity
  8
0
100
AcDbLine
 62
7
  6
CONTINUOUS
 10
0.0
 20
0.0
 11
297.0
 21
0.0
  0
LINE
  5
26A
100
AcDbEntity
  8
0
100
AcDbLine
 62
7
  6
CONTINUOUS
 10
0.0
 20
210.0
 11
297.0
 21
210.0
  0
LINE
  5
26B
100
AcDbEntity
  8
0
100
AcDbLine
 62
7
  6
CONTINUOUS
 10
297.0
 20
0.0
 11
297.0
 21
210.0
  0
LINE
  5
26C
100
AcDbEntity
  8
0
100
AcDbLine
 62
7
  6
CONTINUOUS
 10
111.2761047954
 20
104.6555833154
 11
111.2761047954
 21
141.309165947
  0
LINE
  5
26D
100
AcDbEntity
  8
KURVEN
100
AcDbLine
 62
4
  6
CONTINUOUS
 10
111.2761047954
 20
103.8272431326
 11
111.2761047954
 21
145.5594952952
  0
LINE
  5
26E
100
AcDbEntity
  8
ACHSEN
100
AcDbLine
 62
7
  6
CONTINUOUS
 10
111.2761047954
 20
141.309165947
 11
111.2761047954
 21
145.0964006222
  0
LINE
  5
26F
100
AcDbEntity
  8
ACHSEN
100
AcDbLine
 62
7
  6
CONTINUOUS
 10
112.7761047954
 20
145.8449109218
 11
112.7761047954
 21
142.059165947
  0
LINE
  5
270
100
AcDbEntity
  8
0
100
AcDbLine
 62
7
  6
CONTINUOUS
 10
112.7761047954
 20
142.059165947
 11
112.7761047954
 21
103.7895579116
  0
LINE
  5
271
100
AcDbEntity
  8
ACHSEN
100
AcDbLine
 62
7
  6
CENTER
 10
133.7761047954
 20
103.4144358012
 11
133.7761047954
 21
150.5362918728
  0
LINE
  5
272
100
AcDbEntity
  8
0
100
AcDbLine
 62
7
  6
CONTINUOUS
 10
149.2761066313
 20
157.5479194009
 11
149.5761067212
 21
157.8479194548
  0
LINE
  5
273
100
AcDbEntity
  8
0
100
AcDbLine
 62
9
  6
CONTINUOUS
 10
112.7761047954
 20
142.059165947
 11
111.2761047954
 21
141.309165947
  0
LINE
  5
274
100
AcDbEntity
  8
0
100
AcDbLine
 62
7
  6
CONTINUOUS
 10
112.7761047954
 20
103.7895579116
 11
111.2761047954
 21
104.6555833154
  0
LINE
  5
275
100
AcDbEntity
  8
0
100
AcDbLine
 62
9
  6
CONTINUOUS
 10
112.7761047954
 20
105.4118055389
 11
111.2761047954
 21
106.1618055389
  0
LINE
  5
276
100
AcDbEntity
  8
0
100
AcDbLine
 62
7
  6
CONTINUOUS
 10
149.2761066313
 20
95.1479232156
 11
149.5761067212
 21
94.8479231617
  0
LINE
  5
277
100
AcDbEntity
  8
0
100
AcDbLine
 62
7
  6
CONTINUOUS
 10
147.0761678844
 20
146.9680216778
 11
147.0761678844
 21
142.8054520569
  0
LINE
  5
278
100
AcDbEntity
  8
0
100
AcDbLine
 62
7
  6
CONTINUOUS
 10
147.0761678844
 20
131.5727924389
 11
147.0761678844
 21
104.665519429
  0
LINE
  5
279
100
AcDbEntity
  8
0
100
AcDbLine
 62
9
  6
CONTINUOUS
 10
147.2811279065
 20
146.773107878
 11
147.2811279065
 21
141.032863513
  0
LINE
  5
27A
100
AcDbEntity
  8
0
100
AcDbLine
 62
9
  6
CONTINUOUS
 10
147.2811279065
 20
134.533864495
 11
147.2811279065
 21
103.4770359167
  0
LINE
  5
27B
100
AcDbEntity
  8
0
100
AcDbLine
 62
9
  6
CONTINUOUS
 10
147.9689980142
 20
103.6050280894
 11
147.9689980142
 21
104.2443646573
  0
LINE
  5
27C
100
AcDbEntity
  8
0
100
AcDbLine
 62
9
  6
CONTINUOUS
 10
147.9689980142
 20
132.762461069
 11
147.9689980142
 21
142.0369381984
  0
LINE
  5
27D
100
AcDbEntity
  8
0
100
AcDbLine
 62
9
  6
CONTINUOUS
 10
148.8811279065
 20
146.8133054471
 11
148.8811279065
 21
142.6923995952
  0
LINE
  5
27E
100
AcDbEntity
  8
0
100
AcDbLine
 62
9
  6
CONTINUOUS
 10
148.8811279065
 20
131.5308717614
 11
148.8811279065
 21
104.8204925682
  0
LINE
  5
27F
100
AcDbEntity
  8
0
100
AcDbLine
 62
7
  6
CONTINUOUS
 10
149.0761047954
 20
104.9485062916
 11
149.076008829
 21
130.9731465223
  0
LINE
  5
280
100
AcDbEntity
  8
0
100
AcDbLine
 62
7
  6
CONTINUOUS
 10
149.2761047954
 20
95.1481969778
 11
149.2761047954
 21
157.5476456387
  0
LINE
  5
281
100
AcDbEntity
  8
0
100
AcDbLine
 62
7
  6
CONTINUOUS
 10
149.5761048689
 20
94.8479213083
 11
149.5761048689
 21
157.8479213083
  0
LINE
  5
282
100
AcDbEntity
  8
0
100
AcDbLine
 62
7
  6
CONTINUOUS
 10
149.0760399436
 20
143.137495894
 11
149.0761047954
 21
148.8814061693
  0
LINE
  5
283
100
AcDbEntity
  8
0
100
AcDbLine
 62
7
  6
CONTINUOUS
 10
149.0760399436
 20
104.9377532168
 11
149.0761047954
 21
104.9545348511
  0
LINE
  5
284
100
AcDbEntity
  8
0
100
AcDbLine
 62
7
  6
CONTINUOUS
 10
171.2761047954
 20
94.8479213083
 11
149.5761048678
 21
94.8479213083
  0
LINE
  5
285
100
AcDbEntity
  8
0
100
AcDbLine
 62
7
  6
CONTINUOUS
 10
162.7374296608
 20
96.2673285479
 11
159.81477993
 21
96.2673285479
  0
LINE
  5
286
100
AcDbEntity
  8
0
100
AcDbLine
 62
9
  6
CONTINUOUS
 10
159.3817672281
 20
156.2618761547
 11
159.3817672281
 21
136.2173339272
  0
LINE
  5
287
100
AcDbEntity
  8
0
100
AcDbLine
 62
9
  6
CONTINUOUS
 10
159.3817672281
 20
116.4785086893
 11
159.3817672281
 21
96.4339664618
  0
LINE
  5
288
100
AcDbEntity
  8
0
100
AcDbLine
 62
9
  6
CONTINUOUS
 10
159.81477993
 20
156.4285140686
 11
159.81477993
 21
135.6971426228
  0
LINE
  5
289
100
AcDbEntity
  8
0
100
AcDbLine
 62
9
  6
CONTINUOUS
 10
159.81477993
 20
116.9986999937
 11
159.81477993
 21
96.2673285479
  0
LINE
  5
28A
100
AcDbEntity
  8
ACHSEN
100
AcDbLine
 62
7
  6
CENTER
 10
161.2761047954
 20
153.6462000702
 11
161.2761047954
 21
160.8479213083
  0
LINE
  5
28B
100
AcDbEntity
  8
0
100
AcDbLine
 62
9
  6
CONTINUOUS
 10
162.7374296608
 20
156.4285140686
 11
162.7374296608
 21
135.6971426228
  0
LINE
  5
28C
100
AcDbEntity
  8
0
100
AcDbLine
 62
9
  6
CONTINUOUS
 10
162.7374296608
 20
116.9986999937
 11
162.7374296608
 21
96.2673285479
  0
LINE
  5
28D
100
AcDbEntity
  8
0
100
AcDbLine
 62
9
  6
CONTINUOUS
 10
163.1704423627
 20
156.2618761547
 11
163.1704423627
 21
136.2173339272
  0
LINE
  5
28E
100
AcDbEntity
  8
0
100
AcDbLine
 62
9
  6
CONTINUOUS
 10
163.1704423627
 20
116.4785086893
 11
163.1704423627
 21
96.4339664618
  0
LINE
  5
28F
100
AcDbEntity
  8
0
100
AcDbLine
 62
9
  6
CONTINUOUS
 10
147.0761678844
 20
104.665519429
 11
112.7761047954
 21
105.4118055389
  0
LINE
  5
290
100
AcDbEntity
  8
0
100
AcDbLine
 62
7
  6
CONTINUOUS
 10
147.5291335462
 20
103.4711924329
 11
147.2811279065
 21
103.4770359167
  0
LINE
  5
291
100
AcDbEntity
  8
0
100
AcDbLine
 62
7
  6
CONTINUOUS
 10
112.7761047954
 20
103.7895579116
 11
147.2865076182
 21
102.9225364724
  0
LINE
  5
292
100
AcDbEntity
  8
0
100
AcDbLine
 62
7
  6
CONTINUOUS
 10
171.2761047954
 20
94.8479213083
 11
171.2761047954
 21
157.8479213083
  0
LINE
  5
293
100
AcDbEntity
  8
0
100
AcDbLine
 62
7
  6
CONTINUOUS
 10
147.9689980142
 20
103.6050280894
 11
147.2865076179
 21
102.9225376932
  0
LINE
  5
294
100
AcDbEntity
  8
DEFAULT_1
100
AcDbLine
 62
5
  6
CENTER
 10
249.2761047954
 20
115.3729213083
 11
231.2761047954
 21
115.3729213083
  0
LINE
  5
295
100
AcDbEntity
  8
RUNDUNGEN
100
AcDbLine
 62
7
  6
CONTINUOUS
 10
222.286891233
 20
115.3729213083
 11
181.2761047954
 21
115.3729213083
  0
LINE
  5
296
100
AcDbEntity
  8
0
100
AcDbLine
 62
7
  6
CONTINUOUS
 10
181.2761047954
 20
115.3729213083
 11
222.286891233
 21
115.3729213083
  0
LINE
  5
297
100
AcDbEntity
  8
RUNDUNGEN
100
AcDbLine
 62
7
  6
CONTINUOUS
 10
238.21422458
 20
116.8479213083
 11
224.5903183578
 21
116.8479213083
  0
LINE
  5
298
100
AcDbEntity
  8
0
100
AcDbLine
 62
7
  6
CONTINUOUS
 10
224.5903183578
 20
116.8479213083
 11
238.21422458
 21
116.8479213083
  0
LINE
  5
299
100
AcDbEntity
  8
0
100
AcDbLine
 62
7
  6
CONTINUOUS
 10
162.7374296608
 20
116.9986999937
 11
159.81477993
 21
116.9986999937
  0
LINE
  5
29A
100
AcDbEntity
  8
0
100
AcDbLine
 62
2
  6
CONTINUOUS
 10
226.1761047954
 20
117.3479213083
 11
238.5028997146
 21
117.3479213083
  0
LINE
  5
29B
100
AcDbEntity
  8
DEFAULT_1
100
AcDbLine
 62
5
  6
CENTER
 10
238.5028997146
 20
117.3479213083
 11
245.7961047954
 21
117.3479213083
  0
LINE
  5
29C
100
AcDbEntity
  8
DEFAULT_2
100
AcDbLine
 62
8
  6
HIDDEN
 10
219.9982592741
 20
120.9729213083
 11
209.6761047954
 21
120.9729213083
  0
LINE
  5
29D
100
AcDbEntity
  8
RUNDUNGEN
100
AcDbLine
 62
9
  6
CONTINUOUS
 10
181.2761047954
 20
137.3229213083
 11
181.2761047954
 21
115.3729213083
  0
LINE
  5
29E
100
AcDbEntity
  8
FASEN
100
AcDbLine
 62
8
  6
HIDDEN
 10
238.180970761
 20
134.2783347578
 11
219.9982592741
 21
131.7229213083
  0
LINE
  5
29F
100
AcDbEntity
  8
DEFAULT_2
100
AcDbLine
 62
8
  6
HIDDEN
 10
219.9982592741
 20
131.7229213083
 11
238.180970761
 21
134.2783347578
  0
LINE
  5
2A0
100
AcDbEntity
  8
S_ACHSEN
100
AcDbLine
 62
7
  6
CENTER
 10
108.2761047954
 20
126.3479213083
 11
252.2761047954
 21
126.3479213083
  0
LINE
  5
2A1
100
AcDbEntity
  8
FASEN
100
AcDbLine
 62
8
  6
HIDDEN
 10
238.180970761
 20
118.4175078587
 11
219.9982592741
 21
120.9729213083
  0
LINE
  5
2A2
100
AcDbEntity
  8
DEFAULT_2
100
AcDbLine
 62
8
  6
HIDDEN
 10
219.9982592741
 20
120.9729213083
 11
238.180970761
 21
118.4175078587
  0
LINE
  5
2A3
100
AcDbEntity
  8
0
100
AcDbLine
 62
9
  6
CONTINUOUS
 10
111.2761047954
 20
131.5727924389
 11
147.0761678844
 21
131.5727924389
  0
LINE
  5
2A4
100
AcDbEntity
  8
DEFAULT_2
100
AcDbLine
 62
8
  6
HIDDEN
 10
219.9982592741
 20
131.7229213083
 11
209.6761047954
 21
131.7229213083
  0
LINE
  5
2A5
100
AcDbEntity
  8
0
100
AcDbLine
 62
7
  6
CONTINUOUS
 10
147.2811279065
 20
134.533864495
 11
147.5291335462
 21
134.5348787509
  0
LINE
  5
2A6
100
AcDbEntity
  8
0
100
AcDbLine
 62
2
  6
CONTINUOUS
 10
226.1761047954
 20
135.3479213083
 11
238.5028997146
 21
135.3479213083
  0
LINE
  5
2A7
100
AcDbEntity
  8
DEFAULT_1
100
AcDbLine
 62
5
  6
CENTER
 10
238.5028997146
 20
135.3479213083
 11
245.7961047954
 21
135.3479213083
  0
LINE
  5
2A8
100
AcDbEntity
  8
0
100
AcDbLine
 62
7
  6
CONTINUOUS
 10
162.7374296608
 20
135.6971426228
 11
159.81477993
 21
135.6971426228
  0
LINE
  5
2A9
100
AcDbEntity
  8
0
100
AcDbLine
 62
7
  6
CONTINUOUS
 10
224.5903183578
 20
135.8479213083
 11
238.21422458
 21
135.8479213083
  0
LINE
  5
2AA
100
AcDbEntity
  8
0
100
AcDbLine
 62
7
  6
CONTINUOUS
 10
181.2761047954
 20
137.3229213083
 11
222.286891233
 21
137.3229213083
  0
LINE
  5
2AB
100
AcDbEntity
  8
DEFAULT_1
100
AcDbLine
 62
5
  6
CENTER
 10
231.2761047954
 20
137.3229213083
 11
249.2761047954
 21
137.3229213083
  0
LINE
  5
2AC
100
AcDbEntity
  8
0
100
AcDbLine
 62
9
  6
CONTINUOUS
 10
112.7761047954
 20
142.059165947
 11
147.0761678844
 21
142.8054520569
  0
LINE
  5
2AD
100
AcDbEntity
  8
0
100
AcDbLine
 62
7
  6
CONTINUOUS
 10
147.5291335462
 20
141.0376927409
 11
147.2811279065
 21
141.032863513
  0
LINE
  5
2AE
100
AcDbEntity
  8
0
100
AcDbLine
 62
7
  6
CONTINUOUS
 10
147.2811279065
 20
146.773107878
 11
148.8811279065
 21
146.8133054471
  0
LINE
  5
2AF
100
AcDbEntity
  8
0
100
AcDbLine
 62
7
  6
CONTINUOUS
 10
119.5397095495
 20
146.2762099984
 11
129.3261047954
 21
146.5220783105
  0
LINE
  5
2B0
100
AcDbEntity
  8
0
100
AcDbLine
 62
7
  6
CONTINUOUS
 10
138.4554661286
 20
146.7514396437
 11
147.0761678844
 21
146.9680216778
  0
LINE
  5
2B1
100
AcDbEntity
  8
DEFAULT_2
100
AcDbLine
 62
8
  6
HIDDEN
 10
209.6761047954
 20
131.7229213083
 11
209.6761047954
 21
120.9729213083
  0
LINE
  5
2B2
100
AcDbEntity
  8
RUNDUNGEN
100
AcDbLine
 62
7
  6
CONTINUOUS
 10
223.8832115766
 20
116.5550280894
 11
222.9939980142
 21
115.6658145271
  0
LINE
  5
2B3
100
AcDbEntity
  8
0
100
AcDbLine
 62
7
  6
CONTINUOUS
 10
222.9939980142
 20
115.6658145271
 11
223.8832115766
 21
116.5550280894
  0
LINE
  5
2B4
100
AcDbEntity
  8
DEFAULT_2
100
AcDbLine
 62
8
  6
HIDDEN
 10
219.9982592741
 20
131.7229213083
 11
219.9982592741
 21
120.9729213083
  0
LINE
  5
2B5
100
AcDbEntity
  8
0
100
AcDbLine
 62
7
  6
CONTINUOUS
 10
162.7374296608
 20
156.4285140686
 11
159.81477993
 21
156.4285140686
  0
LINE
  5
2B6
100
AcDbEntity
  8
0
100
AcDbLine
 62
7
  6
CONTINUOUS
 10
171.2761047954
 20
157.8479213083
 11
166.4978656244
 21
157.8479213083
  0
LINE
  5
2B7
100
AcDbEntity
  8
0
100
AcDbLine
 62
7
  6
CONTINUOUS
 10
156.0543434844
 20
157.8479213083
 11
149.5761048678
 21
157.8479213083
  0
LINE
  5
2B8
100
AcDbEntity
  8
RUNDUNGEN
100
AcDbLine
 62
9
  6
CONTINUOUS
 10
222.286891233
 20
115.3729213083
 11
222.286891233
 21
137.3229213083
  0
LINE
  5
2B9
100
AcDbEntity
  8
RUNDUNGEN
100
AcDbLine
 62
9
  6
CONTINUOUS
 10
222.9939980142
 20
115.6658145271
 11
222.9939980142
 21
137.0300280894
  0
LINE
  5
2BA
100
AcDbEntity
  8
RUNDUNGEN
100
AcDbLine
 62
9
  6
CONTINUOUS
 10
223.8832115766
 20
136.1408145271
 11
223.8832115766
 21
116.5550280894
  0
LINE
  5
2BB
100
AcDbEntity
  8
RUNDUNGEN
100
AcDbLine
 62
9
  6
CONTINUOUS
 10
224.5903183578
 20
135.8479213083
 11
224.5903183578
 21
116.8479213083
  0
LINE
  5
2BC
100
AcDbEntity
  8
0
100
AcDbLine
 62
7
  6
CONTINUOUS
 10
226.1761047954
 20
135.8479213083
 11
226.1761047954
 21
116.8479213083
  0
LINE
  5
2BD
100
AcDbEntity
  8
RUNDUNGEN
100
AcDbLine
 62
7
  6
CONTINUOUS
 10
223.8832115766
 20
136.1408145271
 11
222.9939980142
 21
137.0300280894
  0
LINE
  5
2BE
100
AcDbEntity
  8
0
100
AcDbLine
 62
7
  6
CONTINUOUS
 10
222.9939980142
 20
137.0300280894
 11
223.8832115766
 21
136.1408145271
  0
LINE
  5
2BF
100
AcDbEntity
  8
DEFAULT_1
100
AcDbLine
 62
5
  6
CENTER
 10
231.2761047954
 20
115.3729213083
 11
231.2761047954
 21
116.8479213083
  0
LINE
  5
2C0
100
AcDbEntity
  8
DEFAULT_1
100
AcDbLine
 62
5
  6
CENTER
 10
231.2761047954
 20
135.8479213083
 11
231.2761047954
 21
137.3229213083
  0
LINE
  5
2C1
100
AcDbEntity
  8
FASEN
100
AcDbLine
 62
7
  6
CONTINUOUS
 10
238.6761047993
 20
117.647921315
 11
238.2142245843
 21
116.8479213156
  0
LINE
  5
2C2
100
AcDbEntity
  8
FASEN
100
AcDbLine
 62
7
  6
CONTINUOUS
 10
238.6761047988
 20
135.0479213022
 11
238.2142245838
 21
135.8479213017
  0
LINE
  5
2C3
100
AcDbEntity
  8
FASEN
100
AcDbLine
 62
7
  6
CONTINUOUS
 10
238.21422458
 20
116.8479213083
 11
238.21422458
 21
135.8479213083
  0
LINE
  5
2C4
100
AcDbEntity
  8
0
100
AcDbLine
 62
7
  6
CONTINUOUS
 10
238.5028997146
 20
135.3479213083
 11
238.5028997146
 21
117.3479213083
  0
LINE
  5
2C5
100
AcDbEntity
  8
FASEN
100
AcDbLine
 62
7
  6
CONTINUOUS
 10
238.6761047954
 20
117.6479213088
 11
238.6761047954
 21
135.0479213078
  0
LINE
  5
2C6
100
AcDbEntity
  8
DEFAULT_1
100
AcDbLine
 62
5
  6
CENTER
 10
245.7961047954
 20
117.3479213083
 11
245.7961047954
 21
135.3479213083
  0
LINE
  5
2C7
100
AcDbEntity
  8
DEFAULT_1
100
AcDbLine
 62
5
  6
CENTER
 10
249.2761047954
 20
137.3229213083
 11
249.2761047954
 21
115.3729213083
  0
ARC
  5
2C8
100
AcDbEntity
  8
0
100
AcDbCircle
 62
7
  6
CONTINUOUS
 10
40.5240936007
 20
107.0384324791
 40
110.4813700645
100
AcDbArc
 50
13.4640903998
 51
14.4111621352
  0
ARC
  5
2C9
100
AcDbEntity
  8
0
100
AcDbCircle
 62
7
  6
CONTINUOUS
 10
148.6761047954
 20
102.8979213083
 40
1.0
100
AcDbArc
 50
53.0400606802
 51
135.0
  0
ARC
  5
2CA
100
AcDbEntity
  8
0
100
AcDbCircle
 62
7
  6
CONTINUOUS
 10
148.6761047954
 20
149.7979213083
 40
1.0
100
AcDbArc
 50
293.5781784782
 51
306.9599393198
  0
ARC
  5
2CB
100
AcDbEntity
  8
0
100
AcDbCircle
 62
7
  6
CONTINUOUS
 10
148.8761047954
 20
147.0132423581
 40
0.2
100
AcDbArc
 50
271.439166666
 51
360.0
  0
ARC
  5
2CC
100
AcDbEntity
  8
0
100
AcDbCircle
 62
7
  6
CONTINUOUS
 10
147.2761047954
 20
146.973044789
 40
0.2
100
AcDbArc
 50
181.439166666
 51
271.439166666
  0
ARC
  5
2CD
100
AcDbEntity
  8
ACHSEN
100
AcDbCircle
 62
7
  6
CONTINUOUS
 10
47.5178878176
 20
274.7438608605
 40
144.4768984246
100
AcDbArc
 50
296.187103939
 51
296.8519184685
  0
ARC
  5
2CE
100
AcDbEntity
  8
FASEN
100
AcDbCircle
 62
7
  6
CONTINUOUS
 10
161.5643725059
 20
190.6686181696
 40
33.2801264851
100
AcDbArc
 50
260.5371369486
 51
261.5260715196
  0
ARC
  5
2CF
100
AcDbEntity
  8
FASEN
100
AcDbCircle
 62
7
  6
CONTINUOUS
 10
160.987126825
 20
190.667322065
 40
33.278953015
100
AcDbArc
 50
278.4787789279
 51
278.9330490983
  0
ARC
  5
2D0
100
AcDbEntity
  8
FASEN
100
AcDbCircle
 62
7
  6
CONTINUOUS
 10
161.2367332206
 20
188.942788992
 40
31.5364662836
100
AcDbArc
 50
270.0715307046
 51
278.4922090727
  0
ARC
  5
2D1
100
AcDbEntity
  8
FASEN
100
AcDbCircle
 62
7
  6
CONTINUOUS
 10
161.2889528036
 20
188.5880081759
 40
31.1816635376
100
AcDbArc
 50
261.4632582379
 51
269.9763920015
  0
ARC
  5
2D2
100
AcDbEntity
  8
0
100
AcDbCircle
 62
7
  6
CONTINUOUS
 10
293.510277566
 20
77.3737234387
 40
159.2595221537
100
AcDbArc
 50
156.0446773748
 51
156.4374589831
  0
ARC
  5
2D3
100
AcDbEntity
  8
RUNDUNGEN
100
AcDbCircle
 62
7
  6
CONTINUOUS
 10
181.2761047954
 20
147.3229213083
 40
10.0
100
AcDbArc
 50
180.0000000007
 51
270.0
  0
ARC
  5
2D4
100
AcDbEntity
  8
RUNDUNGEN
100
AcDbCircle
 62
7
  6
CONTINUOUS
 10
181.2761047954
 20
105.3729213083
 40
10.0
100
AcDbArc
 50
90.0
 51
179.9999999983
  0
ARC
  5
2D5
100
AcDbEntity
  8
RUNDUNGEN
100
AcDbCircle
 62
7
  6
CONTINUOUS
 10
224.5903183578
 20
136.8479213083
 40
1.0
100
AcDbArc
 50
224.9999999602
 51
270.0
  0
ARC
  5
2D6
100
AcDbEntity
  8
RUNDUNGEN
100
AcDbCircle
 62
7
  6
CONTINUOUS
 10
224.5903183578
 20
115.8479213083
 40
1.0
100
AcDbArc
 50
90.0
 51
135.0000000186
  0
ARC
  5
2D7
100
AcDbEntity
  8
RUNDUNGEN
100
AcDbCircle
 62
7
  6
CONTINUOUS
 10
222.286891233
 20
116.3729213083
 40
1.0
100
AcDbArc
 50
270.0000000019
 51
315.0000000215
  0
ARC
  5
2D8
100
AcDbEntity
  8
RUNDUNGEN
100
AcDbCircle
 62
7
  6
CONTINUOUS
 10
222.286891233
 20
136.3229213083
 40
1.0
100
AcDbArc
 50
44.9999999785
 51
89.9999999981
  0
LINE
  5
2D9
100
AcDbEntity
  8
FASEN
100
AcDbLine
 62
7
  6
CONTINUOUS
 10
156.0928435413
 20
157.8413552674
 11
156.0536637905
 21
157.8478857398
  0
LINE
  5
2DA
100
AcDbEntity
  8
FASEN
100
AcDbLine
 62
7
  6
CONTINUOUS
 10
166.459366616
 20
157.8413553743
 11
166.4985457068
 21
157.8478857369
  0
LINE
  5
2DB
100
AcDbEntity
  8
ACHSEN
100
AcDbLine
 62
7
  6
CONTINUOUS
 10
117.6261047954
 20
145.9519726069
 11
112.7761047954
 21
145.8449109218
  0
LINE
  5
2DC
100
AcDbEntity
  8
ACHSEN
100
AcDbLine
 62
7
  6
CONTINUOUS
 10
119.5397241433
 20
146.2744733841
 11
119.5546750814
 21
146.2765791135
  0
SPLINE
  5
2DD
100
AcDbEntity
  8
ACHSEN
100
AcDbSpline
 62
7
  6
CONTINUOUS
 70
0
 71
3
 72
10
 73
6
 74
0
 42
0.0000001
 43
0.0000001
 44
0.0000000001
 40
0.0
 40
0.0
 40
0.0
 40
0.0
 40
0.0929965444
 40
0.3287693884
 40
1.0
 40
1.0
 40
1.0
 40
1.0
 10
119.554675081
 20
146.2765791135
 30
0.0
 10
119.494573506
 20
146.2685956161
 30
0.0
 10
119.2825210757
 20
146.2372789487
 30
0.0
 10
118.6378235633
 20
146.1403314469
 30
0.0
 10
118.0555223161
 20
146.0362611536
 30
0.0
 10
117.6261047954
 20
145.9519726069
 30
0.0
  0
SPLINE
  5
2DE
100
AcDbEntity
  8
ACHSEN
100
AcDbSpline
 62
7
  6
CONTINUOUS
 70
0
 71
3
 72
11
 73
7
 74
0
 42
0.0000001
 43
0.0000001
 44
0.0000000001
 40
0.0
 40
0.0
 40
0.0
 40
0.0
 40
0.1537099379
 40
0.500508937
 40
0.8472910559
 40
1.0
 40
1.0
 40
1.0
 40
1.0
 10
138.4554661286
 20
146.7514396437
 30
0.0
 10
137.9918808595
 20
146.6801626889
 30
0.0
 10
136.4776485453
 20
146.4761049165
 30
0.0
 10
133.8948741178
 20
146.2905958846
 30
0.0
 10
131.3088280879
 20
146.3435431034
 30
0.0
 10
129.7895389051
 20
146.4733095961
 30
0.0
 10
129.3261047954
 20
146.5220783105
 30
0.0
  0
SPLINE
  5
2DF
100
AcDbEntity
  8
FASEN
100
AcDbSpline
 62
7
  6
CONTINUOUS
 70
0
 71
3
 72
14
 73
10
 74
0
 42
0.0000001
 43
0.0000001
 44
0.0000000001
 40
0.0
 40
0.0
 40
0.0
 40
0.0
 40
0.0157912378
 40
0.0631426869
 40
0.1420509432
 40
0.2523667506
 40
0.3937142614
 40
0.5656985082
 40
1.0
 40
1.0
 40
1.0
 40
1.0
 10
166.4985457061
 20
157.8478857372
 30
0.0
 10
166.4967299195
 20
157.848141429
 30
0.0
 10
166.4895140533
 20
157.8455829208
 30
0.0
 10
166.4732268232
 20
157.8441809228
 30
0.0
 10
166.446138428
 20
157.8389187805
 30
0.0
 10
166.4082670877
 20
157.8329556053
 30
0.0
 10
166.3597273199
 20
157.8248382929
 30
0.0
 10
166.2740373487
 20
157.8109559159
 30
0.0
 10
166.2045107482
 20
157.7998557917
 30
0.0
 10
166.1546903424
 20
157.7920273733
 30
0.0
  0
SPLINE
  5
2E0
100
AcDbEntity
  8
0
100
AcDbSpline
 62
7
  6
CONTINUOUS
 70
0
 71
3
 72
9
 73
5
 74
0
 42
0.0000001
 43
0.0000001
 44
0.0000000001
 40
0.0
 40
0.0
 40
0.0
 40
0.0
 40
0.1680195226
 40
1.0
 40
1.0
 40
1.0
 40
1.0
 10
163.1704423627
 20
96.4339664618
 30
0.0
 10
163.1535940896
 20
96.4136463459
 30
0.0
 10
163.0381408071
 20
96.3051653696
 30
0.0
 10
162.8681365721
 20
96.2673285479
 30
0.0
 10
162.7374296608
 20
96.2673285479
 30
0.0
  0
SPLINE
  5
2E1
100
AcDbEntity
  8
0
100
AcDbSpline
 62
7
  6
CONTINUOUS
 70
0
 71
3
 72
12
 73
8
 74
0
 42
0.0000001
 43
0.0000001
 44
0.0000000001
 40
0.0
 40
0.0
 40
0.0
 40
0.0
 40
0.2460454262
 40
0.4936983158
 40
0.7439199328
 40
0.8713555617
 40
1.0
 40
1.0
 40
1.0
 40
1.0
 10
159.3817672281
 20
116.4785086893
 30
0.0
 10
159.3973450406
 20
116.5354542391
 30
0.0
 10
159.4350270603
 20
116.6482147445
 30
0.0
 10
159.5164028082
 20
116.8077314125
 30
0.0
 10
159.61580742
 20
116.9244589453
 30
0.0
 10
159.7220032364
 20
116.9864067837
 30
0.0
 10
159.7839121062
 20
116.9986999937
 30
0.0
 10
159.81477993
 20
116.9986999937
 30
0.0
  0
SPLINE
  5
2E2
100
AcDbEntity
  8
0
100
AcDbSpline
 62
7
  6
CONTINUOUS
 70
0
 71
3
 72
9
 73
5
 74
0
 42
0.0000001
 43
0.0000001
 44
0.0000000001
 40
0.0
 40
0.0
 40
0.0
 40
0.0
 40
0.3641598889
 40
1.0
 40
1.0
 40
1.0
 40
1.0
 10
159.81477993
 20
96.2673285479
 30
0.0
 10
159.7574035081
 20
96.2673285479
 30
0.0
 10
159.6012171751
 20
96.2834476419
 30
0.0
 10
159.4457111844
 20
96.3568458808
 30
0.0
 10
159.3817672281
 20
96.4339664618
 30
0.0
  0
SPLINE
  5
2E3
100
AcDbEntity
  8
0
100
AcDbSpline
 62
7
  6
CONTINUOUS
 70
0
 71
3
 72
9
 73
5
 74
0
 42
0.0000001
 43
0.0000001
 44
0.0000000001
 40
0.0
 40
0.0
 40
0.0
 40
0.0
 40
0.3642526053
 40
1.0
 40
1.0
 40
1.0
 40
1.0
 10
162.7374296608
 20
156.4285140686
 30
0.0
 10
162.7948210673
 20
156.4285140686
 30
0.0
 10
162.9510105258
 20
156.4123995131
 30
0.0
 10
163.1065073111
 20
156.3389859959
 30
0.0
 10
163.1704423627
 20
156.2618761547
 30
0.0
  0
SPLINE
  5
2E4
100
AcDbEntity
  8
0
100
AcDbSpline
 62
7
  6
CONTINUOUS
 70
0
 71
3
 72
12
 73
8
 74
0
 42
0.0000001
 43
0.0000001
 44
0.0000000001
 40
0.0
 40
0.0
 40
0.0
 40
0.0
 40
0.2460280129
 40
0.4936634005
 40
0.7438647573
 40
0.8713194616
 40
1.0
 40
1.0
 40
1.0
 40
1.0
 10
163.1704423627
 20
136.2173339272
 30
0.0
 10
163.1548656757
 20
136.1603924919
 30
0.0
 10
163.1171891805
 20
136.0476373172
 30
0.0
 10
163.0358127265
 20
135.8881434765
 30
0.0
 10
162.9364429474
 20
135.7713804172
 30
0.0
 10
162.8302209233
 20
135.709467109
 30
0.0
 10
162.768306101
 20
135.6971426228
 30
0.0
 10
162.7374296608
 20
135.6971426228
 30
0.0
  0
SPLINE
  5
2E5
100
AcDbEntity
  8
0
100
AcDbSpline
 62
7
  6
CONTINUOUS
 70
0
 71
3
 72
9
 73
5
 74
0
 42
0.0000001
 43
0.0000001
 44
0.0000000001
 40
0.0
 40
0.0
 40
0.0
 40
0.0
 40
0.1680322176
 40
1.0
 40
1.0
 40
1.0
 40
1.0
 10
159.3817672281
 20
156.2618761547
 30
0.0
 10
159.398616787
 20
156.2821978215
 30
0.0
 10
159.5140713638
 20
156.3906778536
 30
0.0
 10
159.6840749129
 20
156.4285140686
 30
0.0
 10
159.81477993
 20
156.4285140686
 30
0.0
  0
SPLINE
  5
2E6
100
AcDbEntity
  8
0
100
AcDbSpline
 62
7
  6
CONTINUOUS
 70
0
 71
3
 72
12
 73
8
 74
0
 42
0.0000001
 43
0.0000001
 44
0.0000000001
 40
0.0
 40
0.0
 40
0.0
 40
0.0
 40
0.1286448926
 40
0.256081
 40
0.5063027424
 40
0.7539549585
 40
1.0
 40
1.0
 40
1.0
 40
1.0
 10
159.81477993
 20
135.6971426228
 30
0.0
 10
159.7839119985
 20
135.6971426228
 30
0.0
 10
159.7220030042
 20
135.7094362466
 30
0.0
 10
159.6158067069
 20
135.7713837102
 30
0.0
 10
159.5164027249
 20
135.8881119122
 30
0.0
 10
159.4350268785
 20
136.0476281503
 30
0.0
 10
159.3973450156
 20
136.1603884689
 30
0.0
 10
159.3817672281
 20
136.2173339272
 30
0.0
  0
SPLINE
  5
2E7
100
AcDbEntity
  8
0
100
AcDbSpline
 62
7
  6
CONTINUOUS
 70
0
 71
3
 72
13
 73
9
 74
0
 42
0.0000001
 43
0.0000001
 44
0.0000000001
 40
0.0
 40
0.0
 40
0.0
 40
0.0
 40
0.286526882
 40
0.4543474408
 40
0.5599589325
 40
0.648267425
 40
0.8182504149
 40
1.0
 40
1.0
 40
1.0
 40
1.0
 10
148.8811279065
 20
104.8204925682
 30
0.0
 10
148.9065141904
 20
104.8097918762
 30
0.0
 10
148.9492393998
 20
104.7969929537
 30
0.0
 10
149.004429293
 20
104.8011968201
 30
0.0
 10
149.0356143537
 20
104.8184828959
 30
0.0
 10
149.0586766585
 20
104.8454945365
 30
0.0
 10
149.07291545
 20
104.8864731235
 30
0.0
 10
149.075695124
 20
104.9202900698
 30
0.0
 10
149.0760185887
 20
104.9377621831
 30
0.0
  0
SPLINE
  5
2E8
100
AcDbEntity
  8
0
100
AcDbSpline
 62
7
  6
CONTINUOUS
 70
0
 71
3
 72
17
 73
13
 74
0
 42
0.0000001
 43
0.0000001
 44
0.0000000001
 40
0.0
 40
0.0
 40
0.0
 40
0.0
 40
0.125135549
 40
0.2502986125
 40
0.3754807531
 40
0.5006727147
 40
0.6258456077
 40
0.6884746641
 40
0.7511065344
 40
0.8746656069
 40
0.9373062378
 40
1.0
 40
1.0
 40
1.0
 40
1.0
 10
147.9689980142
 20
132.762461069
 30
0.0
 10
147.9860663578
 20
132.6911347604
 30
0.0
 10
148.0223329197
 20
132.5489610789
 30
0.0
 10
148.0843793933
 20
132.337767569
 30
0.0
 10
148.1559605524
 20
132.1295298791
 30
0.0
 10
148.2403006074
 20
131.926027271
 30
0.0
 10
148.325469961
 20
131.7631443762
 30
0.0
 10
148.4091243674
 20
131.6418328285
 30
0.0
 10
148.5039594878
 20
131.532505676
 30
0.0
 10
148.6385678699
 20
131.4464295373
 30
0.0
 10
148.7890949015
 20
131.4680224257
 30
0.0
 10
148.8524027207
 20
131.5079593801
 30
0.0
 10
148.8811279065
 20
131.5308717614
 30
0.0
  0
SPLINE
  5
2E9
100
AcDbEntity
  8
0
100
AcDbSpline
 62
7
  6
CONTINUOUS
 70
0
 71
3
 72
13
 73
9
 74
0
 42
0.0000001
 43
0.0000001
 44
0.0000000001
 40
0.0
 40
0.0
 40
0.0
 40
0.0
 40
0.1670510693
 40
0.3289369806
 40
0.4609641718
 40
0.578209763
 40
0.7939442568
 40
1.0
 40
1.0
 40
1.0
 40
1.0
 10
148.8811279065
 20
142.6923995952
 30
0.0
 10
148.8166944557
 20
142.7166347002
 30
0.0
 10
148.6774934628
 20
142.7385690427
 30
0.0
 10
148.4908854745
 20
142.6820928705
 30
0.0
 10
148.3494244363
 20
142.5865294158
 30
0.0
 10
148.211895839
 20
142.4521619468
 30
0.0
 10
148.0824761345
 20
142.2697896882
 30
0.0
 10
148.0034761679
 20
142.114537447
 30
0.0
 10
147.9689980142
 20
142.0369381984
 30
0.0
  0
SPLINE
  5
2EA
100
AcDbEntity
  8
0
100
AcDbSpline
 62
7
  6
CONTINUOUS
 70
0
 71
3
 72
16
 73
12
 74
0
 42
0.0000001
 43
0.0000001
 44
0.0000000001
 40
0.0
 40
0.0
 40
0.0
 40
0.0
 40
0.0735401093
 40
0.1545841369
 40
0.2292313659
 40
0.2978973002
 40
0.4259913051
 40
0.5473045002
 40
0.6644420892
 40
0.7785599955
 40
1.0
 40
1.0
 40
1.0
 40
1.0
 10
148.8811279065
 20
142.6923995952
 30
0.0
 10
148.8935797253
 20
142.6877161407
 30
0.0
 10
148.9227299659
 20
142.6836356318
 30
0.0
 10
148.9621995195
 20
142.7018776419
 30
0.0
 10
148.9897609856
 20
142.7322809934
 30
0.0
 10
149.0156568985
 20
142.7741584258
 30
0.0
 10
149.0367366843
 20
142.8280903614
 30
0.0
 10
149.0532655258
 20
142.8923612523
 30
0.0
 10
149.0640814728
 20
142.9552797652
 30
0.0
 10
149.0731696395
 20
143.0366948949
 30
0.0
 10
149.0756755066
 20
143.0974317494
 30
0.0
 10
149.0760185887
 20
143.1374889957
 30
0.0
  0
SPLINE
  5
2EB
100
AcDbEntity
  8
0
100
AcDbSpline
 62
7
  6
CONTINUOUS
 70
0
 71
3
 72
9
 73
5
 74
0
 42
0.0000001
 43
0.0000001
 44
0.0000000001
 40
0.0
 40
0.0
 40
0.0
 40
0.0
 40
0.2573720101
 40
1.0
 40
1.0
 40
1.0
 40
1.0
 10
147.9689980142
 20
104.2443646573
 30
0.0
 10
147.933858626
 20
104.1766093632
 30
0.0
 10
147.7948704905
 20
103.9146377122
 30
0.0
 10
147.6458869999
 20
103.6579285621
 30
0.0
 10
147.5291335462
 20
103.4711924329
 30
0.0
  0
SPLINE
  5
2EC
100
AcDbEntity
  8
0
100
AcDbSpline
 62
7
  6
CONTINUOUS
 70
0
 71
3
 72
17
 73
13
 74
0
 42
0.0000001
 43
0.0000001
 44
0.0000000001
 40
0.0
 40
0.0
 40
0.0
 40
0.0
 40
0.2841775711
 40
0.4146661432
 40
0.5373502072
 40
0.652341305
 40
0.7602377654
 40
0.8121867936
 40
0.8638391814
 40
0.9180398508
 40
0.9497831112
 40
1.0
 40
1.0
 40
1.0
 40
1.0
 10
147.0761678844
 20
104.665519429
 30
0.0
 10
147.0761678844
 20
104.5459459917
 30
0.0
 10
147.0760250711
 20
104.371463332
 30
0.0
 10
147.0784050663
 20
104.145373248
 30
0.0
 10
147.0830246341
 20
103.9905037457
 30
0.0
 10
147.0929522113
 20
103.8454046247
 30
0.0
 10
147.1090665267
 20
103.730643151
 30
0.0
 10
147.1310349286
 20
103.6442660576
 30
0.0
 10
147.1543390558
 20
103.5819664387
 30
0.0
 10
147.1844737553
 20
103.531621417
 30
0.0
 10
147.2255633033
 20
103.4913741516
 30
0.0
 10
147.2600040018
 20
103.4775336373
 30
0.0
 10
147.2811279065
 20
103.4770359167
 30
0.0
  0
SPLINE
  5
2ED
100
AcDbEntity
  8
0
100
AcDbSpline
 62
7
  6
CONTINUOUS
 70
0
 71
3
 72
8
 73
4
 74
0
 42
0.0000001
 43
0.0000001
 44
0.0000000001
 40
0.0
 40
0.0
 40
0.0
 40
0.0
 40
1.0
 40
1.0
 40
1.0
 40
1.0
 10
149.075982842
 20
130.9731439682
 30
0.0
 10
149.0756519079
 20
131.0206726759
 30
0.0
 10
149.0744693927
 20
131.0682130848
 30
0.0
 10
149.0719654209
 20
131.1156769415
 30
0.0
  0
SPLINE
  5
2EE
100
AcDbEntity
  8
0
100
AcDbSpline
 62
7
  6
CONTINUOUS
 70
0
 71
3
 72
15
 73
11
 74
0
 42
0.0000001
 43
0.0000001
 44
0.0000000001
 40
0.0
 40
0.0
 40
0.0
 40
0.0
 40
0.2532162989
 40
0.3790219793
 40
0.5040739368
 40
0.6282014989
 40
0.7508575768
 40
0.8716570132
 40
0.9343432508
 40
1.0
 40
1.0
 40
1.0
 40
1.0
 10
149.0719654209
 20
131.1156769415
 30
0.0
 10
149.0696020025
 20
131.1604765469
 30
0.0
 10
149.0644445578
 20
131.227482537
 30
0.0
 10
149.0522722341
 20
131.3160067977
 30
0.0
 10
149.0396944364
 20
131.3812145408
 30
0.0
 10
149.021767625
 20
131.4450056367
 30
0.0
 10
148.9966789132
 20
131.5042808358
 30
0.0
 10
148.9573996241
 20
131.5491620489
 30
0.0
 10
148.9101392863
 20
131.5508561138
 30
0.0
 10
148.8902216588
 20
131.5381253096
 30
0.0
 10
148.8811279065
 20
131.5308717614
 30
0.0
  0
SPLINE
  5
2EF
100
AcDbEntity
  8
0
100
AcDbSpline
 62
7
  6
CONTINUOUS
 70
0
 71
3
 72
13
 73
9
 74
0
 42
0.0000001
 43
0.0000001
 44
0.0000000001
 40
0.0
 40
0.0
 40
0.0
 40
0.0
 40
0.1753307868
 40
0.3422637982
 40
0.4768046258
 40
0.5947351366
 40
0.8062611466
 40
1.0
 40
1.0
 40
1.0
 40
1.0
 10
148.8811279065
 20
104.8204925682
 30
0.0
 10
148.8172151616
 20
104.8474327298
 30
0.0
 10
148.6794381183
 20
104.8761707158
 30
0.0
 10
148.49179112
 20
104.8273918979
 30
0.0
 10
148.3502064364
 20
104.7385499949
 30
0.0
 10
148.2137412136
 20
104.614947383
 30
0.0
 10
148.085322527
 20
104.4510707769
 30
0.0
 10
148.0042825301
 20
104.3123997846
 30
0.0
 10
147.9689980142
 20
104.2443646573
 30
0.0
  0
SPLINE
  5
2F0
100
AcDbEntity
  8
0
100
AcDbSpline
 62
7
  6
CONTINUOUS
 70
0
 71
3
 72
12
 73
8
 74
0
 42
0.0000001
 43
0.0000001
 44
0.0000000001
 40
0.0
 40
0.0
 40
0.0
 40
0.0
 40
0.128679218
 40
0.2561331636
 40
0.5063352459
 40
0.7539715031
 40
1.0
 40
1.0
 40
1.0
 40
1.0
 10
162.7374296608
 20
116.9986999937
 30
0.0
 10
162.7683057864
 20
116.9986999937
 30
0.0
 10
162.8302204129
 20
116.9863767673
 30
0.0
 10
162.93644134
 20
116.9244619762
 30
0.0
 10
163.0358126133
 20
116.8077004111
 30
0.0
 10
163.1171889038
 20
116.6482056024
 30
0.0
 10
163.1548656439
 20
116.5354502407
 30
0.0
 10
163.1704423627
 20
116.4785086893
 30
0.0
  0
SPLINE
  5
2F1
100
AcDbEntity
  8
0
100
AcDbSpline
 62
7
  6
CONTINUOUS
 70
0
 71
3
 72
21
 73
17
 74
0
 42
0.0000001
 43
0.0000001
 44
0.0000000001
 40
0.0
 40
0.0
 40
0.0
 40
0.0
 40
0.0152736556
 40
0.0307400416
 40
0.0615944727
 40
0.0924597446
 40
0.1233512662
 40
0.1852330485
 40
0.2472659363
 40
0.3094463907
 40
0.3717660941
 40
0.4967787028
 40
0.6222117836
 40
0.747963109
 40
0.8739278454
 40
1.0
 40
1.0
 40
1.0
 40
1.0
 10
147.2811279065
 20
134.533864495
 30
0.0
 10
147.2658655913
 20
134.5338020757
 30
0.0
 10
147.2401774264
 20
134.507804921
 30
0.0
 10
147.2144363338
 20
134.4540523851
 30
0.0
 10
147.1907888039
 20
134.3792804921
 30
0.0
 10
147.1709904305
 20
134.2891856678
 30
0.0
 10
147.1500127555
 20
134.1672883036
 30
0.0
 10
147.1311093554
 20
134.0137395001
 30
0.0
 10
147.1148817153
 20
133.8284555479
 30
0.0
 10
147.1031125208
 20
133.6424214806
 30
0.0
 10
147.0916578808
 20
133.3933456283
 30
0.0
 10
147.0832441168
 20
133.0809001092
 30
0.0
 10
147.0784916686
 20
132.7050046292
 30
0.0
 10
147.0766772459
 20
132.328134573
 30
0.0
 10
147.0762039078
 20
131.95062394
 30
0.0
 10
147.0761678844
 20
131.6987720411
 30
0.0
 10
147.0761678844
 20
131.5727924389
 30
0.0
  0
SPLINE
  5
2F2
100
AcDbEntity
  8
0
100
AcDbSpline
 62
7
  6
CONTINUOUS
 70
0
 71
3
 72
17
 73
13
 74
0
 42
0.0000001
 43
0.0000001
 44
0.0000000001
 40
0.0
 40
0.0
 40
0.0
 40
0.0
 40
0.2182009024
 40
0.3349220057
 40
0.456586696
 40
0.5831112211
 40
0.7144823146
 40
0.7820564401
 40
0.8510300181
 40
0.92186225
 40
0.958727904
 40
1.0
 40
1.0
 40
1.0
 40
1.0
 10
147.0761678844
 20
142.8054520569
 30
0.0
 10
147.0761678844
 20
142.6731730427
 30
0.0
 10
147.076150197
 20
142.4701333813
 30
0.0
 10
147.0785573059
 20
142.193344611
 30
0.0
 10
147.0833824994
 20
141.9721722083
 30
0.0
 10
147.0936682375
 20
141.7422572274
 30
0.0
 10
147.1097932609
 20
141.5455885323
 30
0.0
 10
147.1313673615
 20
141.3843876607
 30
0.0
 10
147.153971832
 20
141.2612173686
 30
0.0
 10
147.1835676283
 20
141.1560666379
 30
0.0
 10
147.2179993031
 20
141.0765967837
 30
0.0
 10
147.2561124396
 20
141.0323764071
 30
0.0
 10
147.2811279065
 20
141.032863513
 30
0.0
  0
SPLINE
  5
2F3
100
AcDbEntity
  8
0
100
AcDbSpline
 62
7
  6
CONTINUOUS
 70
0
 71
3
 72
11
 73
7
 74
0
 42
0.0000001
 43
0.0000001
 44
0.0000000001
 40
0.0
 40
0.0
 40
0.0
 40
0.0
 40
0.2163338898
 40
0.4581730139
 40
0.72121324
 40
1.0
 40
1.0
 40
1.0
 40
1.0
 10
147.5291335462
 20
141.0376927409
 30
0.0
 10
147.4434321583
 20
140.5749711853
 30
0.0
 10
147.3211636722
 20
139.5837597879
 30
0.0
 10
147.2665816311
 20
138.014413077
 30
0.0
 10
147.3312091435
 20
136.3096266456
 30
0.0
 10
147.4505177612
 20
135.1362063287
 30
0.0
 10
147.5291335462
 20
134.5348787509
 30
0.0
  0
LINE
  5
2F4
100
AcDbEntity
  8
0
100
AcDbLine
 62
7
  6
CONTINUOUS
 10
147.2865064271
 20
102.9225365024
 11
147.5291335462
 21
103.4711924329
  0
ELLIPSE
  5
2F5
100
AcDbEntity
  8
0
100
AcDbEllipse
 62
7
  6
CONTINUOUS
 10
175.6232589847
 20
126.3479213083
 30
0.0
 11
-14.7536831607
 21
31.0932549156
 31
0.0
 40
0.3419987131
 41
0.1578061866
 42
1.0912395858
  0
ELLIPSE
  5
2F6
100
AcDbEntity
  8
0
100
AcDbEllipse
 62
7
  6
CONTINUOUS
 10
175.6232589847
 20
126.3479213083
 30
0.0
 11
14.7536831607
 21
31.0932549156
 31
0.0
 40
0.3419987131
 41
-4.2328322393
 42
-3.2993988402
  0
ELLIPSE
  5
2F7
100
AcDbEntity
  8
0
100
AcDbEllipse
 62
7
  6
CONTINUOUS
 10
146.928950606
 20
126.3479213083
 30
0.0
 11
14.7536831607
 21
31.0932549156
 31
0.0
 40
0.3419987131
 41
-1.0912395858
 42
-0.1578061866
  0
ELLIPSE
  5
2F8
100
AcDbEntity
  8
0
100
AcDbEllipse
 62
7
  6
CONTINUOUS
 10
146.928950606
 20
126.3479213083
 30
0.0
 11
-14.7536831607
 21
31.0932549156
 31
0.0
 40
0.3419987131
 41
-2.9837864669
 42
-2.0503530678
  0
ENDSEC
  0
SECTION
  2
OBJECTS
  0
DICTIONARY
  5
C
100
AcDbDictionary
280
0
281
1
  3
ACAD_GROUP
350
D
  3
ACAD_MLINESTYLE
350
17
  3
ACAD_LAYOUT
350
1A
  3
ACAD_PLOTSETTINGS
350
19
  3
ACAD_PLOTSTYLENAME
350
E
  0
DICTIONARY
  5
D
102
{ACAD_REACTORS
330
C
102
}
100
AcDbDictionary
280
0
281
1
  0
ACDBDICTIONARYWDFLT
  5
E
102
{ACAD_REACTORS
330
C
102
}
100
AcDbDictionary
281
1
  3
Normal
350
F
100
AcDbDictionaryWithDefault
340
F
  0
DICTIONARY
  5
17
102
{ACAD_REACTORS
330
C
102
}
100
AcDbDictionary
280
0
281
1
  3
Standard
350
18
  0
DICTIONARY
  5
19
102
{ACAD_REACTORS
330
C
102
}
100
AcDbDictionary
281
1
  0
DICTIONARY
  5
1A
102
{ACAD_REACTORS
330
C
102
}
100
AcDbDictionary
281
1
  3
Model
350
2F9
  3
Layout1
350
2FA
  0
ACDBPLACEHOLDER
  5
F
102
{ACAD_REACTORS
330
E
102
}
  0
MLINESTYLE
  5
18
102
{ACAD_REACTORS
330
17
102
}
100
AcDbMlineStyle
  2
STANDARD
 70
0
  3

 62
256
 51
90.0
 52
90.0
 71
2
 49
0.5
 62
256
  6
BYLAYER
 49
-0.5
 62
256
  6
BYLAYER
  0
LAYOUT
  5
2F9
102
{ACAD_REACTORS
330
1A
102
}
100
AcDbPlotSettings
  1

  2
none_device
  4
ISO_A4_(297.00_x_210.00_MM)
  6

 40
0.0
 41
0.0
 42
0.0
 43
0.0
 44
297.0
 45
210.0
 46
0.0
 47
0.0
 48
0.0
 49
0.0
140
0.0
141
0.0
142
1.0
143
1.0
 70
1024
 72
1
 73
0
 74
0
  7

 75
0
147
1.0
148
0.0
149
0.0
100
AcDbLayout
  1
Model
 70
0
 71
0
 10
0.0
 20
0.0
 11
297.0
 21
210.0
 12
0.0
 22
0.0
 32
0.0
 14
0.0
 24
0.0
 34
0.0
 15
0.0
 25
0.0
 35
0.0
146
0.0
 13
0.0
 23
0.0
 33
0.0
 16
1.0
 26
0.0
 36
0.0
 17
0.0
 27
1.0
 37
0.0
 76
0
330
217
345
0
346
0
  0
LAYOUT
  5
2FA
102
{ACAD_REACTORS
330
1A
102
}
100
AcDbPlotSettings
  1

  2
none_device
  4
ISO_A4_(297.00_x_210.00_MM)
  6

 40
0.0
 41
0.0
 42
0.0
 43
0.0
 44
297.0
 45
210.0
 46
0.0
 47
0.0
 48
0.0
 49
0.0
140
0.0
141
0.0
142
1.0
143
1.0
 70
0
 72
1
 73
0
 74
0
  7

 75
0
147
1.0
148
0.0
149
0.0
100
AcDbLayout
  1
Layout1
 70
0
 71
1
 10
0.0
 20
0.0
 11
297.0
 21
210.0
 12
0.0
 22
0.0
 32
0.0
 14
0.0
 24
0.0
 34
0.0
 15
0.0
 25
0.0
 35
0.0
146
0.0
 13
0.0
 23
0.0
 33
0.0
 16
1.0
 26
0.0
 36
0.0
 17
0.0
 27
1.0
 37
0.0
 76
0
330
218
345
0
346
0
  0
ENDSEC
  0
EOF
