  0
SECTION
  2
HEADER
  9
$ACADVER
  1
AC1015
  9
$ACADMAINTVER
 70
     6
  9
$DWGCODEPAGE
  3
ANSI_1252
  9
$INSBASE
 10
0.0
 20
0.0
 30
0.0
  9
$EXTMIN
 10
0.0
 20
-0.7863518711
 30
0.0
  9
$EXTMAX
 10
297.0
 20
210.0
 30
0.0
  9
$LIMMIN
 10
0.0
 20
0.0
  9
$LIMMAX
 10
12.0
 20
9.0
  9
$ORTHOMODE
 70
     0
  9
$REGENMODE
 70
     1
  9
$FILLMODE
 70
     1
  9
$QTEXTMODE
 70
     0
  9
$MIRRTEXT
 70
     1
  9
$LTSCALE
 40
1.0
  9
$ATTMODE
 70
     1
  9
$TEXTSIZE
 40
0.2
  9
$TRACEWID
 40
0.05
  9
$TEXTSTYLE
  7
Standard
  9
$CLAYER
  8
0
  9
$CELTYPE
  6
ByLayer
  9
$CECOLOR
 62
   256
  9
$CELTSCALE
 40
1.0
  9
$DISPSILH
 70
     0
  9
$DIMSCALE
 40
1.0
  9
$DIMASZ
 40
0.18
  9
$DIMEXO
 40
0.0625
  9
$DIMDLI
 40
0.38
  9
$DIMRND
 40
0.0
  9
$DIMDLE
 40
0.0
  9
$DIMEXE
 40
0.18
  9
$DIMTP
 40
0.0
  9
$DIMTM
 40
0.0
  9
$DIMTXT
 40
0.18
  9
$DIMCEN
 40
0.09
  9
$DIMTSZ
 40
0.0
  9
$DIMTOL
 70
     0
  9
$DIMLIM
 70
     0
  9
$DIMTIH
 70
     1
  9
$DIMTOH
 70
     1
  9
$DIMSE1
 70
     0
  9
$DIMSE2
 70
     0
  9
$DIMTAD
 70
     0
  9
$DIMZIN
 70
     0
  9
$DIMBLK
  1

  9
$DIMASO
 70
     1
  9
$DIMSHO
 70
     1
  9
$DIMPOST
  1

  9
$DIMAPOST
  1

  9
$DIMALT
 70
     0
  9
$DIMALTD
 70
     2
  9
$DIMALTF
 40
25.4
  9
$DIMLFAC
 40
1.0
  9
$DIMTOFL
 70
     0
  9
$DIMTVP
 40
0.0
  9
$DIMTIX
 70
     0
  9
$DIMSOXD
 70
     0
  9
$DIMSAH
 70
     0
  9
$DIMBLK1
  1

  9
$DIMBLK2
  1

  9
$DIMSTYLE
  2
Standard
  9
$DIMCLRD
 70
     0
  9
$DIMCLRE
 70
     0
  9
$DIMCLRT
 70
     0
  9
$DIMTFAC
 40
1.0
  9
$DIMGAP
 40
0.09
  9
$DIMJUST
 70
     0
  9
$DIMSD1
 70
     0
  9
$DIMSD2
 70
     0
  9
$DIMTOLJ
 70
     1
  9
$DIMTZIN
 70
     0
  9
$DIMALTZ
 70
     0
  9
$DIMALTTZ
 70
     0
  9
$DIMUPT
 70
     0
  9
$DIMDEC
 70
     4
  9
$DIMTDEC
 70
     4
  9
$DIMALTU
 70
     2
  9
$DIMALTTD
 70
     2
  9
$DIMTXSTY
  7
Standard
  9
$DIMAUNIT
 70
     0
  9
$DIMADEC
 70
     0
  9
$DIMALTRND
 40
0.0
  9
$DIMAZIN
 70
     0
  9
$DIMDSEP
 70
    46
  9
$DIMATFIT
 70
     3
  9
$DIMFRAC
 70
     0
  9
$DIMLDRBLK
  1

  9
$DIMLUNIT
 70
     2
  9
$DIMLWD
 70
    -2
  9
$DIMLWE
 70
    -2
  9
$DIMTMOVE
 70
     0
  9
$LUNITS
 70
     2
  9
$LUPREC
 70
     4
  9
$SKETCHINC
 40
0.1
  9
$FILLETRAD
 40
0.5
  9
$AUNITS
 70
     0
  9
$AUPREC
 70
     0
  9
$MENU
  1
.
  9
$ELEVATION
 40
0.0
  9
$PELEVATION
 40
0.0
  9
$THICKNESS
 40
0.0
  9
$LIMCHECK
 70
     0
  9
$CHAMFERA
 40
0.5
  9
$CHAMFERB
 40
0.5
  9
$CHAMFERC
 40
1.0
  9
$CHAMFERD
 40
0.0
  9
$SKPOLY
 70
     0
  9
$TDCREATE
 40
2455954.455140046
  9
$TDUCREATE
 40
2455954.41347338
  9
$TDUPDATE
 40
2455954.455140058
  9
$TDUUPDATE
 40
2455954.413473391
  9
$TDINDWG
 40
0.0000000116
  9
$TDUSRTIMER
 40
0.0000000116
  9
$USRTIMER
 70
     1
  9
$ANGBASE
 50
0.0
  9
$ANGDIR
 70
     0
  9
$PDMODE
 70
     0
  9
$PDSIZE
 40
0.0
  9
$PLINEWID
 40
0.0
  9
$SPLFRAME
 70
     0
  9
$SPLINETYPE
 70
     6
  9
$SPLINESEGS
 70
     8
  9
$HANDSEED
  5
14F
  9
$SURFTAB1
 70
     6
  9
$SURFTAB2
 70
     6
  9
$SURFTYPE
 70
     6
  9
$SURFU
 70
     6
  9
$SURFV
 70
     6
  9
$UCSBASE
  2

  9
$UCSNAME
  2

  9
$UCSORG
 10
0.0
 20
0.0
 30
0.0
  9
$UCSXDIR
 10
1.0
 20
0.0
 30
0.0
  9
$UCSYDIR
 10
0.0
 20
1.0
 30
0.0
  9
$UCSORTHOREF
  2

  9
$UCSORTHOVIEW
 70
     0
  9
$UCSORGTOP
 10
0.0
 20
0.0
 30
0.0
  9
$UCSORGBOTTOM
 10
0.0
 20
0.0
 30
0.0
  9
$UCSORGLEFT
 10
0.0
 20
0.0
 30
0.0
  9
$UCSORGRIGHT
 10
0.0
 20
0.0
 30
0.0
  9
$UCSORGFRONT
 10
0.0
 20
0.0
 30
0.0
  9
$UCSORGBACK
 10
0.0
 20
0.0
 30
0.0
  9
$PUCSBASE
  2

  9
$PUCSNAME
  2

  9
$PUCSORG
 10
0.0
 20
0.0
 30
0.0
  9
$PUCSXDIR
 10
1.0
 20
0.0
 30
0.0
  9
$PUCSYDIR
 10
0.0
 20
1.0
 30
0.0
  9
$PUCSORTHOREF
  2

  9
$PUCSORTHOVIEW
 70
     0
  9
$PUCSORGTOP
 10
0.0
 20
0.0
 30
0.0
  9
$PUCSORGBOTTOM
 10
0.0
 20
0.0
 30
0.0
  9
$PUCSORGLEFT
 10
0.0
 20
0.0
 30
0.0
  9
$PUCSORGRIGHT
 10
0.0
 20
0.0
 30
0.0
  9
$PUCSORGFRONT
 10
0.0
 20
0.0
 30
0.0
  9
$PUCSORGBACK
 10
0.0
 20
0.0
 30
0.0
  9
$USERI1
 70
     0
  9
$USERI2
 70
     0
  9
$USERI3
 70
     0
  9
$USERI4
 70
     0
  9
$USERI5
 70
     0
  9
$USERR1
 40
16.5
  9
$USERR2
 40
0.0
  9
$USERR3
 40
0.0
  9
$USERR4
 40
0.0
  9
$USERR5
 40
0.0
  9
$WORLDVIEW
 70
     1
  9
$SHADEDGE
 70
     3
  9
$SHADEDIF
 70
    70
  9
$TILEMODE
 70
     1
  9
$MAXACTVP
 70
    64
  9
$PINSBASE
 10
0.0
 20
0.0
 30
0.0
  9
$PLIMCHECK
 70
     0
  9
$PEXTMIN
 10
1.00000000000000E+20
 20
1.00000000000000E+20
 30
1.00000000000000E+20
  9
$PEXTMAX
 10
-1.00000000000000E+20
 20
-1.00000000000000E+20
 30
-1.00000000000000E+20
  9
$PLIMMIN
 10
0.0
 20
0.0
  9
$PLIMMAX
 10
12.0
 20
9.0
  9
$UNITMODE
 70
     0
  9
$VISRETAIN
 70
     1
  9
$PLINEGEN
 70
     0
  9
$PSLTSCALE
 70
     1
  9
$TREEDEPTH
 70
  3020
  9
$CMLSTYLE
  2
Standard
  9
$CMLJUST
 70
     0
  9
$CMLSCALE
 40
1.0
  9
$PROXYGRAPHICS
 70
     1
  9
$MEASUREMENT
 70
     1
  9
$CELWEIGHT
370
    -1
  9
$ENDCAPS
280
     0
  9
$JOINSTYLE
280
     0
  9
$LWDISPLAY
290
     0
  9
$INSUNITS
 70
     1
  9
$HYPERLINKBASE
  1

  9
$STYLESHEET
  1

  9
$XEDIT
290
     1
  9
$CEPSNTYPE
380
     0
  9
$PSTYLEMODE
290
     1
  9
$FINGERPRINTGUID
  2
{B12D952F-9C47-47B9-B53A-0FCDA61F4887}
  9
$VERSIONGUID
  2
{FAEB1C32-E019-11D5-929B-00C0DF256EC4}
  9
$EXTNAMES
290
     1
  9
$PSVPSCALE
 40
0.0
  9
$OLESTARTUP
290
     0
  0
ENDSEC
  0
SECTION
  2
CLASSES
  0
CLASS
  1
ACDBDICTIONARYWDFLT
  2
AcDbDictionaryWithDefault
  3
ObjectDBX Classes
 90
        0
280
     0
281
     0
  0
CLASS
  1
VISUALSTYLE
  2
AcDbVisualStyle
  3
ObjectDBX Classes
 90
     4095
280
     0
281
     0
  0
CLASS
  1

  2
exOdDbSpline
  3

 90
        0
280
     0
281
     1
  0
CLASS
  1
SCALE
  2
AcDbScale
  3
ObjectDBX Classes
 90
     1153
280
     0
281
     0
  0
CLASS
  1
DICTIONARYVAR
  2
AcDbDictionaryVar
  3
ObjectDBX Classes
 90
        0
280
     0
281
     0
  0
CLASS
  1
ACDBPLACEHOLDER
  2
AcDbPlaceHolder
  3
ObjectDBX Classes
 90
        0
280
     0
281
     0
  0
CLASS
  1
LAYOUT
  2
AcDbLayout
  3
ObjectDBX Classes
 90
        0
280
     0
281
     0
  0
ENDSEC
  0
SECTION
  2
TABLES
  0
TABLE
  2
VPORT
  5
8
330
0
100
AcDbSymbolTable
 70
     1
  0
VPORT
  5
29
330
8
100
AcDbSymbolTableRecord
100
AcDbViewportTableRecord
  2
*Active
 70
     0
 10
0.0
 20
0.0
 11
1.0
 21
1.0
 12
148.5
 22
104.60682406445
 13
0.0
 23
0.0
 14
0.5
 24
0.5
 15
0.5
 25
0.5
 16
0.0
 26
0.0
 36
1.0
 17
0.0
 27
0.0
 37
0.0
 40
231.86498705821
 41
1.60267857142857
 42
50.0
 43
0.0
 44
0.0
 50
0.0
 51
0.0
 71
     0
 72
   100
 73
     1
 74
     3
 75
     0
 76
     0
 77
     0
 78
     0
281
     0
 65
     1
110
0.0
120
0.0
130
0.0
111
1.0
121
0.0
131
0.0
112
0.0
122
1.0
132
0.0
 79
     0
146
0.0
  0
ENDTAB
  0
TABLE
  2
LTYPE
  5
5
330
0
100
AcDbSymbolTable
 70
    10
  0
LTYPE
  5
14
330
5
100
AcDbSymbolTableRecord
100
AcDbLinetypeTableRecord
  2
ByBlock
 70
     0
  3

 72
    65
 73
     0
 40
0.0
  0
LTYPE
  5
15
330
5
100
AcDbSymbolTableRecord
100
AcDbLinetypeTableRecord
  2
ByLayer
 70
     0
  3

 72
    65
 73
     0
 40
0.0
  0
LTYPE
  5
16
330
5
100
AcDbSymbolTableRecord
100
AcDbLinetypeTableRecord
  2
Continuous
 70
     0
  3
Solid line
 72
    65
 73
     0
 40
0.0
  0
LTYPE
  5
3B
330
5
100
AcDbSymbolTableRecord
100
AcDbLinetypeTableRecord
  2
DASHED
 70
     0
  3
Dashed
 72
    65
 73
     2
 40
15.0
 49
7.0
 74
     0
 49
-8.0
 74
     0
  0
LTYPE
  5
3C
330
5
100
AcDbSymbolTableRecord
100
AcDbLinetypeTableRecord
  2
DOTTED
 70
     0
  3
Dotted
 72
    65
 73
     2
 40
1.0
 49
0.0
 74
     0
 49
-1.0
 74
     0
  0
LTYPE
  5
3D
330
5
100
AcDbSymbolTableRecord
100
AcDbLinetypeTableRecord
  2
DOT_CENTER
 70
     0
  3
Dot_Center
 72
    65
 73
     4
 40
14.0
 49
12.0
 74
     0
 49
-1.0
 74
     0
 49
0.0
 74
     0
 49
-1.0
 74
     0
  0
LTYPE
  5
3E
330
5
100
AcDbSymbolTableRecord
100
AcDbLinetypeTableRecord
  2
LONG_DASHED
 70
     0
  3
Long_Dashed
 72
    65
 73
     2
 40
15.0
 49
10.0
 74
     0
 49
-5.0
 74
     0
  0
LTYPE
  5
3F
330
5
100
AcDbSymbolTableRecord
100
AcDbLinetypeTableRecord
  2
DASH_CENTER
 70
     0
  3
Dash_Center
 72
    65
 73
     4
 40
14.0
 49
11.0
 74
     0
 49
-1.0
 74
     0
 49
1.0
 74
     0
 49
-1.0
 74
     0
  0
LTYPE
  5
40
330
5
100
AcDbSymbolTableRecord
100
AcDbLinetypeTableRecord
  2
PHANTOM
 70
     0
  3
Phantom
 72
    65
 73
     6
 40
13.0
 49
10.0
 74
     0
 49
-1.0
 74
     0
 49
0.0
 74
     0
 49
-1.0
 74
     0
 49
0.0
 74
     0
 49
-1.0
 74
     0
  0
LTYPE
  5
41
330
5
100
AcDbSymbolTableRecord
100
AcDbLinetypeTableRecord
  2
CENTER_DASH_DASH
 70
     0
  3
Center_Dash_Dash
 72
    65
 73
     6
 40
14.0
 49
9.0
 74
     0
 49
-1.0
 74
     0
 49
1.0
 74
     0
 49
-1.0
 74
     0
 49
1.0
 74
     0
 49
-1.0
 74
     0
  0
LTYPE
  5
42
330
5
100
AcDbSymbolTableRecord
100
AcDbLinetypeTableRecord
  2
HIDDEN
 70
     0
  3
HIDDEN
 72
    65
 73
     2
 40
4.0
 49
2.0
 74
     0
 49
-2.0
 74
     0
  0
LTYPE
  5
43
330
5
100
AcDbSymbolTableRecord
100
AcDbLinetypeTableRecord
  2
CENTER
 70
     0
  3
CENTER
 72
    65
 73
     4
 40
13.0
 49
7.0
 74
     0
 49
-2.0
 74
     0
 49
2.0
 74
     0
 49
-2.0
 74
     0
  0
ENDTAB
  0
TABLE
  2
LAYER
  5
2
330
0
100
AcDbSymbolTable
 70
     9
  0
LAYER
  5
10
330
2
100
AcDbSymbolTableRecord
100
AcDbLayerTableRecord
  2
0
 70
     0
 62
     7
  6
Continuous
370
    -3
390
F
  0
LAYER
  5
44
330
2
100
AcDbSymbolTableRecord
100
AcDbLayerTableRecord
  2
1
 70
     0
 62
     7
  6
Continuous
370
    -3
390
F
  0
LAYER
  5
45
330
2
100
AcDbSymbolTableRecord
100
AcDbLayerTableRecord
  2
ACHSEN
 70
     0
 62
     7
  6
Continuous
370
    -3
390
F
  0
LAYER
  5
46
330
2
100
AcDbSymbolTableRecord
100
AcDbLayerTableRecord
  2
DEFAULT_1
 70
     0
 62
     7
  6
Continuous
370
    -3
390
F
  0
LAYER
  5
47
330
2
100
AcDbSymbolTableRecord
100
AcDbLayerTableRecord
  2
DEFAULT_2
 70
     0
 62
     7
  6
Continuous
370
    -3
390
F
  0
LAYER
  5
48
330
2
100
AcDbSymbolTableRecord
100
AcDbLayerTableRecord
  2
FASEN
 70
     0
 62
     7
  6
Continuous
370
    -3
390
F
  0
LAYER
  5
49
330
2
100
AcDbSymbolTableRecord
100
AcDbLayerTableRecord
  2
KURVEN
 70
     0
 62
     7
  6
Continuous
370
    -3
390
F
  0
LAYER
  5
4A
330
2
100
AcDbSymbolTableRecord
100
AcDbLayerTableRecord
  2
RUNDUNGEN
 70
     0
 62
     7
  6
Continuous
370
    -3
390
F
  0
LAYER
  5
4B
330
2
100
AcDbSymbolTableRecord
100
AcDbLayerTableRecord
  2
S_ACHSEN
 70
     0
 62
     7
  6
Continuous
370
    -3
390
F
  0
ENDTAB
  0
TABLE
  2
STYLE
  5
3
330
0
100
AcDbSymbolTable
 70
     3
  0
STYLE
  5
11
330
3
100
AcDbSymbolTableRecord
100
AcDbTextStyleTableRecord
  2
Standard
 70
     0
 40
0.0
 41
1.0
 50
0.0
 71
     0
 42
0.2
  3
txt
  4

  0
STYLE
  5
E4
330
3
100
AcDbSymbolTableRecord
100
AcDbTextStyleTableRecord
  2
CONVERTER_11
 70
     0
 40
0.0
 41
0.7
 50
0.0
 71
     0
 42
0.2
  3
txt.shx
  4

  0
STYLE
  5
10E
330
3
100
AcDbSymbolTableRecord
100
AcDbTextStyleTableRecord
  2
CONVERTER_12
 70
     0
 40
0.0
 41
0.72
 50
0.0
 71
     0
 42
0.2
  3
txt.shx
  4

  0
ENDTAB
  0
TABLE
  2
VIEW
  5
6
330
0
100
AcDbSymbolTable
 70
     0
  0
ENDTAB
  0
TABLE
  2
UCS
  5
7
330
0
100
AcDbSymbolTable
 70
     0
  0
ENDTAB
  0
TABLE
  2
APPID
  5
9
330
0
100
AcDbSymbolTable
 70
     1
  0
APPID
  5
12
330
9
100
AcDbSymbolTableRecord
100
AcDbRegAppTableRecord
  2
ACAD
 70
     0
  0
ENDTAB
  0
TABLE
  2
DIMSTYLE
  5
A
330
0
100
AcDbSymbolTable
 70
     7
100
AcDbDimStyleTable
  0
DIMSTYLE
105
27
330
A
100
AcDbSymbolTableRecord
100
AcDbDimStyleTableRecord
  2
Standard
 70
     0
340
11
  0
DIMSTYLE
105
112
102
{ACAD_REACTORS
330
113
102
}
330
A
100
AcDbSymbolTableRecord
100
AcDbDimStyleTableRecord
  2
ME10_DIM_10
 70
     0
  3
\U+2300<>
 41
3.5
 42
2.0
 44
2.0
 71
     1
 73
     0
 74
     0
 77
     1
 78
     8
140
3.5
146
0.7
147
2.0
172
     1
173
     1
176
     2
177
     2
178
     3
271
     2
272
     0
340
10E
  0
DIMSTYLE
105
11D
102
{ACAD_REACTORS
330
11E
102
}
330
A
100
AcDbSymbolTableRecord
100
AcDbDimStyleTableRecord
  2
ME10_DIM_11
 70
     0
 41
3.5
 73
     0
 74
     0
 77
     1
 78
    12
140
3.5
172
     1
173
     1
176
     2
177
     2
178
     5
271
     2
340
E4
  0
DIMSTYLE
105
128
102
{ACAD_REACTORS
330
129
102
}
330
A
100
AcDbSymbolTableRecord
100
AcDbDimStyleTableRecord
  2
ME10_DIM_12
 70
     0
  3
{\Fgdt;n}<>
 41
3.5
 73
     0
 74
     0
 77
     1
 78
    12
140
3.5
172
     1
173
     1
176
     2
177
     2
178
     5
271
     2
340
E4
  0
DIMSTYLE
105
133
102
{ACAD_REACTORS
330
134
102
}
330
A
100
AcDbSymbolTableRecord
100
AcDbDimStyleTableRecord
  2
ME10_DIM_13
 70
     0
 41
3.5
 73
     0
 74
     0
 77
     1
 78
    12
140
3.5
172
     1
173
     1
176
     2
177
     2
178
     5
271
     2
340
E4
  0
DIMSTYLE
105
13E
102
{ACAD_REACTORS
330
13F
102
}
330
A
100
AcDbSymbolTableRecord
100
AcDbDimStyleTableRecord
  2
ME10_DIM_14
 70
     0
 41
3.5
 73
     0
 74
     0
 77
     1
 78
    12
140
3.5
172
     1
173
     1
176
     2
177
     2
178
     5
271
     2
340
E4
  0
DIMSTYLE
105
149
102
{ACAD_REACTORS
330
14A
102
}
330
A
100
AcDbSymbolTableRecord
100
AcDbDimStyleTableRecord
  2
ME10_DIM_15
 70
     0
 41
3.5
 73
     0
 74
     0
 77
     1
 78
    12
140
3.5
172
     1
173
     1
176
     2
177
     2
178
     5
271
     2
340
E4
  0
ENDTAB
  0
TABLE
  2
BLOCK_RECORD
  5
1
330
0
100
AcDbSymbolTable
 70
     7
  0
BLOCK_RECORD
  5
1F
330
1
100
AcDbSymbolTableRecord
100
AcDbBlockTableRecord
  2
*Model_Space
340
22
  0
BLOCK_RECORD
  5
1B
330
1
100
AcDbSymbolTableRecord
100
AcDbBlockTableRecord
  2
*Paper_Space
340
1E
  0
BLOCK_RECORD
  5
23
330
1
100
AcDbSymbolTableRecord
100
AcDbBlockTableRecord
  2
*Paper_Space0
340
26
  0
BLOCK_RECORD
  5
108
330
1
100
AcDbSymbolTableRecord
100
AcDbBlockTableRecord
  2
*D1
340
0
  0
BLOCK_RECORD
  5
114
330
1
100
AcDbSymbolTableRecord
100
AcDbBlockTableRecord
  2
*D2
340
0
  0
BLOCK_RECORD
  5
11F
330
1
100
AcDbSymbolTableRecord
100
AcDbBlockTableRecord
  2
*D3
340
0
  0
BLOCK_RECORD
  5
12A
330
1
100
AcDbSymbolTableRecord
100
AcDbBlockTableRecord
  2
*D4
340
0
  0
BLOCK_RECORD
  5
135
330
1
100
AcDbSymbolTableRecord
100
AcDbBlockTableRecord
  2
*D5
340
0
  0
BLOCK_RECORD
  5
140
330
1
100
AcDbSymbolTableRecord
100
AcDbBlockTableRecord
  2
*D6
340
0
  0
ENDTAB
  0
ENDSEC
  0
SECTION
  2
BLOCKS
  0
BLOCK
  5
20
330
1F
100
AcDbEntity
  8
0
100
AcDbBlockBegin
  2
*Model_Space
 70
     0
 10
0.0
 20
0.0
 30
0.0
  3
*Model_Space
  1

  0
ENDBLK
  5
21
330
1F
100
AcDbEntity
  8
0
100
AcDbBlockEnd
  0
BLOCK
  5
1C
330
1B
100
AcDbEntity
 67
     1
  8
0
100
AcDbBlockBegin
  2
*Paper_Space
 70
     0
 10
0.0
 20
0.0
 30
0.0
  3
*Paper_Space
  1

  0
ENDBLK
  5
1D
330
1B
100
AcDbEntity
 67
     1
  8
0
100
AcDbBlockEnd
  0
BLOCK
  5
24
330
23
100
AcDbEntity
  8
0
100
AcDbBlockBegin
  2
*Paper_Space0
 70
     0
 10
0.0
 20
0.0
 30
0.0
  3
*Paper_Space0
  1

  0
ENDBLK
  5
25
330
23
100
AcDbEntity
  8
0
100
AcDbBlockEnd
  0
BLOCK
  5
110
330
108
100
AcDbEntity
  8
0
100
AcDbBlockBegin
  2
*D1
 70
     1
 10
0.0
 20
0.0
 30
0.0
  3
*D1
  1

  0
LINE
  5
109
330
108
100
AcDbEntity
  8
1
  6
Continuous
 62
     2
100
AcDbLine
 10
268.821919787445
 20
93.62363891929999
 30
0.0
 11
268.821919787445
 21
156.6236389193
 31
0.0
  0
LINE
  5
10A
330
108
100
AcDbEntity
  8
1
  6
Continuous
 62
     2
100
AcDbLine
 10
244.1026715665
 20
156.6236389193
 30
0.0
 11
270.821919787445
 21
156.6236389193
 31
0.0
  0
LINE
  5
10B
330
108
100
AcDbEntity
  8
1
  6
Continuous
 62
     2
100
AcDbLine
 10
244.1026715665
 20
93.62363891929999
 30
0.0
 11
270.821919787445
 21
93.62363891929999
 31
0.0
  0
SOLID
  5
10C
330
108
100
AcDbEntity
  8
1
 62
     2
100
AcDbTrace
 10
268.3611360458891
 20
97.12363891929999
 30
0.0
 11
269.2827035290009
 21
97.12363891929999
 31
0.0
 12
268.821919787445
 22
93.62363891929999
 32
0.0
 13
268.821919787445
 23
93.62363891929999
 33
0.0
  0
SOLID
  5
10D
330
108
100
AcDbEntity
  8
1
 62
     2
100
AcDbTrace
 10
269.2827035290009
 20
153.1236389193
 30
0.0
 11
268.3611360458891
 21
153.1236389193
 31
0.0
 12
268.821919787445
 22
156.6236389193
 32
0.0
 13
268.821919787445
 23
156.6236389193
 33
0.0
  0
MTEXT
  5
10F
330
108
100
AcDbEntity
  8
1
 62
     3
100
AcDbMText
 10
266.821919787445
 20
118.0458209239701
 30
0.0
 40
3.5
 41
0.0
 71
     7
 72
     1
  1
\C3;%%c\C3;\C3;63\C2;\H2.45;\S^ ;\C3;
  7
CONVERTER_12
 11
0.0
 21
1.0
 31
0.0
 73
     1
 44
0.60024009603842
  0
ENDBLK
  5
111
330
108
100
AcDbEntity
  8
0
100
AcDbBlockEnd
  0
BLOCK
  5
11B
330
114
100
AcDbEntity
  8
0
100
AcDbBlockBegin
  2
*D2
 70
     1
 10
0.0
 20
0.0
 30
0.0
  3
*D2
  1

  0
LINE
  5
115
330
114
100
AcDbEntity
  8
0
  6
Continuous
 62
     2
100
AcDbLine
 10
244.1026715665
 20
186.5532217942
 30
0.0
 11
84.10267156649999
 21
186.5532217942
 31
0.0
  0
LINE
  5
116
330
114
100
AcDbEntity
  8
0
  6
Continuous
 62
     2
100
AcDbLine
 10
84.10267156649999
 20
163.7341202331
 30
0.0
 11
84.10267156649999
 21
186.7332217942
 31
0.0
  0
LINE
  5
117
330
114
100
AcDbEntity
  8
0
  6
Continuous
 62
     2
100
AcDbLine
 10
244.1026715665
 20
154.7220373042
 30
0.0
 11
244.1026715665
 21
186.7332217942
 31
0.0
  0
SOLID
  5
118
330
114
100
AcDbEntity
  8
0
 62
     2
100
AcDbTrace
 10
240.6026715665
 20
186.0924380526441
 30
0.0
 11
240.6026715665
 21
187.0140055357559
 31
0.0
 12
244.1026715665
 22
186.5532217942
 32
0.0
 13
244.1026715665
 23
186.5532217942
 33
0.0
  0
SOLID
  5
119
330
114
100
AcDbEntity
  8
0
 62
     2
100
AcDbTrace
 10
87.60267156649999
 20
187.0140055357559
 30
0.0
 11
87.60267156649999
 21
186.0924380526441
 31
0.0
 12
84.10267156649999
 22
186.5532217942
 32
0.0
 13
84.10267156649999
 23
186.5532217942
 33
0.0
  0
MTEXT
  5
11A
330
114
100
AcDbEntity
  8
0
 62
     5
100
AcDbMText
 10
161.2443382331667
 20
189.1782217942
 30
0.0
 40
3.5
 41
0.0
 71
     7
 72
     1
  1
160
  7
CONVERTER_11
 11
0.9999999999970619
 21
2.424068405545306E-6
 31
0.0
 73
     1
 44
0.60024009603842
  0
ENDBLK
  5
11C
330
114
100
AcDbEntity
  8
0
100
AcDbBlockEnd
  0
BLOCK
  5
126
330
11F
100
AcDbEntity
  8
0
100
AcDbBlockBegin
  2
*D3
 70
     1
 10
0.0
 20
0.0
 30
0.0
  3
*D3
  1

  0
LINE
  5
120
330
11F
100
AcDbEntity
  8
0
  6
Continuous
 62
     2
100
AcDbLine
 10
258.3438872287
 20
145.1236389193
 30
0.0
 11
258.3438872287
 21
105.1236389193
 31
0.0
  0
LINE
  5
121
330
11F
100
AcDbEntity
  8
0
  6
Continuous
 62
     2
100
AcDbLine
 10
230.6651715665
 20
145.1236389193
 30
0.0
 11
258.5238872287
 21
145.1236389193
 31
0.0
  0
LINE
  5
122
330
11F
100
AcDbEntity
  8
0
  6
Continuous
 62
     2
100
AcDbLine
 10
230.6651715665
 20
105.1236389193
 30
0.0
 11
258.5238872287
 21
105.1236389193
 31
0.0
  0
SOLID
  5
123
330
11F
100
AcDbEntity
  8
0
 62
     2
100
AcDbTrace
 10
257.8831034871441
 20
108.6236389193
 30
0.0
 11
258.8046709702559
 21
108.6236389193
 31
0.0
 12
258.3438872287
 22
105.1236389193
 32
0.0
 13
258.3438872287
 23
105.1236389193
 33
0.0
  0
SOLID
  5
124
330
11F
100
AcDbEntity
  8
0
 62
     2
100
AcDbTrace
 10
258.8046709702559
 20
141.6236389193
 30
0.0
 11
257.8831034871441
 21
141.6236389193
 31
0.0
 12
258.3438872287
 22
145.1236389193
 32
0.0
 13
258.3438872287
 23
145.1236389193
 33
0.0
  0
MTEXT
  5
125
330
11F
100
AcDbEntity
  8
0
 62
     5
100
AcDbMText
 10
255.7188872287
 20
117.5181389193
 30
0.0
 40
3.5
 41
0.0
 71
     7
 72
     1
  1
\C5;{\Fgdt;n}\C5;40
  7
CONVERTER_11
 11
0.0
 21
1.0
 31
0.0
 73
     1
 44
0.60024009603842
  0
ENDBLK
  5
127
330
11F
100
AcDbEntity
  8
0
100
AcDbBlockEnd
  0
BLOCK
  5
131
330
12A
100
AcDbEntity
  8
0
100
AcDbBlockBegin
  2
*D4
 70
     1
 10
0.0
 20
0.0
 30
0.0
  3
*D4
  1

  0
LINE
  5
12B
330
12A
100
AcDbEntity
  8
0
  6
Continuous
 62
     2
100
AcDbLine
 10
84.10267156649999
 20
177.734472869
 30
0.0
 11
229.1026715665
 21
177.734472869
 31
0.0
  0
LINE
  5
12C
330
12A
100
AcDbEntity
  8
0
  6
Continuous
 62
     2
100
AcDbLine
 10
84.10267156649999
 20
157.9467506622
 30
0.0
 11
84.10267156649999
 21
177.914472869
 31
0.0
  0
LINE
  5
12D
330
12A
100
AcDbEntity
  8
0
  6
Continuous
 62
     2
100
AcDbLine
 10
229.1026715665
 20
148.3169909742
 30
0.0
 11
229.1026715665
 21
177.914472869
 31
0.0
  0
SOLID
  5
12E
330
12A
100
AcDbEntity
  8
0
 62
     2
100
AcDbTrace
 10
225.6026715665
 20
177.2736891274441
 30
0.0
 11
225.6026715665
 21
178.1952566105559
 31
0.0
 12
229.1026715665
 22
177.734472869
 32
0.0
 13
229.1026715665
 23
177.734472869
 33
0.0
  0
SOLID
  5
12F
330
12A
100
AcDbEntity
  8
0
 62
     2
100
AcDbTrace
 10
87.60267156649999
 20
178.1952566105559
 30
0.0
 11
87.60267156649999
 21
177.2736891274441
 31
0.0
 12
84.10267156649999
 22
177.734472869
 32
0.0
 13
84.10267156649999
 23
177.734472869
 33
0.0
  0
MTEXT
  5
130
330
12A
100
AcDbEntity
  8
0
 62
     5
100
AcDbMText
 10
153.5891715665
 20
180.359472869
 30
0.0
 40
3.5
 41
0.0
 71
     7
 72
     1
  1
145
  7
CONVERTER_11
 11
0.9999999999970619
 21
2.424068405545306E-6
 31
0.0
 73
     1
 44
0.60024009603842
  0
ENDBLK
  5
132
330
12A
100
AcDbEntity
  8
0
100
AcDbBlockEnd
  0
BLOCK
  5
13C
330
135
100
AcDbEntity
  8
0
100
AcDbBlockBegin
  2
*D5
 70
     1
 10
0.0
 20
0.0
 30
0.0
  3
*D5
  1

  0
LINE
  5
136
330
135
100
AcDbEntity
  8
0
  6
Continuous
 62
     2
100
AcDbLine
 10
46.10267156649999
 20
193.9805142841
 30
0.0
 11
229.1026715665
 21
193.9805142841
 31
0.0
  0
LINE
  5
137
330
135
100
AcDbEntity
  8
0
  6
Continuous
 62
     2
100
AcDbLine
 10
46.10267156649999
 20
106.50002315
 30
0.0
 11
46.10267156649999
 21
194.1605142841
 31
0.0
  0
LINE
  5
138
330
135
100
AcDbEntity
  8
0
  6
Continuous
 62
     2
100
AcDbLine
 10
229.1026715665
 20
148.5594160264
 30
0.0
 11
229.1026715665
 21
194.1605142841
 31
0.0
  0
SOLID
  5
139
330
135
100
AcDbEntity
  8
0
 62
     2
100
AcDbTrace
 10
225.6026715665
 20
193.5197305425441
 30
0.0
 11
225.6026715665
 21
194.4412980256558
 31
0.0
 12
229.1026715665
 22
193.9805142841
 32
0.0
 13
229.1026715665
 23
193.9805142841
 33
0.0
  0
SOLID
  5
13A
330
135
100
AcDbEntity
  8
0
 62
     2
100
AcDbTrace
 10
49.60267156649999
 20
194.4412980256559
 30
0.0
 11
49.60267156649999
 21
193.5197305425441
 31
0.0
 12
46.10267156649999
 22
193.9805142841
 32
0.0
 13
46.10267156649999
 23
193.9805142841
 33
0.0
  0
MTEXT
  5
13B
330
135
100
AcDbEntity
  8
0
 62
     5
100
AcDbMText
 10
134.5891715665
 20
196.6055142841
 30
0.0
 40
3.5
 41
0.0
 71
     7
 72
     1
  1
183
  7
CONVERTER_11
 11
0.9999999999970619
 21
2.424068405545306E-6
 31
0.0
 73
     1
 44
0.60024009603842
  0
ENDBLK
  5
13D
330
135
100
AcDbEntity
  8
0
100
AcDbBlockEnd
  0
BLOCK
  5
147
330
140
100
AcDbEntity
  8
0
100
AcDbBlockBegin
  2
*D6
 70
     1
 10
0.0
 20
0.0
 30
0.0
  3
*D6
  1

  0
LINE
  5
141
330
140
100
AcDbEntity
  8
0
  6
Continuous
 62
     2
100
AcDbLine
 10
106.1026715665
 20
167.6251358587
 30
0.0
 11
229.1026715665
 21
167.6251358587
 31
0.0
  0
LINE
  5
142
330
140
100
AcDbEntity
  8
0
  6
Continuous
 62
     2
100
AcDbLine
 10
106.1026715665
 20
158.6203261063
 30
0.0
 11
106.1026715665
 21
167.8051358587
 31
0.0
  0
LINE
  5
143
330
140
100
AcDbEntity
  8
0
  6
Continuous
 62
     2
100
AcDbLine
 10
229.1026715665
 20
145.529102874
 30
0.0
 11
229.1026715665
 21
167.8051358587
 31
0.0
  0
SOLID
  5
144
330
140
100
AcDbEntity
  8
0
 62
     2
100
AcDbTrace
 10
225.6026715665
 20
167.1643521171441
 30
0.0
 11
225.6026715665
 21
168.0859196002559
 31
0.0
 12
229.1026715665
 22
167.6251358587
 32
0.0
 13
229.1026715665
 23
167.6251358587
 33
0.0
  0
SOLID
  5
145
330
140
100
AcDbEntity
  8
0
 62
     2
100
AcDbTrace
 10
109.6026715665
 20
168.0859196002559
 30
0.0
 11
109.6026715665
 21
167.1643521171441
 31
0.0
 12
106.1026715665
 22
167.6251358587
 32
0.0
 13
106.1026715665
 23
167.6251358587
 33
0.0
  0
MTEXT
  5
146
330
140
100
AcDbEntity
  8
0
 62
     5
100
AcDbMText
 10
164.5891715665
 20
170.2501358587
 30
0.0
 40
3.5
 41
0.0
 71
     7
 72
     1
  1
123
  7
CONVERTER_11
 11
0.9999999999970619
 21
2.424068405545306E-6
 31
0.0
 73
     1
 44
0.60024009603842
  0
ENDBLK
  5
148
330
140
100
AcDbEntity
  8
0
100
AcDbBlockEnd
  0
ENDSEC
  0
SECTION
  2
ENTITIES
  0
POINT
  5
4C
330
1F
100
AcDbEntity
  8
0
 62
     7
100
AcDbPoint
 10
230.6026715665
 20
100.1236389193
 30
0.0
  0
POINT
  5
4D
330
1F
100
AcDbEntity
  8
0
 62
     7
100
AcDbPoint
 10
230.6026715665
 20
150.1236389193
 30
0.0
  0
POINT
  5
4E
330
1F
100
AcDbEntity
  8
0
 62
     7
100
AcDbPoint
 10
84.1026715665
 20
163.6716202331
 30
0.0
  0
POINT
  5
4F
330
1F
100
AcDbEntity
  8
0
 62
     7
100
AcDbPoint
 10
244.1026715665
 20
154.6595373042
 30
0.0
  0
POINT
  5
50
330
1F
100
AcDbEntity
  8
0
 62
     7
100
AcDbPoint
 10
230.6026715665
 20
145.1236389193
 30
0.0
  0
POINT
  5
51
330
1F
100
AcDbEntity
  8
0
 62
     7
100
AcDbPoint
 10
230.6026715665
 20
105.1236389193
 30
0.0
  0
POINT
  5
52
330
1F
100
AcDbEntity
  8
0
 62
     7
100
AcDbPoint
 10
84.1026715665
 20
157.8842506622
 30
0.0
  0
POINT
  5
53
330
1F
100
AcDbEntity
  8
0
 62
     7
100
AcDbPoint
 10
229.1026715665
 20
148.2544909742
 30
0.0
  0
POINT
  5
54
330
1F
100
AcDbEntity
  8
0
 62
     7
100
AcDbPoint
 10
46.1026715665
 20
106.43752315
 30
0.0
  0
POINT
  5
55
330
1F
100
AcDbEntity
  8
0
 62
     7
100
AcDbPoint
 10
229.1026715665
 20
148.4969160264
 30
0.0
  0
POINT
  5
56
330
1F
100
AcDbEntity
  8
0
 62
     7
100
AcDbPoint
 10
106.1026715665
 20
158.5578261063
 30
0.0
  0
POINT
  5
57
330
1F
100
AcDbEntity
  8
0
 62
     7
100
AcDbPoint
 10
229.1026715665
 20
145.466602874
 30
0.0
  0
LINE
  5
58
330
1F
100
AcDbEntity
  8
0
  6
Continuous
 62
     7
100
AcDbLine
 10
82.1130731982
 20
101.6982541134
 30
0.0
 11
82.3557003173
 21
102.246910044
 31
0.0
  0
LINE
  5
59
330
1F
100
AcDbEntity
  8
FASEN
  6
Continuous
 62
     7
100
AcDbLine
 10
90.8802189023
 20
156.6236058591
 30
0.0
 11
90.9180731277
 21
156.6172965601
 31
0.0
  0
LINE
  5
5A
330
1F
100
AcDbEntity
  8
ACHSEN
  6
Continuous
 62
     7
100
AcDbLine
 10
54.3812418521
 20
145.0522967246
 30
0.0
 11
54.3663204646988
 21
145.050195167047
 31
0.0
  0
LINE
  5
5B
330
1F
100
AcDbEntity
  8
ACHSEN
  6
Continuous
 62
     7
100
AcDbLine
 10
54.3662909144
 20
145.0501909952
 30
0.0
 11
54.3812418525
 21
145.0522967246
 31
0.0
  0
LINE
  5
5C
330
1F
100
AcDbEntity
  8
ACHSEN
  6
Continuous
 62
     7
100
AcDbLine
 10
54.243442598
 20
145.0326783379
 30
0.0
 11
54.3662909144
 21
145.0501909952
 31
0.0
  0
LINE
  5
5D
330
1F
100
AcDbEntity
  8
ACHSEN
  6
Continuous
 62
     7
100
AcDbLine
 10
52.4526715664966
 20
144.727690218005
 30
0.0
 11
47.6026715665
 21
144.6206285329
 31
0.0
  0
LINE
  5
5E
330
1F
100
AcDbEntity
  8
FASEN
  6
Continuous
 62
     7
100
AcDbLine
 10
101.287408978
 20
156.6173202464
 30
0.0
 11
101.325124230614
 21
156.623605859115
 31
0.0
  0
LINE
  5
5F
330
1F
100
AcDbEntity
  8
FASEN
  6
Continuous
 62
     7
100
AcDbLine
 10
90.915705587591
 20
156.617691651591
 30
0.0
 11
90.8802189022
 21
156.6236058592
 31
0.0
  0
LINE
  5
60
330
1F
100
AcDbEntity
  8
DEFAULT_1
  6
CENTER
 62
     5
100
AcDbLine
 10
242.1026715665
 20
156.6236389193
 30
0.0
 11
244.1026715665
 21
153.1595373042
 31
0.0
  0
LINE
  5
61
330
1F
100
AcDbEntity
  8
DEFAULT_1
  6
CENTER
 62
     5
100
AcDbLine
 10
242.1026715665
 20
93.6236389193
 30
0.0
 11
244.1026715665
 21
97.0877405345
 31
0.0
  0
LINE
  5
62
330
1F
100
AcDbEntity
  8
DEFAULT_1
  6
CENTER
 62
     5
100
AcDbLine
 10
244.1026715665
 20
153.1595373042
 30
0.0
 11
244.1026715665
 21
97.0877405345
 31
0.0
  0
LINE
  5
63
330
1F
100
AcDbEntity
  8
DEFAULT_1
  6
CENTER
 62
     5
100
AcDbLine
 10
237.9088308526
 20
150.4136389193
 30
0.0
 11
244.1026715665
 21
142.1791935009
 31
0.0
  0
LINE
  5
64
330
1F
100
AcDbEntity
  8
FASEN
  6
Continuous
 62
     7
100
AcDbLine
 10
229.1026715675
 20
148.6236389176
 30
0.0
 11
228.2366461638
 21
150.1236389175
 31
0.0
  0
LINE
  5
65
330
1F
100
AcDbEntity
  8
DEFAULT_1
  6
CENTER
 62
     5
100
AcDbLine
 10
237.9088308526
 20
99.8336389193
 30
0.0
 11
244.1026715665
 21
108.0680843378
 31
0.0
  0
LINE
  5
66
330
1F
100
AcDbEntity
  8
FASEN
  6
Continuous
 62
     7
100
AcDbLine
 10
229.1026715665
 20
101.6236389196
 30
0.0
 11
229.1026715665
 21
148.6236389191
 31
0.0
  0
LINE
  5
67
330
1F
100
AcDbEntity
  8
0
  6
Continuous
 62
     7
100
AcDbLine
 10
228.7678084104
 20
149.2036389193
 30
0.0
 11
228.7678084104
 21
101.0436389193
 31
0.0
  0
LINE
  5
68
330
1F
100
AcDbEntity
  8
FASEN
  6
Continuous
 62
     7
100
AcDbLine
 10
228.2366461627
 20
100.1236389193
 30
0.0
 11
228.2366461627
 21
150.1236389193
 31
0.0
  0
LINE
  5
69
330
1F
100
AcDbEntity
  8
FASEN
  6
Continuous
 62
     7
100
AcDbLine
 10
229.1026715677
 20
101.6236389214
 30
0.0
 11
228.236646164
 21
100.1236389215
 31
0.0
  0
LINE
  5
6A
330
1F
100
AcDbEntity
  8
DEFAULT_1
  6
CENTER
 62
     5
100
AcDbLine
 10
215.6326715665
 20
150.1236389193
 30
0.0
 11
215.6326715665
 21
154.6236389193
 31
0.0
  0
LINE
  5
6B
330
1F
100
AcDbEntity
  8
DEFAULT_1
  6
CENTER
 62
     5
100
AcDbLine
 10
215.6326715665
 20
95.6236389193
 30
0.0
 11
215.6326715665
 21
100.1236389193
 31
0.0
  0
LINE
  5
6C
330
1F
100
AcDbEntity
  8
0
  6
Continuous
 62
     7
100
AcDbLine
 10
211.6026715665
 20
150.1236389193
 30
0.0
 11
211.6026715665
 21
100.1236389193
 31
0.0
  0
LINE
  5
6D
330
1F
100
AcDbEntity
  8
DEFAULT_2
  6
HIDDEN
 62
     8
100
AcDbLine
 10
196.1940866005
 20
140.4986389193
 30
0.0
 11
196.1940866005
 21
109.7486389193
 31
0.0
  0
LINE
  5
6E
330
1F
100
AcDbEntity
  8
DEFAULT_2
  6
HIDDEN
 62
     8
100
AcDbLine
 10
190.6026715665
 20
140.4986389193
 30
0.0
 11
190.6026715665
 21
109.7486389193
 31
0.0
  0
LINE
  5
6F
330
1F
100
AcDbEntity
  8
DEFAULT_1
  6
CENTER
 62
     5
100
AcDbLine
 10
217.6326715665
 20
156.6236389193
 30
0.0
 11
242.1026715665
 21
156.6236389193
 31
0.0
  0
LINE
  5
70
330
1F
100
AcDbEntity
  8
DEFAULT_1
  6
CENTER
 62
     5
100
AcDbLine
 10
232.6526715665
 20
101.0436389193
 30
0.0
 11
234.3988308526
 21
99.8336389193
 31
0.0
  0
LINE
  5
71
330
1F
100
AcDbEntity
  8
0
  6
Continuous
 62
     7
100
AcDbLine
 10
90.8803942665
 20
156.6236389193
 30
0.0
 11
84.4026716389
 21
156.6236389193
 31
0.0
  0
LINE
  5
72
330
1F
100
AcDbEntity
  8
0
  6
Continuous
 62
     7
100
AcDbLine
 10
106.1026715665
 20
156.6236389193
 30
0.0
 11
101.3249488665
 21
156.6236389193
 31
0.0
  0
LINE
  5
73
330
1F
100
AcDbEntity
  8
0
  6
Continuous
 62
     7
100
AcDbLine
 10
97.5639964319
 20
155.2042316797
 30
0.0
 11
94.6413467011
 21
155.2042316797
 31
0.0
  0
LINE
  5
74
330
1F
100
AcDbEntity
  8
DEFAULT_1
  6
CENTER
 62
     5
100
AcDbLine
 10
234.3988308526
 20
150.4136389193
 30
0.0
 11
237.9088308526
 21
150.4136389193
 31
0.0
  0
LINE
  5
75
330
1F
100
AcDbEntity
  8
0
  6
Continuous
 62
     7
100
AcDbLine
 10
107.1026715665
 20
150.1236389193
 30
0.0
 11
228.2366461627
 21
150.1236389193
 31
0.0
  0
LINE
  5
76
330
1F
100
AcDbEntity
  8
DEFAULT_1
  6
CENTER
 62
     5
100
AcDbLine
 10
228.7678084104
 20
149.2036389193
 30
0.0
 11
232.6526715665
 21
149.2036389193
 31
0.0
  0
LINE
  5
77
330
1F
100
AcDbEntity
  8
0
  6
Continuous
 62
     2
100
AcDbLine
 10
211.6026715665
 20
149.2036389193
 30
0.0
 11
228.7678084104
 21
149.2036389193
 31
0.0
  0
LINE
  5
78
330
1F
100
AcDbEntity
  8
0
  6
Continuous
 62
     7
100
AcDbLine
 10
73.2820328997
 20
145.5271572548
 30
0.0
 11
81.9027346556
 21
145.7437392889
 31
0.0
  0
LINE
  5
79
330
1F
100
AcDbEntity
  8
0
  6
Continuous
 62
     7
100
AcDbLine
 10
54.3662763206
 20
145.0519276095
 30
0.0
 11
64.1526715665
 21
145.2977959215
 31
0.0
  0
LINE
  5
7A
330
1F
100
AcDbEntity
  8
0
  6
Continuous
 62
     7
100
AcDbLine
 10
82.1076946776
 20
145.5488254891
 30
0.0
 11
83.7076946776
 21
145.5890230582
 31
0.0
  0
LINE
  5
7B
330
1F
100
AcDbEntity
  8
DEFAULT_1
  6
CENTER
 62
     5
100
AcDbLine
 10
232.6526715665
 20
149.2036389193
 30
0.0
 11
234.3988308526
 21
150.4136389193
 31
0.0
  0
LINE
  5
7C
330
1F
100
AcDbEntity
  8
DEFAULT_2
  6
HIDDEN
 62
     8
100
AcDbLine
 10
196.1940866005
 20
140.4986389193
 30
0.0
 11
190.6026715665
 21
140.4986389193
 31
0.0
  0
LINE
  5
7D
330
1F
100
AcDbEntity
  8
0
  6
Continuous
 62
     7
100
AcDbLine
 10
82.3557003173
 20
139.813410352
 30
0.0
 11
82.1076946776
 21
139.8085811241
 31
0.0
  0
LINE
  5
7E
330
1F
100
AcDbEntity
  8
0
  6
Continuous
 62
     9
100
AcDbLine
 10
47.6026715665
 20
140.8348835581
 30
0.0
 11
81.9027346556
 21
141.581169668
 31
0.0
  0
LINE
  5
7F
330
1F
100
AcDbEntity
  8
0
  6
Continuous
 62
     7
100
AcDbLine
 10
97.5639964319
 20
134.4728602339
 30
0.0
 11
94.6413467011
 21
134.4728602339
 31
0.0
  0
LINE
  5
80
330
1F
100
AcDbEntity
  8
0
  6
Continuous
 62
     9
100
AcDbLine
 10
46.1026715665
 20
130.3485100499
 30
0.0
 11
81.9027346556
 21
130.3485100499
 31
0.0
  0
LINE
  5
81
330
1F
100
AcDbEntity
  8
0
  6
Continuous
 62
     7
100
AcDbLine
 10
82.1076946776
 20
133.3095821061
 30
0.0
 11
82.3557003173
 21
133.310596362
 31
0.0
  0
LINE
  5
82
330
1F
100
AcDbEntity
  8
DEFAULT_2
  6
HIDDEN
 62
     8
100
AcDbLine
 10
196.1940866005
 20
140.4986389193
 30
0.0
 11
228.6075375321
 21
145.0540523689
 31
0.0
  0
LINE
  5
83
330
1F
100
AcDbEntity
  8
FASEN
  6
HIDDEN
 62
     8
100
AcDbLine
 10
228.6075375321
 20
145.0540523689
 30
0.0
 11
196.1940866005
 21
140.4986389193
 31
0.0
  0
LINE
  5
84
330
1F
100
AcDbEntity
  8
S_ACHSEN
  6
CENTER
 62
     7
100
AcDbLine
 10
43.1026715665
 20
125.1236389193
 30
0.0
 11
247.1026715665
 21
125.1236389193
 31
0.0
  0
LINE
  5
85
330
1F
100
AcDbEntity
  8
DEFAULT_2
  6
HIDDEN
 62
     8
100
AcDbLine
 10
196.1940866005
 20
109.7486389193
 30
0.0
 11
228.6075375321
 21
105.1932254698
 31
0.0
  0
LINE
  5
86
330
1F
100
AcDbEntity
  8
FASEN
  6
HIDDEN
 62
     8
100
AcDbLine
 10
228.6075375321
 20
105.1932254698
 30
0.0
 11
196.1940866005
 21
109.7486389193
 31
0.0
  0
LINE
  5
87
330
1F
100
AcDbEntity
  8
0
  6
Continuous
 62
     7
100
AcDbLine
 10
97.5639964319
 20
115.7744176048
 30
0.0
 11
94.6413467011
 21
115.7744176048
 31
0.0
  0
LINE
  5
88
330
1F
100
AcDbEntity
  8
DEFAULT_2
  6
HIDDEN
 62
     8
100
AcDbLine
 10
196.1940866005
 20
109.7486389193
 30
0.0
 11
190.6026715665
 21
109.7486389193
 31
0.0
  0
LINE
  5
89
330
1F
100
AcDbEntity
  8
0
  6
Continuous
 62
     7
100
AcDbLine
 10
47.6026715665
 20
102.5652755227
 30
0.0
 11
82.1130743893
 21
101.6982540835
 31
0.0
  0
LINE
  5
8A
330
1F
100
AcDbEntity
  8
0
  6
Continuous
 62
     7
100
AcDbLine
 10
82.3557003173
 20
102.246910044
 30
0.0
 11
82.1076946776
 21
102.2527535278
 31
0.0
  0
LINE
  5
8B
330
1F
100
AcDbEntity
  8
0
  6
Continuous
 62
     9
100
AcDbLine
 10
81.9027346556
 20
103.4412370401
 30
0.0
 11
47.6026715665
 21
104.18752315
 31
0.0
  0
LINE
  5
8C
330
1F
100
AcDbEntity
  8
DEFAULT_1
  6
CENTER
 62
     5
100
AcDbLine
 10
228.7678084104
 20
101.0436389193
 30
0.0
 11
232.6526715665
 21
101.0436389193
 31
0.0
  0
LINE
  5
8D
330
1F
100
AcDbEntity
  8
0
  6
Continuous
 62
     2
100
AcDbLine
 10
211.6026715665
 20
101.0436389193
 30
0.0
 11
228.7678084104
 21
101.0436389193
 31
0.0
  0
LINE
  5
8E
330
1F
100
AcDbEntity
  8
0
  6
Continuous
 62
     7
100
AcDbLine
 10
107.1026715665
 20
100.1236389193
 30
0.0
 11
228.2366461627
 21
100.1236389193
 31
0.0
  0
LINE
  5
8F
330
1F
100
AcDbEntity
  8
RUNDUNGEN
  6
Continuous
 62
     7
100
AcDbLine
 10
228.2366461627
 20
100.1236389193
 30
0.0
 11
107.1026715665
 21
100.1236389193
 31
0.0
  0
LINE
  5
90
330
1F
100
AcDbEntity
  8
DEFAULT_1
  6
CENTER
 62
     5
100
AcDbLine
 10
234.3988308526
 20
99.8336389193
 30
0.0
 11
237.9088308526
 21
99.8336389193
 31
0.0
  0
LINE
  5
91
330
1F
100
AcDbEntity
  8
0
  6
Continuous
 62
     7
100
AcDbLine
 10
97.5639964319
 20
95.043046159
 30
0.0
 11
94.6413467011
 21
95.043046159
 31
0.0
  0
LINE
  5
92
330
1F
100
AcDbEntity
  8
0
  6
Continuous
 62
     7
100
AcDbLine
 10
106.1026715665
 20
93.6236389193
 30
0.0
 11
84.4026716389
 21
93.6236389193
 31
0.0
  0
LINE
  5
93
330
1F
100
AcDbEntity
  8
DEFAULT_1
  6
CENTER
 62
     5
100
AcDbLine
 10
242.1026715665
 20
93.6236389193
 30
0.0
 11
217.6326715665
 21
93.6236389193
 31
0.0
  0
LINE
  5
94
330
1F
100
AcDbEntity
  8
0
  6
Continuous
 62
     7
100
AcDbLine
 10
82.7955647853
 20
102.3807457005
 30
0.0
 11
82.113074389
 21
101.6982553043
 31
0.0
  0
LINE
  5
95
330
1F
100
AcDbEntity
  8
RUNDUNGEN
  6
Continuous
 62
     9
100
AcDbLine
 10
107.1026715665
 20
150.1236389193
 30
0.0
 11
107.1026715665
 21
100.1236389193
 31
0.0
  0
LINE
  5
96
330
1F
100
AcDbEntity
  8
0
  6
Continuous
 62
     7
100
AcDbLine
 10
106.1026715665
 20
93.6236389193
 30
0.0
 11
106.1026715665
 21
156.6236389193
 31
0.0
  0
LINE
  5
97
330
1F
100
AcDbEntity
  8
0
  6
Continuous
 62
     9
100
AcDbLine
 10
97.9970091338
 20
115.2542263004
 30
0.0
 11
97.9970091338
 21
95.2096840729
 31
0.0
  0
LINE
  5
98
330
1F
100
AcDbEntity
  8
0
  6
Continuous
 62
     9
100
AcDbLine
 10
97.9970091338
 20
155.0375937658
 30
0.0
 11
97.9970091338
 21
134.9930515383
 31
0.0
  0
LINE
  5
99
330
1F
100
AcDbEntity
  8
0
  6
Continuous
 62
     9
100
AcDbLine
 10
97.5639964319
 20
115.7744176048
 30
0.0
 11
97.5639964319
 21
95.043046159
 31
0.0
  0
LINE
  5
9A
330
1F
100
AcDbEntity
  8
0
  6
Continuous
 62
     9
100
AcDbLine
 10
97.5639964319
 20
155.2042316797
 30
0.0
 11
97.5639964319
 21
134.4728602339
 31
0.0
  0
LINE
  5
9B
330
1F
100
AcDbEntity
  8
ACHSEN
  6
CENTER
 62
     7
100
AcDbLine
 10
96.1026715665
 20
152.4219176813
 30
0.0
 11
96.1026715665
 21
159.6236389193
 31
0.0
  0
LINE
  5
9C
330
1F
100
AcDbEntity
  8
0
  6
Continuous
 62
     9
100
AcDbLine
 10
94.6413467011
 20
115.7744176048
 30
0.0
 11
94.6413467011
 21
95.043046159
 31
0.0
  0
LINE
  5
9D
330
1F
100
AcDbEntity
  8
0
  6
Continuous
 62
     9
100
AcDbLine
 10
94.6413467011
 20
155.2042316797
 30
0.0
 11
94.6413467011
 21
134.4728602339
 31
0.0
  0
LINE
  5
9E
330
1F
100
AcDbEntity
  8
0
  6
Continuous
 62
     9
100
AcDbLine
 10
47.6026715665
 20
104.18752315
 30
0.0
 11
46.1026715665
 21
104.93752315
 31
0.0
  0
LINE
  5
9F
330
1F
100
AcDbEntity
  8
0
  6
Continuous
 62
     9
100
AcDbLine
 10
94.2083339992
 20
115.2542263004
 30
0.0
 11
94.2083339992
 21
95.2096840729
 31
0.0
  0
LINE
  5
A0
330
1F
100
AcDbEntity
  8
0
  6
Continuous
 62
     9
100
AcDbLine
 10
94.2083339992
 20
155.0375937658
 30
0.0
 11
94.2083339992
 21
134.9930515383
 31
0.0
  0
LINE
  5
A1
330
1F
100
AcDbEntity
  8
0
  6
Continuous
 62
     7
100
AcDbLine
 10
84.1026734025
 20
93.9236408267
 30
0.0
 11
84.4026734923
 21
93.6236407728
 31
0.0
  0
LINE
  5
A2
330
1F
100
AcDbEntity
  8
0
  6
Continuous
 62
     7
100
AcDbLine
 10
47.6026715665
 20
102.5652755227
 30
0.0
 11
46.1026715665
 21
103.4313009264
 31
0.0
  0
LINE
  5
A3
330
1F
100
AcDbEntity
  8
0
  6
Continuous
 62
     9
100
AcDbLine
 10
47.6026715665
 20
140.8348835581
 30
0.0
 11
46.1026715665
 21
140.0848835581
 31
0.0
  0
LINE
  5
A4
330
1F
100
AcDbEntity
  8
0
  6
Continuous
 62
     7
100
AcDbLine
 10
83.9026067147
 20
103.7134708279
 30
0.0
 11
83.9025756001
 21
129.7488641334
 31
0.0
  0
LINE
  5
A5
330
1F
100
AcDbEntity
  8
0
  6
Continuous
 62
     7
100
AcDbLine
 10
83.9026067147
 20
141.9132135051
 30
0.0
 11
83.9026715665
 21
147.6571237803
 31
0.0
  0
LINE
  5
A6
330
1F
100
AcDbEntity
  8
0
  6
Continuous
 62
     7
100
AcDbLine
 10
84.4026716401
 20
93.6236389193
 30
0.0
 11
84.4026716401
 21
156.6236389193
 31
0.0
  0
LINE
  5
A7
330
1F
100
AcDbEntity
  8
0
  6
Continuous
 62
     7
100
AcDbLine
 10
84.1026715665
 20
93.9239145889
 30
0.0
 11
84.1026715665
 21
156.3233632498
 31
0.0
  0
LINE
  5
A8
330
1F
100
AcDbEntity
  8
0
  6
Continuous
 62
     9
100
AcDbLine
 10
83.7076946776
 20
130.3065893725
 30
0.0
 11
83.7076946776
 21
103.5962101792
 31
0.0
  0
LINE
  5
A9
330
1F
100
AcDbEntity
  8
0
  6
Continuous
 62
     9
100
AcDbLine
 10
83.7076946776
 20
145.5890230582
 30
0.0
 11
83.7076946776
 21
141.4681172063
 31
0.0
  0
LINE
  5
AA
330
1F
100
AcDbEntity
  8
0
  6
Continuous
 62
     9
100
AcDbLine
 10
82.7955647853
 20
131.5381786801
 30
0.0
 11
82.7955647853
 21
140.8126558095
 31
0.0
  0
LINE
  5
AB
330
1F
100
AcDbEntity
  8
0
  6
Continuous
 62
     9
100
AcDbLine
 10
82.7955647853
 20
102.3807457005
 30
0.0
 11
82.7955647853
 21
103.0200822684
 31
0.0
  0
LINE
  5
AC
330
1F
100
AcDbEntity
  8
0
  6
Continuous
 62
     9
100
AcDbLine
 10
82.1076946776
 20
133.3095821061
 30
0.0
 11
82.1076946776
 21
102.2527535278
 31
0.0
  0
LINE
  5
AD
330
1F
100
AcDbEntity
  8
0
  6
Continuous
 62
     9
100
AcDbLine
 10
82.1076946776
 20
145.5488254891
 30
0.0
 11
82.1076946776
 21
139.8085811241
 31
0.0
  0
LINE
  5
AE
330
1F
100
AcDbEntity
  8
0
  6
Continuous
 62
     7
100
AcDbLine
 10
81.9027346556
 20
130.3485100499
 30
0.0
 11
81.9027346556
 21
103.4412370401
 31
0.0
  0
LINE
  5
AF
330
1F
100
AcDbEntity
  8
0
  6
Continuous
 62
     7
100
AcDbLine
 10
81.9027346556
 20
145.7437392889
 30
0.0
 11
81.9027346556
 21
141.581169668
 31
0.0
  0
LINE
  5
B0
330
1F
100
AcDbEntity
  8
0
  6
Continuous
 62
     7
100
AcDbLine
 10
84.1026734025
 20
156.323637012
 30
0.0
 11
84.4026734923
 21
156.6236370659
 31
0.0
  0
LINE
  5
B1
330
1F
100
AcDbEntity
  8
ACHSEN
  6
CENTER
 62
     7
100
AcDbLine
 10
68.6026715665
 20
102.1901534123
 30
0.0
 11
68.6026715665
 21
149.3120094839
 31
0.0
  0
LINE
  5
B2
330
1F
100
AcDbEntity
  8
0
  6
Continuous
 62
     7
100
AcDbLine
 10
47.6026715665
 20
140.8348835581
 30
0.0
 11
47.6026715665
 21
102.5652755227
 31
0.0
  0
LINE
  5
B3
330
1F
100
AcDbEntity
  8
ACHSEN
  6
Continuous
 62
     7
100
AcDbLine
 10
47.6026715665
 20
144.6206285329
 30
0.0
 11
47.6026715665
 21
140.8348835581
 31
0.0
  0
LINE
  5
B4
330
1F
100
AcDbEntity
  8
ACHSEN
  6
Continuous
 62
     7
100
AcDbLine
 10
46.1026715665
 20
140.0848835581
 30
0.0
 11
46.1026715665
 21
143.8721182333
 31
0.0
  0
LINE
  5
B5
330
1F
100
AcDbEntity
  8
KURVEN
  6
Continuous
 62
     4
100
AcDbLine
 10
46.1026715665
 20
102.6029607437
 30
0.0
 11
46.1026715665
 21
144.3352129063
 31
0.0
  0
LINE
  5
B6
330
1F
100
AcDbEntity
  8
0
  6
Continuous
 62
     7
100
AcDbLine
 10
46.1026715665
 20
103.4313009264
 30
0.0
 11
46.1026715665
 21
140.0848835581
 31
0.0
  0
LINE
  5
B7
330
1F
100
AcDbEntity
  8
0
  6
Continuous
 62
     7
100
AcDbLine
 10
297.0
 20
0.0
 30
0.0
 11
297.0
 21
210.0
 31
0.0
  0
LINE
  5
B8
330
1F
100
AcDbEntity
  8
0
  6
Continuous
 62
     7
100
AcDbLine
 10
0.0
 20
210.0
 30
0.0
 11
297.0
 21
210.0
 31
0.0
  0
LINE
  5
B9
330
1F
100
AcDbEntity
  8
0
  6
Continuous
 62
     7
100
AcDbLine
 10
0.0
 20
0.0
 30
0.0
 11
297.0
 21
0.0
 31
0.0
  0
LINE
  5
BA
330
1F
100
AcDbEntity
  8
0
  6
Continuous
 62
     7
100
AcDbLine
 10
0.0
 20
0.0
 30
0.0
 11
0.0
 21
210.0
 31
0.0
  0
ARC
  5
BB
330
1F
100
AcDbEntity
  8
0
  6
Continuous
 62
     7
100
AcDbCircle
 10
82.1026715665
 20
145.7487624
 30
0.0
 40
0.1999999999634008
100
AcDbArc
 50
181.4391666598507
 51
271.4391666598468
  0
ARC
  5
BC
330
1F
100
AcDbEntity
  8
0
  6
Continuous
 62
     7
100
AcDbCircle
 10
83.7026715665
 20
145.7889599691
 30
0.0
 40
0.1999999999633866
100
AcDbArc
 50
271.4391666598509
 51
0.0
  0
ARC
  5
BD
330
1F
100
AcDbEntity
  8
0
  6
Continuous
 62
     7
100
AcDbCircle
 10
83.5026715665
 20
148.5736389193
 30
0.0
 40
1.000000000008108
100
AcDbArc
 50
293.5781784779995
 51
306.897652394999
  0
ARC
  5
BE
330
1F
100
AcDbEntity
  8
0
  6
Continuous
 62
     7
100
AcDbCircle
 10
83.5026715665
 20
101.6736389193
 30
0.0
 40
1.000000000000023
100
AcDbArc
 50
53.1023476050005
 51
135.0
  0
ARC
  5
BF
330
1F
100
AcDbEntity
  8
RUNDUNGEN
  6
Continuous
 62
     7
100
AcDbCircle
 10
107.1026715665
 20
99.1236389193
 30
0.0
 40
1.0
100
AcDbArc
 50
90.0
 51
179.9999999997997
  0
ARC
  5
C0
330
1F
100
AcDbEntity
  8
RUNDUNGEN
  6
Continuous
 62
     7
100
AcDbCircle
 10
107.1026715665
 20
151.1236389193
 30
0.0
 40
1.0
100
AcDbArc
 50
180.0000000005146
 51
270.0
  0
ARC
  5
C1
330
1F
100
AcDbEntity
  8
DEFAULT_1
  6
CENTER
 62
     5
100
AcDbCircle
 10
217.6326715665
 20
95.6236389193
 30
0.0
 40
2.0
100
AcDbArc
 50
180.0
 51
270.0
  0
ARC
  5
C2
330
1F
100
AcDbEntity
  8
DEFAULT_1
  6
CENTER
 62
     5
100
AcDbCircle
 10
217.6326715665
 20
154.6236389193
 30
0.0
 40
2.0
100
AcDbArc
 50
90.0
 51
180.0
  0
ARC
  5
C3
330
1F
100
AcDbEntity
  8
FASEN
  6
Continuous
 62
     7
100
AcDbCircle
 10
96.1153570911
 20
187.3620622161
 30
0.0
 40
31.17999990045024
100
AcDbArc
 50
261.4577528720189
 51
269.9766893186448
  0
ARC
  5
C4
330
1F
100
AcDbEntity
  8
FASEN
  6
Continuous
 62
     7
100
AcDbCircle
 10
96.0626981704
 20
187.7268061567
 30
0.0
 40
31.54476658760019
100
AcDbArc
 50
270.0726049912
 51
278.5005101088184
  0
ARC
  5
C5
330
1F
100
AcDbEntity
  8
FASEN
  6
Continuous
 62
     7
100
AcDbCircle
 10
96.3912908725
 20
189.4452754242
 30
0.0
 40
33.28111011609999
100
AcDbArc
 50
260.5303395517
 51
261.5207019096001
  0
ARC
  5
C6
330
1F
100
AcDbEntity
  8
FASEN
  6
Continuous
 62
     7
100
AcDbCircle
 10
95.4312207025
 20
191.8679223317
 30
0.0
 40
35.73373675419958
100
AcDbArc
 50
278.5204051948999
 51
279.4937180578996
  0
ARC
  5
C7
330
1F
100
AcDbEntity
  8
ACHSEN
  6
Continuous
 62
     7
100
AcDbCircle
 10
59.3642431862
 20
109.5552357341
 30
0.0
 40
35.84510254800022
100
AcDbArc
 50
98.01492884219998
 51
101.1172700804999
  0
ARC
  5
C8
330
1F
100
AcDbEntity
  8
0
  6
Continuous
 62
     7
100
AcDbCircle
 10
-24.6493396289
 20
105.81415009
 30
0.0
 40
110.4813700651873
100
AcDbArc
 50
13.46409039977667
 51
14.41116213519959
  0
ARC
  5
C9
330
1F
100
AcDbEntity
  8
ACHSEN
  6
Continuous
 62
     7
100
AcDbCircle
 10
-17.6555454114
 20
273.5195784718
 30
0.0
 40
144.4768984249538
100
AcDbArc
 50
296.1871039389457
 51
296.8519184684691
  0
ARC
  5
CA
330
1F
100
AcDbEntity
  8
0
  6
Continuous
 62
     7
100
AcDbCircle
 10
228.3368443371
 20
76.1494410498
 30
0.0
 40
159.2595221537296
100
AcDbArc
 50
156.0446773747741
 51
156.4374589830854
  0
SPLINE
  5
CB
330
1F
100
AcDbEntity
  8
0
  6
Continuous
 62
     7
100
AcDbSpline
210
0.0
220
0.0
230
1.0
 70
     8
 71
     3
 72
    15
 73
    11
 74
     9
 42
0.0000000001
 43
0.0000000001
 44
0.00000001
 40
0.0
 40
0.0
 40
0.0
 40
0.0
 40
2.76807136278944
 40
5.54398716324222
 40
7.429045838741661
 40
9.310745243055393
 40
11.52272334090796
 40
13.73599890252773
 40
17.16735239760573
 40
20.59799187710967
 40
20.59799187710967
 40
20.59799187710967
 40
20.59799187710967
 10
94.208333999664
 20
155.037593766279
 30
0.0
 10
93.72734438622004
 20
154.2400837585881
 30
0.0
 10
92.76400208282693
 20
152.6428036795299
 30
0.0
 10
92.38606010819998
 20
150.1509298160274
 30
0.0
 10
92.24425707019387
 20
147.9797460706891
 30
0.0
 10
92.27709797680592
 20
145.9837030321941
 30
0.0
 10
92.43878240334979
 20
143.8868948988025
 30
0.0
 10
92.7870665692752
 20
141.2902690402343
 30
0.0
 10
93.34649350389913
 20
138.3146655445982
 30
0.0
 10
93.92107376379023
 20
136.1001793977989
 30
0.0
 10
94.2083340001425
 20
134.993051537108
 30
0.0
 11
94.208333999664
 21
155.037593766279
 31
0.0
 11
92.93520849070386
 21
152.5796738107211
 31
0.0
 11
92.3890136327586
 21
149.8580236296071
 31
0.0
 11
92.26981233243747
 21
147.9767375641515
 31
0.0
 11
92.2927062508227
 21
146.0951774357752
 31
0.0
 11
92.45941865660535
 21
143.889490676705
 31
0.0
 11
92.74809375710271
 21
141.6951216562309
 31
0.0
 11
93.38444198214427
 21
138.3232901443267
 31
0.0
 11
94.2083340001425
 21
134.993051537108
 31
0.0
  0
SPLINE
  5
CC
330
1F
100
AcDbEntity
  8
0
  6
Continuous
 62
     7
100
AcDbSpline
210
0.0
220
0.0
230
1.0
 70
     8
 71
     3
 72
    15
 73
    11
 74
     9
 42
0.0000000001
 43
0.0000000001
 44
0.00000001
 40
0.0
 40
0.0
 40
0.0
 40
0.0
 40
4.908005104415801
 40
9.815816967554936
 40
11.81736697981849
 40
13.81798377233645
 40
15.4766458449331
 40
17.13807097055854
 40
18.87967154034495
 40
20.6086920615552
 40
20.6086920615552
 40
20.6086920615552
 40
20.6086920615552
 10
97.9970091328575
 20
134.993051537108
 30
0.0
 10
98.39866891615256
 20
136.5795924339419
 30
0.0
 10
99.20197266832363
 20
139.7526117612549
 30
0.0
 10
99.77369855059597
 20
143.6603257395643
 30
0.0
 10
99.9543547054201
 20
146.6262484127987
 30
0.0
 10
99.94074703720075
 20
148.5145249208768
 30
0.0
 10
99.79521418033565
 20
150.2853964134553
 30
0.0
 10
99.48170250803798
 20
151.9427248635499
 30
0.0
 10
98.97770016050146
 20
153.597110853768
 30
0.0
 10
98.32311524552554
 20
154.5585945001878
 30
0.0
 10
97.997009133336
 20
155.037593766279
 30
0.0
 11
97.9970091328575
 21
134.993051537108
 31
0.0
 11
99.1198819645286
 21
139.7708827091845
 31
0.0
 11
99.81632950011672
 21
144.6290282518935
 31
0.0
 11
99.93167121695004
 21
146.627252148245
 31
0.0
 11
99.91263688223805
 21
148.6277783901641
 31
0.0
 11
99.76663039318542
 21
150.2800017334882
 31
0.0
 11
99.45724937614123
 21
151.9123671442808
 31
0.0
 11
98.89745856638487
 21
153.561550819313
 31
0.0
 11
97.997009133336
 21
155.037593766279
 31
0.0
  0
SPLINE
  5
CD
330
1F
100
AcDbEntity
  8
0
  6
Continuous
 62
     7
100
AcDbSpline
210
0.0
220
0.0
230
1.0
 70
     8
 71
     3
 72
    15
 73
    11
 74
     9
 42
0.0000000001
 43
0.0000000001
 44
0.00000001
 40
0.0
 40
0.0
 40
0.0
 40
0.0
 40
2.768071363100183
 40
5.543987163860301
 40
7.429045839534338
 40
9.310745244023826
 40
11.52272334203741
 40
13.73599890381812
 40
17.16735239752186
 40
20.59799187565105
 40
20.59799187565105
 40
20.59799187565105
 40
20.59799187565105
 10
97.9970091340708
 20
95.2096840732069
 30
0.0
 10
98.47799874741338
 20
96.0071940810763
 30
0.0
 10
99.4413410506027
 20
97.60447416049092
 30
0.0
 10
99.81928302501088
 20
100.0963480242786
 30
0.0
 10
99.96108606284594
 20
102.2675317698497
 30
0.0
 10
99.92824515609277
 20
104.2635748085119
 30
0.0
 10
99.76656072941037
 20
106.360382942059
 30
0.0
 10
99.41827656339655
 20
108.9570088002613
 30
0.0
 10
98.85884962884126
 20
111.9326122950287
 30
0.0
 10
98.2842693691789
 20
114.1470984409402
 30
0.0
 10
97.997009132941
 20
115.254226301187
 30
0.0
 11
97.9970091340708
 21
95.2096840732069
 31
0.0
 11
99.27013464273699
 21
97.66760402926705
 31
0.0
 11
99.81632950043307
 21
100.3892542107445
 31
0.0
 11
99.93553080060477
 21
102.2705402763845
 31
0.0
 11
99.91263688208448
 21
104.152100404935
 31
0.0
 11
99.74592447615638
 21
106.3577871641557
 31
0.0
 11
99.45724937552275
 21
108.5521561847741
 31
0.0
 11
98.82090115062809
 21
111.9239876953075
 31
0.0
 11
97.997009132941
 21
115.254226301187
 31
0.0
  0
SPLINE
  5
CE
330
1F
100
AcDbEntity
  8
0
  6
Continuous
 62
     7
100
AcDbSpline
210
0.0
220
0.0
230
1.0
 70
     8
 71
     3
 72
    15
 73
    11
 74
     9
 42
0.0000000001
 43
0.0000000001
 44
0.00000001
 40
0.0
 40
0.0
 40
0.0
 40
0.0
 40
4.908005104137952
 40
9.815816966999293
 40
11.81736697909051
 40
13.81798377143662
 40
15.47664584385806
 40
17.13807096930749
 40
18.87967153826331
 40
20.60869205864701
 40
20.60869205864701
 40
20.60869205864701
 40
20.60869205864701
 10
94.2083339994078
 20
115.254226298806
 30
0.0
 10
93.80667421619742
 20
113.6676854020462
 30
0.0
 10
93.00337046419573
 20
110.4946660748813
 30
0.0
 10
92.4316445821485
 20
106.5869520967821
 30
0.0
 10
92.25098842752334
 20
103.6210294237431
 30
0.0
 10
92.2645960958811
 20
101.7327529158383
 30
0.0
 10
92.41012895288688
 20
99.96188142344657
 30
0.0
 10
92.72364062529283
 20
98.30455297376889
 30
0.0
 10
93.22764297285622
 20
96.65016698421768
 30
0.0
 10
93.88222788753777
 20
95.68868333827479
 30
0.0
 10
94.2083339995805
 20
95.2096840724215
 30
0.0
 11
94.2083339994078
 21
115.254226298806
 31
0.0
 11
93.08546116799457
 21
110.4763951269543
 31
0.0
 11
92.38901363269173
 21
105.6182495844851
 31
0.0
 11
92.27367191599524
 21
103.6200256882983
 31
0.0
 11
92.29270625085502
 21
101.6194994465525
 31
0.0
 11
92.43871274003959
 21
99.96727610341591
 31
0.0
 11
92.74809375723333
 21
98.33491069283076
 31
0.0
 11
93.3078845669046
 21
96.68572701864683
 31
0.0
 11
94.2083339995805
 21
95.2096840724215
 31
0.0
  0
SPLINE
  5
CF
330
1F
100
AcDbEntity
  8
0
  6
Continuous
 62
     7
100
AcDbSpline
210
0.0
220
0.0
230
1.0
 70
     8
 71
     3
 72
    15
 73
    11
 74
     9
 42
0.0000000001
 43
0.0000000001
 44
0.00000001
 40
0.0
 40
0.0
 40
0.0
 40
0.0
 40
0.0912425505698099
 40
0.1841719043994557
 40
0.2747515951596537
 40
0.3649941853442742
 40
0.454231961366632
 40
0.5434466777800789
 40
0.6320588383743421
 40
0.7206426576272664
 40
0.7206426576272664
 40
0.7206426576272664
 40
0.7206426576272664
 10
97.5639964319
 20
115.7744176048
 30
0.0
 10
97.5944630471549
 20
115.7706226899002
 30
0.0
 10
97.6559595147248
 20
115.7629627034162
 30
0.0
 10
97.73664038965086
 20
115.715349070211
 30
0.0
 10
97.80387687644152
 20
115.6532209658721
 30
0.0
 10
97.85774871141084
 20
115.5805840660631
 30
0.0
 10
97.90312070328395
 20
115.5032464776849
 30
0.0
 10
97.94074404902508
 20
115.4224445951439
 30
0.0
 10
97.97228677313775
 20
115.3393296056628
 30
0.0
 10
97.98876922566618
 20
115.2825910438333
 30
0.0
 10
97.9970091338
 20
115.2542263004
 30
0.0
 11
97.5639964319
 21
115.7744176048
 31
0.0
 11
97.65357649021067
 21
115.7570793180467
 31
0.0
 11
97.73506967290982
 21
115.7124169627935
 31
0.0
 11
97.80186654188269
 21
115.6512380556961
 31
0.0
 11
97.85655978458529
 21
115.5794580146965
 31
0.0
 11
97.90187585530653
 21
115.502582567356
 31
0.0
 11
97.93982283451555
 21
115.4218404321747
 31
0.0
 11
97.97116543143012
 21
115.3389564371947
 31
0.0
 11
97.9970091338
 21
115.2542263004
 31
0.0
  0
SPLINE
  5
D0
330
1F
100
AcDbEntity
  8
0
  6
Continuous
 62
     7
100
AcDbSpline
210
0.0
220
0.0
230
1.0
 70
     8
 71
     3
 72
    11
 73
     7
 74
     5
 42
0.0000000001
 43
0.0000000001
 44
0.00000001
 40
0.0
 40
0.0
 40
0.0
 40
0.0
 40
0.0858880417983201
 40
0.1724696234291
 40
0.3262585111886158
 40
0.4767798625919667
 40
0.4767798625919667
 40
0.4767798625919667
 40
0.4767798625919667
 10
97.5639964319
 20
155.2042316797
 30
0.0
 10
97.5926697107831
 20
155.2034039804958
 30
0.0
 10
97.65024780323807
 20
155.2017418984752
 30
0.0
 10
97.75721412583027
 20
155.1823058549882
 30
0.0
 10
97.88413095289403
 20
155.1412232172897
 30
0.0
 10
97.95965338128343
 20
155.0718887563129
 30
0.0
 10
97.9970091338
 20
155.0375937658
 30
0.0
 11
97.5639964319
 21
155.2042316797
 31
0.0
 11
97.64976018536223
 21
155.1996127711688
 31
0.0
 11
97.73508076895156
 21
155.1848897180322
 31
0.0
 11
97.87924554596577
 21
155.1313403103161
 31
0.0
 11
97.9970091338
 21
155.0375937658
 31
0.0
  0
SPLINE
  5
D1
330
1F
100
AcDbEntity
  8
0
  6
Continuous
 62
     7
100
AcDbSpline
210
0.0
220
0.0
230
1.0
 70
     8
 71
     3
 72
    11
 73
     7
 74
     5
 42
0.0000000001
 43
0.0000000001
 44
0.00000001
 40
0.0
 40
0.0
 40
0.0
 40
0.0
 40
0.0858653726977553
 40
0.1724244651330769
 40
0.3262359599567894
 40
0.4767776583638401
 40
0.4767776583638401
 40
0.4767776583638401
 40
0.4767776583638401
 10
94.6413467011
 20
95.043046159
 30
0.0
 10
94.612680996531
 20
95.04387389264754
 30
0.0
 10
94.55511799269503
 20
95.04553604733181
 30
0.0
 10
94.44815915449142
 20
95.06496981475433
 30
0.0
 10
94.32123177053444
 20
95.10604371597856
 30
0.0
 10
94.2456960855973
 20
95.17538561046115
 30
0.0
 10
94.2083339992
 20
95.2096840729
 30
0.0
 11
94.6413467011
 21
95.043046159
 31
0.0
 11
94.55560561118854
 21
95.04766435446126
 31
0.0
 11
94.47030690573649
 21
95.06238194024941
 31
0.0
 11
94.32611743464334
 21
95.1159297914274
 31
0.0
 11
94.2083339992
 21
95.2096840729
 31
0.0
  0
SPLINE
  5
D2
330
1F
100
AcDbEntity
  8
0
  6
Continuous
 62
     7
100
AcDbSpline
210
0.0
220
0.0
230
1.0
 70
     8
 71
     3
 72
    15
 73
    11
 74
     9
 42
0.0000000001
 43
0.0000000001
 44
0.00000001
 40
0.0
 40
0.0
 40
0.0
 40
0.0
 40
0.0885899128188569
 40
0.177208418678436
 40
0.2664297110376105
 40
0.3556733080281745
 40
0.4459224248254025
 40
0.536510061830384
 40
0.629418314255107
 40
0.7206388088425967
 40
0.7206388088425967
 40
0.7206388088425967
 40
0.7206388088425967
 10
94.2083339992
 20
115.2542263004
 30
0.0
 10
94.21657462996936
 20
115.282592953627
 30
0.0
 10
94.23305855123184
 20
115.3393354156253
 30
0.0
 10
94.26460432019242
 20
115.4224560026633
 30
0.0
 10
94.30222910860721
 20
115.5032640952152
 30
0.0
 10
94.34760619021648
 20
115.580606297589
 30
0.0
 10
94.40149156133599
 20
115.6532420795099
 30
0.0
 10
94.4687350253392
 20
115.7153588308837
 30
0.0
 10
94.54940550528644
 20
115.7629644293969
 30
0.0
 10
94.61088748753416
 20
115.7706232804765
 30
0.0
 10
94.6413467011
 20
115.7744176048
 30
0.0
 11
94.2083339992
 21
115.2542263004
 31
0.0
 11
94.23417999921485
 21
115.3389621070964
 31
0.0
 11
94.2655252460796
 21
115.4218518837867
 31
0.0
 11
94.30347467479689
 21
115.5026001337385
 31
0.0
 11
94.34879632055653
 21
115.5794790517164
 31
0.0
 11
94.4035015686304
 21
115.6512581497593
 31
0.0
 11
94.47031191962034
 21
115.7124341007429
 31
0.0
 11
94.55178838524297
 21
115.7570830527828
 31
0.0
 11
94.6413467011
 21
115.7744176048
 31
0.0
  0
SPLINE
  5
D3
330
1F
100
AcDbEntity
  8
0
  6
Continuous
 62
     7
100
AcDbSpline
210
0.0
220
0.0
230
1.0
 70
     8
 71
     3
 72
    11
 73
     7
 74
     5
 42
0.0000000001
 43
0.0000000001
 44
0.00000001
 40
0.0
 40
0.0
 40
0.0
 40
0.0
 40
0.0396067480901004
 40
0.0793078946183788
 40
0.2768264670451707
 40
0.4765469383007376
 40
0.4765469383007376
 40
0.4765469383007376
 40
0.4765469383007376
 10
97.9970091338
 20
95.2096840729
 30
0.0
 10
97.988207559007
 20
95.19982057135617
 30
0.0
 10
97.97058343181094
 20
95.1800700596699
 30
0.0
 10
97.89991265736622
 20
95.12047741674782
 30
0.0
 10
97.76353027805766
 20
95.05624235790195
 30
0.0
 10
97.63075304233813
 20
95.04746111679451
 30
0.0
 10
97.5639964319
 20
95.043046159
 30
0.0
 11
97.9970091338
 21
95.2096840729
 31
0.0
 11
97.96995039104267
 21
95.18076143583723
 31
0.0
 11
97.93982404601648
 21
95.15490443734508
 31
0.0
 11
97.76204514386279
 21
95.06883325516111
 31
0.0
 11
97.5639964319
 21
95.043046159
 31
0.0
  0
SPLINE
  5
D4
330
1F
100
AcDbEntity
  8
0
  6
Continuous
 62
     7
100
AcDbSpline
210
0.0
220
0.0
230
1.0
 70
     8
 71
     3
 72
    13
 73
     9
 74
     7
 42
0.0000000001
 43
0.0000000001
 44
0.00000001
 40
0.0
 40
0.0
 40
0.0
 40
0.0
 40
0.7059708843368049
 40
1.412231769503201
 40
2.201489765433008
 40
2.990772518937855
 40
4.758700584041806
 40
6.526717397131101
 40
6.526717397131101
 40
6.526717397131101
 40
6.526717397131101
 10
82.3557003173
 20
139.813410352
 30
0.0
 10
82.3168802835197
 20
139.5812500355153
 30
0.0
 10
82.23922426934959
 20
139.1168340350373
 30
0.0
 10
82.16694023596528
 20
138.3861287605152
 30
0.0
 10
82.12205949160983
 20
137.6256720412701
 30
0.0
 10
82.1034569193472
 20
136.5101603008266
 30
0.0
 10
82.15355880272475
 20
135.0674926776057
 30
0.0
 10
82.28831868500433
 20
133.89623826623
 30
0.0
 10
82.3557003173
 20
133.310596362
 30
0.0
 11
82.3557003173
 21
139.813410352
 31
0.0
 11
82.2470586519446
 21
139.1158489725644
 31
0.0
 11
82.17406499675832
 21
138.4133702439053
 31
0.0
 11
82.12761796502112
 21
137.6254801136321
 31
0.0
 11
82.11307319822397
 21
136.8363313857366
 31
0.0
 11
82.1770067892785
 21
135.0695597142077
 31
0.0
 11
82.3557003173
 21
133.310596362
 31
0.0
  0
SPLINE
  5
D5
330
1F
100
AcDbEntity
  8
0
  6
Continuous
 62
     7
100
AcDbSpline
210
0.0
220
0.0
230
1.0
 70
     8
 71
     3
 72
    27
 73
    23
 74
    21
 42
0.0000000001
 43
0.0000000001
 44
0.00000001
 40
0.0
 40
0.0
 40
0.0
 40
0.0
 40
0.1984187744389023
 40
0.3968374365353136
 40
0.502976939782428
 40
0.609116061970768
 40
0.7197506973264152
 40
0.830387100698036
 40
0.9454468408799361
 40
1.060500806707293
 40
1.179956515050167
 40
1.299443223357208
 40
1.360928421960327
 40
1.422345300199728
 40
1.48494930566591
 40
1.547805801701845
 40
1.612731563732003
 40
1.676696646136476
 40
1.709481594172921
 40
1.743841351770725
 40
1.784580073342049
 40
1.821170232115807
 40
1.821170232115807
 40
1.821170232115807
 40
1.821170232115807
 10
81.9027346556
 20
141.581169668
 30
0.0
 10
81.90273299724656
 20
141.5150300787753
 30
0.0
 10
81.9027296805406
 20
141.3827509377733
 30
0.0
 10
81.90319389294257
 20
141.2150920268946
 30
0.0
 10
81.90417500841743
 20
141.0781961136225
 30
0.0
 10
81.9054566541449
 20
140.9705654645164
 30
0.0
 10
81.90747186962045
 20
140.8614462389825
 30
0.0
 10
81.91054618898619
 20
140.7493763314885
 30
0.0
 10
81.91496048082512
 20
140.6358754161433
 30
0.0
 10
81.92122739703193
 20
140.5195158536689
 30
0.0
 10
81.92975864743445
 20
140.4018167916241
 30
0.0
 10
81.93963307954209
 20
140.3021452421093
 30
0.0
 10
81.9496550101177
 20
140.2219681834212
 30
0.0
 10
81.95858811199984
 20
140.1607773235632
 30
0.0
 10
81.969078727197
 20
140.0993633382751
 30
0.0
 10
81.98200403674865
 20
140.0372216354236
 30
0.0
 10
81.99789766355136
 20
139.9752535003459
 30
0.0
 10
82.01466763519502
 20
139.9240688372169
 30
0.0
 10
82.03101420589994
 20
139.8833224029104
 30
0.0
 10
82.04855460139636
 20
139.8523528915606
 30
0.0
 10
82.07022271968455
 20
139.8196963984823
 30
0.0
 10
82.09565889411468
 20
139.8121512881183
 30
0.0
 10
82.1076946776
 20
139.8085811241
 30
0.0
 11
81.9027346556
 21
141.581169668
 31
0.0
 11
81.90282207304158
 21
141.3827509128179
 31
0.0
 11
81.90346856503166
 21
141.1843333039314
 31
0.0
 11
81.90425886539144
 21
141.0781967429597
 31
0.0
 11
81.90555241608376
 21
140.9720655035176
 31
0.0
 11
81.90763702072181
 21
140.8614505092186
 31
0.0
 11
81.9107125978692
 21
140.7508568630348
 31
0.0
 11
81.91524665306484
 21
140.6358864922682
 31
0.0
 11
81.9214968933644
 21
140.5210024222289
 31
0.0
 11
81.93028153223023
 21
140.4018701580193
 31
0.0
 11
81.94220835383624
 21
140.2829801904509
 31
0.0
 11
81.94986727129594
 21
140.2219738741335
 31
0.0
 11
81.9587736852151
 21
140.1612062123077
 31
0.0
 11
81.96943172317435
 21
140.0995161180683
 31
0.0
 11
81.98232729628924
 21
140.0379966635197
 31
0.0
 11
81.99865878136742
 21
139.9751584810959
 31
0.0
 11
82.01878790165985
 21
139.9144431594442
 31
0.0
 11
82.03142469360152
 21
139.8841914767278
 31
0.0
 11
82.04801137913437
 21
139.8541003683199
 31
0.0
 11
82.07392345381132
 21
139.8226645953661
 31
0.0
 11
82.1076946776
 21
139.8085811241
 31
0.0
  0
SPLINE
  5
D6
330
1F
100
AcDbEntity
  8
0
  6
Continuous
 62
     7
100
AcDbSpline
210
0.0
220
0.0
230
1.0
 70
     8
 71
     3
 72
    35
 73
    31
 74
    29
 42
0.0000000001
 43
0.0000000001
 44
0.00000001
 40
0.0
 40
0.0
 40
0.0
 40
0.0
 40
0.0224671169951516
 40
0.0469716776631218
 40
0.0706451029803218
 40
0.0934198435412324
 40
0.1394101663891759
 40
0.1859681377042566
 40
0.2323174996395974
 40
0.2785095838242558
 40
0.3247931273945393
 40
0.3711204777821738
 40
0.4638921740276538
 40
0.5566437643026323
 40
0.6496253659409211
 40
0.7426109215239881
 40
0.8358149913342202
 40
0.929017838387798
 40
1.022429258431276
 40
1.115841003226676
 40
1.303223325684114
 40
1.490608110819533
 40
1.678620804270361
 40
1.866632541308606
 40
2.055121153343472
 40
2.243609949486411
 40
2.432418417667593
 40
2.621226802696332
 40
2.810196206316746
 40
2.999165615265477
 40
2.999165615265477
 40
2.999165615265477
 40
2.999165615265477
 10
82.1076946776
 20
133.3095821061
 30
0.0
 10
82.10029997948557
 20
133.3075222976387
 30
0.0
 10
82.08483999072412
 20
133.3032158857784
 30
0.0
 10
82.06979663206033
 20
133.2837624745682
 30
0.0
 10
82.05728285580764
 20
133.2639238373457
 30
0.0
 10
82.04468268430551
 20
133.2356568972183
 30
0.0
 10
82.03145237324249
 20
133.1995803845589
 30
0.0
 10
82.01846998027392
 20
133.1550962565994
 30
0.0
 10
82.00747541961894
 20
133.1100456742916
 30
0.0
 10
81.99806378552752
 20
133.0647301577286
 30
0.0
 10
81.98969601174659
 20
133.0192226910949
 30
0.0
 10
81.97970101656841
 20
132.9582390159301
 30
0.0
 10
81.96903001828382
 20
132.8816839705637
 30
0.0
 10
81.95849489538307
 20
132.7894425481745
 30
0.0
 10
81.94957513486887
 20
132.6969615607017
 30
0.0
 10
81.9420156086399
 20
132.604209243862
 30
0.0
 10
81.93557296279224
 20
132.5112996259137
 30
0.0
 10
81.93008428768265
 20
132.4181870956193
 30
0.0
 10
81.92539421150191
 20
132.3249619912973
 30
0.0
 10
81.9200583585513
 20
132.2003401107619
 30
0.0
 10
81.91486663269812
 20
132.0443631032726
 30
0.0
 10
81.91048510036174
 20
131.8568189837377
 30
0.0
 10
81.9074393309451
 20
131.66903938136
 30
0.0
 10
81.90542822318076
 20
131.4808784380387
 30
0.0
 10
81.90415250017568
 20
131.2925527059123
 30
0.0
 10
81.90341228900121
 20
131.1039587045026
 30
0.0
 10
81.90300746239893
 20
130.9152571959246
 30
0.0
 10
81.90282349427653
 20
130.7263951781692
 30
0.0
 10
81.90274245815881
 20
130.5374794583431
 30
0.0
 10
81.90273725645295
 20
130.4114998533064
 30
0.0
 10
81.9027346556
 20
130.3485100499
 30
0.0
 11
82.1076946776
 21
133.3095821061
 31
0.0
 11
82.08675921178083
 21
133.3014287253896
 31
0.0
 11
82.07007550451554
 21
133.2834808172827
 31
0.0
 11
82.05760769890014
 21
133.2633565809149
 31
0.0
 11
82.04800998263262
 21
133.2427029456401
 31
0.0
 11
82.03200329685963
 21
133.1995880316749
 31
0.0
 11
82.0187870658785
 21
133.1549452726694
 31
0.0
 11
82.00772405524276
 21
133.1099355720762
 31
0.0
 11
81.99824325870745
 21
133.064726909871
 31
0.0
 11
81.98984599046635
 21
133.0192115026828
 31
0.0
 11
81.9823268280699
 21
132.9734984236923
 31
0.0
 11
81.96940940010738
 21
132.8816304331891
 31
0.0
 11
81.95877338653418
 21
132.7894906876185
 31
0.0
 11
81.94980418985526
 21
132.6969426905891
 31
0.0
 11
81.94220815968727
 21
132.6042679158509
 31
0.0
 11
81.93573344914533
 21
132.5112890109714
 31
0.0
 11
81.93022180888224
 21
132.4182492747266
 31
0.0
 11
81.92551049359555
 21
132.3249567407123
 31
0.0
 11
81.92149680665906
 21
132.2316312651823
 31
0.0
 11
81.9151761831496
 21
132.0443555740529
 31
0.0
 11
81.91071256224741
 21
131.8570239595596
 31
0.0
 11
81.9076126184405
 21
131.6690368237044
 31
0.0
 11
81.90555240613915
 21
131.4810363747969
 31
0.0
 11
81.90424200169512
 21
131.2925523178928
 31
0.0
 11
81.90346856381387
 21
131.1040651086046
 31
0.0
 11
81.90304431890883
 21
130.9152571170545
 31
0.0
 11
81.90284069353744
 21
130.7264488418284
 31
0.0
 11
81.90275466758965
 21
130.5374794577891
 31
0.0
 11
81.9027346556
 21
130.3485100499
 31
0.0
  0
SPLINE
  5
D7
330
1F
100
AcDbEntity
  8
0
  6
Continuous
 62
     7
100
AcDbSpline
210
0.0
220
0.0
230
1.0
 70
     8
 71
     3
 72
    19
 73
    15
 74
    13
 42
0.0000000001
 43
0.0000000001
 44
0.00000001
 40
0.0
 40
0.0
 40
0.0
 40
0.0
 40
0.1045384651155988
 40
0.2092514255766229
 40
0.3087263831680461
 40
0.4083161306303719
 40
0.4883199216128234
 40
0.5682513317738553
 40
0.6382737892695842
 40
0.7082962788957178
 40
0.8338795436386569
 40
0.95958077001457
 40
1.074624552563635
 40
1.189598319431392
 40
1.189598319431392
 40
1.189598319431392
 40
1.189598319431392
 10
83.7076946776
 20
103.5962101792
 30
0.0
 10
83.67475355357284
 20
103.607916602061
 30
0.0
 10
83.60881632027636
 20
103.6313489881149
 30
0.0
 10
83.50496584613134
 20
103.6396925260721
 30
0.0
 10
83.40407235216082
 20
103.6254409369047
 30
0.0
 10
83.31577930688056
 20
103.5944111565529
 30
0.0
 10
83.23931114459671
 20
103.5535163471918
 30
0.0
 10
83.17623310750167
 20
103.5097106282012
 30
0.0
 10
83.11985771500946
 20
103.4627179831659
 30
0.0
 10
83.05603112941108
 20
103.4012644930764
 30
0.0
 10
82.98533189774506
 20
103.3205445808457
 30
0.0
 10
82.91347037347748
 20
103.2216868479875
 30
0.0
 10
82.85000533672016
 20
103.1214098887914
 30
0.0
 10
82.8137079528862
 20
103.0538512870803
 30
0.0
 10
82.7955647853
 20
103.0200822684
 30
0.0
 11
83.7076946776
 21
103.5962101792
 31
0.0
 11
83.6077602852255
 21
103.6268925505142
 31
0.0
 11
83.503432313729
 21
103.6358635288297
 31
0.0
 11
83.40489311975442
 21
103.6222512388439
 31
0.0
 11
83.31078310583847
 21
103.5896717501992
 31
0.0
 11
83.24010397824793
 21
103.5521875202538
 31
0.0
 11
83.17428297476992
 21
103.506837483523
 31
0.0
 11
83.12041768951534
 21
103.462097394138
 31
0.0
 11
83.06988914510279
 21
103.4136204382415
 31
0.0
 11
82.98685594766923
 21
103.3194044920994
 31
0.0
 11
82.9125449487268
 21
103.2180206977899
 31
0.0
 11
82.85117878048266
 21
103.1207105477631
 31
0.0
 11
82.7955647853
 21
103.0200822684
 31
0.0
  0
SPLINE
  5
D8
330
1F
100
AcDbEntity
  8
0
  6
Continuous
 62
     7
100
AcDbSpline
210
0.0
220
0.0
230
1.0
 70
     8
 71
     3
 72
    23
 73
    19
 74
    17
 42
0.0000000001
 43
0.0000000001
 44
0.00000001
 40
0.0
 40
0.0
 40
0.0
 40
0.0
 40
0.0200847595707633
 40
0.0402074697403896
 40
0.0623257192830685
 40
0.0845392954891355
 40
0.1048528756125287
 40
0.1251579524158623
 40
0.143811589134669
 40
0.1624497786480631
 40
0.1972171515112486
 40
0.2320370462642561
 40
0.2649767723154476
 40
0.2978945728890053
 40
0.360625104485154
 40
0.4234001583481167
 40
0.483509723148669
 40
0.5435992771936685
 40
0.5435992771936685
 40
0.5435992771936685
 40
0.5435992771936685
 10
83.7076946776
 20
141.4681172063
 30
0.0
 10
83.71413028127162
 20
141.4661723938918
 30
0.0
 10
83.72701364883083
 20
141.4622790943094
 30
0.0
 10
83.74812791965631
 20
141.4623729779835
 30
0.0
 10
83.76899799138543
 20
141.4684470142534
 30
0.0
 10
83.78771463939827
 20
141.4795182544057
 30
0.0
 10
83.80331591669753
 20
141.4936382282064
 30
0.0
 10
83.81590540431782
 20
141.5089244535992
 30
0.0
 10
83.82672258140474
 20
141.5248080363672
 30
0.0
 10
83.83871289297386
 20
141.545642781823
 30
0.0
 10
83.85103399266555
 20
141.5724110624482
 30
0.0
 10
83.86249444404751
 20
141.6046385154508
 30
0.0
 10
83.87180614482394
 20
141.6368964236244
 30
0.0
 10
83.88162434518601
 20
141.6786329918798
 30
0.0
 10
83.89068352042129
 20
141.7307074587879
 30
0.0
 10
83.89745859518786
 20
141.7922317436504
 30
0.0
 10
83.9014935167117
 20
141.8531134627057
 30
0.0
 10
83.9022214524995
 20
141.8931777820052
 30
0.0
 10
83.9025853598
 20
141.9132066067
 30
0.0
 11
83.7076946776
 21
141.4681172063
 31
0.0
 11
83.72718559995309
 21
141.4632693704074
 31
0.0
 11
83.74730830739702
 21
141.4632588967873
 31
0.0
 11
83.76858897310144
 21
141.4692880119801
 31
0.0
 11
83.78778637992198
 21
141.4804639924396
 31
0.0
 11
83.80295332650269
 21
141.4939771441388
 31
0.0
 11
83.81599591092046
 21
141.5095395069316
 31
0.0
 11
83.82652568446325
 21
141.5249369752941
 31
0.0
 11
83.8358551357683
 21
141.5410721371057
 31
0.0
 11
83.85054245572968
 21
141.5725848781505
 31
0.0
 11
83.86235946339833
 21
141.6053382505016
 31
0.0
 11
83.8715423174275
 21
141.6369721049017
 31
0.0
 11
83.87913084688647
 21
141.6690032743348
 31
0.0
 11
83.89003248735656
 21
141.7307792715295
 31
0.0
 11
83.89709253830671
 21
141.7931560546148
 31
0.0
 11
83.90101312822846
 21
141.8531376247441
 31
0.0
 11
83.9025853598
 21
141.9132066067
 31
0.0
  0
SPLINE
  5
D9
330
1F
100
AcDbEntity
  8
0
  6
Continuous
 62
     7
100
AcDbSpline
210
0.0
220
0.0
230
1.0
 70
     8
 71
     3
 72
    19
 73
    15
 74
    13
 42
0.0000000001
 43
0.0000000001
 44
0.00000001
 40
0.0
 40
0.0
 40
0.0
 40
0.0
 40
0.1037214442571982
 40
0.2077048967789351
 40
0.3081965148347939
 40
0.4087745519742121
 40
0.4905582518187684
 40
0.5722694203316562
 40
0.6447917331997047
 40
0.7173167610325766
 40
0.850749376424114
 40
0.9843287148593325
 40
1.111803128144428
 40
1.239193738930871
 40
1.239193738930871
 40
1.239193738930871
 40
1.239193738930871
 10
83.7076946776
 20
141.4681172063
 30
0.0
 10
83.67454287800824
 20
141.4783433347933
 30
0.0
 10
83.60815553485511
 20
141.4988214237591
 30
0.0
 10
83.50421902400657
 20
141.5023300860941
 30
0.0
 10
83.40359751483845
 20
141.4839394714302
 30
0.0
 10
83.31537388770643
 20
141.4491420821009
 30
0.0
 10
83.23905991573926
 20
141.4048601872714
 30
0.0
 10
83.17590801110595
 20
141.3576908268452
 30
0.0
 10
83.11960031230694
 20
141.3071535265466
 30
0.0
 10
83.05524594033835
 20
141.2401633234053
 30
0.0
 10
82.98433303874559
 20
141.1516434766045
 30
0.0
 10
82.91230432471214
 20
141.0414758289147
 30
0.0
 10
82.84908110472463
 20
140.9283309749644
 30
0.0
 10
82.81339964761949
 20
140.8512057447725
 30
0.0
 10
82.7955647853
 20
140.8126558095
 30
0.0
 11
83.7076946776
 21
141.4681172063
 31
0.0
 11
83.60732676768465
 21
141.4942786408559
 31
0.0
 11
83.50343231372264
 21
141.4985799004709
 31
0.0
 11
83.40452720642246
 21
141.4807938090109
 31
0.0
 11
83.31078310580335
 21
141.4443522783908
 31
0.0
 11
83.23991503974824
 21
141.4035320533318
 31
0.0
 11
83.17428297472475
 21
141.3548581681314
 31
0.0
 11
83.12022554157197
 21
141.3065127465833
 31
0.0
 11
83.0698891451645
 21
141.2543004218039
 31
0.0
 11
82.98611490132039
 21
141.1504440839204
 31
0.0
 11
82.91254494871306
 21
141.0389501301375
 31
0.0
 11
82.8505185149025
 21
140.9275838535942
 31
0.0
 11
82.7955647853
 21
140.8126558095
 31
0.0
  0
SPLINE
  5
DA
330
1F
100
AcDbEntity
  8
0
  6
Continuous
 62
     7
100
AcDbSpline
210
0.0
220
0.0
230
1.0
 70
     8
 71
     3
 72
    23
 73
    19
 74
    17
 42
0.0000000001
 43
0.0000000001
 44
0.00000001
 40
0.0
 40
0.0
 40
0.0
 40
0.0
 40
0.0618587666695425
 40
0.1237176655242635
 40
0.1544459602408789
 40
0.1851692873721436
 40
0.2157052151175677
 40
0.2462589701091375
 40
0.2766057168847801
 40
0.3068811822832911
 40
0.33674349718399
 40
0.3670052522460927
 40
0.3976118823054871
 40
0.4271274656615567
 40
0.442623469683516
 40
0.4582060025663463
 40
0.4743839672751223
 40
0.4905806943926204
 40
0.4905806943926204
 40
0.4905806943926204
 40
0.4905806943926204
 10
83.8959372486
 20
129.9338839139
 30
0.0
 10
83.89435036422631
 20
129.9544437718456
 30
0.0
 10
83.89117659208796
 20
129.9955635316709
 30
0.0
 10
83.88512040886533
 20
130.0467062570977
 30
0.0
 10
83.87906563455692
 20
130.0873638239608
 30
0.0
 10
83.87379316563687
 20
130.1175733102093
 30
0.0
 10
83.86768767234108
 20
130.1475678411715
 30
0.0
 10
83.86048394668474
 20
130.1771920853794
 30
0.0
 10
83.85192194404702
 20
130.206368654159
 30
0.0
 10
83.84187347257632
 20
130.234816903394
 30
0.0
 10
83.8301077381694
 20
130.262610546186
 30
0.0
 10
83.8144560046936
 20
130.2886475148792
 30
0.0
 10
83.79428356594241
 20
130.3113295423387
 30
0.0
 10
83.77141735432545
 20
130.3240887206372
 30
0.0
 10
83.75101759546381
 20
130.325803494435
 30
0.0
 10
83.73532832602913
 20
130.3231226326313
 30
0.0
 10
83.72065323626956
 20
130.3163350649978
 30
0.0
 10
83.71201586572198
 20
130.3098391915374
 30
0.0
 10
83.7076946776
 20
130.3065893725
 30
0.0
 11
83.8959372486
 21
129.9338839139
 31
0.0
 11
83.89075722547605
 21
129.9955254127
 31
0.0
 11
83.88349098268061
 21
130.056956065335
 31
0.0
 11
83.87893915851639
 21
130.0873453560962
 31
0.0
 11
83.87364094189942
 21
130.11760839842
 31
0.0
 11
83.86750134929072
 21
130.1475207417898
 31
0.0
 11
83.86023582979695
 21
130.17719807608
 31
0.0
 11
83.85165478980643
 21
130.206306335948
 31
0.0
 11
83.84153646256786
 21
130.2348409335269
 31
0.0
 11
83.82953151891614
 21
130.2621839249351
 31
0.0
 11
83.81375303355534
 21
130.2880066517307
 31
0.0
 11
83.7928059764614
 21
130.3103222651593
 31
0.0
 11
83.76651465629315
 21
130.3237362930652
 31
0.0
 11
83.75108273165456
 21
130.3251440723793
 31
0.0
 11
83.735724775378
 21
130.322508069714
 31
0.0
 11
83.72097596140502
 21
130.315859834722
 31
0.0
 11
83.7076946776
 21
130.3065893725
 31
0.0
  0
SPLINE
  5
DB
330
1F
100
AcDbEntity
  8
0
  6
Continuous
 62
     7
100
AcDbSpline
210
0.0
220
0.0
230
1.0
 70
     8
 71
     3
 72
     9
 73
     5
 74
     3
 42
0.0000000001
 43
0.0000000001
 44
0.00000001
 40
0.0
 40
0.0
 40
0.0
 40
0.0
 40
0.0925854303349753
 40
0.1851632395862255
 40
0.1851632395862255
 40
0.1851632395862255
 40
0.1851632395862255
 10
83.9025496131
 20
129.7488615793
 30
0.0
 10
83.90217325350638
 20
129.7797258416214
 30
0.0
 10
83.90142056529876
 20
129.841451825701
 30
0.0
 10
83.8977649706797
 20
129.9030740632647
 30
0.0
 10
83.8959372486
 20
129.9338839139
 30
0.0
 11
83.9025496131
 21
129.7488615793
 31
0.0
 11
83.90069474797501
 21
129.8414284275
 31
0.0
 11
83.8959372486
 21
129.9338839139
 31
0.0
  0
SPLINE
  5
DC
330
1F
100
AcDbEntity
  8
0
  6
Continuous
 62
     7
100
AcDbSpline
210
0.0
220
0.0
230
1.0
 70
     8
 71
     3
 72
    23
 73
    19
 74
    17
 42
0.0000000001
 43
0.0000000001
 44
0.00000001
 40
0.0
 40
0.0
 40
0.0
 40
0.0
 40
0.2200446854951192
 40
0.4400906516449378
 40
0.5501596109351146
 40
0.660211972585667
 40
0.7702651947882934
 40
0.8803731931518375
 40
0.9905650137853788
 40
1.100553278117655
 40
1.210127559141691
 40
1.320876783486915
 40
1.432524241143204
 40
1.540905930740224
 40
1.596147808615946
 40
1.651732816001142
 40
1.707067165193299
 40
1.762324250605155
 40
1.762324250605155
 40
1.762324250605155
 40
1.762324250605155
 10
82.7955647853
 20
131.5381786801
 30
0.0
 10
82.81322462385617
 20
131.466981731357
 30
0.0
 10
82.84854440374829
 20
131.3245874195064
 30
0.0
 10
82.90063539974521
 20
131.1486761137014
 30
0.0
 10
82.94675887469022
 20
131.0093818236321
 30
0.0
 10
82.98413680028602
 20
130.9058491870186
 30
0.0
 10
83.02460868067755
 20
130.8034657256517
 30
0.0
 10
83.06906570769806
 20
130.7026856721666
 30
0.0
 10
83.11827215479018
 20
130.604134018929
 30
0.0
 10
83.17306113171554
 20
130.5087847649722
 30
0.0
 10
83.2344905358829
 20
130.4171841067777
 30
0.0
 10
83.3085520464637
 20
130.3343259847658
 30
0.0
 10
83.39626243828036
 20
130.2662351678043
 30
0.0
 10
83.48517924058368
 20
130.2337188229478
 30
0.0
 10
83.55897311369196
 20
130.2356369783925
 30
0.0
 10
83.61307342786083
 20
130.249169413163
 30
0.0
 10
83.66332492450411
 20
130.273473063732
 30
0.0
 10
83.69291165007411
 20
130.2955557455376
 30
0.0
 10
83.7076946776
 20
130.3065893725
 30
0.0
 11
82.7955647853
 21
131.5381786801
 31
0.0
 11
82.85013166925641
 21
131.3250071088483
 31
0.0
 11
82.91253024881087
 21
131.1139937337073
 31
0.0
 11
82.94722405699899
 21
131.0095355340644
 31
0.0
 11
82.98465153530606
 21
130.9060429924373
 31
0.0
 11
83.02526275795296
 21
130.8037569214779
 31
0.0
 11
83.06984723878217
 21
130.7030792408689
 31
0.0
 11
83.1192493789297
 21
130.6045822059725
 31
0.0
 11
83.17422212687846
 21
130.509317231959
 31
0.0
 11
83.2362950079104
 21
130.4190206068708
 31
0.0
 11
83.31067170440917
 21
130.336962714435
 31
0.0
 11
83.40040584121759
 21
130.2705327551368
 31
0.0
 11
83.50332216697204
 21
130.2365501046647
 31
0.0
 11
83.55855337969984
 21
130.2376355593401
 31
0.0
 11
83.61250905183624
 21
130.2509951435522
 31
0.0
 11
83.66238295361285
 21
130.2749635419572
 31
0.0
 11
83.7076946776
 21
130.3065893725
 31
0.0
  0
SPLINE
  5
DD
330
1F
100
AcDbEntity
  8
0
  6
Continuous
 62
     7
100
AcDbSpline
210
0.0
220
0.0
230
1.0
 70
     8
 71
     3
 72
    11
 73
     7
 74
     5
 42
0.0000000001
 43
0.0000000001
 44
0.00000001
 40
0.0
 40
0.0
 40
0.0
 40
0.0
 40
0.1144869088084326
 40
0.2289786248604703
 40
0.5593749202173242
 40
0.8897492710014465
 40
0.8897492710014465
 40
0.8897492710014465
 40
0.8897492710014465
 10
82.7955647853
 20
103.0200822684
 30
0.0
 10
82.77790488881419
 20
102.9862514187235
 30
0.0
 10
82.74258435431302
 20
102.9185882988313
 30
0.0
 10
82.65427338752055
 20
102.7543694013603
 30
0.0
 10
82.52821675004134
 20
102.5287045528591
 30
0.0
 10
82.41320452167305
 20
102.3408394672505
 30
0.0
 10
82.3557003173
 20
102.246910044
 30
0.0
 11
82.7955647853
 21
103.0200822684
 31
0.0
 11
82.74237777376194
 21
102.9186998532968
 31
0.0
 11
82.68821998963661
 21
102.8178272233956
 31
0.0
 11
82.52632010792428
 21
102.5298165633723
 31
0.0
 11
82.3557003173
 21
102.246910044
 31
0.0
  0
SPLINE
  5
DE
330
1F
100
AcDbEntity
  8
0
  6
Continuous
 62
     7
100
AcDbSpline
210
0.0
220
0.0
230
1.0
 70
     8
 71
     3
 72
    17
 73
    13
 74
    11
 42
0.0000000001
 43
0.0000000001
 44
0.00000001
 40
0.0
 40
0.0
 40
0.0
 40
0.0
 40
0.0414201705291247
 40
0.082939050609973
 40
0.107381396967565
 40
0.1316132836923533
 40
0.1594736538119754
 40
0.187402561176568
 40
0.2119726711817282
 40
0.2366663819191652
 40
0.2629447609087984
 40
0.2891512214303545
 40
0.2891512214303545
 40
0.2891512214303545
 40
0.2891512214303545
 10
83.7076946776
 20
103.5962101792
 30
0.0
 10
83.72060583424657
 20
103.5912561294122
 30
0.0
 10
83.74645891647349
 20
103.5813362237037
 30
0.0
 10
83.78204865522497
 20
103.5753086967394
 30
0.0
 10
83.81221081611321
 20
103.5752955443322
 30
0.0
 10
83.83746300689829
 20
103.5806611747982
 30
0.0
 10
83.86095016630114
 20
103.5942462309159
 30
0.0
 10
83.87958086728732
 20
103.6140703441748
 30
0.0
 10
83.8910936411019
 20
103.6373799835852
 30
0.0
 10
83.89766337655233
 20
103.6617658980356
 30
0.0
 10
83.90158180092223
 20
103.6872521018391
 30
0.0
 10
83.90225114590214
 20
103.7047452201856
 30
0.0
 10
83.9025853598
 20
103.7134797942
 30
0.0
 11
83.7076946776
 21
103.5962101792
 31
0.0
 11
83.74683608885836
 21
103.5826609928272
 31
0.0
 11
83.78778637991455
 21
103.5758132876947
 31
0.0
 11
83.81222629820557
 21
103.5761578009638
 31
0.0
 11
83.83585513578441
 21
103.5815301718479
 31
0.0
 11
83.8600720362922
 21
103.5953048570711
 31
0.0
 11
83.87913084690317
 21
103.6157201847607
 31
0.0
 11
83.8903132939992
 21
103.637598100169
 31
0.0
 11
83.89709253836355
 21
103.6613430195378
 31
0.0
 11
83.90108524488548
 21
103.6873163038306
 31
0.0
 11
83.9025853598
 21
103.7134797942
 31
0.0
  0
SPLINE
  5
DF
330
1F
100
AcDbEntity
  8
0
  6
Continuous
 62
     7
100
AcDbSpline
210
0.0
220
0.0
230
1.0
 70
     8
 71
     3
 72
    23
 73
    19
 74
    17
 42
0.0000000001
 43
0.0000000001
 44
0.00000001
 40
0.0
 40
0.0
 40
0.0
 40
0.0
 40
0.1793533400941897
 40
0.358720737317782
 40
0.5185317962492509
 40
0.6783055046930632
 40
0.7508797153427146
 40
0.823473673729398
 40
0.8916212436549582
 40
0.9597216667569938
 40
0.9925078351398
 40
1.025315254305719
 40
1.057975227898758
 40
1.090553166710332
 40
1.124612378582044
 40
1.15914247988933
 40
1.211874669416514
 40
1.262620394719436
 40
1.262620394719436
 40
1.262620394719436
 40
1.262620394719436
 10
81.9027346556
 20
103.4412370401
 30
0.0
 10
81.90273426019598
 20
103.3814525662123
 30
0.0
 10
81.90273346935702
 20
103.261878932725
 30
0.0
 10
81.90326389034016
 20
103.0890355264353
 30
0.0
 10
81.90474567896702
 20
102.922722389579
 30
0.0
 10
81.90878825403163
 20
102.7920421281998
 30
0.0
 10
81.91477790478643
 20
102.6905637091872
 30
0.0
 10
81.92091876473279
 20
102.6197118772226
 30
0.0
 10
81.92944141818032
 20
102.550601826493
 30
0.0
 10
81.93933579944533
 20
102.4950898156069
 30
0.0
 10
81.94950405296021
 20
102.4516889109464
 30
0.0
 10
81.95845733601173
 20
102.4201713143554
 30
0.0
 10
81.96919809552281
 20
102.3892753690688
 30
0.0
 10
81.98214092995786
 20
102.3588085698546
 30
0.0
 10
81.99773773449209
 20
102.3287564361041
 30
0.0
 10
82.02158800772973
 20
102.2961946448907
 30
0.0
 10
82.05657865162408
 20
102.2636513084447
 30
0.0
 10
82.09087546745484
 20
102.256339332042
 30
0.0
 10
82.1076946776
 20
102.2527535278
 30
0.0
 11
81.9027346556
 21
103.4412370401
 31
0.0
 11
81.9028253963144
 21
103.2618837229602
 31
0.0
 11
81.90346856503326
 21
103.0825174788651
 31
0.0
 11
81.90533226191938
 21
102.9227172874049
 31
0.0
 11
81.91071259792112
 21
102.7630341953307
 31
0.0
 11
81.91510934320577
 21
102.6905932905715
 31
0.0
 11
81.92149689338223
 21
102.6182808988465
 31
0.0
 11
81.93004753275424
 21
102.5506718916575
 31
0.0
 11
81.94220835387482
 21
102.4836660556702
 31
0.0
 11
81.94974936925767
 21
102.4517589103228
 31
0.0
 11
81.95877368522754
 21
102.4202170575934
 31
0.0
 11
81.96954710109875
 21
102.389385136058
 31
0.0
 11
81.98232729631124
 21
102.3594186763482
 31
0.0
 11
81.9983825550031
 21
102.3293810569076
 31
0.0
 11
82.01878790167821
 21
102.3015251827809
 31
0.0
 11
82.05917565596484
 21
102.267620712338
 31
0.0
 11
82.1076946776
 21
102.2527535278
 31
0.0
  0
SPLINE
  5
E0
330
1F
100
AcDbEntity
  8
0
  6
Continuous
 62
     7
100
AcDbSpline
210
0.0
220
0.0
230
1.0
 70
     8
 71
     3
 72
    15
 73
    11
 74
     9
 42
0.0000000001
 43
0.0000000001
 44
0.00000001
 40
0.0
 40
0.0
 40
0.0
 40
0.0
 40
0.0912208717096051
 40
0.1841294828440984
 40
0.2747171448911202
 40
0.3649663184453349
 40
0.4542096769401215
 40
0.5434307110172925
 40
0.6320490712623443
 40
0.7206388456743943
 40
0.7206388456743943
 40
0.7206388456743943
 40
0.7206388456743943
 10
94.6413467011
 20
134.4728602339
 30
0.0
 10
94.61088736095756
 20
134.4766545689891
 30
0.0
 10
94.5494051316926
 20
134.484313440743
 30
0.0
 10
94.46873443198308
 20
134.5319192165319
 30
0.0
 10
94.40149104754978
 20
134.5940362843767
 30
0.0
 10
94.34760592499782
 20
134.6666721751808
 30
0.0
 10
94.302228939388
 20
134.7440142559032
 30
0.0
 10
94.26460418375314
 20
134.8248221282456
 30
0.0
 10
94.23305849663964
 20
134.9079425542165
 30
0.0
 10
94.21657461199601
 20
134.9646849280178
 30
0.0
 10
94.2083339992
 20
134.9930515383
 30
0.0
 11
94.6413467011
 21
134.4728602339
 31
0.0
 11
94.55178801421228
 21
134.4901948535499
 31
0.0
 11
94.47031127266975
 21
134.5348440485096
 31
0.0
 11
94.40350106846083
 21
134.5960201968741
 31
0.0
 11
94.34879596755007
 21
134.6677994784361
 31
0.0
 11
94.30347448579172
 21
134.7446782162422
 31
0.0
 11
94.26552513447879
 21
134.8254262171879
 31
0.0
 11
94.23417994320111
 21
134.9083158592205
 31
0.0
 11
94.2083339992
 21
134.9930515383
 31
0.0
  0
SPLINE
  5
E1
330
1F
100
AcDbEntity
  8
0
  6
Continuous
 62
     7
100
AcDbSpline
210
0.0
220
0.0
230
1.0
 70
     8
 71
     3
 72
    11
 73
     7
 74
     5
 42
0.0000000001
 43
0.0000000001
 44
0.00000001
 40
0.0
 40
0.0
 40
0.0
 40
0.0
 40
0.0396097710869202
 40
0.0793139643126896
 40
0.2768296850434854
 40
0.4765470267825906
 40
0.4765470267825906
 40
0.4765470267825906
 40
0.4765470267825906
 10
94.2083339992
 20
155.0375937658
 30
0.0
 10
94.21713627630145
 20
155.0474579961576
 30
0.0
 10
94.23476181345396
 20
155.0672099713164
 30
0.0
 10
94.30543421908462
 20
155.1268023905329
 30
0.0
 10
94.44181589321548
 20
155.191035868202
 30
0.0
 10
94.57459113436484
 20
155.199816853316
 30
0.0
 10
94.6413467011
 20
155.2042316797
 30
0.0
 11
94.2083339992
 21
155.0375937658
 31
0.0
 11
94.23539494127607
 21
155.0665184849778
 31
0.0
 11
94.26552391609319
 21
155.0923770973957
 31
0.0
 11
94.44330103681983
 21
155.1784454149228
 31
0.0
 11
94.6413467011
 21
155.2042316797
 31
0.0
  0
SPLINE
  5
E2
330
1F
100
AcDbEntity
  8
0
  6
Continuous
 62
     7
100
AcDbSpline
210
0.0
220
0.0
230
1.0
 70
     8
 71
     3
 72
    15
 73
    11
 74
     9
 42
0.0000000001
 43
0.0000000001
 44
0.00000001
 40
0.0
 40
0.0
 40
0.0
 40
0.0
 40
0.0885836454420796
 40
0.1771956190975801
 40
0.2664099930310016
 40
0.3556474647917561
 40
0.445889819277348
 40
0.536469204300372
 40
0.62939938688338
 40
0.7206428162032762
 40
0.7206428162032762
 40
0.7206428162032762
 40
0.7206428162032762
 10
97.9970091338
 20
134.9930515383
 30
0.0
 10
97.98876925043199
 20
134.9646868482132
 30
0.0
 10
97.97228684865908
 20
134.9079483972794
 30
0.0
 10
97.94074423932602
 20
134.8248336128409
 30
0.0
 10
97.90312091544854
 20
134.7440320254352
 30
0.0
 10
97.85774912018908
 20
134.6666946766909
 30
0.0
 10
97.80387787369096
 20
134.5940577150733
 30
0.0
 10
97.7366416914186
 20
134.5319291119468
 30
0.0
 10
97.6559603834944
 20
134.4843151856431
 30
0.0
 10
97.59446334229895
 20
134.4766551663962
 30
0.0
 10
97.5639964319
 20
134.4728602339
 30
0.0
 11
97.9970091338
 21
134.9930515383
 31
0.0
 11
97.97116550879075
 21
134.9083215596254
 31
0.0
 11
97.93982298653471
 21
134.8254377362716
 31
0.0
 11
97.90187610178761
 21
134.7446959351131
 31
0.0
 11
97.85656027104487
 21
134.6678206995014
 31
0.0
 11
97.80186752097306
 21
134.5960405794633
 31
0.0
 11
97.7350712059839
 21
134.5348615201781
 31
0.0
 11
97.65357736012444
 21
134.4901986505665
 31
0.0
 11
97.5639964319
 21
134.4728602339
 31
0.0
  0
SPLINE
  5
E3
330
1F
100
AcDbEntity
  8
ACHSEN
  6
Continuous
 62
     7
100
AcDbSpline
210
0.0
220
0.0
230
1.0
 70
     8
 71
     3
 72
    15
 73
    11
 74
     9
 42
0.0000000001
 43
0.0000000001
 44
0.00000001
 40
0.0
 40
0.0
 40
0.0
 40
0.0
 40
0.7036199270468596
 40
1.407365568526479
 40
2.995285720773648
 40
4.583299557674157
 40
6.171264475888202
 40
7.759111163552644
 40
8.45827083721023
 40
9.157317424657938
 40
9.157317424657938
 40
9.157317424657938
 40
9.157317424657938
 10
73.2820328997
 20
145.5271572548
 30
0.0
 10
73.05002052381764
 20
145.4927650721304
 30
0.0
 10
72.58595431884343
 20
145.4239745620053
 30
0.0
 10
71.59505100130099
 20
145.3010324991648
 30
0.0
 10
70.3070692709015
 20
145.1800604526049
 30
0.0
 10
68.72042281795648
 20
145.1029942187824
 30
0.0
 10
67.13192506663519
 20
145.0987097820918
 30
0.0
 10
65.8410306924883
 20
145.1546950046821
 30
0.0
 10
64.84834694533185
 20
145.228591155024
 30
0.0
 10
64.38455085558016
 20
145.274728909874
 30
0.0
 10
64.1526715665
 20
145.2977959215
 30
0.0
 11
73.2820328997
 21
145.5271572548
 31
0.0
 11
72.58561588172095
 21
145.4267364461665
 31
0.0
 11
71.88730366912677
 21
145.3394553964285
 31
0.0
 11
70.30624703727507
 21
145.1919754425688
 31
0.0
 11
68.72009387858279
 21
145.1151242658832
 31
0.0
 11
67.1321345907429
 21
145.110895596878
 31
0.0
 11
65.54574433900511
 21
145.1788887782882
 31
0.0
 11
64.848565327953
 21
145.2314784713599
 31
0.0
 11
64.1526715665
 21
145.2977959215
 31
0.0
  0
MTEXT
  5
107
330
1F
100
AcDbEntity
  8
0
 62
     5
100
AcDbMText
 10
10.4389942827
 20
84.3476481289
 30
0.0
 40
3.5
 41
0.0
 71
     1
 72
     1
  3
F\U+00fcr diese Unterlage behalten wir das Ur-\Pheberrecht. Sie darf nur f\U+00fcr den von uns \Pbestimmten Zweck benutzt und ohne unsere \PZustimmung weder vervielf\U+00e4ltigt noch\PDritten zug\U+00e4nglich gemacht werden\P \PWe own the copyright 
  3
of this document. It \Pdetermined and may neither be copied or \Pmade accessible to outsiders without our\Ppermission.\P \PCe plan reste notre propri\U+00e9t\U+00e9. Il ne peut\P\U+00eatre utilis\U+00e9, copi\U+00e9 ou reproduit sans notre\Paccord.\
  7
CONVERTER_11
 73
     1
 44
1.0
  0
DIMENSION
  5
113
330
1F
100
AcDbEntity
  8
1
100
AcDbDimension
  2
*D1
 10
268.821919787445
 20
93.62363891929999
 30
0.0
 11
265.071919787445
 21
126.9008209239701
 31
0.0
 70
    32
  1
<>
 71
     5
 42
-1.0
 53
90.0
  3
ME10_DIM_10
100
AcDbAlignedDimension
 13
242.1026715665
 23
156.6236389193
 33
0.0
 14
242.1026715665
 24
93.6236389193
 34
0.0
 50
90.0
100
AcDbRotatedDimension
  0
DIMENSION
  5
11E
330
1F
100
AcDbEntity
  8
0
100
AcDbDimension
  2
*D2
 10
244.1026715665
 20
186.5532217942
 30
0.0
 11
164.1026715665
 21
190.9282217942
 31
0.0
 70
    32
  1
160
 71
     5
 42
-1.0
 53
0.00013888888889
  3
ME10_DIM_11
100
AcDbAlignedDimension
 13
84.1026715665
 23
163.6716202331
 33
0.0
 14
244.1026715665
 24
154.6595373042
 34
0.0
100
AcDbRotatedDimension
  0
DIMENSION
  5
129
330
1F
100
AcDbEntity
  8
0
100
AcDbDimension
  2
*D3
 10
258.3438872287
 20
105.1236389193
 30
0.0
 11
253.9688872287
 21
125.1236389193
 31
0.0
 70
    32
  1
{\Fgdt;n}40
 71
     5
 42
-1.0
 53
90.0
  3
ME10_DIM_12
100
AcDbAlignedDimension
 13
230.6026715665
 23
145.1236389193
 33
0.0
 14
230.6026715665
 24
105.1236389193
 34
0.0
 50
90.0
100
AcDbRotatedDimension
  0
DIMENSION
  5
134
330
1F
100
AcDbEntity
  8
0
100
AcDbDimension
  2
*D4
 10
229.1026715665
 20
177.734472869
 30
0.0
 11
156.6026715665
 21
182.109472869
 31
0.0
 70
    32
  1
145
 71
     5
 42
-1.0
 53
0.00013888888889
  3
ME10_DIM_13
100
AcDbAlignedDimension
 13
84.1026715665
 23
157.8842506622
 33
0.0
 14
229.1026715665
 24
148.2544909742
 34
0.0
100
AcDbRotatedDimension
  0
DIMENSION
  5
13F
330
1F
100
AcDbEntity
  8
0
100
AcDbDimension
  2
*D5
 10
229.1026715665
 20
193.9805142841
 30
0.0
 11
137.6026715665
 21
198.3555142841
 31
0.0
 70
    32
  1
183
 71
     5
 42
-1.0
 53
0.00013888888889
  3
ME10_DIM_14
100
AcDbAlignedDimension
 13
46.1026715665
 23
106.43752315
 33
0.0
 14
229.1026715665
 24
148.4969160264
 34
0.0
100
AcDbRotatedDimension
  0
DIMENSION
  5
14A
330
1F
100
AcDbEntity
  8
0
100
AcDbDimension
  2
*D6
 10
229.1026715665
 20
167.6251358587
 30
0.0
 11
167.6026715665
 21
172.0001358587
 31
0.0
 70
    32
  1
123
 71
     5
 42
-1.0
 53
0.00013888888889
  3
ME10_DIM_15
100
AcDbAlignedDimension
 13
106.1026715665
 23
158.5578261063
 33
0.0
 14
229.1026715665
 24
145.466602874
 34
0.0
100
AcDbRotatedDimension
  0
ENDSEC
  0
SECTION
  2
OBJECTS
  0
DICTIONARY
  5
C
330
0
100
AcDbDictionary
281
     1
  3
ACAD_GROUP
350
D
  3
ACAD_LAYOUT
350
1A
  3
ACAD_MLEADERSTYLE
350
14D
  3
ACAD_MLINESTYLE
350
17
  3
ACAD_PLOTSETTINGS
350
19
  3
ACAD_PLOTSTYLENAME
350
E
  3
ACAD_SCALELIST
350
E5
  3
ACAD_VISUALSTYLE
350
2A
  3
AcDbVariableDictionary
350
14B
  0
DICTIONARY
  5
D
102
{ACAD_REACTORS
330
C
102
}
330
C
100
AcDbDictionary
281
     1
  0
DICTIONARY
  5
1A
102
{ACAD_REACTORS
330
C
102
}
330
C
100
AcDbDictionary
281
     1
  3
Layout1
350
1E
  3
Layout2
350
26
  3
Model
350
22
  0
DICTIONARY
  5
14D
102
{ACAD_REACTORS
330
C
102
}
330
C
100
AcDbDictionary
281
     1
  0
DICTIONARY
  5
17
102
{ACAD_REACTORS
330
C
102
}
330
C
100
AcDbDictionary
281
     1
  3
Standard
350
18
  0
DICTIONARY
  5
19
102
{ACAD_REACTORS
330
C
102
}
330
C
100
AcDbDictionary
281
     1
  0
ACDBDICTIONARYWDFLT
  5
E
102
{ACAD_REACTORS
330
C
102
}
330
C
100
AcDbDictionary
281
     1
  3
Normal
350
F
100
AcDbDictionaryWithDefault
340
F
  0
DICTIONARY
  5
E5
102
{ACAD_REACTORS
330
C
102
}
330
C
100
AcDbDictionary
281
     1
  3
A0
350
E6
  3
A1
350
E7
  3
A2
350
E8
  3
A3
350
E9
  3
A4
350
EA
  3
A5
350
EB
  3
A6
350
EC
  3
A7
350
ED
  3
A8
350
EE
  3
A9
350
EF
  3
B0
350
F0
  3
B1
350
F1
  3
B2
350
F2
  3
B3
350
F3
  3
B4
350
F4
  3
B5
350
F5
  3
B6
350
F6
  3
B7
350
F7
  3
B8
350
F8
  3
B9
350
F9
  3
C0
350
FA
  3
C1
350
FB
  3
C2
350
FC
  3
C3
350
FD
  3
C4
350
FE
  3
C5
350
FF
  3
C6
350
100
  3
C7
350
101
  3
C8
350
102
  3
C9
350
103
  3
D0
350
104
  3
D1
350
105
  3
D2
350
106
  0
DICTIONARY
  5
2A
102
{ACAD_REACTORS
330
C
102
}
330
C
100
AcDbDictionary
281
     1
  3
2dWireframe
350
2F
  3
3D Hidden
350
31
  3
3dWireframe
350
30
  3
Basic
350
32
  3
Brighten
350
36
  3
ColorChange
350
3A
  3
Conceptual
350
34
  3
Dim
350
35
  3
Facepattern
350
39
  3
Flat
350
2B
  3
FlatWithEdges
350
2C
  3
Gouraud
350
2D
  3
GouraudWithEdges
350
2E
  3
Linepattern
350
38
  3
Realistic
350
33
  3
Thicken
350
37
  0
DICTIONARY
  5
14B
102
{ACAD_REACTORS
330
C
102
}
330
C
100
AcDbDictionary
281
     1
  3
CANNOSCALE
350
14E
  0
LAYOUT
  5
1E
102
{ACAD_REACTORS
330
1A
102
}
330
1A
100
AcDbPlotSettings
  1

  2
none_device
  4

  6

 40
0.0
 41
0.0
 42
0.0
 43
0.0
 44
0.0
 45
0.0
 46
0.0
 47
0.0
 48
0.0
 49
0.0
140
0.0
141
0.0
142
1.0
143
1.0
 70
   688
 72
     0
 73
     0
 74
     5
  7

 75
    16
147
1.0
148
0.0
149
0.0
100
AcDbLayout
  1
Layout1
 70
     1
 71
     1
 10
0.0
 20
0.0
 11
12.0
 21
9.0
 12
0.0
 22
0.0
 32
0.0
 14
1.00000000000000E+20
 24
1.00000000000000E+20
 34
1.00000000000000E+20
 15
-1.00000000000000E+20
 25
-1.00000000000000E+20
 35
-1.00000000000000E+20
146
0.0
 13
0.0
 23
0.0
 33
0.0
 16
1.0
 26
0.0
 36
0.0
 17
0.0
 27
1.0
 37
0.0
 76
     0
330
1B
  0
LAYOUT
  5
26
102
{ACAD_REACTORS
330
1A
102
}
330
1A
100
AcDbPlotSettings
  1

  2
none_device
  4

  6

 40
0.0
 41
0.0
 42
0.0
 43
0.0
 44
0.0
 45
0.0
 46
0.0
 47
0.0
 48
0.0
 49
0.0
140
0.0
141
0.0
142
1.0
143
1.0
 70
   688
 72
     0
 73
     0
 74
     5
  7

 75
    16
147
1.0
148
0.0
149
0.0
100
AcDbLayout
  1
Layout2
 70
     1
 71
     2
 10
0.0
 20
0.0
 11
0.0
 21
0.0
 12
0.0
 22
0.0
 32
0.0
 14
0.0
 24
0.0
 34
0.0
 15
0.0
 25
0.0
 35
0.0
146
0.0
 13
0.0
 23
0.0
 33
0.0
 16
1.0
 26
0.0
 36
0.0
 17
0.0
 27
1.0
 37
0.0
 76
     0
330
23
  0
LAYOUT
  5
22
102
{ACAD_REACTORS
330
1A
102
}
330
1A
100
AcDbPlotSettings
  1

  2
none_device
  4

  6

 40
0.0
 41
0.0
 42
0.0
 43
0.0
 44
0.0
 45
0.0
 46
0.0
 47
0.0
 48
0.0
 49
0.0
140
0.0
141
0.0
142
1.0
143
1.0
 70
  1712
 72
     0
 73
     0
 74
     0
  7

 75
     0
147
1.0
148
0.0
149
0.0
100
AcDbLayout
  1
Model
 70
     1
 71
     0
 10
0.0
 20
0.0
 11
12.0
 21
9.0
 12
0.0
 22
0.0
 32
0.0
 14
0.0
 24
-0.7863518711
 34
0.0
 15
297.0
 25
210.0
 35
0.0
146
0.0
 13
0.0
 23
0.0
 33
0.0
 16
1.0
 26
0.0
 36
0.0
 17
0.0
 27
1.0
 37
0.0
 76
     0
330
1F
331
29
  0
MLINESTYLE
  5
18
102
{ACAD_REACTORS
330
17
102
}
330
17
100
AcDbMlineStyle
  2
Standard
 70
     0
  3

 62
   256
 51
90.0
 52
90.0
 71
     2
 49
0.5
 62
   256
  6
BYLAYER
 49
-0.5
 62
   256
  6
BYLAYER
  0
ACDBPLACEHOLDER
  5
F
102
{ACAD_REACTORS
330
E
102
}
330
E
  0
SCALE
  5
E6
102
{ACAD_REACTORS
330
E5
102
}
330
E5
100
AcDbScale
 70
     0
300
1:1
140
1.0
141
1.0
290
     1
  0
SCALE
  5
E7
102
{ACAD_REACTORS
330
E5
102
}
330
E5
100
AcDbScale
 70
     0
300
1:2
140
1.0
141
2.0
290
     0
  0
SCALE
  5
E8
102
{ACAD_REACTORS
330
E5
102
}
330
E5
100
AcDbScale
 70
     0
300
1:4
140
1.0
141
4.0
290
     0
  0
SCALE
  5
E9
102
{ACAD_REACTORS
330
E5
102
}
330
E5
100
AcDbScale
 70
     0
300
1:5
140
1.0
141
5.0
290
     0
  0
SCALE
  5
EA
102
{ACAD_REACTORS
330
E5
102
}
330
E5
100
AcDbScale
 70
     0
300
1:8
140
1.0
141
8.0
290
     0
  0
SCALE
  5
EB
102
{ACAD_REACTORS
330
E5
102
}
330
E5
100
AcDbScale
 70
     0
300
1:10
140
1.0
141
10.0
290
     0
  0
SCALE
  5
EC
102
{ACAD_REACTORS
330
E5
102
}
330
E5
100
AcDbScale
 70
     0
300
1:16
140
1.0
141
16.0
290
     0
  0
SCALE
  5
ED
102
{ACAD_REACTORS
330
E5
102
}
330
E5
100
AcDbScale
 70
     0
300
1:20
140
1.0
141
20.0
290
     0
  0
SCALE
  5
EE
102
{ACAD_REACTORS
330
E5
102
}
330
E5
100
AcDbScale
 70
     0
300
1:30
140
1.0
141
30.0
290
     0
  0
SCALE
  5
EF
102
{ACAD_REACTORS
330
E5
102
}
330
E5
100
AcDbScale
 70
     0
300
1:40
140
1.0
141
40.0
290
     0
  0
SCALE
  5
F0
102
{ACAD_REACTORS
330
E5
102
}
330
E5
100
AcDbScale
 70
     0
300
1:50
140
1.0
141
50.0
290
     0
  0
SCALE
  5
F1
102
{ACAD_REACTORS
330
E5
102
}
330
E5
100
AcDbScale
 70
     0
300
1:100
140
1.0
141
100.0
290
     0
  0
SCALE
  5
F2
102
{ACAD_REACTORS
330
E5
102
}
330
E5
100
AcDbScale
 70
     0
300
2:1
140
2.0
141
1.0
290
     0
  0
SCALE
  5
F3
102
{ACAD_REACTORS
330
E5
102
}
330
E5
100
AcDbScale
 70
     0
300
4:1
140
4.0
141
1.0
290
     0
  0
SCALE
  5
F4
102
{ACAD_REACTORS
330
E5
102
}
330
E5
100
AcDbScale
 70
     0
300
8:1
140
8.0
141
1.0
290
     0
  0
SCALE
  5
F5
102
{ACAD_REACTORS
330
E5
102
}
330
E5
100
AcDbScale
 70
     0
300
10:1
140
10.0
141
1.0
290
     0
  0
SCALE
  5
F6
102
{ACAD_REACTORS
330
E5
102
}
330
E5
100
AcDbScale
 70
     0
300
100:1
140
100.0
141
1.0
290
     0
  0
SCALE
  5
F7
102
{ACAD_REACTORS
330
E5
102
}
330
E5
100
AcDbScale
 70
     0
300
1/128" = 1'-0"
140
0.0078125
141
12.0
290
     0
  0
SCALE
  5
F8
102
{ACAD_REACTORS
330
E5
102
}
330
E5
100
AcDbScale
 70
     0
300
1/64" = 1'-0"
140
0.015625
141
12.0
290
     0
  0
SCALE
  5
F9
102
{ACAD_REACTORS
330
E5
102
}
330
E5
100
AcDbScale
 70
     0
300
1/32" = 1'-0"
140
0.03125
141
12.0
290
     0
  0
SCALE
  5
FA
102
{ACAD_REACTORS
330
E5
102
}
330
E5
100
AcDbScale
 70
     0
300
1/16" = 1'-0"
140
0.0625
141
12.0
290
     0
  0
SCALE
  5
FB
102
{ACAD_REACTORS
330
E5
102
}
330
E5
100
AcDbScale
 70
     0
300
3/32" = 1'-0"
140
0.09375
141
12.0
290
     0
  0
SCALE
  5
FC
102
{ACAD_REACTORS
330
E5
102
}
330
E5
100
AcDbScale
 70
     0
300
1/8" = 1'-0"
140
0.125
141
12.0
290
     0
  0
SCALE
  5
FD
102
{ACAD_REACTORS
330
E5
102
}
330
E5
100
AcDbScale
 70
     0
300
3/16" = 1'-0"
140
0.1875
141
12.0
290
     0
  0
SCALE
  5
FE
102
{ACAD_REACTORS
330
E5
102
}
330
E5
100
AcDbScale
 70
     0
300
1/4" = 1'-0"
140
0.25
141
12.0
290
     0
  0
SCALE
  5
FF
102
{ACAD_REACTORS
330
E5
102
}
330
E5
100
AcDbScale
 70
     0
300
3/8" = 1'-0"
140
0.375
141
12.0
290
     0
  0
SCALE
  5
100
102
{ACAD_REACTORS
330
E5
102
}
330
E5
100
AcDbScale
 70
     0
300
1/2" = 1'-0"
140
0.5
141
12.0
290
     0
  0
SCALE
  5
101
102
{ACAD_REACTORS
330
E5
102
}
330
E5
100
AcDbScale
 70
     0
300
3/4" = 1'-0"
140
0.75
141
12.0
290
     0
  0
SCALE
  5
102
102
{ACAD_REACTORS
330
E5
102
}
330
E5
100
AcDbScale
 70
     0
300
1" = 1'-0"
140
1.0
141
12.0
290
     0
  0
SCALE
  5
103
102
{ACAD_REACTORS
330
E5
102
}
330
E5
100
AcDbScale
 70
     0
300
1-1/2" = 1'-0"
140
1.5
141
12.0
290
     0
  0
SCALE
  5
104
102
{ACAD_REACTORS
330
E5
102
}
330
E5
100
AcDbScale
 70
     0
300
3" = 1'-0"
140
3.0
141
12.0
290
     0
  0
SCALE
  5
105
102
{ACAD_REACTORS
330
E5
102
}
330
E5
100
AcDbScale
 70
     0
300
6" = 1'-0"
140
6.0
141
12.0
290
     0
  0
SCALE
  5
106
102
{ACAD_REACTORS
330
E5
102
}
330
E5
100
AcDbScale
 70
     0
300
1'-0" = 1'-0"
140
12.0
141
12.0
290
     0
  0
VISUALSTYLE
  5
2F
102
{ACAD_REACTORS
330
2A
102
}
330
2A
100
AcDbVisualStyle
  2
2dWireframe
 70
     4
 71
     0
 72
     2
 73
     0
 90
        0
 40
-0.6
 41
-30.0
 62
     5
 63
     7
 74
     1
 91
        4
 64
     7
 65
   257
 75
     1
175
     1
 42
1.0
 92
        0
 66
   257
 43
1.0
 76
     1
 77
     6
 78
     2
 67
     7
 79
     5
170
     0
171
     0
290
     0
174
     0
 93
        1
 44
0.0
173
     0
291
     0
 45
0.0
1001
ACAD
1000
AcDbSavedByObjectVersion
1070
     0
  0
VISUALSTYLE
  5
31
102
{ACAD_REACTORS
330
2A
102
}
330
2A
100
AcDbVisualStyle
  2
3D Hidden
 70
     6
 71
     1
 72
     2
 73
     2
 90
        0
 40
-0.6
 41
-30.0
 62
     5
 63
     7
 74
     2
 91
        2
 64
     7
 65
   257
 75
     2
175
     1
 42
40.0
 92
        0
 66
   257
 43
1.0
 76
     1
 77
     6
 78
     2
 67
     7
 79
     3
170
     0
171
     0
290
     0
174
     0
 93
        1
 44
0.0
173
     0
291
     0
 45
0.0
1001
ACAD
1000
AcDbSavedByObjectVersion
1070
     0
  0
VISUALSTYLE
  5
30
102
{ACAD_REACTORS
330
2A
102
}
330
2A
100
AcDbVisualStyle
  2
3dWireframe
 70
     5
 71
     0
 72
     2
 73
     0
 90
        0
 40
-0.6
 41
-30.0
 62
     5
 63
     7
 74
     1
 91
        4
 64
     7
 65
   257
 75
     1
175
     1
 42
1.0
 92
        0
 66
   257
 43
1.0
 76
     1
 77
     6
 78
     2
 67
     7
 79
     5
170
     0
171
     0
290
     0
174
     0
 93
        1
 44
0.0
173
     0
291
     0
 45
0.0
1001
ACAD
1000
AcDbSavedByObjectVersion
1070
     0
  0
VISUALSTYLE
  5
32
102
{ACAD_REACTORS
330
2A
102
}
330
2A
100
AcDbVisualStyle
  2
Basic
 70
     7
 71
     1
 72
     0
 73
     1
 90
        0
 40
-0.6
 41
-30.0
 62
     5
 63
     7
 74
     0
 91
        4
 64
     7
 65
   257
 75
     1
175
     1
 42
1.0
 92
        8
 66
     7
 43
1.0
 76
     1
 77
     6
 78
     2
 67
     7
 79
     5
170
     0
171
     0
290
     0
174
     0
 93
        1
 44
0.0
173
     0
291
     1
 45
0.0
1001
ACAD
1000
AcDbSavedByObjectVersion
1070
     0
  0
VISUALSTYLE
  5
36
102
{ACAD_REACTORS
330
2A
102
}
330
2A
100
AcDbVisualStyle
  2
Brighten
 70
    12
 71
     2
 72
     2
 73
     0
 90
        0
 40
-0.6
 41
-30.0
 62
     5
 63
     7
 74
     1
 91
        4
 64
     7
 65
   257
 75
     1
175
     1
 42
1.0
 92
        8
 66
     7
 43
1.0
 76
     1
 77
     6
 78
     2
 67
     7
 79
     5
170
     0
171
     0
290
     0
174
     0
 93
        1
 44
50.0
173
     0
291
     1
 45
0.0
1001
ACAD
1000
AcDbSavedByObjectVersion
1070
     0
  0
VISUALSTYLE
  5
3A
102
{ACAD_REACTORS
330
2A
102
}
330
2A
100
AcDbVisualStyle
  2
ColorChange
 70
    16
 71
     2
 72
     2
 73
     3
 90
        0
 40
-0.6
 41
-30.0
 62
     5
 63
     8
 74
     1
 91
        4
 64
     7
 65
   257
 75
     1
175
     1
 42
1.0
 92
        8
 66
     8
 43
1.0
 76
     1
 77
     6
 78
     2
 67
     7
 79
     5
170
     0
171
     0
290
     0
174
     0
 93
        1
 44
0.0
173
     0
291
     1
 45
0.0
1001
ACAD
1000
AcDbSavedByObjectVersion
1070
     0
  0
VISUALSTYLE
  5
34
102
{ACAD_REACTORS
330
2A
102
}
330
2A
100
AcDbVisualStyle
  2
Conceptual
 70
     9
 71
     3
 72
     2
 73
     0
 90
        0
 40
-0.6
 41
-30.0
 62
     5
 63
     7
 74
     2
 91
        2
 64
     7
 65
   257
 75
     1
175
     1
 42
40.0
 92
        8
 66
     7
 43
1.0
 76
     1
 77
     6
 78
     2
 67
     7
 79
     3
170
     0
171
     0
290
     0
174
     0
 93
        1
 44
0.0
173
     0
291
     0
 45
0.0
1001
ACAD
1000
AcDbSavedByObjectVersion
1070
     0
  0
VISUALSTYLE
  5
35
102
{ACAD_REACTORS
330
2A
102
}
330
2A
100
AcDbVisualStyle
  2
Dim
 70
    11
 71
     2
 72
     2
 73
     0
 90
        0
 40
-0.6
 41
-30.0
 62
     5
 63
     7
 74
     1
 91
        4
 64
     7
 65
   257
 75
     1
175
     1
 42
1.0
 92
        8
 66
     7
 43
1.0
 76
     1
 77
     6
 78
     2
 67
     7
 79
     5
170
     0
171
     0
290
     0
174
     0
 93
        1
 44
-50.0
173
     0
291
     1
 45
0.0
1001
ACAD
1000
AcDbSavedByObjectVersion
1070
     0
  0
VISUALSTYLE
  5
39
102
{ACAD_REACTORS
330
2A
102
}
330
2A
100
AcDbVisualStyle
  2
Facepattern
 70
    15
 71
     2
 72
     2
 73
     0
 90
        0
 40
-0.6
 41
-30.0
 62
     5
 63
     7
 74
     1
 91
        4
 64
     7
 65
   257
 75
     1
175
     1
 42
1.0
 92
        8
 66
     7
 43
1.0
 76
     1
 77
     6
 78
     2
 67
     7
 79
     5
170
     0
171
     0
290
     0
174
     0
 93
        1
 44
0.0
173
     0
291
     1
 45
0.0
1001
ACAD
1000
AcDbSavedByObjectVersion
1070
     0
  0
VISUALSTYLE
  5
2B
102
{ACAD_REACTORS
330
2A
102
}
330
2A
100
AcDbVisualStyle
  2
Flat
 70
     0
 71
     2
 72
     1
 73
     1
 90
        2
 40
-0.6
 41
30.0
 62
     5
 63
     7
 74
     0
 91
        4
 64
     7
 65
   257
 75
     1
175
     1
 42
1.0
 92
        8
 66
     7
 43
1.0
 76
     1
 77
     6
 78
     2
 67
     7
 79
     5
170
     0
171
     0
290
     0
174
     0
 93
       13
 44
0.0
173
     0
291
     1
 45
0.0
1001
ACAD
1000
AcDbSavedByObjectVersion
1070
     0
  0
VISUALSTYLE
  5
2C
102
{ACAD_REACTORS
330
2A
102
}
330
2A
100
AcDbVisualStyle
  2
FlatWithEdges
 70
     1
 71
     2
 72
     1
 73
     1
 90
        2
 40
-0.6
 41
30.0
 62
     5
 63
     7
 74
     1
 91
        4
 64
     7
 65
   257
 75
     1
175
     1
 42
1.0
 92
        0
 66
   257
 43
1.0
 76
     1
 77
     6
 78
     2
 67
     7
 79
     5
170
     0
171
     0
290
     0
174
     0
 93
       13
 44
0.0
173
     0
291
     1
 45
0.0
1001
ACAD
1000
AcDbSavedByObjectVersion
1070
     0
  0
VISUALSTYLE
  5
2D
102
{ACAD_REACTORS
330
2A
102
}
330
2A
100
AcDbVisualStyle
  2
Gouraud
 70
     2
 71
     2
 72
     2
 73
     1
 90
        2
 40
-0.6
 41
30.0
 62
     5
 63
     7
 74
     0
 91
        4
 64
     7
 65
   257
 75
     1
175
     1
 42
1.0
 92
        0
 66
     7
 43
1.0
 76
     1
 77
     6
 78
     2
 67
     7
 79
     5
170
     0
171
     0
290
     0
174
     0
 93
       13
 44
0.0
173
     0
291
     1
 45
0.0
1001
ACAD
1000
AcDbSavedByObjectVersion
1070
     0
  0
VISUALSTYLE
  5
2E
102
{ACAD_REACTORS
330
2A
102
}
330
2A
100
AcDbVisualStyle
  2
GouraudWithEdges
 70
     3
 71
     2
 72
     2
 73
     1
 90
        2
 40
-0.6
 41
30.0
 62
     5
 63
     7
 74
     1
 91
        4
 64
     7
 65
   257
 75
     1
175
     1
 42
1.0
 92
        0
 66
   257
 43
1.0
 76
     1
 77
     6
 78
     2
 67
     7
 79
     5
170
     0
171
     0
290
     0
174
     0
 93
       13
 44
0.0
173
     0
291
     1
 45
0.0
1001
ACAD
1000
AcDbSavedByObjectVersion
1070
     0
  0
VISUALSTYLE
  5
38
102
{ACAD_REACTORS
330
2A
102
}
330
2A
100
AcDbVisualStyle
  2
Linepattern
 70
    14
 71
     2
 72
     2
 73
     0
 90
        0
 40
-0.6
 41
-30.0
 62
     5
 63
     7
 74
     1
 91
        4
 64
     7
 65
   257
 75
     7
175
     7
 42
1.0
 92
        8
 66
     7
 43
1.0
 76
     1
 77
     6
 78
     2
 67
     7
 79
     5
170
     0
171
     0
290
     0
174
     0
 93
        1
 44
0.0
173
     0
291
     1
 45
0.0
1001
ACAD
1000
AcDbSavedByObjectVersion
1070
     0
  0
VISUALSTYLE
  5
33
102
{ACAD_REACTORS
330
2A
102
}
330
2A
100
AcDbVisualStyle
  2
Realistic
 70
     8
 71
     2
 72
     2
 73
     0
 90
        0
 40
-0.6
 41
-30.0
 62
     5
 63
     7
 74
     1
 91
        0
 64
     7
 65
   257
 75
     1
175
     1
 42
1.0
 92
        8
 66
     8
 43
1.0
 76
     1
 77
     6
 78
     2
 67
     7
 79
     5
170
     0
171
     0
290
     0
174
     0
 93
       13
 44
0.0
173
     0
291
     0
 45
0.0
1001
ACAD
1000
AcDbSavedByObjectVersion
1070
     0
  0
VISUALSTYLE
  5
37
102
{ACAD_REACTORS
330
2A
102
}
330
2A
100
AcDbVisualStyle
  2
Thicken
 70
    13
 71
     2
 72
     2
 73
     0
 90
        0
 40
-0.6
 41
-30.0
 62
     5
 63
     7
 74
     1
 91
        4
 64
     7
 65
   257
 75
     1
175
     1
 42
1.0
 92
       12
 66
     7
 43
1.0
 76
     1
 77
     6
 78
     2
 67
     7
 79
     5
170
     0
171
     0
290
     0
174
     0
 93
        1
 44
0.0
173
     0
291
     1
 45
0.0
1001
ACAD
1000
AcDbSavedByObjectVersion
1070
     0
  0
DICTIONARYVAR
  5
14E
102
{ACAD_REACTORS
330
14B
102
}
330
14B
100
DictionaryVariables
280
     0
  1
1:1
  0
ENDSEC
  0
EOF
