  0
SECTION
  2
HEADER
  9
$ACADVER
  1
AC1015
  9
$ACADMAINTVER
 70
     6
  9
$DWGCODEPAGE
  3
ANSI_1252
  9
$INSBASE
 10
0.0
 20
0.0
 30
0.0
  9
$EXTMIN
 10
0.0
 20
-3.1307840437
 30
0.0
  9
$EXTMAX
 10
297.0
 20
210.0
 30
0.0
  9
$LIMMIN
 10
0.0
 20
0.0
  9
$LIMMAX
 10
12.0
 20
9.0
  9
$ORTHOMODE
 70
     0
  9
$REGENMODE
 70
     1
  9
$FILLMODE
 70
     1
  9
$QTEXTMODE
 70
     0
  9
$MIRRTEXT
 70
     1
  9
$LTSCALE
 40
1.0
  9
$ATTMODE
 70
     1
  9
$TEXTSIZE
 40
0.2
  9
$TRACEWID
 40
0.05
  9
$TEXTSTYLE
  7
Standard
  9
$CLAYER
  8
0
  9
$CELTYPE
  6
ByLayer
  9
$CECOLOR
 62
   256
  9
$CELTSCALE
 40
1.0
  9
$DISPSILH
 70
     0
  9
$DIMSCALE
 40
1.0
  9
$DIMASZ
 40
0.18
  9
$DIMEXO
 40
0.0625
  9
$DIMDLI
 40
0.38
  9
$DIMRND
 40
0.0
  9
$DIMDLE
 40
0.0
  9
$DIMEXE
 40
0.18
  9
$DIMTP
 40
0.0
  9
$DIMTM
 40
0.0
  9
$DIMTXT
 40
0.18
  9
$DIMCEN
 40
0.09
  9
$DIMTSZ
 40
0.0
  9
$DIMTOL
 70
     0
  9
$DIMLIM
 70
     0
  9
$DIMTIH
 70
     1
  9
$DIMTOH
 70
     1
  9
$DIMSE1
 70
     0
  9
$DIMSE2
 70
     0
  9
$DIMTAD
 70
     0
  9
$DIMZIN
 70
     0
  9
$DIMBLK
  1

  9
$DIMASO
 70
     1
  9
$DIMSHO
 70
     1
  9
$DIMPOST
  1

  9
$DIMAPOST
  1

  9
$DIMALT
 70
     0
  9
$DIMALTD
 70
     2
  9
$DIMALTF
 40
25.4
  9
$DIMLFAC
 40
1.0
  9
$DIMTOFL
 70
     0
  9
$DIMTVP
 40
0.0
  9
$DIMTIX
 70
     0
  9
$DIMSOXD
 70
     0
  9
$DIMSAH
 70
     0
  9
$DIMBLK1
  1

  9
$DIMBLK2
  1

  9
$DIMSTYLE
  2
Standard
  9
$DIMCLRD
 70
     0
  9
$DIMCLRE
 70
     0
  9
$DIMCLRT
 70
     0
  9
$DIMTFAC
 40
1.0
  9
$DIMGAP
 40
0.09
  9
$DIMJUST
 70
     0
  9
$DIMSD1
 70
     0
  9
$DIMSD2
 70
     0
  9
$DIMTOLJ
 70
     1
  9
$DIMTZIN
 70
     0
  9
$DIMALTZ
 70
     0
  9
$DIMALTTZ
 70
     0
  9
$DIMUPT
 70
     0
  9
$DIMDEC
 70
     4
  9
$DIMTDEC
 70
     4
  9
$DIMALTU
 70
     2
  9
$DIMALTTD
 70
     2
  9
$DIMTXSTY
  7
Standard
  9
$DIMAUNIT
 70
     0
  9
$DIMADEC
 70
     0
  9
$DIMALTRND
 40
0.0
  9
$DIMAZIN
 70
     0
  9
$DIMDSEP
 70
    46
  9
$DIMATFIT
 70
     3
  9
$DIMFRAC
 70
     0
  9
$DIMLDRBLK
  1

  9
$DIMLUNIT
 70
     2
  9
$DIMLWD
 70
    -2
  9
$DIMLWE
 70
    -2
  9
$DIMTMOVE
 70
     0
  9
$LUNITS
 70
     2
  9
$LUPREC
 70
     4
  9
$SKETCHINC
 40
0.1
  9
$FILLETRAD
 40
0.5
  9
$AUNITS
 70
     0
  9
$AUPREC
 70
     0
  9
$MENU
  1
.
  9
$ELEVATION
 40
0.0
  9
$PELEVATION
 40
0.0
  9
$THICKNESS
 40
0.0
  9
$LIMCHECK
 70
     0
  9
$CHAMFERA
 40
0.5
  9
$CHAMFERB
 40
0.5
  9
$CHAMFERC
 40
1.0
  9
$CHAMFERD
 40
0.0
  9
$SKPOLY
 70
     0
  9
$TDCREATE
 40
2455954.454483426
  9
$TDUCREATE
 40
2455954.412816759
  9
$TDUPDATE
 40
2455954.454483437
  9
$TDUUPDATE
 40
2455954.412816771
  9
$TDINDWG
 40
0.0000000116
  9
$TDUSRTIMER
 40
0.0000000116
  9
$USRTIMER
 70
     1
  9
$ANGBASE
 50
0.0
  9
$ANGDIR
 70
     0
  9
$PDMODE
 70
     0
  9
$PDSIZE
 40
0.0
  9
$PLINEWID
 40
0.0
  9
$SPLFRAME
 70
     0
  9
$SPLINETYPE
 70
     6
  9
$SPLINESEGS
 70
     8
  9
$HANDSEED
  5
150
  9
$SURFTAB1
 70
     6
  9
$SURFTAB2
 70
     6
  9
$SURFTYPE
 70
     6
  9
$SURFU
 70
     6
  9
$SURFV
 70
     6
  9
$UCSBASE
  2

  9
$UCSNAME
  2

  9
$UCSORG
 10
0.0
 20
0.0
 30
0.0
  9
$UCSXDIR
 10
1.0
 20
0.0
 30
0.0
  9
$UCSYDIR
 10
0.0
 20
1.0
 30
0.0
  9
$UCSORTHOREF
  2

  9
$UCSORTHOVIEW
 70
     0
  9
$UCSORGTOP
 10
0.0
 20
0.0
 30
0.0
  9
$UCSORGBOTTOM
 10
0.0
 20
0.0
 30
0.0
  9
$UCSORGLEFT
 10
0.0
 20
0.0
 30
0.0
  9
$UCSORGRIGHT
 10
0.0
 20
0.0
 30
0.0
  9
$UCSORGFRONT
 10
0.0
 20
0.0
 30
0.0
  9
$UCSORGBACK
 10
0.0
 20
0.0
 30
0.0
  9
$PUCSBASE
  2

  9
$PUCSNAME
  2

  9
$PUCSORG
 10
0.0
 20
0.0
 30
0.0
  9
$PUCSXDIR
 10
1.0
 20
0.0
 30
0.0
  9
$PUCSYDIR
 10
0.0
 20
1.0
 30
0.0
  9
$PUCSORTHOREF
  2

  9
$PUCSORTHOVIEW
 70
     0
  9
$PUCSORGTOP
 10
0.0
 20
0.0
 30
0.0
  9
$PUCSORGBOTTOM
 10
0.0
 20
0.0
 30
0.0
  9
$PUCSORGLEFT
 10
0.0
 20
0.0
 30
0.0
  9
$PUCSORGRIGHT
 10
0.0
 20
0.0
 30
0.0
  9
$PUCSORGFRONT
 10
0.0
 20
0.0
 30
0.0
  9
$PUCSORGBACK
 10
0.0
 20
0.0
 30
0.0
  9
$USERI1
 70
     0
  9
$USERI2
 70
     0
  9
$USERI3
 70
     0
  9
$USERI4
 70
     0
  9
$USERI5
 70
     0
  9
$USERR1
 40
16.5
  9
$USERR2
 40
0.0
  9
$USERR3
 40
0.0
  9
$USERR4
 40
0.0
  9
$USERR5
 40
0.0
  9
$WORLDVIEW
 70
     1
  9
$SHADEDGE
 70
     3
  9
$SHADEDIF
 70
    70
  9
$TILEMODE
 70
     1
  9
$MAXACTVP
 70
    64
  9
$PINSBASE
 10
0.0
 20
0.0
 30
0.0
  9
$PLIMCHECK
 70
     0
  9
$PEXTMIN
 10
1.00000000000000E+20
 20
1.00000000000000E+20
 30
1.00000000000000E+20
  9
$PEXTMAX
 10
-1.00000000000000E+20
 20
-1.00000000000000E+20
 30
-1.00000000000000E+20
  9
$PLIMMIN
 10
0.0
 20
0.0
  9
$PLIMMAX
 10
12.0
 20
9.0
  9
$UNITMODE
 70
     0
  9
$VISRETAIN
 70
     1
  9
$PLINEGEN
 70
     0
  9
$PSLTSCALE
 70
     1
  9
$TREEDEPTH
 70
  3020
  9
$CMLSTYLE
  2
Standard
  9
$CMLJUST
 70
     0
  9
$CMLSCALE
 40
1.0
  9
$PROXYGRAPHICS
 70
     1
  9
$MEASUREMENT
 70
     1
  9
$CELWEIGHT
370
    -1
  9
$ENDCAPS
280
     0
  9
$JOINSTYLE
280
     0
  9
$LWDISPLAY
290
     0
  9
$INSUNITS
 70
     1
  9
$HYPERLINKBASE
  1

  9
$STYLESHEET
  1

  9
$XEDIT
290
     1
  9
$CEPSNTYPE
380
     0
  9
$PSTYLEMODE
290
     1
  9
$FINGERPRINTGUID
  2
{B1585031-6BF6-42D8-9E51-747833703E9B}
  9
$VERSIONGUID
  2
{FAEB1C32-E019-11D5-929B-00C0DF256EC4}
  9
$EXTNAMES
290
     1
  9
$PSVPSCALE
 40
0.0
  9
$OLESTARTUP
290
     0
  0
ENDSEC
  0
SECTION
  2
CLASSES
  0
CLASS
  1
ACDBDICTIONARYWDFLT
  2
AcDbDictionaryWithDefault
  3
ObjectDBX Classes
 90
        0
280
     0
281
     0
  0
CLASS
  1
VISUALSTYLE
  2
AcDbVisualStyle
  3
ObjectDBX Classes
 90
     4095
280
     0
281
     0
  0
CLASS
  1

  2
exOdDbSpline
  3

 90
        0
280
     0
281
     1
  0
CLASS
  1
SCALE
  2
AcDbScale
  3
ObjectDBX Classes
 90
     1153
280
     0
281
     0
  0
CLASS
  1
DICTIONARYVAR
  2
AcDbDictionaryVar
  3
ObjectDBX Classes
 90
        0
280
     0
281
     0
  0
CLASS
  1
ACDBPLACEHOLDER
  2
AcDbPlaceHolder
  3
ObjectDBX Classes
 90
        0
280
     0
281
     0
  0
CLASS
  1
LAYOUT
  2
AcDbLayout
  3
ObjectDBX Classes
 90
        0
280
     0
281
     0
  0
ENDSEC
  0
SECTION
  2
TABLES
  0
TABLE
  2
VPORT
  5
8
330
0
100
AcDbSymbolTable
 70
     1
  0
VPORT
  5
29
330
8
100
AcDbSymbolTableRecord
100
AcDbViewportTableRecord
  2
*Active
 70
     0
 10
0.0
 20
0.0
 11
1.0
 21
1.0
 12
148.5
 22
103.43460797815
 13
0.0
 23
0.0
 14
0.5
 24
0.5
 15
0.5
 25
0.5
 16
0.0
 26
0.0
 36
1.0
 17
0.0
 27
0.0
 37
0.0
 40
234.44386244807
 41
1.60267857142857
 42
50.0
 43
0.0
 44
0.0
 50
0.0
 51
0.0
 71
     0
 72
   100
 73
     1
 74
     3
 75
     0
 76
     0
 77
     0
 78
     0
281
     0
 65
     1
110
0.0
120
0.0
130
0.0
111
1.0
121
0.0
131
0.0
112
0.0
122
1.0
132
0.0
 79
     0
146
0.0
  0
ENDTAB
  0
TABLE
  2
LTYPE
  5
5
330
0
100
AcDbSymbolTable
 70
    10
  0
LTYPE
  5
14
330
5
100
AcDbSymbolTableRecord
100
AcDbLinetypeTableRecord
  2
ByBlock
 70
     0
  3

 72
    65
 73
     0
 40
0.0
  0
LTYPE
  5
15
330
5
100
AcDbSymbolTableRecord
100
AcDbLinetypeTableRecord
  2
ByLayer
 70
     0
  3

 72
    65
 73
     0
 40
0.0
  0
LTYPE
  5
16
330
5
100
AcDbSymbolTableRecord
100
AcDbLinetypeTableRecord
  2
Continuous
 70
     0
  3
Solid line
 72
    65
 73
     0
 40
0.0
  0
LTYPE
  5
3B
330
5
100
AcDbSymbolTableRecord
100
AcDbLinetypeTableRecord
  2
DASHED
 70
     0
  3
Dashed
 72
    65
 73
     2
 40
15.0
 49
7.0
 74
     0
 49
-8.0
 74
     0
  0
LTYPE
  5
3C
330
5
100
AcDbSymbolTableRecord
100
AcDbLinetypeTableRecord
  2
DOTTED
 70
     0
  3
Dotted
 72
    65
 73
     2
 40
1.0
 49
0.0
 74
     0
 49
-1.0
 74
     0
  0
LTYPE
  5
3D
330
5
100
AcDbSymbolTableRecord
100
AcDbLinetypeTableRecord
  2
DOT_CENTER
 70
     0
  3
Dot_Center
 72
    65
 73
     4
 40
14.0
 49
12.0
 74
     0
 49
-1.0
 74
     0
 49
0.0
 74
     0
 49
-1.0
 74
     0
  0
LTYPE
  5
3E
330
5
100
AcDbSymbolTableRecord
100
AcDbLinetypeTableRecord
  2
LONG_DASHED
 70
     0
  3
Long_Dashed
 72
    65
 73
     2
 40
15.0
 49
10.0
 74
     0
 49
-5.0
 74
     0
  0
LTYPE
  5
3F
330
5
100
AcDbSymbolTableRecord
100
AcDbLinetypeTableRecord
  2
DASH_CENTER
 70
     0
  3
Dash_Center
 72
    65
 73
     4
 40
14.0
 49
11.0
 74
     0
 49
-1.0
 74
     0
 49
1.0
 74
     0
 49
-1.0
 74
     0
  0
LTYPE
  5
40
330
5
100
AcDbSymbolTableRecord
100
AcDbLinetypeTableRecord
  2
PHANTOM
 70
     0
  3
Phantom
 72
    65
 73
     6
 40
13.0
 49
10.0
 74
     0
 49
-1.0
 74
     0
 49
0.0
 74
     0
 49
-1.0
 74
     0
 49
0.0
 74
     0
 49
-1.0
 74
     0
  0
LTYPE
  5
41
330
5
100
AcDbSymbolTableRecord
100
AcDbLinetypeTableRecord
  2
CENTER_DASH_DASH
 70
     0
  3
Center_Dash_Dash
 72
    65
 73
     6
 40
14.0
 49
9.0
 74
     0
 49
-1.0
 74
     0
 49
1.0
 74
     0
 49
-1.0
 74
     0
 49
1.0
 74
     0
 49
-1.0
 74
     0
  0
LTYPE
  5
42
330
5
100
AcDbSymbolTableRecord
100
AcDbLinetypeTableRecord
  2
HIDDEN
 70
     0
  3
HIDDEN
 72
    65
 73
     2
 40
4.0
 49
2.0
 74
     0
 49
-2.0
 74
     0
  0
LTYPE
  5
43
330
5
100
AcDbSymbolTableRecord
100
AcDbLinetypeTableRecord
  2
CENTER
 70
     0
  3
CENTER
 72
    65
 73
     4
 40
13.0
 49
7.0
 74
     0
 49
-2.0
 74
     0
 49
2.0
 74
     0
 49
-2.0
 74
     0
  0
ENDTAB
  0
TABLE
  2
LAYER
  5
2
330
0
100
AcDbSymbolTable
 70
     9
  0
LAYER
  5
10
330
2
100
AcDbSymbolTableRecord
100
AcDbLayerTableRecord
  2
0
 70
     0
 62
     7
  6
Continuous
370
    -3
390
F
  0
LAYER
  5
44
330
2
100
AcDbSymbolTableRecord
100
AcDbLayerTableRecord
  2
1
 70
     0
 62
     7
  6
Continuous
370
    -3
390
F
  0
LAYER
  5
45
330
2
100
AcDbSymbolTableRecord
100
AcDbLayerTableRecord
  2
ACHSEN
 70
     0
 62
     7
  6
Continuous
370
    -3
390
F
  0
LAYER
  5
46
330
2
100
AcDbSymbolTableRecord
100
AcDbLayerTableRecord
  2
DEFAULT_1
 70
     0
 62
     7
  6
Continuous
370
    -3
390
F
  0
LAYER
  5
47
330
2
100
AcDbSymbolTableRecord
100
AcDbLayerTableRecord
  2
DEFAULT_2
 70
     0
 62
     7
  6
Continuous
370
    -3
390
F
  0
LAYER
  5
48
330
2
100
AcDbSymbolTableRecord
100
AcDbLayerTableRecord
  2
FASEN
 70
     0
 62
     7
  6
Continuous
370
    -3
390
F
  0
LAYER
  5
49
330
2
100
AcDbSymbolTableRecord
100
AcDbLayerTableRecord
  2
KURVEN
 70
     0
 62
     7
  6
Continuous
370
    -3
390
F
  0
LAYER
  5
4A
330
2
100
AcDbSymbolTableRecord
100
AcDbLayerTableRecord
  2
RUNDUNGEN
 70
     0
 62
     7
  6
Continuous
370
    -3
390
F
  0
LAYER
  5
4B
330
2
100
AcDbSymbolTableRecord
100
AcDbLayerTableRecord
  2
S_ACHSEN
 70
     0
 62
     7
  6
Continuous
370
    -3
390
F
  0
ENDTAB
  0
TABLE
  2
STYLE
  5
3
330
0
100
AcDbSymbolTable
 70
     3
  0
STYLE
  5
11
330
3
100
AcDbSymbolTableRecord
100
AcDbTextStyleTableRecord
  2
Standard
 70
     0
 40
0.0
 41
1.0
 50
0.0
 71
     0
 42
0.2
  3
txt
  4

  0
STYLE
  5
E5
330
3
100
AcDbSymbolTableRecord
100
AcDbTextStyleTableRecord
  2
CONVERTER_11
 70
     0
 40
0.0
 41
0.7
 50
0.0
 71
     0
 42
0.2
  3
txt.shx
  4

  0
STYLE
  5
10F
330
3
100
AcDbSymbolTableRecord
100
AcDbTextStyleTableRecord
  2
CONVERTER_12
 70
     0
 40
0.0
 41
0.72
 50
0.0
 71
     0
 42
0.2
  3
txt.shx
  4

  0
ENDTAB
  0
TABLE
  2
VIEW
  5
6
330
0
100
AcDbSymbolTable
 70
     0
  0
ENDTAB
  0
TABLE
  2
UCS
  5
7
330
0
100
AcDbSymbolTable
 70
     0
  0
ENDTAB
  0
TABLE
  2
APPID
  5
9
330
0
100
AcDbSymbolTable
 70
     1
  0
APPID
  5
12
330
9
100
AcDbSymbolTableRecord
100
AcDbRegAppTableRecord
  2
ACAD
 70
     0
  0
ENDTAB
  0
TABLE
  2
DIMSTYLE
  5
A
330
0
100
AcDbSymbolTable
 70
     7
100
AcDbDimStyleTable
  0
DIMSTYLE
105
27
330
A
100
AcDbSymbolTableRecord
100
AcDbDimStyleTableRecord
  2
Standard
 70
     0
340
11
  0
DIMSTYLE
105
113
102
{ACAD_REACTORS
330
114
102
}
330
A
100
AcDbSymbolTableRecord
100
AcDbDimStyleTableRecord
  2
ME10_DIM_10
 70
     0
  3
\U+2300<>
 41
3.5
 42
2.0
 44
2.0
 71
     1
 73
     0
 74
     0
 77
     1
 78
     8
140
3.5
146
0.7
147
2.0
172
     1
173
     1
176
     2
177
     2
178
     3
271
     2
272
     0
340
10F
  0
DIMSTYLE
105
11E
102
{ACAD_REACTORS
330
11F
102
}
330
A
100
AcDbSymbolTableRecord
100
AcDbDimStyleTableRecord
  2
ME10_DIM_11
 70
     0
 41
3.5
 73
     0
 74
     0
 77
     1
 78
    12
140
3.5
172
     1
173
     1
176
     2
177
     2
178
     5
271
     2
340
E5
  0
DIMSTYLE
105
129
102
{ACAD_REACTORS
330
12A
102
}
330
A
100
AcDbSymbolTableRecord
100
AcDbDimStyleTableRecord
  2
ME10_DIM_12
 70
     0
  3
{\Fgdt;n}<>
 41
3.5
 73
     0
 74
     0
 77
     1
 78
    12
140
3.5
172
     1
173
     1
176
     2
177
     2
178
     5
271
     2
340
E5
  0
DIMSTYLE
105
134
102
{ACAD_REACTORS
330
135
102
}
330
A
100
AcDbSymbolTableRecord
100
AcDbDimStyleTableRecord
  2
ME10_DIM_13
 70
     0
 41
3.5
 73
     0
 74
     0
 77
     1
 78
    12
140
3.5
172
     1
173
     1
176
     2
177
     2
178
     5
271
     2
340
E5
  0
DIMSTYLE
105
13F
102
{ACAD_REACTORS
330
140
102
}
330
A
100
AcDbSymbolTableRecord
100
AcDbDimStyleTableRecord
  2
ME10_DIM_14
 70
     0
 41
3.5
 73
     0
 74
     0
 77
     1
 78
    12
140
3.5
172
     1
173
     1
176
     2
177
     2
178
     5
271
     2
340
E5
  0
DIMSTYLE
105
14A
102
{ACAD_REACTORS
330
14B
102
}
330
A
100
AcDbSymbolTableRecord
100
AcDbDimStyleTableRecord
  2
ME10_DIM_15
 70
     0
 41
3.5
 73
     0
 74
     0
 77
     1
 78
    12
140
3.5
172
     1
173
     1
176
     2
177
     2
178
     5
271
     2
340
E5
  0
ENDTAB
  0
TABLE
  2
BLOCK_RECORD
  5
1
330
0
100
AcDbSymbolTable
 70
     7
  0
BLOCK_RECORD
  5
1F
330
1
100
AcDbSymbolTableRecord
100
AcDbBlockTableRecord
  2
*Model_Space
340
22
  0
BLOCK_RECORD
  5
1B
330
1
100
AcDbSymbolTableRecord
100
AcDbBlockTableRecord
  2
*Paper_Space
340
1E
  0
BLOCK_RECORD
  5
23
330
1
100
AcDbSymbolTableRecord
100
AcDbBlockTableRecord
  2
*Paper_Space0
340
26
  0
BLOCK_RECORD
  5
109
330
1
100
AcDbSymbolTableRecord
100
AcDbBlockTableRecord
  2
*D1
340
0
  0
BLOCK_RECORD
  5
115
330
1
100
AcDbSymbolTableRecord
100
AcDbBlockTableRecord
  2
*D2
340
0
  0
BLOCK_RECORD
  5
120
330
1
100
AcDbSymbolTableRecord
100
AcDbBlockTableRecord
  2
*D3
340
0
  0
BLOCK_RECORD
  5
12B
330
1
100
AcDbSymbolTableRecord
100
AcDbBlockTableRecord
  2
*D4
340
0
  0
BLOCK_RECORD
  5
136
330
1
100
AcDbSymbolTableRecord
100
AcDbBlockTableRecord
  2
*D5
340
0
  0
BLOCK_RECORD
  5
141
330
1
100
AcDbSymbolTableRecord
100
AcDbBlockTableRecord
  2
*D6
340
0
  0
ENDTAB
  0
ENDSEC
  0
SECTION
  2
BLOCKS
  0
BLOCK
  5
20
330
1F
100
AcDbEntity
  8
0
100
AcDbBlockBegin
  2
*Model_Space
 70
     0
 10
0.0
 20
0.0
 30
0.0
  3
*Model_Space
  1

  0
ENDBLK
  5
21
330
1F
100
AcDbEntity
  8
0
100
AcDbBlockEnd
  0
BLOCK
  5
1C
330
1B
100
AcDbEntity
 67
     1
  8
0
100
AcDbBlockBegin
  2
*Paper_Space
 70
     0
 10
0.0
 20
0.0
 30
0.0
  3
*Paper_Space
  1

  0
ENDBLK
  5
1D
330
1B
100
AcDbEntity
 67
     1
  8
0
100
AcDbBlockEnd
  0
BLOCK
  5
24
330
23
100
AcDbEntity
  8
0
100
AcDbBlockBegin
  2
*Paper_Space0
 70
     0
 10
0.0
 20
0.0
 30
0.0
  3
*Paper_Space0
  1

  0
ENDBLK
  5
25
330
23
100
AcDbEntity
  8
0
100
AcDbBlockEnd
  0
BLOCK
  5
111
330
109
100
AcDbEntity
  8
0
100
AcDbBlockBegin
  2
*D1
 70
     1
 10
0.0
 20
0.0
 30
0.0
  3
*D1
  1

  0
LINE
  5
10A
330
109
100
AcDbEntity
  8
1
  6
Continuous
 62
     2
100
AcDbLine
 10
254.835340250821
 20
88.6696678328
 30
0.0
 11
254.835340250821
 21
151.6696678328
 31
0.0
  0
LINE
  5
10B
330
109
100
AcDbEntity
  8
1
  6
Continuous
 62
     2
100
AcDbLine
 10
231.5963591476
 20
151.6696678328
 30
0.0
 11
256.835340250821
 21
151.6696678328
 31
0.0
  0
LINE
  5
10C
330
109
100
AcDbEntity
  8
1
  6
Continuous
 62
     2
100
AcDbLine
 10
231.5963591476
 20
88.6696678328
 30
0.0
 11
256.835340250821
 21
88.6696678328
 31
0.0
  0
SOLID
  5
10D
330
109
100
AcDbEntity
  8
1
 62
     2
100
AcDbTrace
 10
254.3745565092651
 20
92.1696678328
 30
0.0
 11
255.2961239923769
 21
92.1696678328
 31
0.0
 12
254.835340250821
 22
88.6696678328
 32
0.0
 13
254.835340250821
 23
88.6696678328
 33
0.0
  0
SOLID
  5
10E
330
109
100
AcDbEntity
  8
1
 62
     2
100
AcDbTrace
 10
255.2961239923769
 20
148.1696678328
 30
0.0
 11
254.3745565092651
 21
148.1696678328
 31
0.0
 12
254.835340250821
 22
151.6696678328
 32
0.0
 13
254.835340250821
 23
151.6696678328
 33
0.0
  0
MTEXT
  5
110
330
109
100
AcDbEntity
  8
1
 62
     3
100
AcDbMText
 10
252.835340250821
 20
112.26179439799
 30
0.0
 40
3.5
 41
0.0
 71
     7
 72
     1
  1
\C3;%%c\C3;\C3;63\C2;\H2.45;\S^ ;\C3;
  7
CONVERTER_12
 11
0.0
 21
1.0
 31
0.0
 73
     1
 44
0.60024009603842
  0
ENDBLK
  5
112
330
109
100
AcDbEntity
  8
0
100
AcDbBlockEnd
  0
BLOCK
  5
11C
330
115
100
AcDbEntity
  8
0
100
AcDbBlockBegin
  2
*D2
 70
     1
 10
0.0
 20
0.0
 30
0.0
  3
*D2
  1

  0
LINE
  5
116
330
115
100
AcDbEntity
  8
0
  6
Continuous
 62
     2
100
AcDbLine
 10
231.5963591476
 20
190.4402070485
 30
0.0
 11
101.5963591476
 21
190.4402070485
 31
0.0
  0
LINE
  5
117
330
115
100
AcDbEntity
  8
0
  6
Continuous
 62
     2
100
AcDbLine
 10
101.5963591476
 20
158.4314424837
 30
0.0
 11
101.5963591476
 21
190.6202070485
 31
0.0
  0
LINE
  5
118
330
115
100
AcDbEntity
  8
0
  6
Continuous
 62
     2
100
AcDbLine
 10
231.5963591476
 20
149.7680662176
 30
0.0
 11
231.5963591476
 21
190.6202070485
 31
0.0
  0
SOLID
  5
119
330
115
100
AcDbEntity
  8
0
 62
     2
100
AcDbTrace
 10
228.0963591476
 20
189.9794233069441
 30
0.0
 11
228.0963591476
 21
190.9009907900559
 31
0.0
 12
231.5963591476
 22
190.4402070485
 32
0.0
 13
231.5963591476
 23
190.4402070485
 33
0.0
  0
SOLID
  5
11A
330
115
100
AcDbEntity
  8
0
 62
     2
100
AcDbTrace
 10
105.0963591476
 20
190.9009907900559
 30
0.0
 11
105.0963591476
 21
189.9794233069441
 31
0.0
 12
101.5963591476
 22
190.4402070485
 32
0.0
 13
101.5963591476
 23
190.4402070485
 33
0.0
  0
MTEXT
  5
11B
330
115
100
AcDbEntity
  8
0
 62
     5
100
AcDbMText
 10
163.7380258142667
 20
193.0652070485
 30
0.0
 40
3.5
 41
0.0
 71
     7
 72
     1
  1
130
  7
CONVERTER_11
 11
0.9999999999970619
 21
2.424068405545306E-6
 31
0.0
 73
     1
 44
0.60024009603842
  0
ENDBLK
  5
11D
330
115
100
AcDbEntity
  8
0
100
AcDbBlockEnd
  0
BLOCK
  5
127
330
120
100
AcDbEntity
  8
0
100
AcDbBlockBegin
  2
*D3
 70
     1
 10
0.0
 20
0.0
 30
0.0
  3
*D3
  1

  0
LINE
  5
121
330
120
100
AcDbEntity
  8
0
  6
Continuous
 62
     2
100
AcDbLine
 10
245.100828448
 20
140.1696678328
 30
0.0
 11
245.100828448
 21
100.1696678328
 31
0.0
  0
LINE
  5
122
330
120
100
AcDbEntity
  8
0
  6
Continuous
 62
     2
100
AcDbLine
 10
218.1588591476
 20
140.1696678328
 30
0.0
 11
245.280828448
 21
140.1696678328
 31
0.0
  0
LINE
  5
123
330
120
100
AcDbEntity
  8
0
  6
Continuous
 62
     2
100
AcDbLine
 10
218.1588591476
 20
100.1696678328
 30
0.0
 11
245.280828448
 21
100.1696678328
 31
0.0
  0
SOLID
  5
124
330
120
100
AcDbEntity
  8
0
 62
     2
100
AcDbTrace
 10
244.6400447064441
 20
103.6696678328
 30
0.0
 11
245.5616121895559
 21
103.6696678328
 31
0.0
 12
245.100828448
 22
100.1696678328
 32
0.0
 13
245.100828448
 23
100.1696678328
 33
0.0
  0
SOLID
  5
125
330
120
100
AcDbEntity
  8
0
 62
     2
100
AcDbTrace
 10
245.5616121895559
 20
136.6696678328
 30
0.0
 11
244.6400447064441
 21
136.6696678328
 31
0.0
 12
245.100828448
 22
140.1696678328
 32
0.0
 13
245.100828448
 23
140.1696678328
 33
0.0
  0
MTEXT
  5
126
330
120
100
AcDbEntity
  8
0
 62
     5
100
AcDbMText
 10
242.475828448
 20
112.5641678328
 30
0.0
 40
3.5
 41
0.0
 71
     7
 72
     1
  1
\C5;{\Fgdt;n}\C5;40
  7
CONVERTER_11
 11
0.0
 21
1.0
 31
0.0
 73
     1
 44
0.60024009603842
  0
ENDBLK
  5
128
330
120
100
AcDbEntity
  8
0
100
AcDbBlockEnd
  0
BLOCK
  5
132
330
12B
100
AcDbEntity
  8
0
100
AcDbBlockBegin
  2
*D4
 70
     1
 10
0.0
 20
0.0
 30
0.0
  3
*D4
  1

  0
LINE
  5
12C
330
12B
100
AcDbEntity
  8
0
  6
Continuous
 62
     2
100
AcDbLine
 10
101.5963591476
 20
181.6214581234
 30
0.0
 11
216.5963591476
 21
181.6214581234
 31
0.0
  0
LINE
  5
12D
330
12B
100
AcDbEntity
  8
0
  6
Continuous
 62
     2
100
AcDbLine
 10
101.5963591476
 20
152.5844334202
 30
0.0
 11
101.5963591476
 21
181.8014581234
 31
0.0
  0
LINE
  5
12E
330
12B
100
AcDbEntity
  8
0
  6
Continuous
 62
     2
100
AcDbLine
 10
216.5963591476
 20
143.3630198877
 30
0.0
 11
216.5963591476
 21
181.8014581234
 31
0.0
  0
SOLID
  5
12F
330
12B
100
AcDbEntity
  8
0
 62
     2
100
AcDbTrace
 10
213.0963591476
 20
181.1606743818441
 30
0.0
 11
213.0963591476
 21
182.0822418649559
 31
0.0
 12
216.5963591476
 22
181.6214581234
 32
0.0
 13
216.5963591476
 23
181.6214581234
 33
0.0
  0
SOLID
  5
130
330
12B
100
AcDbEntity
  8
0
 62
     2
100
AcDbTrace
 10
105.0963591476
 20
182.0822418649559
 30
0.0
 11
105.0963591476
 21
181.1606743818441
 31
0.0
 12
101.5963591476
 22
181.6214581234
 32
0.0
 13
101.5963591476
 23
181.6214581234
 33
0.0
  0
MTEXT
  5
131
330
12B
100
AcDbEntity
  8
0
 62
     5
100
AcDbMText
 10
156.0828591476
 20
184.2464581234
 30
0.0
 40
3.5
 41
0.0
 71
     7
 72
     1
  1
115
  7
CONVERTER_11
 11
0.9999999999970619
 21
2.424068405545306E-6
 31
0.0
 73
     1
 44
0.60024009603842
  0
ENDBLK
  5
133
330
12B
100
AcDbEntity
  8
0
100
AcDbBlockEnd
  0
BLOCK
  5
13D
330
136
100
AcDbEntity
  8
0
100
AcDbBlockBegin
  2
*D5
 70
     1
 10
0.0
 20
0.0
 30
0.0
  3
*D5
  1

  0
LINE
  5
137
330
136
100
AcDbEntity
  8
0
  6
Continuous
 62
     2
100
AcDbLine
 10
63.5963591476
 20
197.8674995385
 30
0.0
 11
216.5963591476
 21
197.8674995385
 31
0.0
  0
LINE
  5
138
330
136
100
AcDbEntity
  8
0
  6
Continuous
 62
     2
100
AcDbLine
 10
63.5963591476
 20
101.5460520634
 30
0.0
 11
63.5963591476
 21
198.0474995385
 31
0.0
  0
LINE
  5
139
330
136
100
AcDbEntity
  8
0
  6
Continuous
 62
     2
100
AcDbLine
 10
216.5963591476
 20
143.6054449398
 30
0.0
 11
216.5963591476
 21
198.0474995385
 31
0.0
  0
SOLID
  5
13A
330
136
100
AcDbEntity
  8
0
 62
     2
100
AcDbTrace
 10
213.0963591476
 20
197.4067157969441
 30
0.0
 11
213.0963591476
 21
198.3282832800558
 31
0.0
 12
216.5963591476
 22
197.8674995385
 32
0.0
 13
216.5963591476
 23
197.8674995385
 33
0.0
  0
SOLID
  5
13B
330
136
100
AcDbEntity
  8
0
 62
     2
100
AcDbTrace
 10
67.0963591476
 20
198.3282832800559
 30
0.0
 11
67.0963591476
 21
197.4067157969441
 31
0.0
 12
63.5963591476
 22
197.8674995385
 32
0.0
 13
63.5963591476
 23
197.8674995385
 33
0.0
  0
MTEXT
  5
13C
330
136
100
AcDbEntity
  8
0
 62
     5
100
AcDbMText
 10
137.0828591476
 20
200.4924995385
 30
0.0
 40
3.5
 41
0.0
 71
     7
 72
     1
  1
153
  7
CONVERTER_11
 11
0.9999999999970619
 21
2.424068405545306E-6
 31
0.0
 73
     1
 44
0.60024009603842
  0
ENDBLK
  5
13E
330
136
100
AcDbEntity
  8
0
100
AcDbBlockEnd
  0
BLOCK
  5
148
330
141
100
AcDbEntity
  8
0
100
AcDbBlockBegin
  2
*D6
 70
     1
 10
0.0
 20
0.0
 30
0.0
  3
*D6
  1

  0
LINE
  5
142
330
141
100
AcDbEntity
  8
0
  6
Continuous
 62
     2
100
AcDbLine
 10
123.5963591476
 20
171.5121211131
 30
0.0
 11
216.5963591476
 21
171.5121211131
 31
0.0
  0
LINE
  5
143
330
141
100
AcDbEntity
  8
0
  6
Continuous
 62
     2
100
AcDbLine
 10
123.5963591476
 20
153.5199548704
 30
0.0
 11
123.5963591476
 21
171.6921211131
 31
0.0
  0
LINE
  5
144
330
141
100
AcDbEntity
  8
0
  6
Continuous
 62
     2
100
AcDbLine
 10
216.5963591476
 20
140.5751317874
 30
0.0
 11
216.5963591476
 21
171.6921211131
 31
0.0
  0
SOLID
  5
145
330
141
100
AcDbEntity
  8
0
 62
     2
100
AcDbTrace
 10
213.0963591476
 20
171.0513373715441
 30
0.0
 11
213.0963591476
 21
171.9729048546559
 31
0.0
 12
216.5963591476
 22
171.5121211131
 32
0.0
 13
216.5963591476
 23
171.5121211131
 33
0.0
  0
SOLID
  5
146
330
141
100
AcDbEntity
  8
0
 62
     2
100
AcDbTrace
 10
127.0963591476
 20
171.9729048546559
 30
0.0
 11
127.0963591476
 21
171.0513373715441
 31
0.0
 12
123.5963591476
 22
171.5121211131
 32
0.0
 13
123.5963591476
 23
171.5121211131
 33
0.0
  0
MTEXT
  5
147
330
141
100
AcDbEntity
  8
0
 62
     5
100
AcDbMText
 10
168.0873591476
 20
174.1371211131
 30
0.0
 40
3.5
 41
0.0
 71
     7
 72
     1
  1
93
  7
CONVERTER_11
 11
0.9999999999970619
 21
2.424068405545306E-6
 31
0.0
 73
     1
 44
0.60024009603842
  0
ENDBLK
  5
149
330
141
100
AcDbEntity
  8
0
100
AcDbBlockEnd
  0
ENDSEC
  0
SECTION
  2
ENTITIES
  0
POINT
  5
4C
330
1F
100
AcDbEntity
  8
0
 62
     7
100
AcDbPoint
 10
218.0963591476
 20
95.1696678328
 30
0.0
  0
POINT
  5
4D
330
1F
100
AcDbEntity
  8
0
 62
     7
100
AcDbPoint
 10
218.0963591476
 20
145.1696678328
 30
0.0
  0
POINT
  5
4E
330
1F
100
AcDbEntity
  8
0
 62
     7
100
AcDbPoint
 10
101.5963591476
 20
158.3689424837
 30
0.0
  0
POINT
  5
4F
330
1F
100
AcDbEntity
  8
0
 62
     7
100
AcDbPoint
 10
231.5963591476
 20
149.7055662176
 30
0.0
  0
POINT
  5
50
330
1F
100
AcDbEntity
  8
0
 62
     7
100
AcDbPoint
 10
218.0963591476
 20
140.1696678328
 30
0.0
  0
POINT
  5
51
330
1F
100
AcDbEntity
  8
0
 62
     7
100
AcDbPoint
 10
218.0963591476
 20
100.1696678328
 30
0.0
  0
POINT
  5
52
330
1F
100
AcDbEntity
  8
0
 62
     7
100
AcDbPoint
 10
101.5963591476
 20
152.5219334202
 30
0.0
  0
POINT
  5
53
330
1F
100
AcDbEntity
  8
0
 62
     7
100
AcDbPoint
 10
216.5963591476
 20
143.3005198877
 30
0.0
  0
POINT
  5
54
330
1F
100
AcDbEntity
  8
0
 62
     7
100
AcDbPoint
 10
63.5963591476
 20
101.4835520634
 30
0.0
  0
POINT
  5
55
330
1F
100
AcDbEntity
  8
0
 62
     7
100
AcDbPoint
 10
216.5963591476
 20
143.5429449398
 30
0.0
  0
POINT
  5
56
330
1F
100
AcDbEntity
  8
0
 62
     7
100
AcDbPoint
 10
123.5963591476
 20
153.4574548704
 30
0.0
  0
POINT
  5
57
330
1F
100
AcDbEntity
  8
0
 62
     7
100
AcDbPoint
 10
216.5963591476
 20
140.5126317874
 30
0.0
  0
LINE
  5
58
330
1F
100
AcDbEntity
  8
0
  6
Continuous
 62
     7
100
AcDbLine
 10
99.6067607793
 20
96.7442830269
 30
0.0
 11
99.8493878984
 21
97.2929389574
 31
0.0
  0
LINE
  5
59
330
1F
100
AcDbEntity
  8
FASEN
  6
Continuous
 62
     7
100
AcDbLine
 10
108.3739155467
 20
151.6696333212
 30
0.0
 11
108.6649987438
 21
151.6221065076
 31
0.0
  0
LINE
  5
5A
330
1F
100
AcDbEntity
  8
ACHSEN
  6
Continuous
 62
     7
100
AcDbLine
 10
71.8749294332
 20
140.098325638
 30
0.0
 11
71.8600080457988
 21
140.096224080447
 31
0.0
  0
LINE
  5
5B
330
1F
100
AcDbEntity
  8
ACHSEN
  6
Continuous
 62
     7
100
AcDbLine
 10
71.8599784955
 20
140.0962199086
 30
0.0
 11
71.8749294336
 21
140.098325638
 31
0.0
  0
LINE
  5
5C
330
1F
100
AcDbEntity
  8
ACHSEN
  6
Continuous
 62
     7
100
AcDbLine
 10
71.7371301791
 20
140.0787072513
 30
0.0
 11
71.8599784955
 21
140.0962199086
 31
0.0
  0
LINE
  5
5D
330
1F
100
AcDbEntity
  8
ACHSEN
  6
Continuous
 62
     7
100
AcDbLine
 10
69.9463591475966
 20
139.773719131405
 30
0.0
 11
65.0963591476
 21
139.6666574463
 31
0.0
  0
LINE
  5
5E
330
1F
100
AcDbEntity
  8
FASEN
  6
Continuous
 62
     7
100
AcDbLine
 10
118.7800609609
 20
151.6631755421
 30
0.0
 11
118.8188027485
 21
151.6696333212
 31
0.0
  0
LINE
  5
5F
330
1F
100
AcDbEntity
  8
FASEN
  6
Continuous
 62
     7
100
AcDbLine
 10
108.412657334331
 20
151.663175542133
 30
0.0
 11
108.3739155467
 21
151.6696333212
 31
0.0
  0
LINE
  5
60
330
1F
100
AcDbEntity
  8
DEFAULT_1
  6
CENTER
 62
     5
100
AcDbLine
 10
229.5963591476
 20
151.6696678328
 30
0.0
 11
231.5963591476
 21
148.2055662176
 31
0.0
  0
LINE
  5
61
330
1F
100
AcDbEntity
  8
DEFAULT_1
  6
CENTER
 62
     5
100
AcDbLine
 10
229.5963591476
 20
88.6696678328
 30
0.0
 11
231.5963591476
 21
92.1337694479
 31
0.0
  0
LINE
  5
62
330
1F
100
AcDbEntity
  8
DEFAULT_1
  6
CENTER
 62
     5
100
AcDbLine
 10
225.4025184337
 20
145.4596678328
 30
0.0
 11
231.5963591476
 21
137.2252224143
 31
0.0
  0
LINE
  5
63
330
1F
100
AcDbEntity
  8
DEFAULT_1
  6
CENTER
 62
     5
100
AcDbLine
 10
231.5963591476
 20
148.2055662176
 30
0.0
 11
231.5963591476
 21
92.1337694479
 31
0.0
  0
LINE
  5
64
330
1F
100
AcDbEntity
  8
FASEN
  6
Continuous
 62
     7
100
AcDbLine
 10
216.5963591485
 20
143.6696678313
 30
0.0
 11
215.7303337447
 21
145.1696678312
 31
0.0
  0
LINE
  5
65
330
1F
100
AcDbEntity
  8
DEFAULT_1
  6
CENTER
 62
     5
100
AcDbLine
 10
225.4025184337
 20
94.8796678328
 30
0.0
 11
231.5963591476
 21
103.1141132512
 31
0.0
  0
LINE
  5
66
330
1F
100
AcDbEntity
  8
FASEN
  6
Continuous
 62
     7
100
AcDbLine
 10
216.5963591486
 20
96.6696678345
 30
0.0
 11
215.7303337449
 21
95.1696678346
 31
0.0
  0
LINE
  5
67
330
1F
100
AcDbEntity
  8
FASEN
  6
Continuous
 62
     7
100
AcDbLine
 10
216.5963591476
 20
96.6696678329
 30
0.0
 11
216.5963591476
 21
143.6696678326
 31
0.0
  0
LINE
  5
68
330
1F
100
AcDbEntity
  8
0
  6
Continuous
 62
     7
100
AcDbLine
 10
216.2614959915
 20
144.2496678328
 30
0.0
 11
216.2614959915
 21
96.0896678328
 31
0.0
  0
LINE
  5
69
330
1F
100
AcDbEntity
  8
FASEN
  6
Continuous
 62
     7
100
AcDbLine
 10
215.7303337438
 20
95.1696678328
 30
0.0
 11
215.7303337438
 21
145.1696678328
 31
0.0
  0
LINE
  5
6A
330
1F
100
AcDbEntity
  8
DEFAULT_1
  6
CENTER
 62
     5
100
AcDbLine
 10
203.1263591476
 20
145.1696678328
 30
0.0
 11
203.1263591476
 21
149.6696678328
 31
0.0
  0
LINE
  5
6B
330
1F
100
AcDbEntity
  8
DEFAULT_1
  6
CENTER
 62
     5
100
AcDbLine
 10
203.1263591476
 20
90.6696678328
 30
0.0
 11
203.1263591476
 21
95.1696678328
 31
0.0
  0
LINE
  5
6C
330
1F
100
AcDbEntity
  8
0
  6
Continuous
 62
     7
100
AcDbLine
 10
199.0963591476
 20
145.1696678328
 30
0.0
 11
199.0963591476
 21
95.1696678328
 31
0.0
  0
LINE
  5
6D
330
1F
100
AcDbEntity
  8
DEFAULT_1
  6
CENTER
 62
     5
100
AcDbLine
 10
205.1263591476
 20
151.6696678328
 30
0.0
 11
229.5963591476
 21
151.6696678328
 31
0.0
  0
LINE
  5
6E
330
1F
100
AcDbEntity
  8
0
  6
Continuous
 62
     7
100
AcDbLine
 10
108.3744481194
 20
151.6696678328
 30
0.0
 11
101.89635922
 21
151.6696678328
 31
0.0
  0
LINE
  5
6F
330
1F
100
AcDbEntity
  8
0
  6
Continuous
 62
     7
100
AcDbLine
 10
123.5963591476
 20
151.6696678328
 30
0.0
 11
118.8182701758
 21
151.6696678328
 31
0.0
  0
LINE
  5
70
330
1F
100
AcDbEntity
  8
0
  6
Continuous
 62
     7
100
AcDbLine
 10
115.057684013
 20
150.2502605931
 30
0.0
 11
112.1350342822
 21
150.2502605931
 31
0.0
  0
LINE
  5
71
330
1F
100
AcDbEntity
  8
DEFAULT_2
  6
HIDDEN
 62
     8
100
AcDbLine
 10
183.6877741816
 20
135.5446678328
 30
0.0
 11
183.6877741816
 21
104.7946678328
 31
0.0
  0
LINE
  5
72
330
1F
100
AcDbEntity
  8
DEFAULT_1
  6
CENTER
 62
     5
100
AcDbLine
 10
221.8925184337
 20
145.4596678328
 30
0.0
 11
225.4025184337
 21
145.4596678328
 31
0.0
  0
LINE
  5
73
330
1F
100
AcDbEntity
  8
0
  6
Continuous
 62
     7
100
AcDbLine
 10
124.5963591476
 20
145.1696678328
 30
0.0
 11
215.7303337438
 21
145.1696678328
 31
0.0
  0
LINE
  5
74
330
1F
100
AcDbEntity
  8
DEFAULT_1
  6
CENTER
 62
     5
100
AcDbLine
 10
216.2614959915
 20
144.2496678328
 30
0.0
 11
220.1463591476
 21
144.2496678328
 31
0.0
  0
LINE
  5
75
330
1F
100
AcDbEntity
  8
0
  6
Continuous
 62
     2
100
AcDbLine
 10
199.0963591476
 20
144.2496678328
 30
0.0
 11
216.2614959915
 21
144.2496678328
 31
0.0
  0
LINE
  5
76
330
1F
100
AcDbEntity
  8
DEFAULT_2
  6
HIDDEN
 62
     8
100
AcDbLine
 10
178.0963591476
 20
135.5446678328
 30
0.0
 11
178.0963591476
 21
104.7946678328
 31
0.0
  0
LINE
  5
77
330
1F
100
AcDbEntity
  8
DEFAULT_1
  6
CENTER
 62
     5
100
AcDbLine
 10
220.1463591476
 20
96.0896678328
 30
0.0
 11
221.8925184337
 21
94.8796678328
 31
0.0
  0
LINE
  5
78
330
1F
100
AcDbEntity
  8
DEFAULT_2
  6
HIDDEN
 62
     8
100
AcDbLine
 10
183.6877741816
 20
135.5446678328
 30
0.0
 11
178.0963591476
 21
135.5446678328
 31
0.0
  0
LINE
  5
79
330
1F
100
AcDbEntity
  8
0
  6
Continuous
 62
     7
100
AcDbLine
 10
99.8493878984
 20
134.8594392654
 30
0.0
 11
99.6013822587
 21
134.8546100375
 31
0.0
  0
LINE
  5
7A
330
1F
100
AcDbEntity
  8
0
  6
Continuous
 62
     9
100
AcDbLine
 10
65.0963591476
 20
135.8809124715
 30
0.0
 11
99.3964222367
 21
136.6271985814
 31
0.0
  0
LINE
  5
7B
330
1F
100
AcDbEntity
  8
0
  6
Continuous
 62
     7
100
AcDbLine
 10
90.7757204808
 20
140.5731861682
 30
0.0
 11
99.3964222367
 21
140.7897682023
 31
0.0
  0
LINE
  5
7C
330
1F
100
AcDbEntity
  8
0
  6
Continuous
 62
     7
100
AcDbLine
 10
71.8599639017
 20
140.0979565229
 30
0.0
 11
81.6463591476
 21
140.343824835
 31
0.0
  0
LINE
  5
7D
330
1F
100
AcDbEntity
  8
0
  6
Continuous
 62
     7
100
AcDbLine
 10
99.6013822587
 20
140.5948544025
 30
0.0
 11
101.2013822587
 21
140.6350519716
 31
0.0
  0
LINE
  5
7E
330
1F
100
AcDbEntity
  8
0
  6
Continuous
 62
     7
100
AcDbLine
 10
115.057684013
 20
129.5188891473
 30
0.0
 11
112.1350342822
 21
129.5188891473
 31
0.0
  0
LINE
  5
7F
330
1F
100
AcDbEntity
  8
DEFAULT_2
  6
HIDDEN
 62
     8
100
AcDbLine
 10
183.6877741816
 20
135.5446678328
 30
0.0
 11
216.1012251132
 21
140.1000812823
 31
0.0
  0
LINE
  5
80
330
1F
100
AcDbEntity
  8
FASEN
  6
HIDDEN
 62
     8
100
AcDbLine
 10
216.1012251132
 20
140.1000812823
 30
0.0
 11
183.6877741816
 21
135.5446678328
 31
0.0
  0
LINE
  5
81
330
1F
100
AcDbEntity
  8
DEFAULT_1
  6
CENTER
 62
     5
100
AcDbLine
 10
220.1463591476
 20
144.2496678328
 30
0.0
 11
221.8925184337
 21
145.4596678328
 31
0.0
  0
LINE
  5
82
330
1F
100
AcDbEntity
  8
0
  6
Continuous
 62
     9
100
AcDbLine
 10
63.5963591476
 20
125.3945389634
 30
0.0
 11
99.3964222367
 21
125.3945389634
 31
0.0
  0
LINE
  5
83
330
1F
100
AcDbEntity
  8
0
  6
Continuous
 62
     7
100
AcDbLine
 10
99.6013822587
 20
128.3556110195
 30
0.0
 11
99.8493878984
 21
128.3566252754
 31
0.0
  0
LINE
  5
84
330
1F
100
AcDbEntity
  8
S_ACHSEN
  6
CENTER
 62
     7
100
AcDbLine
 10
60.5963591476
 20
120.1696678328
 30
0.0
 11
234.5963591476
 21
120.1696678328
 31
0.0
  0
LINE
  5
85
330
1F
100
AcDbEntity
  8
DEFAULT_2
  6
HIDDEN
 62
     8
100
AcDbLine
 10
183.6877741816
 20
104.7946678328
 30
0.0
 11
216.1012251132
 21
100.2392543832
 31
0.0
  0
LINE
  5
86
330
1F
100
AcDbEntity
  8
FASEN
  6
HIDDEN
 62
     8
100
AcDbLine
 10
216.1012251132
 20
100.2392543832
 30
0.0
 11
183.6877741816
 21
104.7946678328
 31
0.0
  0
LINE
  5
87
330
1F
100
AcDbEntity
  8
0
  6
Continuous
 62
     7
100
AcDbLine
 10
115.057684013
 20
110.8204465182
 30
0.0
 11
112.1350342822
 21
110.8204465182
 31
0.0
  0
LINE
  5
88
330
1F
100
AcDbEntity
  8
DEFAULT_2
  6
HIDDEN
 62
     8
100
AcDbLine
 10
183.6877741816
 20
104.7946678328
 30
0.0
 11
178.0963591476
 21
104.7946678328
 31
0.0
  0
LINE
  5
89
330
1F
100
AcDbEntity
  8
0
  6
Continuous
 62
     9
100
AcDbLine
 10
99.3964222367
 20
98.4872659535
 30
0.0
 11
65.0963591476
 21
99.2335520634
 31
0.0
  0
LINE
  5
8A
330
1F
100
AcDbEntity
  8
0
  6
Continuous
 62
     7
100
AcDbLine
 10
65.0963591476
 20
97.6113044361
 30
0.0
 11
99.6067619704
 21
96.7442829969
 31
0.0
  0
LINE
  5
8B
330
1F
100
AcDbEntity
  8
0
  6
Continuous
 62
     7
100
AcDbLine
 10
99.8493878984
 20
97.2929389574
 30
0.0
 11
99.6013822587
 21
97.2987824413
 31
0.0
  0
LINE
  5
8C
330
1F
100
AcDbEntity
  8
DEFAULT_1
  6
CENTER
 62
     5
100
AcDbLine
 10
216.2614959915
 20
96.0896678328
 30
0.0
 11
220.1463591476
 21
96.0896678328
 31
0.0
  0
LINE
  5
8D
330
1F
100
AcDbEntity
  8
0
  6
Continuous
 62
     2
100
AcDbLine
 10
199.0963591476
 20
96.0896678328
 30
0.0
 11
216.2614959915
 21
96.0896678328
 31
0.0
  0
LINE
  5
8E
330
1F
100
AcDbEntity
  8
0
  6
Continuous
 62
     7
100
AcDbLine
 10
124.5963591476
 20
95.1696678328
 30
0.0
 11
215.7303337438
 21
95.1696678328
 31
0.0
  0
LINE
  5
8F
330
1F
100
AcDbEntity
  8
RUNDUNGEN
  6
Continuous
 62
     7
100
AcDbLine
 10
215.7303337438
 20
95.1696678328
 30
0.0
 11
124.5963591476
 21
95.1696678328
 31
0.0
  0
LINE
  5
90
330
1F
100
AcDbEntity
  8
DEFAULT_1
  6
CENTER
 62
     5
100
AcDbLine
 10
221.8925184337
 20
94.8796678328
 30
0.0
 11
225.4025184337
 21
94.8796678328
 31
0.0
  0
LINE
  5
91
330
1F
100
AcDbEntity
  8
0
  6
Continuous
 62
     7
100
AcDbLine
 10
115.057684013
 20
90.0890750724
 30
0.0
 11
112.1350342822
 21
90.0890750724
 31
0.0
  0
LINE
  5
92
330
1F
100
AcDbEntity
  8
0
  6
Continuous
 62
     7
100
AcDbLine
 10
100.2892523664
 20
97.426774614
 30
0.0
 11
99.6067619702
 21
96.7442842177
 31
0.0
  0
LINE
  5
93
330
1F
100
AcDbEntity
  8
RUNDUNGEN
  6
Continuous
 62
     9
100
AcDbLine
 10
124.5963591476
 20
145.1696678328
 30
0.0
 11
124.5963591476
 21
95.1696678328
 31
0.0
  0
LINE
  5
94
330
1F
100
AcDbEntity
  8
0
  6
Continuous
 62
     7
100
AcDbLine
 10
123.5963591476
 20
88.6696678328
 30
0.0
 11
123.5963591476
 21
151.6696678328
 31
0.0
  0
LINE
  5
95
330
1F
100
AcDbEntity
  8
0
  6
Continuous
 62
     7
100
AcDbLine
 10
123.5963591476
 20
88.6696678328
 30
0.0
 11
101.89635922
 21
88.6696678328
 31
0.0
  0
LINE
  5
96
330
1F
100
AcDbEntity
  8
DEFAULT_1
  6
CENTER
 62
     5
100
AcDbLine
 10
229.5963591476
 20
88.6696678328
 30
0.0
 11
205.1263591476
 21
88.6696678328
 31
0.0
  0
LINE
  5
97
330
1F
100
AcDbEntity
  8
0
  6
Continuous
 62
     9
100
AcDbLine
 10
115.4906967149
 20
110.3002552138
 30
0.0
 11
115.4906967149
 21
90.2557129863
 31
0.0
  0
LINE
  5
98
330
1F
100
AcDbEntity
  8
0
  6
Continuous
 62
     9
100
AcDbLine
 10
115.4906967149
 20
150.0836226792
 30
0.0
 11
115.4906967149
 21
130.0390804517
 31
0.0
  0
LINE
  5
99
330
1F
100
AcDbEntity
  8
0
  6
Continuous
 62
     9
100
AcDbLine
 10
115.057684013
 20
110.8204465182
 30
0.0
 11
115.057684013
 21
90.0890750724
 31
0.0
  0
LINE
  5
9A
330
1F
100
AcDbEntity
  8
0
  6
Continuous
 62
     9
100
AcDbLine
 10
115.057684013
 20
150.2502605931
 30
0.0
 11
115.057684013
 21
129.5188891473
 31
0.0
  0
LINE
  5
9B
330
1F
100
AcDbEntity
  8
ACHSEN
  6
CENTER
 62
     7
100
AcDbLine
 10
113.5963591476
 20
143.5685637525
 30
0.0
 11
113.5963591476
 21
154.6696678328
 31
0.0
  0
LINE
  5
9C
330
1F
100
AcDbEntity
  8
0
  6
Continuous
 62
     9
100
AcDbLine
 10
112.1350342822
 20
110.8204465182
 30
0.0
 11
112.1350342822
 21
90.0890750724
 31
0.0
  0
LINE
  5
9D
330
1F
100
AcDbEntity
  8
0
  6
Continuous
 62
     9
100
AcDbLine
 10
112.1350342822
 20
150.2502605931
 30
0.0
 11
112.1350342822
 21
129.5188891473
 31
0.0
  0
LINE
  5
9E
330
1F
100
AcDbEntity
  8
0
  6
Continuous
 62
     9
100
AcDbLine
 10
111.7020215803
 20
110.3002552138
 30
0.0
 11
111.7020215803
 21
90.2557129863
 31
0.0
  0
LINE
  5
9F
330
1F
100
AcDbEntity
  8
0
  6
Continuous
 62
     9
100
AcDbLine
 10
111.7020215803
 20
150.0836226792
 30
0.0
 11
111.7020215803
 21
130.0390804517
 31
0.0
  0
LINE
  5
A0
330
1F
100
AcDbEntity
  8
0
  6
Continuous
 62
     7
100
AcDbLine
 10
101.5963609836
 20
88.9696697401
 30
0.0
 11
101.8963610735
 21
88.6696696862
 31
0.0
  0
LINE
  5
A1
330
1F
100
AcDbEntity
  8
0
  6
Continuous
 62
     9
100
AcDbLine
 10
65.0963591476
 20
99.2335520634
 30
0.0
 11
63.5963591476
 21
99.9835520634
 31
0.0
  0
LINE
  5
A2
330
1F
100
AcDbEntity
  8
0
  6
Continuous
 62
     7
100
AcDbLine
 10
101.3962942958
 20
98.7594997413
 30
0.0
 11
101.3962631813
 21
124.7948930469
 31
0.0
  0
LINE
  5
A3
330
1F
100
AcDbEntity
  8
0
  6
Continuous
 62
     7
100
AcDbLine
 10
101.3962942958
 20
136.9592424185
 30
0.0
 11
101.3963591476
 21
142.7031526938
 31
0.0
  0
LINE
  5
A4
330
1F
100
AcDbEntity
  8
0
  6
Continuous
 62
     7
100
AcDbLine
 10
101.8963592212
 20
88.6696678328
 30
0.0
 11
101.8963592212
 21
151.6696678328
 31
0.0
  0
LINE
  5
A5
330
1F
100
AcDbEntity
  8
0
  6
Continuous
 62
     7
100
AcDbLine
 10
101.5963591476
 20
88.9699435023
 30
0.0
 11
101.5963591476
 21
151.3693921632
 31
0.0
  0
LINE
  5
A6
330
1F
100
AcDbEntity
  8
0
  6
Continuous
 62
     9
100
AcDbLine
 10
101.2013822587
 20
125.3526182859
 30
0.0
 11
101.2013822587
 21
98.6422390927
 31
0.0
  0
LINE
  5
A7
330
1F
100
AcDbEntity
  8
0
  6
Continuous
 62
     9
100
AcDbLine
 10
101.2013822587
 20
140.6350519716
 30
0.0
 11
101.2013822587
 21
136.5141461197
 31
0.0
  0
LINE
  5
A8
330
1F
100
AcDbEntity
  8
0
  6
Continuous
 62
     9
100
AcDbLine
 10
100.2892523664
 20
126.5842075935
 30
0.0
 11
100.2892523664
 21
135.858684723
 31
0.0
  0
LINE
  5
A9
330
1F
100
AcDbEntity
  8
0
  6
Continuous
 62
     9
100
AcDbLine
 10
100.2892523664
 20
97.426774614
 30
0.0
 11
100.2892523664
 21
98.0661111818
 31
0.0
  0
LINE
  5
AA
330
1F
100
AcDbEntity
  8
0
  6
Continuous
 62
     9
100
AcDbLine
 10
99.6013822587
 20
128.3556110195
 30
0.0
 11
99.6013822587
 21
97.2987824413
 31
0.0
  0
LINE
  5
AB
330
1F
100
AcDbEntity
  8
0
  6
Continuous
 62
     9
100
AcDbLine
 10
99.6013822587
 20
140.5948544025
 30
0.0
 11
99.6013822587
 21
134.8546100375
 31
0.0
  0
LINE
  5
AC
330
1F
100
AcDbEntity
  8
0
  6
Continuous
 62
     7
100
AcDbLine
 10
99.3964222367
 20
125.3945389634
 30
0.0
 11
99.3964222367
 21
98.4872659535
 31
0.0
  0
LINE
  5
AD
330
1F
100
AcDbEntity
  8
0
  6
Continuous
 62
     7
100
AcDbLine
 10
99.3964222367
 20
140.7897682023
 30
0.0
 11
99.3964222367
 21
136.6271985814
 31
0.0
  0
LINE
  5
AE
330
1F
100
AcDbEntity
  8
0
  6
Continuous
 62
     7
100
AcDbLine
 10
65.0963591476
 20
97.6113044361
 30
0.0
 11
63.5963591476
 21
98.4773298399
 31
0.0
  0
LINE
  5
AF
330
1F
100
AcDbEntity
  8
0
  6
Continuous
 62
     9
100
AcDbLine
 10
65.0963591476
 20
135.8809124715
 30
0.0
 11
63.5963591476
 21
135.1309124715
 31
0.0
  0
LINE
  5
B0
330
1F
100
AcDbEntity
  8
0
  6
Continuous
 62
     7
100
AcDbLine
 10
101.5963609836
 20
151.3696659254
 30
0.0
 11
101.8963610735
 21
151.6696659793
 31
0.0
  0
LINE
  5
B1
330
1F
100
AcDbEntity
  8
ACHSEN
  6
CENTER
 62
     7
100
AcDbLine
 10
86.0963591476
 20
97.2361823257
 30
0.0
 11
86.0963591476
 21
144.3580383973
 31
0.0
  0
LINE
  5
B2
330
1F
100
AcDbEntity
  8
0
  6
Continuous
 62
     7
100
AcDbLine
 10
65.0963591476
 20
135.8809124715
 30
0.0
 11
65.0963591476
 21
97.6113044361
 31
0.0
  0
LINE
  5
B3
330
1F
100
AcDbEntity
  8
ACHSEN
  6
Continuous
 62
     7
100
AcDbLine
 10
65.0963591476
 20
139.6666574463
 30
0.0
 11
65.0963591476
 21
135.8809124715
 31
0.0
  0
LINE
  5
B4
330
1F
100
AcDbEntity
  8
ACHSEN
  6
Continuous
 62
     7
100
AcDbLine
 10
63.5963591476
 20
135.1309124715
 30
0.0
 11
63.5963591476
 21
138.9181471467
 31
0.0
  0
LINE
  5
B5
330
1F
100
AcDbEntity
  8
KURVEN
  6
Continuous
 62
     4
100
AcDbLine
 10
63.5963591476
 20
97.6489896571
 30
0.0
 11
63.5963591476
 21
139.3812418197
 31
0.0
  0
LINE
  5
B6
330
1F
100
AcDbEntity
  8
0
  6
Continuous
 62
     7
100
AcDbLine
 10
63.5963591476
 20
98.4773298399
 30
0.0
 11
63.5963591476
 21
135.1309124715
 31
0.0
  0
LINE
  5
B7
330
1F
100
AcDbEntity
  8
0
  6
Continuous
 62
     7
100
AcDbLine
 10
297.0
 20
0.0
 30
0.0
 11
297.0
 21
210.0
 31
0.0
  0
LINE
  5
B8
330
1F
100
AcDbEntity
  8
0
  6
Continuous
 62
     7
100
AcDbLine
 10
0.0
 20
210.0
 30
0.0
 11
297.0
 21
210.0
 31
0.0
  0
LINE
  5
B9
330
1F
100
AcDbEntity
  8
0
  6
Continuous
 62
     7
100
AcDbLine
 10
0.0
 20
0.0
 30
0.0
 11
297.0
 21
0.0
 31
0.0
  0
LINE
  5
BA
330
1F
100
AcDbEntity
  8
0
  6
Continuous
 62
     7
100
AcDbLine
 10
0.0
 20
0.0
 30
0.0
 11
0.0
 21
210.0
 31
0.0
  0
ARC
  5
BB
330
1F
100
AcDbEntity
  8
0
  6
Continuous
 62
     7
100
AcDbCircle
 10
99.5963591476
 20
140.7947913135
 30
0.0
 40
0.1999999999658986
100
AcDbArc
 50
181.4391666884943
 51
271.4391666591312
  0
ARC
  5
BC
330
1F
100
AcDbEntity
  8
0
  6
Continuous
 62
     7
100
AcDbCircle
 10
101.1963591476
 20
140.8349888826
 30
0.0
 40
0.2000000000633423
100
AcDbArc
 50
271.4391666591274
 51
0.0
  0
ARC
  5
BD
330
1F
100
AcDbEntity
  8
0
  6
Continuous
 62
     7
100
AcDbCircle
 10
100.9963591476
 20
143.6196678328
 30
0.0
 40
1.000000000008076
100
AcDbArc
 50
293.5781784779993
 51
306.9599393197844
  0
ARC
  5
BE
330
1F
100
AcDbEntity
  8
0
  6
Continuous
 62
     7
100
AcDbCircle
 10
100.9963591476
 20
96.7196678328
 30
0.0
 40
0.9999999999997935
100
AcDbArc
 50
53.04006068021214
 51
135.0
  0
ARC
  5
BF
330
1F
100
AcDbEntity
  8
RUNDUNGEN
  6
Continuous
 62
     7
100
AcDbCircle
 10
124.5963591476
 20
94.1696678328
 30
0.0
 40
1.0
100
AcDbArc
 50
90.0
 51
179.9999999998966
  0
ARC
  5
C0
330
1F
100
AcDbEntity
  8
RUNDUNGEN
  6
Continuous
 62
     7
100
AcDbCircle
 10
124.5963591476
 20
146.1696678328
 30
0.0
 40
1.0
100
AcDbArc
 50
180.0000000004006
 51
270.0
  0
ARC
  5
C1
330
1F
100
AcDbEntity
  8
DEFAULT_1
  6
CENTER
 62
     5
100
AcDbCircle
 10
205.1263591476
 20
90.6696678328
 30
0.0
 40
2.0
100
AcDbArc
 50
180.0
 51
270.0
  0
ARC
  5
C2
330
1F
100
AcDbEntity
  8
DEFAULT_1
  6
CENTER
 62
     5
100
AcDbCircle
 10
205.1263591476
 20
149.6696678328
 30
0.0
 40
2.0
100
AcDbArc
 50
90.0
 51
180.0
  0
ARC
  5
C3
330
1F
100
AcDbEntity
  8
FASEN
  6
Continuous
 62
     7
100
AcDbCircle
 10
113.6094301475
 20
182.4131845756
 30
0.0
 40
31.18509350522915
100
AcDbArc
 50
261.4570610701103
 51
269.9759848996985
  0
ARC
  5
C4
330
1F
100
AcDbEntity
  8
FASEN
  6
Continuous
 62
     7
100
AcDbCircle
 10
113.5568132098
 20
182.7670535654
 30
0.0
 40
31.53898454850012
100
AcDbArc
 50
270.0718417526994
 51
278.4996880979473
  0
ARC
  5
C5
330
1F
100
AcDbEntity
  8
FASEN
  6
Continuous
 62
     7
100
AcDbCircle
 10
113.307766447
 20
184.4864663672
 30
0.0
 40
33.27632350320008
100
AcDbArc
 50
278.4862153231994
 51
278.9386019050006
  0
ARC
  5
C6
330
1F
100
AcDbEntity
  8
FASEN
  6
Continuous
 62
     7
100
AcDbCircle
 10
113.8858359777
 20
184.4975344333
 30
0.0
 40
33.28739713849955
100
AcDbArc
 50
260.5363441583997
 51
261.5195290197992
  0
ARC
  5
C7
330
1F
100
AcDbEntity
  8
ACHSEN
  6
Continuous
 62
     7
100
AcDbCircle
 10
76.8579307673
 20
104.6012646475
 30
0.0
 40
35.84510254800021
100
AcDbArc
 50
98.01492884219998
 51
101.1172700804999
  0
ARC
  5
C8
330
1F
100
AcDbEntity
  8
0
  6
Continuous
 62
     7
100
AcDbCircle
 10
-7.1556520479
 20
100.8601790034
 30
0.0
 40
110.4813700652845
100
AcDbArc
 50
13.46409039976458
 51
14.41116213518668
  0
ARC
  5
C9
330
1F
100
AcDbEntity
  8
ACHSEN
  6
Continuous
 62
     7
100
AcDbCircle
 10
-0.1618578303
 20
268.5656073852
 30
0.0
 40
144.4768984249538
100
AcDbArc
 50
296.1871039389457
 51
296.8519184684691
  0
ARC
  5
CA
330
1F
100
AcDbEntity
  8
0
  6
Continuous
 62
     7
100
AcDbCircle
 10
245.8305319182
 20
71.1954699632
 30
0.0
 40
159.2595221537702
100
AcDbArc
 50
156.0446773747412
 51
156.4374589830854
  0
SPLINE
  5
CB
330
1F
100
AcDbEntity
  8
0
  6
Continuous
 62
     7
100
AcDbSpline
210
0.0
220
0.0
230
1.0
 70
     8
 71
     3
 72
    15
 73
    11
 74
     9
 42
0.0000000001
 43
0.0000000001
 44
0.00000001
 40
0.0
 40
0.0
 40
0.0
 40
0.0
 40
2.768071362152703
 40
5.543987162523119
 40
7.429045838022544
 40
9.310745242336331
 40
11.52272334018888
 40
13.7359989018087
 40
17.16735239688666
 40
20.59799187639071
 40
20.59799187639071
 40
20.59799187639071
 40
20.59799187639071
 10
111.7020215803
 20
150.0836226792
 30
0.0
 10
111.221031967015
 20
149.2861126716667
 30
0.0
 10
110.2576896638435
 20
147.6888325927637
 30
0.0
 10
109.8797476893056
 20
145.1969587294996
 30
0.0
 10
109.7379446512923
 20
143.0257749841892
 30
0.0
 10
109.7707855579062
 20
141.029731945694
 30
0.0
 10
109.9324699844496
 20
138.9329238123025
 30
0.0
 10
110.2807541503755
 20
136.3362979537342
 30
0.0
 10
110.840181084999
 20
133.3606944580982
 30
0.0
 10
111.4147613448905
 20
131.1462083112988
 30
0.0
 10
111.702021581243
 20
130.039080450608
 30
0.0
 11
111.7020215803
 21
150.0836226792
 31
0.0
 11
110.4288960717462
 21
147.6257027241487
 31
0.0
 11
109.8827012138588
 21
144.9040525431071
 31
0.0
 11
109.7634999135375
 21
143.0227664776515
 31
0.0
 11
109.7863938319225
 21
141.1412063492751
 31
0.0
 11
109.9531062377053
 21
138.935519590205
 31
0.0
 11
110.2417813382028
 21
136.7411505697309
 31
0.0
 11
110.8781295632443
 21
133.3693190578267
 31
0.0
 11
111.702021581243
 21
130.039080450608
 31
0.0
  0
SPLINE
  5
CC
330
1F
100
AcDbEntity
  8
0
  6
Continuous
 62
     7
100
AcDbSpline
210
0.0
220
0.0
230
1.0
 70
     8
 71
     3
 72
    15
 73
    11
 74
     9
 42
0.0000000001
 43
0.0000000001
 44
0.00000001
 40
0.0
 40
0.0
 40
0.0
 40
0.0
 40
4.908005104415871
 40
9.815816967555037
 40
11.81736697981862
 40
13.81798377233681
 40
15.47664584493369
 40
17.13807097055925
 40
18.87967154025814
 40
20.6086920608242
 40
20.6086920608242
 40
20.6086920608242
 40
20.6086920608242
 10
115.490696713957
 20
130.039080450608
 30
0.0
 10
115.8923564972522
 20
131.6256213474419
 30
0.0
 10
116.6956602494236
 20
134.7986406747549
 30
0.0
 10
117.2673861316961
 20
138.7063546530643
 30
0.0
 10
117.4480422865203
 20
141.6722773262988
 30
0.0
 10
117.4344346183001
 20
143.5605538343768
 30
0.0
 10
117.2889017614376
 20
145.3314253269563
 30
0.0
 10
116.9753900891353
 20
146.9887537770197
 30
0.0
 10
116.4713877417148
 20
148.643139767013
 30
0.0
 10
115.8168028269378
 20
149.6046234132683
 30
0.0
 10
115.4906967149
 20
150.0836226792
 30
0.0
 11
115.490696713957
 21
130.039080450608
 31
0.0
 11
116.6135695456285
 21
134.8169116226845
 31
0.0
 11
117.3100170812169
 21
139.6750571653934
 31
0.0
 11
117.4253587980501
 21
141.673281061745
 31
0.0
 11
117.4063244633381
 21
143.6738073036643
 31
0.0
 11
117.2603179742853
 21
145.3260306469886
 31
0.0
 11
116.9509369572411
 21
146.9583960577814
 31
0.0
 11
116.3911461475428
 21
148.6075797327408
 31
0.0
 11
115.4906967149
 21
150.0836226792
 31
0.0
  0
SPLINE
  5
CD
330
1F
100
AcDbEntity
  8
0
  6
Continuous
 62
     7
100
AcDbSpline
210
0.0
220
0.0
230
1.0
 70
     8
 71
     3
 72
    15
 73
    11
 74
     9
 42
0.0000000001
 43
0.0000000001
 44
0.00000001
 40
0.0
 40
0.0
 40
0.0
 40
0.0
 40
2.768071363099979
 40
5.54398716386013
 40
7.429045839534236
 40
9.310745244023778
 40
11.52272334203732
 40
13.73599890381797
 40
17.16735239739283
 40
20.59799187458812
 40
20.59799187458812
 40
20.59799187458812
 40
20.59799187458812
 10
115.490696715171
 20
90.2557129867069
 30
0.0
 10
115.9716863285134
 20
91.05322299457632
 30
0.0
 10
116.9350286317023
 20
92.65050307399106
 30
0.0
 10
117.3129706061107
 20
95.14237693777872
 30
0.0
 10
117.4547736439458
 20
97.31356068334979
 30
0.0
 10
117.4219327371933
 20
99.30960372201213
 30
0.0
 10
117.2602483105097
 20
101.4064118555587
 30
0.0
 10
116.911964144507
 20
104.0030377137209
 30
0.0
 10
116.3525372099884
 20
106.9786412081248
 30
0.0
 10
115.7779569508448
 20
109.1931273538008
 30
0.0
 10
115.4906967149
 20
110.3002552138
 30
0.0
 11
115.490696715171
 21
90.2557129867069
 31
0.0
 11
116.7638222238367
 21
92.71363294276708
 31
0.0
 11
117.3100170815329
 21
95.4352831242445
 31
0.0
 11
117.4292183817048
 21
97.31656918988459
 31
0.0
 11
117.4063244631847
 21
99.19812931843512
 31
0.0
 11
117.2396120572567
 21
101.4038160776558
 31
0.0
 11
116.950936956623
 21
103.5981850982741
 31
0.0
 11
116.3145887318355
 21
106.9700166086967
 31
0.0
 11
115.4906967149
 21
110.3002552138
 31
0.0
  0
SPLINE
  5
CE
330
1F
100
AcDbEntity
  8
0
  6
Continuous
 62
     7
100
AcDbSpline
210
0.0
220
0.0
230
1.0
 70
     8
 71
     3
 72
    15
 73
    11
 74
     9
 42
0.0000000001
 43
0.0000000001
 44
0.00000001
 40
0.0
 40
0.0
 40
0.0
 40
0.0
 40
4.908005104137606
 40
9.815816966998753
 40
11.81736697909015
 40
13.81798377143647
 40
15.476645843858
 40
17.1380709693075
 40
18.87967153826344
 40
20.60869205864678
 40
20.60869205864678
 40
20.60869205864678
 40
20.60869205864678
 10
111.702021580508
 20
110.300255212306
 30
0.0
 10
111.3003617972977
 20
108.7137143155463
 30
0.0
 10
110.497058045296
 20
105.5406949883816
 30
0.0
 10
109.9253321632487
 20
101.6329810102825
 30
0.0
 10
109.7446760086233
 20
98.66705833724343
 30
0.0
 10
109.7582836769808
 20
96.77878182933857
 30
0.0
 10
109.9038165339866
 20
95.00791033694665
 30
0.0
 10
110.2173282063927
 20
93.3505818872689
 30
0.0
 10
110.7213305539565
 20
91.6961958977179
 30
0.0
 10
111.3759154686376
 20
90.73471225177482
 30
0.0
 10
111.70202158068
 20
90.2557129859215
 30
0.0
 11
111.702021580508
 21
110.300255212306
 31
0.0
 11
110.5791487490948
 21
105.5224240404546
 31
0.0
 11
109.8827012137919
 21
100.6642784979856
 31
0.0
 11
109.7673594970952
 21
98.66605460179869
 31
0.0
 11
109.7863938319548
 21
96.66552836005265
 31
0.0
 11
109.9324003211393
 21
95.013305016916
 31
0.0
 11
110.2417813383332
 21
93.3809396063308
 31
0.0
 11
110.8015721480048
 21
91.73175593214683
 31
0.0
 11
111.70202158068
 21
90.2557129859215
 31
0.0
  0
SPLINE
  5
CF
330
1F
100
AcDbEntity
  8
0
  6
Continuous
 62
     7
100
AcDbSpline
210
0.0
220
0.0
230
1.0
 70
     8
 71
     3
 72
    17
 73
    13
 74
    11
 42
0.0000000001
 43
0.0000000001
 44
0.00000001
 40
0.0
 40
0.0
 40
0.0
 40
0.0
 40
0.0414201705595033
 40
0.08293905067146
 40
0.1073813970115055
 40
0.1316132837054718
 40
0.1594736538062579
 40
0.1874025611680898
 40
0.2119726711758187
 40
0.2366663819329194
 40
0.2629447609573464
 40
0.289151221420449
 40
0.289151221420449
 40
0.289151221420449
 40
0.289151221420449
 10
101.2013822587
 20
98.6422390927
 30
0.0
 10
101.2142934153573
 20
98.63728504291213
 30
0.0
 10
101.240146497606
 20
98.62736513720345
 30
0.0
 10
101.2757362363668
 20
98.62133761022352
 30
0.0
 10
101.3058983972489
 20
98.62132445777343
 30
0.0
 10
101.3311505880185
 20
98.62669008821209
 30
0.0
 10
101.3546377474074
 20
98.64027514432165
 30
0.0
 10
101.3732684483883
 20
98.66009925757629
 30
0.0
 10
101.3847812222053
 20
98.68340889699304
 30
0.0
 10
101.3913509576536
 20
98.70779481146417
 30
0.0
 10
101.3952693820169
 20
98.73328101526683
 30
0.0
 10
101.3959387270008
 20
98.75077413360518
 30
0.0
 10
101.3962729409
 20
98.7595087076
 30
0.0
 11
101.2013822587
 21
98.6422390927
 31
0.0
 11
101.2405236699893
 21
98.62868990632366
 31
0.0
 11
101.2814739610729
 21
98.62184220116669
 31
0.0
 11
101.3059138793468
 21
98.62218671440675
 31
0.0
 11
101.3295427169002
 21
98.62755908526366
 31
0.0
 11
101.3537596173942
 21
98.64133377047305
 31
0.0
 11
101.3728184280032
 21
98.66174909816075
 31
0.0
 11
101.3840008750992
 21
98.68362701357188
 31
0.0
 11
101.3907801194636
 21
98.70737193296117
 31
0.0
 11
101.3947728259855
 21
98.73334521728913
 31
0.0
 11
101.3962729409
 21
98.7595087076
 31
0.0
  0
SPLINE
  5
D0
330
1F
100
AcDbEntity
  8
0
  6
Continuous
 62
     7
100
AcDbSpline
210
0.0
220
0.0
230
1.0
 70
     8
 71
     3
 72
    19
 73
    15
 74
    13
 42
0.0000000001
 43
0.0000000001
 44
0.00000001
 40
0.0
 40
0.0
 40
0.0
 40
0.0
 40
0.1045384650898954
 40
0.2092514255498751
 40
0.3087263831412824
 40
0.4083161306036263
 40
0.4883199215860652
 40
0.568251331747109
 40
0.6382737892420507
 40
0.7082962788630779
 40
0.8338795435849325
 40
0.9595807699519352
 40
1.074624552517134
 40
1.189598319396892
 40
1.189598319396892
 40
1.189598319396892
 40
1.189598319396892
 10
101.2013822587
 20
98.6422390927
 30
0.0
 10
101.1684411346706
 20
98.65394551552558
 30
0.0
 10
101.102503901362
 20
98.67737790151133
 30
0.0
 10
100.9986534272323
 20
98.68572143947313
 30
0.0
 10
100.8977599332605
 20
98.67146985030445
 30
0.0
 10
100.8094668879806
 20
98.64044006995294
 30
0.0
 10
100.7329987256967
 20
98.5995452605918
 30
0.0
 10
100.6699206886019
 20
98.55573954160133
 30
0.0
 10
100.6135452961111
 20
98.50874689656733
 30
0.0
 10
100.5497187105225
 20
98.44729340648027
 30
0.0
 10
100.4790194788832
 20
98.36657349424098
 30
0.0
 10
100.4071579546366
 20
98.26771576137486
 30
0.0
 10
100.3436929178429
 20
98.1674388021947
 30
0.0
 10
100.3073955339936
 20
98.09988020048095
 30
0.0
 10
100.2892523664
 20
98.0661111818
 30
0.0
 11
101.2013822587
 21
98.6422390927
 31
0.0
 11
101.1014478663255
 21
98.67292146392673
 31
0.0
 11
100.997119894829
 21
98.6818924422297
 31
0.0
 11
100.8985807008544
 21
98.66828015224394
 31
0.0
 11
100.8044706869385
 21
98.63570066359924
 31
0.0
 11
100.7337915593479
 21
98.59821643365377
 31
0.0
 11
100.6679705558699
 21
98.55286639692304
 31
0.0
 11
100.6141052706163
 21
98.50812630753798
 31
0.0
 11
100.5635767262109
 21
98.45964935164149
 31
0.0
 11
100.4805435288092
 21
98.36543340549937
 31
0.0
 11
100.4062325298819
 21
98.26404961118988
 31
0.0
 11
100.3448663616074
 21
98.16673946116315
 31
0.0
 11
100.2892523664
 21
98.0661111818
 31
0.0
  0
SPLINE
  5
D1
330
1F
100
AcDbEntity
  8
0
  6
Continuous
 62
     7
100
AcDbSpline
210
0.0
220
0.0
230
1.0
 70
     8
 71
     3
 72
    17
 73
    13
 74
    11
 42
0.0000000001
 43
0.0000000001
 44
0.00000001
 40
0.0
 40
0.0
 40
0.0
 40
0.0
 40
0.0464149716822062
 40
0.0930041340799145
 40
0.1389991042790265
 40
0.1849760065996718
 40
0.2751398214719813
 40
0.3657285222972547
 40
0.4550419001321768
 40
0.5441929285041693
 40
0.6327944775116197
 40
0.7213871622473166
 40
0.7213871622473166
 40
0.7213871622473166
 40
0.7213871622473166
 10
115.057684013
 20
110.8204465182
 30
0.0
 10
115.0731734474923
 20
110.8195465516287
 30
0.0
 10
115.104210446765
 20
110.8177432410021
 30
0.0
 10
115.1489828060033
 20
110.8044337195888
 30
0.0
 10
115.1908458183553
 20
110.7846221144647
 30
0.0
 10
115.2416016583655
 20
110.7509926233943
 30
0.0
 10
115.2970334041125
 20
110.698828883723
 30
0.0
 10
115.3514699807528
 20
110.6267955196412
 30
0.0
 10
115.3969748359836
 20
110.5493202053648
 30
0.0
 10
115.4344058584929
 20
110.4684446303501
 30
0.0
 10
115.465943210507
 20
110.3853516784945
 30
0.0
 10
115.4824458219541
 20
110.3286197560128
 30
0.0
 10
115.4906967149
 20
110.3002552138
 30
0.0
 11
115.057684013
 21
110.8204465182
 31
0.0
 11
115.1038833599489
 21
110.8159777445702
 31
0.0
 11
115.1487058207753
 21
110.8032695952797
 31
0.0
 11
115.1903117331737
 21
110.7836612976199
 31
0.0
 11
115.2287572539948
 21
110.7584458762316
 31
0.0
 11
115.294999322002
 21
110.6972780583986
 31
0.0
 11
115.3502473657014
 21
110.6254869281344
 31
0.0
 11
115.3957072713818
 21
110.5486086058594
 31
0.0
 11
115.4335104156681
 21
110.4678693456333
 31
0.0
 11
115.4648245068461
 21
110.3849859203891
 31
0.0
 11
115.4906967149
 21
110.3002552138
 31
0.0
  0
SPLINE
  5
D2
330
1F
100
AcDbEntity
  8
0
  6
Continuous
 62
     7
100
AcDbSpline
210
0.0
220
0.0
230
1.0
 70
     8
 71
     3
 72
    11
 73
     7
 74
     5
 42
0.0000000001
 43
0.0000000001
 44
0.00000001
 40
0.0
 40
0.0
 40
0.0
 40
0.0
 40
0.0396097710940916
 40
0.0793139643316707
 40
0.2768296850653894
 40
0.4765470268000176
 40
0.4765470268000176
 40
0.4765470268000176
 40
0.4765470268000176
 10
111.7020215803
 20
150.0836226792
 30
0.0
 10
111.7108238574018
 20
150.0934869095603
 30
0.0
 10
111.7284493945562
 20
150.1132388847258
 30
0.0
 10
111.7991218001664
 20
150.1728313039773
 30
0.0
 10
111.9355034743167
 20
150.2370647816407
 30
0.0
 10
112.0682787154661
 20
150.245845766729
 30
0.0
 10
112.1350342822
 20
150.2502605931
 30
0.0
 11
111.7020215803
 21
150.0836226792
 31
0.0
 11
111.7290825223761
 21
150.1125473983876
 31
0.0
 11
111.7592114971932
 21
150.1384060108236
 31
0.0
 11
111.9369886179198
 21
150.2244743283575
 31
0.0
 11
112.1350342822
 21
150.2502605931
 31
0.0
  0
SPLINE
  5
D3
330
1F
100
AcDbEntity
  8
0
  6
Continuous
 62
     7
100
AcDbSpline
210
0.0
220
0.0
230
1.0
 70
     8
 71
     3
 72
    17
 73
    13
 74
    11
 42
0.0000000001
 43
0.0000000001
 44
0.00000001
 40
0.0
 40
0.0
 40
0.0
 40
0.0
 40
0.0885925199362279
 40
0.1771938735405204
 40
0.2663445205658719
 40
0.355657627673006
 40
0.4462461944986457
 40
0.5364096409526088
 40
0.5823867488525293
 40
0.6283820434688596
 40
0.6749717295060443
 40
0.7213871307716219
 40
0.7213871307716219
 40
0.7213871307716219
 40
0.7213871307716219
 10
115.4906967149
 20
130.0390804517
 30
0.0
 10
115.4824458490778
 20
130.0107159590673
 30
0.0
 10
115.4659432947295
 20
129.9539841455439
 30
0.0
 10
115.4344060652167
 20
129.8708914082203
 30
0.0
 10
115.3969749920279
 20
129.7900161647619
 30
0.0
 10
115.3514703341819
 20
129.7125410656058
 30
0.0
 10
115.2970346161651
 20
129.6405074091841
 30
0.0
 10
115.241603166297
 20
129.5883433904588
 30
0.0
 10
115.1908469331825
 20
129.5547143546965
 30
0.0
 10
115.148983502665
 20
129.5349029014409
 30
0.0
 10
115.1042109073566
 20
129.5215927132189
 30
0.0
 10
115.0731735905605
 20
129.5197892093946
 30
0.0
 10
115.057684013
 20
129.5188891473
 30
0.0
 11
115.4906967149
 21
130.0390804517
 31
0.0
 11
115.4648245899891
 21
129.9543498920344
 31
0.0
 11
115.4335105676472
 21
129.8714666496673
 31
0.0
 11
115.3957074882815
 21
129.7907277801216
 31
0.0
 11
115.350247852199
 21
129.7138496129454
 31
0.0
 11
115.2950004148285
 21
129.6420581851597
 31
0.0
 11
115.2287587870899
 21
129.5808904335989
 31
0.0
 11
115.1903129068022
 21
129.5556751854394
 31
0.0
 11
115.148706621105
 21
129.5360669188834
 31
0.0
 11
115.1038837578359
 21
129.523358269333
 31
0.0
 11
115.057684013
 21
129.5188891473
 31
0.0
  0
SPLINE
  5
D4
330
1F
100
AcDbEntity
  8
0
  6
Continuous
 62
     7
100
AcDbSpline
210
0.0
220
0.0
230
1.0
 70
     8
 71
     3
 72
    11
 73
     7
 74
     5
 42
0.0000000001
 43
0.0000000001
 44
0.00000001
 40
0.0
 40
0.0
 40
0.0
 40
0.0
 40
0.0858880417989333
 40
0.1724696234365732
 40
0.3262585112389819
 40
0.4767798626194515
 40
0.4767798626194515
 40
0.4767798626194515
 40
0.4767798626194515
 10
115.057684013
 20
150.2502605931
 30
0.0
 10
115.0863572918833
 20
150.2494328939012
 30
0.0
 10
115.1439353843408
 20
150.2477708118913
 30
0.0
 10
115.250901706957
 20
150.2283347684466
 30
0.0
 10
115.3778185340371
 20
150.1872521307378
 30
0.0
 10
115.4533409624031
 20
150.1179176697238
 30
0.0
 10
115.4906967149
 20
150.0836226792
 30
0.0
 11
115.057684013
 21
150.2502605931
 31
0.0
 11
115.1434477664639
 21
150.2456416845883
 31
0.0
 11
115.2287683500648
 21
150.2309186314785
 31
0.0
 11
115.3729331271186
 21
150.1773692237457
 31
0.0
 11
115.4906967149
 21
150.0836226792
 31
0.0
  0
SPLINE
  5
D5
330
1F
100
AcDbEntity
  8
0
  6
Continuous
 62
     7
100
AcDbSpline
210
0.0
220
0.0
230
1.0
 70
     8
 71
     3
 72
    11
 73
     7
 74
     5
 42
0.0000000001
 43
0.0000000001
 44
0.00000001
 40
0.0
 40
0.0
 40
0.0
 40
0.0
 40
0.0858653726977538
 40
0.1724244651330662
 40
0.3262359599567654
 40
0.4767776583638271
 40
0.4767776583638271
 40
0.4767776583638271
 40
0.4767776583638271
 10
112.1350342822
 20
90.0890750724
 30
0.0
 10
112.106368577631
 20
90.0899028060475
 30
0.0
 10
112.048805573795
 20
90.09156496073176
 30
0.0
 10
111.9418467355914
 20
90.11099872815436
 30
0.0
 10
111.8149193516345
 20
90.15207262937855
 30
0.0
 10
111.7393836666973
 20
90.22141452386113
 30
0.0
 10
111.7020215803
 20
90.2557129863
 30
0.0
 11
112.1350342822
 21
90.0890750724
 31
0.0
 11
112.0492931922885
 21
90.09369326786123
 31
0.0
 11
111.9639944868365
 21
90.1084108536494
 31
0.0
 11
111.8198050157434
 21
90.1619587048274
 31
0.0
 11
111.7020215803
 21
90.2557129863
 31
0.0
  0
SPLINE
  5
D6
330
1F
100
AcDbEntity
  8
0
  6
Continuous
 62
     7
100
AcDbSpline
210
0.0
220
0.0
230
1.0
 70
     8
 71
     3
 72
    17
 73
    13
 74
    11
 42
0.0000000001
 43
0.0000000001
 44
0.00000001
 40
0.0
 40
0.0
 40
0.0
 40
0.0
 40
0.0885985679314827
 40
0.177206658962126
 40
0.266365170692358
 40
0.3556835831544928
 40
0.4462764248200379
 40
0.5364496693966071
 40
0.5824215303146104
 40
0.6284087158218715
 40
0.6749841996212282
 40
0.7213876902816914
 40
0.7213876902816914
 40
0.7213876902816914
 40
0.7213876902816914
 10
111.7020215803
 20
110.3002552138
 30
0.0
 10
111.710273250396
 20
110.3286215780767
 30
0.0
 10
111.7267774775265
 20
110.385357355615
 30
0.0
 10
111.7583180545141
 20
110.4684561260226
 30
0.0
 10
111.7957488511136
 20
110.5493387520761
 30
0.0
 10
111.8412588009116
 20
110.6268181015844
 30
0.0
 10
111.8957151571791
 20
110.6988450178104
 30
0.0
 10
111.9511540999877
 20
110.7510028174628
 30
0.0
 10
112.001901208586
 20
110.7846425179444
 30
0.0
 10
112.0437541250753
 20
110.8044568892661
 30
0.0
 10
112.0885200585629
 20
110.8177501489232
 30
0.0
 10
112.1195486733018
 20
110.8195488375165
 30
0.0
 10
112.1350342822
 20
110.8204465182
 30
0.0
 11
111.7020215803
 21
110.3002552138
 31
0.0
 11
111.7278962196712
 21
110.3849913293407
 31
0.0
 11
111.7592128271561
 21
110.4678807972587
 31
0.0
 11
111.7970177468479
 21
110.5486274892098
 31
0.0
 11
111.8424839016141
 21
110.6255079651157
 31
0.0
 11
111.8977465589859
 21
110.6972930726329
 31
0.0
 11
111.9639995007201
 21
110.7584630141812
 31
0.0
 11
112.0024366517809
 21
110.783682003348
 31
0.0
 11
112.0440338837392
 21
110.8032904587765
 31
0.0
 11
112.0888456570705
 21
110.8159861534027
 31
0.0
 11
112.1350342822
 21
110.8204465182
 31
0.0
  0
SPLINE
  5
D7
330
1F
100
AcDbEntity
  8
0
  6
Continuous
 62
     7
100
AcDbSpline
210
0.0
220
0.0
230
1.0
 70
     8
 71
     3
 72
    13
 73
     9
 74
     7
 42
0.0000000001
 43
0.0000000001
 44
0.00000001
 40
0.0
 40
0.0
 40
0.0
 40
0.0
 40
0.7059708842476559
 40
1.412231769406777
 40
2.201489765359497
 40
2.990772518884633
 40
4.758700583979419
 40
6.526717397122924
 40
6.526717397122924
 40
6.526717397122924
 40
6.526717397122924
 10
99.8493878984
 20
134.8594392654
 30
0.0
 10
99.81056786462584
 20
134.6272789489442
 30
0.0
 10
99.73291185046364
 20
134.1628629484971
 30
0.0
 10
99.66062781713781
 20
133.4321576739937
 30
0.0
 10
99.61574707277593
 20
132.6717009547379
 30
0.0
 10
99.59714450047007
 20
131.5561892142838
 30
0.0
 10
99.64724638382756
 20
130.1135215910393
 30
0.0
 10
99.78200626610445
 20
128.9422671796482
 30
0.0
 10
99.8493878984
 20
128.3566252754
 30
0.0
 11
99.8493878984
 21
134.8594392654
 31
0.0
 11
99.74074623307004
 21
134.1618778860507
 31
0.0
 11
99.66775257792024
 21
133.459399157395
 31
0.0
 11
99.62130554618324
 21
132.6715090270989
 31
0.0
 11
99.60676077936142
 21
131.8823602991836
 31
0.0
 11
99.67069437038319
 21
130.1155886276626
 31
0.0
 11
99.8493878984
 21
128.3566252754
 31
0.0
  0
SPLINE
  5
D8
330
1F
100
AcDbEntity
  8
0
  6
Continuous
 62
     7
100
AcDbSpline
210
0.0
220
0.0
230
1.0
 70
     8
 71
     3
 72
    27
 73
    23
 74
    21
 42
0.0000000001
 43
0.0000000001
 44
0.00000001
 40
0.0
 40
0.0
 40
0.0
 40
0.0
 40
0.1984187743868337
 40
0.3968374365231773
 40
0.5029769397809073
 40
0.609116061970949
 40
0.7197506973272109
 40
0.8303871006993544
 40
0.9454468408805317
 40
1.060500806706213
 40
1.179956515043928
 40
1.299443223322583
 40
1.36092842189914
 40
1.422345300126898
 40
1.484949305614498
 40
1.547805801681593
 40
1.612731563726414
 40
1.676696646132937
 40
1.709481594169377
 40
1.743841351767149
 40
1.784580073338522
 40
1.821170232112256
 40
1.821170232112256
 40
1.821170232112256
 40
1.821170232112256
 10
99.3964222367
 20
136.6271985814
 30
0.0
 10
99.3964205783466
 20
136.5610589921926
 30
0.0
 10
99.39641726164072
 20
136.4287798511947
 30
0.0
 10
99.39688147404254
 20
136.2611209403166
 30
0.0
 10
99.39786258951736
 20
136.124225027027
 30
0.0
 10
99.39914423525681
 20
136.0165943779167
 30
0.0
 10
99.4011594507691
 20
135.9074751523824
 30
0.0
 10
99.40423377016116
 20
135.7954052448892
 30
0.0
 10
99.40864806197636
 20
135.6819043295438
 30
0.0
 10
99.41491497814495
 20
135.5655447670699
 30
0.0
 10
99.42344622853358
 20
135.4478457050357
 30
0.0
 10
99.43332066064076
 20
135.3481741555409
 30
0.0
 10
99.44334259121867
 20
135.2679970968755
 30
0.0
 10
99.45227569310265
 20
135.2068062370233
 30
0.0
 10
99.462766308298
 20
135.1453922517211
 30
0.0
 10
99.4756916178465
 20
135.0832505488462
 30
0.0
 10
99.49158524464951
 20
135.0212824137518
 30
0.0
 10
99.50835521629483
 20
134.9700977506176
 30
0.0
 10
99.52470178699988
 20
134.9293513163104
 30
0.0
 10
99.54224218249634
 20
134.8983818049606
 30
0.0
 10
99.56391030078453
 20
134.8657253118823
 30
0.0
 10
99.58934647521468
 20
134.8581802015183
 30
0.0
 10
99.6013822587
 20
134.8546100375
 30
0.0
 11
99.3964222367
 21
136.6271985814
 31
0.0
 11
99.3965096541416
 21
136.4287798262699
 31
0.0
 11
99.39715614613166
 21
136.2303622173435
 31
0.0
 11
99.3979464464934
 21
136.1242256563613
 31
0.0
 11
99.39923999719944
 21
136.0180944169176
 31
0.0
 11
99.4013246018686
 21
135.9074794226185
 31
0.0
 11
99.40440017903582
 21
135.7968857764348
 31
0.0
 11
99.40893423421383
 21
135.6819154056682
 31
0.0
 11
99.41518447448203
 21
135.5670313356289
 31
0.0
 11
99.42396911333243
 21
135.4478990714234
 31
0.0
 11
99.43589593493624
 21
135.3290091038832
 31
0.0
 11
99.44355485239596
 21
135.2680027875926
 31
0.0
 11
99.45246126631513
 21
135.2072351257786
 31
0.0
 11
99.46311930427433
 21
135.1455450315175
 31
0.0
 11
99.47601487738925
 21
135.0840255769371
 31
0.0
 11
99.49234636246743
 21
135.021187394498
 31
0.0
 11
99.51247548275985
 21
134.9604720728442
 31
0.0
 11
99.52511227470151
 21
134.9302203901278
 31
0.0
 11
99.54169896023434
 21
134.9001292817199
 31
0.0
 11
99.56761103491134
 21
134.8686935087661
 31
0.0
 11
99.6013822587
 21
134.8546100375
 31
0.0
  0
SPLINE
  5
D9
330
1F
100
AcDbEntity
  8
0
  6
Continuous
 62
     7
100
AcDbSpline
210
0.0
220
0.0
230
1.0
 70
     8
 71
     3
 72
    35
 73
    31
 74
    29
 42
0.0000000001
 43
0.0000000001
 44
0.00000001
 40
0.0
 40
0.0
 40
0.0
 40
0.0
 40
0.022467116994574
 40
0.0469716776546754
 40
0.0706451029504215
 40
0.0934198434881102
 40
0.1394101663268545
 40
0.1859681376503931
 40
0.2323174995680761
 40
0.2785095837349619
 40
0.3247931273197651
 40
0.3711204777325223
 40
0.4638921739771855
 40
0.5566437642178992
 40
0.6496253658407563
 40
0.742610921435848
 40
0.8358149912793109
 40
0.9290178383661681
 40
1.022429258423441
 40
1.115841003215165
 40
1.303223325640561
 40
1.490608110751303
 40
1.678620804217917
 40
1.866632541286969
 40
2.055121153336472
 40
2.243609949481528
 40
2.432418417662682
 40
2.621226802691436
 40
2.810196206299344
 40
2.999165615160593
 40
2.999165615160593
 40
2.999165615160593
 40
2.999165615160593
 10
99.6013822587
 20
128.3556110195
 30
0.0
 10
99.59398756058576
 20
128.353551211039
 30
0.0
 10
99.57852757182712
 20
128.3492447991803
 30
0.0
 10
99.56348421316473
 20
128.3297913879837
 30
0.0
 10
99.5509704369081
 20
128.3099527507839
 30
0.0
 10
99.53837026540576
 20
128.2816858106757
 30
0.0
 10
99.52513995438053
 20
128.2456092980098
 30
0.0
 10
99.51215756146294
 20
128.2011251700424
 30
0.0
 10
99.50116300081879
 20
128.1560745877417
 30
0.0
 10
99.49175136671457
 20
128.1107590711887
 30
0.0
 10
99.48338359290834
 20
128.0652516045523
 30
0.0
 10
99.47338859769285
 20
128.0042679293804
 30
0.0
 10
99.46271759938567
 20
127.9277128840202
 30
0.0
 10
99.45218247648185
 20
127.8354714616483
 30
0.0
 10
99.44326271596762
 20
127.742990474188
 30
0.0
 10
99.43570318973909
 20
127.6502381573384
 30
0.0
 10
99.42926054389223
 20
127.5573285393638
 30
0.0
 10
99.42377186878323
 20
127.4642160090424
 30
0.0
 10
99.41908179260233
 20
127.370990904706
 30
0.0
 10
99.41374593965163
 20
127.246369024178
 30
0.0
 10
99.40855421379797
 20
127.0903920167087
 30
0.0
 10
99.40417268146132
 20
126.9028478971877
 30
0.0
 10
99.40112691204496
 20
126.7150682948025
 30
0.0
 10
99.39911580428087
 20
126.5269073514609
 30
0.0
 10
99.39784008127572
 20
126.3385816193186
 30
0.0
 10
99.3970998701012
 20
126.1499876179032
 30
0.0
 10
99.39669504349898
 20
125.9612861093246
 30
0.0
 10
99.39651107537655
 20
125.7724240915734
 30
0.0
 10
99.3964300392588
 20
125.5835083717806
 30
0.0
 10
99.39642483755298
 20
125.4575287667772
 30
0.0
 10
99.3964222367
 20
125.3945389634
 30
0.0
 11
99.6013822587
 21
128.3556110195
 31
0.0
 11
99.58044679288084
 21
128.3474576387912
 31
0.0
 11
99.56376308561555
 21
128.329509730695
 31
0.0
 11
99.55129528000097
 21
128.3093854943519
 31
0.0
 11
99.54169756373932
 21
128.2887318591
 31
0.0
 11
99.52569087800049
 21
128.245616945132
 31
0.0
 11
99.5124746470585
 21
128.200974186106
 31
0.0
 11
99.50141163643869
 21
128.1559644855271
 31
0.0
 11
99.49193083989496
 21
128.1107558233419
 31
0.0
 11
99.48353357162837
 21
128.0652404161436
 31
0.0
 11
99.47601440920327
 21
128.0195273371323
 31
0.0
 11
99.46309698121155
 21
127.9276593466341
 31
0.0
 11
99.45246096763418
 21
127.8355196010985
 31
0.0
 11
99.44349177095526
 21
127.7429716040846
 31
0.0
 11
99.43589574078727
 21
127.6502968293343
 31
0.0
 11
99.42942103024532
 21
127.5573179244215
 31
0.0
 11
99.42390938998224
 21
127.4642781881433
 31
0.0
 11
99.41919807469557
 21
127.3709856541152
 31
0.0
 11
99.41518438775906
 21
127.2776601785889
 31
0.0
 11
99.4088637642496
 21
127.0903844874916
 31
0.0
 11
99.4044001433474
 21
126.9030528730229
 31
0.0
 11
99.40130019954047
 21
126.715065737152
 31
0.0
 11
99.39923998723914
 21
126.5270652882137
 31
0.0
 11
99.39792958279513
 21
126.338581231295
 31
0.0
 11
99.39715614491388
 21
126.1500940220046
 31
0.0
 11
99.39673190000883
 21
125.9612860304545
 31
0.0
 11
99.39652827463746
 21
125.7724777552284
 31
0.0
 11
99.39644224868965
 21
125.5835083712016
 31
0.0
 11
99.3964222367
 21
125.3945389634
 31
0.0
  0
SPLINE
  5
DA
330
1F
100
AcDbEntity
  8
0
  6
Continuous
 62
     7
100
AcDbSpline
210
0.0
220
0.0
230
1.0
 70
     8
 71
     3
 72
    11
 73
     7
 74
     5
 42
0.0000000001
 43
0.0000000001
 44
0.00000001
 40
0.0
 40
0.0
 40
0.0
 40
0.0
 40
0.0396067480901004
 40
0.0793078946183588
 40
0.2768264670451569
 40
0.4765469383007238
 40
0.4765469383007238
 40
0.4765469383007238
 40
0.4765469383007238
 10
115.4906967149
 20
90.2557129863
 30
0.0
 10
115.481895140107
 20
90.24584948475616
 30
0.0
 10
115.464271012911
 20
90.22609897306992
 30
0.0
 10
115.3936002384661
 20
90.16650633014775
 30
0.0
 10
115.2572178591577
 20
90.10227127130196
 30
0.0
 10
115.1244406234381
 20
90.09349003019452
 30
0.0
 10
115.057684013
 20
90.0890750724
 30
0.0
 11
115.4906967149
 21
90.2557129863
 31
0.0
 11
115.4636379721427
 21
90.22679034923722
 31
0.0
 11
115.4335116271165
 21
90.20093335074509
 31
0.0
 11
115.2557327249628
 21
90.1148621685611
 31
0.0
 11
115.057684013
 21
90.0890750724
 31
0.0
  0
SPLINE
  5
DB
330
1F
100
AcDbEntity
  8
0
  6
Continuous
 62
     7
100
AcDbSpline
210
0.0
220
0.0
230
1.0
 70
     8
 71
     3
 72
    23
 73
    19
 74
    17
 42
0.0000000001
 43
0.0000000001
 44
0.00000001
 40
0.0
 40
0.0
 40
0.0
 40
0.0
 40
0.0673001185536916
 40
0.134602978823668
 40
0.1680432784351181
 40
0.2014739084637028
 40
0.2346953928044544
 40
0.2679495049196211
 40
0.3010071809762087
 40
0.3339463089635394
 40
0.3663371066485218
 40
0.3992515325300097
 40
0.4324467180918995
 40
0.4643835783429539
 40
0.4811819319013363
 40
0.4980291549035742
 40
0.5155418557941175
 40
0.5331155181315003
 40
0.5331155181315003
 40
0.5331155181315003
 40
0.5331155181315003
 10
101.3922197731
 20
124.937423466
 30
0.0
 10
101.390882416047
 20
124.9598183313786
 30
0.0
 10
101.3882076474588
 20
125.0046089744726
 30
0.0
 10
101.3827094946474
 20
125.0603705069161
 30
0.0
 10
101.3770676759916
 20
125.1047401892868
 30
0.0
 10
101.3720743733346
 20
125.1377322409964
 30
0.0
 10
101.3662070332363
 20
125.1705185895394
 30
0.0
 10
101.359236405376
 20
125.2029634697893
 30
0.0
 10
101.3509434867864
 20
125.2350047433183
 30
0.0
 10
101.3410842751493
 20
125.2662959071288
 30
0.0
 10
101.3292898732383
 20
125.2968978852812
 30
0.0
 10
101.3137536819367
 20
125.3259342226969
 30
0.0
 10
101.2940870450014
 20
125.352262525168
 30
0.0
 10
101.2706388065736
 20
125.3682767019306
 30
0.0
 10
101.2487653356641
 20
125.371926474188
 30
0.0
 10
101.2315795810351
 20
125.3701341287182
 30
0.0
 10
101.2154557693549
 20
125.3631575810639
 30
0.0
 10
101.206078859613
 20
125.3561354511975
 30
0.0
 10
101.2013822587
 20
125.3526182859
 30
0.0
 11
101.3922197731
 21
124.937423466
 31
0.0
 11
101.3877754040403
 21
125.0045766754617
 31
0.0
 11
101.3811820592074
 21
125.071555797615
 31
0.0
 11
101.3769361923251
 21
125.1047254562283
 31
0.0
 11
101.3719156866849
 21
125.1377769546395
 31
0.0
 11
101.3660212626267
 21
125.170471339277
 31
0.0
 11
101.3589971522543
 21
125.2029751520694
 31
0.0
 11
101.3506578359185
 21
125.2349636773451
 31
0.0
 11
101.3406997656917
 21
125.2663614955802
 31
0.0
 11
101.3287474588666
 21
125.2964664143847
 31
0.0
 11
101.3130956428717
 21
125.3254212082395
 31
0.0
 11
101.2923862353153
 21
125.3513642378072
 31
0.0
 11
101.2653156714196
 21
125.3683096682551
 31
0.0
 11
101.2487614502446
 21
125.3711631649802
 31
0.0
 11
101.2320134748015
 21
125.3693371744424
 31
0.0
 11
101.2158524667563
 21
125.3625905818621
 31
0.0
 11
101.2013822587
 21
125.3526182859
 31
0.0
  0
SPLINE
  5
DC
330
1F
100
AcDbEntity
  8
0
  6
Continuous
 62
     7
100
AcDbSpline
210
0.0
220
0.0
230
1.0
 70
     8
 71
     3
 72
     9
 73
     5
 74
     3
 42
0.0000000001
 43
0.0000000001
 44
0.00000001
 40
0.0
 40
0.0
 40
0.0
 40
0.0
 40
0.0713008008202903
 40
0.142598901418086
 40
0.142598901418086
 40
0.142598901418086
 40
0.142598901418086
 10
101.3962371942
 20
124.7948904927
 30
0.0
 10
101.3959750800687
 20
124.818657923043
 30
0.0
 10
101.3954508617326
 20
124.866191883636
 30
0.0
 10
101.3932967890478
 20
124.913679904953
 30
0.0
 10
101.3922197731
 20
124.937423466
 30
0.0
 11
101.3962371942
 21
124.7948904927
 31
0.0
 11
101.3950433727875
 21
124.866181298475
 31
0.0
 11
101.3922197731
 21
124.937423466
 31
0.0
  0
SPLINE
  5
DD
330
1F
100
AcDbEntity
  8
0
  6
Continuous
 62
     7
100
AcDbSpline
210
0.0
220
0.0
230
1.0
 70
     8
 71
     3
 72
    19
 73
    15
 74
    13
 42
0.0000000001
 43
0.0000000001
 44
0.00000001
 40
0.0
 40
0.0
 40
0.0
 40
0.0
 40
0.1037214442577651
 40
0.2077048967801686
 40
0.3081965148303067
 40
0.4087745519644319
 40
0.4905582518200267
 40
0.5722694203507366
 40
0.6447917332259471
 40
0.7173167610551874
 40
0.8507493764222227
 40
0.9843287148440855
 40
1.111803128144433
 40
1.239193738874659
 40
1.239193738874659
 40
1.239193738874659
 40
1.239193738874659
 10
101.2013822587
 20
136.5141461197
 30
0.0
 10
101.1682304591081
 20
136.5243722481933
 30
0.0
 10
101.1018431159546
 20
136.5448503371591
 30
0.0
 10
100.9979066051104
 20
136.548358999508
 30
0.0
 10
100.8972850959389
 20
136.5299683848846
 30
0.0
 10
100.8090614687977
 20
136.4951709955711
 30
0.0
 10
100.7327474968363
 20
136.4508891007136
 30
0.0
 10
100.66959559221
 20
136.4037197402589
 30
0.0
 10
100.6132878934108
 20
136.3531824399504
 30
0.0
 10
100.5489335214432
 20
136.2861922368182
 30
0.0
 10
100.4780206198422
 20
136.1976723900423
 30
0.0
 10
100.4059919058015
 20
136.0875047423646
 30
0.0
 10
100.3427686858449
 20
135.9743598884185
 30
0.0
 10
100.3070872287229
 20
135.8972346582501
 30
0.0
 10
100.2892523664
 20
135.858684723
 30
0.0
 11
101.2013822587
 21
136.5141461197
 31
0.0
 11
101.1010143487847
 21
136.5403075542582
 31
0.0
 11
100.9971198948226
 21
136.5446088138893
 31
0.0
 11
100.8982147875224
 21
136.5268227224617
 31
0.0
 11
100.8044706869033
 21
136.4903811918562
 31
0.0
 11
100.7336026208482
 21
136.449560966775
 31
0.0
 11
100.6679705558247
 21
136.4008870815448
 31
0.0
 11
100.613913122672
 21
136.352541659986
 31
0.0
 11
100.5635767262645
 21
136.3003293352116
 31
0.0
 11
100.4798024824204
 21
136.1964729973596
 31
0.0
 11
100.4062325298131
 21
136.0849790435927
 31
0.0
 11
100.3442060960025
 21
135.9736127670319
 31
0.0
 11
100.2892523664
 21
135.858684723
 31
0.0
  0
SPLINE
  5
DE
330
1F
100
AcDbEntity
  8
0
  6
Continuous
 62
     7
100
AcDbSpline
210
0.0
220
0.0
230
1.0
 70
     8
 71
     3
 72
    25
 73
    21
 74
    19
 42
0.0000000001
 43
0.0000000001
 44
0.00000001
 40
0.0
 40
0.0
 40
0.0
 40
0.0
 40
0.1100127022384787
 40
0.2200277203810719
 40
0.330066662680926
 40
0.4401078802581299
 40
0.5501739293955674
 40
0.6602293605753282
 40
0.770283454599092
 40
0.8803905202365501
 40
0.9905820716361703
 40
1.100570628295794
 40
1.210144994794686
 40
1.320894121710753
 40
1.432541552230502
 40
1.540923272235496
 40
1.596165153184127
 40
1.651750157792302
 40
1.707084506464466
 40
1.762341592260557
 40
1.762341592260557
 40
1.762341592260557
 40
1.762341592260557
 10
100.2892523664
 20
126.5842075935
 30
0.0
 10
100.2979404030337
 20
126.5485799482484
 30
0.0
 10
100.3153166591952
 20
126.477323907739
 30
0.0
 10
100.3435606954144
 20
126.3709808750717
 30
0.0
 10
100.3735949851139
 20
126.2651216990485
 30
0.0
 10
100.4058209719513
 20
126.15988784376
 30
0.0
 10
100.4404448125678
 20
126.0554102385091
 30
0.0
 10
100.4778238361401
 20
125.9518789367589
 30
0.0
 10
100.518298728519
 20
125.849495274086
 30
0.0
 10
100.5627529123768
 20
125.7487142133086
 30
0.0
 10
100.6119592712983
 20
125.6501627674293
 30
0.0
 10
100.6667487519023
 20
125.5548137808343
 30
0.0
 10
100.7281782271327
 20
125.4632130722171
 30
0.0
 10
100.8022396263029
 20
125.3803548667801
 30
0.0
 10
100.8899500077933
 20
125.3122640748281
 30
0.0
 10
100.9788668124758
 20
125.2797477380592
 30
0.0
 10
101.0526606959578
 20
125.2816658903645
 30
0.0
 10
101.1067610097172
 20
125.2951983272243
 30
0.0
 10
101.1570125052481
 20
125.3195019774456
 30
0.0
 10
101.1865992309748
 20
125.3415846589819
 30
0.0
 10
101.2013822587
 20
125.3526182859
 30
0.0
 11
100.2892523664
 21
126.5842075935
 31
0.0
 11
100.3156793862753
 21
126.4774161740211
 31
0.0
 11
100.3438565394724
 21
126.3710707356863
 31
0.0
 11
100.3739592508842
 21
126.2652293657588
 31
0.0
 11
100.4062178298774
 21
126.1600226471178
 31
0.0
 11
100.4409049516846
 21
126.0555652933629
 31
0.0
 11
100.478339116399
 21
125.9520719059205
 31
0.0
 11
100.5189521307561
 21
125.849785608323
 31
0.0
 11
100.5635348199027
 21
125.7491081543834
 31
0.0
 11
100.6129364803896
 21
125.6506111801101
 31
0.0
 11
100.6679097079819
 21
125.5553461453694
 31
0.0
 11
100.7299827163955
 21
125.4650495041245
 31
0.0
 11
100.8043592855628
 21
125.3829916277714
 31
0.0
 11
100.8940933915348
 21
125.3165616724269
 31
0.0
 11
100.9970097480324
 21
125.2825790180795
 31
0.0
 11
101.0522409638414
 21
125.2836644723633
 31
0.0
 11
101.1061966330202
 21
125.297024056966
 31
0.0
 11
101.1560705341872
 21
125.3209924554389
 31
0.0
 11
101.2013822587
 21
125.3526182859
 31
0.0
  0
SPLINE
  5
DF
330
1F
100
AcDbEntity
  8
0
  6
Continuous
 62
     7
100
AcDbSpline
210
0.0
220
0.0
230
1.0
 70
     8
 71
     3
 72
    23
 73
    19
 74
    17
 42
0.0000000001
 43
0.0000000001
 44
0.00000001
 40
0.0
 40
0.0
 40
0.0
 40
0.0
 40
0.0200847595707564
 40
0.0402074697403969
 40
0.0623257192830758
 40
0.0845392954891429
 40
0.1048528756125065
 40
0.1251579524158401
 40
0.1438115891346783
 40
0.1624497786480407
 40
0.1972171515119784
 40
0.2320370462690248
 40
0.2649767723272166
 40
0.2978945729059617
 40
0.3606251045008426
 40
0.4234001583598496
 40
0.4835097231718312
 40
0.5435992773042215
 40
0.5435992773042215
 40
0.5435992773042215
 40
0.5435992773042215
 10
101.2013822587
 20
136.5141461197
 30
0.0
 10
101.2078178623716
 20
136.5122013072919
 30
0.0
 10
101.2207012299308
 20
136.5083080077094
 30
0.0
 10
101.2418155007563
 20
136.5084018913835
 30
0.0
 10
101.2626855724854
 20
136.5144759276534
 30
0.0
 10
101.2814022204983
 20
136.5255471678057
 30
0.0
 10
101.2970034977975
 20
136.5396671416064
 30
0.0
 10
101.3095929854178
 20
136.5549533669993
 30
0.0
 10
101.3204101625047
 20
136.5708369497672
 30
0.0
 10
101.332400474074
 20
136.5916716952232
 30
0.0
 10
101.3447215737662
 20
136.6184399758498
 30
0.0
 10
101.3561820251581
 20
136.6506674288526
 30
0.0
 10
101.3654937259629
 20
136.6829253370234
 30
0.0
 10
101.375311926358
 20
136.7246619052751
 30
0.0
 10
101.3843711015799
 20
136.7767363721871
 30
0.0
 10
101.391146176303
 20
136.8382606570561
 30
0.0
 10
101.3951810978135
 20
136.8991423761436
 30
0.0
 10
101.3959090335999
 20
136.9392066954761
 30
0.0
 10
101.3962729409
 20
136.9592355202
 30
0.0
 11
101.2013822587
 21
136.5141461197
 31
0.0
 11
101.2208731810531
 21
136.5092982838075
 31
0.0
 11
101.240995888497
 21
136.5092878101873
 31
0.0
 11
101.2622765542014
 21
136.5153169253801
 31
0.0
 11
101.281473961022
 21
136.5264929058396
 31
0.0
 11
101.2966409076027
 21
136.5400060575388
 31
0.0
 11
101.3096834920205
 21
136.5555684203316
 31
0.0
 11
101.3202132655633
 21
136.5709658886942
 31
0.0
 11
101.3295427168683
 21
136.5871010505057
 31
0.0
 11
101.3442300368314
 21
136.6186137915505
 31
0.0
 11
101.356047044512
 21
136.6513671639016
 31
0.0
 11
101.3652298985663
 21
136.6830010183017
 31
0.0
 11
101.3728184280477
 21
136.7150321877348
 31
0.0
 11
101.3837200685106
 21
136.7768081849295
 31
0.0
 11
101.3907801194256
 21
136.8391849680148
 31
0.0
 11
101.3947007093308
 21
136.8991665381567
 31
0.0
 11
101.3962729409
 21
136.9592355202
 31
0.0
  0
SPLINE
  5
E0
330
1F
100
AcDbEntity
  8
0
  6
Continuous
 62
     7
100
AcDbSpline
210
0.0
220
0.0
230
1.0
 70
     8
 71
     3
 72
    11
 73
     7
 74
     5
 42
0.0000000001
 43
0.0000000001
 44
0.00000001
 40
0.0
 40
0.0
 40
0.0
 40
0.0
 40
0.1144869088076968
 40
0.2289786248546068
 40
0.5593749201754317
 40
0.8897492710006488
 40
0.8897492710006488
 40
0.8897492710006488
 40
0.8897492710006488
 10
100.2892523664
 20
98.0661111818
 30
0.0
 10
100.2715924699143
 20
98.03228033212372
 30
0.0
 10
100.236271935414
 20
97.96461721223329
 30
0.0
 10
100.1479609686254
 20
97.80039831477603
 30
0.0
 10
100.0219043311165
 20
97.57473346629166
 30
0.0
 10
99.90689210276926
 20
97.38686838066873
 30
0.0
 10
99.8493878984
 20
97.2929389574
 30
0.0
 11
100.2892523664
 21
98.0661111818
 31
0.0
 11
100.2360653548619
 21
97.96472876669762
 31
0.0
 11
100.1819075707366
 21
97.86385613680228
 31
0.0
 11
100.0200076890243
 21
97.5758454768203
 31
0.0
 11
99.8493878984
 21
97.2929389574
 31
0.0
  0
SPLINE
  5
E1
330
1F
100
AcDbEntity
  8
0
  6
Continuous
 62
     7
100
AcDbSpline
210
0.0
220
0.0
230
1.0
 70
     8
 71
     3
 72
    25
 73
    21
 74
    19
 42
0.0000000001
 43
0.0000000001
 44
0.00000001
 40
0.0
 40
0.0
 40
0.0
 40
0.0
 40
0.1793610638665767
 40
0.3587208533665317
 40
0.441079050009199
 40
0.5234388827775363
 40
0.6008758165068694
 40
0.6783083636833445
 40
0.7508835456255046
 40
0.8234768973154105
 40
0.8916244425348271
 40
0.9597247317309843
 40
0.9925108733823789
 40
1.025318331889903
 40
1.057978320156133
 40
1.090556239486958
 40
1.124615443854511
 40
1.159145555519293
 40
1.21187775002424
 40
1.26262346861553
 40
1.26262346861553
 40
1.26262346861553
 40
1.26262346861553
 10
99.3964222367
 20
98.4872659535
 30
0.0
 10
99.39640827482162
 20
98.42747894882812
 30
0.0
 10
99.39638035116405
 20
98.30790536427314
 30
0.0
 10
99.39682413875236
 20
98.16087885192037
 30
0.0
 10
99.39782649952402
 20
98.04619015099883
 30
0.0
 10
99.39907763004078
 20
97.9654806655542
 30
0.0
 10
99.40106857537198
 20
97.88642746909957
 30
0.0
 10
99.40408115722784
 20
97.81066898048941
 30
0.0
 10
99.4084479753826
 20
97.73659090283041
 30
0.0
 10
99.41460938894724
 20
97.66574082150714
 30
0.0
 10
99.4231328871501
 20
97.59663138462182
 30
0.0
 10
99.43302318050685
 20
97.54111866786255
 30
0.0
 10
99.44319128295234
 20
97.49771773885738
 30
0.0
 10
99.45214497816754
 20
97.46620025254082
 30
0.0
 10
99.46288576634409
 20
97.43530431314991
 30
0.0
 10
99.47582849548579
 20
97.40483747303956
 30
0.0
 10
99.49142529247263
 20
97.37478533752356
 30
0.0
 10
99.51527559541661
 20
97.34222356531066
 30
0.0
 10
99.55026623556384
 20
97.30968022499871
 30
0.0
 10
99.5845630507927
 20
97.30236824626904
 30
0.0
 10
99.6013822587
 20
97.2987824413
 30
0.0
 11
99.3964222367
 21
98.4872659535
 31
0.0
 11
99.39647756358343
 21
98.30790489816667
 31
0.0
 11
99.39715614611572
 21
98.12854639233208
 31
0.0
 11
99.39791928977857
 21
98.04619173146834
 31
0.0
 11
99.39923999722211
 21
97.96384248869418
 31
0.0
 11
99.40125651230171
 21
97.88643181519024
 31
0.0
 11
99.4044001790031
 21
97.8090631088426
 31
0.0
 11
99.40878384398955
 21
97.73662043830082
 31
0.0
 11
99.41518447451044
 21
97.66430981225935
 31
0.0
 11
99.42373804153512
 21
97.59670120030357
 31
0.0
 11
99.4358959349993
 21
97.52969496913725
 31
0.0
 11
99.44343667951401
 21
97.49778778724118
 31
0.0
 11
99.45246126634412
 21
97.46624597108756
 31
0.0
 11
99.46323475478981
 21
97.43541405936836
 31
0.0
 11
99.47601487737137
 21
97.40544758986115
 31
0.0
 11
99.49207011466692
 21
97.37540996749296
 31
0.0
 11
99.51247548276712
 21
97.34755409622176
 31
0.0
 11
99.5528632443615
 21
97.31364962674202
 31
0.0
 11
99.6013822587
 21
97.2987824413
 31
0.0
  0
SPLINE
  5
E2
330
1F
100
AcDbEntity
  8
0
  6
Continuous
 62
     7
100
AcDbSpline
210
0.0
220
0.0
230
1.0
 70
     8
 71
     3
 72
    17
 73
    13
 74
    11
 42
0.0000000001
 43
0.0000000001
 44
0.00000001
 40
0.0
 40
0.0
 40
0.0
 40
0.0
 40
0.0464036384022961
 40
0.0929793006967839
 40
0.1389666755728989
 40
0.1849386862457879
 40
0.2751119356981717
 40
0.3657048668461031
 40
0.4550230514395779
 40
0.5441812925058742
 40
0.6327892352391923
 40
0.721387667555165
 40
0.721387667555165
 40
0.721387667555165
 40
0.721387667555165
 10
112.1350342822
 20
129.5188891473
 30
0.0
 10
112.1195486240823
 20
129.5197868586185
 30
0.0
 10
112.0885199006419
 20
129.5215856091799
 30
0.0
 10
112.0437538569068
 20
129.5348790907714
 30
0.0
 10
112.001900752777
 20
129.5546934421589
 30
0.0
 10
111.9511534493662
 20
129.5883330721139
 30
0.0
 10
111.8957145745183
 20
129.6404911033558
 30
0.0
 10
111.8412585538494
 20
129.7125182034774
 30
0.0
 10
111.7957487008535
 20
129.7899974391124
 30
0.0
 10
111.7583179126623
 20
129.8708798329098
 30
0.0
 10
111.7267774201358
 20
129.9539784392489
 30
0.0
 10
111.7102732316597
 20
130.0107141291912
 30
0.0
 10
111.7020215803
 20
130.0390804517
 30
0.0
 11
112.1350342822
 21
129.5188891473
 31
0.0
 11
112.0888455194438
 21
129.5233496239584
 31
0.0
 11
112.044033606335
 21
129.5360454800421
 31
0.0
 11
112.0024361791504
 21
129.5556539654405
 31
0.0
 11
111.9639988537721
 21
129.5808729619129
 31
0.0
 11
111.8977460220636
 21
129.6420430298171
 31
0.0
 11
111.8424835486359
 21
129.713828391867
 31
0.0
 11
111.7970175680217
 21
129.7907087060303
 31
0.0
 11
111.7592127155982
 21
129.8714551306154
 31
0.0
 11
111.7278961617559
 21
129.9543444602717
 31
0.0
 11
111.7020215803
 21
130.0390804517
 31
0.0
  0
SPLINE
  5
E3
330
1F
100
AcDbEntity
  8
FASEN
  6
Continuous
 62
     7
100
AcDbSpline
210
0.0
220
0.0
230
1.0
 70
     8
 71
     3
 72
    19
 73
    15
 74
    13
 42
0.0000000001
 43
0.0000000001
 44
0.00000001
 40
0.0
 40
0.0
 40
0.0
 40
0.0
 40
0.0027107037547998
 40
0.0054659931692997
 40
0.0136658057315194
 40
0.0218153575090717
 40
0.0354192342799644
 40
0.0490506311446708
 40
0.0680941272027546
 40
0.0871248690902965
 40
0.1411923575455667
 40
0.1952725685977752
 40
0.2702326325225697
 40
0.3451888613841691
 40
0.3451888613841691
 40
0.3451888613841691
 40
0.3451888613841691
 10
118.8188027485
 20
151.6696333212
 30
0.0
 10
118.8178968574186
 20
151.6695879558067
 30
0.0
 10
118.8160701751578
 20
151.6694964788501
 30
0.0
 10
118.8116840165878
 20
151.6681918723723
 30
0.0
 10
118.8054033383062
 20
151.667104328988
 30
0.0
 10
118.7954964877194
 20
151.6658622732852
 30
0.0
 10
118.7838493836359
 20
151.663982048004
 30
0.0
 10
118.7686706991607
 20
151.6612315769135
 30
0.0
 10
118.751673143381
 20
151.6583753483425
 30
0.0
 10
118.7213512628
 20
151.6534846658279
 30
0.0
 10
118.679517360187
 20
151.6466226606121
 30
0.0
 10
118.6192902005701
 20
151.6367195960574
 30
0.0
 10
118.5521517423553
 20
151.6259353805991
 30
0.0
 10
118.5027884788265
 20
151.6181585408756
 30
0.0
 10
118.478107478452
 20
151.614270220485
 30
0.0
 11
118.8188027485
 21
151.6696333212
 31
0.0
 11
118.8161028626034
 21
151.6693913894089
 31
0.0
 11
118.8134260833285
 21
151.6687383408111
 31
0.0
 11
118.8053786202706
 21
151.6671650435134
 31
0.0
 11
118.7973053221315
 21
151.6660528154197
 31
0.0
 11
118.7838664030155
 21
151.6639407273081
 31
0.0
 11
118.7704414961362
 21
151.6615770742526
 31
0.0
 11
118.7516656959281
 21
151.658395240087
 31
0.0
 11
118.732881804236
 21
151.6553399905569
 31
0.0
 11
118.6795221441443
 21
151.6466198998028
 31
0.0
 11
118.6261534119988
 21
151.6378764647437
 31
0.0
 11
118.5521446165166
 21
151.6259722900605
 31
0.0
 11
118.478107478452
 21
151.614270220485
 31
0.0
  0
SPLINE
  5
E4
330
1F
100
AcDbEntity
  8
ACHSEN
  6
Continuous
 62
     7
100
AcDbSpline
210
0.0
220
0.0
230
1.0
 70
     8
 71
     3
 72
    15
 73
    11
 74
     9
 42
0.0000000001
 43
0.0000000001
 44
0.00000001
 40
0.0
 40
0.0
 40
0.0
 40
0.0
 40
0.7036199270437141
 40
1.407365568514891
 40
2.995285720729753
 40
4.58329955760905
 40
6.171264475839096
 40
7.759111163492348
 40
8.458270837132211
 40
9.157317424656533
 40
9.157317424656533
 40
9.157317424656533
 40
9.157317424656533
 10
90.7757204808
 20
140.5731861682
 30
0.0
 10
90.54370810491801
 20
140.5387939855349
 30
0.0
 10
90.07964189994632
 20
140.470003475419
 30
0.0
 10
89.08873858241198
 20
140.3470614126314
 30
0.0
 10
87.8007568520351
 20
140.2260893660651
 30
0.0
 10
86.2141103991034
 20
140.1490231322131
 30
0.0
 10
84.62561264778665
 20
140.1447386955518
 30
0.0
 10
83.3347182736462
 20
140.2007239181498
 30
0.0
 10
82.34203452646886
 20
140.2746200684357
 30
0.0
 10
81.87823843670292
 20
140.3207578233435
 30
0.0
 10
81.6463591476
 20
140.343824835
 30
0.0
 11
90.7757204808
 21
140.5731861682
 31
0.0
 11
90.07930346282164
 21
140.4727653595838
 31
0.0
 11
89.38099125023233
 21
140.3854843098749
 31
0.0
 11
87.7999346184121
 21
140.2380043560258
 31
0.0
 11
86.21378145974182
 21
140.1611531793241
 31
0.0
 11
84.62582217188589
 21
140.156924510335
 31
0.0
 11
83.03943192015885
 21
140.2249176917344
 31
0.0
 11
82.34225290912326
 21
140.2775073847897
 31
0.0
 11
81.6463591476
 21
140.343824835
 31
0.0
  0
MTEXT
  5
108
330
1F
100
AcDbEntity
  8
0
 62
     5
100
AcDbMText
 10
14.0858887734
 20
82.0032159563
 30
0.0
 40
3.5
 41
0.0
 71
     1
 72
     1
  3
F\U+00fcr diese Unterlage behalten wir das Ur-\Pheberrecht. Sie darf nur f\U+00fcr den von uns \Pbestimmten Zweck benutzt und ohne unsere \PZustimmung weder vervielf\U+00e4ltigt noch\PDritten zug\U+00e4nglich gemacht werden\P \PWe own the copyright 
  3
of this document. It \Pdetermined and may neither be copied or \Pmade accessible to outsiders without our\Ppermission.\P \PCe plan reste notre propri\U+00e9t\U+00e9. Il ne peut\P\U+00eatre utilis\U+00e9, copi\U+00e9 ou reproduit sans notre\Paccord.\
  7
CONVERTER_11
 73
     1
 44
1.0
  0
DIMENSION
  5
114
330
1F
100
AcDbEntity
  8
1
100
AcDbDimension
  2
*D1
 10
254.835340250821
 20
88.6696678328
 30
0.0
 11
251.085340250821
 21
121.11679439799
 31
0.0
 70
    32
  1
<>
 71
     5
 42
-1.0
 53
90.0
  3
ME10_DIM_10
100
AcDbAlignedDimension
 13
229.5963591476
 23
151.6696678328
 33
0.0
 14
229.5963591476
 24
88.6696678328
 34
0.0
 50
90.0
100
AcDbRotatedDimension
  0
DIMENSION
  5
11F
330
1F
100
AcDbEntity
  8
0
100
AcDbDimension
  2
*D2
 10
231.5963591476
 20
190.4402070485
 30
0.0
 11
166.5963591476
 21
194.8152070485
 31
0.0
 70
    32
  1
130
 71
     5
 42
-1.0
 53
0.00013888888889
  3
ME10_DIM_11
100
AcDbAlignedDimension
 13
101.5963591476
 23
158.3689424837
 33
0.0
 14
231.5963591476
 24
149.7055662176
 34
0.0
100
AcDbRotatedDimension
  0
DIMENSION
  5
12A
330
1F
100
AcDbEntity
  8
0
100
AcDbDimension
  2
*D3
 10
245.100828448
 20
100.1696678328
 30
0.0
 11
240.725828448
 21
120.1696678328
 31
0.0
 70
    32
  1
{\Fgdt;n}40
 71
     5
 42
-1.0
 53
90.0
  3
ME10_DIM_12
100
AcDbAlignedDimension
 13
218.0963591476
 23
140.1696678328
 33
0.0
 14
218.0963591476
 24
100.1696678328
 34
0.0
 50
90.0
100
AcDbRotatedDimension
  0
DIMENSION
  5
135
330
1F
100
AcDbEntity
  8
0
100
AcDbDimension
  2
*D4
 10
216.5963591476
 20
181.6214581234
 30
0.0
 11
159.0963591476
 21
185.9964581234
 31
0.0
 70
    32
  1
115
 71
     5
 42
-1.0
 53
0.00013888888889
  3
ME10_DIM_13
100
AcDbAlignedDimension
 13
101.5963591476
 23
152.5219334202
 33
0.0
 14
216.5963591476
 24
143.3005198877
 34
0.0
100
AcDbRotatedDimension
  0
DIMENSION
  5
140
330
1F
100
AcDbEntity
  8
0
100
AcDbDimension
  2
*D5
 10
216.5963591476
 20
197.8674995385
 30
0.0
 11
140.0963591476
 21
202.2424995385
 31
0.0
 70
    32
  1
153
 71
     5
 42
-1.0
 53
0.00013888888889
  3
ME10_DIM_14
100
AcDbAlignedDimension
 13
63.5963591476
 23
101.4835520634
 33
0.0
 14
216.5963591476
 24
143.5429449398
 34
0.0
100
AcDbRotatedDimension
  0
DIMENSION
  5
14B
330
1F
100
AcDbEntity
  8
0
100
AcDbDimension
  2
*D6
 10
216.5963591476
 20
171.5121211131
 30
0.0
 11
170.0963591476
 21
175.8871211131
 31
0.0
 70
    32
  1
93
 71
     5
 42
-1.0
 53
0.00013888888889
  3
ME10_DIM_15
100
AcDbAlignedDimension
 13
123.5963591476
 23
153.4574548704
 33
0.0
 14
216.5963591476
 24
140.5126317874
 34
0.0
100
AcDbRotatedDimension
  0
ENDSEC
  0
SECTION
  2
OBJECTS
  0
DICTIONARY
  5
C
330
0
100
AcDbDictionary
281
     1
  3
ACAD_GROUP
350
D
  3
ACAD_LAYOUT
350
1A
  3
ACAD_MLEADERSTYLE
350
14E
  3
ACAD_MLINESTYLE
350
17
  3
ACAD_PLOTSETTINGS
350
19
  3
ACAD_PLOTSTYLENAME
350
E
  3
ACAD_SCALELIST
350
E6
  3
ACAD_VISUALSTYLE
350
2A
  3
AcDbVariableDictionary
350
14C
  0
DICTIONARY
  5
D
102
{ACAD_REACTORS
330
C
102
}
330
C
100
AcDbDictionary
281
     1
  0
DICTIONARY
  5
1A
102
{ACAD_REACTORS
330
C
102
}
330
C
100
AcDbDictionary
281
     1
  3
Layout1
350
1E
  3
Layout2
350
26
  3
Model
350
22
  0
DICTIONARY
  5
14E
102
{ACAD_REACTORS
330
C
102
}
330
C
100
AcDbDictionary
281
     1
  0
DICTIONARY
  5
17
102
{ACAD_REACTORS
330
C
102
}
330
C
100
AcDbDictionary
281
     1
  3
Standard
350
18
  0
DICTIONARY
  5
19
102
{ACAD_REACTORS
330
C
102
}
330
C
100
AcDbDictionary
281
     1
  0
ACDBDICTIONARYWDFLT
  5
E
102
{ACAD_REACTORS
330
C
102
}
330
C
100
AcDbDictionary
281
     1
  3
Normal
350
F
100
AcDbDictionaryWithDefault
340
F
  0
DICTIONARY
  5
E6
102
{ACAD_REACTORS
330
C
102
}
330
C
100
AcDbDictionary
281
     1
  3
A0
350
E7
  3
A1
350
E8
  3
A2
350
E9
  3
A3
350
EA
  3
A4
350
EB
  3
A5
350
EC
  3
A6
350
ED
  3
A7
350
EE
  3
A8
350
EF
  3
A9
350
F0
  3
B0
350
F1
  3
B1
350
F2
  3
B2
350
F3
  3
B3
350
F4
  3
B4
350
F5
  3
B5
350
F6
  3
B6
350
F7
  3
B7
350
F8
  3
B8
350
F9
  3
B9
350
FA
  3
C0
350
FB
  3
C1
350
FC
  3
C2
350
FD
  3
C3
350
FE
  3
C4
350
FF
  3
C5
350
100
  3
C6
350
101
  3
C7
350
102
  3
C8
350
103
  3
C9
350
104
  3
D0
350
105
  3
D1
350
106
  3
D2
350
107
  0
DICTIONARY
  5
2A
102
{ACAD_REACTORS
330
C
102
}
330
C
100
AcDbDictionary
281
     1
  3
2dWireframe
350
2F
  3
3D Hidden
350
31
  3
3dWireframe
350
30
  3
Basic
350
32
  3
Brighten
350
36
  3
ColorChange
350
3A
  3
Conceptual
350
34
  3
Dim
350
35
  3
Facepattern
350
39
  3
Flat
350
2B
  3
FlatWithEdges
350
2C
  3
Gouraud
350
2D
  3
GouraudWithEdges
350
2E
  3
Linepattern
350
38
  3
Realistic
350
33
  3
Thicken
350
37
  0
DICTIONARY
  5
14C
102
{ACAD_REACTORS
330
C
102
}
330
C
100
AcDbDictionary
281
     1
  3
CANNOSCALE
350
14F
  0
LAYOUT
  5
1E
102
{ACAD_REACTORS
330
1A
102
}
330
1A
100
AcDbPlotSettings
  1

  2
none_device
  4

  6

 40
0.0
 41
0.0
 42
0.0
 43
0.0
 44
0.0
 45
0.0
 46
0.0
 47
0.0
 48
0.0
 49
0.0
140
0.0
141
0.0
142
1.0
143
1.0
 70
   688
 72
     0
 73
     0
 74
     5
  7

 75
    16
147
1.0
148
0.0
149
0.0
100
AcDbLayout
  1
Layout1
 70
     1
 71
     1
 10
0.0
 20
0.0
 11
12.0
 21
9.0
 12
0.0
 22
0.0
 32
0.0
 14
1.00000000000000E+20
 24
1.00000000000000E+20
 34
1.00000000000000E+20
 15
-1.00000000000000E+20
 25
-1.00000000000000E+20
 35
-1.00000000000000E+20
146
0.0
 13
0.0
 23
0.0
 33
0.0
 16
1.0
 26
0.0
 36
0.0
 17
0.0
 27
1.0
 37
0.0
 76
     0
330
1B
  0
LAYOUT
  5
26
102
{ACAD_REACTORS
330
1A
102
}
330
1A
100
AcDbPlotSettings
  1

  2
none_device
  4

  6

 40
0.0
 41
0.0
 42
0.0
 43
0.0
 44
0.0
 45
0.0
 46
0.0
 47
0.0
 48
0.0
 49
0.0
140
0.0
141
0.0
142
1.0
143
1.0
 70
   688
 72
     0
 73
     0
 74
     5
  7

 75
    16
147
1.0
148
0.0
149
0.0
100
AcDbLayout
  1
Layout2
 70
     1
 71
     2
 10
0.0
 20
0.0
 11
0.0
 21
0.0
 12
0.0
 22
0.0
 32
0.0
 14
0.0
 24
0.0
 34
0.0
 15
0.0
 25
0.0
 35
0.0
146
0.0
 13
0.0
 23
0.0
 33
0.0
 16
1.0
 26
0.0
 36
0.0
 17
0.0
 27
1.0
 37
0.0
 76
     0
330
23
  0
LAYOUT
  5
22
102
{ACAD_REACTORS
330
1A
102
}
330
1A
100
AcDbPlotSettings
  1

  2
none_device
  4

  6

 40
0.0
 41
0.0
 42
0.0
 43
0.0
 44
0.0
 45
0.0
 46
0.0
 47
0.0
 48
0.0
 49
0.0
140
0.0
141
0.0
142
1.0
143
1.0
 70
  1712
 72
     0
 73
     0
 74
     0
  7

 75
     0
147
1.0
148
0.0
149
0.0
100
AcDbLayout
  1
Model
 70
     1
 71
     0
 10
0.0
 20
0.0
 11
12.0
 21
9.0
 12
0.0
 22
0.0
 32
0.0
 14
0.0
 24
-3.1307840437
 34
0.0
 15
297.0
 25
210.0
 35
0.0
146
0.0
 13
0.0
 23
0.0
 33
0.0
 16
1.0
 26
0.0
 36
0.0
 17
0.0
 27
1.0
 37
0.0
 76
     0
330
1F
331
29
  0
MLINESTYLE
  5
18
102
{ACAD_REACTORS
330
17
102
}
330
17
100
AcDbMlineStyle
  2
Standard
 70
     0
  3

 62
   256
 51
90.0
 52
90.0
 71
     2
 49
0.5
 62
   256
  6
BYLAYER
 49
-0.5
 62
   256
  6
BYLAYER
  0
ACDBPLACEHOLDER
  5
F
102
{ACAD_REACTORS
330
E
102
}
330
E
  0
SCALE
  5
E7
102
{ACAD_REACTORS
330
E6
102
}
330
E6
100
AcDbScale
 70
     0
300
1:1
140
1.0
141
1.0
290
     1
  0
SCALE
  5
E8
102
{ACAD_REACTORS
330
E6
102
}
330
E6
100
AcDbScale
 70
     0
300
1:2
140
1.0
141
2.0
290
     0
  0
SCALE
  5
E9
102
{ACAD_REACTORS
330
E6
102
}
330
E6
100
AcDbScale
 70
     0
300
1:4
140
1.0
141
4.0
290
     0
  0
SCALE
  5
EA
102
{ACAD_REACTORS
330
E6
102
}
330
E6
100
AcDbScale
 70
     0
300
1:5
140
1.0
141
5.0
290
     0
  0
SCALE
  5
EB
102
{ACAD_REACTORS
330
E6
102
}
330
E6
100
AcDbScale
 70
     0
300
1:8
140
1.0
141
8.0
290
     0
  0
SCALE
  5
EC
102
{ACAD_REACTORS
330
E6
102
}
330
E6
100
AcDbScale
 70
     0
300
1:10
140
1.0
141
10.0
290
     0
  0
SCALE
  5
ED
102
{ACAD_REACTORS
330
E6
102
}
330
E6
100
AcDbScale
 70
     0
300
1:16
140
1.0
141
16.0
290
     0
  0
SCALE
  5
EE
102
{ACAD_REACTORS
330
E6
102
}
330
E6
100
AcDbScale
 70
     0
300
1:20
140
1.0
141
20.0
290
     0
  0
SCALE
  5
EF
102
{ACAD_REACTORS
330
E6
102
}
330
E6
100
AcDbScale
 70
     0
300
1:30
140
1.0
141
30.0
290
     0
  0
SCALE
  5
F0
102
{ACAD_REACTORS
330
E6
102
}
330
E6
100
AcDbScale
 70
     0
300
1:40
140
1.0
141
40.0
290
     0
  0
SCALE
  5
F1
102
{ACAD_REACTORS
330
E6
102
}
330
E6
100
AcDbScale
 70
     0
300
1:50
140
1.0
141
50.0
290
     0
  0
SCALE
  5
F2
102
{ACAD_REACTORS
330
E6
102
}
330
E6
100
AcDbScale
 70
     0
300
1:100
140
1.0
141
100.0
290
     0
  0
SCALE
  5
F3
102
{ACAD_REACTORS
330
E6
102
}
330
E6
100
AcDbScale
 70
     0
300
2:1
140
2.0
141
1.0
290
     0
  0
SCALE
  5
F4
102
{ACAD_REACTORS
330
E6
102
}
330
E6
100
AcDbScale
 70
     0
300
4:1
140
4.0
141
1.0
290
     0
  0
SCALE
  5
F5
102
{ACAD_REACTORS
330
E6
102
}
330
E6
100
AcDbScale
 70
     0
300
8:1
140
8.0
141
1.0
290
     0
  0
SCALE
  5
F6
102
{ACAD_REACTORS
330
E6
102
}
330
E6
100
AcDbScale
 70
     0
300
10:1
140
10.0
141
1.0
290
     0
  0
SCALE
  5
F7
102
{ACAD_REACTORS
330
E6
102
}
330
E6
100
AcDbScale
 70
     0
300
100:1
140
100.0
141
1.0
290
     0
  0
SCALE
  5
F8
102
{ACAD_REACTORS
330
E6
102
}
330
E6
100
AcDbScale
 70
     0
300
1/128" = 1'-0"
140
0.0078125
141
12.0
290
     0
  0
SCALE
  5
F9
102
{ACAD_REACTORS
330
E6
102
}
330
E6
100
AcDbScale
 70
     0
300
1/64" = 1'-0"
140
0.015625
141
12.0
290
     0
  0
SCALE
  5
FA
102
{ACAD_REACTORS
330
E6
102
}
330
E6
100
AcDbScale
 70
     0
300
1/32" = 1'-0"
140
0.03125
141
12.0
290
     0
  0
SCALE
  5
FB
102
{ACAD_REACTORS
330
E6
102
}
330
E6
100
AcDbScale
 70
     0
300
1/16" = 1'-0"
140
0.0625
141
12.0
290
     0
  0
SCALE
  5
FC
102
{ACAD_REACTORS
330
E6
102
}
330
E6
100
AcDbScale
 70
     0
300
3/32" = 1'-0"
140
0.09375
141
12.0
290
     0
  0
SCALE
  5
FD
102
{ACAD_REACTORS
330
E6
102
}
330
E6
100
AcDbScale
 70
     0
300
1/8" = 1'-0"
140
0.125
141
12.0
290
     0
  0
SCALE
  5
FE
102
{ACAD_REACTORS
330
E6
102
}
330
E6
100
AcDbScale
 70
     0
300
3/16" = 1'-0"
140
0.1875
141
12.0
290
     0
  0
SCALE
  5
FF
102
{ACAD_REACTORS
330
E6
102
}
330
E6
100
AcDbScale
 70
     0
300
1/4" = 1'-0"
140
0.25
141
12.0
290
     0
  0
SCALE
  5
100
102
{ACAD_REACTORS
330
E6
102
}
330
E6
100
AcDbScale
 70
     0
300
3/8" = 1'-0"
140
0.375
141
12.0
290
     0
  0
SCALE
  5
101
102
{ACAD_REACTORS
330
E6
102
}
330
E6
100
AcDbScale
 70
     0
300
1/2" = 1'-0"
140
0.5
141
12.0
290
     0
  0
SCALE
  5
102
102
{ACAD_REACTORS
330
E6
102
}
330
E6
100
AcDbScale
 70
     0
300
3/4" = 1'-0"
140
0.75
141
12.0
290
     0
  0
SCALE
  5
103
102
{ACAD_REACTORS
330
E6
102
}
330
E6
100
AcDbScale
 70
     0
300
1" = 1'-0"
140
1.0
141
12.0
290
     0
  0
SCALE
  5
104
102
{ACAD_REACTORS
330
E6
102
}
330
E6
100
AcDbScale
 70
     0
300
1-1/2" = 1'-0"
140
1.5
141
12.0
290
     0
  0
SCALE
  5
105
102
{ACAD_REACTORS
330
E6
102
}
330
E6
100
AcDbScale
 70
     0
300
3" = 1'-0"
140
3.0
141
12.0
290
     0
  0
SCALE
  5
106
102
{ACAD_REACTORS
330
E6
102
}
330
E6
100
AcDbScale
 70
     0
300
6" = 1'-0"
140
6.0
141
12.0
290
     0
  0
SCALE
  5
107
102
{ACAD_REACTORS
330
E6
102
}
330
E6
100
AcDbScale
 70
     0
300
1'-0" = 1'-0"
140
12.0
141
12.0
290
     0
  0
VISUALSTYLE
  5
2F
102
{ACAD_REACTORS
330
2A
102
}
330
2A
100
AcDbVisualStyle
  2
2dWireframe
 70
     4
 71
     0
 72
     2
 73
     0
 90
        0
 40
-0.6
 41
-30.0
 62
     5
 63
     7
 74
     1
 91
        4
 64
     7
 65
   257
 75
     1
175
     1
 42
1.0
 92
        0
 66
   257
 43
1.0
 76
     1
 77
     6
 78
     2
 67
     7
 79
     5
170
     0
171
     0
290
     0
174
     0
 93
        1
 44
0.0
173
     0
291
     0
 45
0.0
1001
ACAD
1000
AcDbSavedByObjectVersion
1070
     0
  0
VISUALSTYLE
  5
31
102
{ACAD_REACTORS
330
2A
102
}
330
2A
100
AcDbVisualStyle
  2
3D Hidden
 70
     6
 71
     1
 72
     2
 73
     2
 90
        0
 40
-0.6
 41
-30.0
 62
     5
 63
     7
 74
     2
 91
        2
 64
     7
 65
   257
 75
     2
175
     1
 42
40.0
 92
        0
 66
   257
 43
1.0
 76
     1
 77
     6
 78
     2
 67
     7
 79
     3
170
     0
171
     0
290
     0
174
     0
 93
        1
 44
0.0
173
     0
291
     0
 45
0.0
1001
ACAD
1000
AcDbSavedByObjectVersion
1070
     0
  0
VISUALSTYLE
  5
30
102
{ACAD_REACTORS
330
2A
102
}
330
2A
100
AcDbVisualStyle
  2
3dWireframe
 70
     5
 71
     0
 72
     2
 73
     0
 90
        0
 40
-0.6
 41
-30.0
 62
     5
 63
     7
 74
     1
 91
        4
 64
     7
 65
   257
 75
     1
175
     1
 42
1.0
 92
        0
 66
   257
 43
1.0
 76
     1
 77
     6
 78
     2
 67
     7
 79
     5
170
     0
171
     0
290
     0
174
     0
 93
        1
 44
0.0
173
     0
291
     0
 45
0.0
1001
ACAD
1000
AcDbSavedByObjectVersion
1070
     0
  0
VISUALSTYLE
  5
32
102
{ACAD_REACTORS
330
2A
102
}
330
2A
100
AcDbVisualStyle
  2
Basic
 70
     7
 71
     1
 72
     0
 73
     1
 90
        0
 40
-0.6
 41
-30.0
 62
     5
 63
     7
 74
     0
 91
        4
 64
     7
 65
   257
 75
     1
175
     1
 42
1.0
 92
        8
 66
     7
 43
1.0
 76
     1
 77
     6
 78
     2
 67
     7
 79
     5
170
     0
171
     0
290
     0
174
     0
 93
        1
 44
0.0
173
     0
291
     1
 45
0.0
1001
ACAD
1000
AcDbSavedByObjectVersion
1070
     0
  0
VISUALSTYLE
  5
36
102
{ACAD_REACTORS
330
2A
102
}
330
2A
100
AcDbVisualStyle
  2
Brighten
 70
    12
 71
     2
 72
     2
 73
     0
 90
        0
 40
-0.6
 41
-30.0
 62
     5
 63
     7
 74
     1
 91
        4
 64
     7
 65
   257
 75
     1
175
     1
 42
1.0
 92
        8
 66
     7
 43
1.0
 76
     1
 77
     6
 78
     2
 67
     7
 79
     5
170
     0
171
     0
290
     0
174
     0
 93
        1
 44
50.0
173
     0
291
     1
 45
0.0
1001
ACAD
1000
AcDbSavedByObjectVersion
1070
     0
  0
VISUALSTYLE
  5
3A
102
{ACAD_REACTORS
330
2A
102
}
330
2A
100
AcDbVisualStyle
  2
ColorChange
 70
    16
 71
     2
 72
     2
 73
     3
 90
        0
 40
-0.6
 41
-30.0
 62
     5
 63
     8
 74
     1
 91
        4
 64
     7
 65
   257
 75
     1
175
     1
 42
1.0
 92
        8
 66
     8
 43
1.0
 76
     1
 77
     6
 78
     2
 67
     7
 79
     5
170
     0
171
     0
290
     0
174
     0
 93
        1
 44
0.0
173
     0
291
     1
 45
0.0
1001
ACAD
1000
AcDbSavedByObjectVersion
1070
     0
  0
VISUALSTYLE
  5
34
102
{ACAD_REACTORS
330
2A
102
}
330
2A
100
AcDbVisualStyle
  2
Conceptual
 70
     9
 71
     3
 72
     2
 73
     0
 90
        0
 40
-0.6
 41
-30.0
 62
     5
 63
     7
 74
     2
 91
        2
 64
     7
 65
   257
 75
     1
175
     1
 42
40.0
 92
        8
 66
     7
 43
1.0
 76
     1
 77
     6
 78
     2
 67
     7
 79
     3
170
     0
171
     0
290
     0
174
     0
 93
        1
 44
0.0
173
     0
291
     0
 45
0.0
1001
ACAD
1000
AcDbSavedByObjectVersion
1070
     0
  0
VISUALSTYLE
  5
35
102
{ACAD_REACTORS
330
2A
102
}
330
2A
100
AcDbVisualStyle
  2
Dim
 70
    11
 71
     2
 72
     2
 73
     0
 90
        0
 40
-0.6
 41
-30.0
 62
     5
 63
     7
 74
     1
 91
        4
 64
     7
 65
   257
 75
     1
175
     1
 42
1.0
 92
        8
 66
     7
 43
1.0
 76
     1
 77
     6
 78
     2
 67
     7
 79
     5
170
     0
171
     0
290
     0
174
     0
 93
        1
 44
-50.0
173
     0
291
     1
 45
0.0
1001
ACAD
1000
AcDbSavedByObjectVersion
1070
     0
  0
VISUALSTYLE
  5
39
102
{ACAD_REACTORS
330
2A
102
}
330
2A
100
AcDbVisualStyle
  2
Facepattern
 70
    15
 71
     2
 72
     2
 73
     0
 90
        0
 40
-0.6
 41
-30.0
 62
     5
 63
     7
 74
     1
 91
        4
 64
     7
 65
   257
 75
     1
175
     1
 42
1.0
 92
        8
 66
     7
 43
1.0
 76
     1
 77
     6
 78
     2
 67
     7
 79
     5
170
     0
171
     0
290
     0
174
     0
 93
        1
 44
0.0
173
     0
291
     1
 45
0.0
1001
ACAD
1000
AcDbSavedByObjectVersion
1070
     0
  0
VISUALSTYLE
  5
2B
102
{ACAD_REACTORS
330
2A
102
}
330
2A
100
AcDbVisualStyle
  2
Flat
 70
     0
 71
     2
 72
     1
 73
     1
 90
        2
 40
-0.6
 41
30.0
 62
     5
 63
     7
 74
     0
 91
        4
 64
     7
 65
   257
 75
     1
175
     1
 42
1.0
 92
        8
 66
     7
 43
1.0
 76
     1
 77
     6
 78
     2
 67
     7
 79
     5
170
     0
171
     0
290
     0
174
     0
 93
       13
 44
0.0
173
     0
291
     1
 45
0.0
1001
ACAD
1000
AcDbSavedByObjectVersion
1070
     0
  0
VISUALSTYLE
  5
2C
102
{ACAD_REACTORS
330
2A
102
}
330
2A
100
AcDbVisualStyle
  2
FlatWithEdges
 70
     1
 71
     2
 72
     1
 73
     1
 90
        2
 40
-0.6
 41
30.0
 62
     5
 63
     7
 74
     1
 91
        4
 64
     7
 65
   257
 75
     1
175
     1
 42
1.0
 92
        0
 66
   257
 43
1.0
 76
     1
 77
     6
 78
     2
 67
     7
 79
     5
170
     0
171
     0
290
     0
174
     0
 93
       13
 44
0.0
173
     0
291
     1
 45
0.0
1001
ACAD
1000
AcDbSavedByObjectVersion
1070
     0
  0
VISUALSTYLE
  5
2D
102
{ACAD_REACTORS
330
2A
102
}
330
2A
100
AcDbVisualStyle
  2
Gouraud
 70
     2
 71
     2
 72
     2
 73
     1
 90
        2
 40
-0.6
 41
30.0
 62
     5
 63
     7
 74
     0
 91
        4
 64
     7
 65
   257
 75
     1
175
     1
 42
1.0
 92
        0
 66
     7
 43
1.0
 76
     1
 77
     6
 78
     2
 67
     7
 79
     5
170
     0
171
     0
290
     0
174
     0
 93
       13
 44
0.0
173
     0
291
     1
 45
0.0
1001
ACAD
1000
AcDbSavedByObjectVersion
1070
     0
  0
VISUALSTYLE
  5
2E
102
{ACAD_REACTORS
330
2A
102
}
330
2A
100
AcDbVisualStyle
  2
GouraudWithEdges
 70
     3
 71
     2
 72
     2
 73
     1
 90
        2
 40
-0.6
 41
30.0
 62
     5
 63
     7
 74
     1
 91
        4
 64
     7
 65
   257
 75
     1
175
     1
 42
1.0
 92
        0
 66
   257
 43
1.0
 76
     1
 77
     6
 78
     2
 67
     7
 79
     5
170
     0
171
     0
290
     0
174
     0
 93
       13
 44
0.0
173
     0
291
     1
 45
0.0
1001
ACAD
1000
AcDbSavedByObjectVersion
1070
     0
  0
VISUALSTYLE
  5
38
102
{ACAD_REACTORS
330
2A
102
}
330
2A
100
AcDbVisualStyle
  2
Linepattern
 70
    14
 71
     2
 72
     2
 73
     0
 90
        0
 40
-0.6
 41
-30.0
 62
     5
 63
     7
 74
     1
 91
        4
 64
     7
 65
   257
 75
     7
175
     7
 42
1.0
 92
        8
 66
     7
 43
1.0
 76
     1
 77
     6
 78
     2
 67
     7
 79
     5
170
     0
171
     0
290
     0
174
     0
 93
        1
 44
0.0
173
     0
291
     1
 45
0.0
1001
ACAD
1000
AcDbSavedByObjectVersion
1070
     0
  0
VISUALSTYLE
  5
33
102
{ACAD_REACTORS
330
2A
102
}
330
2A
100
AcDbVisualStyle
  2
Realistic
 70
     8
 71
     2
 72
     2
 73
     0
 90
        0
 40
-0.6
 41
-30.0
 62
     5
 63
     7
 74
     1
 91
        0
 64
     7
 65
   257
 75
     1
175
     1
 42
1.0
 92
        8
 66
     8
 43
1.0
 76
     1
 77
     6
 78
     2
 67
     7
 79
     5
170
     0
171
     0
290
     0
174
     0
 93
       13
 44
0.0
173
     0
291
     0
 45
0.0
1001
ACAD
1000
AcDbSavedByObjectVersion
1070
     0
  0
VISUALSTYLE
  5
37
102
{ACAD_REACTORS
330
2A
102
}
330
2A
100
AcDbVisualStyle
  2
Thicken
 70
    13
 71
     2
 72
     2
 73
     0
 90
        0
 40
-0.6
 41
-30.0
 62
     5
 63
     7
 74
     1
 91
        4
 64
     7
 65
   257
 75
     1
175
     1
 42
1.0
 92
       12
 66
     7
 43
1.0
 76
     1
 77
     6
 78
     2
 67
     7
 79
     5
170
     0
171
     0
290
     0
174
     0
 93
        1
 44
0.0
173
     0
291
     1
 45
0.0
1001
ACAD
1000
AcDbSavedByObjectVersion
1070
     0
  0
DICTIONARYVAR
  5
14F
102
{ACAD_REACTORS
330
14C
102
}
330
14C
100
DictionaryVariables
280
     0
  1
1:1
  0
ENDSEC
  0
EOF
