  0
SECTION
  2
HEADER
  9
$ACADVER
  1
AC1015
  9
$ACADMAINTVER
 70
     6
  9
$DWGCODEPAGE
  3
ANSI_1252
  9
$INSBASE
 10
0.0
 20
0.0
 30
0.0
  9
$EXTMIN
 10
0.0
 20
0.0
 30
0.0
  9
$EXTMAX
 10
297.0
 20
210.0
 30
0.0
  9
$LIMMIN
 10
0.0
 20
0.0
  9
$LIMMAX
 10
12.0
 20
9.0
  9
$ORTHOMODE
 70
     0
  9
$REGENMODE
 70
     1
  9
$FILLMODE
 70
     1
  9
$QTEXTMODE
 70
     0
  9
$MIRRTEXT
 70
     1
  9
$LTSCALE
 40
1.0
  9
$ATTMODE
 70
     1
  9
$TEXTSIZE
 40
0.2
  9
$TRACEWID
 40
0.05
  9
$TEXTSTYLE
  7
Standard
  9
$CLAYER
  8
0
  9
$CELTYPE
  6
ByLayer
  9
$CECOLOR
 62
   256
  9
$CELTSCALE
 40
1.0
  9
$DISPSILH
 70
     0
  9
$DIMSCALE
 40
1.0
  9
$DIMASZ
 40
0.18
  9
$DIMEXO
 40
0.0625
  9
$DIMDLI
 40
0.38
  9
$DIMRND
 40
0.0
  9
$DIMDLE
 40
0.0
  9
$DIMEXE
 40
0.18
  9
$DIMTP
 40
0.0
  9
$DIMTM
 40
0.0
  9
$DIMTXT
 40
0.18
  9
$DIMCEN
 40
0.09
  9
$DIMTSZ
 40
0.0
  9
$DIMTOL
 70
     0
  9
$DIMLIM
 70
     0
  9
$DIMTIH
 70
     1
  9
$DIMTOH
 70
     1
  9
$DIMSE1
 70
     0
  9
$DIMSE2
 70
     0
  9
$DIMTAD
 70
     0
  9
$DIMZIN
 70
     0
  9
$DIMBLK
  1

  9
$DIMASO
 70
     1
  9
$DIMSHO
 70
     1
  9
$DIMPOST
  1

  9
$DIMAPOST
  1

  9
$DIMALT
 70
     0
  9
$DIMALTD
 70
     2
  9
$DIMALTF
 40
25.4
  9
$DIMLFAC
 40
1.0
  9
$DIMTOFL
 70
     0
  9
$DIMTVP
 40
0.0
  9
$DIMTIX
 70
     0
  9
$DIMSOXD
 70
     0
  9
$DIMSAH
 70
     0
  9
$DIMBLK1
  1

  9
$DIMBLK2
  1

  9
$DIMSTYLE
  2
Standard
  9
$DIMCLRD
 70
     0
  9
$DIMCLRE
 70
     0
  9
$DIMCLRT
 70
     0
  9
$DIMTFAC
 40
1.0
  9
$DIMGAP
 40
0.09
  9
$DIMJUST
 70
     0
  9
$DIMSD1
 70
     0
  9
$DIMSD2
 70
     0
  9
$DIMTOLJ
 70
     1
  9
$DIMTZIN
 70
     0
  9
$DIMALTZ
 70
     0
  9
$DIMALTTZ
 70
     0
  9
$DIMUPT
 70
     0
  9
$DIMDEC
 70
     4
  9
$DIMTDEC
 70
     4
  9
$DIMALTU
 70
     2
  9
$DIMALTTD
 70
     2
  9
$DIMTXSTY
  7
Standard
  9
$DIMAUNIT
 70
     0
  9
$DIMADEC
 70
     0
  9
$DIMALTRND
 40
0.0
  9
$DIMAZIN
 70
     0
  9
$DIMDSEP
 70
    46
  9
$DIMATFIT
 70
     3
  9
$DIMFRAC
 70
     0
  9
$DIMLDRBLK
  1

  9
$DIMLUNIT
 70
     2
  9
$DIMLWD
 70
    -2
  9
$DIMLWE
 70
    -2
  9
$DIMTMOVE
 70
     0
  9
$LUNITS
 70
     2
  9
$LUPREC
 70
     4
  9
$SKETCHINC
 40
0.1
  9
$FILLETRAD
 40
0.5
  9
$AUNITS
 70
     0
  9
$AUPREC
 70
     0
  9
$MENU
  1
.
  9
$ELEVATION
 40
0.0
  9
$PELEVATION
 40
0.0
  9
$THICKNESS
 40
0.0
  9
$LIMCHECK
 70
     0
  9
$CHAMFERA
 40
0.5
  9
$CHAMFERB
 40
0.5
  9
$CHAMFERC
 40
1.0
  9
$CHAMFERD
 40
0.0
  9
$SKPOLY
 70
     0
  9
$TDCREATE
 40
2455758.476137801
  9
$TDUCREATE
 40
2455758.392804468
  9
$TDUPDATE
 40
2455758.476137813
  9
$TDUUPDATE
 40
2455758.392804479
  9
$TDINDWG
 40
0.0000000116
  9
$TDUSRTIMER
 40
0.0000000116
  9
$USRTIMER
 70
     1
  9
$ANGBASE
 50
0.0
  9
$ANGDIR
 70
     0
  9
$PDMODE
 70
     0
  9
$PDSIZE
 40
0.0
  9
$PLINEWID
 40
0.0
  9
$SPLFRAME
 70
     0
  9
$SPLINETYPE
 70
     6
  9
$SPLINESEGS
 70
     8
  9
$HANDSEED
  5
15A
  9
$SURFTAB1
 70
     6
  9
$SURFTAB2
 70
     6
  9
$SURFTYPE
 70
     6
  9
$SURFU
 70
     6
  9
$SURFV
 70
     6
  9
$UCSBASE
  2

  9
$UCSNAME
  2

  9
$UCSORG
 10
0.0
 20
0.0
 30
0.0
  9
$UCSXDIR
 10
1.0
 20
0.0
 30
0.0
  9
$UCSYDIR
 10
0.0
 20
1.0
 30
0.0
  9
$UCSORTHOREF
  2

  9
$UCSORTHOVIEW
 70
     0
  9
$UCSORGTOP
 10
0.0
 20
0.0
 30
0.0
  9
$UCSORGBOTTOM
 10
0.0
 20
0.0
 30
0.0
  9
$UCSORGLEFT
 10
0.0
 20
0.0
 30
0.0
  9
$UCSORGRIGHT
 10
0.0
 20
0.0
 30
0.0
  9
$UCSORGFRONT
 10
0.0
 20
0.0
 30
0.0
  9
$UCSORGBACK
 10
0.0
 20
0.0
 30
0.0
  9
$PUCSBASE
  2

  9
$PUCSNAME
  2

  9
$PUCSORG
 10
0.0
 20
0.0
 30
0.0
  9
$PUCSXDIR
 10
1.0
 20
0.0
 30
0.0
  9
$PUCSYDIR
 10
0.0
 20
1.0
 30
0.0
  9
$PUCSORTHOREF
  2

  9
$PUCSORTHOVIEW
 70
     0
  9
$PUCSORGTOP
 10
0.0
 20
0.0
 30
0.0
  9
$PUCSORGBOTTOM
 10
0.0
 20
0.0
 30
0.0
  9
$PUCSORGLEFT
 10
0.0
 20
0.0
 30
0.0
  9
$PUCSORGRIGHT
 10
0.0
 20
0.0
 30
0.0
  9
$PUCSORGFRONT
 10
0.0
 20
0.0
 30
0.0
  9
$PUCSORGBACK
 10
0.0
 20
0.0
 30
0.0
  9
$USERI1
 70
     0
  9
$USERI2
 70
     0
  9
$USERI3
 70
     0
  9
$USERI4
 70
     0
  9
$USERI5
 70
     0
  9
$USERR1
 40
16.5
  9
$USERR2
 40
0.0
  9
$USERR3
 40
0.0
  9
$USERR4
 40
0.0
  9
$USERR5
 40
0.0
  9
$WORLDVIEW
 70
     1
  9
$SHADEDGE
 70
     3
  9
$SHADEDIF
 70
    70
  9
$TILEMODE
 70
     1
  9
$MAXACTVP
 70
    64
  9
$PINSBASE
 10
0.0
 20
0.0
 30
0.0
  9
$PLIMCHECK
 70
     0
  9
$PEXTMIN
 10
1.00000000000000E+20
 20
1.00000000000000E+20
 30
1.00000000000000E+20
  9
$PEXTMAX
 10
-1.00000000000000E+20
 20
-1.00000000000000E+20
 30
-1.00000000000000E+20
  9
$PLIMMIN
 10
0.0
 20
0.0
  9
$PLIMMAX
 10
12.0
 20
9.0
  9
$UNITMODE
 70
     0
  9
$VISRETAIN
 70
     1
  9
$PLINEGEN
 70
     0
  9
$PSLTSCALE
 70
     1
  9
$TREEDEPTH
 70
  3020
  9
$CMLSTYLE
  2
Standard
  9
$CMLJUST
 70
     0
  9
$CMLSCALE
 40
1.0
  9
$PROXYGRAPHICS
 70
     1
  9
$MEASUREMENT
 70
     1
  9
$CELWEIGHT
370
    -1
  9
$ENDCAPS
280
     0
  9
$JOINSTYLE
280
     0
  9
$LWDISPLAY
290
     0
  9
$INSUNITS
 70
     1
  9
$HYPERLINKBASE
  1

  9
$STYLESHEET
  1

  9
$XEDIT
290
     1
  9
$CEPSNTYPE
380
     0
  9
$PSTYLEMODE
290
     1
  9
$FINGERPRINTGUID
  2
{7BD797DA-0151-4C0F-881C-25F57FE80342}
  9
$VERSIONGUID
  2
{FAEB1C32-E019-11D5-929B-00C0DF256EC4}
  9
$EXTNAMES
290
     1
  9
$PSVPSCALE
 40
0.0
  9
$OLESTARTUP
290
     0
  0
ENDSEC
  0
SECTION
  2
CLASSES
  0
CLASS
  1
ACDBDICTIONARYWDFLT
  2
AcDbDictionaryWithDefault
  3
ObjectDBX Classes
 90
        0
280
     0
281
     0
  0
CLASS
  1
VISUALSTYLE
  2
AcDbVisualStyle
  3
ObjectDBX Classes
 90
     4095
280
     0
281
     0
  0
CLASS
  1

  2
exOdDbSpline
  3

 90
        0
280
     0
281
     1
  0
CLASS
  1
SCALE
  2
AcDbScale
  3
ObjectDBX Classes
 90
     1153
280
     0
281
     0
  0
CLASS
  1
DICTIONARYVAR
  2
AcDbDictionaryVar
  3
ObjectDBX Classes
 90
        0
280
     0
281
     0
  0
CLASS
  1
ACDBPLACEHOLDER
  2
AcDbPlaceHolder
  3
ObjectDBX Classes
 90
        0
280
     0
281
     0
  0
CLASS
  1
LAYOUT
  2
AcDbLayout
  3
ObjectDBX Classes
 90
        0
280
     0
281
     0
  0
ENDSEC
  0
SECTION
  2
TABLES
  0
TABLE
  2
VPORT
  5
8
330
0
100
AcDbSymbolTable
 70
     1
  0
VPORT
  5
29
330
8
100
AcDbSymbolTableRecord
100
AcDbViewportTableRecord
  2
*Active
 70
     0
 10
0.0
 20
0.0
 11
1.0
 21
1.0
 12
148.5
 22
105.0
 13
0.0
 23
0.0
 14
0.5
 24
0.5
 15
0.5
 25
0.5
 16
0.0
 26
0.0
 36
1.0
 17
0.0
 27
0.0
 37
0.0
 40
231.0
 41
1.60267857142857
 42
50.0
 43
0.0
 44
0.0
 50
0.0
 51
0.0
 71
     0
 72
   100
 73
     1
 74
     3
 75
     0
 76
     0
 77
     0
 78
     0
281
     0
 65
     1
110
0.0
120
0.0
130
0.0
111
1.0
121
0.0
131
0.0
112
0.0
122
1.0
132
0.0
 79
     0
146
0.0
  0
ENDTAB
  0
TABLE
  2
LTYPE
  5
5
330
0
100
AcDbSymbolTable
 70
    10
  0
LTYPE
  5
14
330
5
100
AcDbSymbolTableRecord
100
AcDbLinetypeTableRecord
  2
ByBlock
 70
     0
  3

 72
    65
 73
     0
 40
0.0
  0
LTYPE
  5
15
330
5
100
AcDbSymbolTableRecord
100
AcDbLinetypeTableRecord
  2
ByLayer
 70
     0
  3

 72
    65
 73
     0
 40
0.0
  0
LTYPE
  5
16
330
5
100
AcDbSymbolTableRecord
100
AcDbLinetypeTableRecord
  2
Continuous
 70
     0
  3
Solid line
 72
    65
 73
     0
 40
0.0
  0
LTYPE
  5
3B
330
5
100
AcDbSymbolTableRecord
100
AcDbLinetypeTableRecord
  2
DASHED
 70
     0
  3
Dashed
 72
    65
 73
     2
 40
15.0
 49
7.0
 74
     0
 49
-8.0
 74
     0
  0
LTYPE
  5
3C
330
5
100
AcDbSymbolTableRecord
100
AcDbLinetypeTableRecord
  2
DOTTED
 70
     0
  3
Dotted
 72
    65
 73
     2
 40
1.0
 49
0.0
 74
     0
 49
-1.0
 74
     0
  0
LTYPE
  5
3D
330
5
100
AcDbSymbolTableRecord
100
AcDbLinetypeTableRecord
  2
DOT_CENTER
 70
     0
  3
Dot_Center
 72
    65
 73
     4
 40
14.0
 49
12.0
 74
     0
 49
-1.0
 74
     0
 49
0.0
 74
     0
 49
-1.0
 74
     0
  0
LTYPE
  5
3E
330
5
100
AcDbSymbolTableRecord
100
AcDbLinetypeTableRecord
  2
LONG_DASHED
 70
     0
  3
Long_Dashed
 72
    65
 73
     2
 40
15.0
 49
10.0
 74
     0
 49
-5.0
 74
     0
  0
LTYPE
  5
3F
330
5
100
AcDbSymbolTableRecord
100
AcDbLinetypeTableRecord
  2
DASH_CENTER
 70
     0
  3
Dash_Center
 72
    65
 73
     4
 40
14.0
 49
11.0
 74
     0
 49
-1.0
 74
     0
 49
1.0
 74
     0
 49
-1.0
 74
     0
  0
LTYPE
  5
40
330
5
100
AcDbSymbolTableRecord
100
AcDbLinetypeTableRecord
  2
PHANTOM
 70
     0
  3
Phantom
 72
    65
 73
     6
 40
13.0
 49
10.0
 74
     0
 49
-1.0
 74
     0
 49
0.0
 74
     0
 49
-1.0
 74
     0
 49
0.0
 74
     0
 49
-1.0
 74
     0
  0
LTYPE
  5
41
330
5
100
AcDbSymbolTableRecord
100
AcDbLinetypeTableRecord
  2
CENTER_DASH_DASH
 70
     0
  3
Center_Dash_Dash
 72
    65
 73
     6
 40
14.0
 49
9.0
 74
     0
 49
-1.0
 74
     0
 49
1.0
 74
     0
 49
-1.0
 74
     0
 49
1.0
 74
     0
 49
-1.0
 74
     0
  0
LTYPE
  5
42
330
5
100
AcDbSymbolTableRecord
100
AcDbLinetypeTableRecord
  2
HIDDEN
 70
     0
  3
HIDDEN
 72
    65
 73
     2
 40
4.0
 49
2.0
 74
     0
 49
-2.0
 74
     0
  0
LTYPE
  5
43
330
5
100
AcDbSymbolTableRecord
100
AcDbLinetypeTableRecord
  2
CENTER
 70
     0
  3
CENTER
 72
    65
 73
     4
 40
13.0
 49
7.0
 74
     0
 49
-2.0
 74
     0
 49
2.0
 74
     0
 49
-2.0
 74
     0
  0
ENDTAB
  0
TABLE
  2
LAYER
  5
2
330
0
100
AcDbSymbolTable
 70
     7
  0
LAYER
  5
10
330
2
100
AcDbSymbolTableRecord
100
AcDbLayerTableRecord
  2
0
 70
     0
 62
     7
  6
Continuous
370
    -3
390
F
  0
LAYER
  5
44
330
2
100
AcDbSymbolTableRecord
100
AcDbLayerTableRecord
  2
ACHSEN
 70
     0
 62
     7
  6
Continuous
370
    -3
390
F
  0
LAYER
  5
45
330
2
100
AcDbSymbolTableRecord
100
AcDbLayerTableRecord
  2
DEFAULT_1
 70
     0
 62
     7
  6
Continuous
370
    -3
390
F
  0
LAYER
  5
46
330
2
100
AcDbSymbolTableRecord
100
AcDbLayerTableRecord
  2
DEFAULT_2
 70
     0
 62
     7
  6
Continuous
370
    -3
390
F
  0
LAYER
  5
47
330
2
100
AcDbSymbolTableRecord
100
AcDbLayerTableRecord
  2
FASEN
 70
     0
 62
     7
  6
Continuous
370
    -3
390
F
  0
LAYER
  5
48
330
2
100
AcDbSymbolTableRecord
100
AcDbLayerTableRecord
  2
RUNDUNGEN
 70
     0
 62
     7
  6
Continuous
370
    -3
390
F
  0
LAYER
  5
49
330
2
100
AcDbSymbolTableRecord
100
AcDbLayerTableRecord
  2
S_ACHSEN
 70
     0
 62
     7
  6
Continuous
370
    -3
390
F
  0
ENDTAB
  0
TABLE
  2
STYLE
  5
3
330
0
100
AcDbSymbolTable
 70
     2
  0
STYLE
  5
11
330
3
100
AcDbSymbolTableRecord
100
AcDbTextStyleTableRecord
  2
Standard
 70
     0
 40
0.0
 41
1.0
 50
0.0
 71
     0
 42
0.2
  3
txt
  4

  0
STYLE
  5
F0
330
3
100
AcDbSymbolTableRecord
100
AcDbTextStyleTableRecord
  2
CONVERTER_11
 70
     0
 40
0.0
 41
0.7
 50
0.0
 71
     0
 42
0.2
  3
txt.shx
  4

  0
ENDTAB
  0
TABLE
  2
VIEW
  5
6
330
0
100
AcDbSymbolTable
 70
     0
  0
ENDTAB
  0
TABLE
  2
UCS
  5
7
330
0
100
AcDbSymbolTable
 70
     0
  0
ENDTAB
  0
TABLE
  2
APPID
  5
9
330
0
100
AcDbSymbolTable
 70
     1
  0
APPID
  5
12
330
9
100
AcDbSymbolTableRecord
100
AcDbRegAppTableRecord
  2
ACAD
 70
     0
  0
ENDTAB
  0
TABLE
  2
DIMSTYLE
  5
A
330
0
100
AcDbSymbolTable
 70
     7
100
AcDbDimStyleTable
  0
DIMSTYLE
105
27
330
A
100
AcDbSymbolTableRecord
100
AcDbDimStyleTableRecord
  2
Standard
 70
     0
340
11
  0
DIMSTYLE
105
11D
102
{ACAD_REACTORS
330
11E
102
}
330
A
100
AcDbSymbolTableRecord
100
AcDbDimStyleTableRecord
  2
ME10_DIM_10
 70
     0
 41
3.5
 73
     0
 74
     0
 77
     1
 78
    12
140
3.5
172
     1
173
     1
176
     2
177
     2
178
     5
271
     2
340
F0
  0
DIMSTYLE
105
128
102
{ACAD_REACTORS
330
129
102
}
330
A
100
AcDbSymbolTableRecord
100
AcDbDimStyleTableRecord
  2
ME10_DIM_11
 70
     0
  3
{\Fgdt;n}<>
 41
3.5
 73
     0
 74
     0
 77
     1
 78
    12
140
3.5
172
     1
173
     1
176
     2
177
     2
178
     5
271
     2
340
F0
  0
DIMSTYLE
105
133
102
{ACAD_REACTORS
330
134
102
}
330
A
100
AcDbSymbolTableRecord
100
AcDbDimStyleTableRecord
  2
ME10_DIM_12
 70
     0
 41
3.5
 73
     0
 74
     0
 77
     1
 78
    12
140
3.5
172
     1
173
     1
176
     2
177
     2
178
     5
271
     2
340
F0
  0
DIMSTYLE
105
13E
102
{ACAD_REACTORS
330
13F
102
}
330
A
100
AcDbSymbolTableRecord
100
AcDbDimStyleTableRecord
  2
ME10_DIM_13
 70
     0
  3
{\Fgdt;n}<>
 41
3.5
 73
     0
 74
     0
 77
     1
 78
    12
140
3.5
172
     1
173
     1
176
     2
177
     2
178
     5
271
     2
340
F0
  0
DIMSTYLE
105
149
102
{ACAD_REACTORS
330
14A
102
}
330
A
100
AcDbSymbolTableRecord
100
AcDbDimStyleTableRecord
  2
ME10_DIM_14
 70
     0
 41
3.5
 73
     0
 74
     0
 77
     1
 78
    12
140
3.5
172
     1
173
     1
176
     2
177
     2
178
     5
271
     2
340
F0
  0
DIMSTYLE
105
154
102
{ACAD_REACTORS
330
155
102
}
330
A
100
AcDbSymbolTableRecord
100
AcDbDimStyleTableRecord
  2
ME10_DIM_15
 70
     0
 41
3.5
 73
     0
 74
     0
 77
     1
 78
    12
140
3.5
172
     1
173
     1
176
     2
177
     2
178
     5
271
     2
340
F0
  0
ENDTAB
  0
TABLE
  2
BLOCK_RECORD
  5
1
330
0
100
AcDbSymbolTable
 70
     7
  0
BLOCK_RECORD
  5
1F
330
1
100
AcDbSymbolTableRecord
100
AcDbBlockTableRecord
  2
*Model_Space
340
22
  0
BLOCK_RECORD
  5
1B
330
1
100
AcDbSymbolTableRecord
100
AcDbBlockTableRecord
  2
*Paper_Space
340
1E
  0
BLOCK_RECORD
  5
23
330
1
100
AcDbSymbolTableRecord
100
AcDbBlockTableRecord
  2
*Paper_Space0
340
26
  0
BLOCK_RECORD
  5
114
330
1
100
AcDbSymbolTableRecord
100
AcDbBlockTableRecord
  2
*D1
340
0
  0
BLOCK_RECORD
  5
11F
330
1
100
AcDbSymbolTableRecord
100
AcDbBlockTableRecord
  2
*D2
340
0
  0
BLOCK_RECORD
  5
12A
330
1
100
AcDbSymbolTableRecord
100
AcDbBlockTableRecord
  2
*D3
340
0
  0
BLOCK_RECORD
  5
135
330
1
100
AcDbSymbolTableRecord
100
AcDbBlockTableRecord
  2
*D4
340
0
  0
BLOCK_RECORD
  5
140
330
1
100
AcDbSymbolTableRecord
100
AcDbBlockTableRecord
  2
*D5
340
0
  0
BLOCK_RECORD
  5
14B
330
1
100
AcDbSymbolTableRecord
100
AcDbBlockTableRecord
  2
*D6
340
0
  0
ENDTAB
  0
ENDSEC
  0
SECTION
  2
BLOCKS
  0
BLOCK
  5
20
330
1F
100
AcDbEntity
  8
0
100
AcDbBlockBegin
  2
*Model_Space
 70
     0
 10
0.0
 20
0.0
 30
0.0
  3
*Model_Space
  1

  0
ENDBLK
  5
21
330
1F
100
AcDbEntity
  8
0
100
AcDbBlockEnd
  0
BLOCK
  5
1C
330
1B
100
AcDbEntity
 67
     1
  8
0
100
AcDbBlockBegin
  2
*Paper_Space
 70
     0
 10
0.0
 20
0.0
 30
0.0
  3
*Paper_Space
  1

  0
ENDBLK
  5
1D
330
1B
100
AcDbEntity
 67
     1
  8
0
100
AcDbBlockEnd
  0
BLOCK
  5
24
330
23
100
AcDbEntity
  8
0
100
AcDbBlockBegin
  2
*Paper_Space0
 70
     0
 10
0.0
 20
0.0
 30
0.0
  3
*Paper_Space0
  1

  0
ENDBLK
  5
25
330
23
100
AcDbEntity
  8
0
100
AcDbBlockEnd
  0
BLOCK
  5
11B
330
114
100
AcDbEntity
  8
0
100
AcDbBlockBegin
  2
*D1
 70
     1
 10
0.0
 20
0.0
 30
0.0
  3
*D1
  1

  0
LINE
  5
115
330
114
100
AcDbEntity
  8
0
  6
Continuous
 62
     2
100
AcDbLine
 10
119.0238476563
 20
176.393800425
 30
0.0
 11
249.0238476563
 21
176.393800425
 31
0.0
  0
LINE
  5
116
330
114
100
AcDbEntity
  8
0
  6
Continuous
 62
     2
100
AcDbLine
 10
119.0238476563
 20
158.3397238475
 30
0.0
 11
119.0238476563
 21
176.573800425
 31
0.0
  0
LINE
  5
117
330
114
100
AcDbEntity
  8
0
  6
Continuous
 62
     2
100
AcDbLine
 10
249.0238476563
 20
141.2376595941
 30
0.0
 11
249.0238476563
 21
176.573800425
 31
0.0
  0
SOLID
  5
118
330
114
100
AcDbEntity
  8
0
 62
     2
100
AcDbTrace
 10
245.5238476563
 20
175.9330166834441
 30
0.0
 11
245.5238476563
 21
176.8545841665559
 31
0.0
 12
249.0238476563
 22
176.393800425
 32
0.0
 13
249.0238476563
 23
176.393800425
 33
0.0
  0
SOLID
  5
119
330
114
100
AcDbEntity
  8
0
 62
     2
100
AcDbTrace
 10
122.5238476563
 20
176.8545841665559
 30
0.0
 11
122.5238476563
 21
175.9330166834441
 31
0.0
 12
119.0238476563
 22
176.393800425
 32
0.0
 13
119.0238476563
 23
176.393800425
 33
0.0
  0
MTEXT
  5
11A
330
114
100
AcDbEntity
  8
0
 62
     5
100
AcDbMText
 10
181.0103476563
 20
179.018800425
 30
0.0
 40
3.5
 41
0.0
 71
     7
 72
     1
  1
130
  7
CONVERTER_11
 11
0.9999999999970619
 21
2.424068405545306E-6
 31
0.0
 73
     1
 44
0.60024009603842
  0
ENDBLK
  5
11C
330
114
100
AcDbEntity
  8
0
100
AcDbBlockEnd
  0
BLOCK
  5
126
330
11F
100
AcDbEntity
  8
0
100
AcDbBlockBegin
  2
*D2
 70
     1
 10
0.0
 20
0.0
 30
0.0
  3
*D2
  1

  0
LINE
  5
120
330
11F
100
AcDbEntity
  8
0
  6
Continuous
 62
     2
100
AcDbLine
 10
262.5843399411
 20
135.1642612092
 30
0.0
 11
262.5843399411
 21
103.1642612092
 31
0.0
  0
LINE
  5
121
330
11F
100
AcDbEntity
  8
0
  6
Continuous
 62
     2
100
AcDbLine
 10
237.5863476563
 20
135.1642612092
 30
0.0
 11
262.7643399411
 21
135.1642612092
 31
0.0
  0
LINE
  5
122
330
11F
100
AcDbEntity
  8
0
  6
Continuous
 62
     2
100
AcDbLine
 10
237.5863476563
 20
103.1642612092
 30
0.0
 11
262.7643399411
 21
103.1642612092
 31
0.0
  0
SOLID
  5
123
330
11F
100
AcDbEntity
  8
0
 62
     2
100
AcDbTrace
 10
262.1235561995441
 20
106.6642612092
 30
0.0
 11
263.0451236826559
 21
106.6642612092
 31
0.0
 12
262.5843399411
 22
103.1642612092
 32
0.0
 13
262.5843399411
 23
103.1642612092
 33
0.0
  0
SOLID
  5
124
330
11F
100
AcDbEntity
  8
0
 62
     2
100
AcDbTrace
 10
263.0451236826559
 20
131.6642612092
 30
0.0
 11
262.1235561995441
 21
131.6642612092
 31
0.0
 12
262.5843399411
 22
135.1642612092
 32
0.0
 13
262.5843399411
 23
135.1642612092
 33
0.0
  0
MTEXT
  5
125
330
11F
100
AcDbEntity
  8
0
 62
     5
100
AcDbMText
 10
259.9593399411
 20
111.5587612092
 30
0.0
 40
3.5
 41
0.0
 71
     7
 72
     1
  1
\C5;{\Fgdt;n}\C5;32
  7
CONVERTER_11
 11
0.0
 21
1.0
 31
0.0
 73
     1
 44
0.60024009603842
  0
ENDBLK
  5
127
330
11F
100
AcDbEntity
  8
0
100
AcDbBlockEnd
  0
BLOCK
  5
131
330
12A
100
AcDbEntity
  8
0
100
AcDbBlockBegin
  2
*D3
 70
     1
 10
0.0
 20
0.0
 30
0.0
  3
*D3
  1

  0
LINE
  5
12B
330
12A
100
AcDbEntity
  8
0
  6
Continuous
 62
     2
100
AcDbLine
 10
119.0238476563
 20
167.5750514999
 30
0.0
 11
236.0238476563
 21
167.5750514999
 31
0.0
  0
LINE
  5
12C
330
12A
100
AcDbEntity
  8
0
  6
Continuous
 62
     2
100
AcDbLine
 10
119.0238476563
 20
152.0717301315
 30
0.0
 11
119.0238476563
 21
167.7550514999
 31
0.0
  0
LINE
  5
12D
330
12A
100
AcDbEntity
  8
0
  6
Continuous
 62
     2
100
AcDbLine
 10
236.0238476563
 20
100.7267612092
 30
0.0
 11
236.0238476563
 21
167.7550514999
 31
0.0
  0
SOLID
  5
12E
330
12A
100
AcDbEntity
  8
0
 62
     2
100
AcDbTrace
 10
232.5238476563
 20
167.1142677583441
 30
0.0
 11
232.5238476563
 21
168.0358352414559
 31
0.0
 12
236.0238476563
 22
167.5750514999
 32
0.0
 13
236.0238476563
 23
167.5750514999
 33
0.0
  0
SOLID
  5
12F
330
12A
100
AcDbEntity
  8
0
 62
     2
100
AcDbTrace
 10
122.5238476563
 20
168.0358352414559
 30
0.0
 11
122.5238476563
 21
167.1142677583441
 31
0.0
 12
119.0238476563
 22
167.5750514999
 32
0.0
 13
119.0238476563
 23
167.5750514999
 33
0.0
  0
MTEXT
  5
130
330
12A
100
AcDbEntity
  8
0
 62
     5
100
AcDbMText
 10
174.5103476563
 20
170.2000514999
 30
0.0
 40
3.5
 41
0.0
 71
     7
 72
     1
  1
117
  7
CONVERTER_11
 11
0.9999999999970619
 21
2.424068405545306E-6
 31
0.0
 73
     1
 44
0.60024009603842
  0
ENDBLK
  5
132
330
12A
100
AcDbEntity
  8
0
100
AcDbBlockEnd
  0
BLOCK
  5
13C
330
135
100
AcDbEntity
  8
0
100
AcDbBlockBegin
  2
*D4
 70
     1
 10
0.0
 20
0.0
 30
0.0
  3
*D4
  1

  0
LINE
  5
136
330
135
100
AcDbEntity
  8
0
  6
Continuous
 62
     2
100
AcDbLine
 10
271.3234594508
 20
95.1892612092
 30
0.0
 11
271.3234594508
 21
143.1392612092
 31
0.0
  0
LINE
  5
137
330
135
100
AcDbEntity
  8
0
  6
Continuous
 62
     2
100
AcDbLine
 10
214.6113476563
 20
95.1892612092
 30
0.0
 11
271.5034594508
 21
95.1892612092
 31
0.0
  0
LINE
  5
138
330
135
100
AcDbEntity
  8
0
  6
Continuous
 62
     2
100
AcDbLine
 10
214.6113476563
 20
143.1392612092
 30
0.0
 11
271.5034594508
 21
143.1392612092
 31
0.0
  0
SOLID
  5
139
330
135
100
AcDbEntity
  8
0
 62
     2
100
AcDbTrace
 10
271.7842431923559
 20
139.6392612092
 30
0.0
 11
270.8626757092441
 21
139.6392612092
 31
0.0
 12
271.3234594508
 22
143.1392612092
 32
0.0
 13
271.3234594508
 23
143.1392612092
 33
0.0
  0
SOLID
  5
13A
330
135
100
AcDbEntity
  8
0
 62
     2
100
AcDbTrace
 10
270.8626757092441
 20
98.6892612092
 30
0.0
 11
271.7842431923559
 21
98.6892612092
 31
0.0
 12
271.3234594508
 22
95.1892612092
 32
0.0
 13
271.3234594508
 23
95.1892612092
 33
0.0
  0
MTEXT
  5
13B
330
135
100
AcDbEntity
  8
0
 62
     5
100
AcDbMText
 10
268.6984594508
 20
111.5587612092
 30
0.0
 40
3.5
 41
0.0
 71
     7
 72
     1
  1
\C5;{\Fgdt;n}\C5;48
  7
CONVERTER_11
 11
0.0
 21
1.0
 31
0.0
 73
     1
 44
0.60024009603842
  0
ENDBLK
  5
13D
330
135
100
AcDbEntity
  8
0
100
AcDbBlockEnd
  0
BLOCK
  5
147
330
140
100
AcDbEntity
  8
0
100
AcDbBlockBegin
  2
*D5
 70
     1
 10
0.0
 20
0.0
 30
0.0
  3
*D5
  1

  0
LINE
  5
141
330
140
100
AcDbEntity
  8
0
  6
Continuous
 62
     2
100
AcDbLine
 10
81.0238476563
 20
183.8210929149
 30
0.0
 11
236.0238476563
 21
183.8210929149
 31
0.0
  0
LINE
  5
142
330
140
100
AcDbEntity
  8
0
  6
Continuous
 62
     2
100
AcDbLine
 10
81.0238476563
 20
139.488966627
 30
0.0
 11
81.0238476563
 21
184.0010929149
 31
0.0
  0
LINE
  5
143
330
140
100
AcDbEntity
  8
0
  6
Continuous
 62
     2
100
AcDbLine
 10
236.0238476563
 20
100.7267612092
 30
0.0
 11
236.0238476563
 21
184.0010929149
 31
0.0
  0
SOLID
  5
144
330
140
100
AcDbEntity
  8
0
 62
     2
100
AcDbTrace
 10
232.5238476563
 20
183.3603091733441
 30
0.0
 11
232.5238476563
 21
184.2818766564559
 31
0.0
 12
236.0238476563
 22
183.8210929149
 32
0.0
 13
236.0238476563
 23
183.8210929149
 33
0.0
  0
SOLID
  5
145
330
140
100
AcDbEntity
  8
0
 62
     2
100
AcDbTrace
 10
84.5238476563
 20
184.2818766564559
 30
0.0
 11
84.5238476563
 21
183.3603091733441
 31
0.0
 12
81.0238476563
 22
183.8210929149
 32
0.0
 13
81.0238476563
 23
183.8210929149
 33
0.0
  0
MTEXT
  5
146
330
140
100
AcDbEntity
  8
0
 62
     5
100
AcDbMText
 10
155.5103476563
 20
186.4460929149
 30
0.0
 40
3.5
 41
0.0
 71
     7
 72
     1
  1
155
  7
CONVERTER_11
 11
0.9999999999970619
 21
2.424068405545306E-6
 31
0.0
 73
     1
 44
0.60024009603842
  0
ENDBLK
  5
148
330
140
100
AcDbEntity
  8
0
100
AcDbBlockEnd
  0
BLOCK
  5
152
330
14B
100
AcDbEntity
  8
0
100
AcDbBlockBegin
  2
*D6
 70
     1
 10
0.0
 20
0.0
 30
0.0
  3
*D6
  1

  0
LINE
  5
14C
330
14B
100
AcDbEntity
  8
0
  6
Continuous
 62
     2
100
AcDbLine
 10
141.0238476563
 20
159.1101857886
 30
0.0
 11
236.0238476563
 21
159.1101857886
 31
0.0
  0
LINE
  5
14D
330
14B
100
AcDbEntity
  8
0
  6
Continuous
 62
     2
100
AcDbLine
 10
141.0238476563
 20
144.3049648445
 30
0.0
 11
141.0238476563
 21
159.2901857886
 31
0.0
  0
LINE
  5
14E
330
14B
100
AcDbEntity
  8
0
  6
Continuous
 62
     2
100
AcDbLine
 10
236.0238476563
 20
100.7267612092
 30
0.0
 11
236.0238476563
 21
159.2901857886
 31
0.0
  0
SOLID
  5
14F
330
14B
100
AcDbEntity
  8
0
 62
     2
100
AcDbTrace
 10
232.5238476563
 20
158.6494020470441
 30
0.0
 11
232.5238476563
 21
159.5709695301559
 31
0.0
 12
236.0238476563
 22
159.1101857886
 32
0.0
 13
236.0238476563
 23
159.1101857886
 33
0.0
  0
SOLID
  5
150
330
14B
100
AcDbEntity
  8
0
 62
     2
100
AcDbTrace
 10
144.5238476563
 20
159.5709695301559
 30
0.0
 11
144.5238476563
 21
158.6494020470441
 31
0.0
 12
141.0238476563
 22
159.1101857886
 32
0.0
 13
141.0238476563
 23
159.1101857886
 33
0.0
  0
MTEXT
  5
151
330
14B
100
AcDbEntity
  8
0
 62
     5
100
AcDbMText
 10
186.5148476563
 20
161.7351857886
 30
0.0
 40
3.5
 41
0.0
 71
     7
 72
     1
  1
95
  7
CONVERTER_11
 11
0.9999999999970619
 21
2.424068405545306E-6
 31
0.0
 73
     1
 44
0.60024009603842
  0
ENDBLK
  5
153
330
14B
100
AcDbEntity
  8
0
100
AcDbBlockEnd
  0
ENDSEC
  0
SECTION
  2
ENTITIES
  0
POINT
  5
4A
330
1F
100
AcDbEntity
  8
0
 62
     7
100
AcDbPoint
 10
119.0238476563
 20
158.2772238475
 30
0.0
  0
POINT
  5
4B
330
1F
100
AcDbEntity
  8
0
 62
     7
100
AcDbPoint
 10
249.0238476563
 20
141.1751595941
 30
0.0
  0
POINT
  5
4C
330
1F
100
AcDbEntity
  8
0
 62
     7
100
AcDbPoint
 10
237.5238476563
 20
135.1642612092
 30
0.0
  0
POINT
  5
4D
330
1F
100
AcDbEntity
  8
0
 62
     7
100
AcDbPoint
 10
237.5238476563
 20
103.1642612092
 30
0.0
  0
POINT
  5
4E
330
1F
100
AcDbEntity
  8
0
 62
     7
100
AcDbPoint
 10
119.0238476563
 20
152.0092301315
 30
0.0
  0
POINT
  5
4F
330
1F
100
AcDbEntity
  8
0
 62
     7
100
AcDbPoint
 10
236.0238476563
 20
100.6642612092
 30
0.0
  0
POINT
  5
50
330
1F
100
AcDbEntity
  8
0
 62
     7
100
AcDbPoint
 10
214.5488476563
 20
95.1892612092
 30
0.0
  0
POINT
  5
51
330
1F
100
AcDbEntity
  8
0
 62
     7
100
AcDbPoint
 10
214.5488476563
 20
143.1392612092
 30
0.0
  0
POINT
  5
52
330
1F
100
AcDbEntity
  8
0
 62
     7
100
AcDbPoint
 10
81.0238476563
 20
139.426466627
 30
0.0
  0
POINT
  5
53
330
1F
100
AcDbEntity
  8
0
 62
     7
100
AcDbPoint
 10
236.0238476563
 20
100.6642612092
 30
0.0
  0
POINT
  5
54
330
1F
100
AcDbEntity
  8
0
 62
     7
100
AcDbPoint
 10
141.0238476563
 20
144.2424648445
 30
0.0
  0
POINT
  5
55
330
1F
100
AcDbEntity
  8
0
 62
     7
100
AcDbPoint
 10
236.0238476563
 20
100.6642612092
 30
0.0
  0
LINE
  5
56
330
1F
100
AcDbEntity
  8
DEFAULT_2
  6
HIDDEN
 62
     8
100
AcDbLine
 10
206.6729475514
 20
131.0392612092
 30
0.0
 11
206.6729475514
 21
107.2892612092
 31
0.0
  0
LINE
  5
57
330
1F
100
AcDbEntity
  8
0
  6
Continuous
 62
     7
100
AcDbLine
 10
117.034249288
 20
95.7388764033
 30
0.0
 11
117.2768764071
 21
96.2875323339
 31
0.0
  0
LINE
  5
58
330
1F
100
AcDbEntity
  8
FASEN
  6
Continuous
 62
     7
100
AcDbLine
 10
125.8014040563
 20
150.6642266979
 30
0.0
 11
126.0924872522
 21
150.616699884
 31
0.0
  0
LINE
  5
59
330
1F
100
AcDbEntity
  8
ACHSEN
  6
Continuous
 62
     7
100
AcDbLine
 10
89.3024179418
 20
139.0929190144
 30
0.0
 11
89.2874965544267
 21
139.090817456849
 31
0.0
  0
LINE
  5
5A
330
1F
100
AcDbEntity
  8
ACHSEN
  6
Continuous
 62
     7
100
AcDbLine
 10
89.2874670042
 20
139.090813285
 30
0.0
 11
89.3024179422
 21
139.0929190145
 31
0.0
  0
LINE
  5
5B
330
1F
100
AcDbEntity
  8
ACHSEN
  6
Continuous
 62
     7
100
AcDbLine
 10
89.164618688
 20
139.0733006278
 30
0.0
 11
89.2874670042
 21
139.090813285
 31
0.0
  0
LINE
  5
5C
330
1F
100
AcDbEntity
  8
ACHSEN
  6
Continuous
 62
     7
100
AcDbLine
 10
87.3738476562351
 20
138.768312507808
 30
0.0
 11
82.5238476563
 21
138.6612508227
 31
0.0
  0
LINE
  5
5D
330
1F
100
AcDbEntity
  8
FASEN
  6
Continuous
 62
     7
100
AcDbLine
 10
136.2075494695
 20
150.6577689185
 30
0.0
 11
136.2462912572
 21
150.6642266976
 31
0.0
  0
LINE
  5
5E
330
1F
100
AcDbEntity
  8
FASEN
  6
Continuous
 62
     7
100
AcDbLine
 10
125.840145842964
 20
150.65776891853
 30
0.0
 11
125.8014040553
 21
150.6642266976
 31
0.0
  0
LINE
  5
5F
330
1F
100
AcDbEntity
  8
DEFAULT_1
  6
CENTER
 62
     5
100
AcDbLine
 10
247.0238476563
 20
143.1392612092
 30
0.0
 11
249.0238476563
 21
139.6751595941
 31
0.0
  0
LINE
  5
60
330
1F
100
AcDbEntity
  8
DEFAULT_1
  6
CENTER
 62
     5
100
AcDbLine
 10
247.0238476563
 20
95.1892612092
 30
0.0
 11
249.0238476563
 21
98.6533628243
 31
0.0
  0
LINE
  5
61
330
1F
100
AcDbEntity
  8
DEFAULT_1
  6
CENTER
 62
     5
100
AcDbLine
 10
249.0238476563
 20
139.6751595941
 30
0.0
 11
249.0238476563
 21
98.6533628243
 31
0.0
  0
LINE
  5
62
330
1F
100
AcDbEntity
  8
FASEN
  6
Continuous
 62
     7
100
AcDbLine
 10
236.0238476576
 20
137.6642612069
 30
0.0
 11
235.1578222539
 21
139.1642612067
 31
0.0
  0
LINE
  5
63
330
1F
100
AcDbEntity
  8
DEFAULT_1
  6
CENTER
 62
     5
100
AcDbLine
 10
245.0609771591
 20
139.4542612092
 30
0.0
 11
249.0238476563
 21
135.876044831
 31
0.0
  0
LINE
  5
64
330
1F
100
AcDbEntity
  8
FASEN
  6
Continuous
 62
     7
100
AcDbLine
 10
236.0238476578
 20
100.6642612118
 30
0.0
 11
235.1578222541
 21
99.164261212
 31
0.0
  0
LINE
  5
65
330
1F
100
AcDbEntity
  8
FASEN
  6
Continuous
 62
     7
100
AcDbLine
 10
236.0238476563
 20
100.6642612092
 30
0.0
 11
236.0238476563
 21
137.6642612089
 31
0.0
  0
LINE
  5
66
330
1F
100
AcDbEntity
  8
0
  6
Continuous
 62
     7
100
AcDbLine
 10
235.6889845001
 20
138.2442612092
 30
0.0
 11
235.6889845001
 21
100.0842612092
 31
0.0
  0
LINE
  5
67
330
1F
100
AcDbEntity
  8
FASEN
  6
Continuous
 62
     7
100
AcDbLine
 10
235.1578222525
 20
99.1642612092
 30
0.0
 11
235.1578222525
 21
139.1642612092
 31
0.0
  0
LINE
  5
68
330
1F
100
AcDbEntity
  8
DEFAULT_1
  6
CENTER
 62
     5
100
AcDbLine
 10
241.0938476563
 20
100.0842612092
 30
0.0
 11
241.7609771591
 21
98.8742612092
 31
0.0
  0
LINE
  5
69
330
1F
100
AcDbEntity
  8
DEFAULT_1
  6
CENTER
 62
     5
100
AcDbLine
 10
245.0609771591
 20
98.8742612092
 30
0.0
 11
249.0238476563
 21
102.4524775874
 31
0.0
  0
LINE
  5
6A
330
1F
100
AcDbEntity
  8
DEFAULT_1
  6
CENTER
 62
     5
100
AcDbLine
 10
227.1838476563
 20
139.1642612092
 30
0.0
 11
227.1838476563
 21
141.1392612092
 31
0.0
  0
LINE
  5
6B
330
1F
100
AcDbEntity
  8
DEFAULT_1
  6
CENTER
 62
     5
100
AcDbLine
 10
227.1838476563
 20
97.1892612092
 30
0.0
 11
227.1838476563
 21
99.1642612092
 31
0.0
  0
LINE
  5
6C
330
1F
100
AcDbEntity
  8
0
  6
Continuous
 62
     7
100
AcDbLine
 10
213.9275273127
 20
142.2605815528
 30
0.0
 11
216.7309544374
 21
139.457154428
 31
0.0
  0
LINE
  5
6D
330
1F
100
AcDbEntity
  8
DEFAULT_1
  6
CENTER
 62
     5
100
AcDbLine
 10
241.0938476563
 20
138.2442612092
 30
0.0
 11
241.7609771591
 21
139.4542612092
 31
0.0
  0
LINE
  5
6E
330
1F
100
AcDbEntity
  8
0
  6
Continuous
 62
     7
100
AcDbLine
 10
219.5238476563
 20
139.1642612092
 30
0.0
 11
219.5238476563
 21
99.1642612092
 31
0.0
  0
LINE
  5
6F
330
1F
100
AcDbEntity
  8
0
  6
Continuous
 62
     7
100
AcDbLine
 10
213.9275273127
 20
96.0679408656
 30
0.0
 11
216.7309544374
 21
98.8713679904
 31
0.0
  0
LINE
  5
70
330
1F
100
AcDbEntity
  8
RUNDUNGEN
  6
Continuous
 62
     7
100
AcDbLine
 10
216.7309544374
 20
98.8713679904
 30
0.0
 11
213.9275273127
 21
96.0679408656
 31
0.0
  0
LINE
  5
71
330
1F
100
AcDbEntity
  8
RUNDUNGEN
  6
Continuous
 62
     9
100
AcDbLine
 10
217.4380612186
 20
139.1642612092
 30
0.0
 11
217.4380612186
 21
99.1642612092
 31
0.0
  0
LINE
  5
72
330
1F
100
AcDbEntity
  8
RUNDUNGEN
  6
Continuous
 62
     9
100
AcDbLine
 10
216.7309544374
 20
139.457154428
 30
0.0
 11
216.7309544374
 21
98.8713679904
 31
0.0
  0
LINE
  5
73
330
1F
100
AcDbEntity
  8
RUNDUNGEN
  6
Continuous
 62
     9
100
AcDbLine
 10
213.9275273127
 20
96.0679408656
 30
0.0
 11
213.9275273127
 21
142.2605815528
 31
0.0
  0
LINE
  5
74
330
1F
100
AcDbEntity
  8
RUNDUNGEN
  6
Continuous
 62
     9
100
AcDbLine
 10
211.8062069691
 20
95.1892612092
 30
0.0
 11
211.8062069691
 21
143.1392612092
 31
0.0
  0
LINE
  5
75
330
1F
100
AcDbEntity
  8
0
  6
Continuous
 62
     7
100
AcDbLine
 10
125.801936628
 20
150.6642612092
 30
0.0
 11
119.3238477286
 21
150.6642612092
 31
0.0
  0
LINE
  5
76
330
1F
100
AcDbEntity
  8
0
  6
Continuous
 62
     7
100
AcDbLine
 10
141.0238476563
 20
150.6642612092
 30
0.0
 11
136.2457586845
 21
150.6642612092
 31
0.0
  0
LINE
  5
77
330
1F
100
AcDbEntity
  8
0
  6
Continuous
 62
     7
100
AcDbLine
 10
132.4851725217
 20
149.2448539695
 30
0.0
 11
129.5625227908
 21
149.2448539695
 31
0.0
  0
LINE
  5
78
330
1F
100
AcDbEntity
  8
DEFAULT_2
  6
HIDDEN
 62
     8
100
AcDbLine
 10
201.5238476563
 20
131.0392612092
 30
0.0
 11
201.5238476563
 21
107.2892612092
 31
0.0
  0
LINE
  5
79
330
1F
100
AcDbEntity
  8
DEFAULT_1
  6
CENTER
 62
     5
100
AcDbLine
 10
229.1838476563
 20
143.1392612092
 30
0.0
 11
247.0238476563
 21
143.1392612092
 31
0.0
  0
LINE
  5
7A
330
1F
100
AcDbEntity
  8
0
  6
Continuous
 62
     7
100
AcDbLine
 10
143.5238476563
 20
143.1392612092
 30
0.0
 11
211.8062069691
 21
143.1392612092
 31
0.0
  0
LINE
  5
7B
330
1F
100
AcDbEntity
  8
DEFAULT_1
  6
CENTER
 62
     5
100
AcDbLine
 10
241.7609771591
 20
139.4542612092
 30
0.0
 11
245.0609771591
 21
139.4542612092
 31
0.0
  0
LINE
  5
7C
330
1F
100
AcDbEntity
  8
0
  6
Continuous
 62
     7
100
AcDbLine
 10
217.4380612186
 20
139.1642612092
 30
0.0
 11
235.1578222525
 21
139.1642612092
 31
0.0
  0
LINE
  5
7D
330
1F
100
AcDbEntity
  8
DEFAULT_1
  6
CENTER
 62
     5
100
AcDbLine
 10
235.6889845001
 20
138.2442612092
 30
0.0
 11
241.0938476563
 21
138.2442612092
 31
0.0
  0
LINE
  5
7E
330
1F
100
AcDbEntity
  8
0
  6
Continuous
 62
     2
100
AcDbLine
 10
219.5238476563
 20
138.2442612092
 30
0.0
 11
235.6889845001
 21
138.2442612092
 31
0.0
  0
LINE
  5
7F
330
1F
100
AcDbEntity
  8
0
  6
Continuous
 62
     7
100
AcDbLine
 10
117.2768764071
 20
133.8540326419
 30
0.0
 11
117.0288707674
 21
133.849203414
 31
0.0
  0
LINE
  5
80
330
1F
100
AcDbEntity
  8
0
  6
Continuous
 62
     9
100
AcDbLine
 10
82.5238476563
 20
134.8755058479
 30
0.0
 11
116.8239107453
 21
135.6217919578
 31
0.0
  0
LINE
  5
81
330
1F
100
AcDbEntity
  8
0
  6
Continuous
 62
     7
100
AcDbLine
 10
108.2032089895
 20
139.5677795446
 30
0.0
 11
116.8239107453
 21
139.7843615788
 31
0.0
  0
LINE
  5
82
330
1F
100
AcDbEntity
  8
0
  6
Continuous
 62
     7
100
AcDbLine
 10
89.2874524104
 20
139.0925498993
 30
0.0
 11
99.0738476563
 21
139.3384182114
 31
0.0
  0
LINE
  5
83
330
1F
100
AcDbEntity
  8
0
  6
Continuous
 62
     7
100
AcDbLine
 10
117.0288707674
 20
139.589447779
 30
0.0
 11
118.6288707674
 21
139.6296453481
 31
0.0
  0
LINE
  5
84
330
1F
100
AcDbEntity
  8
DEFAULT_2
  6
HIDDEN
 62
     8
100
AcDbLine
 10
206.6729475514
 20
131.0392612092
 30
0.0
 11
201.5238476563
 21
131.0392612092
 31
0.0
  0
LINE
  5
85
330
1F
100
AcDbEntity
  8
0
  6
Continuous
 62
     7
100
AcDbLine
 10
132.4851725217
 20
128.5134825237
 30
0.0
 11
129.5625227908
 21
128.5134825237
 31
0.0
  0
LINE
  5
86
330
1F
100
AcDbEntity
  8
0
  6
Continuous
 62
     9
100
AcDbLine
 10
81.0238476563
 20
124.3891323398
 30
0.0
 11
116.8239107453
 21
124.3891323398
 31
0.0
  0
LINE
  5
87
330
1F
100
AcDbEntity
  8
0
  6
Continuous
 62
     7
100
AcDbLine
 10
117.0288707674
 20
127.3502043959
 30
0.0
 11
117.2768764071
 21
127.3512186518
 31
0.0
  0
LINE
  5
88
330
1F
100
AcDbEntity
  8
DEFAULT_2
  6
HIDDEN
 62
     8
100
AcDbLine
 10
206.6729475514
 20
131.0392612092
 30
0.0
 11
235.5287136219
 21
135.0946746587
 31
0.0
  0
LINE
  5
89
330
1F
100
AcDbEntity
  8
FASEN
  6
HIDDEN
 62
     8
100
AcDbLine
 10
235.5287136219
 20
135.0946746587
 30
0.0
 11
206.6729475514
 21
131.0392612092
 31
0.0
  0
LINE
  5
8A
330
1F
100
AcDbEntity
  8
S_ACHSEN
  6
CENTER
 62
     7
100
AcDbLine
 10
78.0238476563
 20
119.1642612092
 30
0.0
 11
252.0238476563
 21
119.1642612092
 31
0.0
  0
LINE
  5
8B
330
1F
100
AcDbEntity
  8
DEFAULT_2
  6
HIDDEN
 62
     8
100
AcDbLine
 10
206.6729475514
 20
107.2892612092
 30
0.0
 11
235.5287136219
 21
103.2338477597
 31
0.0
  0
LINE
  5
8C
330
1F
100
AcDbEntity
  8
FASEN
  6
HIDDEN
 62
     8
100
AcDbLine
 10
235.5287136219
 20
103.2338477597
 30
0.0
 11
206.6729475514
 21
107.2892612092
 31
0.0
  0
LINE
  5
8D
330
1F
100
AcDbEntity
  8
0
  6
Continuous
 62
     7
100
AcDbLine
 10
132.4851725217
 20
109.8150398947
 30
0.0
 11
129.5625227908
 21
109.8150398947
 31
0.0
  0
LINE
  5
8E
330
1F
100
AcDbEntity
  8
DEFAULT_2
  6
HIDDEN
 62
     8
100
AcDbLine
 10
206.6729475514
 20
107.2892612092
 30
0.0
 11
201.5238476563
 21
107.2892612092
 31
0.0
  0
LINE
  5
8F
330
1F
100
AcDbEntity
  8
0
  6
Continuous
 62
     9
100
AcDbLine
 10
116.8239107453
 20
97.48185933
 30
0.0
 11
82.5238476563
 21
98.2281454399
 31
0.0
  0
LINE
  5
90
330
1F
100
AcDbEntity
  8
DEFAULT_1
  6
CENTER
 62
     5
100
AcDbLine
 10
235.6889845001
 20
100.0842612092
 30
0.0
 11
241.0938476563
 21
100.0842612092
 31
0.0
  0
LINE
  5
91
330
1F
100
AcDbEntity
  8
0
  6
Continuous
 62
     2
100
AcDbLine
 10
219.5238476563
 20
100.0842612092
 30
0.0
 11
235.6889845001
 21
100.0842612092
 31
0.0
  0
LINE
  5
92
330
1F
100
AcDbEntity
  8
0
  6
Continuous
 62
     7
100
AcDbLine
 10
217.4380612186
 20
99.1642612092
 30
0.0
 11
235.1578222525
 21
99.1642612092
 31
0.0
  0
LINE
  5
93
330
1F
100
AcDbEntity
  8
RUNDUNGEN
  6
Continuous
 62
     7
100
AcDbLine
 10
235.1578222525
 20
99.1642612092
 30
0.0
 11
217.4380612186
 21
99.1642612092
 31
0.0
  0
LINE
  5
94
330
1F
100
AcDbEntity
  8
DEFAULT_1
  6
CENTER
 62
     5
100
AcDbLine
 10
241.7609771591
 20
98.8742612092
 30
0.0
 11
245.0609771591
 21
98.8742612092
 31
0.0
  0
LINE
  5
95
330
1F
100
AcDbEntity
  8
0
  6
Continuous
 62
     7
100
AcDbLine
 10
82.5238476563
 20
96.6058978125
 30
0.0
 11
117.0342504791
 21
95.7388763734
 31
0.0
  0
LINE
  5
96
330
1F
100
AcDbEntity
  8
0
  6
Continuous
 62
     7
100
AcDbLine
 10
117.2768764071
 20
96.2875323339
 30
0.0
 11
117.0288707674
 21
96.2933758177
 31
0.0
  0
LINE
  5
97
330
1F
100
AcDbEntity
  8
0
  6
Continuous
 62
     7
100
AcDbLine
 10
143.5238476563
 20
95.1892612092
 30
0.0
 11
211.8062069691
 21
95.1892612092
 31
0.0
  0
LINE
  5
98
330
1F
100
AcDbEntity
  8
RUNDUNGEN
  6
Continuous
 62
     7
100
AcDbLine
 10
211.8062069691
 20
95.1892612092
 30
0.0
 11
143.5238476563
 21
95.1892612092
 31
0.0
  0
LINE
  5
99
330
1F
100
AcDbEntity
  8
DEFAULT_1
  6
CENTER
 62
     5
100
AcDbLine
 10
247.0238476563
 20
95.1892612092
 30
0.0
 11
229.1838476563
 21
95.1892612092
 31
0.0
  0
LINE
  5
9A
330
1F
100
AcDbEntity
  8
0
  6
Continuous
 62
     7
100
AcDbLine
 10
132.4851725217
 20
89.0836684489
 30
0.0
 11
129.5625227908
 21
89.0836684489
 31
0.0
  0
LINE
  5
9B
330
1F
100
AcDbEntity
  8
0
  6
Continuous
 62
     7
100
AcDbLine
 10
117.7167408751
 20
96.4213679904
 30
0.0
 11
117.0342504788
 21
95.7388775941
 31
0.0
  0
LINE
  5
9C
330
1F
100
AcDbEntity
  8
RUNDUNGEN
  6
Continuous
 62
     9
100
AcDbLine
 10
143.5238476563
 20
143.1392612092
 30
0.0
 11
143.5238476563
 21
95.1892612092
 31
0.0
  0
LINE
  5
9D
330
1F
100
AcDbEntity
  8
0
  6
Continuous
 62
     7
100
AcDbLine
 10
141.0238476563
 20
87.6642612092
 30
0.0
 11
141.0238476563
 21
150.6642612092
 31
0.0
  0
LINE
  5
9E
330
1F
100
AcDbEntity
  8
0
  6
Continuous
 62
     7
100
AcDbLine
 10
141.0238476563
 20
87.6642612092
 30
0.0
 11
119.3238477286
 21
87.6642612092
 31
0.0
  0
LINE
  5
9F
330
1F
100
AcDbEntity
  8
0
  6
Continuous
 62
     9
100
AcDbLine
 10
132.9181852235
 20
109.2948485902
 30
0.0
 11
132.9181852235
 21
89.2503063627
 31
0.0
  0
LINE
  5
A0
330
1F
100
AcDbEntity
  8
0
  6
Continuous
 62
     9
100
AcDbLine
 10
132.9181852235
 20
149.0782160557
 30
0.0
 11
132.9181852235
 21
129.0336738282
 31
0.0
  0
LINE
  5
A1
330
1F
100
AcDbEntity
  8
0
  6
Continuous
 62
     9
100
AcDbLine
 10
132.4851725217
 20
109.8150398947
 30
0.0
 11
132.4851725217
 21
89.0836684489
 31
0.0
  0
LINE
  5
A2
330
1F
100
AcDbEntity
  8
0
  6
Continuous
 62
     9
100
AcDbLine
 10
132.4851725217
 20
149.2448539695
 30
0.0
 11
132.4851725217
 21
128.5134825237
 31
0.0
  0
LINE
  5
A3
330
1F
100
AcDbEntity
  8
ACHSEN
  6
CENTER
 62
     7
100
AcDbLine
 10
131.0238476563
 20
146.4625399711
 30
0.0
 11
131.0238476563
 21
153.6642612092
 31
0.0
  0
LINE
  5
A4
330
1F
100
AcDbEntity
  8
0
  6
Continuous
 62
     9
100
AcDbLine
 10
129.5625227908
 20
109.8150398947
 30
0.0
 11
129.5625227908
 21
89.0836684489
 31
0.0
  0
LINE
  5
A5
330
1F
100
AcDbEntity
  8
0
  6
Continuous
 62
     9
100
AcDbLine
 10
129.5625227908
 20
149.2448539695
 30
0.0
 11
129.5625227908
 21
128.5134825237
 31
0.0
  0
LINE
  5
A6
330
1F
100
AcDbEntity
  8
0
  6
Continuous
 62
     9
100
AcDbLine
 10
129.129510089
 20
109.2948485902
 30
0.0
 11
129.129510089
 21
89.2503063627
 31
0.0
  0
LINE
  5
A7
330
1F
100
AcDbEntity
  8
0
  6
Continuous
 62
     9
100
AcDbLine
 10
129.129510089
 20
149.0782160557
 30
0.0
 11
129.129510089
 21
129.0336738282
 31
0.0
  0
LINE
  5
A8
330
1F
100
AcDbEntity
  8
0
  6
Continuous
 62
     7
100
AcDbLine
 10
119.0238494922
 20
87.9642631165
 30
0.0
 11
119.3238495821
 21
87.6642630626
 31
0.0
  0
LINE
  5
A9
330
1F
100
AcDbEntity
  8
0
  6
Continuous
 62
     9
100
AcDbLine
 10
82.5238476563
 20
98.2281454399
 30
0.0
 11
81.0238476563
 21
98.9781454399
 31
0.0
  0
LINE
  5
AA
330
1F
100
AcDbEntity
  8
0
  6
Continuous
 62
     7
100
AcDbLine
 10
118.8237828044
 20
97.7540931178
 30
0.0
 11
118.8237516899
 21
123.7894864233
 31
0.0
  0
LINE
  5
AB
330
1F
100
AcDbEntity
  8
0
  6
Continuous
 62
     7
100
AcDbLine
 10
118.8237828044
 20
135.9538357949
 30
0.0
 11
118.8238476563
 21
141.6977460702
 31
0.0
  0
LINE
  5
AC
330
1F
100
AcDbEntity
  8
0
  6
Continuous
 62
     7
100
AcDbLine
 10
119.3238477298
 20
87.6642612092
 30
0.0
 11
119.3238477298
 21
150.6642612092
 31
0.0
  0
LINE
  5
AD
330
1F
100
AcDbEntity
  8
0
  6
Continuous
 62
     7
100
AcDbLine
 10
119.0238476563
 20
87.9645368787
 30
0.0
 11
119.0238476563
 21
150.3639855397
 31
0.0
  0
LINE
  5
AE
330
1F
100
AcDbEntity
  8
0
  6
Continuous
 62
     9
100
AcDbLine
 10
118.6288707674
 20
124.3472116623
 30
0.0
 11
118.6288707674
 21
97.6368324691
 31
0.0
  0
LINE
  5
AF
330
1F
100
AcDbEntity
  8
0
  6
Continuous
 62
     9
100
AcDbLine
 10
118.6288707674
 20
139.6296453481
 30
0.0
 11
118.6288707674
 21
135.5087394962
 31
0.0
  0
LINE
  5
B0
330
1F
100
AcDbEntity
  8
0
  6
Continuous
 62
     9
100
AcDbLine
 10
117.7167408751
 20
125.5788009699
 30
0.0
 11
117.7167408751
 21
134.8532780994
 31
0.0
  0
LINE
  5
B1
330
1F
100
AcDbEntity
  8
0
  6
Continuous
 62
     9
100
AcDbLine
 10
117.7167408751
 20
96.4213679904
 30
0.0
 11
117.7167408751
 21
97.0607045583
 31
0.0
  0
LINE
  5
B2
330
1F
100
AcDbEntity
  8
0
  6
Continuous
 62
     9
100
AcDbLine
 10
117.0288707674
 20
127.3502043959
 30
0.0
 11
117.0288707674
 21
96.2933758177
 31
0.0
  0
LINE
  5
B3
330
1F
100
AcDbEntity
  8
0
  6
Continuous
 62
     9
100
AcDbLine
 10
117.0288707674
 20
139.589447779
 30
0.0
 11
117.0288707674
 21
133.849203414
 31
0.0
  0
LINE
  5
B4
330
1F
100
AcDbEntity
  8
0
  6
Continuous
 62
     7
100
AcDbLine
 10
116.8239107453
 20
124.3891323398
 30
0.0
 11
116.8239107453
 21
97.48185933
 31
0.0
  0
LINE
  5
B5
330
1F
100
AcDbEntity
  8
0
  6
Continuous
 62
     7
100
AcDbLine
 10
116.8239107453
 20
139.7843615788
 30
0.0
 11
116.8239107453
 21
135.6217919578
 31
0.0
  0
LINE
  5
B6
330
1F
100
AcDbEntity
  8
0
  6
Continuous
 62
     7
100
AcDbLine
 10
82.5238476563
 20
96.6058978125
 30
0.0
 11
81.0238476563
 21
97.4719232163
 31
0.0
  0
LINE
  5
B7
330
1F
100
AcDbEntity
  8
0
  6
Continuous
 62
     9
100
AcDbLine
 10
82.5238476563
 20
134.8755058479
 30
0.0
 11
81.0238476563
 21
134.1255058479
 31
0.0
  0
LINE
  5
B8
330
1F
100
AcDbEntity
  8
0
  6
Continuous
 62
     7
100
AcDbLine
 10
119.0238494922
 20
150.3642593018
 30
0.0
 11
119.3238495821
 21
150.6642593557
 31
0.0
  0
LINE
  5
B9
330
1F
100
AcDbEntity
  8
ACHSEN
  6
CENTER
 62
     7
100
AcDbLine
 10
103.5238476563
 20
96.2307757021
 30
0.0
 11
103.5238476563
 21
143.3526317738
 31
0.0
  0
LINE
  5
BA
330
1F
100
AcDbEntity
  8
0
  6
Continuous
 62
     7
100
AcDbLine
 10
82.5238476563
 20
134.8755058479
 30
0.0
 11
82.5238476563
 21
96.6058978125
 31
0.0
  0
LINE
  5
BB
330
1F
100
AcDbEntity
  8
ACHSEN
  6
Continuous
 62
     7
100
AcDbLine
 10
82.5238476563
 20
138.6612508227
 30
0.0
 11
82.5238476563
 21
134.8755058479
 31
0.0
  0
LINE
  5
BC
330
1F
100
AcDbEntity
  8
ACHSEN
  6
Continuous
 62
     7
100
AcDbLine
 10
81.0238476563
 20
134.1255058479
 30
0.0
 11
81.0238476563
 21
137.9127405232
 31
0.0
  0
LINE
  5
BD
330
1F
100
AcDbEntity
  8
0
  6
Continuous
 62
     7
100
AcDbLine
 10
81.0238476563
 20
97.4719232163
 30
0.0
 11
81.0238476563
 21
134.1255058479
 31
0.0
  0
LINE
  5
BE
330
1F
100
AcDbEntity
  8
0
  6
Continuous
 62
     7
100
AcDbLine
 10
297.0
 20
0.0
 30
0.0
 11
297.0
 21
210.0
 31
0.0
  0
LINE
  5
BF
330
1F
100
AcDbEntity
  8
0
  6
Continuous
 62
     7
100
AcDbLine
 10
0.0
 20
210.0
 30
0.0
 11
297.0
 21
210.0
 31
0.0
  0
LINE
  5
C0
330
1F
100
AcDbEntity
  8
0
  6
Continuous
 62
     7
100
AcDbLine
 10
0.0
 20
0.0
 30
0.0
 11
297.0
 21
0.0
 31
0.0
  0
LINE
  5
C1
330
1F
100
AcDbEntity
  8
0
  6
Continuous
 62
     7
100
AcDbLine
 10
0.0
 20
0.0
 30
0.0
 11
0.0
 21
210.0
 31
0.0
  0
ARC
  5
C2
330
1F
100
AcDbEntity
  8
0
  6
Continuous
 62
     7
100
AcDbCircle
 10
117.0238476563
 20
139.7893846899
 30
0.0
 40
0.2000000000633711
100
AcDbArc
 50
181.4391666591312
 51
271.4391666598468
  0
ARC
  5
C3
330
1F
100
AcDbEntity
  8
0
  6
Continuous
 62
     7
100
AcDbCircle
 10
118.6238476563
 20
139.829582259
 30
0.0
 40
0.1999999999633866
100
AcDbArc
 50
271.4391666598509
 51
0.0
  0
ARC
  5
C4
330
1F
100
AcDbEntity
  8
0
  6
Continuous
 62
     7
100
AcDbCircle
 10
118.4238476563
 20
142.6142612092
 30
0.0
 40
1.000000000008108
100
AcDbArc
 50
293.5781784779995
 51
306.9599393197835
  0
ARC
  5
C5
330
1F
100
AcDbEntity
  8
0
  6
Continuous
 62
     7
100
AcDbCircle
 10
118.4238476563
 20
95.7142612092
 30
0.0
 40
0.9999999999997935
100
AcDbArc
 50
53.04006068021214
 51
135.0
  0
ARC
  5
C6
330
1F
100
AcDbEntity
  8
RUNDUNGEN
  6
Continuous
 62
     7
100
AcDbCircle
 10
217.4380612186
 20
98.1642612092
 30
0.0
 40
1.0
100
AcDbArc
 50
90.0
 51
135.0000000000011
  0
ARC
  5
C7
330
1F
100
AcDbEntity
  8
RUNDUNGEN
  6
Continuous
 62
     7
100
AcDbCircle
 10
217.4380612186
 20
140.1642612092
 30
0.0
 40
1.00000000001904
100
AcDbArc
 50
224.9999999999988
 51
270.0
  0
ARC
  5
C8
330
1F
100
AcDbEntity
  8
DEFAULT_1
  6
CENTER
 62
     5
100
AcDbCircle
 10
229.1838476563
 20
97.1892612092
 30
0.0
 40
2.0
100
AcDbArc
 50
180.0
 51
270.0
  0
ARC
  5
C9
330
1F
100
AcDbEntity
  8
DEFAULT_1
  6
CENTER
 62
     5
100
AcDbCircle
 10
229.1838476563
 20
141.1392612092
 30
0.0
 40
2.0
100
AcDbArc
 50
90.0
 51
180.0
  0
ARC
  5
CA
330
1F
100
AcDbEntity
  8
RUNDUNGEN
  6
Continuous
 62
     7
100
AcDbCircle
 10
143.5238476563
 20
92.6892612092
 30
0.0
 40
2.5
100
AcDbArc
 50
90.0
 51
180.0
  0
ARC
  5
CB
330
1F
100
AcDbEntity
  8
RUNDUNGEN
  6
Continuous
 62
     7
100
AcDbCircle
 10
143.5238476563
 20
145.6392612092
 30
0.0
 40
2.5
100
AcDbArc
 50
180.0
 51
270.0
  0
ARC
  5
CC
330
1F
100
AcDbEntity
  8
RUNDUNGEN
  6
Continuous
 62
     7
100
AcDbCircle
 10
211.8062069691
 20
98.1892612092
 30
0.0
 40
3.0
100
AcDbArc
 50
270.0
 51
314.9999999999998
  0
ARC
  5
CD
330
1F
100
AcDbEntity
  8
RUNDUNGEN
  6
Continuous
 62
     7
100
AcDbCircle
 10
211.8062069691
 20
140.1392612092
 30
0.0
 40
3.00000000005708
100
AcDbArc
 50
45.00000000000039
 51
90.0
  0
ARC
  5
CE
330
1F
100
AcDbEntity
  8
FASEN
  6
Continuous
 62
     7
100
AcDbCircle
 10
131.0369186561
 20
181.407777952
 30
0.0
 40
31.18509350522666
100
AcDbArc
 50
261.4570610701654
 51
269.9759848996985
  0
ARC
  5
CF
330
1F
100
AcDbEntity
  8
FASEN
  6
Continuous
 62
     7
100
AcDbCircle
 10
130.9843017184
 20
181.7616469418
 30
0.0
 40
31.53898454850012
100
AcDbArc
 50
270.0718417526994
 51
278.4996880979363
  0
ARC
  5
D0
330
1F
100
AcDbEntity
  8
FASEN
  6
Continuous
 62
     7
100
AcDbCircle
 10
130.7352549554
 20
183.4810597449
 30
0.0
 40
33.2763235044002
100
AcDbArc
 50
278.4862153231992
 51
278.938601905
  0
ARC
  5
D1
330
1F
100
AcDbEntity
  8
FASEN
  6
Continuous
 62
     7
100
AcDbCircle
 10
131.3133244863
 20
183.4921278095
 30
0.0
 40
33.28739713829981
100
AcDbArc
 50
260.5363441584
 51
261.5195290198
  0
ARC
  5
D2
330
1F
100
AcDbEntity
  8
ACHSEN
  6
Continuous
 62
     7
100
AcDbCircle
 10
94.2854192759
 20
103.5958580241
 30
0.0
 40
35.84510254780027
100
AcDbArc
 50
98.01492884219996
 51
101.1172700805002
  0
ARC
  5
D3
330
1F
100
AcDbEntity
  8
0
  6
Continuous
 62
     7
100
AcDbCircle
 10
10.27183646
 20
99.8547723797
 30
0.0
 40
110.4813700660858
100
AcDbArc
 50
13.46409039971843
 51
14.41116213513365
  0
ARC
  5
D4
330
1F
100
AcDbEntity
  8
ACHSEN
  6
Continuous
 62
     7
100
AcDbCircle
 10
17.2656306798
 20
267.5602007588
 30
0.0
 40
144.4768984217
100
AcDbArc
 50
296.1871039389
 51
296.8519184684753
  0
ARC
  5
D5
330
1F
100
AcDbEntity
  8
0
  6
Continuous
 62
     7
100
AcDbCircle
 10
263.2580204298
 20
70.1900633384
 30
0.0
 40
159.2595221569076
100
AcDbArc
 50
156.0446773747703
 51
156.4374589830737
  0
SPLINE
  5
D6
330
1F
100
AcDbEntity
  8
0
  6
Continuous
 62
     7
100
AcDbSpline
210
0.0
220
0.0
230
1.0
 70
     8
 71
     3
 72
    15
 73
    11
 74
     9
 42
0.0000000001
 43
0.0000000001
 44
0.00000001
 40
0.0
 40
0.0
 40
0.0
 40
0.0
 40
2.768071362270625
 40
5.543987162655791
 40
7.429045838155246
 40
9.310745242468977
 40
11.52272334032155
 40
13.73599890194134
 40
17.16735239701933
 40
20.59799187652338
 40
20.59799187652338
 40
20.59799187652338
 40
20.59799187652338
 10
129.129510089
 20
149.0782160557
 30
0.0
 10
128.6485204756806
 20
148.2807060481402
 30
0.0
 10
127.6851781724582
 20
146.6834259692139
 30
0.0
 10
127.3072361979048
 20
144.1915521059044
 30
0.0
 10
127.1654331598925
 20
142.0203683605893
 30
0.0
 10
127.1982740665061
 20
140.024325322094
 30
0.0
 10
127.3599584930496
 20
137.9275171887026
 30
0.0
 10
127.7082426589755
 20
135.3308913301343
 30
0.0
 10
128.267669593599
 20
132.3552878344982
 30
0.0
 10
128.8422498534905
 20
130.1408016876989
 30
0.0
 10
129.129510089843
 20
129.033673827008
 30
0.0
 11
129.129510089
 21
149.0782160557
 31
0.0
 11
127.8563845803587
 21
146.6202961005612
 31
0.0
 11
127.3101897224588
 21
143.8986459195071
 31
0.0
 11
127.1909884221375
 21
142.0173598540515
 31
0.0
 11
127.2138823405225
 21
140.1357997256752
 31
0.0
 11
127.3805947463053
 21
137.930112966605
 31
0.0
 11
127.6692698468028
 21
135.7357439461309
 31
0.0
 11
128.3056180718443
 21
132.3639124342267
 31
0.0
 11
129.129510089843
 21
129.033673827008
 31
0.0
  0
SPLINE
  5
D7
330
1F
100
AcDbEntity
  8
0
  6
Continuous
 62
     7
100
AcDbSpline
210
0.0
220
0.0
230
1.0
 70
     8
 71
     3
 72
    15
 73
    11
 74
     9
 42
0.0000000001
 43
0.0000000001
 44
0.00000001
 40
0.0
 40
0.0
 40
0.0
 40
0.0
 40
4.908005104137893
 40
9.815816966999238
 40
11.81736697909045
 40
13.81798377143653
 40
15.476645843858
 40
17.1380709693075
 40
18.87967153826347
 40
20.60869205864728
 40
20.60869205864728
 40
20.60869205864728
 40
20.60869205864728
 10
129.129510089108
 20
109.294848588706
 30
0.0
 10
128.7278503058976
 20
107.7083076919461
 30
0.0
 10
127.924546553896
 20
104.5352883647813
 30
0.0
 10
127.3528206718488
 20
100.6275743866821
 30
0.0
 10
127.1721645172233
 20
97.66165171364315
 30
0.0
 10
127.1857721855809
 20
95.7733752057384
 30
0.0
 10
127.3313050425866
 20
94.00250371334661
 30
0.0
 10
127.6448167149927
 20
92.34517526366885
 30
0.0
 10
128.1488190625565
 20
90.69078927411766
 30
0.0
 10
128.8034039772382
 20
89.72930562817479
 30
0.0
 10
129.129510089281
 20
89.2503063623215
 30
0.0
 11
129.129510089108
 21
109.294848588706
 31
0.0
 11
128.0066372576948
 21
104.5170174168543
 31
0.0
 11
127.3101897223919
 21
99.65887187438513
 31
0.0
 11
127.1948480056952
 21
97.66064797819837
 31
0.0
 11
127.2138823405548
 21
95.66012173645257
 31
0.0
 11
127.3598888297393
 21
94.00789839331597
 31
0.0
 11
127.6692698469332
 21
92.37553298273077
 31
0.0
 11
128.2290606566049
 21
90.72634930854682
 31
0.0
 11
129.129510089281
 21
89.2503063623215
 31
0.0
  0
SPLINE
  5
D8
330
1F
100
AcDbEntity
  8
0
  6
Continuous
 62
     7
100
AcDbSpline
210
0.0
220
0.0
230
1.0
 70
     8
 71
     3
 72
    15
 73
    11
 74
     9
 42
0.0000000001
 43
0.0000000001
 44
0.00000001
 40
0.0
 40
0.0
 40
0.0
 40
0.0
 40
4.908005104415901
 40
9.815816967555062
 40
11.81736697981862
 40
13.8179837723368
 40
15.47664584493372
 40
17.13807097055927
 40
18.87967154027402
 40
20.60869206096034
 40
20.60869206096034
 40
20.60869206096034
 40
20.60869206096034
 10
132.918185222657
 20
129.033673827008
 30
0.0
 10
133.3198450059522
 20
130.6202147238419
 30
0.0
 10
134.1231487581237
 20
133.7932340511549
 30
0.0
 10
134.6948746403961
 20
137.7009480294643
 30
0.0
 10
134.8755307952203
 20
140.6668707026988
 30
0.0
 10
134.8619231270001
 20
142.5551472107768
 30
0.0
 10
134.7163902701373
 20
144.3260187033563
 30
0.0
 10
134.4028785978356
 20
145.9833471534251
 30
0.0
 10
133.8988762503944
 20
147.6377331434615
 30
0.0
 10
133.2442913355708
 20
148.5992167897415
 30
0.0
 10
132.9181852235
 20
149.0782160557
 30
0.0
 11
132.918185222657
 21
129.033673827008
 31
0.0
 11
134.0410580543285
 21
133.8115049990845
 31
0.0
 11
134.7375055899169
 21
138.6696505417935
 31
0.0
 11
134.8528473067501
 21
140.667874438145
 31
0.0
 11
134.833812972038
 21
142.6684006800643
 31
0.0
 11
134.6878064829853
 21
144.3206240233887
 31
0.0
 11
134.3784254659411
 21
145.9529894341814
 31
0.0
 11
133.8186346562303
 21
147.6021731091534
 31
0.0
 11
132.9181852235
 21
149.0782160557
 31
0.0
  0
SPLINE
  5
D9
330
1F
100
AcDbEntity
  8
0
  6
Continuous
 62
     7
100
AcDbSpline
210
0.0
220
0.0
230
1.0
 70
     8
 71
     3
 72
    15
 73
    11
 74
     9
 42
0.0000000001
 43
0.0000000001
 44
0.00000001
 40
0.0
 40
0.0
 40
0.0
 40
0.0
 40
2.768071363099986
 40
5.543987163860187
 40
7.429045839534282
 40
9.310745244023781
 40
11.52272334203731
 40
13.73599890381796
 40
17.16735239739512
 40
20.59799187461144
 40
20.59799187461144
 40
20.59799187461144
 40
20.59799187461144
 10
132.918185223871
 20
89.2503063631069
 30
0.0
 10
133.3991748372134
 20
90.04781637097634
 30
0.0
 10
134.3625171404023
 20
91.64509645039111
 30
0.0
 10
134.7404591148107
 20
94.1369703141788
 30
0.0
 10
134.8822621526459
 20
96.30815405974987
 30
0.0
 10
134.8494212458933
 20
98.30419709841215
 30
0.0
 10
134.6877368192099
 20
100.4010052319588
 30
0.0
 10
134.339452653206
 20
102.9976310901213
 30
0.0
 10
133.7800257186927
 20
105.9732345845356
 30
0.0
 10
133.2054454594801
 20
108.1877207302024
 30
0.0
 10
132.9181852235
 20
109.2948485902
 30
0.0
 11
132.918185223871
 21
89.2503063631069
 31
0.0
 11
134.1913107325367
 21
91.7082263191671
 31
0.0
 11
134.7375055902328
 21
94.42987650064458
 31
0.0
 11
134.8567068904048
 21
96.31116256628465
 31
0.0
 11
134.8338129718847
 21
98.19272269483514
 31
0.0
 11
134.6671005659567
 21
100.3984094540558
 31
0.0
 11
134.378425465323
 21
102.5927784746741
 31
0.0
 11
133.742077240523
 21
105.9646099850966
 31
0.0
 11
132.9181852235
 21
109.2948485902
 31
0.0
  0
SPLINE
  5
DA
330
1F
100
AcDbEntity
  8
0
  6
Continuous
 62
     7
100
AcDbSpline
210
0.0
220
0.0
230
1.0
 70
     8
 71
     3
 72
    11
 73
     7
 74
     5
 42
0.0000000001
 43
0.0000000001
 44
0.00000001
 40
0.0
 40
0.0
 40
0.0
 40
0.0
 40
0.1144869089254364
 40
0.2289786249865498
 40
0.5593749202700815
 40
0.8897492709999516
 40
0.8897492709999516
 40
0.8897492709999516
 40
0.8897492709999516
 10
117.7167408751
 20
97.0607045583
 30
0.0
 10
117.6990809785829
 20
97.02687370859586
 30
0.0
 10
117.6637604440359
 20
96.9592105886803
 30
0.0
 10
117.5754494772431
 20
96.79499169118967
 30
0.0
 10
117.4493928398003
 20
96.56932684271314
 30
0.0
 10
117.3343806114605
 20
96.38146175713706
 30
0.0
 10
117.2768764071
 20
96.2875323339
 30
0.0
 11
117.7167408751
 21
97.0607045583
 31
0.0
 11
117.6635538634753
 21
96.95932214311013
 31
0.0
 11
117.6093960793432
 21
96.85844951320227
 31
0.0
 11
117.4474961976848
 21
96.5704388532328
 31
0.0
 11
117.2768764071
 21
96.2875323339
 31
0.0
  0
SPLINE
  5
DB
330
1F
100
AcDbEntity
  8
0
  6
Continuous
 62
     7
100
AcDbSpline
210
0.0
220
0.0
230
1.0
 70
     8
 71
     3
 72
    17
 73
    13
 74
    11
 42
0.0000000001
 43
0.0000000001
 44
0.00000001
 40
0.0
 40
0.0
 40
0.0
 40
0.0
 40
0.0885925199554438
 40
0.1771938735921011
 40
0.2663445206410994
 40
0.3556576277575602
 40
0.4462461945676323
 40
0.5364096409995405
 40
0.5823867489043902
 40
0.6283820435414589
 40
0.6749717295871543
 40
0.7213871307697819
 40
0.7213871307697819
 40
0.7213871307697819
 40
0.7213871307697819
 10
132.9181852235
 20
129.0336738282
 30
0.0
 10
132.9099343576845
 20
129.0053093355589
 30
0.0
 10
132.8934318033484
 20
128.9485775220144
 30
0.0
 10
132.8618945738884
 20
128.8654847846436
 30
0.0
 10
132.8244635006808
 20
128.7846095411679
 30
0.0
 10
132.7789588428168
 20
128.7071344420171
 30
0.0
 10
132.7245231248285
 20
128.6351007855869
 30
0.0
 10
132.6690916749597
 20
128.5829367668718
 30
0.0
 10
132.6183354418129
 20
128.5493077311538
 30
0.0
 10
132.5764720112778
 20
128.5294962779168
 30
0.0
 10
132.531699416003
 20
128.5161860896495
 30
0.0
 10
132.5006620992325
 20
128.5143825858042
 30
0.0
 10
132.4851725217
 20
128.5134825237
 30
0.0
 11
132.9181852235
 21
129.0336738282
 31
0.0
 11
132.8923130986151
 21
128.9489432685064
 31
0.0
 11
132.8609990763055
 21
128.8660600260924
 31
0.0
 11
132.8231959969311
 21
128.7853211565248
 31
0.0
 11
132.7777363608356
 21
128.7084429893454
 31
0.0
 11
132.7224889234853
 21
128.6366515615638
 31
0.0
 11
132.6562472957502
 21
128.5754838100317
 31
0.0
 11
132.6178014154398
 21
128.5502685618978
 31
0.0
 11
132.5761951297178
 21
128.5306602953459
 31
0.0
 11
132.5313722664499
 21
128.5179516457597
 31
0.0
 11
132.4851725217
 21
128.5134825237
 31
0.0
  0
SPLINE
  5
DC
330
1F
100
AcDbEntity
  8
0
  6
Continuous
 62
     7
100
AcDbSpline
210
0.0
220
0.0
230
1.0
 70
     8
 71
     3
 72
    11
 73
     7
 74
     5
 42
0.0000000001
 43
0.0000000001
 44
0.00000001
 40
0.0
 40
0.0
 40
0.0
 40
0.0
 40
0.0858880417777453
 40
0.172469623375495
 40
0.3262585111266294
 40
0.4767798624815629
 40
0.4767798624815629
 40
0.4767798624815629
 40
0.4767798624815629
 10
132.4851725217
 20
149.2448539695
 30
0.0
 10
132.5138458005763
 20
149.2440262703015
 30
0.0
 10
132.5714238930135
 20
149.2423641882925
 30
0.0
 10
132.6783902155924
 20
149.2229281448573
 30
0.0
 10
132.8053070426482
 20
149.1818455072023
 30
0.0
 10
132.8808294710047
 20
149.1125110462139
 30
0.0
 10
132.9181852235
 20
149.0782160557
 30
0.0
 11
132.4851725217
 21
149.2448539695
 31
0.0
 11
132.5709362751428
 21
149.2402350609899
 31
0.0
 11
132.6562568587052
 21
149.2255120078918
 31
0.0
 11
132.8004216357236
 21
149.171962600211
 31
0.0
 11
132.9181852235
 21
149.0782160557
 31
0.0
  0
SPLINE
  5
DD
330
1F
100
AcDbEntity
  8
0
  6
Continuous
 62
     7
100
AcDbSpline
210
0.0
220
0.0
230
1.0
 70
     8
 71
     3
 72
    11
 73
     7
 74
     5
 42
0.0000000001
 43
0.0000000001
 44
0.00000001
 40
0.0
 40
0.0
 40
0.0
 40
0.0
 40
0.0858653726766962
 40
0.1724244650740835
 40
0.3262359598602892
 40
0.4767776582088707
 40
0.4767776582088707
 40
0.4767776582088707
 40
0.4767776582088707
 10
129.5625227908
 20
89.0836684489
 30
0.0
 10
129.533857086238
 20
89.08449618254718
 30
0.0
 10
129.4762940824218
 20
89.08615833723061
 30
0.0
 10
129.36933524425
 20
89.1055921046572
 30
0.0
 10
129.2424078603484
 20
89.14666600587881
 30
0.0
 10
129.1668721754001
 20
89.21600790029599
 30
0.0
 10
129.129510089
 20
89.2503063627
 30
0.0
 11
129.5625227908
 21
89.0836684489
 31
0.0
 11
129.4767817009096
 21
89.08828664436125
 31
0.0
 11
129.3914829954961
 21
89.10300423014941
 31
0.0
 11
129.2472935244383
 21
89.15655208131491
 31
0.0
 11
129.129510089
 21
89.2503063627
 31
0.0
  0
SPLINE
  5
DE
330
1F
100
AcDbEntity
  8
0
  6
Continuous
 62
     7
100
AcDbSpline
210
0.0
220
0.0
230
1.0
 70
     8
 71
     3
 72
    23
 73
    19
 74
    17
 42
0.0000000001
 43
0.0000000001
 44
0.00000001
 40
0.0
 40
0.0
 40
0.0
 40
0.0
 40
0.0200847595653202
 40
0.0402074696893291
 40
0.0623257192205351
 40
0.0845392954552808
 40
0.1048528756104421
 40
0.1251579524186216
 40
0.1438115891090389
 40
0.1624497785897828
 40
0.1972171514480555
 40
0.2320370462256373
 40
0.2649767722755393
 40
0.2978945728362821
 40
0.3606251044404398
 40
0.4234001583135085
 40
0.4835097230946103
 40
0.5435992772034282
 40
0.5435992772034282
 40
0.5435992772034282
 40
0.5435992772034282
 10
118.6288707674
 20
135.5087394962
 30
0.0
 10
118.6353063710605
 20
135.5067946837561
 30
0.0
 10
118.6481897385846
 20
135.5029013841058
 30
0.0
 10
118.669304009399
 20
135.5029952677979
 30
0.0
 10
118.690174081104
 20
135.5090693041123
 30
0.0
 10
118.7088907291139
 20
135.5201405442961
 30
0.0
 10
118.7244920064403
 20
135.5342605180965
 30
0.0
 10
118.737081494085
 20
135.5495467434736
 30
0.0
 10
118.7478986711638
 20
135.5654303262252
 30
0.0
 10
118.7598889827053
 20
135.5862650716718
 30
0.0
 10
118.7722100823703
 20
135.6130333523041
 30
0.0
 10
118.7836705337528
 20
135.6452608053119
 30
0.0
 10
118.7929822345619
 20
135.6775187134793
 30
0.0
 10
118.8028004349696
 20
135.7192552817222
 30
0.0
 10
118.81185961022
 20
135.7713297486305
 30
0.0
 10
118.8186346849699
 20
135.8328540334956
 30
0.0
 10
118.8226696064285
 20
135.8937357525721
 30
0.0
 10
118.8233975422716
 20
135.9338000718847
 30
0.0
 10
118.8237614496
 20
135.9538288966
 30
0.0
 11
118.6288707674
 21
135.5087394962
 31
0.0
 11
118.6483616897262
 21
135.5038916602218
 31
0.0
 11
118.6684843971245
 21
135.5038811866025
 31
0.0
 11
118.6897650628072
 21
135.5099103018299
 31
0.0
 11
118.7089624696408
 21
135.5210862823239
 31
0.0
 11
118.7241294162535
 21
135.5345994340351
 31
0.0
 11
118.7371720006915
 21
135.5501617968173
 31
0.0
 11
118.7477017742209
 21
135.5655592651545
 31
0.0
 11
118.757031225499
 21
135.5816944269439
 31
0.0
 11
118.7717185454352
 21
135.6132071679951
 31
0.0
 11
118.783535553112
 21
135.6459605403693
 31
0.0
 11
118.7927184071672
 21
135.6775943947605
 31
0.0
 11
118.8003069366549
 21
135.7096255641736
 31
0.0
 11
118.8112085771494
 21
135.7714015613722
 31
0.0
 11
118.8182686280806
 21
135.8337783444698
 31
0.0
 11
118.8221892179685
 21
135.8937599145819
 31
0.0
 11
118.8237614496
 21
135.9538288966
 31
0.0
  0
SPLINE
  5
DF
330
1F
100
AcDbEntity
  8
0
  6
Continuous
 62
     7
100
AcDbSpline
210
0.0
220
0.0
230
1.0
 70
     8
 71
     3
 72
    19
 73
    15
 74
    13
 42
0.0000000001
 43
0.0000000001
 44
0.00000001
 40
0.0
 40
0.0
 40
0.0
 40
0.0
 40
0.1037214442505814
 40
0.2077048967710298
 40
0.3081965148271091
 40
0.4087745519731028
 40
0.4905582518403274
 40
0.5722694203748021
 40
0.6447917332488915
 40
0.7173167610788272
 40
0.8507493764472531
 40
0.9843287148510924
 40
1.11180312812191
 40
1.239193738906251
 40
1.239193738906251
 40
1.239193738906251
 40
1.239193738906251
 10
118.6288707674
 20
135.5087394962
 30
0.0
 10
118.5957189678078
 20
135.518965624686
 30
0.0
 10
118.529331624652
 20
135.5394437136376
 30
0.0
 10
118.4253951138061
 20
135.542952375925
 30
0.0
 10
118.3247736046361
 20
135.524561761284
 30
0.0
 10
118.236549977481
 20
135.4897643719854
 30
0.0
 10
118.1602360054846
 20
135.4454824771714
 30
0.0
 10
118.0970841008333
 20
135.3983131167393
 30
0.0
 10
118.0407764020509
 20
135.3477758164086
 30
0.0
 10
117.9764220301241
 20
135.2807856132371
 30
0.0
 10
117.9055091285481
 20
135.1922657664505
 30
0.0
 10
117.8334804145072
 20
135.0820981187925
 30
0.0
 10
117.770257194522
 20
134.9689532648589
 30
0.0
 10
117.7345757374192
 20
134.8918280346719
 30
0.0
 10
117.7167408751
 20
134.8532780994
 30
0.0
 11
118.6288707674
 21
135.5087394962
 31
0.0
 11
118.5285028574847
 21
135.5349009307297
 31
0.0
 11
118.4246084035226
 21
135.5392021903135
 31
0.0
 11
118.3257032962197
 21
135.5214160988674
 31
0.0
 11
118.2319591955817
 21
135.4849745682779
 31
0.0
 11
118.161091129495
 21
135.4441543432283
 31
0.0
 11
118.0954590644532
 21
135.3954804580164
 31
0.0
 11
118.041401631315
 21
135.3471350364429
 31
0.0
 11
117.9910652349344
 21
135.2949227116417
 31
0.0
 11
117.9072909911166
 21
135.1910663737667
 31
0.0
 11
117.8337210385131
 21
135.0795724200188
 31
0.0
 11
117.7716946047025
 21
134.9682061434919
 31
0.0
 11
117.7167408751
 21
134.8532780994
 31
0.0
  0
SPLINE
  5
E0
330
1F
100
AcDbEntity
  8
0
  6
Continuous
 62
     7
100
AcDbSpline
210
0.0
220
0.0
230
1.0
 70
     8
 71
     3
 72
    25
 73
    21
 74
    19
 42
0.0000000001
 43
0.0000000001
 44
0.00000001
 40
0.0
 40
0.0
 40
0.0
 40
0.0
 40
0.1100127022179418
 40
0.2200277203611047
 40
0.3300666626700752
 40
0.4401078802570753
 40
0.550173929398409
 40
0.660229360573944
 40
0.7702834545861652
 40
0.8803905202160136
 40
0.9905820716212398
 40
1.100570628276476
 40
1.210144994739156
 40
1.320894121622605
 40
1.432541552146303
 40
1.540923272177715
 40
1.596165153152379
 40
1.651750157764968
 40
1.707084506400551
 40
1.762341592231428
 40
1.762341592231428
 40
1.762341592231428
 40
1.762341592231428
 10
117.7167408751
 20
125.5788009699
 30
0.0
 10
117.7254289116986
 20
125.5431733246468
 30
0.0
 10
117.7428051677914
 20
125.4719172841273
 30
0.0
 10
117.7710492040297
 20
125.3655742514682
 30
0.0
 10
117.8010834937636
 20
125.259715075448
 30
0.0
 10
117.833309480638
 20
125.1544812201629
 30
0.0
 10
117.8679333212665
 20
125.0500036149129
 30
0.0
 10
117.9053123448262
 20
124.9464723131627
 30
0.0
 10
117.9457872371695
 20
124.8440886504843
 30
0.0
 10
117.9902414210052
 20
124.7433075897015
 30
0.0
 10
118.0394477799462
 20
124.6447561438337
 30
0.0
 10
118.0942372605676
 20
124.5494071572625
 30
0.0
 10
118.155666735783
 20
124.4578064486653
 30
0.0
 10
118.2297281349303
 20
124.3749482432383
 30
0.0
 10
118.317438516401
 20
124.3068574512634
 30
0.0
 10
118.4063553211092
 20
124.2743411144855
 30
0.0
 10
118.4801492046094
 20
124.2762592668272
 30
0.0
 10
118.5342495183655
 20
124.289791703685
 30
0.0
 10
118.5845010139022
 20
124.3140953538904
 30
0.0
 10
118.6140877396532
 20
124.3361780353921
 30
0.0
 10
118.6288707674
 20
124.3472116623
 30
0.0
 11
117.7167408751
 21
125.5788009699
 31
0.0
 11
117.7431678948899
 21
125.4720095504211
 31
0.0
 11
117.7713450480891
 21
125.3656641120863
 31
0.0
 11
117.8014477595342
 21
125.2598227421588
 31
0.0
 11
117.8337063385608
 21
125.1546160235177
 31
0.0
 11
117.8683934603804
 21
125.0501586697629
 31
0.0
 11
117.9058276250823
 21
124.9466652823205
 31
0.0
 11
117.9464406394082
 21
124.844378984723
 31
0.0
 11
117.9910233285361
 21
124.7437015307835
 31
0.0
 11
118.0404249890396
 21
124.6452045565123
 31
0.0
 11
118.0953982166485
 21
124.5499395217861
 31
0.0
 11
118.1574712250433
 21
124.4596428805722
 31
0.0
 11
118.2318477941792
 21
124.3775850042347
 31
0.0
 11
118.3215819001409
 21
124.3111550488698
 31
0.0
 11
118.4244982566653
 21
124.2771723945192
 31
0.0
 11
118.4797294725
 21
124.2782578488227
 31
0.0
 11
118.5336851416826
 21
124.2916174334284
 31
0.0
 11
118.5835590428263
 21
124.3155858318654
 31
0.0
 11
118.6288707674
 21
124.3472116623
 31
0.0
  0
SPLINE
  5
E1
330
1F
100
AcDbEntity
  8
0
  6
Continuous
 62
     7
100
AcDbSpline
210
0.0
220
0.0
230
1.0
 70
     8
 71
     3
 72
    17
 73
    13
 74
    11
 42
0.0000000001
 43
0.0000000001
 44
0.00000001
 40
0.0
 40
0.0
 40
0.0
 40
0.0
 40
0.0414201705269425
 40
0.0829390505876932
 40
0.1073813969176643
 40
0.1316132836226161
 40
0.1594736537517757
 40
0.1874025611264077
 40
0.211972671125534
 40
0.2366663818743716
 40
0.262944760898397
 40
0.2891512213663852
 40
0.2891512213663852
 40
0.2891512213663852
 40
0.2891512213663852
 10
118.6288707674
 20
97.6368324691
 30
0.0
 10
118.6417819240458
 20
97.63187841931239
 30
0.0
 10
118.6676350062655
 20
97.6219585136065
 30
0.0
 10
118.703224744994
 20
97.61593098662189
 30
0.0
 10
118.7333869058596
 20
97.61591783417444
 30
0.0
 10
118.7586390966379
 20
97.62128346461563
 30
0.0
 10
118.7821262560494
 20
97.634868520717
 30
0.0
 10
118.8007569570569
 20
97.65469263396601
 30
0.0
 10
118.8122697308547
 20
97.67800227339376
 30
0.0
 10
118.8188394662689
 20
97.70238818786842
 30
0.0
 10
118.8227578906102
 20
97.72787439166949
 30
0.0
 10
118.8234272356652
 20
97.7453675100055
 30
0.0
 10
118.8237614496
 20
97.754102084
 30
0.0
 11
118.6288707674
 21
97.6368324691
 31
0.0
 11
118.6680121786548
 21
97.62328328272365
 31
0.0
 11
118.7089624696866
 21
97.6164355775667
 31
0.0
 11
118.7334023879504
 21
97.61678009080677
 31
0.0
 11
118.757031225515
 21
97.62215246166366
 31
0.0
 11
118.7812481260416
 21
97.63592714687306
 31
0.0
 11
118.8003069366694
 21
97.65634247456074
 31
0.0
 11
118.8114893837465
 21
97.6782203899719
 31
0.0
 11
118.8182686280808
 21
97.70196530936116
 31
0.0
 11
118.8222613346001
 21
97.72793859368912
 31
0.0
 11
118.8237614496
 21
97.754102084
 31
0.0
  0
SPLINE
  5
E2
330
1F
100
AcDbEntity
  8
0
  6
Continuous
 62
     7
100
AcDbSpline
210
0.0
220
0.0
230
1.0
 70
     8
 71
     3
 72
    19
 73
    15
 74
    13
 42
0.0000000001
 43
0.0000000001
 44
0.00000001
 40
0.0
 40
0.0
 40
0.0
 40
0.0
 40
0.1045384651173736
 40
0.2092514256246456
 40
0.3087263832366919
 40
0.4083161307018109
 40
0.4883199216825742
 40
0.5682513318324576
 40
0.6382737893070647
 40
0.7082962789076255
 40
0.8338795436094172
 40
0.9595807699658631
 40
1.074624552519551
 40
1.189598319356119
 40
1.189598319356119
 40
1.189598319356119
 40
1.189598319356119
 10
118.6288707674
 20
97.6368324691
 30
0.0
 10
118.5959296433609
 20
97.64853889192563
 30
0.0
 10
118.5299924100267
 20
97.67197127791371
 30
0.0
 10
118.426141935865
 20
97.68031481587266
 30
0.0
 10
118.3252484418691
 20
97.66606322670727
 30
0.0
 10
118.236955396582
 20
97.63503344635359
 30
0.0
 10
118.1604872343008
 20
97.59413863699419
 30
0.0
 10
118.097409197218
 20
97.55033291800524
 30
0.0
 10
118.0410338047527
 20
97.50334027296735
 30
0.0
 10
117.9772072191909
 20
97.44188678288258
 30
0.0
 10
117.9065079875376
 20
97.36116687068068
 30
0.0
 10
117.834646463252
 20
97.26230913786014
 30
0.0
 10
117.7711814264457
 20
97.162032178711
 30
0.0
 10
117.7348840426595
 20
97.09447357698329
 30
0.0
 10
117.7167408751
 20
97.0607045583
 30
0.0
 11
118.6288707674
 21
97.6368324691
 31
0.0
 11
118.5289363749968
 21
97.66751484032672
 31
0.0
 11
118.4246084034528
 21
97.67648581862971
 31
0.0
 11
118.3260692094574
 21
97.66287352864394
 31
0.0
 11
118.2319591955385
 21
97.63029403999926
 31
0.0
 11
118.1612800679499
 21
97.59280981005378
 31
0.0
 11
118.0954590644854
 21
97.54745977332306
 31
0.0
 11
118.0415937792574
 21
97.50271968393899
 31
0.0
 11
117.9910652348735
 21
97.45424272804956
 31
0.0
 11
117.9080320374622
 21
97.36002678194272
 31
0.0
 11
117.8337210384996
 21
97.25864298767218
 31
0.0
 11
117.7723548702222
 21
97.16133283766094
 31
0.0
 11
117.7167408751
 21
97.0607045583
 31
0.0
  0
SPLINE
  5
E3
330
1F
100
AcDbEntity
  8
0
  6
Continuous
 62
     7
100
AcDbSpline
210
0.0
220
0.0
230
1.0
 70
     8
 71
     3
 72
    17
 73
    13
 74
    11
 42
0.0000000001
 43
0.0000000001
 44
0.00000001
 40
0.0
 40
0.0
 40
0.0
 40
0.0
 40
0.0885985679141236
 40
0.177206658956883
 40
0.2663651706954124
 40
0.3556835831503568
 40
0.4462764247920627
 40
0.5364496693434173
 40
0.5824215302606487
 40
0.6284087157959751
 40
0.6749841996413394
 40
0.7213876902455317
 40
0.7213876902455317
 40
0.7213876902455317
 40
0.7213876902455317
 10
129.129510089
 20
109.2948485902
 30
0.0
 10
129.1377617590686
 20
109.3232149544792
 30
0.0
 10
129.154265986147
 20
109.3799507320319
 30
0.0
 10
129.1858065631968
 20
109.463049502419
 30
0.0
 10
129.2232373598094
 20
109.5439321284693
 30
0.0
 10
129.2687473095919
 20
109.621411477977
 30
0.0
 10
129.3232036658183
 20
109.6934383942098
 30
0.0
 10
129.3786426086007
 20
109.7455961938676
 30
0.0
 10
129.4293897171985
 20
109.7792358943525
 30
0.0
 10
129.471242633707
 20
109.7990502656869
 30
0.0
 10
129.5160085671866
 20
109.8123435253908
 30
0.0
 10
129.547037181921
 20
109.8141422140064
 30
0.0
 10
129.5625227908
 20
109.8150398947
 30
0.0
 11
129.129510089
 21
109.2948485902
 31
0.0
 11
129.1553847283117
 21
109.3795847057407
 31
0.0
 11
129.186701335831
 21
109.4624741736587
 31
0.0
 11
129.2245062555423
 21
109.5432208656098
 31
0.0
 11
129.2699724102944
 21
109.6201013415157
 31
0.0
 11
129.3252350676271
 21
109.6918864490329
 31
0.0
 11
129.391488009327
 21
109.7530563905812
 31
0.0
 11
129.4299251603848
 21
109.7782753797511
 31
0.0
 11
129.4715223923639
 21
109.7978838352013
 31
0.0
 11
129.5163341657298
 21
109.8105795298745
 31
0.0
 11
129.5625227908
 21
109.8150398947
 31
0.0
  0
SPLINE
  5
E4
330
1F
100
AcDbEntity
  8
0
  6
Continuous
 62
     7
100
AcDbSpline
210
0.0
220
0.0
230
1.0
 70
     8
 71
     3
 72
    11
 73
     7
 74
     5
 42
0.0000000001
 43
0.0000000001
 44
0.00000001
 40
0.0
 40
0.0
 40
0.0
 40
0.0
 40
0.0396067480757486
 40
0.0793078945749396
 40
0.2768264669208185
 40
0.47654693816667
 40
0.47654693816667
 40
0.47654693816667
 40
0.47654693816667
 10
132.9181852235
 20
89.2503063627
 30
0.0
 10
132.9093836487104
 20
89.24044286115942
 30
0.0
 10
132.8917595215247
 20
89.22069234948344
 30
0.0
 10
132.8210887471076
 20
89.16109970659195
 30
0.0
 10
132.6847063678217
 20
89.09686464779746
 30
0.0
 10
132.5519291321341
 20
89.08808340669353
 30
0.0
 10
132.4851725217
 20
89.0836684489
 30
0.0
 11
132.9181852235
 21
89.2503063627
 31
0.0
 11
132.8911264807528
 21
89.22138372564739
 31
0.0
 11
132.8610001357472
 21
89.19552672717586
 31
0.0
 11
132.6832212336541
 21
89.10945554505244
 31
0.0
 11
132.4851725217
 21
89.0836684489
 31
0.0
  0
SPLINE
  5
E5
330
1F
100
AcDbEntity
  8
0
  6
Continuous
 62
     7
100
AcDbSpline
210
0.0
220
0.0
230
1.0
 70
     8
 71
     3
 72
    17
 73
    13
 74
    11
 42
0.0000000001
 43
0.0000000001
 44
0.00000001
 40
0.0
 40
0.0
 40
0.0
 40
0.0
 40
0.0464149716259267
 40
0.0930041340696358
 40
0.1389991042968507
 40
0.1849760066167353
 40
0.2751398214638526
 40
0.3657285222652401
 40
0.4550419000930135
 40
0.544192928473272
 40
0.6327944774928549
 40
0.7213871622111837
 40
0.7213871622111837
 40
0.7213871622111837
 40
0.7213871622111837
 10
132.4851725217
 20
109.8150398947
 30
0.0
 10
132.500661956173
 20
109.8141399281185
 30
0.0
 10
132.5316989554412
 20
109.8123366174696
 30
0.0
 10
132.5764713146716
 20
109.7990270960096
 30
0.0
 10
132.6183343270428
 20
109.7792154908727
 30
0.0
 10
132.6690901670525
 20
109.7455859997992
 30
0.0
 10
132.7245219127732
 20
109.6934222601224
 30
0.0
 10
132.7789584893725
 20
109.6213888960338
 30
0.0
 10
132.8244633445877
 20
109.543913581758
 30
0.0
 10
132.8618943671102
 20
109.4630380067466
 30
0.0
 10
132.8934317191865
 20
109.3799450549114
 30
0.0
 10
132.9099343305815
 20
109.3232131324153
 30
0.0
 10
132.9181852235
 20
109.2948485902
 30
0.0
 11
132.4851725217
 21
109.8150398947
 31
0.0
 11
132.5313718685896
 21
109.810571121042
 31
0.0
 11
132.5761943294505
 21
109.7978629717045
 31
0.0
 11
132.6178002418697
 21
109.778254674023
 31
0.0
 11
132.6562457626879
 21
109.7530392526316
 31
0.0
 11
132.7224878306609
 21
109.6918714347986
 31
0.0
 11
132.7777358743211
 21
109.6200803045344
 31
0.0
 11
132.8231957799874
 21
109.5432019822594
 31
0.0
 11
132.8609989242932
 21
109.4624627220334
 31
0.0
 11
132.8923130155056
 21
109.3795792967891
 31
0.0
 11
132.9181852235
 21
109.2948485902
 31
0.0
  0
SPLINE
  5
E6
330
1F
100
AcDbEntity
  8
0
  6
Continuous
 62
     7
100
AcDbSpline
210
0.0
220
0.0
230
1.0
 70
     8
 71
     3
 72
    17
 73
    13
 74
    11
 42
0.0000000001
 43
0.0000000001
 44
0.00000001
 40
0.0
 40
0.0
 40
0.0
 40
0.0
 40
0.0464036383759102
 40
0.0929793006390167
 40
0.1389666755286021
 40
0.1849386862303847
 40
0.2751119356763231
 40
0.3657048667841727
 40
0.4550230513710255
 40
0.5441812924481084
 40
0.6327892351938561
 40
0.7213876675685461
 40
0.7213876675685461
 40
0.7213876675685461
 40
0.7213876675685461
 10
129.5625227908
 20
128.5134825237
 30
0.0
 10
129.5470371326909
 20
128.514380235018
 30
0.0
 10
129.5160084092693
 20
128.5161789855781
 30
0.0
 10
129.4712423655543
 20
128.5294724671899
 30
0.0
 10
129.4293892614329
 20
128.5492868186017
 30
0.0
 10
129.3786419580171
 20
128.5829264485694
 30
0.0
 10
129.3232030831684
 20
128.6350844798014
 30
0.0
 10
129.2687470625107
 20
128.7071115799089
 30
0.0
 10
129.2232372094992
 20
128.78459081552
 30
0.0
 10
129.1858064212772
 20
128.8654732093087
 30
0.0
 10
129.1542659287203
 20
128.9485718156686
 30
0.0
 10
129.1377617403227
 20
129.0053075056595
 30
0.0
 10
129.129510089
 20
129.0336738282
 30
0.0
 11
129.5625227908
 21
128.5134825237
 31
0.0
 11
129.5163340280704
 21
128.5179430003599
 31
0.0
 11
129.4715221149974
 21
128.5306388564549
 31
0.0
 11
129.4299246878097
 21
128.5502473418782
 31
0.0
 11
129.3914873624117
 21
128.5754663383732
 31
0.0
 11
129.3252345307068
 21
128.6366364062718
 31
0.0
 11
129.2699720572993
 21
128.7084217682867
 31
0.0
 11
129.2245060766689
 21
128.7853020824328
 31
0.0
 11
129.1867012242147
 21
128.8660485070154
 31
0.0
 11
129.1553846703705
 21
128.9489378366843
 31
0.0
 11
129.129510089
 21
129.0336738282
 31
0.0
  0
SPLINE
  5
E7
330
1F
100
AcDbEntity
  8
0
  6
Continuous
 62
     7
100
AcDbSpline
210
0.0
220
0.0
230
1.0
 70
     8
 71
     3
 72
    23
 73
    19
 74
    17
 42
0.0000000001
 43
0.0000000001
 44
0.00000001
 40
0.0
 40
0.0
 40
0.0
 40
0.0
 40
0.067300118514201
 40
0.1346029787355721
 40
0.1680432783384196
 40
0.2014739083636538
 40
0.2346953926984826
 40
0.2679495048065855
 40
0.3010071808600859
 40
0.3339463088513011
 40
0.3663371065486011
 40
0.3992515324458895
 40
0.4324467180173323
 40
0.4643835782612682
 40
0.4811819317962497
 40
0.4980291547699118
 40
0.5155418556498311
 40
0.533115518034524
 40
0.533115518034524
 40
0.533115518034524
 40
0.533115518034524
 10
118.8197082817
 20
123.9320168425
 30
0.0
 10
118.8183709246732
 20
123.9544117078673
 30
0.0
 10
118.8156961561376
 20
123.9992023509356
 30
0.0
 10
118.8101980032555
 20
124.0549638833405
 30
0.0
 10
118.8045561845915
 20
124.0993335656894
 30
0.0
 10
118.7995628819474
 20
124.1323256173948
 30
0.0
 10
118.7936955418867
 20
124.1651119659388
 30
0.0
 10
118.7867249140632
 20
124.1975568461914
 30
0.0
 10
118.7784319954855
 20
124.2295981197217
 30
0.0
 10
118.7685727838354
 20
124.2608892835332
 30
0.0
 10
118.7567783818865
 20
124.2914912616827
 30
0.0
 10
118.7412421905508
 20
124.3205275990941
 30
0.0
 10
118.721575553605
 20
124.3468559015614
 30
0.0
 10
118.6981273152096
 20
124.3628700783457
 30
0.0
 10
118.6762538443279
 20
124.36651985065
 30
0.0
 10
118.6590680897167
 20
124.364727505206
 30
0.0
 10
118.6429442780263
 20
124.3577509575531
 30
0.0
 10
118.6335673683087
 20
124.3507288276311
 30
0.0
 10
118.6288707674
 20
124.3472116623
 30
0.0
 11
118.8197082817
 21
123.9320168425
 31
0.0
 11
118.8152639126916
 21
123.9991700519255
 31
0.0
 11
118.8086705678184
 21
124.066149174026
 31
0.0
 11
118.8044247009286
 21
124.0993188326297
 31
0.0
 11
118.7994041953018
 21
124.1323703310395
 31
0.0
 11
118.7935097712769
 21
124.165064715677
 31
0.0
 11
118.7864856609378
 21
124.1975685284694
 31
0.0
 11
118.7781463446143
 21
124.2295570537451
 31
0.0
 11
118.7681882743747
 21
124.2609548719802
 31
0.0
 11
118.7562359675161
 21
124.2910597907847
 31
0.0
 11
118.7405841514881
 21
124.3200145846395
 31
0.0
 11
118.7198747439213
 21
124.3459576142112
 31
0.0
 11
118.6928041800515
 21
124.362903044687
 31
0.0
 11
118.6762499589052
 21
124.3657565414408
 31
0.0
 11
118.659501983488
 21
124.3639305509289
 31
0.0
 11
118.6433409754546
 21
124.3571839583479
 31
0.0
 11
118.6288707674
 21
124.3472116623
 31
0.0
  0
SPLINE
  5
E8
330
1F
100
AcDbEntity
  8
0
  6
Continuous
 62
     7
100
AcDbSpline
210
0.0
220
0.0
230
1.0
 70
     8
 71
     3
 72
     9
 73
     5
 74
     3
 42
0.0000000001
 43
0.0000000001
 44
0.00000001
 40
0.0
 40
0.0
 40
0.0
 40
0.0
 40
0.0713008008315383
 40
0.1425989015197462
 40
0.1425989015197462
 40
0.1425989015197462
 40
0.1425989015197462
 10
118.8237257028
 20
123.7894838691
 30
0.0
 10
118.8234635887059
 20
123.8132512994475
 30
0.0
 10
118.8229393704438
 20
123.8607852600759
 30
0.0
 10
118.8207852976853
 20
123.9082732814242
 30
0.0
 10
118.8197082817
 20
123.9320168425
 30
0.0
 11
118.8237257028
 21
123.7894838691
 31
0.0
 11
118.8225318814625
 21
123.8607746748875
 31
0.0
 11
118.8197082817
 21
123.9320168425
 31
0.0
  0
SPLINE
  5
E9
330
1F
100
AcDbEntity
  8
0
  6
Continuous
 62
     7
100
AcDbSpline
210
0.0
220
0.0
230
1.0
 70
     8
 71
     3
 72
    13
 73
     9
 74
     7
 42
0.0000000001
 43
0.0000000001
 44
0.00000001
 40
0.0
 40
0.0
 40
0.0
 40
0.0
 40
0.7059708843476189
 40
1.412231769520413
 40
2.201489765473134
 40
2.990772518998299
 40
4.758700584093507
 40
6.526717397245889
 40
6.526717397245889
 40
6.526717397245889
 40
6.526717397245889
 10
117.2768764071
 20
133.8540326419
 30
0.0
 10
117.238056373291
 20
133.621872325416
 30
0.0
 10
117.1604003590638
 20
133.1574563249408
 30
0.0
 10
117.0881163257394
 20
132.4267510503978
 30
0.0
 10
117.0432355813754
 20
131.666294331138
 30
0.0
 10
117.024633009071
 20
130.5507825906837
 30
0.0
 10
117.074734892421
 20
129.1081149674343
 30
0.0
 10
117.2094947747688
 20
127.9368605560474
 30
0.0
 10
117.2768764071
 20
127.3512186518
 30
0.0
 11
117.2768764071
 21
133.8540326419
 31
0.0
 11
117.1682347416825
 21
133.1564712624631
 31
0.0
 11
117.0952410865202
 21
132.4539925337951
 31
0.0
 11
117.0487940547832
 21
131.6661024034989
 31
0.0
 11
117.0342492879614
 21
130.8769536755836
 31
0.0
 11
117.0981828789957
 21
129.1101820040627
 31
0.0
 11
117.2768764071
 21
127.3512186518
 31
0.0
  0
SPLINE
  5
EA
330
1F
100
AcDbEntity
  8
0
  6
Continuous
 62
     7
100
AcDbSpline
210
0.0
220
0.0
230
1.0
 70
     8
 71
     3
 72
    27
 73
    23
 74
    21
 42
0.0000000001
 43
0.0000000001
 44
0.00000001
 40
0.0
 40
0.0
 40
0.0
 40
0.0
 40
0.198418774386807
 40
0.3968374365232678
 40
0.5029769397792664
 40
0.6091160619557631
 40
0.7197506972805466
 40
0.8303871006323558
 40
0.9454468408318353
 40
1.060500806690523
 40
1.179956515044439
 40
1.299443223322661
 40
1.360928421895661
 40
1.422345300119671
 40
1.484949305603424
 40
1.547805801657091
 40
1.612731563676728
 40
1.676696646078733
 40
1.709481594128071
 40
1.743841351745056
 40
1.784580073339155
 40
1.821170232105492
 40
1.821170232105492
 40
1.821170232105492
 40
1.821170232105492
 10
116.8239107453
 20
135.6217919578
 30
0.0
 10
116.8239090869466
 20
135.5556523685926
 30
0.0
 10
116.8239057702407
 20
135.4233732275947
 30
0.0
 10
116.8243699826623
 20
135.2557143167172
 30
0.0
 10
116.8253510981779
 20
135.1188184034329
 30
0.0
 10
116.8266327439347
 20
135.0111877543385
 30
0.0
 10
116.8286479594205
 20
134.9020685288256
 30
0.0
 10
116.8317222787869
 20
134.7899986213426
 30
0.0
 10
116.8361365706255
 20
134.6764977059877
 30
0.0
 10
116.8424034868312
 20
134.5601381434932
 30
0.0
 10
116.8509347372329
 20
134.4424390814439
 30
0.0
 10
116.86080916932
 20
134.3427675319435
 30
0.0
 10
116.870831099857
 20
134.2625904732756
 30
0.0
 10
116.8797642017124
 20
134.201399613423
 30
0.0
 10
116.8902548168972
 20
134.1399856281259
 30
0.0
 10
116.9031801264595
 20
134.0778439252678
 30
0.0
 10
116.9190737533109
 20
134.0158757902001
 30
0.0
 10
116.935843724973
 20
133.9646911270798
 30
0.0
 10
116.9521902956402
 20
133.9239446927468
 30
0.0
 10
116.9697306911262
 20
133.8929751813728
 30
0.0
 10
116.9913988094451
 20
133.8603186882822
 30
0.0
 10
117.0168349839053
 20
133.8527735779852
 30
0.0
 10
117.0288707674
 20
133.849203414
 30
0.0
 11
116.8239107453
 21
135.6217919578
 31
0.0
 11
116.8239981627455
 21
135.42337320267
 31
0.0
 11
116.8246446547628
 21
135.2249555937435
 31
0.0
 11
116.8254349551516
 21
135.1188190327632
 31
0.0
 11
116.8267285058702
 21
135.0126877933333
 31
0.0
 11
116.8288131105201
 21
134.9020727990653
 31
0.0
 11
116.8318886876692
 21
134.7914791529014
 31
0.0
 11
116.8364227428648
 21
134.6765087821172
 31
0.0
 11
116.8426729831644
 21
134.5616247120465
 31
0.0
 11
116.8514576220262
 21
134.4424924478256
 31
0.0
 11
116.8633844436038
 21
134.3236024802833
 31
0.0
 11
116.8710433610348
 21
134.2625961639927
 31
0.0
 11
116.8799497749281
 21
134.2018285021786
 31
0.0
 11
116.8906078128784
 21
134.1401384079198
 31
0.0
 11
116.9035033860085
 21
134.0786189533563
 31
0.0
 11
116.9198348711219
 21
134.0157807709525
 31
0.0
 11
116.9399639914214
 21
133.9550654493058
 31
0.0
 11
116.9526007833439
 21
133.9248137665674
 31
0.0
 11
116.9691874688713
 21
133.8947226581346
 31
0.0
 11
116.9950995435836
 21
133.8632868851805
 31
0.0
 11
117.0288707674
 21
133.849203414
 31
0.0
  0
SPLINE
  5
EB
330
1F
100
AcDbEntity
  8
0
  6
Continuous
 62
     7
100
AcDbSpline
210
0.0
220
0.0
230
1.0
 70
     8
 71
     3
 72
    35
 73
    31
 74
    29
 42
0.0000000001
 43
0.0000000001
 44
0.00000001
 40
0.0
 40
0.0
 40
0.0
 40
0.0
 40
0.0224671169959909
 40
0.0469716776634351
 40
0.0706451029719207
 40
0.0934198435164149
 40
0.1394101663352681
 40
0.1859681376364287
 40
0.2323174995694679
 40
0.2785095837665347
 40
0.3247931273657042
 40
0.3711204777805367
 40
0.4638921740251857
 40
0.5566437642658995
 40
0.6496253658885565
 40
0.7426109214824465
 40
0.835814991323704
 40
0.9290178384092467
 40
1.022429258467067
 40
1.115841003259904
 40
1.303223325686244
 40
1.49060811079674
 40
1.678620804260765
 40
1.866632541315059
 40
2.055121153331354
 40
2.243609949443126
 40
2.432418417609622
 40
2.621226802636276
 40
2.810196206256705
 40
2.999165615205453
 40
2.999165615205453
 40
2.999165615205453
 40
2.999165615205453
 10
117.0288707674
 20
127.3502043959
 30
0.0
 10
117.0214760692855
 20
127.3481445874388
 30
0.0
 10
117.0060160805243
 20
127.3438381755788
 30
0.0
 10
116.9909727218541
 20
127.3243847643807
 30
0.0
 10
116.9784589455729
 20
127.3045461271864
 30
0.0
 10
116.9658587740316
 20
127.2762791870958
 30
0.0
 10
116.9526284629804
 20
127.240202674451
 30
0.0
 10
116.9396460700574
 20
127.1957185464942
 30
0.0
 10
116.9286515094173
 20
127.1506679641844
 30
0.0
 10
116.9192398753165
 20
127.1053524476104
 30
0.0
 10
116.9108721015093
 20
127.0598449809583
 30
0.0
 10
116.900877106293
 20
126.9988613057811
 30
0.0
 10
116.8902061079857
 20
126.9223062604201
 30
0.0
 10
116.8796709850818
 20
126.8300648380483
 30
0.0
 10
116.8707512245677
 20
126.7375838505885
 30
0.0
 10
116.8631916983516
 20
126.644831533739
 30
0.0
 10
116.8567490525421
 20
126.5519219157633
 30
0.0
 10
116.8512603774613
 20
126.4588093854414
 30
0.0
 10
116.8465703012649
 20
126.3655842811058
 30
0.0
 10
116.8412344482725
 20
126.2409624005786
 30
0.0
 10
116.836042722398
 20
126.0849853931093
 30
0.0
 10
116.8316611900738
 20
125.8974412735884
 30
0.0
 10
116.8286154206949
 20
125.7096616712086
 30
0.0
 10
116.826604312956
 20
125.5215007278835
 30
0.0
 10
116.8253285899258
 20
125.3331749957685
 30
0.0
 10
116.8245883787263
 20
125.1445809943804
 30
0.0
 10
116.8241835521487
 20
124.9558794858183
 30
0.0
 10
116.8239995840462
 20
124.7670174680686
 30
0.0
 10
116.8239185478805
 20
124.5781017482431
 30
0.0
 10
116.8239133461602
 20
124.4521221432064
 30
0.0
 10
116.8239107453
 20
124.3891323398
 30
0.0
 11
117.0288707674
 21
127.3502043959
 31
0.0
 11
117.0079353015793
 21
127.3420510151912
 31
0.0
 11
116.9912515943032
 21
127.324103107095
 31
0.0
 11
116.9787837886631
 21
127.3039788707528
 31
0.0
 11
116.9691860723727
 21
127.2833252355067
 31
0.0
 11
116.9531793866046
 21
127.2402103215708
 31
0.0
 11
116.9399631556585
 21
127.1955675625694
 31
0.0
 11
116.9289001450387
 21
127.1505578619746
 31
0.0
 11
116.919419348495
 21
127.1053491997586
 31
0.0
 11
116.9110220802284
 21
127.0598337925457
 31
0.0
 11
116.9035029178033
 21
127.0141207135323
 31
0.0
 11
116.8905854898116
 21
126.922252723034
 31
0.0
 11
116.8799494762342
 21
126.8301129774985
 31
0.0
 11
116.8709802795573
 21
126.7375649804845
 31
0.0
 11
116.8633842494039
 21
126.6448902057343
 31
0.0
 11
116.8569095388937
 21
126.5519113008215
 31
0.0
 11
116.8513978986531
 21
126.4588715645433
 31
0.0
 11
116.8466865833555
 21
126.3655790305152
 31
0.0
 11
116.8426728963925
 21
126.2722535549889
 31
0.0
 11
116.8363522728559
 21
126.0849778638916
 31
0.0
 11
116.831888651964
 21
125.8976462494229
 31
0.0
 11
116.8287887081883
 21
125.709659113554
 31
0.0
 11
116.8267284959058
 21
125.5216586646303
 31
0.0
 11
116.8254180914452
 21
125.3331746077449
 31
0.0
 11
116.8246446535472
 21
125.1446873984879
 31
0.0
 11
116.8242204086578
 21
124.9558794069525
 31
0.0
 11
116.8240167832958
 21
124.7670711317284
 31
0.0
 11
116.8239307573157
 21
124.5781017476891
 31
0.0
 11
116.8239107453
 21
124.3891323398
 31
0.0
  0
SPLINE
  5
EC
330
1F
100
AcDbEntity
  8
0
  6
Continuous
 62
     7
100
AcDbSpline
210
0.0
220
0.0
230
1.0
 70
     8
 71
     3
 72
    11
 73
     7
 74
     5
 42
0.0000000001
 43
0.0000000001
 44
0.00000001
 40
0.0
 40
0.0
 40
0.0
 40
0.0
 40
0.0396097710268863
 40
0.0793139642415479
 40
0.2768296849488873
 40
0.4765470266823858
 40
0.4765470266823858
 40
0.4765470266823858
 40
0.4765470266823858
 10
129.129510089
 20
149.0782160557
 30
0.0
 10
129.1383123660692
 20
149.0880802860602
 30
0.0
 10
129.155937903168
 20
149.1078322612365
 30
0.0
 10
129.2266103087914
 20
149.1674246804209
 30
0.0
 10
129.3629919829243
 20
149.2316581580432
 30
0.0
 10
129.4957672240658
 20
149.2404391431296
 30
0.0
 10
129.5625227908
 20
149.2448539695
 30
0.0
 11
129.129510089
 21
149.0782160557
 31
0.0
 11
129.1565710309885
 21
149.1071407748775
 31
0.0
 11
129.1867000057932
 21
149.1329993872929
 31
0.0
 11
129.3644771265198
 21
149.2190677047661
 31
0.0
 11
129.5625227908
 21
149.2448539695
 31
0.0
  0
SPLINE
  5
ED
330
1F
100
AcDbEntity
  8
0
  6
Continuous
 62
     7
100
AcDbSpline
210
0.0
220
0.0
230
1.0
 70
     8
 71
     3
 72
    25
 73
    21
 74
    19
 42
0.0000000001
 43
0.0000000001
 44
0.00000001
 40
0.0
 40
0.0
 40
0.0
 40
0.0
 40
0.1793610639216538
 40
0.3587208534127797
 40
0.4410790500747981
 40
0.5234388828662784
 40
0.6008758166059258
 40
0.6783083637850436
 40
0.750883545727869
 40
0.8234768974162608
 40
0.8916244426308165
 40
0.9597247318209989
 40
0.9925108734716629
 40
1.025318331982916
 40
1.057978320257812
 40
1.090556239586079
 40
1.12461544392321
 40
1.159145555556687
 40
1.211877750072178
 40
1.262623468752725
 40
1.262623468752725
 40
1.262623468752725
 40
1.262623468752725
 10
116.8239107453
 20
97.48185933
 30
0.0
 10
116.8238967834315
 20
97.42207232530976
 30
0.0
 10
116.8238688597935
 20
97.30249874073931
 30
0.0
 10
116.8243126474204
 20
97.15547222836494
 30
0.0
 10
116.8253150081589
 20
97.04078352743193
 30
0.0
 10
116.8265661386626
 20
96.96007404196939
 30
0.0
 10
116.828557084024
 20
96.88102084550336
 30
0.0
 10
116.8315696659162
 20
96.8052623568902
 30
0.0
 10
116.8359364840826
 20
96.73118427923148
 30
0.0
 10
116.8420978976312
 20
96.66033419790907
 30
0.0
 10
116.8506213957884
 20
96.59122476102249
 30
0.0
 10
116.8605116891135
 20
96.53571204426105
 30
0.0
 10
116.8706797915528
 20
96.49231111525522
 30
0.0
 10
116.8796334867809
 20
96.46079362893781
 30
0.0
 10
116.8903742749916
 20
96.42989768955505
 30
0.0
 10
116.9033170041559
 20
96.39943084946374
 30
0.0
 10
116.9189138011295
 20
96.36937871396601
 30
0.0
 10
116.9427641040501
 20
96.33681694175803
 30
0.0
 10
116.9777547441967
 20
96.30427360140744
 30
0.0
 10
117.0120515594616
 20
96.2969616226738
 30
0.0
 10
117.0288707674
 20
96.2933758177
 30
0.0
 11
116.8239107453
 21
97.48185933
 31
0.0
 11
116.8239660722159
 21
97.30249827461161
 31
0.0
 11
116.8246446547696
 21
97.12313976878593
 31
0.0
 11
116.8254077984152
 21
97.04078510790268
 31
0.0
 11
116.8267285058514
 21
96.95843586510526
 31
0.0
 11
116.8287450209551
 21
96.88102519159162
 31
0.0
 11
116.831888687688
 21
96.80365648524261
 31
0.0
 11
116.836272352685
 21
96.73121381470081
 31
0.0
 11
116.8426729831888
 21
96.65890318865935
 31
0.0
 11
116.8512265501746
 21
96.59129457670355
 31
0.0
 11
116.8633844436054
 21
96.52428834553726
 31
0.0
 11
116.8709251881169
 21
96.49238116364116
 31
0.0
 11
116.8799497749606
 21
96.46083934748756
 31
0.0
 11
116.8907232634375
 21
96.43000743577007
 31
0.0
 11
116.9035033860402
 21
96.40004096627469
 31
0.0
 11
116.919558623322
 21
96.37000334393363
 31
0.0
 11
116.9399639913929
 21
96.34214747267974
 31
0.0
 11
116.9803517529772
 21
96.30824300317165
 31
0.0
 11
117.0288707674
 21
96.2933758177
 31
0.0
  0
SPLINE
  5
EE
330
1F
100
AcDbEntity
  8
FASEN
  6
Continuous
 62
     7
100
AcDbSpline
210
0.0
220
0.0
230
1.0
 70
     8
 71
     3
 72
    19
 73
    15
 74
    13
 42
0.0000000001
 43
0.0000000001
 44
0.00000001
 40
0.0
 40
0.0
 40
0.0
 40
0.0
 40
0.0027107037692091
 40
0.0054659932088366
 40
0.0136658057893086
 40
0.0218153575407133
 40
0.0354192343104019
 40
0.0490506312052795
 40
0.0680941272704906
 40
0.0871248691388447
 40
0.1411923575831429
 40
0.1952725686671763
 40
0.2702326326167894
 40
0.3451888614784443
 40
0.3451888614784443
 40
0.3451888614784443
 40
0.3451888614784443
 10
136.2462912572
 20
150.6642266976
 30
0.0
 10
136.2453853661139
 20
150.6641813322064
 30
0.0
 10
136.2435586838402
 20
150.664089855249
 30
0.0
 10
136.2391725252473
 20
150.6627852487819
 30
0.0
 10
136.2328918469561
 20
150.661697705418
 30
0.0
 10
136.2229849963676
 20
150.660455649753
 30
0.0
 10
136.2113378922836
 20
150.6585754244643
 30
0.0
 10
136.1961592078033
 20
150.6558249533354
 30
0.0
 10
136.1791616520207
 20
150.6529687247446
 30
0.0
 10
136.1488397714483
 20
150.6480780422246
 30
0.0
 10
136.1070058688349
 20
150.6412160370084
 30
0.0
 10
136.0467787092013
 20
150.6313129724607
 30
0.0
 10
135.9796402509687
 20
150.6205287569933
 30
0.0
 10
135.930276987419
 20
150.61275191735
 30
0.0
 10
135.905595987038
 20
150.608863597
 30
0.0
 11
136.2462912572
 21
150.6642266976
 31
0.0
 11
136.2435913712889
 21
150.6639847658092
 31
0.0
 11
136.2409145919875
 21
150.6633317172139
 31
0.0
 11
136.232867128906
 21
150.6617584199419
 31
0.0
 11
136.2247938307893
 21
150.6606461918774
 31
0.0
 11
136.2113549116744
 21
150.6585341037662
 31
0.0
 11
136.19793000477
 21
150.6561704506798
 31
0.0
 11
136.1791542045586
 21
150.6529886164904
 31
0.0
 11
136.1603703128866
 21
150.6499333669568
 31
0.0
 11
136.107010652806
 21
150.6412132762028
 31
0.0
 11
136.0536419206282
 21
150.6324698411437
 31
0.0
 11
135.9796331251186
 21
150.6205656664749
 31
0.0
 11
135.905595987038
 21
150.608863597
 31
0.0
  0
SPLINE
  5
EF
330
1F
100
AcDbEntity
  8
ACHSEN
  6
Continuous
 62
     7
100
AcDbSpline
210
0.0
220
0.0
230
1.0
 70
     8
 71
     3
 72
    15
 73
    11
 74
     9
 42
0.0000000001
 43
0.0000000001
 44
0.00000001
 40
0.0
 40
0.0
 40
0.0
 40
0.0
 40
0.7036199270343559
 40
1.407365568512456
 40
2.995285720762155
 40
4.583299557680578
 40
6.171264475928589
 40
7.759111163583063
 40
8.458270837210105
 40
9.157317424647236
 40
9.157317424647236
 40
9.157317424647236
 40
9.157317424647236
 10
108.2032089895
 20
139.5677795446
 30
0.0
 10
107.9711966136167
 20
139.5333873619658
 30
0.0
 10
107.5071304086371
 20
139.464596851911
 30
0.0
 10
106.5162270911005
 20
139.3416547890606
 30
0.0
 10
105.2282453606935
 20
139.2206827425056
 30
0.0
 10
103.6415989077307
 20
139.1436165086823
 30
0.0
 10
102.0531011563952
 20
139.1393320719899
 30
0.0
 10
100.762206782251
 20
139.1953172945562
 30
0.0
 10
99.76952303510582
 20
139.2692134448318
 30
0.0
 10
99.30572694537368
 20
139.3153511997431
 30
0.0
 10
99.0738476563
 20
139.3384182114
 30
0.0
 11
108.2032089895
 21
139.5677795446
 31
0.0
 11
107.506791971521
 21
139.467358736054
 31
0.0
 11
106.8084797589268
 21
139.3800776863285
 31
0.0
 11
105.2274231270725
 21
139.2325977324689
 31
0.0
 11
103.6412699683623
 21
139.1557465557832
 31
0.0
 11
102.0533106804885
 21
139.151517886772
 31
0.0
 11
100.4669204287588
 21
139.21951106814
 31
0.0
 11
99.76974141773574
 21
139.2721007611903
 31
0.0
 11
99.0738476563
 21
139.3384182114
 31
0.0
  0
MTEXT
  5
113
330
1F
100
AcDbEntity
  8
0
 62
     5
100
AcDbMText
 10
15.6473559
 20
88.7407460313
 30
0.0
 40
3.5
 41
0.0
 71
     1
 72
     1
  3
F\U+00fcr diese Unterlage behalten wir das Ur-\Pheberrecht. Sie darf nur f\U+00fcr den von uns \Pbestimmten Zweck benutzt und ohne unsere \PZustimmung weder vervielf\U+00e4ltigt noch\PDritten zug\U+00e4nglich gemacht werden\P \PWe own the copyright 
  3
of this document. It \Pdetermined and may neither be copied or \Pmade accessible to outsiders without our\Ppermission.\P \PCe plan reste notre propri\U+00e9t\U+00e9. Il ne peut\P\U+00eatre utilis\U+00e9, copi\U+00e9 ou reproduit sans notre\Paccord.\
  7
CONVERTER_11
 73
     1
 44
1.0
  0
DIMENSION
  5
11E
330
1F
100
AcDbEntity
  8
0
100
AcDbDimension
  2
*D1
 10
249.0238476563
 20
176.393800425
 30
0.0
 11
184.0238476563
 21
180.768800425
 31
0.0
 70
    32
  1
130
 71
     5
 42
-1.0
 53
0.00013888888889
  3
ME10_DIM_10
100
AcDbAlignedDimension
 13
119.0238476563
 23
158.2772238475
 33
0.0
 14
249.0238476563
 24
141.1751595941
 34
0.0
100
AcDbRotatedDimension
  0
DIMENSION
  5
129
330
1F
100
AcDbEntity
  8
0
100
AcDbDimension
  2
*D2
 10
262.5843399411
 20
103.1642612092
 30
0.0
 11
258.2093399411
 21
119.1642612092
 31
0.0
 70
    32
  1
{\Fgdt;n}32
 71
     5
 42
-1.0
 53
90.0
  3
ME10_DIM_11
100
AcDbAlignedDimension
 13
237.5238476563
 23
135.1642612092
 33
0.0
 14
237.5238476563
 24
103.1642612092
 34
0.0
 50
90.0
100
AcDbRotatedDimension
  0
DIMENSION
  5
134
330
1F
100
AcDbEntity
  8
0
100
AcDbDimension
  2
*D3
 10
236.0238476563
 20
167.5750514999
 30
0.0
 11
177.5238476563
 21
171.9500514999
 31
0.0
 70
    32
  1
117
 71
     5
 42
-1.0
 53
0.00013888888889
  3
ME10_DIM_12
100
AcDbAlignedDimension
 13
119.0238476563
 23
152.0092301315
 33
0.0
 14
236.0238476563
 24
100.6642612092
 34
0.0
100
AcDbRotatedDimension
  0
DIMENSION
  5
13F
330
1F
100
AcDbEntity
  8
0
100
AcDbDimension
  2
*D4
 10
271.3234594508
 20
143.1392612092
 30
0.0
 11
266.9484594508
 21
119.1642612092
 31
0.0
 70
    32
  1
{\Fgdt;n}48
 71
     5
 42
-1.0
 53
90.0
  3
ME10_DIM_13
100
AcDbAlignedDimension
 13
214.5488476563
 23
95.1892612092
 33
0.0
 14
214.5488476563
 24
143.1392612092
 34
0.0
 50
90.0
100
AcDbRotatedDimension
  0
DIMENSION
  5
14A
330
1F
100
AcDbEntity
  8
0
100
AcDbDimension
  2
*D5
 10
236.0238476563
 20
183.8210929149
 30
0.0
 11
158.5238476563
 21
188.1960929149
 31
0.0
 70
    32
  1
155
 71
     5
 42
-1.0
 53
0.00013888888889
  3
ME10_DIM_14
100
AcDbAlignedDimension
 13
81.0238476563
 23
139.426466627
 33
0.0
 14
236.0238476563
 24
100.6642612092
 34
0.0
100
AcDbRotatedDimension
  0
DIMENSION
  5
155
330
1F
100
AcDbEntity
  8
0
100
AcDbDimension
  2
*D6
 10
236.0238476563
 20
159.1101857886
 30
0.0
 11
188.5238476563
 21
163.4851857886
 31
0.0
 70
    32
  1
95
 71
     5
 42
-1.0
 53
0.00013888888889
  3
ME10_DIM_15
100
AcDbAlignedDimension
 13
141.0238476563
 23
144.2424648445
 33
0.0
 14
236.0238476563
 24
100.6642612092
 34
0.0
100
AcDbRotatedDimension
  0
ENDSEC
  0
SECTION
  2
OBJECTS
  0
DICTIONARY
  5
C
330
0
100
AcDbDictionary
281
     1
  3
ACAD_GROUP
350
D
  3
ACAD_LAYOUT
350
1A
  3
ACAD_MLEADERSTYLE
350
158
  3
ACAD_MLINESTYLE
350
17
  3
ACAD_PLOTSETTINGS
350
19
  3
ACAD_PLOTSTYLENAME
350
E
  3
ACAD_SCALELIST
350
F1
  3
ACAD_VISUALSTYLE
350
2A
  3
AcDbVariableDictionary
350
156
  0
DICTIONARY
  5
D
102
{ACAD_REACTORS
330
C
102
}
330
C
100
AcDbDictionary
281
     1
  0
DICTIONARY
  5
1A
102
{ACAD_REACTORS
330
C
102
}
330
C
100
AcDbDictionary
281
     1
  3
Layout1
350
1E
  3
Layout2
350
26
  3
Model
350
22
  0
DICTIONARY
  5
158
102
{ACAD_REACTORS
330
C
102
}
330
C
100
AcDbDictionary
281
     1
  0
DICTIONARY
  5
17
102
{ACAD_REACTORS
330
C
102
}
330
C
100
AcDbDictionary
281
     1
  3
Standard
350
18
  0
DICTIONARY
  5
19
102
{ACAD_REACTORS
330
C
102
}
330
C
100
AcDbDictionary
281
     1
  0
ACDBDICTIONARYWDFLT
  5
E
102
{ACAD_REACTORS
330
C
102
}
330
C
100
AcDbDictionary
281
     1
  3
Normal
350
F
100
AcDbDictionaryWithDefault
340
F
  0
DICTIONARY
  5
F1
102
{ACAD_REACTORS
330
C
102
}
330
C
100
AcDbDictionary
281
     1
  3
A0
350
F2
  3
A1
350
F3
  3
A2
350
F4
  3
A3
350
F5
  3
A4
350
F6
  3
A5
350
F7
  3
A6
350
F8
  3
A7
350
F9
  3
A8
350
FA
  3
A9
350
FB
  3
B0
350
FC
  3
B1
350
FD
  3
B2
350
FE
  3
B3
350
FF
  3
B4
350
100
  3
B5
350
101
  3
B6
350
102
  3
B7
350
103
  3
B8
350
104
  3
B9
350
105
  3
C0
350
106
  3
C1
350
107
  3
C2
350
108
  3
C3
350
109
  3
C4
350
10A
  3
C5
350
10B
  3
C6
350
10C
  3
C7
350
10D
  3
C8
350
10E
  3
C9
350
10F
  3
D0
350
110
  3
D1
350
111
  3
D2
350
112
  0
DICTIONARY
  5
2A
102
{ACAD_REACTORS
330
C
102
}
330
C
100
AcDbDictionary
281
     1
  3
2dWireframe
350
2F
  3
3D Hidden
350
31
  3
3dWireframe
350
30
  3
Basic
350
32
  3
Brighten
350
36
  3
ColorChange
350
3A
  3
Conceptual
350
34
  3
Dim
350
35
  3
Facepattern
350
39
  3
Flat
350
2B
  3
FlatWithEdges
350
2C
  3
Gouraud
350
2D
  3
GouraudWithEdges
350
2E
  3
Linepattern
350
38
  3
Realistic
350
33
  3
Thicken
350
37
  0
DICTIONARY
  5
156
102
{ACAD_REACTORS
330
C
102
}
330
C
100
AcDbDictionary
281
     1
  3
CANNOSCALE
350
159
  0
LAYOUT
  5
1E
102
{ACAD_REACTORS
330
1A
102
}
330
1A
100
AcDbPlotSettings
  1

  2
none_device
  4

  6

 40
0.0
 41
0.0
 42
0.0
 43
0.0
 44
0.0
 45
0.0
 46
0.0
 47
0.0
 48
0.0
 49
0.0
140
0.0
141
0.0
142
1.0
143
1.0
 70
   688
 72
     0
 73
     0
 74
     5
  7

 75
    16
147
1.0
148
0.0
149
0.0
100
AcDbLayout
  1
Layout1
 70
     1
 71
     1
 10
0.0
 20
0.0
 11
12.0
 21
9.0
 12
0.0
 22
0.0
 32
0.0
 14
1.00000000000000E+20
 24
1.00000000000000E+20
 34
1.00000000000000E+20
 15
-1.00000000000000E+20
 25
-1.00000000000000E+20
 35
-1.00000000000000E+20
146
0.0
 13
0.0
 23
0.0
 33
0.0
 16
1.0
 26
0.0
 36
0.0
 17
0.0
 27
1.0
 37
0.0
 76
     0
330
1B
  0
LAYOUT
  5
26
102
{ACAD_REACTORS
330
1A
102
}
330
1A
100
AcDbPlotSettings
  1

  2
none_device
  4

  6

 40
0.0
 41
0.0
 42
0.0
 43
0.0
 44
0.0
 45
0.0
 46
0.0
 47
0.0
 48
0.0
 49
0.0
140
0.0
141
0.0
142
1.0
143
1.0
 70
   688
 72
     0
 73
     0
 74
     5
  7

 75
    16
147
1.0
148
0.0
149
0.0
100
AcDbLayout
  1
Layout2
 70
     1
 71
     2
 10
0.0
 20
0.0
 11
0.0
 21
0.0
 12
0.0
 22
0.0
 32
0.0
 14
0.0
 24
0.0
 34
0.0
 15
0.0
 25
0.0
 35
0.0
146
0.0
 13
0.0
 23
0.0
 33
0.0
 16
1.0
 26
0.0
 36
0.0
 17
0.0
 27
1.0
 37
0.0
 76
     0
330
23
  0
LAYOUT
  5
22
102
{ACAD_REACTORS
330
1A
102
}
330
1A
100
AcDbPlotSettings
  1

  2
none_device
  4

  6

 40
0.0
 41
0.0
 42
0.0
 43
0.0
 44
0.0
 45
0.0
 46
0.0
 47
0.0
 48
0.0
 49
0.0
140
0.0
141
0.0
142
1.0
143
1.0
 70
  1712
 72
     0
 73
     0
 74
     0
  7

 75
     0
147
1.0
148
0.0
149
0.0
100
AcDbLayout
  1
Model
 70
     1
 71
     0
 10
0.0
 20
0.0
 11
12.0
 21
9.0
 12
0.0
 22
0.0
 32
0.0
 14
0.0
 24
0.0
 34
0.0
 15
297.0
 25
210.0
 35
0.0
146
0.0
 13
0.0
 23
0.0
 33
0.0
 16
1.0
 26
0.0
 36
0.0
 17
0.0
 27
1.0
 37
0.0
 76
     0
330
1F
331
29
  0
MLINESTYLE
  5
18
102
{ACAD_REACTORS
330
17
102
}
330
17
100
AcDbMlineStyle
  2
Standard
 70
     0
  3

 62
   256
 51
90.0
 52
90.0
 71
     2
 49
0.5
 62
   256
  6
BYLAYER
 49
-0.5
 62
   256
  6
BYLAYER
  0
ACDBPLACEHOLDER
  5
F
102
{ACAD_REACTORS
330
E
102
}
330
E
  0
SCALE
  5
F2
102
{ACAD_REACTORS
330
F1
102
}
330
F1
100
AcDbScale
 70
     0
300
1:1
140
1.0
141
1.0
290
     1
  0
SCALE
  5
F3
102
{ACAD_REACTORS
330
F1
102
}
330
F1
100
AcDbScale
 70
     0
300
1:2
140
1.0
141
2.0
290
     0
  0
SCALE
  5
F4
102
{ACAD_REACTORS
330
F1
102
}
330
F1
100
AcDbScale
 70
     0
300
1:4
140
1.0
141
4.0
290
     0
  0
SCALE
  5
F5
102
{ACAD_REACTORS
330
F1
102
}
330
F1
100
AcDbScale
 70
     0
300
1:5
140
1.0
141
5.0
290
     0
  0
SCALE
  5
F6
102
{ACAD_REACTORS
330
F1
102
}
330
F1
100
AcDbScale
 70
     0
300
1:8
140
1.0
141
8.0
290
     0
  0
SCALE
  5
F7
102
{ACAD_REACTORS
330
F1
102
}
330
F1
100
AcDbScale
 70
     0
300
1:10
140
1.0
141
10.0
290
     0
  0
SCALE
  5
F8
102
{ACAD_REACTORS
330
F1
102
}
330
F1
100
AcDbScale
 70
     0
300
1:16
140
1.0
141
16.0
290
     0
  0
SCALE
  5
F9
102
{ACAD_REACTORS
330
F1
102
}
330
F1
100
AcDbScale
 70
     0
300
1:20
140
1.0
141
20.0
290
     0
  0
SCALE
  5
FA
102
{ACAD_REACTORS
330
F1
102
}
330
F1
100
AcDbScale
 70
     0
300
1:30
140
1.0
141
30.0
290
     0
  0
SCALE
  5
FB
102
{ACAD_REACTORS
330
F1
102
}
330
F1
100
AcDbScale
 70
     0
300
1:40
140
1.0
141
40.0
290
     0
  0
SCALE
  5
FC
102
{ACAD_REACTORS
330
F1
102
}
330
F1
100
AcDbScale
 70
     0
300
1:50
140
1.0
141
50.0
290
     0
  0
SCALE
  5
FD
102
{ACAD_REACTORS
330
F1
102
}
330
F1
100
AcDbScale
 70
     0
300
1:100
140
1.0
141
100.0
290
     0
  0
SCALE
  5
FE
102
{ACAD_REACTORS
330
F1
102
}
330
F1
100
AcDbScale
 70
     0
300
2:1
140
2.0
141
1.0
290
     0
  0
SCALE
  5
FF
102
{ACAD_REACTORS
330
F1
102
}
330
F1
100
AcDbScale
 70
     0
300
4:1
140
4.0
141
1.0
290
     0
  0
SCALE
  5
100
102
{ACAD_REACTORS
330
F1
102
}
330
F1
100
AcDbScale
 70
     0
300
8:1
140
8.0
141
1.0
290
     0
  0
SCALE
  5
101
102
{ACAD_REACTORS
330
F1
102
}
330
F1
100
AcDbScale
 70
     0
300
10:1
140
10.0
141
1.0
290
     0
  0
SCALE
  5
102
102
{ACAD_REACTORS
330
F1
102
}
330
F1
100
AcDbScale
 70
     0
300
100:1
140
100.0
141
1.0
290
     0
  0
SCALE
  5
103
102
{ACAD_REACTORS
330
F1
102
}
330
F1
100
AcDbScale
 70
     0
300
1/128" = 1'-0"
140
0.0078125
141
12.0
290
     0
  0
SCALE
  5
104
102
{ACAD_REACTORS
330
F1
102
}
330
F1
100
AcDbScale
 70
     0
300
1/64" = 1'-0"
140
0.015625
141
12.0
290
     0
  0
SCALE
  5
105
102
{ACAD_REACTORS
330
F1
102
}
330
F1
100
AcDbScale
 70
     0
300
1/32" = 1'-0"
140
0.03125
141
12.0
290
     0
  0
SCALE
  5
106
102
{ACAD_REACTORS
330
F1
102
}
330
F1
100
AcDbScale
 70
     0
300
1/16" = 1'-0"
140
0.0625
141
12.0
290
     0
  0
SCALE
  5
107
102
{ACAD_REACTORS
330
F1
102
}
330
F1
100
AcDbScale
 70
     0
300
3/32" = 1'-0"
140
0.09375
141
12.0
290
     0
  0
SCALE
  5
108
102
{ACAD_REACTORS
330
F1
102
}
330
F1
100
AcDbScale
 70
     0
300
1/8" = 1'-0"
140
0.125
141
12.0
290
     0
  0
SCALE
  5
109
102
{ACAD_REACTORS
330
F1
102
}
330
F1
100
AcDbScale
 70
     0
300
3/16" = 1'-0"
140
0.1875
141
12.0
290
     0
  0
SCALE
  5
10A
102
{ACAD_REACTORS
330
F1
102
}
330
F1
100
AcDbScale
 70
     0
300
1/4" = 1'-0"
140
0.25
141
12.0
290
     0
  0
SCALE
  5
10B
102
{ACAD_REACTORS
330
F1
102
}
330
F1
100
AcDbScale
 70
     0
300
3/8" = 1'-0"
140
0.375
141
12.0
290
     0
  0
SCALE
  5
10C
102
{ACAD_REACTORS
330
F1
102
}
330
F1
100
AcDbScale
 70
     0
300
1/2" = 1'-0"
140
0.5
141
12.0
290
     0
  0
SCALE
  5
10D
102
{ACAD_REACTORS
330
F1
102
}
330
F1
100
AcDbScale
 70
     0
300
3/4" = 1'-0"
140
0.75
141
12.0
290
     0
  0
SCALE
  5
10E
102
{ACAD_REACTORS
330
F1
102
}
330
F1
100
AcDbScale
 70
     0
300
1" = 1'-0"
140
1.0
141
12.0
290
     0
  0
SCALE
  5
10F
102
{ACAD_REACTORS
330
F1
102
}
330
F1
100
AcDbScale
 70
     0
300
1-1/2" = 1'-0"
140
1.5
141
12.0
290
     0
  0
SCALE
  5
110
102
{ACAD_REACTORS
330
F1
102
}
330
F1
100
AcDbScale
 70
     0
300
3" = 1'-0"
140
3.0
141
12.0
290
     0
  0
SCALE
  5
111
102
{ACAD_REACTORS
330
F1
102
}
330
F1
100
AcDbScale
 70
     0
300
6" = 1'-0"
140
6.0
141
12.0
290
     0
  0
SCALE
  5
112
102
{ACAD_REACTORS
330
F1
102
}
330
F1
100
AcDbScale
 70
     0
300
1'-0" = 1'-0"
140
12.0
141
12.0
290
     0
  0
VISUALSTYLE
  5
2F
102
{ACAD_REACTORS
330
2A
102
}
330
2A
100
AcDbVisualStyle
  2
2dWireframe
 70
     4
 71
     0
 72
     2
 73
     0
 90
        0
 40
-0.6
 41
-30.0
 62
     5
 63
     7
 74
     1
 91
        4
 64
     7
 65
   257
 75
     1
175
     1
 42
1.0
 92
        0
 66
   257
 43
1.0
 76
     1
 77
     6
 78
     2
 67
     7
 79
     5
170
     0
171
     0
290
     0
174
     0
 93
        1
 44
0.0
173
     0
291
     0
 45
0.0
1001
ACAD
1000
AcDbSavedByObjectVersion
1070
     0
  0
VISUALSTYLE
  5
31
102
{ACAD_REACTORS
330
2A
102
}
330
2A
100
AcDbVisualStyle
  2
3D Hidden
 70
     6
 71
     1
 72
     2
 73
     2
 90
        0
 40
-0.6
 41
-30.0
 62
     5
 63
     7
 74
     2
 91
        2
 64
     7
 65
   257
 75
     2
175
     1
 42
40.0
 92
        0
 66
   257
 43
1.0
 76
     1
 77
     6
 78
     2
 67
     7
 79
     3
170
     0
171
     0
290
     0
174
     0
 93
        1
 44
0.0
173
     0
291
     0
 45
0.0
1001
ACAD
1000
AcDbSavedByObjectVersion
1070
     0
  0
VISUALSTYLE
  5
30
102
{ACAD_REACTORS
330
2A
102
}
330
2A
100
AcDbVisualStyle
  2
3dWireframe
 70
     5
 71
     0
 72
     2
 73
     0
 90
        0
 40
-0.6
 41
-30.0
 62
     5
 63
     7
 74
     1
 91
        4
 64
     7
 65
   257
 75
     1
175
     1
 42
1.0
 92
        0
 66
   257
 43
1.0
 76
     1
 77
     6
 78
     2
 67
     7
 79
     5
170
     0
171
     0
290
     0
174
     0
 93
        1
 44
0.0
173
     0
291
     0
 45
0.0
1001
ACAD
1000
AcDbSavedByObjectVersion
1070
     0
  0
VISUALSTYLE
  5
32
102
{ACAD_REACTORS
330
2A
102
}
330
2A
100
AcDbVisualStyle
  2
Basic
 70
     7
 71
     1
 72
     0
 73
     1
 90
        0
 40
-0.6
 41
-30.0
 62
     5
 63
     7
 74
     0
 91
        4
 64
     7
 65
   257
 75
     1
175
     1
 42
1.0
 92
        8
 66
     7
 43
1.0
 76
     1
 77
     6
 78
     2
 67
     7
 79
     5
170
     0
171
     0
290
     0
174
     0
 93
        1
 44
0.0
173
     0
291
     1
 45
0.0
1001
ACAD
1000
AcDbSavedByObjectVersion
1070
     0
  0
VISUALSTYLE
  5
36
102
{ACAD_REACTORS
330
2A
102
}
330
2A
100
AcDbVisualStyle
  2
Brighten
 70
    12
 71
     2
 72
     2
 73
     0
 90
        0
 40
-0.6
 41
-30.0
 62
     5
 63
     7
 74
     1
 91
        4
 64
     7
 65
   257
 75
     1
175
     1
 42
1.0
 92
        8
 66
     7
 43
1.0
 76
     1
 77
     6
 78
     2
 67
     7
 79
     5
170
     0
171
     0
290
     0
174
     0
 93
        1
 44
50.0
173
     0
291
     1
 45
0.0
1001
ACAD
1000
AcDbSavedByObjectVersion
1070
     0
  0
VISUALSTYLE
  5
3A
102
{ACAD_REACTORS
330
2A
102
}
330
2A
100
AcDbVisualStyle
  2
ColorChange
 70
    16
 71
     2
 72
     2
 73
     3
 90
        0
 40
-0.6
 41
-30.0
 62
     5
 63
     8
 74
     1
 91
        4
 64
     7
 65
   257
 75
     1
175
     1
 42
1.0
 92
        8
 66
     8
 43
1.0
 76
     1
 77
     6
 78
     2
 67
     7
 79
     5
170
     0
171
     0
290
     0
174
     0
 93
        1
 44
0.0
173
     0
291
     1
 45
0.0
1001
ACAD
1000
AcDbSavedByObjectVersion
1070
     0
  0
VISUALSTYLE
  5
34
102
{ACAD_REACTORS
330
2A
102
}
330
2A
100
AcDbVisualStyle
  2
Conceptual
 70
     9
 71
     3
 72
     2
 73
     0
 90
        0
 40
-0.6
 41
-30.0
 62
     5
 63
     7
 74
     2
 91
        2
 64
     7
 65
   257
 75
     1
175
     1
 42
40.0
 92
        8
 66
     7
 43
1.0
 76
     1
 77
     6
 78
     2
 67
     7
 79
     3
170
     0
171
     0
290
     0
174
     0
 93
        1
 44
0.0
173
     0
291
     0
 45
0.0
1001
ACAD
1000
AcDbSavedByObjectVersion
1070
     0
  0
VISUALSTYLE
  5
35
102
{ACAD_REACTORS
330
2A
102
}
330
2A
100
AcDbVisualStyle
  2
Dim
 70
    11
 71
     2
 72
     2
 73
     0
 90
        0
 40
-0.6
 41
-30.0
 62
     5
 63
     7
 74
     1
 91
        4
 64
     7
 65
   257
 75
     1
175
     1
 42
1.0
 92
        8
 66
     7
 43
1.0
 76
     1
 77
     6
 78
     2
 67
     7
 79
     5
170
     0
171
     0
290
     0
174
     0
 93
        1
 44
-50.0
173
     0
291
     1
 45
0.0
1001
ACAD
1000
AcDbSavedByObjectVersion
1070
     0
  0
VISUALSTYLE
  5
39
102
{ACAD_REACTORS
330
2A
102
}
330
2A
100
AcDbVisualStyle
  2
Facepattern
 70
    15
 71
     2
 72
     2
 73
     0
 90
        0
 40
-0.6
 41
-30.0
 62
     5
 63
     7
 74
     1
 91
        4
 64
     7
 65
   257
 75
     1
175
     1
 42
1.0
 92
        8
 66
     7
 43
1.0
 76
     1
 77
     6
 78
     2
 67
     7
 79
     5
170
     0
171
     0
290
     0
174
     0
 93
        1
 44
0.0
173
     0
291
     1
 45
0.0
1001
ACAD
1000
AcDbSavedByObjectVersion
1070
     0
  0
VISUALSTYLE
  5
2B
102
{ACAD_REACTORS
330
2A
102
}
330
2A
100
AcDbVisualStyle
  2
Flat
 70
     0
 71
     2
 72
     1
 73
     1
 90
        2
 40
-0.6
 41
30.0
 62
     5
 63
     7
 74
     0
 91
        4
 64
     7
 65
   257
 75
     1
175
     1
 42
1.0
 92
        8
 66
     7
 43
1.0
 76
     1
 77
     6
 78
     2
 67
     7
 79
     5
170
     0
171
     0
290
     0
174
     0
 93
       13
 44
0.0
173
     0
291
     1
 45
0.0
1001
ACAD
1000
AcDbSavedByObjectVersion
1070
     0
  0
VISUALSTYLE
  5
2C
102
{ACAD_REACTORS
330
2A
102
}
330
2A
100
AcDbVisualStyle
  2
FlatWithEdges
 70
     1
 71
     2
 72
     1
 73
     1
 90
        2
 40
-0.6
 41
30.0
 62
     5
 63
     7
 74
     1
 91
        4
 64
     7
 65
   257
 75
     1
175
     1
 42
1.0
 92
        0
 66
   257
 43
1.0
 76
     1
 77
     6
 78
     2
 67
     7
 79
     5
170
     0
171
     0
290
     0
174
     0
 93
       13
 44
0.0
173
     0
291
     1
 45
0.0
1001
ACAD
1000
AcDbSavedByObjectVersion
1070
     0
  0
VISUALSTYLE
  5
2D
102
{ACAD_REACTORS
330
2A
102
}
330
2A
100
AcDbVisualStyle
  2
Gouraud
 70
     2
 71
     2
 72
     2
 73
     1
 90
        2
 40
-0.6
 41
30.0
 62
     5
 63
     7
 74
     0
 91
        4
 64
     7
 65
   257
 75
     1
175
     1
 42
1.0
 92
        0
 66
     7
 43
1.0
 76
     1
 77
     6
 78
     2
 67
     7
 79
     5
170
     0
171
     0
290
     0
174
     0
 93
       13
 44
0.0
173
     0
291
     1
 45
0.0
1001
ACAD
1000
AcDbSavedByObjectVersion
1070
     0
  0
VISUALSTYLE
  5
2E
102
{ACAD_REACTORS
330
2A
102
}
330
2A
100
AcDbVisualStyle
  2
GouraudWithEdges
 70
     3
 71
     2
 72
     2
 73
     1
 90
        2
 40
-0.6
 41
30.0
 62
     5
 63
     7
 74
     1
 91
        4
 64
     7
 65
   257
 75
     1
175
     1
 42
1.0
 92
        0
 66
   257
 43
1.0
 76
     1
 77
     6
 78
     2
 67
     7
 79
     5
170
     0
171
     0
290
     0
174
     0
 93
       13
 44
0.0
173
     0
291
     1
 45
0.0
1001
ACAD
1000
AcDbSavedByObjectVersion
1070
     0
  0
VISUALSTYLE
  5
38
102
{ACAD_REACTORS
330
2A
102
}
330
2A
100
AcDbVisualStyle
  2
Linepattern
 70
    14
 71
     2
 72
     2
 73
     0
 90
        0
 40
-0.6
 41
-30.0
 62
     5
 63
     7
 74
     1
 91
        4
 64
     7
 65
   257
 75
     7
175
     7
 42
1.0
 92
        8
 66
     7
 43
1.0
 76
     1
 77
     6
 78
     2
 67
     7
 79
     5
170
     0
171
     0
290
     0
174
     0
 93
        1
 44
0.0
173
     0
291
     1
 45
0.0
1001
ACAD
1000
AcDbSavedByObjectVersion
1070
     0
  0
VISUALSTYLE
  5
33
102
{ACAD_REACTORS
330
2A
102
}
330
2A
100
AcDbVisualStyle
  2
Realistic
 70
     8
 71
     2
 72
     2
 73
     0
 90
        0
 40
-0.6
 41
-30.0
 62
     5
 63
     7
 74
     1
 91
        0
 64
     7
 65
   257
 75
     1
175
     1
 42
1.0
 92
        8
 66
     8
 43
1.0
 76
     1
 77
     6
 78
     2
 67
     7
 79
     5
170
     0
171
     0
290
     0
174
     0
 93
       13
 44
0.0
173
     0
291
     0
 45
0.0
1001
ACAD
1000
AcDbSavedByObjectVersion
1070
     0
  0
VISUALSTYLE
  5
37
102
{ACAD_REACTORS
330
2A
102
}
330
2A
100
AcDbVisualStyle
  2
Thicken
 70
    13
 71
     2
 72
     2
 73
     0
 90
        0
 40
-0.6
 41
-30.0
 62
     5
 63
     7
 74
     1
 91
        4
 64
     7
 65
   257
 75
     1
175
     1
 42
1.0
 92
       12
 66
     7
 43
1.0
 76
     1
 77
     6
 78
     2
 67
     7
 79
     5
170
     0
171
     0
290
     0
174
     0
 93
        1
 44
0.0
173
     0
291
     1
 45
0.0
1001
ACAD
1000
AcDbSavedByObjectVersion
1070
     0
  0
DICTIONARYVAR
  5
159
102
{ACAD_REACTORS
330
156
102
}
330
156
100
DictionaryVariables
280
     0
  1
1:1
  0
ENDSEC
  0
EOF
