  0
SECTION
  2
HEADER
  9
$ACADVER
  1
AC1015
  9
$ACADMAINTVER
 70
     6
  9
$DWGCODEPAGE
  3
ANSI_1252
  9
$INSBASE
 10
0.0
 20
0.0
 30
0.0
  9
$EXTMIN
 10
0.0
 20
0.0
 30
0.0
  9
$EXTMAX
 10
297.0
 20
210.0
 30
0.0
  9
$LIMMIN
 10
0.0
 20
0.0
  9
$LIMMAX
 10
12.0
 20
9.0
  9
$ORTHOMODE
 70
     0
  9
$REGENMODE
 70
     1
  9
$FILLMODE
 70
     1
  9
$QTEXTMODE
 70
     0
  9
$MIRRTEXT
 70
     1
  9
$LTSCALE
 40
1.0
  9
$ATTMODE
 70
     1
  9
$TEXTSIZE
 40
0.2
  9
$TRACEWID
 40
0.05
  9
$TEXTSTYLE
  7
Standard
  9
$CLAYER
  8
0
  9
$CELTYPE
  6
ByLayer
  9
$CECOLOR
 62
   256
  9
$CELTSCALE
 40
1.0
  9
$DISPSILH
 70
     0
  9
$DIMSCALE
 40
1.0
  9
$DIMASZ
 40
0.18
  9
$DIMEXO
 40
0.0625
  9
$DIMDLI
 40
0.38
  9
$DIMRND
 40
0.0
  9
$DIMDLE
 40
0.0
  9
$DIMEXE
 40
0.18
  9
$DIMTP
 40
0.0
  9
$DIMTM
 40
0.0
  9
$DIMTXT
 40
0.18
  9
$DIMCEN
 40
0.09
  9
$DIMTSZ
 40
0.0
  9
$DIMTOL
 70
     0
  9
$DIMLIM
 70
     0
  9
$DIMTIH
 70
     1
  9
$DIMTOH
 70
     1
  9
$DIMSE1
 70
     0
  9
$DIMSE2
 70
     0
  9
$DIMTAD
 70
     0
  9
$DIMZIN
 70
     0
  9
$DIMBLK
  1

  9
$DIMASO
 70
     1
  9
$DIMSHO
 70
     1
  9
$DIMPOST
  1

  9
$DIMAPOST
  1

  9
$DIMALT
 70
     0
  9
$DIMALTD
 70
     2
  9
$DIMALTF
 40
25.4
  9
$DIMLFAC
 40
1.0
  9
$DIMTOFL
 70
     0
  9
$DIMTVP
 40
0.0
  9
$DIMTIX
 70
     0
  9
$DIMSOXD
 70
     0
  9
$DIMSAH
 70
     0
  9
$DIMBLK1
  1

  9
$DIMBLK2
  1

  9
$DIMSTYLE
  2
Standard
  9
$DIMCLRD
 70
     0
  9
$DIMCLRE
 70
     0
  9
$DIMCLRT
 70
     0
  9
$DIMTFAC
 40
1.0
  9
$DIMGAP
 40
0.09
  9
$DIMJUST
 70
     0
  9
$DIMSD1
 70
     0
  9
$DIMSD2
 70
     0
  9
$DIMTOLJ
 70
     1
  9
$DIMTZIN
 70
     0
  9
$DIMALTZ
 70
     0
  9
$DIMALTTZ
 70
     0
  9
$DIMUPT
 70
     0
  9
$DIMDEC
 70
     4
  9
$DIMTDEC
 70
     4
  9
$DIMALTU
 70
     2
  9
$DIMALTTD
 70
     2
  9
$DIMTXSTY
  7
Standard
  9
$DIMAUNIT
 70
     0
  9
$DIMADEC
 70
     0
  9
$DIMALTRND
 40
0.0
  9
$DIMAZIN
 70
     0
  9
$DIMDSEP
 70
    46
  9
$DIMATFIT
 70
     3
  9
$DIMFRAC
 70
     0
  9
$DIMLDRBLK
  1

  9
$DIMLUNIT
 70
     2
  9
$DIMLWD
 70
    -2
  9
$DIMLWE
 70
    -2
  9
$DIMTMOVE
 70
     0
  9
$LUNITS
 70
     2
  9
$LUPREC
 70
     4
  9
$SKETCHINC
 40
0.1
  9
$FILLETRAD
 40
0.5
  9
$AUNITS
 70
     0
  9
$AUPREC
 70
     0
  9
$MENU
  1
.
  9
$ELEVATION
 40
0.0
  9
$PELEVATION
 40
0.0
  9
$THICKNESS
 40
0.0
  9
$LIMCHECK
 70
     0
  9
$CHAMFERA
 40
0.5
  9
$CHAMFERB
 40
0.5
  9
$CHAMFERC
 40
1.0
  9
$CHAMFERD
 40
0.0
  9
$SKPOLY
 70
     0
  9
$TDCREATE
 40
2455758.475893113
  9
$TDUCREATE
 40
2455758.39255978
  9
$TDUPDATE
 40
2455758.475893125
  9
$TDUUPDATE
 40
2455758.392559791
  9
$TDINDWG
 40
0.0000000116
  9
$TDUSRTIMER
 40
0.0000000116
  9
$USRTIMER
 70
     1
  9
$ANGBASE
 50
0.0
  9
$ANGDIR
 70
     0
  9
$PDMODE
 70
     0
  9
$PDSIZE
 40
0.0
  9
$PLINEWID
 40
0.0
  9
$SPLFRAME
 70
     0
  9
$SPLINETYPE
 70
     6
  9
$SPLINESEGS
 70
     8
  9
$HANDSEED
  5
15A
  9
$SURFTAB1
 70
     6
  9
$SURFTAB2
 70
     6
  9
$SURFTYPE
 70
     6
  9
$SURFU
 70
     6
  9
$SURFV
 70
     6
  9
$UCSBASE
  2

  9
$UCSNAME
  2

  9
$UCSORG
 10
0.0
 20
0.0
 30
0.0
  9
$UCSXDIR
 10
1.0
 20
0.0
 30
0.0
  9
$UCSYDIR
 10
0.0
 20
1.0
 30
0.0
  9
$UCSORTHOREF
  2

  9
$UCSORTHOVIEW
 70
     0
  9
$UCSORGTOP
 10
0.0
 20
0.0
 30
0.0
  9
$UCSORGBOTTOM
 10
0.0
 20
0.0
 30
0.0
  9
$UCSORGLEFT
 10
0.0
 20
0.0
 30
0.0
  9
$UCSORGRIGHT
 10
0.0
 20
0.0
 30
0.0
  9
$UCSORGFRONT
 10
0.0
 20
0.0
 30
0.0
  9
$UCSORGBACK
 10
0.0
 20
0.0
 30
0.0
  9
$PUCSBASE
  2

  9
$PUCSNAME
  2

  9
$PUCSORG
 10
0.0
 20
0.0
 30
0.0
  9
$PUCSXDIR
 10
1.0
 20
0.0
 30
0.0
  9
$PUCSYDIR
 10
0.0
 20
1.0
 30
0.0
  9
$PUCSORTHOREF
  2

  9
$PUCSORTHOVIEW
 70
     0
  9
$PUCSORGTOP
 10
0.0
 20
0.0
 30
0.0
  9
$PUCSORGBOTTOM
 10
0.0
 20
0.0
 30
0.0
  9
$PUCSORGLEFT
 10
0.0
 20
0.0
 30
0.0
  9
$PUCSORGRIGHT
 10
0.0
 20
0.0
 30
0.0
  9
$PUCSORGFRONT
 10
0.0
 20
0.0
 30
0.0
  9
$PUCSORGBACK
 10
0.0
 20
0.0
 30
0.0
  9
$USERI1
 70
     0
  9
$USERI2
 70
     0
  9
$USERI3
 70
     0
  9
$USERI4
 70
     0
  9
$USERI5
 70
     0
  9
$USERR1
 40
16.5
  9
$USERR2
 40
0.0
  9
$USERR3
 40
0.0
  9
$USERR4
 40
0.0
  9
$USERR5
 40
0.0
  9
$WORLDVIEW
 70
     1
  9
$SHADEDGE
 70
     3
  9
$SHADEDIF
 70
    70
  9
$TILEMODE
 70
     1
  9
$MAXACTVP
 70
    64
  9
$PINSBASE
 10
0.0
 20
0.0
 30
0.0
  9
$PLIMCHECK
 70
     0
  9
$PEXTMIN
 10
1.00000000000000E+20
 20
1.00000000000000E+20
 30
1.00000000000000E+20
  9
$PEXTMAX
 10
-1.00000000000000E+20
 20
-1.00000000000000E+20
 30
-1.00000000000000E+20
  9
$PLIMMIN
 10
0.0
 20
0.0
  9
$PLIMMAX
 10
12.0
 20
9.0
  9
$UNITMODE
 70
     0
  9
$VISRETAIN
 70
     1
  9
$PLINEGEN
 70
     0
  9
$PSLTSCALE
 70
     1
  9
$TREEDEPTH
 70
  3020
  9
$CMLSTYLE
  2
Standard
  9
$CMLJUST
 70
     0
  9
$CMLSCALE
 40
1.0
  9
$PROXYGRAPHICS
 70
     1
  9
$MEASUREMENT
 70
     1
  9
$CELWEIGHT
370
    -1
  9
$ENDCAPS
280
     0
  9
$JOINSTYLE
280
     0
  9
$LWDISPLAY
290
     0
  9
$INSUNITS
 70
     1
  9
$HYPERLINKBASE
  1

  9
$STYLESHEET
  1

  9
$XEDIT
290
     1
  9
$CEPSNTYPE
380
     0
  9
$PSTYLEMODE
290
     1
  9
$FINGERPRINTGUID
  2
{F02C29AF-B6DF-472C-A9EC-1A2B9612CAAA}
  9
$VERSIONGUID
  2
{FAEB1C32-E019-11D5-929B-00C0DF256EC4}
  9
$EXTNAMES
290
     1
  9
$PSVPSCALE
 40
0.0
  9
$OLESTARTUP
290
     0
  0
ENDSEC
  0
SECTION
  2
CLASSES
  0
CLASS
  1
ACDBDICTIONARYWDFLT
  2
AcDbDictionaryWithDefault
  3
ObjectDBX Classes
 90
        0
280
     0
281
     0
  0
CLASS
  1
VISUALSTYLE
  2
AcDbVisualStyle
  3
ObjectDBX Classes
 90
     4095
280
     0
281
     0
  0
CLASS
  1

  2
exOdDbSpline
  3

 90
        0
280
     0
281
     1
  0
CLASS
  1
SCALE
  2
AcDbScale
  3
ObjectDBX Classes
 90
     1153
280
     0
281
     0
  0
CLASS
  1
DICTIONARYVAR
  2
AcDbDictionaryVar
  3
ObjectDBX Classes
 90
        0
280
     0
281
     0
  0
CLASS
  1
ACDBPLACEHOLDER
  2
AcDbPlaceHolder
  3
ObjectDBX Classes
 90
        0
280
     0
281
     0
  0
CLASS
  1
LAYOUT
  2
AcDbLayout
  3
ObjectDBX Classes
 90
        0
280
     0
281
     0
  0
ENDSEC
  0
SECTION
  2
TABLES
  0
TABLE
  2
VPORT
  5
8
330
0
100
AcDbSymbolTable
 70
     1
  0
VPORT
  5
29
330
8
100
AcDbSymbolTableRecord
100
AcDbViewportTableRecord
  2
*Active
 70
     0
 10
0.0
 20
0.0
 11
1.0
 21
1.0
 12
148.5
 22
105.0
 13
0.0
 23
0.0
 14
0.5
 24
0.5
 15
0.5
 25
0.5
 16
0.0
 26
0.0
 36
1.0
 17
0.0
 27
0.0
 37
0.0
 40
231.0
 41
1.60267857142857
 42
50.0
 43
0.0
 44
0.0
 50
0.0
 51
0.0
 71
     0
 72
   100
 73
     1
 74
     3
 75
     0
 76
     0
 77
     0
 78
     0
281
     0
 65
     1
110
0.0
120
0.0
130
0.0
111
1.0
121
0.0
131
0.0
112
0.0
122
1.0
132
0.0
 79
     0
146
0.0
  0
ENDTAB
  0
TABLE
  2
LTYPE
  5
5
330
0
100
AcDbSymbolTable
 70
    10
  0
LTYPE
  5
14
330
5
100
AcDbSymbolTableRecord
100
AcDbLinetypeTableRecord
  2
ByBlock
 70
     0
  3

 72
    65
 73
     0
 40
0.0
  0
LTYPE
  5
15
330
5
100
AcDbSymbolTableRecord
100
AcDbLinetypeTableRecord
  2
ByLayer
 70
     0
  3

 72
    65
 73
     0
 40
0.0
  0
LTYPE
  5
16
330
5
100
AcDbSymbolTableRecord
100
AcDbLinetypeTableRecord
  2
Continuous
 70
     0
  3
Solid line
 72
    65
 73
     0
 40
0.0
  0
LTYPE
  5
3B
330
5
100
AcDbSymbolTableRecord
100
AcDbLinetypeTableRecord
  2
DASHED
 70
     0
  3
Dashed
 72
    65
 73
     2
 40
15.0
 49
7.0
 74
     0
 49
-8.0
 74
     0
  0
LTYPE
  5
3C
330
5
100
AcDbSymbolTableRecord
100
AcDbLinetypeTableRecord
  2
DOTTED
 70
     0
  3
Dotted
 72
    65
 73
     2
 40
1.0
 49
0.0
 74
     0
 49
-1.0
 74
     0
  0
LTYPE
  5
3D
330
5
100
AcDbSymbolTableRecord
100
AcDbLinetypeTableRecord
  2
DOT_CENTER
 70
     0
  3
Dot_Center
 72
    65
 73
     4
 40
14.0
 49
12.0
 74
     0
 49
-1.0
 74
     0
 49
0.0
 74
     0
 49
-1.0
 74
     0
  0
LTYPE
  5
3E
330
5
100
AcDbSymbolTableRecord
100
AcDbLinetypeTableRecord
  2
LONG_DASHED
 70
     0
  3
Long_Dashed
 72
    65
 73
     2
 40
15.0
 49
10.0
 74
     0
 49
-5.0
 74
     0
  0
LTYPE
  5
3F
330
5
100
AcDbSymbolTableRecord
100
AcDbLinetypeTableRecord
  2
DASH_CENTER
 70
     0
  3
Dash_Center
 72
    65
 73
     4
 40
14.0
 49
11.0
 74
     0
 49
-1.0
 74
     0
 49
1.0
 74
     0
 49
-1.0
 74
     0
  0
LTYPE
  5
40
330
5
100
AcDbSymbolTableRecord
100
AcDbLinetypeTableRecord
  2
PHANTOM
 70
     0
  3
Phantom
 72
    65
 73
     6
 40
13.0
 49
10.0
 74
     0
 49
-1.0
 74
     0
 49
0.0
 74
     0
 49
-1.0
 74
     0
 49
0.0
 74
     0
 49
-1.0
 74
     0
  0
LTYPE
  5
41
330
5
100
AcDbSymbolTableRecord
100
AcDbLinetypeTableRecord
  2
CENTER_DASH_DASH
 70
     0
  3
Center_Dash_Dash
 72
    65
 73
     6
 40
14.0
 49
9.0
 74
     0
 49
-1.0
 74
     0
 49
1.0
 74
     0
 49
-1.0
 74
     0
 49
1.0
 74
     0
 49
-1.0
 74
     0
  0
LTYPE
  5
42
330
5
100
AcDbSymbolTableRecord
100
AcDbLinetypeTableRecord
  2
HIDDEN
 70
     0
  3
HIDDEN
 72
    65
 73
     2
 40
4.0
 49
2.0
 74
     0
 49
-2.0
 74
     0
  0
LTYPE
  5
43
330
5
100
AcDbSymbolTableRecord
100
AcDbLinetypeTableRecord
  2
CENTER
 70
     0
  3
CENTER
 72
    65
 73
     4
 40
13.0
 49
7.0
 74
     0
 49
-2.0
 74
     0
 49
2.0
 74
     0
 49
-2.0
 74
     0
  0
ENDTAB
  0
TABLE
  2
LAYER
  5
2
330
0
100
AcDbSymbolTable
 70
     7
  0
LAYER
  5
10
330
2
100
AcDbSymbolTableRecord
100
AcDbLayerTableRecord
  2
0
 70
     0
 62
     7
  6
Continuous
370
    -3
390
F
  0
LAYER
  5
44
330
2
100
AcDbSymbolTableRecord
100
AcDbLayerTableRecord
  2
ACHSEN
 70
     0
 62
     7
  6
Continuous
370
    -3
390
F
  0
LAYER
  5
45
330
2
100
AcDbSymbolTableRecord
100
AcDbLayerTableRecord
  2
DEFAULT_1
 70
     0
 62
     7
  6
Continuous
370
    -3
390
F
  0
LAYER
  5
46
330
2
100
AcDbSymbolTableRecord
100
AcDbLayerTableRecord
  2
DEFAULT_2
 70
     0
 62
     7
  6
Continuous
370
    -3
390
F
  0
LAYER
  5
47
330
2
100
AcDbSymbolTableRecord
100
AcDbLayerTableRecord
  2
FASEN
 70
     0
 62
     7
  6
Continuous
370
    -3
390
F
  0
LAYER
  5
48
330
2
100
AcDbSymbolTableRecord
100
AcDbLayerTableRecord
  2
RUNDUNGEN
 70
     0
 62
     7
  6
Continuous
370
    -3
390
F
  0
LAYER
  5
49
330
2
100
AcDbSymbolTableRecord
100
AcDbLayerTableRecord
  2
S_ACHSEN
 70
     0
 62
     7
  6
Continuous
370
    -3
390
F
  0
ENDTAB
  0
TABLE
  2
STYLE
  5
3
330
0
100
AcDbSymbolTable
 70
     2
  0
STYLE
  5
11
330
3
100
AcDbSymbolTableRecord
100
AcDbTextStyleTableRecord
  2
Standard
 70
     0
 40
0.0
 41
1.0
 50
0.0
 71
     0
 42
0.2
  3
txt
  4

  0
STYLE
  5
F0
330
3
100
AcDbSymbolTableRecord
100
AcDbTextStyleTableRecord
  2
CONVERTER_11
 70
     0
 40
0.0
 41
0.7
 50
0.0
 71
     0
 42
0.2
  3
txt.shx
  4

  0
ENDTAB
  0
TABLE
  2
VIEW
  5
6
330
0
100
AcDbSymbolTable
 70
     0
  0
ENDTAB
  0
TABLE
  2
UCS
  5
7
330
0
100
AcDbSymbolTable
 70
     0
  0
ENDTAB
  0
TABLE
  2
APPID
  5
9
330
0
100
AcDbSymbolTable
 70
     1
  0
APPID
  5
12
330
9
100
AcDbSymbolTableRecord
100
AcDbRegAppTableRecord
  2
ACAD
 70
     0
  0
ENDTAB
  0
TABLE
  2
DIMSTYLE
  5
A
330
0
100
AcDbSymbolTable
 70
     7
100
AcDbDimStyleTable
  0
DIMSTYLE
105
27
330
A
100
AcDbSymbolTableRecord
100
AcDbDimStyleTableRecord
  2
Standard
 70
     0
340
11
  0
DIMSTYLE
105
11D
102
{ACAD_REACTORS
330
11E
102
}
330
A
100
AcDbSymbolTableRecord
100
AcDbDimStyleTableRecord
  2
ME10_DIM_10
 70
     0
 41
3.5
 73
     0
 74
     0
 77
     1
 78
    12
140
3.5
172
     1
173
     1
176
     2
177
     2
178
     5
271
     2
340
F0
  0
DIMSTYLE
105
128
102
{ACAD_REACTORS
330
129
102
}
330
A
100
AcDbSymbolTableRecord
100
AcDbDimStyleTableRecord
  2
ME10_DIM_11
 70
     0
  3
{\Fgdt;n}<>
 41
3.5
 73
     0
 74
     0
 77
     1
 78
    12
140
3.5
172
     1
173
     1
176
     2
177
     2
178
     5
271
     2
340
F0
  0
DIMSTYLE
105
133
102
{ACAD_REACTORS
330
134
102
}
330
A
100
AcDbSymbolTableRecord
100
AcDbDimStyleTableRecord
  2
ME10_DIM_12
 70
     0
 41
3.5
 73
     0
 74
     0
 77
     1
 78
    12
140
3.5
172
     1
173
     1
176
     2
177
     2
178
     5
271
     2
340
F0
  0
DIMSTYLE
105
13E
102
{ACAD_REACTORS
330
13F
102
}
330
A
100
AcDbSymbolTableRecord
100
AcDbDimStyleTableRecord
  2
ME10_DIM_13
 70
     0
  3
{\Fgdt;n}<>
 41
3.5
 73
     0
 74
     0
 77
     1
 78
    12
140
3.5
172
     1
173
     1
176
     2
177
     2
178
     5
271
     2
340
F0
  0
DIMSTYLE
105
149
102
{ACAD_REACTORS
330
14A
102
}
330
A
100
AcDbSymbolTableRecord
100
AcDbDimStyleTableRecord
  2
ME10_DIM_14
 70
     0
 41
3.5
 73
     0
 74
     0
 77
     1
 78
    12
140
3.5
172
     1
173
     1
176
     2
177
     2
178
     5
271
     2
340
F0
  0
DIMSTYLE
105
154
102
{ACAD_REACTORS
330
155
102
}
330
A
100
AcDbSymbolTableRecord
100
AcDbDimStyleTableRecord
  2
ME10_DIM_15
 70
     0
 41
3.5
 73
     0
 74
     0
 77
     1
 78
    12
140
3.5
172
     1
173
     1
176
     2
177
     2
178
     5
271
     2
340
F0
  0
ENDTAB
  0
TABLE
  2
BLOCK_RECORD
  5
1
330
0
100
AcDbSymbolTable
 70
     7
  0
BLOCK_RECORD
  5
1F
330
1
100
AcDbSymbolTableRecord
100
AcDbBlockTableRecord
  2
*Model_Space
340
22
  0
BLOCK_RECORD
  5
1B
330
1
100
AcDbSymbolTableRecord
100
AcDbBlockTableRecord
  2
*Paper_Space
340
1E
  0
BLOCK_RECORD
  5
23
330
1
100
AcDbSymbolTableRecord
100
AcDbBlockTableRecord
  2
*Paper_Space0
340
26
  0
BLOCK_RECORD
  5
114
330
1
100
AcDbSymbolTableRecord
100
AcDbBlockTableRecord
  2
*D1
340
0
  0
BLOCK_RECORD
  5
11F
330
1
100
AcDbSymbolTableRecord
100
AcDbBlockTableRecord
  2
*D2
340
0
  0
BLOCK_RECORD
  5
12A
330
1
100
AcDbSymbolTableRecord
100
AcDbBlockTableRecord
  2
*D3
340
0
  0
BLOCK_RECORD
  5
135
330
1
100
AcDbSymbolTableRecord
100
AcDbBlockTableRecord
  2
*D4
340
0
  0
BLOCK_RECORD
  5
140
330
1
100
AcDbSymbolTableRecord
100
AcDbBlockTableRecord
  2
*D5
340
0
  0
BLOCK_RECORD
  5
14B
330
1
100
AcDbSymbolTableRecord
100
AcDbBlockTableRecord
  2
*D6
340
0
  0
ENDTAB
  0
ENDSEC
  0
SECTION
  2
BLOCKS
  0
BLOCK
  5
20
330
1F
100
AcDbEntity
  8
0
100
AcDbBlockBegin
  2
*Model_Space
 70
     0
 10
0.0
 20
0.0
 30
0.0
  3
*Model_Space
  1

  0
ENDBLK
  5
21
330
1F
100
AcDbEntity
  8
0
100
AcDbBlockEnd
  0
BLOCK
  5
1C
330
1B
100
AcDbEntity
 67
     1
  8
0
100
AcDbBlockBegin
  2
*Paper_Space
 70
     0
 10
0.0
 20
0.0
 30
0.0
  3
*Paper_Space
  1

  0
ENDBLK
  5
1D
330
1B
100
AcDbEntity
 67
     1
  8
0
100
AcDbBlockEnd
  0
BLOCK
  5
24
330
23
100
AcDbEntity
  8
0
100
AcDbBlockBegin
  2
*Paper_Space0
 70
     0
 10
0.0
 20
0.0
 30
0.0
  3
*Paper_Space0
  1

  0
ENDBLK
  5
25
330
23
100
AcDbEntity
  8
0
100
AcDbBlockEnd
  0
BLOCK
  5
11B
330
114
100
AcDbEntity
  8
0
100
AcDbBlockBegin
  2
*D1
 70
     1
 10
0.0
 20
0.0
 30
0.0
  3
*D1
  1

  0
LINE
  5
115
330
114
100
AcDbEntity
  8
0
  6
Continuous
 62
     2
100
AcDbLine
 10
112.7003369141
 20
184.8376812843
 30
0.0
 11
242.7003369141
 21
184.8376812843
 31
0.0
  0
LINE
  5
116
330
114
100
AcDbEntity
  8
0
  6
Continuous
 62
     2
100
AcDbLine
 10
112.7003369141
 20
166.4806907753
 30
0.0
 11
112.7003369141
 21
185.0176812843
 31
0.0
  0
LINE
  5
117
330
114
100
AcDbEntity
  8
0
  6
Continuous
 62
     2
100
AcDbLine
 10
242.7003369141
 20
146.3389779534
 30
0.0
 11
242.7003369141
 21
185.0176812843
 31
0.0
  0
SOLID
  5
118
330
114
100
AcDbEntity
  8
0
 62
     2
100
AcDbTrace
 10
239.2003369141
 20
184.3768975427441
 30
0.0
 11
239.2003369141
 21
185.2984650258559
 31
0.0
 12
242.7003369141
 22
184.8376812843
 32
0.0
 13
242.7003369141
 23
184.8376812843
 33
0.0
  0
SOLID
  5
119
330
114
100
AcDbEntity
  8
0
 62
     2
100
AcDbTrace
 10
116.2003369141
 20
185.2984650258559
 30
0.0
 11
116.2003369141
 21
184.3768975427441
 31
0.0
 12
112.7003369141
 22
184.8376812843
 32
0.0
 13
112.7003369141
 23
184.8376812843
 33
0.0
  0
MTEXT
  5
11A
330
114
100
AcDbEntity
  8
0
 62
     5
100
AcDbMText
 10
174.6868369141
 20
187.4626812843
 30
0.0
 40
3.5
 41
0.0
 71
     7
 72
     1
  1
130
  7
CONVERTER_11
 11
0.9999999999970619
 21
2.424068405545306E-6
 31
0.0
 73
     1
 44
0.60024009603842
  0
ENDBLK
  5
11C
330
114
100
AcDbEntity
  8
0
100
AcDbBlockEnd
  0
BLOCK
  5
126
330
11F
100
AcDbEntity
  8
0
100
AcDbBlockBegin
  2
*D2
 70
     1
 10
0.0
 20
0.0
 30
0.0
  3
*D2
  1

  0
LINE
  5
120
330
11F
100
AcDbEntity
  8
0
  6
Continuous
 62
     2
100
AcDbLine
 10
256.0074462891
 20
139.7655795686
 30
0.0
 11
256.0074462891
 21
114.7655795686
 31
0.0
  0
LINE
  5
121
330
11F
100
AcDbEntity
  8
0
  6
Continuous
 62
     2
100
AcDbLine
 10
232.2628369141
 20
139.7655795686
 30
0.0
 11
256.1874462891
 21
139.7655795686
 31
0.0
  0
LINE
  5
122
330
11F
100
AcDbEntity
  8
0
  6
Continuous
 62
     2
100
AcDbLine
 10
232.2628369141
 20
114.7655795686
 30
0.0
 11
256.1874462891
 21
114.7655795686
 31
0.0
  0
SOLID
  5
123
330
11F
100
AcDbEntity
  8
0
 62
     2
100
AcDbTrace
 10
255.5466625475441
 20
118.2655795686
 30
0.0
 11
256.4682300306559
 21
118.2655795686
 31
0.0
 12
256.0074462891
 22
114.7655795686
 32
0.0
 13
256.0074462891
 23
114.7655795686
 33
0.0
  0
SOLID
  5
124
330
11F
100
AcDbEntity
  8
0
 62
     2
100
AcDbTrace
 10
256.4682300306559
 20
136.2655795686
 30
0.0
 11
255.5466625475441
 21
136.2655795686
 31
0.0
 12
256.0074462891
 22
139.7655795686
 32
0.0
 13
256.0074462891
 23
139.7655795686
 33
0.0
  0
MTEXT
  5
125
330
11F
100
AcDbEntity
  8
0
 62
     5
100
AcDbMText
 10
253.3824462891
 20
119.6600795686
 30
0.0
 40
3.5
 41
0.0
 71
     7
 72
     1
  1
\C5;{\Fgdt;n}\C5;25
  7
CONVERTER_11
 11
0.0
 21
1.0
 31
0.0
 73
     1
 44
0.60024009603842
  0
ENDBLK
  5
127
330
11F
100
AcDbEntity
  8
0
100
AcDbBlockEnd
  0
BLOCK
  5
131
330
12A
100
AcDbEntity
  8
0
100
AcDbBlockBegin
  2
*D3
 70
     1
 10
0.0
 20
0.0
 30
0.0
  3
*D3
  1

  0
LINE
  5
12B
330
12A
100
AcDbEntity
  8
0
  6
Continuous
 62
     2
100
AcDbLine
 10
112.7003369141
 20
176.0189323592
 30
0.0
 11
230.7003369141
 21
176.0189323592
 31
0.0
  0
LINE
  5
12C
330
12A
100
AcDbEntity
  8
0
  6
Continuous
 62
     2
100
AcDbLine
 10
112.7003369141
 20
159.8384884793
 30
0.0
 11
112.7003369141
 21
176.1989323592
 31
0.0
  0
LINE
  5
12D
330
12A
100
AcDbEntity
  8
0
  6
Continuous
 62
     2
100
AcDbLine
 10
230.7003369141
 20
112.8280795686
 30
0.0
 11
230.7003369141
 21
176.1989323592
 31
0.0
  0
SOLID
  5
12E
330
12A
100
AcDbEntity
  8
0
 62
     2
100
AcDbTrace
 10
227.2003369141
 20
175.5581486176441
 30
0.0
 11
227.2003369141
 21
176.4797161007559
 31
0.0
 12
230.7003369141
 22
176.0189323592
 32
0.0
 13
230.7003369141
 23
176.0189323592
 33
0.0
  0
SOLID
  5
12F
330
12A
100
AcDbEntity
  8
0
 62
     2
100
AcDbTrace
 10
116.2003369141
 20
176.4797161007559
 30
0.0
 11
116.2003369141
 21
175.5581486176441
 31
0.0
 12
112.7003369141
 22
176.0189323592
 32
0.0
 13
112.7003369141
 23
176.0189323592
 33
0.0
  0
MTEXT
  5
130
330
12A
100
AcDbEntity
  8
0
 62
     5
100
AcDbMText
 10
168.6868369141
 20
178.6439323592
 30
0.0
 40
3.5
 41
0.0
 71
     7
 72
     1
  1
118
  7
CONVERTER_11
 11
0.9999999999970619
 21
2.424068405545306E-6
 31
0.0
 73
     1
 44
0.60024009603842
  0
ENDBLK
  5
132
330
12A
100
AcDbEntity
  8
0
100
AcDbBlockEnd
  0
BLOCK
  5
13C
330
135
100
AcDbEntity
  8
0
100
AcDbBlockBegin
  2
*D4
 70
     1
 10
0.0
 20
0.0
 30
0.0
  3
*D4
  1

  0
LINE
  5
136
330
135
100
AcDbEntity
  8
0
  6
Continuous
 62
     2
100
AcDbLine
 10
265.2359619141
 20
106.2905795686
 30
0.0
 11
265.2359619141
 21
148.2405795686
 31
0.0
  0
LINE
  5
137
330
135
100
AcDbEntity
  8
0
  6
Continuous
 62
     2
100
AcDbLine
 10
211.2878369141
 20
106.2905795686
 30
0.0
 11
265.4159619141
 21
106.2905795686
 31
0.0
  0
LINE
  5
138
330
135
100
AcDbEntity
  8
0
  6
Continuous
 62
     2
100
AcDbLine
 10
211.2878369141
 20
148.2405795686
 30
0.0
 11
265.4159619141
 21
148.2405795686
 31
0.0
  0
SOLID
  5
139
330
135
100
AcDbEntity
  8
0
 62
     2
100
AcDbTrace
 10
265.6967456556559
 20
144.7405795686
 30
0.0
 11
264.7751781725441
 21
144.7405795686
 31
0.0
 12
265.2359619141
 22
148.2405795686
 32
0.0
 13
265.2359619141
 23
148.2405795686
 33
0.0
  0
SOLID
  5
13A
330
135
100
AcDbEntity
  8
0
 62
     2
100
AcDbTrace
 10
264.7751781725441
 20
109.7905795686
 30
0.0
 11
265.6967456556559
 21
109.7905795686
 31
0.0
 12
265.2359619141
 22
106.2905795686
 32
0.0
 13
265.2359619141
 23
106.2905795686
 33
0.0
  0
MTEXT
  5
13B
330
135
100
AcDbEntity
  8
0
 62
     5
100
AcDbMText
 10
262.6109619141
 20
119.6600795686
 30
0.0
 40
3.5
 41
0.0
 71
     7
 72
     1
  1
\C5;{\Fgdt;n}\C5;42
  7
CONVERTER_11
 11
0.0
 21
1.0
 31
0.0
 73
     1
 44
0.60024009603842
  0
ENDBLK
  5
13D
330
135
100
AcDbEntity
  8
0
100
AcDbBlockEnd
  0
BLOCK
  5
147
330
140
100
AcDbEntity
  8
0
100
AcDbBlockBegin
  2
*D5
 70
     1
 10
0.0
 20
0.0
 30
0.0
  3
*D5
  1

  0
LINE
  5
141
330
140
100
AcDbEntity
  8
0
  6
Continuous
 62
     2
100
AcDbLine
 10
74.7003369141
 20
192.2649737743
 30
0.0
 11
230.7003369141
 21
192.2649737743
 31
0.0
  0
LINE
  5
142
330
140
100
AcDbEntity
  8
0
  6
Continuous
 62
     2
100
AcDbLine
 10
74.7003369141
 20
108.6419637992
 30
0.0
 11
74.7003369141
 21
192.4449737743
 31
0.0
  0
LINE
  5
143
330
140
100
AcDbEntity
  8
0
  6
Continuous
 62
     2
100
AcDbLine
 10
230.7003369141
 20
112.8280795686
 30
0.0
 11
230.7003369141
 21
192.4449737743
 31
0.0
  0
SOLID
  5
144
330
140
100
AcDbEntity
  8
0
 62
     2
100
AcDbTrace
 10
227.2003369141
 20
191.8041900327441
 30
0.0
 11
227.2003369141
 21
192.7257575158558
 31
0.0
 12
230.7003369141
 22
192.2649737743
 32
0.0
 13
230.7003369141
 23
192.2649737743
 33
0.0
  0
SOLID
  5
145
330
140
100
AcDbEntity
  8
0
 62
     2
100
AcDbTrace
 10
78.2003369141
 20
192.7257575158559
 30
0.0
 11
78.2003369141
 21
191.8041900327441
 31
0.0
 12
74.7003369141
 22
192.2649737743
 32
0.0
 13
74.7003369141
 23
192.2649737743
 33
0.0
  0
MTEXT
  5
146
330
140
100
AcDbEntity
  8
0
 62
     5
100
AcDbMText
 10
149.6868369141
 20
194.8899737743
 30
0.0
 40
3.5
 41
0.0
 71
     7
 72
     1
  1
156
  7
CONVERTER_11
 11
0.9999999999970619
 21
2.424068405545306E-6
 31
0.0
 73
     1
 44
0.60024009603842
  0
ENDBLK
  5
148
330
140
100
AcDbEntity
  8
0
100
AcDbBlockEnd
  0
BLOCK
  5
152
330
14B
100
AcDbEntity
  8
0
100
AcDbBlockBegin
  2
*D6
 70
     1
 10
0.0
 20
0.0
 30
0.0
  3
*D6
  1

  0
LINE
  5
14C
330
14B
100
AcDbEntity
  8
0
  6
Continuous
 62
     2
100
AcDbLine
 10
134.7003369141
 20
165.9095953489
 30
0.0
 11
230.7003369141
 21
165.9095953489
 31
0.0
  0
LINE
  5
14D
330
14B
100
AcDbEntity
  8
0
  6
Continuous
 62
     2
100
AcDbLine
 10
134.7003369141
 20
159.8852645518
 30
0.0
 11
134.7003369141
 21
166.0895953489
 31
0.0
  0
LINE
  5
14E
330
14B
100
AcDbEntity
  8
0
  6
Continuous
 62
     2
100
AcDbLine
 10
230.7003369141
 20
112.8280795686
 30
0.0
 11
230.7003369141
 21
166.0895953489
 31
0.0
  0
SOLID
  5
14F
330
14B
100
AcDbEntity
  8
0
 62
     2
100
AcDbTrace
 10
227.2003369141
 20
165.4488116073441
 30
0.0
 11
227.2003369141
 21
166.3703790904559
 31
0.0
 12
230.7003369141
 22
165.9095953489
 32
0.0
 13
230.7003369141
 23
165.9095953489
 33
0.0
  0
SOLID
  5
150
330
14B
100
AcDbEntity
  8
0
 62
     2
100
AcDbTrace
 10
138.2003369141
 20
166.3703790904559
 30
0.0
 11
138.2003369141
 21
165.4488116073441
 31
0.0
 12
134.7003369141
 22
165.9095953489
 32
0.0
 13
134.7003369141
 23
165.9095953489
 33
0.0
  0
MTEXT
  5
151
330
14B
100
AcDbEntity
  8
0
 62
     5
100
AcDbMText
 10
180.6913369141
 20
168.5345953489
 30
0.0
 40
3.5
 41
0.0
 71
     7
 72
     1
  1
96
  7
CONVERTER_11
 11
0.9999999999970619
 21
2.424068405545306E-6
 31
0.0
 73
     1
 44
0.60024009603842
  0
ENDBLK
  5
153
330
14B
100
AcDbEntity
  8
0
100
AcDbBlockEnd
  0
ENDSEC
  0
SECTION
  2
ENTITIES
  0
POINT
  5
4A
330
1F
100
AcDbEntity
  8
0
 62
     7
100
AcDbPoint
 10
112.7003369141
 20
166.4181907753
 30
0.0
  0
POINT
  5
4B
330
1F
100
AcDbEntity
  8
0
 62
     7
100
AcDbPoint
 10
242.7003369141
 20
146.2764779534
 30
0.0
  0
POINT
  5
4C
330
1F
100
AcDbEntity
  8
0
 62
     7
100
AcDbPoint
 10
232.2003369141
 20
139.7655795686
 30
0.0
  0
POINT
  5
4D
330
1F
100
AcDbEntity
  8
0
 62
     7
100
AcDbPoint
 10
232.2003369141
 20
114.7655795686
 30
0.0
  0
POINT
  5
4E
330
1F
100
AcDbEntity
  8
0
 62
     7
100
AcDbPoint
 10
112.7003369141
 20
159.7759884793
 30
0.0
  0
POINT
  5
4F
330
1F
100
AcDbEntity
  8
0
 62
     7
100
AcDbPoint
 10
230.7003369141
 20
112.7655795686
 30
0.0
  0
POINT
  5
50
330
1F
100
AcDbEntity
  8
0
 62
     7
100
AcDbPoint
 10
211.2253369141
 20
106.2905795686
 30
0.0
  0
POINT
  5
51
330
1F
100
AcDbEntity
  8
0
 62
     7
100
AcDbPoint
 10
211.2253369141
 20
148.2405795686
 30
0.0
  0
POINT
  5
52
330
1F
100
AcDbEntity
  8
0
 62
     7
100
AcDbPoint
 10
74.7003369141
 20
108.5794637992
 30
0.0
  0
POINT
  5
53
330
1F
100
AcDbEntity
  8
0
 62
     7
100
AcDbPoint
 10
230.7003369141
 20
112.7655795686
 30
0.0
  0
POINT
  5
54
330
1F
100
AcDbEntity
  8
0
 62
     7
100
AcDbPoint
 10
134.7003369141
 20
159.8227645518
 30
0.0
  0
POINT
  5
55
330
1F
100
AcDbEntity
  8
0
 62
     7
100
AcDbPoint
 10
230.7003369141
 20
112.7655795686
 30
0.0
  0
LINE
  5
56
330
1F
100
AcDbEntity
  8
DEFAULT_2
  6
HIDDEN
 62
     8
100
AcDbLine
 10
206.685964101
 20
136.3905795686
 30
0.0
 11
206.685964101
 21
118.1405795686
 31
0.0
  0
LINE
  5
57
330
1F
100
AcDbEntity
  8
0
  6
Continuous
 62
     7
100
AcDbLine
 10
110.7107385458
 20
103.8401947627
 30
0.0
 11
110.9533656649
 21
104.3888506932
 31
0.0
  0
LINE
  5
58
330
1F
100
AcDbEntity
  8
FASEN
  6
Continuous
 62
     7
100
AcDbLine
 10
119.4778933132
 20
158.765545057
 30
0.0
 11
119.76897651
 21
158.7180182434
 31
0.0
  0
LINE
  5
59
330
1F
100
AcDbEntity
  8
ACHSEN
  6
Continuous
 62
     7
100
AcDbLine
 10
82.9789071997
 20
147.1942373738
 30
0.0
 11
82.9639858121849
 21
147.192135816346
 31
0.0
  0
LINE
  5
5A
330
1F
100
AcDbEntity
  8
ACHSEN
  6
Continuous
 62
     7
100
AcDbLine
 10
82.963956262
 20
147.1921316444
 30
0.0
 11
82.9789072001
 21
147.1942373738
 31
0.0
  0
LINE
  5
5B
330
1F
100
AcDbEntity
  8
ACHSEN
  6
Continuous
 62
     7
100
AcDbLine
 10
82.8411079458
 20
147.1746189872
 30
0.0
 11
82.963956262
 21
147.1921316444
 31
0.0
  0
LINE
  5
5C
330
1F
100
AcDbEntity
  8
ACHSEN
  6
Continuous
 62
     7
100
AcDbLine
 10
81.0503369141
 20
146.8696308672
 30
0.0
 11
76.2003369141
 21
146.7625691821
 31
0.0
  0
LINE
  5
5D
330
1F
100
AcDbEntity
  8
FASEN
  6
Continuous
 62
     7
100
AcDbLine
 10
129.8840387273
 20
158.7590872779
 30
0.0
 11
129.922780515
 21
158.765545057
 31
0.0
  0
LINE
  5
5E
330
1F
100
AcDbEntity
  8
FASEN
  6
Continuous
 62
     7
100
AcDbLine
 10
119.516635100764
 20
158.75908727793
 30
0.0
 11
119.4778933132
 21
158.765545057
 31
0.0
  0
LINE
  5
5F
330
1F
100
AcDbEntity
  8
DEFAULT_1
  6
CENTER
 62
     5
100
AcDbLine
 10
240.7003369141
 20
148.2405795686
 30
0.0
 11
242.7003369141
 21
144.7764779534
 31
0.0
  0
LINE
  5
60
330
1F
100
AcDbEntity
  8
DEFAULT_1
  6
CENTER
 62
     5
100
AcDbLine
 10
242.7003369141
 20
144.7764779534
 30
0.0
 11
242.7003369141
 21
109.7546811837
 31
0.0
  0
LINE
  5
61
330
1F
100
AcDbEntity
  8
DEFAULT_1
  6
CENTER
 62
     5
100
AcDbLine
 10
240.7003369141
 20
106.2905795686
 30
0.0
 11
242.7003369141
 21
109.7546811837
 31
0.0
  0
LINE
  5
62
330
1F
100
AcDbEntity
  8
FASEN
  6
Continuous
 62
     7
100
AcDbLine
 10
230.7003369161
 20
141.7655795651
 30
0.0
 11
229.8343115125
 21
143.2655795647
 31
0.0
  0
LINE
  5
63
330
1F
100
AcDbEntity
  8
DEFAULT_1
  6
CENTER
 62
     5
100
AcDbLine
 10
238.7374664169
 20
143.5555795686
 30
0.0
 11
242.7003369141
 21
139.9773631904
 31
0.0
  0
LINE
  5
64
330
1F
100
AcDbEntity
  8
FASEN
  6
Continuous
 62
     7
100
AcDbLine
 10
230.7003369164
 20
112.7655795726
 30
0.0
 11
229.8343115128
 21
111.265579573
 31
0.0
  0
LINE
  5
65
330
1F
100
AcDbEntity
  8
FASEN
  6
Continuous
 62
     7
100
AcDbLine
 10
230.7003369141
 20
112.7655795686
 30
0.0
 11
230.7003369141
 21
141.7655795682
 31
0.0
  0
LINE
  5
66
330
1F
100
AcDbEntity
  8
0
  6
Continuous
 62
     7
100
AcDbLine
 10
230.3654737579
 20
142.3455795686
 30
0.0
 11
230.3654737579
 21
112.1855795686
 31
0.0
  0
LINE
  5
67
330
1F
100
AcDbEntity
  8
FASEN
  6
Continuous
 62
     7
100
AcDbLine
 10
229.8343115103
 20
111.2655795686
 30
0.0
 11
229.8343115103
 21
143.2655795686
 31
0.0
  0
LINE
  5
68
330
1F
100
AcDbEntity
  8
DEFAULT_1
  6
CENTER
 62
     5
100
AcDbLine
 10
234.7703369141
 20
112.1855795686
 30
0.0
 11
235.4374664169
 21
110.9755795686
 31
0.0
  0
LINE
  5
69
330
1F
100
AcDbEntity
  8
DEFAULT_1
  6
CENTER
 62
     5
100
AcDbLine
 10
238.7374664169
 20
110.9755795686
 30
0.0
 11
242.7003369141
 21
114.5537959468
 31
0.0
  0
LINE
  5
6A
330
1F
100
AcDbEntity
  8
DEFAULT_1
  6
CENTER
 62
     5
100
AcDbLine
 10
220.8603369141
 20
143.2655795686
 30
0.0
 11
220.8603369141
 21
146.2405795686
 31
0.0
  0
LINE
  5
6B
330
1F
100
AcDbEntity
  8
DEFAULT_1
  6
CENTER
 62
     5
100
AcDbLine
 10
220.8603369141
 20
108.2905795686
 30
0.0
 11
220.8603369141
 21
111.2655795686
 31
0.0
  0
LINE
  5
6C
330
1F
100
AcDbEntity
  8
0
  6
Continuous
 62
     7
100
AcDbLine
 10
210.6040165705
 20
147.3618999121
 30
0.0
 11
214.4074436952
 21
143.5584727874
 31
0.0
  0
LINE
  5
6D
330
1F
100
AcDbEntity
  8
DEFAULT_1
  6
CENTER
 62
     5
100
AcDbLine
 10
234.7703369141
 20
142.3455795686
 30
0.0
 11
235.4374664169
 21
143.5555795686
 31
0.0
  0
LINE
  5
6E
330
1F
100
AcDbEntity
  8
0
  6
Continuous
 62
     7
100
AcDbLine
 10
216.2003369141
 20
143.2655795686
 30
0.0
 11
216.2003369141
 21
111.2655795686
 31
0.0
  0
LINE
  5
6F
330
1F
100
AcDbEntity
  8
RUNDUNGEN
  6
Continuous
 62
     9
100
AcDbLine
 10
215.1145504764
 20
143.2655795686
 30
0.0
 11
215.1145504764
 21
111.2655795686
 31
0.0
  0
LINE
  5
70
330
1F
100
AcDbEntity
  8
RUNDUNGEN
  6
Continuous
 62
     9
100
AcDbLine
 10
214.4074436952
 20
143.5584727874
 30
0.0
 11
214.4074436952
 21
110.9726863498
 31
0.0
  0
LINE
  5
71
330
1F
100
AcDbEntity
  8
0
  6
Continuous
 62
     7
100
AcDbLine
 10
210.6040165705
 20
107.169259225
 30
0.0
 11
214.4074436952
 21
110.9726863498
 31
0.0
  0
LINE
  5
72
330
1F
100
AcDbEntity
  8
RUNDUNGEN
  6
Continuous
 62
     7
100
AcDbLine
 10
214.4074436952
 20
110.9726863498
 30
0.0
 11
210.6040165705
 21
107.169259225
 31
0.0
  0
LINE
  5
73
330
1F
100
AcDbEntity
  8
RUNDUNGEN
  6
Continuous
 62
     9
100
AcDbLine
 10
210.6040165705
 20
107.169259225
 30
0.0
 11
210.6040165705
 21
147.3618999121
 31
0.0
  0
LINE
  5
74
330
1F
100
AcDbEntity
  8
RUNDUNGEN
  6
Continuous
 62
     9
100
AcDbLine
 10
208.4826962269
 20
106.2905795686
 30
0.0
 11
208.4826962269
 21
148.2405795686
 31
0.0
  0
LINE
  5
75
330
1F
100
AcDbEntity
  8
DEFAULT_2
  6
HIDDEN
 62
     8
100
AcDbLine
 10
201.2003369141
 20
136.3905795686
 30
0.0
 11
201.2003369141
 21
118.1405795686
 31
0.0
  0
LINE
  5
76
330
1F
100
AcDbEntity
  8
0
  6
Continuous
 62
     7
100
AcDbLine
 10
119.4784258858
 20
158.7655795686
 30
0.0
 11
113.0003369865
 21
158.7655795686
 31
0.0
  0
LINE
  5
77
330
1F
100
AcDbEntity
  8
0
  6
Continuous
 62
     7
100
AcDbLine
 10
134.7003369141
 20
158.7655795686
 30
0.0
 11
129.9222479423
 21
158.7655795686
 31
0.0
  0
LINE
  5
78
330
1F
100
AcDbEntity
  8
0
  6
Continuous
 62
     7
100
AcDbLine
 10
126.1616617795
 20
157.3461723289
 30
0.0
 11
123.2390120487
 21
157.3461723289
 31
0.0
  0
LINE
  5
79
330
1F
100
AcDbEntity
  8
DEFAULT_1
  6
CENTER
 62
     5
100
AcDbLine
 10
222.8603369141
 20
148.2405795686
 30
0.0
 11
240.7003369141
 21
148.2405795686
 31
0.0
  0
LINE
  5
7A
330
1F
100
AcDbEntity
  8
0
  6
Continuous
 62
     7
100
AcDbLine
 10
140.2003369141
 20
148.2405795686
 30
0.0
 11
208.4826962269
 21
148.2405795686
 31
0.0
  0
LINE
  5
7B
330
1F
100
AcDbEntity
  8
DEFAULT_1
  6
CENTER
 62
     5
100
AcDbLine
 10
235.4374664169
 20
143.5555795686
 30
0.0
 11
238.7374664169
 21
143.5555795686
 31
0.0
  0
LINE
  5
7C
330
1F
100
AcDbEntity
  8
0
  6
Continuous
 62
     7
100
AcDbLine
 10
215.1145504764
 20
143.2655795686
 30
0.0
 11
229.8343115103
 21
143.2655795686
 31
0.0
  0
LINE
  5
7D
330
1F
100
AcDbEntity
  8
0
  6
Continuous
 62
     7
100
AcDbLine
 10
110.9533656649
 20
141.9553510012
 30
0.0
 11
110.7053600252
 21
141.9505217733
 31
0.0
  0
LINE
  5
7E
330
1F
100
AcDbEntity
  8
0
  6
Continuous
 62
     9
100
AcDbLine
 10
76.2003369141
 20
142.9768242073
 30
0.0
 11
110.5004000031
 21
143.7231103172
 31
0.0
  0
LINE
  5
7F
330
1F
100
AcDbEntity
  8
0
  6
Continuous
 62
     7
100
AcDbLine
 10
101.8796982473
 20
147.669097904
 30
0.0
 11
110.5004000031
 21
147.8856799381
 31
0.0
  0
LINE
  5
80
330
1F
100
AcDbEntity
  8
0
  6
Continuous
 62
     7
100
AcDbLine
 10
82.9639416682
 20
147.1938682587
 30
0.0
 11
92.7503369141
 21
147.4397365708
 31
0.0
  0
LINE
  5
81
330
1F
100
AcDbEntity
  8
0
  6
Continuous
 62
     7
100
AcDbLine
 10
110.7053600252
 20
147.6907661383
 30
0.0
 11
112.3053600252
 21
147.7309637074
 31
0.0
  0
LINE
  5
82
330
1F
100
AcDbEntity
  8
DEFAULT_1
  6
CENTER
 62
     5
100
AcDbLine
 10
230.3654737579
 20
142.3455795686
 30
0.0
 11
234.7703369141
 21
142.3455795686
 31
0.0
  0
LINE
  5
83
330
1F
100
AcDbEntity
  8
0
  6
Continuous
 62
     2
100
AcDbLine
 10
216.2003369141
 20
142.3455795686
 30
0.0
 11
230.3654737579
 21
142.3455795686
 31
0.0
  0
LINE
  5
84
330
1F
100
AcDbEntity
  8
0
  6
Continuous
 62
     7
100
AcDbLine
 10
126.1616617795
 20
136.6148008831
 30
0.0
 11
123.2390120487
 21
136.6148008831
 31
0.0
  0
LINE
  5
85
330
1F
100
AcDbEntity
  8
DEFAULT_2
  6
HIDDEN
 62
     8
100
AcDbLine
 10
206.685964101
 20
136.3905795686
 30
0.0
 11
201.2003369141
 21
136.3905795686
 31
0.0
  0
LINE
  5
86
330
1F
100
AcDbEntity
  8
0
  6
Continuous
 62
     9
100
AcDbLine
 10
74.7003369141
 20
132.4904506992
 30
0.0
 11
110.5004000031
 21
132.4904506992
 31
0.0
  0
LINE
  5
87
330
1F
100
AcDbEntity
  8
0
  6
Continuous
 62
     7
100
AcDbLine
 10
110.7053600252
 20
135.4515227553
 30
0.0
 11
110.9533656649
 21
135.4525370112
 31
0.0
  0
LINE
  5
88
330
1F
100
AcDbEntity
  8
DEFAULT_2
  6
HIDDEN
 62
     8
100
AcDbLine
 10
206.685964101
 20
136.3905795686
 30
0.0
 11
230.2052028797
 21
139.6959930181
 31
0.0
  0
LINE
  5
89
330
1F
100
AcDbEntity
  8
FASEN
  6
HIDDEN
 62
     8
100
AcDbLine
 10
230.2052028797
 20
139.6959930181
 30
0.0
 11
206.685964101
 21
136.3905795686
 31
0.0
  0
LINE
  5
8A
330
1F
100
AcDbEntity
  8
DEFAULT_2
  6
HIDDEN
 62
     8
100
AcDbLine
 10
206.685964101
 20
118.1405795686
 30
0.0
 11
230.2052028797
 21
114.835166119
 31
0.0
  0
LINE
  5
8B
330
1F
100
AcDbEntity
  8
FASEN
  6
HIDDEN
 62
     8
100
AcDbLine
 10
230.2052028797
 20
114.835166119
 30
0.0
 11
206.685964101
 21
118.1405795686
 31
0.0
  0
LINE
  5
8C
330
1F
100
AcDbEntity
  8
S_ACHSEN
  6
CENTER
 62
     7
100
AcDbLine
 10
71.7003369141
 20
127.2655795686
 30
0.0
 11
245.7003369141
 21
127.2655795686
 31
0.0
  0
LINE
  5
8D
330
1F
100
AcDbEntity
  8
DEFAULT_2
  6
HIDDEN
 62
     8
100
AcDbLine
 10
206.685964101
 20
118.1405795686
 30
0.0
 11
201.2003369141
 21
118.1405795686
 31
0.0
  0
LINE
  5
8E
330
1F
100
AcDbEntity
  8
0
  6
Continuous
 62
     7
100
AcDbLine
 10
126.1616617795
 20
117.916358254
 30
0.0
 11
123.2390120487
 21
117.916358254
 31
0.0
  0
LINE
  5
8F
330
1F
100
AcDbEntity
  8
DEFAULT_1
  6
CENTER
 62
     5
100
AcDbLine
 10
230.3654737579
 20
112.1855795686
 30
0.0
 11
234.7703369141
 21
112.1855795686
 31
0.0
  0
LINE
  5
90
330
1F
100
AcDbEntity
  8
0
  6
Continuous
 62
     2
100
AcDbLine
 10
216.2003369141
 20
112.1855795686
 30
0.0
 11
230.3654737579
 21
112.1855795686
 31
0.0
  0
LINE
  5
91
330
1F
100
AcDbEntity
  8
0
  6
Continuous
 62
     7
100
AcDbLine
 10
215.1145504764
 20
111.2655795686
 30
0.0
 11
229.8343115103
 21
111.2655795686
 31
0.0
  0
LINE
  5
92
330
1F
100
AcDbEntity
  8
RUNDUNGEN
  6
Continuous
 62
     7
100
AcDbLine
 10
229.8343115103
 20
111.2655795686
 30
0.0
 11
215.1145504764
 21
111.2655795686
 31
0.0
  0
LINE
  5
93
330
1F
100
AcDbEntity
  8
DEFAULT_1
  6
CENTER
 62
     5
100
AcDbLine
 10
235.4374664169
 20
110.9755795686
 30
0.0
 11
238.7374664169
 21
110.9755795686
 31
0.0
  0
LINE
  5
94
330
1F
100
AcDbEntity
  8
0
  6
Continuous
 62
     9
100
AcDbLine
 10
110.5004000031
 20
105.5831776893
 30
0.0
 11
76.2003369141
 21
106.3294637992
 31
0.0
  0
LINE
  5
95
330
1F
100
AcDbEntity
  8
0
  6
Continuous
 62
     7
100
AcDbLine
 10
140.2003369141
 20
106.2905795686
 30
0.0
 11
208.4826962269
 21
106.2905795686
 31
0.0
  0
LINE
  5
96
330
1F
100
AcDbEntity
  8
RUNDUNGEN
  6
Continuous
 62
     7
100
AcDbLine
 10
208.4826962269
 20
106.2905795686
 30
0.0
 11
140.2003369141
 21
106.2905795686
 31
0.0
  0
LINE
  5
97
330
1F
100
AcDbEntity
  8
DEFAULT_1
  6
CENTER
 62
     5
100
AcDbLine
 10
240.7003369141
 20
106.2905795686
 30
0.0
 11
222.8603369141
 21
106.2905795686
 31
0.0
  0
LINE
  5
98
330
1F
100
AcDbEntity
  8
RUNDUNGEN
  6
Continuous
 62
     9
100
AcDbLine
 10
140.2003369141
 20
148.2405795686
 30
0.0
 11
140.2003369141
 21
106.2905795686
 31
0.0
  0
LINE
  5
99
330
1F
100
AcDbEntity
  8
0
  6
Continuous
 62
     7
100
AcDbLine
 10
76.2003369141
 20
104.7072161719
 30
0.0
 11
110.7107397369
 21
103.8401947328
 31
0.0
  0
LINE
  5
9A
330
1F
100
AcDbEntity
  8
0
  6
Continuous
 62
     7
100
AcDbLine
 10
110.9533656649
 20
104.3888506932
 30
0.0
 11
110.7053600252
 21
104.3946941771
 31
0.0
  0
LINE
  5
9B
330
1F
100
AcDbEntity
  8
0
  6
Continuous
 62
     7
100
AcDbLine
 10
126.1616617795
 20
97.1849868083
 30
0.0
 11
123.2390120487
 21
97.1849868083
 31
0.0
  0
LINE
  5
9C
330
1F
100
AcDbEntity
  8
0
  6
Continuous
 62
     7
100
AcDbLine
 10
111.3932301329
 20
104.5226863498
 30
0.0
 11
110.7107397366
 21
103.8401959535
 31
0.0
  0
LINE
  5
9D
330
1F
100
AcDbEntity
  8
0
  6
Continuous
 62
     7
100
AcDbLine
 10
134.7003369141
 20
95.7655795686
 30
0.0
 11
134.7003369141
 21
158.7655795686
 31
0.0
  0
LINE
  5
9E
330
1F
100
AcDbEntity
  8
0
  6
Continuous
 62
     7
100
AcDbLine
 10
134.7003369141
 20
95.7655795686
 30
0.0
 11
113.0003369865
 21
95.7655795686
 31
0.0
  0
LINE
  5
9F
330
1F
100
AcDbEntity
  8
0
  6
Continuous
 62
     9
100
AcDbLine
 10
126.5946744814
 20
117.3961669496
 30
0.0
 11
126.5946744814
 21
97.3516247221
 31
0.0
  0
LINE
  5
A0
330
1F
100
AcDbEntity
  8
0
  6
Continuous
 62
     9
100
AcDbLine
 10
126.5946744814
 20
157.179534415
 30
0.0
 11
126.5946744814
 21
137.1349921875
 31
0.0
  0
LINE
  5
A1
330
1F
100
AcDbEntity
  8
0
  6
Continuous
 62
     9
100
AcDbLine
 10
126.1616617795
 20
117.916358254
 30
0.0
 11
126.1616617795
 21
97.1849868083
 31
0.0
  0
LINE
  5
A2
330
1F
100
AcDbEntity
  8
0
  6
Continuous
 62
     9
100
AcDbLine
 10
126.1616617795
 20
157.3461723289
 30
0.0
 11
126.1616617795
 21
136.6148008831
 31
0.0
  0
LINE
  5
A3
330
1F
100
AcDbEntity
  8
ACHSEN
  6
CENTER
 62
     7
100
AcDbLine
 10
124.7003369141
 20
154.5638583305
 30
0.0
 11
124.7003369141
 21
161.7655795686
 31
0.0
  0
LINE
  5
A4
330
1F
100
AcDbEntity
  8
0
  6
Continuous
 62
     9
100
AcDbLine
 10
123.2390120487
 20
117.916358254
 30
0.0
 11
123.2390120487
 21
97.1849868083
 31
0.0
  0
LINE
  5
A5
330
1F
100
AcDbEntity
  8
0
  6
Continuous
 62
     9
100
AcDbLine
 10
123.2390120487
 20
157.3461723289
 30
0.0
 11
123.2390120487
 21
136.6148008831
 31
0.0
  0
LINE
  5
A6
330
1F
100
AcDbEntity
  8
0
  6
Continuous
 62
     9
100
AcDbLine
 10
122.8059993468
 20
117.3961669496
 30
0.0
 11
122.8059993468
 21
97.3516247221
 31
0.0
  0
LINE
  5
A7
330
1F
100
AcDbEntity
  8
0
  6
Continuous
 62
     9
100
AcDbLine
 10
122.8059993468
 20
157.179534415
 30
0.0
 11
122.8059993468
 21
137.1349921875
 31
0.0
  0
LINE
  5
A8
330
1F
100
AcDbEntity
  8
0
  6
Continuous
 62
     7
100
AcDbLine
 10
112.70033875
 20
96.0655814759
 30
0.0
 11
113.0003388399
 21
95.765581422
 31
0.0
  0
LINE
  5
A9
330
1F
100
AcDbEntity
  8
0
  6
Continuous
 62
     9
100
AcDbLine
 10
76.2003369141
 20
106.3294637992
 30
0.0
 11
74.7003369141
 21
107.0794637992
 31
0.0
  0
LINE
  5
AA
330
1F
100
AcDbEntity
  8
0
  6
Continuous
 62
     7
100
AcDbLine
 10
112.5002720623
 20
105.8554114771
 30
0.0
 11
112.5002409477
 21
131.8908047827
 31
0.0
  0
LINE
  5
AB
330
1F
100
AcDbEntity
  8
0
  6
Continuous
 62
     7
100
AcDbLine
 10
112.5002720623
 20
144.0551541543
 30
0.0
 11
112.5003369141
 21
149.7990644296
 31
0.0
  0
LINE
  5
AC
330
1F
100
AcDbEntity
  8
0
  6
Continuous
 62
     7
100
AcDbLine
 10
113.0003369876
 20
95.7655795686
 30
0.0
 11
113.0003369876
 21
158.7655795686
 31
0.0
  0
LINE
  5
AD
330
1F
100
AcDbEntity
  8
0
  6
Continuous
 62
     7
100
AcDbLine
 10
112.7003369141
 20
96.0658552381
 30
0.0
 11
112.7003369141
 21
158.465303899
 31
0.0
  0
LINE
  5
AE
330
1F
100
AcDbEntity
  8
0
  6
Continuous
 62
     9
100
AcDbLine
 10
112.3053600252
 20
132.4485300217
 30
0.0
 11
112.3053600252
 21
105.7381508285
 31
0.0
  0
LINE
  5
AF
330
1F
100
AcDbEntity
  8
0
  6
Continuous
 62
     9
100
AcDbLine
 10
112.3053600252
 20
147.7309637074
 30
0.0
 11
112.3053600252
 21
143.6100578555
 31
0.0
  0
LINE
  5
B0
330
1F
100
AcDbEntity
  8
0
  6
Continuous
 62
     9
100
AcDbLine
 10
111.3932301329
 20
133.6801193293
 30
0.0
 11
111.3932301329
 21
142.9545964588
 31
0.0
  0
LINE
  5
B1
330
1F
100
AcDbEntity
  8
0
  6
Continuous
 62
     9
100
AcDbLine
 10
111.3932301329
 20
104.5226863498
 30
0.0
 11
111.3932301329
 21
105.1620229176
 31
0.0
  0
LINE
  5
B2
330
1F
100
AcDbEntity
  8
0
  6
Continuous
 62
     9
100
AcDbLine
 10
110.7053600252
 20
135.4515227553
 30
0.0
 11
110.7053600252
 21
104.3946941771
 31
0.0
  0
LINE
  5
B3
330
1F
100
AcDbEntity
  8
0
  6
Continuous
 62
     9
100
AcDbLine
 10
110.7053600252
 20
147.6907661383
 30
0.0
 11
110.7053600252
 21
141.9505217733
 31
0.0
  0
LINE
  5
B4
330
1F
100
AcDbEntity
  8
0
  6
Continuous
 62
     7
100
AcDbLine
 10
110.5004000031
 20
132.4904506992
 30
0.0
 11
110.5004000031
 21
105.5831776893
 31
0.0
  0
LINE
  5
B5
330
1F
100
AcDbEntity
  8
0
  6
Continuous
 62
     7
100
AcDbLine
 10
110.5004000031
 20
147.8856799381
 30
0.0
 11
110.5004000031
 21
143.7231103172
 31
0.0
  0
LINE
  5
B6
330
1F
100
AcDbEntity
  8
0
  6
Continuous
 62
     7
100
AcDbLine
 10
76.2003369141
 20
104.7072161719
 30
0.0
 11
74.7003369141
 21
105.5732415757
 31
0.0
  0
LINE
  5
B7
330
1F
100
AcDbEntity
  8
0
  6
Continuous
 62
     9
100
AcDbLine
 10
76.2003369141
 20
142.9768242073
 30
0.0
 11
74.7003369141
 21
142.2268242073
 31
0.0
  0
LINE
  5
B8
330
1F
100
AcDbEntity
  8
0
  6
Continuous
 62
     7
100
AcDbLine
 10
112.70033875
 20
158.4655776612
 30
0.0
 11
113.0003388399
 21
158.7655777151
 31
0.0
  0
LINE
  5
B9
330
1F
100
AcDbEntity
  8
ACHSEN
  6
CENTER
 62
     7
100
AcDbLine
 10
97.2003369141
 20
104.3320940615
 30
0.0
 11
97.2003369141
 21
151.4539501331
 31
0.0
  0
LINE
  5
BA
330
1F
100
AcDbEntity
  8
0
  6
Continuous
 62
     7
100
AcDbLine
 10
76.2003369141
 20
142.9768242073
 30
0.0
 11
76.2003369141
 21
104.7072161719
 31
0.0
  0
LINE
  5
BB
330
1F
100
AcDbEntity
  8
ACHSEN
  6
Continuous
 62
     7
100
AcDbLine
 10
76.2003369141
 20
146.7625691821
 30
0.0
 11
76.2003369141
 21
142.9768242073
 31
0.0
  0
LINE
  5
BC
330
1F
100
AcDbEntity
  8
ACHSEN
  6
Continuous
 62
     7
100
AcDbLine
 10
74.7003369141
 20
142.2268242073
 30
0.0
 11
74.7003369141
 21
146.0140588825
 31
0.0
  0
LINE
  5
BD
330
1F
100
AcDbEntity
  8
0
  6
Continuous
 62
     7
100
AcDbLine
 10
74.7003369141
 20
105.5732415757
 30
0.0
 11
74.7003369141
 21
142.2268242073
 31
0.0
  0
LINE
  5
BE
330
1F
100
AcDbEntity
  8
0
  6
Continuous
 62
     7
100
AcDbLine
 10
297.0
 20
0.0
 30
0.0
 11
297.0
 21
210.0
 31
0.0
  0
LINE
  5
BF
330
1F
100
AcDbEntity
  8
0
  6
Continuous
 62
     7
100
AcDbLine
 10
0.0
 20
210.0
 30
0.0
 11
297.0
 21
210.0
 31
0.0
  0
LINE
  5
C0
330
1F
100
AcDbEntity
  8
0
  6
Continuous
 62
     7
100
AcDbLine
 10
0.0
 20
0.0
 30
0.0
 11
297.0
 21
0.0
 31
0.0
  0
LINE
  5
C1
330
1F
100
AcDbEntity
  8
0
  6
Continuous
 62
     7
100
AcDbLine
 10
0.0
 20
0.0
 30
0.0
 11
0.0
 21
210.0
 31
0.0
  0
ARC
  5
C2
330
1F
100
AcDbEntity
  8
RUNDUNGEN
  6
Continuous
 62
     7
100
AcDbCircle
 10
215.1145504764
 20
144.2655795686
 30
0.0
 40
1.00000000001904
100
AcDbArc
 50
224.9999999999988
 51
270.0
  0
ARC
  5
C3
330
1F
100
AcDbEntity
  8
DEFAULT_1
  6
CENTER
 62
     5
100
AcDbCircle
 10
222.8603369141
 20
146.2405795686
 30
0.0
 40
2.0
100
AcDbArc
 50
90.0
 51
180.0
  0
ARC
  5
C4
330
1F
100
AcDbEntity
  8
RUNDUNGEN
  6
Continuous
 62
     7
100
AcDbCircle
 10
208.4826962269
 20
145.2405795686
 30
0.0
 40
2.999999999986358
100
AcDbArc
 50
44.99999999864969
 51
90.0
  0
ARC
  5
C5
330
1F
100
AcDbEntity
  8
RUNDUNGEN
  6
Continuous
 62
     7
100
AcDbCircle
 10
215.1145504764
 20
110.2655795686
 30
0.0
 40
1.0
100
AcDbArc
 50
90.0
 51
135.0000000000011
  0
ARC
  5
C6
330
1F
100
AcDbEntity
  8
DEFAULT_1
  6
CENTER
 62
     5
100
AcDbCircle
 10
222.8603369141
 20
108.2905795686
 30
0.0
 40
2.0
100
AcDbArc
 50
180.0
 51
270.0
  0
ARC
  5
C7
330
1F
100
AcDbEntity
  8
RUNDUNGEN
  6
Continuous
 62
     7
100
AcDbCircle
 10
208.4826962269
 20
109.2905795686
 30
0.0
 40
3.0
100
AcDbArc
 50
270.0
 51
315.0
  0
ARC
  5
C8
330
1F
100
AcDbEntity
  8
0
  6
Continuous
 62
     7
100
AcDbCircle
 10
256.9345096876
 20
78.2913816978
 30
0.0
 40
159.2595221569076
100
AcDbArc
 50
156.0446773747703
 51
156.4374589831067
  0
ARC
  5
C9
330
1F
100
AcDbEntity
  8
RUNDUNGEN
  6
Continuous
 62
     7
100
AcDbCircle
 10
140.2003369141
 20
153.7405795686
 30
0.0
 40
5.5
100
AcDbArc
 50
180.0
 51
270.0
  0
ARC
  5
CA
330
1F
100
AcDbEntity
  8
RUNDUNGEN
  6
Continuous
 62
     7
100
AcDbCircle
 10
140.2003369141
 20
100.7905795686
 30
0.0
 40
5.5
100
AcDbArc
 50
90.0
 51
179.9999999998958
  0
ARC
  5
CB
330
1F
100
AcDbEntity
  8
FASEN
  6
Continuous
 62
     7
100
AcDbCircle
 10
124.7134079139
 20
189.5090963114
 30
0.0
 40
31.18509350522664
100
AcDbArc
 50
261.4570610701654
 51
269.9759848996986
  0
ARC
  5
CC
330
1F
100
AcDbEntity
  8
FASEN
  6
Continuous
 62
     7
100
AcDbCircle
 10
124.6607909762
 20
189.8629653011
 30
0.0
 40
31.53898454850012
100
AcDbArc
 50
270.0718417526994
 51
278.4996880980713
  0
ARC
  5
CD
330
1F
100
AcDbEntity
  8
FASEN
  6
Continuous
 62
     7
100
AcDbCircle
 10
124.4117442125
 20
191.582378109
 30
0.0
 40
33.27632350920036
100
AcDbArc
 50
278.4862153232996
 51
278.9386019049008
  0
ARC
  5
CE
330
1F
100
AcDbEntity
  8
FASEN
  6
Continuous
 62
     7
100
AcDbCircle
 10
124.9898137441
 20
191.5934461689
 30
0.0
 40
33.28739713829979
100
AcDbArc
 50
260.5363441584
 51
261.5195290198
  0
ARC
  5
CF
330
1F
100
AcDbEntity
  8
ACHSEN
  6
Continuous
 62
     7
100
AcDbCircle
 10
10.9421199376
 20
275.6615191182
 30
0.0
 40
144.4768984217
100
AcDbArc
 50
296.1871039389
 51
296.8519184684753
  0
ARC
  5
D0
330
1F
100
AcDbEntity
  8
0
  6
Continuous
 62
     7
100
AcDbCircle
 10
110.7003369141
 20
147.8907030493
 30
0.0
 40
0.2000000000658823
100
AcDbArc
 50
181.4391666877665
 51
271.4391666591274
  0
ARC
  5
D1
330
1F
100
AcDbEntity
  8
0
  6
Continuous
 62
     7
100
AcDbCircle
 10
112.3003369141
 20
147.9309006184
 30
0.0
 40
0.2000000000633427
100
AcDbArc
 50
271.4391666591314
 51
0.0
  0
ARC
  5
D2
330
1F
100
AcDbEntity
  8
0
  6
Continuous
 62
     7
100
AcDbCircle
 10
112.1003369141
 20
150.7155795686
 30
0.0
 40
1.000000000008082
100
AcDbArc
 50
293.5781784780001
 51
306.9599393197844
  0
ARC
  5
D3
330
1F
100
AcDbEntity
  8
0
  6
Continuous
 62
     7
100
AcDbCircle
 10
112.1003369141
 20
103.8155795686
 30
0.0
 40
0.999999999999873
100
AcDbArc
 50
53.04006068021557
 51
135.0
  0
ARC
  5
D4
330
1F
100
AcDbEntity
  8
ACHSEN
  6
Continuous
 62
     7
100
AcDbCircle
 10
87.9619085337
 20
111.6971763833
 30
0.0
 40
35.84510254810017
100
AcDbArc
 50
98.01492884219992
 51
101.1172700804999
  0
ARC
  5
D5
330
1F
100
AcDbEntity
  8
0
  6
Continuous
 62
     7
100
AcDbCircle
 10
3.948325719
 20
107.9560907393
 30
0.0
 40
110.4813700648722
100
AcDbArc
 50
13.46409039976246
 51
14.41116213518808
  0
SPLINE
  5
D6
330
1F
100
AcDbEntity
  8
0
  6
Continuous
 62
     7
100
AcDbSpline
210
0.0
220
0.0
230
1.0
 70
     8
 71
     3
 72
    15
 73
    11
 74
     9
 42
0.0000000001
 43
0.0000000001
 44
0.00000001
 40
0.0
 40
0.0
 40
0.0
 40
0.0
 40
2.768071362192932
 40
5.543987162565811
 40
7.429045838065237
 40
9.31074524237891
 40
11.52272334023118
 40
13.73599890185082
 40
17.16735239692909
 40
20.59799187643339
 40
20.59799187643339
 40
20.59799187643339
 40
20.59799187643339
 10
122.8059993468
 20
157.179534415
 30
0.0
 10
122.3250097334798
 20
156.3820244074701
 30
0.0
 10
121.3616674302446
 20
154.7847443285848
 30
0.0
 10
120.9837254557059
 20
152.2928704652993
 30
0.0
 10
120.8419224176923
 20
150.1216867199895
 30
0.0
 10
120.8747633243061
 20
148.1256436814941
 30
0.0
 10
121.0364477508497
 20
146.0288355481029
 30
0.0
 10
121.3847319167755
 20
143.4322096895347
 30
0.0
 10
121.944158851399
 20
140.4566061938985
 30
0.0
 10
122.5187391112905
 20
138.2421200470989
 30
0.0
 10
122.805999347643
 20
137.134992186408
 30
0.0
 11
122.8059993468
 21
157.179534415
 31
0.0
 11
121.5328738381587
 21
154.7216144599487
 31
0.0
 11
120.9866789802588
 21
151.9999642789071
 31
0.0
 11
120.8674776799375
 21
150.1186782134515
 31
0.0
 11
120.8903715983225
 21
148.2371180850753
 31
0.0
 11
121.0570840041053
 21
146.0314313260054
 31
0.0
 11
121.3457591046028
 21
143.8370623055315
 31
0.0
 11
121.9821073296443
 21
140.4652307936269
 31
0.0
 11
122.805999347643
 21
137.134992186408
 31
0.0
  0
SPLINE
  5
D7
330
1F
100
AcDbEntity
  8
0
  6
Continuous
 62
     7
100
AcDbSpline
210
0.0
220
0.0
230
1.0
 70
     8
 71
     3
 72
    15
 73
    11
 74
     9
 42
0.0000000001
 43
0.0000000001
 44
0.00000001
 40
0.0
 40
0.0
 40
0.0
 40
0.0
 40
2.768071363099973
 40
5.543987163860138
 40
7.429045839534174
 40
9.310745244023646
 40
11.52272334203721
 40
13.73599890381791
 40
17.16735239739283
 40
20.59799187458811
 40
20.59799187458811
 40
20.59799187458811
 40
20.59799187458811
 10
126.594674481671
 20
97.3516247225069
 30
0.0
 10
127.0756640950134
 20
98.14913473037632
 30
0.0
 10
128.0390063982023
 20
99.7464148097911
 30
0.0
 10
128.4169483726107
 20
102.2382886735787
 30
0.0
 10
128.5587514104458
 20
104.4094724191497
 30
0.0
 10
128.5259105036933
 20
106.4055154578121
 30
0.0
 10
128.3642260770098
 20
108.5023235913586
 30
0.0
 10
128.015941911007
 20
111.0989494495208
 30
0.0
 10
127.4565149764884
 20
114.0745529439248
 30
0.0
 10
126.8819347173448
 20
116.2890390896008
 30
0.0
 10
126.5946744814
 20
117.3961669496
 30
0.0
 11
126.594674481671
 21
97.3516247225069
 31
0.0
 11
127.8677999903367
 21
99.80954467856708
 31
0.0
 11
128.4139948480329
 21
102.5311948600445
 31
0.0
 11
128.5331961482048
 21
104.4124809256845
 31
0.0
 11
128.5103022296847
 21
106.294041054235
 31
0.0
 11
128.3435898237567
 21
108.4997278134557
 31
0.0
 11
128.054914723123
 21
110.6940968340741
 31
0.0
 11
127.4185664983355
 21
114.0659283444967
 31
0.0
 11
126.5946744814
 21
117.3961669496
 31
0.0
  0
SPLINE
  5
D8
330
1F
100
AcDbEntity
  8
0
  6
Continuous
 62
     7
100
AcDbSpline
210
0.0
220
0.0
230
1.0
 70
     8
 71
     3
 72
    15
 73
    11
 74
     9
 42
0.0000000001
 43
0.0000000001
 44
0.00000001
 40
0.0
 40
0.0
 40
0.0
 40
0.0
 40
4.908005104415898
 40
9.815816967555037
 40
11.81736697981859
 40
13.81798377233675
 40
15.47664584493369
 40
17.13807097055924
 40
18.87967154025814
 40
20.6086920608242
 40
20.6086920608242
 40
20.6086920608242
 40
20.6086920608242
 10
126.594674480457
 20
137.134992186408
 30
0.0
 10
126.9963342637522
 20
138.7215330832419
 30
0.0
 10
127.7996380159236
 20
141.8945524105549
 30
0.0
 10
128.3713638981961
 20
145.8022663888643
 30
0.0
 10
128.5520200530203
 20
148.7681890620987
 30
0.0
 10
128.5384123848001
 20
150.6564655701769
 30
0.0
 10
128.3928795279376
 20
152.4273370627562
 30
0.0
 10
128.0793678556353
 20
154.0846655128198
 30
0.0
 10
127.5753655082148
 20
155.739051502813
 30
0.0
 10
126.9207805934378
 20
156.7005351490683
 30
0.0
 10
126.5946744814
 20
157.179534415
 30
0.0
 11
126.594674480457
 21
137.134992186408
 31
0.0
 11
127.7175473121285
 21
141.9128233584846
 31
0.0
 11
128.4139948477169
 21
146.7709689011934
 31
0.0
 11
128.5293365645501
 21
148.7691927975449
 31
0.0
 11
128.510302229838
 21
150.7697190394642
 31
0.0
 11
128.3642957407853
 21
152.4219423827886
 31
0.0
 11
128.0549147237411
 21
154.0543077935814
 31
0.0
 11
127.4951239140428
 21
155.7034914685408
 31
0.0
 11
126.5946744814
 21
157.179534415
 31
0.0
  0
SPLINE
  5
D9
330
1F
100
AcDbEntity
  8
0
  6
Continuous
 62
     7
100
AcDbSpline
210
0.0
220
0.0
230
1.0
 70
     8
 71
     3
 72
    15
 73
    11
 74
     9
 42
0.0000000001
 43
0.0000000001
 44
0.00000001
 40
0.0
 40
0.0
 40
0.0
 40
0.0
 40
4.908005104138013
 40
9.815816966999392
 40
11.81736697909062
 40
13.81798377143671
 40
15.47664584385811
 40
17.13807096930756
 40
18.87967153826354
 40
20.60869205864736
 40
20.60869205864736
 40
20.60869205864736
 40
20.60869205864736
 10
122.805999346908
 20
117.396166948106
 30
0.0
 10
122.4043395636975
 20
115.8096260513462
 30
0.0
 10
121.6010358116956
 20
112.6366067241813
 30
0.0
 10
121.0293099296481
 20
108.7288927460821
 30
0.0
 10
120.848653775023
 20
105.762970073043
 30
0.0
 10
120.8622614433808
 20
103.8746935651384
 30
0.0
 10
121.0077943003866
 20
102.1038220727466
 30
0.0
 10
121.3213059727927
 20
100.4464936230689
 30
0.0
 10
121.8253083203565
 20
98.79210763351773
 30
0.0
 10
122.4798932350382
 20
97.83062398757482
 30
0.0
 10
122.805999347081
 20
97.3516247217215
 30
0.0
 11
122.805999346908
 21
117.396166948106
 31
0.0
 11
121.6831265154945
 21
112.6183357762543
 31
0.0
 11
120.9866789801914
 21
107.7601902337851
 31
0.0
 11
120.8713372634949
 21
105.7619663375983
 31
0.0
 11
120.8903715983547
 21
103.7614400958525
 31
0.0
 11
121.0363780875393
 21
102.109216752716
 31
0.0
 11
121.3457591047332
 21
100.4768513421308
 31
0.0
 11
121.9055499144049
 21
98.82766766794686
 31
0.0
 11
122.805999347081
 21
97.3516247217215
 31
0.0
  0
SPLINE
  5
DA
330
1F
100
AcDbEntity
  8
0
  6
Continuous
 62
     7
100
AcDbSpline
210
0.0
220
0.0
230
1.0
 70
     8
 71
     3
 72
    11
 73
     7
 74
     5
 42
0.0000000001
 43
0.0000000001
 44
0.00000001
 40
0.0
 40
0.0
 40
0.0
 40
0.0
 40
0.0396097710907985
 40
0.0793139643136232
 40
0.2768296850321804
 40
0.4765470268524569
 40
0.4765470268524569
 40
0.4765470268524569
 40
0.4765470268524569
 10
122.8059993468
 20
157.179534415
 30
0.0
 10
122.8148016238655
 20
157.1893986453927
 30
0.0
 10
122.8324271609447
 20
157.2091506206201
 30
0.0
 10
122.9030995665963
 20
157.268743039821
 30
0.0
 10
123.0394812407596
 20
157.3329765174539
 30
0.0
 10
123.1722564819358
 20
157.3417575025326
 30
0.0
 10
123.2390120487
 20
157.3461723289
 30
0.0
 11
122.8059993468
 21
157.179534415
 31
0.0
 11
122.8330602887886
 21
157.208459134265
 31
0.0
 11
122.8631892635932
 21
157.2343177466929
 31
0.0
 11
123.0409663843323
 21
157.3203860641661
 31
0.0
 11
123.2390120487
 21
157.3461723289
 31
0.0
  0
SPLINE
  5
DB
330
1F
100
AcDbEntity
  8
0
  6
Continuous
 62
     7
100
AcDbSpline
210
0.0
220
0.0
230
1.0
 70
     8
 71
     3
 72
    11
 73
     7
 74
     5
 42
0.0000000001
 43
0.0000000001
 44
0.00000001
 40
0.0
 40
0.0
 40
0.0
 40
0.0
 40
0.1144869088412477
 40
0.228978624880097
 40
0.5593749201772542
 40
0.8897492709989119
 40
0.8897492709989119
 40
0.8897492709989119
 40
0.8897492709989119
 10
111.3932301329
 20
105.1620229176
 30
0.0
 10
111.3755702363842
 20
105.1281920679269
 30
0.0
 10
111.3402497018302
 20
105.0605289480551
 30
0.0
 10
111.251938735096
 20
104.8963100505683
 30
0.0
 10
111.1258820976095
 20
104.6706452020839
 30
0.0
 10
111.0108698692681
 20
104.4827801164681
 30
0.0
 10
110.9533656649
 20
104.3888506932
 30
0.0
 11
111.3932301329
 21
105.1620229176
 31
0.0
 11
111.3400431212897
 21
105.0606405024976
 31
0.0
 11
111.2858853371815
 21
104.9597678726023
 31
0.0
 11
111.1239854555174
 21
104.6717572126203
 31
0.0
 11
110.9533656649
 21
104.3888506932
 31
0.0
  0
SPLINE
  5
DC
330
1F
100
AcDbEntity
  8
0
  6
Continuous
 62
     7
100
AcDbSpline
210
0.0
220
0.0
230
1.0
 70
     8
 71
     3
 72
    17
 73
    13
 74
    11
 42
0.0000000001
 43
0.0000000001
 44
0.00000001
 40
0.0
 40
0.0
 40
0.0
 40
0.0
 40
0.0885925199368338
 40
0.1771938735462457
 40
0.2663445205846296
 40
0.3556576276999979
 40
0.4462461945107775
 40
0.5364096409410928
 40
0.5823867488385653
 40
0.6283820434737031
 40
0.6749717295440696
 40
0.7213871307506801
 40
0.7213871307506801
 40
0.7213871307506801
 40
0.7213871307506801
 10
126.5946744814
 20
137.1349921875
 30
0.0
 10
126.5864236155777
 20
137.1066276948671
 30
0.0
 10
126.5699210612289
 20
137.0498958813418
 30
0.0
 10
126.5383838317026
 20
136.9668031440161
 30
0.0
 10
126.5009527584788
 20
136.8859279005639
 30
0.0
 10
126.4554481006165
 20
136.8084528014166
 30
0.0
 10
126.4010123826285
 20
136.7364191449874
 30
0.0
 10
126.3455809327849
 20
136.6842551262546
 30
0.0
 10
126.2948246996735
 20
136.6506260904908
 30
0.0
 10
126.2529612691354
 20
136.6308146372385
 30
0.0
 10
126.2081886738269
 20
136.6175044490285
 30
0.0
 10
126.1771513570404
 20
136.6157009451972
 30
0.0
 10
126.1616617795
 20
136.6148008831
 30
0.0
 11
126.5946744814
 21
137.1349921875
 31
0.0
 11
126.5688023564871
 21
137.0502616278344
 31
0.0
 11
126.5374883341307
 21
136.9673783854673
 31
0.0
 11
126.4996852547342
 21
136.8866395159216
 31
0.0
 11
126.4542256186356
 21
136.8097613487454
 31
0.0
 11
126.3989781812894
 21
136.7379699209597
 31
0.0
 11
126.332736553583
 21
136.6768021693989
 31
0.0
 11
126.2942906732982
 21
136.6515869212394
 31
0.0
 11
126.2526843875803
 21
136.6319786546835
 31
0.0
 11
126.2078615242766
 21
136.619270005133
 31
0.0
 11
126.1616617795
 21
136.6148008831
 31
0.0
  0
SPLINE
  5
DD
330
1F
100
AcDbEntity
  8
0
  6
Continuous
 62
     7
100
AcDbSpline
210
0.0
220
0.0
230
1.0
 70
     8
 71
     3
 72
    11
 73
     7
 74
     5
 42
0.0000000001
 43
0.0000000001
 44
0.00000001
 40
0.0
 40
0.0
 40
0.0
 40
0.0
 40
0.0858880417778623
 40
0.1724696233776028
 40
0.3262585111585639
 40
0.476779862603541
 40
0.476779862603541
 40
0.476779862603541
 40
0.476779862603541
 10
126.1616617795
 20
157.3461723289
 30
0.0
 10
126.1903350583762
 20
157.3453446297014
 30
0.0
 10
126.247913150814
 20
157.3436825476922
 30
0.0
 10
126.3548794734041
 20
157.324246504244
 30
0.0
 10
126.4817963004702
 20
157.2831638665117
 30
0.0
 10
126.5573187288738
 20
157.2138294055218
 30
0.0
 10
126.5946744814
 20
157.179534415
 30
0.0
 11
126.1616617795
 21
157.3461723289
 31
0.0
 11
126.2474255329428
 21
157.3415534203882
 31
0.0
 11
126.3327461165053
 21
157.3268303672785
 31
0.0
 11
126.4769108935361
 21
157.2732809595457
 31
0.0
 11
126.5946744814
 21
157.179534415
 31
0.0
  0
SPLINE
  5
DE
330
1F
100
AcDbEntity
  8
0
  6
Continuous
 62
     7
100
AcDbSpline
210
0.0
220
0.0
230
1.0
 70
     8
 71
     3
 72
    11
 73
     7
 74
     5
 42
0.0000000001
 43
0.0000000001
 44
0.00000001
 40
0.0
 40
0.0
 40
0.0
 40
0.0
 40
0.0858653727639913
 40
0.1724244651717304
 40
0.3262359599441493
 40
0.4767776583256406
 40
0.4767776583256406
 40
0.4767776583256406
 40
0.4767776583256406
 10
123.2390120487
 20
97.1849868083
 30
0.0
 10
123.2103463441087
 20
97.18581454194596
 30
0.0
 10
123.1527833402596
 20
97.18747669662619
 30
0.0
 10
123.0458245020598
 20
97.20691046404134
 30
0.0
 10
122.9188971181234
 20
97.24798436521434
 30
0.0
 10
122.8433614331957
 20
97.31732625967109
 30
0.0
 10
122.8059993468
 20
97.3516247221
 30
0.0
 11
123.2390120487
 21
97.1849868083
 31
0.0
 11
123.1532709587221
 21
97.1896050037596
 31
0.0
 11
123.0679722532961
 21
97.20432258953616
 31
0.0
 11
122.9237827822383
 21
97.2578704406621
 31
0.0
 11
122.8059993468
 21
97.3516247221
 31
0.0
  0
SPLINE
  5
DF
330
1F
100
AcDbEntity
  8
0
  6
Continuous
 62
     7
100
AcDbSpline
210
0.0
220
0.0
230
1.0
 70
     8
 71
     3
 72
    23
 73
    19
 74
    17
 42
0.0000000001
 43
0.0000000001
 44
0.00000001
 40
0.0
 40
0.0
 40
0.0
 40
0.0
 40
0.0200847595707633
 40
0.0402074697404037
 40
0.0623257192830535
 40
0.0845392954891348
 40
0.1048528756111828
 40
0.1251579524064345
 40
0.143811589111246
 40
0.1624497786159302
 40
0.1972171514985986
 40
0.2320370462797897
 40
0.2649767723288183
 40
0.2978945728833384
 40
0.3606251044565145
 40
0.423400158313426
 40
0.4835097231242796
 40
0.5435992772582989
 40
0.5435992772582989
 40
0.5435992772582989
 40
0.5435992772582989
 10
112.3053600252
 20
143.6100578555
 30
0.0
 10
112.3117956288716
 20
143.6081130430919
 30
0.0
 10
112.3246789964309
 20
143.6042197435094
 30
0.0
 10
112.3457932672563
 20
143.6043136271835
 30
0.0
 10
112.3666633389855
 20
143.6103876634533
 30
0.0
 10
112.3853799869978
 20
143.6214589036055
 30
0.0
 10
112.4009812642951
 20
143.6355788774039
 30
0.0
 10
112.413570751905
 20
143.6508651027959
 30
0.0
 10
112.4243879289662
 20
143.6667486855695
 30
0.0
 10
112.4363782405007
 20
143.6875834310439
 30
0.0
 10
112.4486993401666
 20
143.7143517116943
 30
0.0
 10
112.4601597915524
 20
143.7465791647105
 30
0.0
 10
112.4694714923612
 20
143.7788370728768
 30
0.0
 10
112.4792896927678
 20
143.8205736411068
 30
0.0
 10
112.4883488680215
 20
143.8726481079965
 30
0.0
 10
112.4951239427721
 20
143.9341723928558
 30
0.0
 10
112.4991588642281
 20
143.9950541119454
 30
0.0
 10
112.4998868000715
 20
144.0351184312764
 30
0.0
 10
112.5002507074
 20
144.055147256
 30
0.0
 11
112.3053600252
 21
143.6100578555
 31
0.0
 11
112.3248509475531
 21
143.6052100196074
 31
0.0
 11
112.344973654997
 21
143.6051995459873
 31
0.0
 11
112.3662543207014
 21
143.6112286611801
 31
0.0
 11
112.385451727522
 21
143.6224046416396
 31
0.0
 11
112.4006186741009
 21
143.6359177933388
 31
0.0
 11
112.4136612585061
 21
143.6514801561316
 31
0.0
 11
112.4241910320227
 21
143.6668776244951
 31
0.0
 11
112.433520483299
 21
143.6830127863132
 31
0.0
 11
112.4482078032352
 21
143.7145255273912
 31
0.0
 11
112.460024810912
 21
143.7472788997694
 31
0.0
 11
112.4692076649672
 21
143.7789127541596
 31
0.0
 11
112.4767961944549
 21
143.8109439235664
 31
0.0
 11
112.4876978349494
 21
143.8727199207334
 31
0.0
 11
112.4947578858806
 21
143.9350967038148
 31
0.0
 11
112.4986784757685
 21
143.9950782739567
 31
0.0
 11
112.5002507074
 21
144.055147256
 31
0.0
  0
SPLINE
  5
E0
330
1F
100
AcDbEntity
  8
0
  6
Continuous
 62
     7
100
AcDbSpline
210
0.0
220
0.0
230
1.0
 70
     8
 71
     3
 72
    19
 73
    15
 74
    13
 42
0.0000000001
 43
0.0000000001
 44
0.00000001
 40
0.0
 40
0.0
 40
0.0
 40
0.0
 40
0.1037214442577723
 40
0.2077048967801734
 40
0.3081965148329729
 40
0.4087745519847775
 40
0.4905582518677202
 40
0.5722694204131319
 40
0.6447917332774826
 40
0.7173167610880717
 40
0.8507493764360392
 40
0.9843287148367312
 40
1.111803128107556
 40
1.239193738891865
 40
1.239193738891865
 40
1.239193738891865
 40
1.239193738891865
 10
112.3053600252
 20
143.6100578555
 30
0.0
 10
112.2722082256081
 20
143.6202839839933
 30
0.0
 10
112.2058208824546
 20
143.6407620729591
 30
0.0
 10
112.1018843716094
 20
143.6442707353079
 30
0.0
 10
112.0012628624314
 20
143.6258801206829
 30
0.0
 10
111.9130392352749
 20
143.591082731367
 30
0.0
 10
111.8367252632866
 20
143.5468008365169
 30
0.0
 10
111.7735733586421
 20
143.4996314760679
 30
0.0
 10
111.7172656598544
 20
143.4490941757532
 30
0.0
 10
111.6529112879189
 20
143.3821039726126
 30
0.0
 10
111.5819983863431
 20
143.2935841258431
 30
0.0
 10
111.5099696723067
 20
143.1834164781915
 30
0.0
 10
111.4467464523219
 20
143.0702716242588
 30
0.0
 10
111.4110649952192
 20
142.9931463940719
 30
0.0
 10
111.3932301329
 20
142.9545964588
 30
0.0
 11
112.3053600252
 21
143.6100578555
 31
0.0
 11
112.2049921152847
 21
143.6362192900582
 31
0.0
 11
112.1010976613227
 21
143.6405205496893
 31
0.0
 11
112.0021925540197
 21
143.6227344582617
 31
0.0
 11
111.9084484533817
 21
143.5862929276562
 31
0.0
 11
111.837580387295
 21
143.5454727025751
 31
0.0
 11
111.7719483222532
 21
143.4967988173449
 31
0.0
 11
111.717890889115
 21
143.448453395786
 31
0.0
 11
111.6675544927344
 21
143.3962410710116
 31
0.0
 11
111.5837802489166
 21
143.2923847331629
 31
0.0
 11
111.5102102963131
 21
143.1808907794188
 31
0.0
 11
111.4481838625025
 21
143.0695245028919
 31
0.0
 11
111.3932301329
 21
142.9545964588
 31
0.0
  0
SPLINE
  5
E1
330
1F
100
AcDbEntity
  8
0
  6
Continuous
 62
     7
100
AcDbSpline
210
0.0
220
0.0
230
1.0
 70
     8
 71
     3
 72
    25
 73
    21
 74
    19
 42
0.0000000001
 43
0.0000000001
 44
0.00000001
 40
0.0
 40
0.0
 40
0.0
 40
0.0
 40
0.1100127022242059
 40
0.220027720375631
 40
0.3300666626814778
 40
0.4401078802596024
 40
0.5501739293963637
 40
0.6602293605711566
 40
0.770283454583391
 40
0.880390520213258
 40
0.9905820716203325
 40
1.100570628288285
 40
1.210144994776459
 40
1.320894121671522
 40
1.432541552183008
 40
1.540923272213443
 40
1.596165153187706
 40
1.651750157799574
 40
1.707084506450712
 40
1.76234159229678
 40
1.76234159229678
 40
1.76234159229678
 40
1.76234159229678
 10
111.3932301329
 20
133.6801193293
 30
0.0
 10
111.4019181695059
 20
133.6444916840464
 30
0.0
 10
111.4192944256136
 20
133.5732356435254
 30
0.0
 10
111.4475384618976
 20
133.4668926108747
 30
0.0
 10
111.4775727516124
 20
133.3610334348508
 30
0.0
 10
111.5097987384513
 20
133.2557995795605
 30
0.0
 10
111.5444225790671
 20
133.1513219743111
 30
0.0
 10
111.5818016026263
 20
133.0477906725624
 30
0.0
 10
111.6222764949695
 20
132.9454070098843
 30
0.0
 10
111.6667306788054
 20
132.8446259491008
 30
0.0
 10
111.7159370377487
 20
132.7460745032288
 30
0.0
 10
111.7707265183718
 20
132.6507255166435
 30
0.0
 10
111.8321559935789
 20
132.5591248080212
 30
0.0
 10
111.9062173927194
 20
132.4762666025753
 30
0.0
 10
111.9939277742078
 20
132.4081758106184
 30
0.0
 10
112.0828445789096
 20
132.3756594738587
 30
0.0
 10
112.1566384624081
 20
132.3775776261645
 30
0.0
 10
112.2107387761751
 20
132.3911100630157
 30
0.0
 10
112.2609902717008
 20
132.4154137132684
 30
0.0
 10
112.2905769974527
 20
132.4374963947848
 30
0.0
 10
112.3053600252
 20
132.4485300217
 30
0.0
 11
111.3932301329
 21
133.6801193293
 31
0.0
 11
111.419657152716
 21
133.5733279098211
 31
0.0
 11
111.4478343059474
 21
133.4669824714863
 31
0.0
 11
111.4779370173811
 21
133.3611411015588
 31
0.0
 11
111.5101955963775
 21
133.2559343829177
 31
0.0
 11
111.5448827181825
 21
133.1514770291629
 31
0.0
 11
111.5823168828823
 21
133.0479836417205
 31
0.0
 11
111.6229298972082
 21
132.945697344123
 31
0.0
 11
111.6675125863361
 21
132.8450198901834
 31
0.0
 11
111.7169142468396
 21
132.7465229159102
 31
0.0
 11
111.7718874744485
 21
132.6512578811694
 31
0.0
 11
111.8339604828433
 21
132.5609612399245
 31
0.0
 11
111.9083370519792
 21
132.4789033635714
 31
0.0
 11
111.9980711579409
 21
132.4124734082269
 31
0.0
 11
112.1009875144653
 21
132.3784907538795
 31
0.0
 11
112.1562187303
 21
132.3795762081633
 31
0.0
 11
112.2101743994826
 21
132.392935792766
 31
0.0
 11
112.2600483006263
 21
132.4169041912389
 31
0.0
 11
112.3053600252
 21
132.4485300217
 31
0.0
  0
SPLINE
  5
E2
330
1F
100
AcDbEntity
  8
0
  6
Continuous
 62
     7
100
AcDbSpline
210
0.0
220
0.0
230
1.0
 70
     8
 71
     3
 72
    17
 73
    13
 74
    11
 42
0.0000000001
 43
0.0000000001
 44
0.00000001
 40
0.0
 40
0.0
 40
0.0
 40
0.0
 40
0.0414201705269559
 40
0.0829390505877206
 40
0.1073813969176633
 40
0.1316132836226044
 40
0.1594736537517694
 40
0.1874025611263813
 40
0.211972671125514
 40
0.2366663818743829
 40
0.2629447608984083
 40
0.2891512213663957
 40
0.2891512213663957
 40
0.2891512213663957
 40
0.2891512213663957
 10
112.3053600252
 20
105.7381508285
 30
0.0
 10
112.3182711818458
 20
105.7331967787124
 30
0.0
 10
112.3441242640655
 20
105.7232768730065
 30
0.0
 10
112.3797140027939
 20
105.7172493460219
 30
0.0
 10
112.4098761636596
 20
105.7172361935744
 30
0.0
 10
112.4351283544379
 20
105.7226018240157
 30
0.0
 10
112.4586155138494
 20
105.736186880117
 30
0.0
 10
112.4772462148568
 20
105.7560109933659
 30
0.0
 10
112.4887589886547
 20
105.7793206327937
 30
0.0
 10
112.4953287240689
 20
105.8037065472684
 30
0.0
 10
112.4992471484103
 20
105.8291927510695
 30
0.0
 10
112.4999164934652
 20
105.8466858694055
 30
0.0
 10
112.5002507074
 20
105.8554204434
 30
0.0
 11
112.3053600252
 21
105.7381508285
 31
0.0
 11
112.3445014364548
 21
105.7246016421236
 31
0.0
 11
112.3854517274866
 21
105.7177539369667
 31
0.0
 11
112.4098916457504
 21
105.7180984502068
 31
0.0
 11
112.433520483315
 21
105.7234708210637
 31
0.0
 11
112.4577373838416
 21
105.7372455062731
 31
0.0
 11
112.4767961944694
 21
105.7576608339607
 31
0.0
 11
112.4879786415465
 21
105.7795387493719
 31
0.0
 11
112.4947578858809
 21
105.8032836687612
 31
0.0
 11
112.4987505924002
 21
105.8292569530891
 31
0.0
 11
112.5002507074
 21
105.8554204434
 31
0.0
  0
SPLINE
  5
E3
330
1F
100
AcDbEntity
  8
0
  6
Continuous
 62
     7
100
AcDbSpline
210
0.0
220
0.0
230
1.0
 70
     8
 71
     3
 72
    19
 73
    15
 74
    13
 42
0.0000000001
 43
0.0000000001
 44
0.00000001
 40
0.0
 40
0.0
 40
0.0
 40
0.0
 40
0.1045384650921641
 40
0.2092514255685561
 40
0.3087263831947962
 40
0.4083161306887068
 40
0.4883199216791806
 40
0.568251331830371
 40
0.6382737893056246
 40
0.7082962789110746
 40
0.8338795436393172
 40
0.9595807700271796
 40
1.074624552593962
 40
1.189598319432477
 40
1.189598319432477
 40
1.189598319432477
 40
1.189598319432477
 10
112.3053600252
 20
105.7381508285
 30
0.0
 10
112.2724189011698
 20
105.7498572513257
 30
0.0
 10
112.2064816678551
 20
105.7732896373134
 30
0.0
 10
112.1026311937071
 20
105.7816331752725
 30
0.0
 10
112.0017376997081
 20
105.7673815861042
 30
0.0
 10
111.9134446544003
 20
105.7363518057571
 30
0.0
 10
111.8369764921043
 20
105.6954569963965
 30
0.0
 10
111.7738984550181
 20
105.6516512774054
 30
0.0
 10
111.7175230625512
 20
105.604658632366
 30
0.0
 10
111.6536964769856
 20
105.5432051422694
 30
0.0
 10
111.5829972453361
 20
105.4624852300356
 30
0.0
 10
111.5111357210572
 20
105.3636274971815
 30
0.0
 10
111.4476706842485
 20
105.2633505380159
 30
0.0
 10
111.4113733004598
 20
105.1957919362838
 30
0.0
 10
111.3932301329
 20
105.1620229176
 30
0.0
 11
112.3053600252
 21
105.7381508285
 31
0.0
 11
112.2054256328232
 21
105.7688331997267
 31
0.0
 11
112.1010976613101
 21
105.7778041780297
 31
0.0
 11
112.0025584673004
 21
105.7641918880439
 31
0.0
 11
111.9084484533511
 21
105.7316123993992
 31
0.0
 11
111.8377693257514
 21
105.6941281694538
 31
0.0
 11
111.7719483222854
 21
105.648778132723
 31
0.0
 11
111.7180830370574
 21
105.604038043338
 31
0.0
 11
111.6675544926735
 21
105.5555610874415
 31
0.0
 11
111.5845212952622
 21
105.4613451412994
 31
0.0
 11
111.5102102962996
 21
105.3599613469899
 31
0.0
 11
111.4488441280222
 21
105.2626511969631
 31
0.0
 11
111.3932301329
 21
105.1620229176
 31
0.0
  0
SPLINE
  5
E4
330
1F
100
AcDbEntity
  8
0
  6
Continuous
 62
     7
100
AcDbSpline
210
0.0
220
0.0
230
1.0
 70
     8
 71
     3
 72
    17
 73
    13
 74
    11
 42
0.0000000001
 43
0.0000000001
 44
0.00000001
 40
0.0
 40
0.0
 40
0.0
 40
0.0
 40
0.0885985679141319
 40
0.1772066589568863
 40
0.2663651706954157
 40
0.355683583150355
 40
0.4462764247920835
 40
0.5364496693434181
 40
0.5824215302589775
 40
0.6284087157850384
 40
0.6749841996296245
 40
0.7213876903182079
 40
0.7213876903182079
 40
0.7213876903182079
 40
0.7213876903182079
 10
122.8059993468
 20
117.3961669496
 30
0.0
 10
122.8142510168686
 20
117.4245333138792
 30
0.0
 10
122.830755243947
 20
117.4812690914319
 30
0.0
 10
122.8622958209968
 20
117.564367861819
 30
0.0
 10
122.8997266176093
 20
117.6452504878693
 30
0.0
 10
122.9452365673919
 20
117.722729837377
 30
0.0
 10
122.9996929236183
 20
117.7947567536098
 30
0.0
 10
123.0551318664003
 20
117.8469145532673
 30
0.0
 10
123.105878974995
 20
117.8805542537499
 30
0.0
 10
123.1477318915081
 20
117.9003686250711
 30
0.0
 10
123.1924978250296
 20
117.9136618847209
 30
0.0
 10
123.2235264397926
 20
117.9154605733159
 30
0.0
 10
123.2390120487
 20
117.916358254
 30
0.0
 11
122.8059993468
 21
117.3961669496
 31
0.0
 11
122.8318739861117
 21
117.4809030651407
 31
0.0
 11
122.863190593631
 21
117.5637925330587
 31
0.0
 11
122.9009955133423
 21
117.6445392250098
 31
0.0
 11
122.9464616680944
 21
117.7214197009157
 31
0.0
 11
123.0017243254271
 21
117.7932048084329
 31
0.0
 11
123.067977267127
 21
117.8543747499812
 31
0.0
 11
123.1064144181849
 21
117.8795937391481
 31
0.0
 11
123.1480116501639
 21
117.8992021945765
 31
0.0
 11
123.1928234235423
 21
117.9118978892027
 31
0.0
 11
123.2390120487
 21
117.916358254
 31
0.0
  0
SPLINE
  5
E5
330
1F
100
AcDbEntity
  8
0
  6
Continuous
 62
     7
100
AcDbSpline
210
0.0
220
0.0
230
1.0
 70
     8
 71
     3
 72
    11
 73
     7
 74
     5
 42
0.0000000001
 43
0.0000000001
 44
0.00000001
 40
0.0
 40
0.0
 40
0.0
 40
0.0
 40
0.0396067481426851
 40
0.0793078946631756
 40
0.2768264670119832
 40
0.4765469382533982
 40
0.4765469382533982
 40
0.4765469382533982
 40
0.4765469382533982
 10
126.5946744814
 20
97.3516247221
 30
0.0
 10
126.5858729065779
 20
97.34176122055939
 30
0.0
 10
126.568248779337
 20
97.32201070889468
 30
0.0
 10
126.4975780049371
 20
97.26241806594349
 30
0.0
 10
126.3611956256174
 20
97.19818300716085
 30
0.0
 10
126.2284183899318
 20
97.18940176608123
 30
0.0
 10
126.1616617795
 20
97.1849868083
 30
0.0
 11
126.5946744814
 21
97.3516247221
 31
0.0
 11
126.5676157385653
 21
97.32270208503758
 31
0.0
 11
126.5374893935473
 21
97.29684508654792
 31
0.0
 11
126.3597104914542
 21
97.21077390441775
 31
0.0
 11
126.1616617795
 21
97.1849868083
 31
0.0
  0
SPLINE
  5
E6
330
1F
100
AcDbEntity
  8
0
  6
Continuous
 62
     7
100
AcDbSpline
210
0.0
220
0.0
230
1.0
 70
     8
 71
     3
 72
    17
 73
    13
 74
    11
 42
0.0000000001
 43
0.0000000001
 44
0.00000001
 40
0.0
 40
0.0
 40
0.0
 40
0.0
 40
0.0464149716232505
 40
0.0930041340541231
 40
0.1389991042720606
 40
0.1849760065902777
 40
0.2751398214373741
 40
0.3657285222387876
 40
0.4550419000665416
 40
0.5441929284468319
 40
0.6327944774708112
 40
0.7213871622147003
 40
0.7213871622147003
 40
0.7213871622147003
 40
0.7213871622147003
 10
126.1616617795
 20
117.916358254
 30
0.0
 10
126.1771512139721
 20
117.9154582874261
 30
0.0
 10
126.2081882132352
 20
117.9136549767925
 30
0.0
 10
126.2529605724738
 20
117.9003454553913
 30
0.0
 10
126.2948235848464
 20
117.8805338502704
 30
0.0
 10
126.3455794248529
 20
117.8469043591988
 30
0.0
 10
126.4010111705731
 20
117.7947406195224
 30
0.0
 10
126.4554477471726
 20
117.7227072554339
 30
0.0
 10
126.5009526023873
 20
117.645231941158
 30
0.0
 10
126.5383836249126
 20
117.5643563661455
 30
0.0
 10
126.5699209769837
 20
117.4812634142996
 30
0.0
 10
126.5864235884466
 20
117.4245314918136
 30
0.0
 10
126.5946744814
 20
117.3961669496
 30
0.0
 11
126.1616617795
 21
117.916358254
 31
0.0
 11
126.2078611263897
 21
117.9118894803702
 31
0.0
 11
126.2526835872505
 21
117.8991813310797
 31
0.0
 11
126.2942894996697
 21
117.8795730334199
 31
0.0
 11
126.3327350204879
 21
117.8543576120316
 31
0.0
 11
126.3989770884609
 21
117.7931897941986
 31
0.0
 11
126.4542251321211
 21
117.7213986639344
 31
0.0
 11
126.4996850377874
 21
117.6445203416594
 31
0.0
 11
126.5374881820932
 21
117.5637810814333
 31
0.0
 11
126.5688022733181
 21
117.4808976561891
 31
0.0
 11
126.5946744814
 21
117.3961669496
 31
0.0
  0
SPLINE
  5
E7
330
1F
100
AcDbEntity
  8
0
  6
Continuous
 62
     7
100
AcDbSpline
210
0.0
220
0.0
230
1.0
 70
     8
 71
     3
 72
    23
 73
    19
 74
    17
 42
0.0000000001
 43
0.0000000001
 44
0.00000001
 40
0.0
 40
0.0
 40
0.0
 40
0.0
 40
0.0673001185481762
 40
0.1346029788198051
 40
0.1680432784346484
 40
0.2014739084648423
 40
0.234695392801567
 40
0.2679495049100249
 40
0.3010071809635289
 40
0.3339463089547126
 40
0.3663371066511109
 40
0.3992515325399995
 40
0.4324467180865805
 40
0.4643835783105295
 40
0.4811819318628832
 40
0.4980291548642468
 40
0.5155418557547901
 40
0.5331155180921648
 40
0.5331155180921648
 40
0.5331155180921648
 40
0.5331155180921648
 10
112.4961975395
 20
132.0333352018
 30
0.0
 10
112.4948601824826
 20
132.0557300671792
 30
0.0
 10
112.4921854139654
 20
132.1005207102765
 30
0.0
 10
112.4866872611253
 20
132.1562822427183
 30
0.0
 10
112.4810454424292
 20
132.200651925086
 30
0.0
 10
112.476052139757
 20
132.2336439767934
 30
0.0
 10
112.4701847996868
 20
132.266430325338
 30
0.0
 10
112.4632141718633
 20
132.2988752055912
 30
0.0
 10
112.4549212532855
 20
132.3309164791217
 30
0.0
 10
112.4450620416354
 20
132.3622076429329
 30
0.0
 10
112.4332676396879
 20
132.3928096210796
 30
0.0
 10
112.4177314483704
 20
132.4218459584859
 30
0.0
 10
112.3980648114668
 20
132.4481742609636
 30
0.0
 10
112.3746165730603
 20
132.4641884377331
 30
0.0
 10
112.3527431021613
 20
132.4678382099878
 30
0.0
 10
112.3355573475349
 20
132.4660458645181
 30
0.0
 10
112.3194335358549
 20
132.4590693168639
 30
0.0
 10
112.3100566261131
 20
132.4520471869975
 30
0.0
 10
112.3053600252
 20
132.4485300217
 30
0.0
 11
112.4961975395
 21
132.0333352018
 31
0.0
 11
112.4917531705236
 21
132.1004884112617
 31
0.0
 11
112.4851598256738
 21
132.167467533415
 31
0.0
 11
112.480913958765
 21
132.2006371920283
 31
0.0
 11
112.4758934531142
 21
132.2336886904395
 31
0.0
 11
112.4699990290785
 21
132.266383075077
 31
0.0
 11
112.4629749187378
 21
132.2988868878694
 31
0.0
 11
112.4546356024143
 21
132.3308754131451
 31
0.0
 11
112.4446775321747
 21
132.3622732313802
 31
0.0
 11
112.4327252253186
 21
132.3923781501847
 31
0.0
 11
112.4170734093082
 21
132.4213329440395
 31
0.0
 11
112.3963640017763
 21
132.4472759736072
 31
0.0
 11
112.3692934379126
 21
132.4642214040551
 31
0.0
 11
112.3527392167437
 21
132.4670749007802
 31
0.0
 11
112.3359912413015
 21
132.4652489102424
 31
0.0
 11
112.3198302332563
 21
132.4585023176621
 31
0.0
 11
112.3053600252
 21
132.4485300217
 31
0.0
  0
SPLINE
  5
E8
330
1F
100
AcDbEntity
  8
0
  6
Continuous
 62
     7
100
AcDbSpline
210
0.0
220
0.0
230
1.0
 70
     8
 71
     3
 72
     9
 73
     5
 74
     3
 42
0.0000000001
 43
0.0000000001
 44
0.00000001
 40
0.0
 40
0.0
 40
0.0
 40
0.0
 40
0.0713008008204855
 40
0.1425989014217747
 40
0.1425989014217747
 40
0.1425989014217747
 40
0.1425989014217747
 10
112.5002149607
 20
131.8908022285
 30
0.0
 10
112.4999528465708
 20
131.9145696588433
 30
0.0
 10
112.4994286282388
 20
131.9621036194379
 30
0.0
 10
112.4972745554833
 20
132.0095916407533
 30
0.0
 10
112.4961975395
 20
132.0333352018
 30
0.0
 11
112.5002149607
 21
131.8908022285
 31
0.0
 11
112.499021139275
 21
131.962093034275
 31
0.0
 11
112.4961975395
 21
132.0333352018
 31
0.0
  0
SPLINE
  5
E9
330
1F
100
AcDbEntity
  8
0
  6
Continuous
 62
     7
100
AcDbSpline
210
0.0
220
0.0
230
1.0
 70
     8
 71
     3
 72
    13
 73
     9
 74
     7
 42
0.0000000001
 43
0.0000000001
 44
0.00000001
 40
0.0
 40
0.0
 40
0.0
 40
0.0
 40
0.7059708842516006
 40
1.412231769414435
 40
2.201489765367237
 40
2.990772518892101
 40
4.758700583986569
 40
6.526717397135658
 40
6.526717397135658
 40
6.526717397135658
 40
6.526717397135658
 10
110.9533656649
 20
141.9553510012
 30
0.0
 10
110.9145456311191
 20
141.7231906847441
 30
0.0
 10
110.8368896169432
 20
141.258774684297
 30
0.0
 10
110.7646055835652
 20
140.5280694097961
 30
0.0
 10
110.7197248392096
 20
139.7676126905378
 30
0.0
 10
110.7011222669382
 20
138.6521009500838
 30
0.0
 10
110.7512241502508
 20
137.2094333268358
 30
0.0
 10
110.8859840325788
 20
136.0381789154477
 30
0.0
 10
110.9533656649
 20
135.4525370112
 30
0.0
 11
110.9533656649
 21
141.9553510012
 31
0.0
 11
110.8447239995446
 21
141.2577896218506
 31
0.0
 11
110.7717303443583
 21
140.5553108931951
 31
0.0
 11
110.7252833126199
 21
139.7674207628989
 31
0.0
 11
110.7107385458145
 21
138.9782720349836
 31
0.0
 11
110.7746721368282
 21
137.2115003634627
 31
0.0
 11
110.9533656649
 21
135.4525370112
 31
0.0
  0
SPLINE
  5
EA
330
1F
100
AcDbEntity
  8
0
  6
Continuous
 62
     7
100
AcDbSpline
210
0.0
220
0.0
230
1.0
 70
     8
 71
     3
 72
    27
 73
    23
 74
    21
 42
0.0000000001
 43
0.0000000001
 44
0.00000001
 40
0.0
 40
0.0
 40
0.0
 40
0.0
 40
0.198418774386807
 40
0.3968374365232678
 40
0.5029769397812274
 40
0.6091160619713938
 40
0.7197506973272654
 40
0.8303871006989617
 40
0.945446840880805
 40
1.06050080670819
 40
1.179956515046743
 40
1.299443223322759
 40
1.360928421895759
 40
1.422345300119771
 40
1.484949305605875
 40
1.547805801676065
 40
1.612731563729729
 40
1.676696646138537
 40
1.709481594167514
 40
1.743841351762676
 40
1.784580073356565
 40
1.821170232155849
 40
1.821170232155849
 40
1.821170232155849
 40
1.821170232155849
 10
110.5004000031
 20
143.7231103172
 30
0.0
 10
110.5003983447466
 20
143.6569707279926
 30
0.0
 10
110.5003950280407
 20
143.5246915869947
 30
0.0
 10
110.5008592404622
 20
143.3570326761164
 30
0.0
 10
110.501840355978
 20
143.220136762827
 30
0.0
 10
110.5031220017348
 20
143.112506113717
 30
0.0
 10
110.5051372172205
 20
143.0033868881825
 30
0.0
 10
110.5082115365862
 20
142.8913169806885
 30
0.0
 10
110.5126258284251
 20
142.7778160653432
 30
0.0
 10
110.5188927446319
 20
142.6614565028704
 30
0.0
 10
110.5274239950335
 20
142.5437574408373
 30
0.0
 10
110.5372984271201
 20
142.4440858913427
 30
0.0
 10
110.547320357657
 20
142.3639088326756
 30
0.0
 10
110.5562534595125
 20
142.3027179728222
 30
0.0
 10
110.5667440746984
 20
142.2413039875189
 30
0.0
 10
110.579669384262
 20
142.1791622846431
 30
0.0
 10
110.5955630111076
 20
142.1171941495545
 30
0.0
 10
110.6123329827657
 20
142.0660094864247
 30
0.0
 10
110.6286795534402
 20
142.0252630521085
 30
0.0
 10
110.6462199489315
 20
141.9942935407485
 30
0.0
 10
110.6678880672613
 20
141.9616370476818
 30
0.0
 10
110.6933242417066
 20
141.9540919373183
 30
0.0
 10
110.7053600252
 20
141.9505217733
 30
0.0
 11
110.5004000031
 21
143.7231103172
 31
0.0
 11
110.5004874205455
 21
143.52469156207
 31
0.0
 11
110.5011339125628
 21
143.3262739531435
 31
0.0
 11
110.5019242129516
 21
143.2201373921612
 31
0.0
 11
110.5032177636702
 21
143.1140061527176
 31
0.0
 11
110.5053023683201
 21
143.0033911584186
 31
0.0
 11
110.5083779454692
 21
142.8927975122348
 31
0.0
 11
110.5129120006648
 21
142.7778271414682
 31
0.0
 11
110.5191622409644
 21
142.6629430714289
 31
0.0
 11
110.5279468798262
 21
142.5438108072234
 31
0.0
 11
110.5398737014038
 21
142.4249208396832
 31
0.0
 11
110.5475326188348
 21
142.3639145233927
 31
0.0
 11
110.5564390327281
 21
142.3031468615786
 31
0.0
 11
110.5670970706784
 21
142.2414567673174
 31
0.0
 11
110.5799926438085
 21
142.1799373127371
 31
0.0
 11
110.5963241289219
 21
142.117099130298
 31
0.0
 11
110.6164532492215
 21
142.0563838086442
 31
0.0
 11
110.6290900411439
 21
142.0261321259278
 31
0.0
 11
110.6456767266713
 21
141.9960410175199
 31
0.0
 11
110.6715888013836
 21
141.9646052445661
 31
0.0
 11
110.7053600252
 21
141.9505217733
 31
0.0
  0
SPLINE
  5
EB
330
1F
100
AcDbEntity
  8
0
  6
Continuous
 62
     7
100
AcDbSpline
210
0.0
220
0.0
230
1.0
 70
     8
 71
     3
 72
    35
 73
    31
 74
    29
 42
0.0000000001
 43
0.0000000001
 44
0.00000001
 40
0.0
 40
0.0
 40
0.0
 40
0.0
 40
0.0224671169945608
 40
0.0469716776546621
 40
0.0706451029508499
 40
0.093419843490986
 40
0.1394101663416473
 40
0.1859681376762994
 40
0.232317499598127
 40
0.278509583765551
 40
0.3247931273503619
 40
0.3711204777631379
 40
0.4638921740077628
 40
0.5566437642484907
 40
0.6496253658711605
 40
0.7426109214650233
 40
0.8358149913063375
 40
0.9290178383918661
 40
1.022429258449645
 40
1.115841003242218
 40
1.303223325667478
 40
1.490608110777401
 40
1.678620804243745
 40
1.866632541312929
 40
2.05512115336262
 40
2.243609949507768
 40
2.432418417688915
 40
2.621226802717644
 40
2.810196206325567
 40
2.99916561518679
 40
2.99916561518679
 40
2.99916561518679
 40
2.99916561518679
 10
110.7053600252
 20
135.4515227553
 30
0.0
 10
110.6979653270858
 20
135.449462946839
 30
0.0
 10
110.6825053383272
 20
135.4451565349802
 30
0.0
 10
110.6674619796646
 20
135.4257031237836
 30
0.0
 10
110.6549482034077
 20
135.405864486583
 30
0.0
 10
110.6423480318978
 20
135.3775975464729
 30
0.0
 10
110.6291177208405
 20
135.3415210338106
 30
0.0
 10
110.616135327879
 20
135.2970369058461
 30
0.0
 10
110.6051407672192
 20
135.2519863235435
 30
0.0
 10
110.5957291331146
 20
135.2066708069888
 30
0.0
 10
110.5873613593083
 20
135.1611633403523
 30
0.0
 10
110.577366364093
 20
135.1001796651804
 30
0.0
 10
110.5666953657856
 20
135.0236246198201
 30
0.0
 10
110.5561602428818
 20
134.9313831974483
 30
0.0
 10
110.5472404823677
 20
134.8389022099886
 30
0.0
 10
110.5396809561516
 20
134.7461498931389
 30
0.0
 10
110.5332383103421
 20
134.6532402751633
 30
0.0
 10
110.5277496352613
 20
134.5601277448414
 30
0.0
 10
110.5230595590649
 20
134.4669026405059
 30
0.0
 10
110.5177237060792
 20
134.3422807599788
 30
0.0
 10
110.5125319802379
 20
134.186303752509
 30
0.0
 10
110.5081504479463
 20
133.9987596329873
 30
0.0
 10
110.505104678545
 20
133.8109800306023
 30
0.0
 10
110.5030935707684
 20
133.6228190872608
 30
0.0
 10
110.5018178477258
 20
133.4344933551187
 30
0.0
 10
110.5010776365263
 20
133.2458993537033
 30
0.0
 10
110.5006728099487
 20
133.0571978451246
 30
0.0
 10
110.5004888418462
 20
132.8683358273734
 30
0.0
 10
110.5004078056805
 20
132.6794201075806
 30
0.0
 10
110.5004026039602
 20
132.5534405025772
 30
0.0
 10
110.5004000031
 20
132.4904506992
 30
0.0
 11
110.7053600252
 21
135.4515227553
 31
0.0
 11
110.6844245593808
 21
135.4433693745912
 31
0.0
 11
110.6677408521156
 21
135.425421466495
 31
0.0
 11
110.6552730465001
 21
135.4052972301519
 31
0.0
 11
110.6456753302326
 21
135.3846435949
 31
0.0
 11
110.6296686444596
 21
135.341528680932
 31
0.0
 11
110.6164524134785
 21
135.296885921906
 31
0.0
 11
110.6053894028412
 21
135.2518762213271
 31
0.0
 11
110.595908606295
 21
135.2066675591419
 31
0.0
 11
110.5875113380283
 21
135.1611521519436
 31
0.0
 11
110.5799921756033
 21
135.1154390729323
 31
0.0
 11
110.5670747476116
 21
135.0235710824341
 31
0.0
 11
110.5564387340342
 21
134.9314313368985
 31
0.0
 11
110.5474695373574
 21
134.8388833398845
 31
0.0
 11
110.5398735072039
 21
134.7462085651343
 31
0.0
 11
110.5333987966937
 21
134.6532296602215
 31
0.0
 11
110.5278871564531
 21
134.5601899239433
 31
0.0
 11
110.5231758411564
 21
134.4668973899152
 31
0.0
 11
110.5191621541991
 21
134.3735719143889
 31
0.0
 11
110.5128415306945
 21
134.1862962232916
 31
0.0
 11
110.5083779098273
 21
133.9989646088229
 31
0.0
 11
110.5052779660359
 21
133.8109774729519
 31
0.0
 11
110.5032177537225
 21
133.6229770240137
 31
0.0
 11
110.5019073492473
 21
133.434492967095
 31
0.0
 11
110.5011339113472
 21
133.2460057578046
 31
0.0
 11
110.5007096664578
 21
133.0571977662545
 31
0.0
 11
110.5005060410958
 21
132.8683894910284
 31
0.0
 11
110.5004200151157
 21
132.6794201070016
 31
0.0
 11
110.5004000031
 21
132.4904506992
 31
0.0
  0
SPLINE
  5
EC
330
1F
100
AcDbEntity
  8
0
  6
Continuous
 62
     7
100
AcDbSpline
210
0.0
220
0.0
230
1.0
 70
     8
 71
     3
 72
    17
 73
    13
 74
    11
 42
0.0000000001
 43
0.0000000001
 44
0.00000001
 40
0.0
 40
0.0
 40
0.0
 40
0.0
 40
0.0464036384040192
 40
0.0929793007123395
 40
0.1389666756215533
 40
0.1849386863259024
 40
0.2751119357718601
 40
0.3657048668797184
 40
0.4550230514665395
 40
0.5441812925436542
 40
0.6327892352776985
 40
0.7213876675686972
 40
0.7213876675686972
 40
0.7213876675686972
 40
0.7213876675686972
 10
123.2390120487
 20
136.6148008831
 30
0.0
 10
123.2235263905817
 20
136.6156985944187
 30
0.0
 10
123.192497667136
 20
136.6174973449805
 30
0.0
 10
123.147731623387
 20
136.630790826585
 30
0.0
 10
123.1058785192399
 20
136.6506051779971
 30
0.0
 10
123.0551312158177
 20
136.6842448079688
 30
0.0
 10
122.9996923409684
 20
136.7364028392014
 30
0.0
 10
122.9452363203107
 20
136.8084299393089
 30
0.0
 10
122.8997264672992
 20
136.88590917492
 30
0.0
 10
122.8622956790786
 20
136.9667915687052
 30
0.0
 10
122.8307551865337
 20
137.049890175035
 30
0.0
 10
122.8142509981249
 20
137.1066258649894
 30
0.0
 10
122.8059993468
 20
137.1349921875
 30
0.0
 11
123.2390120487
 21
136.6148008831
 31
0.0
 11
123.1928232859422
 21
136.6192613597599
 31
0.0
 11
123.1480113728222
 21
136.6319572158549
 31
0.0
 11
123.1064139456127
 21
136.6515657012781
 31
0.0
 11
123.0679766202117
 21
136.6767846977732
 31
0.0
 11
123.0017237885068
 21
136.7379547656718
 31
0.0
 11
122.9464613150993
 21
136.8097401276867
 31
0.0
 11
122.9009953344689
 21
136.8866204418328
 31
0.0
 11
122.8631904820146
 21
136.9673668664154
 31
0.0
 11
122.8318739281705
 21
137.0502561960718
 31
0.0
 11
122.8059993468
 21
137.1349921875
 31
0.0
  0
SPLINE
  5
ED
330
1F
100
AcDbEntity
  8
0
  6
Continuous
 62
     7
100
AcDbSpline
210
0.0
220
0.0
230
1.0
 70
     8
 71
     3
 72
    25
 73
    21
 74
    19
 42
0.0000000001
 43
0.0000000001
 44
0.00000001
 40
0.0
 40
0.0
 40
0.0
 40
0.0
 40
0.1793610638665868
 40
0.3587208533666227
 40
0.4410790500091446
 40
0.5234388827773503
 40
0.6008758165072954
 40
0.6783083636850642
 40
0.750883545627848
 40
0.8234768973162669
 40
0.8916244425307944
 40
0.9597247317209908
 40
0.9925108733716548
 40
1.025318331882922
 40
1.057978320159409
 40
1.09055623949857
 40
1.124615443859633
 40
1.15914555550709
 40
1.211877750004352
 40
1.262623468676201
 40
1.262623468676201
 40
1.262623468676201
 40
1.262623468676201
 10
110.5004000031
 20
105.5831776893
 30
0.0
 10
110.5003860412315
 20
105.5233906846281
 30
0.0
 10
110.5003581175937
 20
105.4038171000731
 30
0.0
 10
110.5008019052203
 20
105.2567905877205
 30
0.0
 10
110.5018042659589
 20
105.1421018867988
 30
0.0
 10
110.5030553964627
 20
105.0613924013538
 30
0.0
 10
110.5050463418241
 20
104.9823392048992
 30
0.0
 10
110.5080589237162
 20
104.9065807162897
 30
0.0
 10
110.5124257418826
 20
104.8325026386315
 30
0.0
 10
110.5185871554312
 20
104.761652557309
 30
0.0
 10
110.5271106535885
 20
104.6925431204225
 30
0.0
 10
110.5370009469134
 20
104.637030403661
 30
0.0
 10
110.5471690493529
 20
104.5936294746552
 30
0.0
 10
110.556122744581
 20
104.5621119883373
 30
0.0
 10
110.5668635327932
 20
104.5312160489507
 30
0.0
 10
110.579806261959
 20
104.5007492088469
 30
0.0
 10
110.5954030589272
 20
104.4706970733285
 30
0.0
 10
110.619253361837
 20
104.438135301103
 30
0.0
 10
110.6542440020033
 20
104.4055919607762
 30
0.0
 10
110.6885408172628
 20
104.3982799820637
 30
0.0
 10
110.7053600252
 20
104.3946941771
 30
0.0
 11
110.5004000031
 21
105.5831776893
 31
0.0
 11
110.5004553300159
 21
105.4038166339667
 31
0.0
 11
110.5011339125696
 21
105.2244581281321
 31
0.0
 11
110.5018970562152
 21
105.1421034672683
 31
0.0
 11
110.5032177636514
 21
105.0597542244942
 31
0.0
 11
110.5052342787551
 21
104.9823435509903
 31
0.0
 11
110.508377945488
 21
104.9049748446426
 31
0.0
 11
110.512761610485
 21
104.8325321741008
 31
0.0
 11
110.5191622409888
 21
104.7602215480593
 31
0.0
 11
110.5277158079746
 21
104.6926129361036
 31
0.0
 11
110.5398737014054
 21
104.6256067049373
 31
0.0
 11
110.5474144459169
 21
104.5936995230412
 31
0.0
 11
110.5564390327606
 21
104.5621577068876
 31
0.0
 11
110.5672125212375
 21
104.5313257951684
 31
0.0
 11
110.5799926438402
 21
104.5013593256612
 31
0.0
 11
110.596047881122
 21
104.471321703293
 31
0.0
 11
110.6164532491929
 21
104.4434658320218
 31
0.0
 11
110.6568410107772
 21
104.409561362542
 31
0.0
 11
110.7053600252
 21
104.3946941771
 31
0.0
  0
SPLINE
  5
EE
330
1F
100
AcDbEntity
  8
FASEN
  6
Continuous
 62
     7
100
AcDbSpline
210
0.0
220
0.0
230
1.0
 70
     8
 71
     3
 72
    19
 73
    15
 74
    13
 42
0.0000000001
 43
0.0000000001
 44
0.00000001
 40
0.0
 40
0.0
 40
0.0
 40
0.0
 40
0.0027107037692704
 40
0.0054659932094705
 40
0.0136658057948335
 40
0.0218153575502451
 40
0.0354192343200103
 40
0.0490506312095029
 40
0.0680941272707392
 40
0.0871248691385458
 40
0.1411923575828486
 40
0.1952725686668819
 40
0.2702326326188811
 40
0.3451888614969911
 40
0.3451888614969911
 40
0.3451888614969911
 40
0.3451888614969911
 10
129.922780515
 20
158.765545057
 30
0.0
 10
129.9218746239139
 20
158.7654996916064
 30
0.0
 10
129.9200479416399
 20
158.7654082146489
 30
0.0
 10
129.9156617830461
 20
158.7641036081781
 30
0.0
 10
129.9093811047567
 20
158.7630160647905
 30
0.0
 10
129.8994742541704
 20
158.7617740090827
 30
0.0
 10
129.8878271500865
 20
158.7598937838016
 30
0.0
 10
129.8726484656012
 20
158.7571433127165
 30
0.0
 10
129.855650909819
 20
158.7542870841443
 30
0.0
 10
129.8253290292482
 20
158.7493964016246
 30
0.0
 10
129.7834951266348
 20
158.7425343964084
 30
0.0
 10
129.7232679670007
 20
158.73263133186
 30
0.0
 10
129.6561295087613
 20
158.7218471163955
 30
0.0
 10
129.6067662452107
 20
158.7140702767169
 30
0.0
 10
129.582085244827
 20
158.710181956349
 30
0.0
 11
129.922780515
 21
158.765545057
 31
0.0
 11
129.9200806290889
 21
158.7653031252089
 31
0.0
 11
129.9174038497875
 21
158.7646500766111
 31
0.0
 11
129.909356386706
 21
158.7630767793135
 31
0.0
 11
129.9012830885893
 21
158.7619645512197
 31
0.0
 11
129.8878441694744
 21
158.7598524631081
 31
0.0
 11
129.87441926257
 21
158.7574888100526
 31
0.0
 11
129.8556434623586
 21
158.754306975887
 31
0.0
 11
129.8368595706866
 21
158.7512517263569
 31
0.0
 11
129.783499910606
 21
158.7425316356028
 31
0.0
 11
129.7301311784282
 21
158.7337882005436
 31
0.0
 11
129.6561223829172
 21
158.7218840258685
 31
0.0
 11
129.582085244827
 21
158.710181956349
 31
0.0
  0
SPLINE
  5
EF
330
1F
100
AcDbEntity
  8
ACHSEN
  6
Continuous
 62
     7
100
AcDbSpline
210
0.0
220
0.0
230
1.0
 70
     8
 71
     3
 72
    15
 73
    11
 74
     9
 42
0.0000000001
 43
0.0000000001
 44
0.00000001
 40
0.0
 40
0.0
 40
0.0
 40
0.0
 40
0.7036199270443712
 40
1.407365568520398
 40
2.99528572076659
 40
4.58329955766786
 40
6.171264475881862
 40
7.759111163545845
 40
8.45827083720219
 40
9.157317424656572
 40
9.157317424656572
 40
9.157317424656572
 40
9.157317424656572
 10
101.8796982473
 20
147.669097904
 30
0.0
 10
101.6476858714178
 20
147.6347057213348
 30
0.0
 10
101.1836196664443
 20
147.5659152112188
 30
0.0
 10
100.1927163488976
 20
147.4429731484305
 30
0.0
 10
98.90473461850111
 20
147.3220011018657
 30
0.0
 10
97.31808816555707
 20
147.2449348680137
 30
0.0
 10
95.72959041423464
 20
147.2406504313512
 30
0.0
 10
94.43869604009079
 20
147.2966356539522
 30
0.0
 10
93.4460122929271
 20
147.3705318042312
 30
0.0
 10
92.98221620317946
 20
147.416669559143
 30
0.0
 10
92.7503369141
 20
147.4397365708
 30
0.0
 11
101.8796982473
 21
147.669097904
 31
0.0
 11
101.183281229321
 21
147.5686770953839
 31
0.0
 11
100.4849690167268
 21
147.4813960456749
 31
0.0
 11
98.90391238487507
 21
147.3339160918258
 31
0.0
 11
97.3177592261828
 21
147.2570649151241
 31
0.0
 11
95.72979993834291
 21
147.252836246135
 31
0.0
 11
94.14340968660512
 21
147.3208294275344
 31
0.0
 11
93.44623067555301
 21
147.3734191205897
 31
0.0
 11
92.7503369141
 21
147.4397365708
 31
0.0
  0
MTEXT
  5
113
330
1F
100
AcDbEntity
  8
0
 62
     5
100
AcDbMText
 10
19.7620551563
 20
90.2453735547
 30
0.0
 40
3.5
 41
0.0
 71
     1
 72
     1
  3
F\U+00fcr diese Unterlage behalten wir das Ur-\Pheberrecht. Sie darf nur f\U+00fcr den von uns \Pbestimmten Zweck benutzt und ohne unsere \PZustimmung weder vervielf\U+00e4ltigt noch\PDritten zug\U+00e4nglich gemacht werden\P \PWe own the copyright 
  3
of this document. It \Pdetermined and may neither be copied or \Pmade accessible to outsiders without our\Ppermission.\P \PCe plan reste notre propri\U+00e9t\U+00e9. Il ne peut\P\U+00eatre utilis\U+00e9, copi\U+00e9 ou reproduit sans notre\Paccord.\
  7
CONVERTER_11
 73
     1
 44
1.0
  0
DIMENSION
  5
11E
330
1F
100
AcDbEntity
  8
0
100
AcDbDimension
  2
*D1
 10
242.7003369141
 20
184.8376812843
 30
0.0
 11
177.7003369141
 21
189.2126812843
 31
0.0
 70
    32
  1
130
 71
     5
 42
-1.0
 53
0.00013888888889
  3
ME10_DIM_10
100
AcDbAlignedDimension
 13
112.7003369141
 23
166.4181907753
 33
0.0
 14
242.7003369141
 24
146.2764779534
 34
0.0
100
AcDbRotatedDimension
  0
DIMENSION
  5
129
330
1F
100
AcDbEntity
  8
0
100
AcDbDimension
  2
*D2
 10
256.0074462891
 20
114.7655795686
 30
0.0
 11
251.6324462891
 21
127.2655795686
 31
0.0
 70
    32
  1
{\Fgdt;n}25
 71
     5
 42
-1.0
 53
90.0
  3
ME10_DIM_11
100
AcDbAlignedDimension
 13
232.2003369141
 23
139.7655795686
 33
0.0
 14
232.2003369141
 24
114.7655795686
 34
0.0
 50
90.0
100
AcDbRotatedDimension
  0
DIMENSION
  5
134
330
1F
100
AcDbEntity
  8
0
100
AcDbDimension
  2
*D3
 10
230.7003369141
 20
176.0189323592
 30
0.0
 11
171.7003369141
 21
180.3939323592
 31
0.0
 70
    32
  1
118
 71
     5
 42
-1.0
 53
0.00013888888889
  3
ME10_DIM_12
100
AcDbAlignedDimension
 13
112.7003369141
 23
159.7759884793
 33
0.0
 14
230.7003369141
 24
112.7655795686
 34
0.0
100
AcDbRotatedDimension
  0
DIMENSION
  5
13F
330
1F
100
AcDbEntity
  8
0
100
AcDbDimension
  2
*D4
 10
265.2359619141
 20
148.2405795686
 30
0.0
 11
260.8609619141
 21
127.2655795686
 31
0.0
 70
    32
  1
{\Fgdt;n}42
 71
     5
 42
-1.0
 53
90.0
  3
ME10_DIM_13
100
AcDbAlignedDimension
 13
211.2253369141
 23
106.2905795686
 33
0.0
 14
211.2253369141
 24
148.2405795686
 34
0.0
 50
90.0
100
AcDbRotatedDimension
  0
DIMENSION
  5
14A
330
1F
100
AcDbEntity
  8
0
100
AcDbDimension
  2
*D5
 10
230.7003369141
 20
192.2649737743
 30
0.0
 11
152.7003369141
 21
196.6399737743
 31
0.0
 70
    32
  1
156
 71
     5
 42
-1.0
 53
0.00013888888889
  3
ME10_DIM_14
100
AcDbAlignedDimension
 13
74.7003369141
 23
108.5794637992
 33
0.0
 14
230.7003369141
 24
112.7655795686
 34
0.0
100
AcDbRotatedDimension
  0
DIMENSION
  5
155
330
1F
100
AcDbEntity
  8
0
100
AcDbDimension
  2
*D6
 10
230.7003369141
 20
165.9095953489
 30
0.0
 11
182.7003369141
 21
170.2845953489
 31
0.0
 70
    32
  1
96
 71
     5
 42
-1.0
 53
0.00013888888889
  3
ME10_DIM_15
100
AcDbAlignedDimension
 13
134.7003369141
 23
159.8227645518
 33
0.0
 14
230.7003369141
 24
112.7655795686
 34
0.0
100
AcDbRotatedDimension
  0
ENDSEC
  0
SECTION
  2
OBJECTS
  0
DICTIONARY
  5
C
330
0
100
AcDbDictionary
281
     1
  3
ACAD_GROUP
350
D
  3
ACAD_LAYOUT
350
1A
  3
ACAD_MLEADERSTYLE
350
158
  3
ACAD_MLINESTYLE
350
17
  3
ACAD_PLOTSETTINGS
350
19
  3
ACAD_PLOTSTYLENAME
350
E
  3
ACAD_SCALELIST
350
F1
  3
ACAD_VISUALSTYLE
350
2A
  3
AcDbVariableDictionary
350
156
  0
DICTIONARY
  5
D
102
{ACAD_REACTORS
330
C
102
}
330
C
100
AcDbDictionary
281
     1
  0
DICTIONARY
  5
1A
102
{ACAD_REACTORS
330
C
102
}
330
C
100
AcDbDictionary
281
     1
  3
Layout1
350
1E
  3
Layout2
350
26
  3
Model
350
22
  0
DICTIONARY
  5
158
102
{ACAD_REACTORS
330
C
102
}
330
C
100
AcDbDictionary
281
     1
  0
DICTIONARY
  5
17
102
{ACAD_REACTORS
330
C
102
}
330
C
100
AcDbDictionary
281
     1
  3
Standard
350
18
  0
DICTIONARY
  5
19
102
{ACAD_REACTORS
330
C
102
}
330
C
100
AcDbDictionary
281
     1
  0
ACDBDICTIONARYWDFLT
  5
E
102
{ACAD_REACTORS
330
C
102
}
330
C
100
AcDbDictionary
281
     1
  3
Normal
350
F
100
AcDbDictionaryWithDefault
340
F
  0
DICTIONARY
  5
F1
102
{ACAD_REACTORS
330
C
102
}
330
C
100
AcDbDictionary
281
     1
  3
A0
350
F2
  3
A1
350
F3
  3
A2
350
F4
  3
A3
350
F5
  3
A4
350
F6
  3
A5
350
F7
  3
A6
350
F8
  3
A7
350
F9
  3
A8
350
FA
  3
A9
350
FB
  3
B0
350
FC
  3
B1
350
FD
  3
B2
350
FE
  3
B3
350
FF
  3
B4
350
100
  3
B5
350
101
  3
B6
350
102
  3
B7
350
103
  3
B8
350
104
  3
B9
350
105
  3
C0
350
106
  3
C1
350
107
  3
C2
350
108
  3
C3
350
109
  3
C4
350
10A
  3
C5
350
10B
  3
C6
350
10C
  3
C7
350
10D
  3
C8
350
10E
  3
C9
350
10F
  3
D0
350
110
  3
D1
350
111
  3
D2
350
112
  0
DICTIONARY
  5
2A
102
{ACAD_REACTORS
330
C
102
}
330
C
100
AcDbDictionary
281
     1
  3
2dWireframe
350
2F
  3
3D Hidden
350
31
  3
3dWireframe
350
30
  3
Basic
350
32
  3
Brighten
350
36
  3
ColorChange
350
3A
  3
Conceptual
350
34
  3
Dim
350
35
  3
Facepattern
350
39
  3
Flat
350
2B
  3
FlatWithEdges
350
2C
  3
Gouraud
350
2D
  3
GouraudWithEdges
350
2E
  3
Linepattern
350
38
  3
Realistic
350
33
  3
Thicken
350
37
  0
DICTIONARY
  5
156
102
{ACAD_REACTORS
330
C
102
}
330
C
100
AcDbDictionary
281
     1
  3
CANNOSCALE
350
159
  0
LAYOUT
  5
1E
102
{ACAD_REACTORS
330
1A
102
}
330
1A
100
AcDbPlotSettings
  1

  2
none_device
  4

  6

 40
0.0
 41
0.0
 42
0.0
 43
0.0
 44
0.0
 45
0.0
 46
0.0
 47
0.0
 48
0.0
 49
0.0
140
0.0
141
0.0
142
1.0
143
1.0
 70
   688
 72
     0
 73
     0
 74
     5
  7

 75
    16
147
1.0
148
0.0
149
0.0
100
AcDbLayout
  1
Layout1
 70
     1
 71
     1
 10
0.0
 20
0.0
 11
12.0
 21
9.0
 12
0.0
 22
0.0
 32
0.0
 14
1.00000000000000E+20
 24
1.00000000000000E+20
 34
1.00000000000000E+20
 15
-1.00000000000000E+20
 25
-1.00000000000000E+20
 35
-1.00000000000000E+20
146
0.0
 13
0.0
 23
0.0
 33
0.0
 16
1.0
 26
0.0
 36
0.0
 17
0.0
 27
1.0
 37
0.0
 76
     0
330
1B
  0
LAYOUT
  5
26
102
{ACAD_REACTORS
330
1A
102
}
330
1A
100
AcDbPlotSettings
  1

  2
none_device
  4

  6

 40
0.0
 41
0.0
 42
0.0
 43
0.0
 44
0.0
 45
0.0
 46
0.0
 47
0.0
 48
0.0
 49
0.0
140
0.0
141
0.0
142
1.0
143
1.0
 70
   688
 72
     0
 73
     0
 74
     5
  7

 75
    16
147
1.0
148
0.0
149
0.0
100
AcDbLayout
  1
Layout2
 70
     1
 71
     2
 10
0.0
 20
0.0
 11
0.0
 21
0.0
 12
0.0
 22
0.0
 32
0.0
 14
0.0
 24
0.0
 34
0.0
 15
0.0
 25
0.0
 35
0.0
146
0.0
 13
0.0
 23
0.0
 33
0.0
 16
1.0
 26
0.0
 36
0.0
 17
0.0
 27
1.0
 37
0.0
 76
     0
330
23
  0
LAYOUT
  5
22
102
{ACAD_REACTORS
330
1A
102
}
330
1A
100
AcDbPlotSettings
  1

  2
none_device
  4

  6

 40
0.0
 41
0.0
 42
0.0
 43
0.0
 44
0.0
 45
0.0
 46
0.0
 47
0.0
 48
0.0
 49
0.0
140
0.0
141
0.0
142
1.0
143
1.0
 70
  1712
 72
     0
 73
     0
 74
     0
  7

 75
     0
147
1.0
148
0.0
149
0.0
100
AcDbLayout
  1
Model
 70
     1
 71
     0
 10
0.0
 20
0.0
 11
12.0
 21
9.0
 12
0.0
 22
0.0
 32
0.0
 14
0.0
 24
0.0
 34
0.0
 15
297.0
 25
210.0
 35
0.0
146
0.0
 13
0.0
 23
0.0
 33
0.0
 16
1.0
 26
0.0
 36
0.0
 17
0.0
 27
1.0
 37
0.0
 76
     0
330
1F
331
29
  0
MLINESTYLE
  5
18
102
{ACAD_REACTORS
330
17
102
}
330
17
100
AcDbMlineStyle
  2
Standard
 70
     0
  3

 62
   256
 51
90.0
 52
90.0
 71
     2
 49
0.5
 62
   256
  6
BYLAYER
 49
-0.5
 62
   256
  6
BYLAYER
  0
ACDBPLACEHOLDER
  5
F
102
{ACAD_REACTORS
330
E
102
}
330
E
  0
SCALE
  5
F2
102
{ACAD_REACTORS
330
F1
102
}
330
F1
100
AcDbScale
 70
     0
300
1:1
140
1.0
141
1.0
290
     1
  0
SCALE
  5
F3
102
{ACAD_REACTORS
330
F1
102
}
330
F1
100
AcDbScale
 70
     0
300
1:2
140
1.0
141
2.0
290
     0
  0
SCALE
  5
F4
102
{ACAD_REACTORS
330
F1
102
}
330
F1
100
AcDbScale
 70
     0
300
1:4
140
1.0
141
4.0
290
     0
  0
SCALE
  5
F5
102
{ACAD_REACTORS
330
F1
102
}
330
F1
100
AcDbScale
 70
     0
300
1:5
140
1.0
141
5.0
290
     0
  0
SCALE
  5
F6
102
{ACAD_REACTORS
330
F1
102
}
330
F1
100
AcDbScale
 70
     0
300
1:8
140
1.0
141
8.0
290
     0
  0
SCALE
  5
F7
102
{ACAD_REACTORS
330
F1
102
}
330
F1
100
AcDbScale
 70
     0
300
1:10
140
1.0
141
10.0
290
     0
  0
SCALE
  5
F8
102
{ACAD_REACTORS
330
F1
102
}
330
F1
100
AcDbScale
 70
     0
300
1:16
140
1.0
141
16.0
290
     0
  0
SCALE
  5
F9
102
{ACAD_REACTORS
330
F1
102
}
330
F1
100
AcDbScale
 70
     0
300
1:20
140
1.0
141
20.0
290
     0
  0
SCALE
  5
FA
102
{ACAD_REACTORS
330
F1
102
}
330
F1
100
AcDbScale
 70
     0
300
1:30
140
1.0
141
30.0
290
     0
  0
SCALE
  5
FB
102
{ACAD_REACTORS
330
F1
102
}
330
F1
100
AcDbScale
 70
     0
300
1:40
140
1.0
141
40.0
290
     0
  0
SCALE
  5
FC
102
{ACAD_REACTORS
330
F1
102
}
330
F1
100
AcDbScale
 70
     0
300
1:50
140
1.0
141
50.0
290
     0
  0
SCALE
  5
FD
102
{ACAD_REACTORS
330
F1
102
}
330
F1
100
AcDbScale
 70
     0
300
1:100
140
1.0
141
100.0
290
     0
  0
SCALE
  5
FE
102
{ACAD_REACTORS
330
F1
102
}
330
F1
100
AcDbScale
 70
     0
300
2:1
140
2.0
141
1.0
290
     0
  0
SCALE
  5
FF
102
{ACAD_REACTORS
330
F1
102
}
330
F1
100
AcDbScale
 70
     0
300
4:1
140
4.0
141
1.0
290
     0
  0
SCALE
  5
100
102
{ACAD_REACTORS
330
F1
102
}
330
F1
100
AcDbScale
 70
     0
300
8:1
140
8.0
141
1.0
290
     0
  0
SCALE
  5
101
102
{ACAD_REACTORS
330
F1
102
}
330
F1
100
AcDbScale
 70
     0
300
10:1
140
10.0
141
1.0
290
     0
  0
SCALE
  5
102
102
{ACAD_REACTORS
330
F1
102
}
330
F1
100
AcDbScale
 70
     0
300
100:1
140
100.0
141
1.0
290
     0
  0
SCALE
  5
103
102
{ACAD_REACTORS
330
F1
102
}
330
F1
100
AcDbScale
 70
     0
300
1/128" = 1'-0"
140
0.0078125
141
12.0
290
     0
  0
SCALE
  5
104
102
{ACAD_REACTORS
330
F1
102
}
330
F1
100
AcDbScale
 70
     0
300
1/64" = 1'-0"
140
0.015625
141
12.0
290
     0
  0
SCALE
  5
105
102
{ACAD_REACTORS
330
F1
102
}
330
F1
100
AcDbScale
 70
     0
300
1/32" = 1'-0"
140
0.03125
141
12.0
290
     0
  0
SCALE
  5
106
102
{ACAD_REACTORS
330
F1
102
}
330
F1
100
AcDbScale
 70
     0
300
1/16" = 1'-0"
140
0.0625
141
12.0
290
     0
  0
SCALE
  5
107
102
{ACAD_REACTORS
330
F1
102
}
330
F1
100
AcDbScale
 70
     0
300
3/32" = 1'-0"
140
0.09375
141
12.0
290
     0
  0
SCALE
  5
108
102
{ACAD_REACTORS
330
F1
102
}
330
F1
100
AcDbScale
 70
     0
300
1/8" = 1'-0"
140
0.125
141
12.0
290
     0
  0
SCALE
  5
109
102
{ACAD_REACTORS
330
F1
102
}
330
F1
100
AcDbScale
 70
     0
300
3/16" = 1'-0"
140
0.1875
141
12.0
290
     0
  0
SCALE
  5
10A
102
{ACAD_REACTORS
330
F1
102
}
330
F1
100
AcDbScale
 70
     0
300
1/4" = 1'-0"
140
0.25
141
12.0
290
     0
  0
SCALE
  5
10B
102
{ACAD_REACTORS
330
F1
102
}
330
F1
100
AcDbScale
 70
     0
300
3/8" = 1'-0"
140
0.375
141
12.0
290
     0
  0
SCALE
  5
10C
102
{ACAD_REACTORS
330
F1
102
}
330
F1
100
AcDbScale
 70
     0
300
1/2" = 1'-0"
140
0.5
141
12.0
290
     0
  0
SCALE
  5
10D
102
{ACAD_REACTORS
330
F1
102
}
330
F1
100
AcDbScale
 70
     0
300
3/4" = 1'-0"
140
0.75
141
12.0
290
     0
  0
SCALE
  5
10E
102
{ACAD_REACTORS
330
F1
102
}
330
F1
100
AcDbScale
 70
     0
300
1" = 1'-0"
140
1.0
141
12.0
290
     0
  0
SCALE
  5
10F
102
{ACAD_REACTORS
330
F1
102
}
330
F1
100
AcDbScale
 70
     0
300
1-1/2" = 1'-0"
140
1.5
141
12.0
290
     0
  0
SCALE
  5
110
102
{ACAD_REACTORS
330
F1
102
}
330
F1
100
AcDbScale
 70
     0
300
3" = 1'-0"
140
3.0
141
12.0
290
     0
  0
SCALE
  5
111
102
{ACAD_REACTORS
330
F1
102
}
330
F1
100
AcDbScale
 70
     0
300
6" = 1'-0"
140
6.0
141
12.0
290
     0
  0
SCALE
  5
112
102
{ACAD_REACTORS
330
F1
102
}
330
F1
100
AcDbScale
 70
     0
300
1'-0" = 1'-0"
140
12.0
141
12.0
290
     0
  0
VISUALSTYLE
  5
2F
102
{ACAD_REACTORS
330
2A
102
}
330
2A
100
AcDbVisualStyle
  2
2dWireframe
 70
     4
 71
     0
 72
     2
 73
     0
 90
        0
 40
-0.6
 41
-30.0
 62
     5
 63
     7
 74
     1
 91
        4
 64
     7
 65
   257
 75
     1
175
     1
 42
1.0
 92
        0
 66
   257
 43
1.0
 76
     1
 77
     6
 78
     2
 67
     7
 79
     5
170
     0
171
     0
290
     0
174
     0
 93
        1
 44
0.0
173
     0
291
     0
 45
0.0
1001
ACAD
1000
AcDbSavedByObjectVersion
1070
     0
  0
VISUALSTYLE
  5
31
102
{ACAD_REACTORS
330
2A
102
}
330
2A
100
AcDbVisualStyle
  2
3D Hidden
 70
     6
 71
     1
 72
     2
 73
     2
 90
        0
 40
-0.6
 41
-30.0
 62
     5
 63
     7
 74
     2
 91
        2
 64
     7
 65
   257
 75
     2
175
     1
 42
40.0
 92
        0
 66
   257
 43
1.0
 76
     1
 77
     6
 78
     2
 67
     7
 79
     3
170
     0
171
     0
290
     0
174
     0
 93
        1
 44
0.0
173
     0
291
     0
 45
0.0
1001
ACAD
1000
AcDbSavedByObjectVersion
1070
     0
  0
VISUALSTYLE
  5
30
102
{ACAD_REACTORS
330
2A
102
}
330
2A
100
AcDbVisualStyle
  2
3dWireframe
 70
     5
 71
     0
 72
     2
 73
     0
 90
        0
 40
-0.6
 41
-30.0
 62
     5
 63
     7
 74
     1
 91
        4
 64
     7
 65
   257
 75
     1
175
     1
 42
1.0
 92
        0
 66
   257
 43
1.0
 76
     1
 77
     6
 78
     2
 67
     7
 79
     5
170
     0
171
     0
290
     0
174
     0
 93
        1
 44
0.0
173
     0
291
     0
 45
0.0
1001
ACAD
1000
AcDbSavedByObjectVersion
1070
     0
  0
VISUALSTYLE
  5
32
102
{ACAD_REACTORS
330
2A
102
}
330
2A
100
AcDbVisualStyle
  2
Basic
 70
     7
 71
     1
 72
     0
 73
     1
 90
        0
 40
-0.6
 41
-30.0
 62
     5
 63
     7
 74
     0
 91
        4
 64
     7
 65
   257
 75
     1
175
     1
 42
1.0
 92
        8
 66
     7
 43
1.0
 76
     1
 77
     6
 78
     2
 67
     7
 79
     5
170
     0
171
     0
290
     0
174
     0
 93
        1
 44
0.0
173
     0
291
     1
 45
0.0
1001
ACAD
1000
AcDbSavedByObjectVersion
1070
     0
  0
VISUALSTYLE
  5
36
102
{ACAD_REACTORS
330
2A
102
}
330
2A
100
AcDbVisualStyle
  2
Brighten
 70
    12
 71
     2
 72
     2
 73
     0
 90
        0
 40
-0.6
 41
-30.0
 62
     5
 63
     7
 74
     1
 91
        4
 64
     7
 65
   257
 75
     1
175
     1
 42
1.0
 92
        8
 66
     7
 43
1.0
 76
     1
 77
     6
 78
     2
 67
     7
 79
     5
170
     0
171
     0
290
     0
174
     0
 93
        1
 44
50.0
173
     0
291
     1
 45
0.0
1001
ACAD
1000
AcDbSavedByObjectVersion
1070
     0
  0
VISUALSTYLE
  5
3A
102
{ACAD_REACTORS
330
2A
102
}
330
2A
100
AcDbVisualStyle
  2
ColorChange
 70
    16
 71
     2
 72
     2
 73
     3
 90
        0
 40
-0.6
 41
-30.0
 62
     5
 63
     8
 74
     1
 91
        4
 64
     7
 65
   257
 75
     1
175
     1
 42
1.0
 92
        8
 66
     8
 43
1.0
 76
     1
 77
     6
 78
     2
 67
     7
 79
     5
170
     0
171
     0
290
     0
174
     0
 93
        1
 44
0.0
173
     0
291
     1
 45
0.0
1001
ACAD
1000
AcDbSavedByObjectVersion
1070
     0
  0
VISUALSTYLE
  5
34
102
{ACAD_REACTORS
330
2A
102
}
330
2A
100
AcDbVisualStyle
  2
Conceptual
 70
     9
 71
     3
 72
     2
 73
     0
 90
        0
 40
-0.6
 41
-30.0
 62
     5
 63
     7
 74
     2
 91
        2
 64
     7
 65
   257
 75
     1
175
     1
 42
40.0
 92
        8
 66
     7
 43
1.0
 76
     1
 77
     6
 78
     2
 67
     7
 79
     3
170
     0
171
     0
290
     0
174
     0
 93
        1
 44
0.0
173
     0
291
     0
 45
0.0
1001
ACAD
1000
AcDbSavedByObjectVersion
1070
     0
  0
VISUALSTYLE
  5
35
102
{ACAD_REACTORS
330
2A
102
}
330
2A
100
AcDbVisualStyle
  2
Dim
 70
    11
 71
     2
 72
     2
 73
     0
 90
        0
 40
-0.6
 41
-30.0
 62
     5
 63
     7
 74
     1
 91
        4
 64
     7
 65
   257
 75
     1
175
     1
 42
1.0
 92
        8
 66
     7
 43
1.0
 76
     1
 77
     6
 78
     2
 67
     7
 79
     5
170
     0
171
     0
290
     0
174
     0
 93
        1
 44
-50.0
173
     0
291
     1
 45
0.0
1001
ACAD
1000
AcDbSavedByObjectVersion
1070
     0
  0
VISUALSTYLE
  5
39
102
{ACAD_REACTORS
330
2A
102
}
330
2A
100
AcDbVisualStyle
  2
Facepattern
 70
    15
 71
     2
 72
     2
 73
     0
 90
        0
 40
-0.6
 41
-30.0
 62
     5
 63
     7
 74
     1
 91
        4
 64
     7
 65
   257
 75
     1
175
     1
 42
1.0
 92
        8
 66
     7
 43
1.0
 76
     1
 77
     6
 78
     2
 67
     7
 79
     5
170
     0
171
     0
290
     0
174
     0
 93
        1
 44
0.0
173
     0
291
     1
 45
0.0
1001
ACAD
1000
AcDbSavedByObjectVersion
1070
     0
  0
VISUALSTYLE
  5
2B
102
{ACAD_REACTORS
330
2A
102
}
330
2A
100
AcDbVisualStyle
  2
Flat
 70
     0
 71
     2
 72
     1
 73
     1
 90
        2
 40
-0.6
 41
30.0
 62
     5
 63
     7
 74
     0
 91
        4
 64
     7
 65
   257
 75
     1
175
     1
 42
1.0
 92
        8
 66
     7
 43
1.0
 76
     1
 77
     6
 78
     2
 67
     7
 79
     5
170
     0
171
     0
290
     0
174
     0
 93
       13
 44
0.0
173
     0
291
     1
 45
0.0
1001
ACAD
1000
AcDbSavedByObjectVersion
1070
     0
  0
VISUALSTYLE
  5
2C
102
{ACAD_REACTORS
330
2A
102
}
330
2A
100
AcDbVisualStyle
  2
FlatWithEdges
 70
     1
 71
     2
 72
     1
 73
     1
 90
        2
 40
-0.6
 41
30.0
 62
     5
 63
     7
 74
     1
 91
        4
 64
     7
 65
   257
 75
     1
175
     1
 42
1.0
 92
        0
 66
   257
 43
1.0
 76
     1
 77
     6
 78
     2
 67
     7
 79
     5
170
     0
171
     0
290
     0
174
     0
 93
       13
 44
0.0
173
     0
291
     1
 45
0.0
1001
ACAD
1000
AcDbSavedByObjectVersion
1070
     0
  0
VISUALSTYLE
  5
2D
102
{ACAD_REACTORS
330
2A
102
}
330
2A
100
AcDbVisualStyle
  2
Gouraud
 70
     2
 71
     2
 72
     2
 73
     1
 90
        2
 40
-0.6
 41
30.0
 62
     5
 63
     7
 74
     0
 91
        4
 64
     7
 65
   257
 75
     1
175
     1
 42
1.0
 92
        0
 66
     7
 43
1.0
 76
     1
 77
     6
 78
     2
 67
     7
 79
     5
170
     0
171
     0
290
     0
174
     0
 93
       13
 44
0.0
173
     0
291
     1
 45
0.0
1001
ACAD
1000
AcDbSavedByObjectVersion
1070
     0
  0
VISUALSTYLE
  5
2E
102
{ACAD_REACTORS
330
2A
102
}
330
2A
100
AcDbVisualStyle
  2
GouraudWithEdges
 70
     3
 71
     2
 72
     2
 73
     1
 90
        2
 40
-0.6
 41
30.0
 62
     5
 63
     7
 74
     1
 91
        4
 64
     7
 65
   257
 75
     1
175
     1
 42
1.0
 92
        0
 66
   257
 43
1.0
 76
     1
 77
     6
 78
     2
 67
     7
 79
     5
170
     0
171
     0
290
     0
174
     0
 93
       13
 44
0.0
173
     0
291
     1
 45
0.0
1001
ACAD
1000
AcDbSavedByObjectVersion
1070
     0
  0
VISUALSTYLE
  5
38
102
{ACAD_REACTORS
330
2A
102
}
330
2A
100
AcDbVisualStyle
  2
Linepattern
 70
    14
 71
     2
 72
     2
 73
     0
 90
        0
 40
-0.6
 41
-30.0
 62
     5
 63
     7
 74
     1
 91
        4
 64
     7
 65
   257
 75
     7
175
     7
 42
1.0
 92
        8
 66
     7
 43
1.0
 76
     1
 77
     6
 78
     2
 67
     7
 79
     5
170
     0
171
     0
290
     0
174
     0
 93
        1
 44
0.0
173
     0
291
     1
 45
0.0
1001
ACAD
1000
AcDbSavedByObjectVersion
1070
     0
  0
VISUALSTYLE
  5
33
102
{ACAD_REACTORS
330
2A
102
}
330
2A
100
AcDbVisualStyle
  2
Realistic
 70
     8
 71
     2
 72
     2
 73
     0
 90
        0
 40
-0.6
 41
-30.0
 62
     5
 63
     7
 74
     1
 91
        0
 64
     7
 65
   257
 75
     1
175
     1
 42
1.0
 92
        8
 66
     8
 43
1.0
 76
     1
 77
     6
 78
     2
 67
     7
 79
     5
170
     0
171
     0
290
     0
174
     0
 93
       13
 44
0.0
173
     0
291
     0
 45
0.0
1001
ACAD
1000
AcDbSavedByObjectVersion
1070
     0
  0
VISUALSTYLE
  5
37
102
{ACAD_REACTORS
330
2A
102
}
330
2A
100
AcDbVisualStyle
  2
Thicken
 70
    13
 71
     2
 72
     2
 73
     0
 90
        0
 40
-0.6
 41
-30.0
 62
     5
 63
     7
 74
     1
 91
        4
 64
     7
 65
   257
 75
     1
175
     1
 42
1.0
 92
       12
 66
     7
 43
1.0
 76
     1
 77
     6
 78
     2
 67
     7
 79
     5
170
     0
171
     0
290
     0
174
     0
 93
        1
 44
0.0
173
     0
291
     1
 45
0.0
1001
ACAD
1000
AcDbSavedByObjectVersion
1070
     0
  0
DICTIONARYVAR
  5
159
102
{ACAD_REACTORS
330
156
102
}
330
156
100
DictionaryVariables
280
     0
  1
1:1
  0
ENDSEC
  0
EOF
