  0
SECTION
  2
HEADER
  9
$ACADVER
  1
AC1015
  9
$ACADMAINTVER
 70
     6
  9
$DWGCODEPAGE
  3
ANSI_1252
  9
$INSBASE
 10
0.0
 20
0.0
 30
0.0
  9
$EXTMIN
 10
0.0
 20
0.0
 30
0.0
  9
$EXTMAX
 10
297.0
 20
210.0
 30
0.0
  9
$LIMMIN
 10
0.0
 20
0.0
  9
$LIMMAX
 10
12.0
 20
9.0
  9
$ORTHOMODE
 70
     0
  9
$REGENMODE
 70
     1
  9
$FILLMODE
 70
     1
  9
$QTEXTMODE
 70
     0
  9
$MIRRTEXT
 70
     1
  9
$LTSCALE
 40
1.0
  9
$ATTMODE
 70
     1
  9
$TEXTSIZE
 40
0.2
  9
$TRACEWID
 40
0.05
  9
$TEXTSTYLE
  7
Standard
  9
$CLAYER
  8
0
  9
$CELTYPE
  6
ByLayer
  9
$CECOLOR
 62
   256
  9
$CELTSCALE
 40
1.0
  9
$DISPSILH
 70
     0
  9
$DIMSCALE
 40
1.0
  9
$DIMASZ
 40
0.18
  9
$DIMEXO
 40
0.0625
  9
$DIMDLI
 40
0.38
  9
$DIMRND
 40
0.0
  9
$DIMDLE
 40
0.0
  9
$DIMEXE
 40
0.18
  9
$DIMTP
 40
0.0
  9
$DIMTM
 40
0.0
  9
$DIMTXT
 40
0.18
  9
$DIMCEN
 40
0.09
  9
$DIMTSZ
 40
0.0
  9
$DIMTOL
 70
     0
  9
$DIMLIM
 70
     0
  9
$DIMTIH
 70
     1
  9
$DIMTOH
 70
     1
  9
$DIMSE1
 70
     0
  9
$DIMSE2
 70
     0
  9
$DIMTAD
 70
     0
  9
$DIMZIN
 70
     0
  9
$DIMBLK
  1

  9
$DIMASO
 70
     1
  9
$DIMSHO
 70
     1
  9
$DIMPOST
  1

  9
$DIMAPOST
  1

  9
$DIMALT
 70
     0
  9
$DIMALTD
 70
     2
  9
$DIMALTF
 40
25.4
  9
$DIMLFAC
 40
1.0
  9
$DIMTOFL
 70
     0
  9
$DIMTVP
 40
0.0
  9
$DIMTIX
 70
     0
  9
$DIMSOXD
 70
     0
  9
$DIMSAH
 70
     0
  9
$DIMBLK1
  1

  9
$DIMBLK2
  1

  9
$DIMSTYLE
  2
Standard
  9
$DIMCLRD
 70
     0
  9
$DIMCLRE
 70
     0
  9
$DIMCLRT
 70
     0
  9
$DIMTFAC
 40
1.0
  9
$DIMGAP
 40
0.09
  9
$DIMJUST
 70
     0
  9
$DIMSD1
 70
     0
  9
$DIMSD2
 70
     0
  9
$DIMTOLJ
 70
     1
  9
$DIMTZIN
 70
     0
  9
$DIMALTZ
 70
     0
  9
$DIMALTTZ
 70
     0
  9
$DIMUPT
 70
     0
  9
$DIMDEC
 70
     4
  9
$DIMTDEC
 70
     4
  9
$DIMALTU
 70
     2
  9
$DIMALTTD
 70
     2
  9
$DIMTXSTY
  7
Standard
  9
$DIMAUNIT
 70
     0
  9
$DIMADEC
 70
     0
  9
$DIMALTRND
 40
0.0
  9
$DIMAZIN
 70
     0
  9
$DIMDSEP
 70
    46
  9
$DIMATFIT
 70
     3
  9
$DIMFRAC
 70
     0
  9
$DIMLDRBLK
  1

  9
$DIMLUNIT
 70
     2
  9
$DIMLWD
 70
    -2
  9
$DIMLWE
 70
    -2
  9
$DIMTMOVE
 70
     0
  9
$LUNITS
 70
     2
  9
$LUPREC
 70
     4
  9
$SKETCHINC
 40
0.1
  9
$FILLETRAD
 40
0.5
  9
$AUNITS
 70
     0
  9
$AUPREC
 70
     0
  9
$MENU
  1
.
  9
$ELEVATION
 40
0.0
  9
$PELEVATION
 40
0.0
  9
$THICKNESS
 40
0.0
  9
$LIMCHECK
 70
     0
  9
$CHAMFERA
 40
0.5
  9
$CHAMFERB
 40
0.5
  9
$CHAMFERC
 40
1.0
  9
$CHAMFERD
 40
0.0
  9
$SKPOLY
 70
     0
  9
$TDCREATE
 40
2455954.453480845
  9
$TDUCREATE
 40
2455954.411814178
  9
$TDUPDATE
 40
2455954.453480856
  9
$TDUUPDATE
 40
2455954.41181419
  9
$TDINDWG
 40
0.0000000116
  9
$TDUSRTIMER
 40
0.0000000116
  9
$USRTIMER
 70
     1
  9
$ANGBASE
 50
0.0
  9
$ANGDIR
 70
     0
  9
$PDMODE
 70
     0
  9
$PDSIZE
 40
0.0
  9
$PLINEWID
 40
0.0
  9
$SPLFRAME
 70
     0
  9
$SPLINETYPE
 70
     6
  9
$SPLINESEGS
 70
     8
  9
$HANDSEED
  5
14F
  9
$SURFTAB1
 70
     6
  9
$SURFTAB2
 70
     6
  9
$SURFTYPE
 70
     6
  9
$SURFU
 70
     6
  9
$SURFV
 70
     6
  9
$UCSBASE
  2

  9
$UCSNAME
  2

  9
$UCSORG
 10
0.0
 20
0.0
 30
0.0
  9
$UCSXDIR
 10
1.0
 20
0.0
 30
0.0
  9
$UCSYDIR
 10
0.0
 20
1.0
 30
0.0
  9
$UCSORTHOREF
  2

  9
$UCSORTHOVIEW
 70
     0
  9
$UCSORGTOP
 10
0.0
 20
0.0
 30
0.0
  9
$UCSORGBOTTOM
 10
0.0
 20
0.0
 30
0.0
  9
$UCSORGLEFT
 10
0.0
 20
0.0
 30
0.0
  9
$UCSORGRIGHT
 10
0.0
 20
0.0
 30
0.0
  9
$UCSORGFRONT
 10
0.0
 20
0.0
 30
0.0
  9
$UCSORGBACK
 10
0.0
 20
0.0
 30
0.0
  9
$PUCSBASE
  2

  9
$PUCSNAME
  2

  9
$PUCSORG
 10
0.0
 20
0.0
 30
0.0
  9
$PUCSXDIR
 10
1.0
 20
0.0
 30
0.0
  9
$PUCSYDIR
 10
0.0
 20
1.0
 30
0.0
  9
$PUCSORTHOREF
  2

  9
$PUCSORTHOVIEW
 70
     0
  9
$PUCSORGTOP
 10
0.0
 20
0.0
 30
0.0
  9
$PUCSORGBOTTOM
 10
0.0
 20
0.0
 30
0.0
  9
$PUCSORGLEFT
 10
0.0
 20
0.0
 30
0.0
  9
$PUCSORGRIGHT
 10
0.0
 20
0.0
 30
0.0
  9
$PUCSORGFRONT
 10
0.0
 20
0.0
 30
0.0
  9
$PUCSORGBACK
 10
0.0
 20
0.0
 30
0.0
  9
$USERI1
 70
     0
  9
$USERI2
 70
     0
  9
$USERI3
 70
     0
  9
$USERI4
 70
     0
  9
$USERI5
 70
     0
  9
$USERR1
 40
16.5
  9
$USERR2
 40
0.0
  9
$USERR3
 40
0.0
  9
$USERR4
 40
0.0
  9
$USERR5
 40
0.0
  9
$WORLDVIEW
 70
     1
  9
$SHADEDGE
 70
     3
  9
$SHADEDIF
 70
    70
  9
$TILEMODE
 70
     1
  9
$MAXACTVP
 70
    64
  9
$PINSBASE
 10
0.0
 20
0.0
 30
0.0
  9
$PLIMCHECK
 70
     0
  9
$PEXTMIN
 10
1.00000000000000E+20
 20
1.00000000000000E+20
 30
1.00000000000000E+20
  9
$PEXTMAX
 10
-1.00000000000000E+20
 20
-1.00000000000000E+20
 30
-1.00000000000000E+20
  9
$PLIMMIN
 10
0.0
 20
0.0
  9
$PLIMMAX
 10
12.0
 20
9.0
  9
$UNITMODE
 70
     0
  9
$VISRETAIN
 70
     1
  9
$PLINEGEN
 70
     0
  9
$PSLTSCALE
 70
     1
  9
$TREEDEPTH
 70
  3020
  9
$CMLSTYLE
  2
Standard
  9
$CMLJUST
 70
     0
  9
$CMLSCALE
 40
1.0
  9
$PROXYGRAPHICS
 70
     1
  9
$MEASUREMENT
 70
     1
  9
$CELWEIGHT
370
    -1
  9
$ENDCAPS
280
     0
  9
$JOINSTYLE
280
     0
  9
$LWDISPLAY
290
     0
  9
$INSUNITS
 70
     1
  9
$HYPERLINKBASE
  1

  9
$STYLESHEET
  1

  9
$XEDIT
290
     1
  9
$CEPSNTYPE
380
     0
  9
$PSTYLEMODE
290
     1
  9
$FINGERPRINTGUID
  2
{344CCA01-174E-455D-84A3-6F3D58F6B0CA}
  9
$VERSIONGUID
  2
{FAEB1C32-E019-11D5-929B-00C0DF256EC4}
  9
$EXTNAMES
290
     1
  9
$PSVPSCALE
 40
0.0
  9
$OLESTARTUP
290
     0
  0
ENDSEC
  0
SECTION
  2
CLASSES
  0
CLASS
  1
ACDBDICTIONARYWDFLT
  2
AcDbDictionaryWithDefault
  3
ObjectDBX Classes
 90
        0
280
     0
281
     0
  0
CLASS
  1
VISUALSTYLE
  2
AcDbVisualStyle
  3
ObjectDBX Classes
 90
     4095
280
     0
281
     0
  0
CLASS
  1

  2
exOdDbSpline
  3

 90
        0
280
     0
281
     1
  0
CLASS
  1
SCALE
  2
AcDbScale
  3
ObjectDBX Classes
 90
     1153
280
     0
281
     0
  0
CLASS
  1
DICTIONARYVAR
  2
AcDbDictionaryVar
  3
ObjectDBX Classes
 90
        0
280
     0
281
     0
  0
CLASS
  1
ACDBPLACEHOLDER
  2
AcDbPlaceHolder
  3
ObjectDBX Classes
 90
        0
280
     0
281
     0
  0
CLASS
  1
LAYOUT
  2
AcDbLayout
  3
ObjectDBX Classes
 90
        0
280
     0
281
     0
  0
ENDSEC
  0
SECTION
  2
TABLES
  0
TABLE
  2
VPORT
  5
8
330
0
100
AcDbSymbolTable
 70
     1
  0
VPORT
  5
29
330
8
100
AcDbSymbolTableRecord
100
AcDbViewportTableRecord
  2
*Active
 70
     0
 10
0.0
 20
0.0
 11
1.0
 21
1.0
 12
148.5
 22
105.0
 13
0.0
 23
0.0
 14
0.5
 24
0.5
 15
0.5
 25
0.5
 16
0.0
 26
0.0
 36
1.0
 17
0.0
 27
0.0
 37
0.0
 40
231.0
 41
1.60267857142857
 42
50.0
 43
0.0
 44
0.0
 50
0.0
 51
0.0
 71
     0
 72
   100
 73
     1
 74
     3
 75
     0
 76
     0
 77
     0
 78
     0
281
     0
 65
     1
110
0.0
120
0.0
130
0.0
111
1.0
121
0.0
131
0.0
112
0.0
122
1.0
132
0.0
 79
     0
146
0.0
  0
ENDTAB
  0
TABLE
  2
LTYPE
  5
5
330
0
100
AcDbSymbolTable
 70
     9
  0
LTYPE
  5
14
330
5
100
AcDbSymbolTableRecord
100
AcDbLinetypeTableRecord
  2
ByBlock
 70
     0
  3

 72
    65
 73
     0
 40
0.0
  0
LTYPE
  5
15
330
5
100
AcDbSymbolTableRecord
100
AcDbLinetypeTableRecord
  2
ByLayer
 70
     0
  3

 72
    65
 73
     0
 40
0.0
  0
LTYPE
  5
16
330
5
100
AcDbSymbolTableRecord
100
AcDbLinetypeTableRecord
  2
Continuous
 70
     0
  3
Solid line
 72
    65
 73
     0
 40
0.0
  0
LTYPE
  5
3B
330
5
100
AcDbSymbolTableRecord
100
AcDbLinetypeTableRecord
  2
DASHED
 70
     0
  3
Dashed
 72
    65
 73
     2
 40
15.0
 49
7.0
 74
     0
 49
-8.0
 74
     0
  0
LTYPE
  5
3C
330
5
100
AcDbSymbolTableRecord
100
AcDbLinetypeTableRecord
  2
DOTTED
 70
     0
  3
Dotted
 72
    65
 73
     2
 40
1.0
 49
0.0
 74
     0
 49
-1.0
 74
     0
  0
LTYPE
  5
3D
330
5
100
AcDbSymbolTableRecord
100
AcDbLinetypeTableRecord
  2
DOT_CENTER
 70
     0
  3
Dot_Center
 72
    65
 73
     4
 40
14.0
 49
12.0
 74
     0
 49
-1.0
 74
     0
 49
0.0
 74
     0
 49
-1.0
 74
     0
  0
LTYPE
  5
3E
330
5
100
AcDbSymbolTableRecord
100
AcDbLinetypeTableRecord
  2
LONG_DASHED
 70
     0
  3
Long_Dashed
 72
    65
 73
     2
 40
15.0
 49
10.0
 74
     0
 49
-5.0
 74
     0
  0
LTYPE
  5
3F
330
5
100
AcDbSymbolTableRecord
100
AcDbLinetypeTableRecord
  2
DASH_CENTER
 70
     0
  3
Dash_Center
 72
    65
 73
     4
 40
14.0
 49
11.0
 74
     0
 49
-1.0
 74
     0
 49
1.0
 74
     0
 49
-1.0
 74
     0
  0
LTYPE
  5
40
330
5
100
AcDbSymbolTableRecord
100
AcDbLinetypeTableRecord
  2
PHANTOM
 70
     0
  3
Phantom
 72
    65
 73
     6
 40
13.0
 49
10.0
 74
     0
 49
-1.0
 74
     0
 49
0.0
 74
     0
 49
-1.0
 74
     0
 49
0.0
 74
     0
 49
-1.0
 74
     0
  0
LTYPE
  5
41
330
5
100
AcDbSymbolTableRecord
100
AcDbLinetypeTableRecord
  2
CENTER_DASH_DASH
 70
     0
  3
Center_Dash_Dash
 72
    65
 73
     6
 40
14.0
 49
9.0
 74
     0
 49
-1.0
 74
     0
 49
1.0
 74
     0
 49
-1.0
 74
     0
 49
1.0
 74
     0
 49
-1.0
 74
     0
  0
LTYPE
  5
42
330
5
100
AcDbSymbolTableRecord
100
AcDbLinetypeTableRecord
  2
CENTER
 70
     0
  3
CENTER
 72
    65
 73
     4
 40
13.0
 49
7.0
 74
     0
 49
-2.0
 74
     0
 49
2.0
 74
     0
 49
-2.0
 74
     0
  0
ENDTAB
  0
TABLE
  2
LAYER
  5
2
330
0
100
AcDbSymbolTable
 70
     8
  0
LAYER
  5
10
330
2
100
AcDbSymbolTableRecord
100
AcDbLayerTableRecord
  2
0
 70
     0
 62
     7
  6
Continuous
370
    -3
390
F
  0
LAYER
  5
43
330
2
100
AcDbSymbolTableRecord
100
AcDbLayerTableRecord
  2
1
 70
     0
 62
     7
  6
Continuous
370
    -3
390
F
  0
LAYER
  5
44
330
2
100
AcDbSymbolTableRecord
100
AcDbLayerTableRecord
  2
ACHSEN
 70
     0
 62
     7
  6
Continuous
370
    -3
390
F
  0
LAYER
  5
45
330
2
100
AcDbSymbolTableRecord
100
AcDbLayerTableRecord
  2
DEFAULT_1
 70
     0
 62
     7
  6
Continuous
370
    -3
390
F
  0
LAYER
  5
46
330
2
100
AcDbSymbolTableRecord
100
AcDbLayerTableRecord
  2
FASEN
 70
     0
 62
     7
  6
Continuous
370
    -3
390
F
  0
LAYER
  5
47
330
2
100
AcDbSymbolTableRecord
100
AcDbLayerTableRecord
  2
KURVEN
 70
     0
 62
     7
  6
Continuous
370
    -3
390
F
  0
LAYER
  5
48
330
2
100
AcDbSymbolTableRecord
100
AcDbLayerTableRecord
  2
RUNDUNGEN
 70
     0
 62
     7
  6
Continuous
370
    -3
390
F
  0
LAYER
  5
49
330
2
100
AcDbSymbolTableRecord
100
AcDbLayerTableRecord
  2
S_ACHSEN
 70
     0
 62
     7
  6
Continuous
370
    -3
390
F
  0
ENDTAB
  0
TABLE
  2
STYLE
  5
3
330
0
100
AcDbSymbolTable
 70
     3
  0
STYLE
  5
11
330
3
100
AcDbSymbolTableRecord
100
AcDbTextStyleTableRecord
  2
Standard
 70
     0
 40
0.0
 41
1.0
 50
0.0
 71
     0
 42
0.2
  3
txt
  4

  0
STYLE
  5
D9
330
3
100
AcDbSymbolTableRecord
100
AcDbTextStyleTableRecord
  2
CONVERTER_11
 70
     0
 40
0.0
 41
0.7
 50
0.0
 71
     0
 42
0.2
  3
txt.shx
  4

  0
STYLE
  5
103
330
3
100
AcDbSymbolTableRecord
100
AcDbTextStyleTableRecord
  2
CONVERTER_12
 70
     0
 40
0.0
 41
0.72
 50
0.0
 71
     0
 42
0.2
  3
txt.shx
  4

  0
ENDTAB
  0
TABLE
  2
VIEW
  5
6
330
0
100
AcDbSymbolTable
 70
     0
  0
ENDTAB
  0
TABLE
  2
UCS
  5
7
330
0
100
AcDbSymbolTable
 70
     0
  0
ENDTAB
  0
TABLE
  2
APPID
  5
9
330
0
100
AcDbSymbolTable
 70
     1
  0
APPID
  5
12
330
9
100
AcDbSymbolTableRecord
100
AcDbRegAppTableRecord
  2
ACAD
 70
     0
  0
ENDTAB
  0
TABLE
  2
DIMSTYLE
  5
A
330
0
100
AcDbSymbolTable
 70
     8
100
AcDbDimStyleTable
  0
DIMSTYLE
105
27
330
A
100
AcDbSymbolTableRecord
100
AcDbDimStyleTableRecord
  2
Standard
 70
     0
340
11
  0
DIMSTYLE
105
107
102
{ACAD_REACTORS
330
108
102
}
330
A
100
AcDbSymbolTableRecord
100
AcDbDimStyleTableRecord
  2
ME10_DIM_10
 70
     0
  3
\U+2300<>
 41
3.5
 42
2.0
 44
2.0
 71
     1
 73
     0
 74
     0
 77
     1
 78
     8
140
3.5
146
0.7
147
2.0
172
     1
173
     1
176
     2
177
     2
178
     3
271
     2
272
     0
340
103
  0
DIMSTYLE
105
112
102
{ACAD_REACTORS
330
113
102
}
330
A
100
AcDbSymbolTableRecord
100
AcDbDimStyleTableRecord
  2
ME10_DIM_11
 70
     0
  3
{\Fgdt;n}<>
 41
3.5
 73
     0
 74
     0
 77
     1
 78
    12
140
3.5
172
     1
173
     1
176
     2
177
     2
178
     5
271
     2
340
D9
  0
DIMSTYLE
105
11D
102
{ACAD_REACTORS
330
11E
102
}
330
A
100
AcDbSymbolTableRecord
100
AcDbDimStyleTableRecord
  2
ME10_DIM_12
 70
     0
 41
3.5
 73
     0
 74
     0
 77
     1
 78
    12
140
3.5
172
     1
173
     1
176
     2
177
     2
178
     5
271
     2
340
D9
  0
DIMSTYLE
105
128
102
{ACAD_REACTORS
330
129
102
}
330
A
100
AcDbSymbolTableRecord
100
AcDbDimStyleTableRecord
  2
ME10_DIM_13
 70
     0
  3
{\Fgdt;n}<>
 41
3.5
 73
     0
 74
     0
 77
     1
 78
    12
140
3.5
172
     1
173
     1
176
     2
177
     2
178
     5
271
     2
340
D9
  0
DIMSTYLE
105
133
102
{ACAD_REACTORS
330
134
102
}
330
A
100
AcDbSymbolTableRecord
100
AcDbDimStyleTableRecord
  2
ME10_DIM_14
 70
     0
 41
3.5
 73
     0
 74
     0
 77
     1
 78
    12
140
3.5
172
     1
173
     1
176
     2
177
     2
178
     5
271
     2
340
D9
  0
DIMSTYLE
105
13E
102
{ACAD_REACTORS
330
13F
102
}
330
A
100
AcDbSymbolTableRecord
100
AcDbDimStyleTableRecord
  2
ME10_DIM_15
 70
     0
 41
3.5
 73
     0
 74
     0
 77
     1
 78
    12
140
3.5
172
     1
173
     1
176
     2
177
     2
178
     5
271
     2
340
D9
  0
DIMSTYLE
105
149
102
{ACAD_REACTORS
330
14A
102
}
330
A
100
AcDbSymbolTableRecord
100
AcDbDimStyleTableRecord
  2
ME10_DIM_16
 70
     0
 41
3.5
 73
     0
 74
     0
 77
     1
 78
    12
140
3.5
172
     1
173
     1
176
     2
177
     2
178
     5
271
     2
340
D9
  0
ENDTAB
  0
TABLE
  2
BLOCK_RECORD
  5
1
330
0
100
AcDbSymbolTable
 70
     8
  0
BLOCK_RECORD
  5
1F
330
1
100
AcDbSymbolTableRecord
100
AcDbBlockTableRecord
  2
*Model_Space
340
22
  0
BLOCK_RECORD
  5
1B
330
1
100
AcDbSymbolTableRecord
100
AcDbBlockTableRecord
  2
*Paper_Space
340
1E
  0
BLOCK_RECORD
  5
23
330
1
100
AcDbSymbolTableRecord
100
AcDbBlockTableRecord
  2
*Paper_Space0
340
26
  0
BLOCK_RECORD
  5
FD
330
1
100
AcDbSymbolTableRecord
100
AcDbBlockTableRecord
  2
*D1
340
0
  0
BLOCK_RECORD
  5
109
330
1
100
AcDbSymbolTableRecord
100
AcDbBlockTableRecord
  2
*D2
340
0
  0
BLOCK_RECORD
  5
114
330
1
100
AcDbSymbolTableRecord
100
AcDbBlockTableRecord
  2
*D3
340
0
  0
BLOCK_RECORD
  5
11F
330
1
100
AcDbSymbolTableRecord
100
AcDbBlockTableRecord
  2
*D4
340
0
  0
BLOCK_RECORD
  5
12A
330
1
100
AcDbSymbolTableRecord
100
AcDbBlockTableRecord
  2
*D5
340
0
  0
BLOCK_RECORD
  5
135
330
1
100
AcDbSymbolTableRecord
100
AcDbBlockTableRecord
  2
*D6
340
0
  0
BLOCK_RECORD
  5
140
330
1
100
AcDbSymbolTableRecord
100
AcDbBlockTableRecord
  2
*D7
340
0
  0
ENDTAB
  0
ENDSEC
  0
SECTION
  2
BLOCKS
  0
BLOCK
  5
20
330
1F
100
AcDbEntity
  8
0
100
AcDbBlockBegin
  2
*Model_Space
 70
     0
 10
0.0
 20
0.0
 30
0.0
  3
*Model_Space
  1

  0
ENDBLK
  5
21
330
1F
100
AcDbEntity
  8
0
100
AcDbBlockEnd
  0
BLOCK
  5
1C
330
1B
100
AcDbEntity
 67
     1
  8
0
100
AcDbBlockBegin
  2
*Paper_Space
 70
     0
 10
0.0
 20
0.0
 30
0.0
  3
*Paper_Space
  1

  0
ENDBLK
  5
1D
330
1B
100
AcDbEntity
 67
     1
  8
0
100
AcDbBlockEnd
  0
BLOCK
  5
24
330
23
100
AcDbEntity
  8
0
100
AcDbBlockBegin
  2
*Paper_Space0
 70
     0
 10
0.0
 20
0.0
 30
0.0
  3
*Paper_Space0
  1

  0
ENDBLK
  5
25
330
23
100
AcDbEntity
  8
0
100
AcDbBlockEnd
  0
BLOCK
  5
105
330
FD
100
AcDbEntity
  8
0
100
AcDbBlockBegin
  2
*D1
 70
     1
 10
0.0
 20
0.0
 30
0.0
  3
*D1
  1

  0
LINE
  5
FE
330
FD
100
AcDbEntity
  8
1
  6
Continuous
 62
     2
100
AcDbLine
 10
271.025623955999
 20
93.86109844610003
 30
0.0
 11
271.025623955999
 21
156.8610984461
 31
0.0
  0
LINE
  5
FF
330
FD
100
AcDbEntity
  8
1
  6
Continuous
 62
     2
100
AcDbLine
 10
237.1936824324
 20
156.8610984461
 30
0.0
 11
273.025623955999
 21
156.8610984461
 31
0.0
  0
LINE
  5
100
330
FD
100
AcDbEntity
  8
1
  6
Continuous
 62
     2
100
AcDbLine
 10
237.1936824324
 20
93.86109844610003
 30
0.0
 11
273.025623955999
 21
93.86109844610003
 31
0.0
  0
SOLID
  5
101
330
FD
100
AcDbEntity
  8
1
 62
     2
100
AcDbTrace
 10
270.5648402144431
 20
97.36109844610003
 30
0.0
 11
271.4864076975549
 21
97.36109844610003
 31
0.0
 12
271.025623955999
 22
93.86109844610003
 32
0.0
 13
271.025623955999
 23
93.86109844610003
 33
0.0
  0
SOLID
  5
102
330
FD
100
AcDbEntity
  8
1
 62
     2
100
AcDbTrace
 10
271.4864076975549
 20
153.3610984461
 30
0.0
 11
270.5648402144431
 21
153.3610984461
 31
0.0
 12
271.025623955999
 22
156.8610984461
 32
0.0
 13
271.025623955999
 23
156.8610984461
 33
0.0
  0
MTEXT
  5
104
330
FD
100
AcDbEntity
  8
1
 62
     3
100
AcDbMText
 10
269.025623955999
 20
117.5368183178424
 30
0.0
 40
3.5
 41
0.0
 71
     7
 72
     1
  1
\C3;%%c\C3;\C3;63\C2;\H2.45;\S^ ;\C3;
  7
CONVERTER_12
 11
0.0
 21
1.0
 31
0.0
 73
     1
 44
0.60024009603842
  0
ENDBLK
  5
106
330
FD
100
AcDbEntity
  8
0
100
AcDbBlockEnd
  0
BLOCK
  5
110
330
109
100
AcDbEntity
  8
0
100
AcDbBlockBegin
  2
*D2
 70
     1
 10
0.0
 20
0.0
 30
0.0
  3
*D2
  1

  0
LINE
  5
10A
330
109
100
AcDbEntity
  8
0
  6
Continuous
 62
     2
100
AcDbLine
 10
262.319089946
 20
100.3610984461
 30
0.0
 11
262.319089946
 21
150.3610984461
 31
0.0
  0
LINE
  5
10B
330
109
100
AcDbEntity
  8
0
  6
Continuous
 62
     2
100
AcDbLine
 10
223.7561824324
 20
100.3610984461
 30
0.0
 11
262.499089946
 21
100.3610984461
 31
0.0
  0
LINE
  5
10C
330
109
100
AcDbEntity
  8
0
  6
Continuous
 62
     2
100
AcDbLine
 10
223.7561824324
 20
150.3610984461
 30
0.0
 11
262.499089946
 21
150.3610984461
 31
0.0
  0
SOLID
  5
10D
330
109
100
AcDbEntity
  8
0
 62
     2
100
AcDbTrace
 10
262.7798736875559
 20
146.8610984461
 30
0.0
 11
261.8583062044441
 21
146.8610984461
 31
0.0
 12
262.319089946
 22
150.3610984461
 32
0.0
 13
262.319089946
 23
150.3610984461
 33
0.0
  0
SOLID
  5
10E
330
109
100
AcDbEntity
  8
0
 62
     2
100
AcDbTrace
 10
261.8583062044441
 20
103.8610984461
 30
0.0
 11
262.7798736875559
 21
103.8610984461
 31
0.0
 12
262.319089946
 22
100.3610984461
 32
0.0
 13
262.319089946
 23
100.3610984461
 33
0.0
  0
MTEXT
  5
10F
330
109
100
AcDbEntity
  8
0
 62
     5
100
AcDbMText
 10
259.694089946
 20
117.7555984461
 30
0.0
 40
3.5
 41
0.0
 71
     7
 72
     1
  1
\C5;{\Fgdt;n}\C5;50
  7
CONVERTER_11
 11
0.0
 21
1.0
 31
0.0
 73
     1
 44
0.60024009603842
  0
ENDBLK
  5
111
330
109
100
AcDbEntity
  8
0
100
AcDbBlockEnd
  0
BLOCK
  5
11B
330
114
100
AcDbEntity
  8
0
100
AcDbBlockBegin
  2
*D3
 70
     1
 10
0.0
 20
0.0
 30
0.0
  3
*D3
  1

  0
LINE
  5
115
330
114
100
AcDbEntity
  8
0
  6
Continuous
 62
     2
100
AcDbLine
 10
237.1936824324
 20
184.2120690548
 30
0.0
 11
137.1936824324
 21
184.2120690548
 31
0.0
  0
LINE
  5
116
330
114
100
AcDbEntity
  8
0
  6
Continuous
 62
     2
100
AcDbLine
 10
137.1936824324
 20
157.9644968309
 30
0.0
 11
137.1936824324
 21
184.3920690548
 31
0.0
  0
LINE
  5
117
330
114
100
AcDbEntity
  8
0
  6
Continuous
 62
     2
100
AcDbLine
 10
237.1936824324
 20
154.9594968309
 30
0.0
 11
237.1936824324
 21
184.3920690548
 31
0.0
  0
SOLID
  5
118
330
114
100
AcDbEntity
  8
0
 62
     2
100
AcDbTrace
 10
233.6936824324
 20
183.7512853132441
 30
0.0
 11
233.6936824324
 21
184.6728527963559
 31
0.0
 12
237.1936824324
 22
184.2120690548
 32
0.0
 13
237.1936824324
 23
184.2120690548
 33
0.0
  0
SOLID
  5
119
330
114
100
AcDbEntity
  8
0
 62
     2
100
AcDbTrace
 10
140.6936824324
 20
184.6728527963559
 30
0.0
 11
140.6936824324
 21
183.7512853132441
 31
0.0
 12
137.1936824324
 22
184.2120690548
 32
0.0
 13
137.1936824324
 23
184.2120690548
 33
0.0
  0
MTEXT
  5
11A
330
114
100
AcDbEntity
  8
0
 62
     5
100
AcDbMText
 10
184.3353490990667
 20
186.8370690548
 30
0.0
 40
3.5
 41
0.0
 71
     7
 72
     1
  1
100
  7
CONVERTER_11
 11
0.9999999999970619
 21
2.424068405545306E-6
 31
0.0
 73
     1
 44
0.60024009603842
  0
ENDBLK
  5
11C
330
114
100
AcDbEntity
  8
0
100
AcDbBlockEnd
  0
BLOCK
  5
126
330
11F
100
AcDbEntity
  8
0
100
AcDbBlockBegin
  2
*D4
 70
     1
 10
0.0
 20
0.0
 30
0.0
  3
*D4
  1

  0
LINE
  5
120
330
11F
100
AcDbEntity
  8
0
  6
Continuous
 62
     2
100
AcDbLine
 10
253.541836764
 20
145.3610984461
 30
0.0
 11
253.541836764
 21
105.3610984461
 31
0.0
  0
LINE
  5
121
330
11F
100
AcDbEntity
  8
0
  6
Continuous
 62
     2
100
AcDbLine
 10
223.7561824324
 20
145.3610984461
 30
0.0
 11
253.721836764
 21
145.3610984461
 31
0.0
  0
LINE
  5
122
330
11F
100
AcDbEntity
  8
0
  6
Continuous
 62
     2
100
AcDbLine
 10
223.7561824324
 20
105.3610984461
 30
0.0
 11
253.721836764
 21
105.3610984461
 31
0.0
  0
SOLID
  5
123
330
11F
100
AcDbEntity
  8
0
 62
     2
100
AcDbTrace
 10
253.0810530224441
 20
108.8610984461
 30
0.0
 11
254.0026205055559
 21
108.8610984461
 31
0.0
 12
253.541836764
 22
105.3610984461
 32
0.0
 13
253.541836764
 23
105.3610984461
 33
0.0
  0
SOLID
  5
124
330
11F
100
AcDbEntity
  8
0
 62
     2
100
AcDbTrace
 10
254.0026205055559
 20
141.8610984461
 30
0.0
 11
253.0810530224441
 21
141.8610984461
 31
0.0
 12
253.541836764
 22
145.3610984461
 32
0.0
 13
253.541836764
 23
145.3610984461
 33
0.0
  0
MTEXT
  5
125
330
11F
100
AcDbEntity
  8
0
 62
     5
100
AcDbMText
 10
250.916836764
 20
117.7555984461
 30
0.0
 40
3.5
 41
0.0
 71
     7
 72
     1
  1
\C5;{\Fgdt;n}\C5;40
  7
CONVERTER_11
 11
0.0
 21
1.0
 31
0.0
 73
     1
 44
0.60024009603842
  0
ENDBLK
  5
127
330
11F
100
AcDbEntity
  8
0
100
AcDbBlockEnd
  0
BLOCK
  5
131
330
12A
100
AcDbEntity
  8
0
100
AcDbBlockBegin
  2
*D5
 70
     1
 10
0.0
 20
0.0
 30
0.0
  3
*D5
  1

  0
LINE
  5
12B
330
12A
100
AcDbEntity
  8
0
  6
Continuous
 62
     2
100
AcDbLine
 10
137.1936824324
 20
175.3933201297
 30
0.0
 11
222.1936824324
 21
175.3933201297
 31
0.0
  0
LINE
  5
12C
330
12A
100
AcDbEntity
  8
0
  6
Continuous
 62
     2
100
AcDbLine
 10
137.1936824324
 20
159.2947388371
 30
0.0
 11
137.1936824324
 21
175.5733201297
 31
0.0
  0
LINE
  5
12D
330
12A
100
AcDbEntity
  8
0
  6
Continuous
 62
     2
100
AcDbLine
 10
222.1936824324
 20
148.554450501
 30
0.0
 11
222.1936824324
 21
175.5733201297
 31
0.0
  0
SOLID
  5
12E
330
12A
100
AcDbEntity
  8
0
 62
     2
100
AcDbTrace
 10
218.6936824324
 20
174.9325363881441
 30
0.0
 11
218.6936824324
 21
175.8541038712559
 31
0.0
 12
222.1936824324
 22
175.3933201297
 32
0.0
 13
222.1936824324
 23
175.3933201297
 33
0.0
  0
SOLID
  5
12F
330
12A
100
AcDbEntity
  8
0
 62
     2
100
AcDbTrace
 10
140.6936824324
 20
175.8541038712559
 30
0.0
 11
140.6936824324
 21
174.9325363881441
 31
0.0
 12
137.1936824324
 22
175.3933201297
 32
0.0
 13
137.1936824324
 23
175.3933201297
 33
0.0
  0
MTEXT
  5
130
330
12A
100
AcDbEntity
  8
0
 62
     5
100
AcDbMText
 10
177.6846824324
 20
178.0183201297
 30
0.0
 40
3.5
 41
0.0
 71
     7
 72
     1
  1
85
  7
CONVERTER_11
 11
0.9999999999970619
 21
2.424068405545306E-6
 31
0.0
 73
     1
 44
0.60024009603842
  0
ENDBLK
  5
132
330
12A
100
AcDbEntity
  8
0
100
AcDbBlockEnd
  0
BLOCK
  5
13C
330
135
100
AcDbEntity
  8
0
100
AcDbBlockBegin
  2
*D6
 70
     1
 10
0.0
 20
0.0
 30
0.0
  3
*D6
  1

  0
LINE
  5
136
330
135
100
AcDbEntity
  8
0
  6
Continuous
 62
     2
100
AcDbLine
 10
99.19368243240001
 20
192.389033264
 30
0.0
 11
222.1936824324
 21
192.389033264
 31
0.0
  0
LINE
  5
137
330
135
100
AcDbEntity
  8
0
  6
Continuous
 62
     2
100
AcDbLine
 10
99.19368243240001
 20
146.8698445773
 30
0.0
 11
99.19368243240001
 21
192.569033264
 31
0.0
  0
LINE
  5
138
330
135
100
AcDbEntity
  8
0
  6
Continuous
 62
     2
100
AcDbLine
 10
222.1936824324
 20
151.1089261483
 30
0.0
 11
222.1936824324
 21
192.569033264
 31
0.0
  0
SOLID
  5
139
330
135
100
AcDbEntity
  8
0
 62
     2
100
AcDbTrace
 10
218.6936824324
 20
191.9282495224441
 30
0.0
 11
218.6936824324
 21
192.8498170055559
 31
0.0
 12
222.1936824324
 22
192.389033264
 32
0.0
 13
222.1936824324
 23
192.389033264
 33
0.0
  0
SOLID
  5
13A
330
135
100
AcDbEntity
  8
0
 62
     2
100
AcDbTrace
 10
102.6936824324
 20
192.8498170055559
 30
0.0
 11
102.6936824324
 21
191.9282495224441
 31
0.0
 12
99.19368243240001
 22
192.389033264
 32
0.0
 13
99.19368243240001
 23
192.389033264
 33
0.0
  0
MTEXT
  5
13B
330
135
100
AcDbEntity
  8
0
 62
     5
100
AcDbMText
 10
157.6801824324
 20
195.014033264
 30
0.0
 40
3.5
 41
0.0
 71
     7
 72
     1
  1
123
  7
CONVERTER_11
 11
0.9999999999970619
 21
2.424068405545306E-6
 31
0.0
 73
     1
 44
0.60024009603842
  0
ENDBLK
  5
13D
330
135
100
AcDbEntity
  8
0
100
AcDbBlockEnd
  0
BLOCK
  5
147
330
140
100
AcDbEntity
  8
0
100
AcDbBlockBegin
  2
*D7
 70
     1
 10
0.0
 20
0.0
 30
0.0
  3
*D7
  1

  0
LINE
  5
141
330
140
100
AcDbEntity
  8
0
  6
Continuous
 62
     2
100
AcDbLine
 10
159.1936824324
 20
165.2839831193
 30
0.0
 11
222.1936824324
 21
165.2839831193
 31
0.0
  0
LINE
  5
142
330
140
100
AcDbEntity
  8
0
  6
Continuous
 62
     2
100
AcDbLine
 10
159.1936824324
 20
152.5031667211
 30
0.0
 11
159.1936824324
 21
165.4639831193
 31
0.0
  0
LINE
  5
143
330
140
100
AcDbEntity
  8
0
  6
Continuous
 62
     2
100
AcDbLine
 10
222.1936824324
 20
151.1089261483
 30
0.0
 11
222.1936824324
 21
165.4639831193
 31
0.0
  0
SOLID
  5
144
330
140
100
AcDbEntity
  8
0
 62
     2
100
AcDbTrace
 10
218.6936824324
 20
164.8231993777441
 30
0.0
 11
218.6936824324
 21
165.7447668608559
 31
0.0
 12
222.1936824324
 22
165.2839831193
 32
0.0
 13
222.1936824324
 23
165.2839831193
 33
0.0
  0
SOLID
  5
145
330
140
100
AcDbEntity
  8
0
 62
     2
100
AcDbTrace
 10
162.6936824324
 20
165.7447668608559
 30
0.0
 11
162.6936824324
 21
164.8231993777441
 31
0.0
 12
159.1936824324
 22
165.2839831193
 32
0.0
 13
159.1936824324
 23
165.2839831193
 33
0.0
  0
MTEXT
  5
146
330
140
100
AcDbEntity
  8
0
 62
     5
100
AcDbMText
 10
188.6846824324
 20
167.9089831193
 30
0.0
 40
3.5
 41
0.0
 71
     7
 72
     1
  1
63
  7
CONVERTER_11
 11
0.9999999999970619
 21
2.424068405545306E-6
 31
0.0
 73
     1
 44
0.60024009603842
  0
ENDBLK
  5
148
330
140
100
AcDbEntity
  8
0
100
AcDbBlockEnd
  0
ENDSEC
  0
SECTION
  2
ENTITIES
  0
POINT
  5
4A
330
1F
100
AcDbEntity
  8
0
 62
     7
100
AcDbPoint
 10
223.6936824324
 20
100.3610984461
 30
0.0
  0
POINT
  5
4B
330
1F
100
AcDbEntity
  8
0
 62
     7
100
AcDbPoint
 10
223.6936824324
 20
150.3610984461
 30
0.0
  0
POINT
  5
4C
330
1F
100
AcDbEntity
  8
0
 62
     7
100
AcDbPoint
 10
137.1936824324
 20
157.9019968309
 30
0.0
  0
POINT
  5
4D
330
1F
100
AcDbEntity
  8
0
 62
     7
100
AcDbPoint
 10
237.1936824324
 20
154.8969968309
 30
0.0
  0
POINT
  5
4E
330
1F
100
AcDbEntity
  8
0
 62
     7
100
AcDbPoint
 10
223.6936824324
 20
145.3610984461
 30
0.0
  0
POINT
  5
4F
330
1F
100
AcDbEntity
  8
0
 62
     7
100
AcDbPoint
 10
223.6936824324
 20
105.3610984461
 30
0.0
  0
POINT
  5
50
330
1F
100
AcDbEntity
  8
0
 62
     7
100
AcDbPoint
 10
137.1936824324
 20
159.2322388371
 30
0.0
  0
POINT
  5
51
330
1F
100
AcDbEntity
  8
0
 62
     7
100
AcDbPoint
 10
222.1936824324
 20
148.491950501
 30
0.0
  0
POINT
  5
52
330
1F
100
AcDbEntity
  8
0
 62
     7
100
AcDbPoint
 10
99.1936824324
 20
146.8073445773
 30
0.0
  0
POINT
  5
53
330
1F
100
AcDbEntity
  8
0
 62
     7
100
AcDbPoint
 10
222.1936824324
 20
151.0464261483
 30
0.0
  0
POINT
  5
54
330
1F
100
AcDbEntity
  8
0
 62
     7
100
AcDbPoint
 10
159.1936824324
 20
152.4406667211
 30
0.0
  0
POINT
  5
55
330
1F
100
AcDbEntity
  8
0
 62
     7
100
AcDbPoint
 10
222.1936824324
 20
151.0464261483
 30
0.0
  0
LINE
  5
56
330
1F
100
AcDbEntity
  8
0
  6
Continuous
 62
     7
100
AcDbLine
 10
135.2040840642
 20
101.9357136402
 30
0.0
 11
135.4467111833
 21
102.4843695707
 31
0.0
  0
LINE
  5
57
330
1F
100
AcDbEntity
  8
ACHSEN
  6
Continuous
 62
     7
100
AcDbLine
 10
107.4573017804
 20
145.2876505219
 30
0.0
 11
107.4722527184
 21
145.2897562513
 31
0.0
  0
LINE
  5
58
330
1F
100
AcDbEntity
  8
ACHSEN
  6
Continuous
 62
     7
100
AcDbLine
 10
105.5436824324
 20
144.9651497447
 30
0.0
 11
100.6936824324
 21
144.8580880596
 31
0.0
  0
LINE
  5
59
330
1F
100
AcDbEntity
  8
FASEN
  6
Continuous
 62
     7
100
AcDbLine
 10
154.3769442531
 20
156.8545325121
 30
0.0
 11
154.4161233438
 21
156.8610628748
 31
0.0
  0
LINE
  5
5A
330
1F
100
AcDbEntity
  8
FASEN
  6
Continuous
 62
     7
100
AcDbLine
 10
144.010421178357
 20
156.854532405145
 30
0.0
 11
143.9712414275
 21
156.8610628777
 31
0.0
  0
LINE
  5
5B
330
1F
100
AcDbEntity
  8
DEFAULT_1
  6
CENTER
 62
     5
100
AcDbLine
 10
235.1936824324
 20
156.8610984461
 30
0.0
 11
237.1936824324
 21
153.3969968309
 31
0.0
  0
LINE
  5
5C
330
1F
100
AcDbEntity
  8
DEFAULT_1
  6
CENTER
 62
     5
100
AcDbLine
 10
235.1936824324
 20
93.8610984461
 30
0.0
 11
237.1936824324
 21
97.32520006120001
 31
0.0
  0
LINE
  5
5D
330
1F
100
AcDbEntity
  8
DEFAULT_1
  6
CENTER
 62
     5
100
AcDbLine
 10
237.1936824324
 20
153.3969968309
 30
0.0
 11
237.1936824324
 21
97.32520006120001
 31
0.0
  0
LINE
  5
5E
330
1F
100
AcDbEntity
  8
DEFAULT_1
  6
CENTER
 62
     5
100
AcDbLine
 10
230.9998417185
 20
150.6510984461
 30
0.0
 11
237.1936824324
 21
142.4166530276
 31
0.0
  0
LINE
  5
5F
330
1F
100
AcDbEntity
  8
FASEN
  6
Continuous
 62
     7
100
AcDbLine
 10
222.1936824324
 20
148.8610984459
 30
0.0
 11
221.3276570286
 21
150.3610984461
 31
0.0
  0
LINE
  5
60
330
1F
100
AcDbEntity
  8
DEFAULT_1
  6
CENTER
 62
     5
100
AcDbLine
 10
230.9998417185
 20
100.0710984461
 30
0.0
 11
237.1936824324
 21
108.3055438645
 31
0.0
  0
LINE
  5
61
330
1F
100
AcDbEntity
  8
FASEN
  6
Continuous
 62
     7
100
AcDbLine
 10
222.1936824324
 20
101.8610984462
 30
0.0
 11
221.3276570293
 21
100.3610984471
 31
0.0
  0
LINE
  5
62
330
1F
100
AcDbEntity
  8
FASEN
  6
Continuous
 62
     7
100
AcDbLine
 10
222.1936824324
 20
101.8610984462
 30
0.0
 11
222.1936824324
 21
148.8610984459
 31
0.0
  0
LINE
  5
63
330
1F
100
AcDbEntity
  8
0
  6
Continuous
 62
     7
100
AcDbLine
 10
221.8588192763
 20
149.4410984461
 30
0.0
 11
221.8588192763
 21
101.2810984461
 31
0.0
  0
LINE
  5
64
330
1F
100
AcDbEntity
  8
FASEN
  6
Continuous
 62
     7
100
AcDbLine
 10
221.3276570286
 20
100.3610984461
 30
0.0
 11
221.3276570286
 21
150.3610984461
 31
0.0
  0
LINE
  5
65
330
1F
100
AcDbEntity
  8
DEFAULT_1
  6
CENTER
 62
     5
100
AcDbLine
 10
210.7236824324
 20
156.8610984461
 30
0.0
 11
235.1936824324
 21
156.8610984461
 31
0.0
  0
LINE
  5
66
330
1F
100
AcDbEntity
  8
0
  6
Continuous
 62
     7
100
AcDbLine
 10
143.9719211214
 20
156.8610984461
 30
0.0
 11
137.4936825048
 21
156.8610984461
 31
0.0
  0
LINE
  5
67
330
1F
100
AcDbEntity
  8
0
  6
Continuous
 62
     7
100
AcDbLine
 10
159.1936824324
 20
156.8610984461
 30
0.0
 11
154.4154432614
 21
156.8610984461
 31
0.0
  0
LINE
  5
68
330
1F
100
AcDbEntity
  8
0
  6
Continuous
 62
     7
100
AcDbLine
 10
150.6550072978
 20
155.4416912064
 30
0.0
 11
147.732357567
 21
155.4416912064
 31
0.0
  0
LINE
  5
69
330
1F
100
AcDbEntity
  8
DEFAULT_1
  6
CENTER
 62
     5
100
AcDbLine
 10
208.7236824324
 20
150.3610984461
 30
0.0
 11
208.7236824324
 21
154.8610984461
 31
0.0
  0
LINE
  5
6A
330
1F
100
AcDbEntity
  8
DEFAULT_1
  6
CENTER
 62
     5
100
AcDbLine
 10
208.7236824324
 20
95.8610984461
 30
0.0
 11
208.7236824324
 21
100.3610984461
 31
0.0
  0
LINE
  5
6B
330
1F
100
AcDbEntity
  8
0
  6
Continuous
 62
     7
100
AcDbLine
 10
204.6936824324
 20
150.3610984461
 30
0.0
 11
204.6936824324
 21
100.3610984461
 31
0.0
  0
LINE
  5
6C
330
1F
100
AcDbEntity
  8
DEFAULT_1
  6
CENTER
 62
     5
100
AcDbLine
 10
227.4898417185
 20
150.6510984461
 30
0.0
 11
230.9998417185
 21
150.6510984461
 31
0.0
  0
LINE
  5
6D
330
1F
100
AcDbEntity
  8
0
  6
Continuous
 62
     7
100
AcDbLine
 10
160.1936824324
 20
150.3610984461
 30
0.0
 11
221.3276570286
 21
150.3610984461
 31
0.0
  0
LINE
  5
6E
330
1F
100
AcDbEntity
  8
DEFAULT_1
  6
CENTER
 62
     5
100
AcDbLine
 10
221.8588192763
 20
149.4410984461
 30
0.0
 11
225.7436824324
 21
149.4410984461
 31
0.0
  0
LINE
  5
6F
330
1F
100
AcDbEntity
  8
0
  6
Continuous
 62
     2
100
AcDbLine
 10
204.6936824324
 20
149.4410984461
 30
0.0
 11
221.8588192763
 21
149.4410984461
 31
0.0
  0
LINE
  5
70
330
1F
100
AcDbEntity
  8
0
  6
Continuous
 62
     7
100
AcDbLine
 10
126.3730437657
 20
145.7646167815
 30
0.0
 11
134.9937455215
 21
145.9811988156
 31
0.0
  0
LINE
  5
71
330
1F
100
AcDbEntity
  8
0
  6
Continuous
 62
     7
100
AcDbLine
 10
107.4572871865
 20
145.2893871362
 30
0.0
 11
117.2436824324
 21
145.5352554483
 31
0.0
  0
LINE
  5
72
330
1F
100
AcDbEntity
  8
0
  6
Continuous
 62
     7
100
AcDbLine
 10
135.1987055436
 20
145.7862850158
 30
0.0
 11
136.7987055436
 21
145.8264825849
 31
0.0
  0
LINE
  5
73
330
1F
100
AcDbEntity
  8
0
  6
Continuous
 62
     7
100
AcDbLine
 10
135.4467111833
 20
140.0508698787
 30
0.0
 11
135.1987055436
 21
140.0460406508
 31
0.0
  0
LINE
  5
74
330
1F
100
AcDbEntity
  8
0
  6
Continuous
 62
     9
100
AcDbLine
 10
100.6936824324
 20
141.0723430848
 30
0.0
 11
134.9937455215
 21
141.8186291947
 31
0.0
  0
LINE
  5
75
330
1F
100
AcDbEntity
  8
DEFAULT_1
  6
CENTER
 62
     5
100
AcDbLine
 10
225.7436824324
 20
101.2810984461
 30
0.0
 11
227.4898417185
 21
100.0710984461
 31
0.0
  0
LINE
  5
76
330
1F
100
AcDbEntity
  8
0
  6
Continuous
 62
     7
100
AcDbLine
 10
150.6550072978
 20
134.7103197606
 30
0.0
 11
147.732357567
 21
134.7103197606
 31
0.0
  0
LINE
  5
77
330
1F
100
AcDbEntity
  8
0
  6
Continuous
 62
     7
100
AcDbLine
 10
135.1987055436
 20
133.5470416328
 30
0.0
 11
135.4467111833
 21
133.5480558887
 31
0.0
  0
LINE
  5
78
330
1F
100
AcDbEntity
  8
0
  6
Continuous
 62
     9
100
AcDbLine
 10
99.1936824324
 20
130.5859695767
 30
0.0
 11
134.9937455215
 21
130.5859695767
 31
0.0
  0
LINE
  5
79
330
1F
100
AcDbEntity
  8
DEFAULT_1
  6
CENTER
 62
     5
100
AcDbLine
 10
225.7436824324
 20
149.4410984461
 30
0.0
 11
227.4898417185
 21
150.6510984461
 31
0.0
  0
LINE
  5
7A
330
1F
100
AcDbEntity
  8
S_ACHSEN
  6
CENTER
 62
     7
100
AcDbLine
 10
96.1936824324
 20
125.3610984461
 30
0.0
 11
240.1936824324
 21
125.3610984461
 31
0.0
  0
LINE
  5
7B
330
1F
100
AcDbEntity
  8
0
  6
Continuous
 62
     7
100
AcDbLine
 10
150.6550072978
 20
116.0118771315
 30
0.0
 11
147.732357567
 21
116.0118771315
 31
0.0
  0
LINE
  5
7C
330
1F
100
AcDbEntity
  8
0
  6
Continuous
 62
     7
100
AcDbLine
 10
135.8865756512
 20
102.6182052273
 30
0.0
 11
135.204085255
 21
101.935714831
 31
0.0
  0
LINE
  5
7D
330
1F
100
AcDbEntity
  8
RUNDUNGEN
  6
Continuous
 62
     9
100
AcDbLine
 10
160.1936824324
 20
150.3610984461
 30
0.0
 11
160.1936824324
 21
100.3610984461
 31
0.0
  0
LINE
  5
7E
330
1F
100
AcDbEntity
  8
0
  6
Continuous
 62
     7
100
AcDbLine
 10
159.1936824324
 20
93.8610984461
 30
0.0
 11
159.1936824324
 21
156.8610984461
 31
0.0
  0
LINE
  5
7F
330
1F
100
AcDbEntity
  8
0
  6
Continuous
 62
     7
100
AcDbLine
 10
100.6936824324
 20
102.8027350494
 30
0.0
 11
135.2040852552
 21
101.9357136103
 31
0.0
  0
LINE
  5
80
330
1F
100
AcDbEntity
  8
0
  6
Continuous
 62
     7
100
AcDbLine
 10
135.4467111833
 20
102.4843695707
 30
0.0
 11
135.1987055436
 21
102.4902130546
 31
0.0
  0
LINE
  5
81
330
1F
100
AcDbEntity
  8
0
  6
Continuous
 62
     9
100
AcDbLine
 10
134.9937455215
 20
103.6786965668
 30
0.0
 11
100.6936824324
 21
104.4249826767
 31
0.0
  0
LINE
  5
82
330
1F
100
AcDbEntity
  8
DEFAULT_1
  6
CENTER
 62
     5
100
AcDbLine
 10
221.8588192763
 20
101.2810984461
 30
0.0
 11
225.7436824324
 21
101.2810984461
 31
0.0
  0
LINE
  5
83
330
1F
100
AcDbEntity
  8
0
  6
Continuous
 62
     2
100
AcDbLine
 10
204.6936824324
 20
101.2810984461
 30
0.0
 11
221.8588192763
 21
101.2810984461
 31
0.0
  0
LINE
  5
84
330
1F
100
AcDbEntity
  8
0
  6
Continuous
 62
     7
100
AcDbLine
 10
160.1936824324
 20
100.3610984461
 30
0.0
 11
221.3276570286
 21
100.3610984461
 31
0.0
  0
LINE
  5
85
330
1F
100
AcDbEntity
  8
RUNDUNGEN
  6
Continuous
 62
     7
100
AcDbLine
 10
221.3276570286
 20
100.3610984461
 30
0.0
 11
160.1936824324
 21
100.3610984461
 31
0.0
  0
LINE
  5
86
330
1F
100
AcDbEntity
  8
DEFAULT_1
  6
CENTER
 62
     5
100
AcDbLine
 10
227.4898417185
 20
100.0710984461
 30
0.0
 11
230.9998417185
 21
100.0710984461
 31
0.0
  0
LINE
  5
87
330
1F
100
AcDbEntity
  8
0
  6
Continuous
 62
     9
100
AcDbLine
 10
151.0880199997
 20
115.4916858271
 30
0.0
 11
151.0880199997
 21
95.4471435996
 31
0.0
  0
LINE
  5
88
330
1F
100
AcDbEntity
  8
0
  6
Continuous
 62
     9
100
AcDbLine
 10
151.0880199997
 20
155.2750532925
 30
0.0
 11
151.0880199997
 21
135.230511065
 31
0.0
  0
LINE
  5
89
330
1F
100
AcDbEntity
  8
0
  6
Continuous
 62
     9
100
AcDbLine
 10
150.6550072978
 20
116.0118771315
 30
0.0
 11
150.6550072978
 21
95.2805056858
 31
0.0
  0
LINE
  5
8A
330
1F
100
AcDbEntity
  8
0
  6
Continuous
 62
     9
100
AcDbLine
 10
150.6550072978
 20
155.4416912064
 30
0.0
 11
150.6550072978
 21
134.7103197606
 31
0.0
  0
LINE
  5
8B
330
1F
100
AcDbEntity
  8
ACHSEN
  6
CENTER
 62
     7
100
AcDbLine
 10
149.1936824324
 20
152.659377208
 30
0.0
 11
149.1936824324
 21
159.8610984461
 31
0.0
  0
LINE
  5
8C
330
1F
100
AcDbEntity
  8
0
  6
Continuous
 62
     9
100
AcDbLine
 10
147.732357567
 20
116.0118771315
 30
0.0
 11
147.732357567
 21
95.2805056858
 31
0.0
  0
LINE
  5
8D
330
1F
100
AcDbEntity
  8
0
  6
Continuous
 62
     9
100
AcDbLine
 10
147.732357567
 20
155.4416912064
 30
0.0
 11
147.732357567
 21
134.7103197606
 31
0.0
  0
LINE
  5
8E
330
1F
100
AcDbEntity
  8
0
  6
Continuous
 62
     9
100
AcDbLine
 10
147.2993448651
 20
115.4916858271
 30
0.0
 11
147.2993448651
 21
95.4471435996
 31
0.0
  0
LINE
  5
8F
330
1F
100
AcDbEntity
  8
0
  6
Continuous
 62
     9
100
AcDbLine
 10
147.2993448651
 20
155.2750532925
 30
0.0
 11
147.2993448651
 21
135.230511065
 31
0.0
  0
LINE
  5
90
330
1F
100
AcDbEntity
  8
0
  6
Continuous
 62
     7
100
AcDbLine
 10
150.6550072978
 20
95.2805056858
 30
0.0
 11
147.732357567
 21
95.2805056858
 31
0.0
  0
LINE
  5
91
330
1F
100
AcDbEntity
  8
0
  6
Continuous
 62
     7
100
AcDbLine
 10
159.1936824324
 20
93.8610984461
 30
0.0
 11
137.4936825048
 21
93.8610984461
 31
0.0
  0
LINE
  5
92
330
1F
100
AcDbEntity
  8
DEFAULT_1
  6
CENTER
 62
     5
100
AcDbLine
 10
235.1936824324
 20
93.8610984461
 30
0.0
 11
210.7236824324
 21
93.8610984461
 31
0.0
  0
LINE
  5
93
330
1F
100
AcDbEntity
  8
0
  6
Continuous
 62
     7
100
AcDbLine
 10
136.9936175806
 20
103.9509303546
 30
0.0
 11
136.9936824324
 21
103.9677119889
 31
0.0
  0
LINE
  5
94
330
1F
100
AcDbEntity
  8
0
  6
Continuous
 62
     7
100
AcDbLine
 10
136.9936175806
 20
142.1506730318
 30
0.0
 11
136.9936824324
 21
147.8945833071
 31
0.0
  0
LINE
  5
95
330
1F
100
AcDbEntity
  8
0
  6
Continuous
 62
     7
100
AcDbLine
 10
137.493682506
 20
93.8610984461
 30
0.0
 11
137.493682506
 21
156.8610984461
 31
0.0
  0
LINE
  5
96
330
1F
100
AcDbEntity
  8
0
  6
Continuous
 62
     7
100
AcDbLine
 10
137.1936824324
 20
94.1613741156
 30
0.0
 11
137.1936824324
 21
156.5608227765
 31
0.0
  0
LINE
  5
97
330
1F
100
AcDbEntity
  8
0
  6
Continuous
 62
     7
100
AcDbLine
 10
136.9936824324
 20
103.9616834294
 30
0.0
 11
136.9935864661
 21
129.9863236602
 31
0.0
  0
LINE
  5
98
330
1F
100
AcDbEntity
  8
0
  6
Continuous
 62
     9
100
AcDbLine
 10
136.7987055436
 20
130.5440488992
 30
0.0
 11
136.7987055436
 21
103.833669706
 31
0.0
  0
LINE
  5
99
330
1F
100
AcDbEntity
  8
0
  6
Continuous
 62
     9
100
AcDbLine
 10
136.7987055436
 20
145.8264825849
 30
0.0
 11
136.7987055436
 21
141.705576733
 31
0.0
  0
LINE
  5
9A
330
1F
100
AcDbEntity
  8
0
  6
Continuous
 62
     9
100
AcDbLine
 10
135.8865756512
 20
131.7756382068
 30
0.0
 11
135.8865756512
 21
141.0501153363
 31
0.0
  0
LINE
  5
9B
330
1F
100
AcDbEntity
  8
0
  6
Continuous
 62
     9
100
AcDbLine
 10
135.8865756512
 20
102.6182052273
 30
0.0
 11
135.8865756512
 21
103.2575417951
 31
0.0
  0
LINE
  5
9C
330
1F
100
AcDbEntity
  8
0
  6
Continuous
 62
     9
100
AcDbLine
 10
135.1987055436
 20
133.5470416328
 30
0.0
 11
135.1987055436
 21
102.4902130546
 31
0.0
  0
LINE
  5
9D
330
1F
100
AcDbEntity
  8
0
  6
Continuous
 62
     9
100
AcDbLine
 10
135.1987055436
 20
145.7862850158
 30
0.0
 11
135.1987055436
 21
140.0460406508
 31
0.0
  0
LINE
  5
9E
330
1F
100
AcDbEntity
  8
0
  6
Continuous
 62
     7
100
AcDbLine
 10
134.9937455215
 20
130.5859695767
 30
0.0
 11
134.9937455215
 21
103.6786965668
 31
0.0
  0
LINE
  5
9F
330
1F
100
AcDbEntity
  8
0
  6
Continuous
 62
     7
100
AcDbLine
 10
134.9937455215
 20
145.9811988156
 30
0.0
 11
134.9937455215
 21
141.8186291947
 31
0.0
  0
LINE
  5
A0
330
1F
100
AcDbEntity
  8
0
  6
Continuous
 62
     7
100
AcDbLine
 10
137.1936842684
 20
94.1611003534
 30
0.0
 11
137.4936843583
 21
93.8611002995
 31
0.0
  0
LINE
  5
A1
330
1F
100
AcDbEntity
  8
0
  6
Continuous
 62
     9
100
AcDbLine
 10
100.6936824324
 20
104.4249826767
 30
0.0
 11
99.1936824324
 21
105.1749826767
 31
0.0
  0
LINE
  5
A2
330
1F
100
AcDbEntity
  8
0
  6
Continuous
 62
     7
100
AcDbLine
 10
100.6936824324
 20
102.8027350494
 30
0.0
 11
99.1936824324
 21
103.6687604532
 31
0.0
  0
LINE
  5
A3
330
1F
100
AcDbEntity
  8
0
  6
Continuous
 62
     9
100
AcDbLine
 10
100.6936824324
 20
141.0723430848
 30
0.0
 11
99.1936824324
 21
140.3223430848
 31
0.0
  0
LINE
  5
A4
330
1F
100
AcDbEntity
  8
0
  6
Continuous
 62
     7
100
AcDbLine
 10
137.1936842684
 20
156.5610965387
 30
0.0
 11
137.4936843583
 21
156.8610965926
 31
0.0
  0
LINE
  5
A5
330
1F
100
AcDbEntity
  8
ACHSEN
  6
CENTER
 62
     7
100
AcDbLine
 10
121.6936824324
 20
102.427612939
 30
0.0
 11
121.6936824324
 21
149.5494690106
 31
0.0
  0
LINE
  5
A6
330
1F
100
AcDbEntity
  8
0
  6
Continuous
 62
     7
100
AcDbLine
 10
100.6936824324
 20
141.0723430848
 30
0.0
 11
100.6936824324
 21
102.8027350494
 31
0.0
  0
LINE
  5
A7
330
1F
100
AcDbEntity
  8
ACHSEN
  6
Continuous
 62
     7
100
AcDbLine
 10
100.6936824324
 20
144.8580880596
 30
0.0
 11
100.6936824324
 21
141.0723430848
 31
0.0
  0
LINE
  5
A8
330
1F
100
AcDbEntity
  8
ACHSEN
  6
Continuous
 62
     7
100
AcDbLine
 10
99.1936824324
 20
140.3223430848
 30
0.0
 11
99.1936824324
 21
144.10957776
 31
0.0
  0
LINE
  5
A9
330
1F
100
AcDbEntity
  8
KURVEN
  6
Continuous
 62
     4
100
AcDbLine
 10
99.1936824324
 20
102.8404202704
 30
0.0
 11
99.1936824324
 21
144.572672433
 31
0.0
  0
LINE
  5
AA
330
1F
100
AcDbEntity
  8
0
  6
Continuous
 62
     7
100
AcDbLine
 10
99.1936824324
 20
103.6687604532
 30
0.0
 11
99.1936824324
 21
140.3223430848
 31
0.0
  0
LINE
  5
AB
330
1F
100
AcDbEntity
  8
0
  6
Continuous
 62
     7
100
AcDbLine
 10
297.0
 20
0.0
 30
0.0
 11
297.0
 21
210.0
 31
0.0
  0
LINE
  5
AC
330
1F
100
AcDbEntity
  8
0
  6
Continuous
 62
     7
100
AcDbLine
 10
0.0
 20
210.0
 30
0.0
 11
297.0
 21
210.0
 31
0.0
  0
LINE
  5
AD
330
1F
100
AcDbEntity
  8
0
  6
Continuous
 62
     7
100
AcDbLine
 10
0.0
 20
0.0
 30
0.0
 11
297.0
 21
0.0
 31
0.0
  0
LINE
  5
AE
330
1F
100
AcDbEntity
  8
0
  6
Continuous
 62
     7
100
AcDbLine
 10
0.0
 20
0.0
 30
0.0
 11
0.0
 21
210.0
 31
0.0
  0
ARC
  5
AF
330
1F
100
AcDbEntity
  8
0
  6
Continuous
 62
     7
100
AcDbCircle
 10
135.1936824324
 20
145.9862219268
 30
0.0
 40
0.1999999999659263
100
AcDbArc
 50
181.4391666884859
 51
271.4391666877665
  0
ARC
  5
B0
330
1F
100
AcDbEntity
  8
0
  6
Continuous
 62
     7
100
AcDbCircle
 10
136.7936824324
 20
146.0264194959
 30
0.0
 40
0.2000000000658823
100
AcDbArc
 50
271.4391666877665
 51
0.0
  0
ARC
  5
B1
330
1F
100
AcDbEntity
  8
0
  6
Continuous
 62
     7
100
AcDbCircle
 10
136.5936824324
 20
148.8110984461
 30
0.0
 40
1.000000000008108
100
AcDbArc
 50
293.5781784779995
 51
306.9599393197851
  0
ARC
  5
B2
330
1F
100
AcDbEntity
  8
0
  6
Continuous
 62
     7
100
AcDbCircle
 10
136.5936824324
 20
101.9110984461
 30
0.0
 40
0.9999999999998815
100
AcDbArc
 50
53.04006068021491
 51
135.0
  0
ARC
  5
B3
330
1F
100
AcDbEntity
  8
RUNDUNGEN
  6
Continuous
 62
     7
100
AcDbCircle
 10
160.1936824324
 20
99.3610984461
 30
0.0
 40
1.0
100
AcDbArc
 50
90.0
 51
179.9999999999023
  0
ARC
  5
B4
330
1F
100
AcDbEntity
  8
RUNDUNGEN
  6
Continuous
 62
     7
100
AcDbCircle
 10
160.1936824324
 20
151.3610984461
 30
0.0
 40
1.0
100
AcDbArc
 50
180.000000000285
 51
270.0
  0
ARC
  5
B5
330
1F
100
AcDbEntity
  8
DEFAULT_1
  6
CENTER
 62
     5
100
AcDbCircle
 10
210.7236824324
 20
95.8610984461
 30
0.0
 40
2.0
100
AcDbArc
 50
180.0
 51
270.0
  0
ARC
  5
B6
330
1F
100
AcDbEntity
  8
DEFAULT_1
  6
CENTER
 62
     5
100
AcDbCircle
 10
210.7236824324
 20
154.8610984461
 30
0.0
 40
2.0
100
AcDbArc
 50
90.0
 51
180.0
  0
ARC
  5
B7
330
1F
100
AcDbEntity
  8
FASEN
  6
Continuous
 62
     7
100
AcDbCircle
 10
149.2065304406
 20
187.6011853137
 30
0.0
 40
31.18166353769015
100
AcDbArc
 50
261.4632582379859
 51
269.9763920016584
  0
ARC
  5
B8
330
1F
100
AcDbEntity
  8
FASEN
  6
Continuous
 62
     7
100
AcDbCircle
 10
149.1543108577
 20
187.9559661299
 30
0.0
 40
31.53646628359983
100
AcDbArc
 50
270.0715307045995
 51
278.4922090726408
  0
ARC
  5
B9
330
1F
100
AcDbEntity
  8
FASEN
  6
Continuous
 62
     7
100
AcDbCircle
 10
148.9047044621
 20
189.680499203
 30
0.0
 40
33.2789530151996
100
AcDbArc
 50
278.4787789279005
 51
278.9330490982996
  0
ARC
  5
BA
330
1F
100
AcDbEntity
  8
FASEN
  6
Continuous
 62
     7
100
AcDbCircle
 10
149.4819501429
 20
189.6817953067
 30
0.0
 40
33.28012648439969
100
AcDbArc
 50
260.5371369486006
 51
261.5260715196007
  0
ARC
  5
BB
330
1F
100
AcDbEntity
  8
0
  6
Continuous
 62
     7
100
AcDbCircle
 10
28.4416712371
 20
106.0516096168
 30
0.0
 40
110.4813700650667
100
AcDbArc
 50
13.46409039973832
 51
14.41116213514936
  0
ARC
  5
BC
330
1F
100
AcDbEntity
  8
ACHSEN
  6
Continuous
 62
     7
100
AcDbCircle
 10
35.4354654546
 20
273.7570379983
 30
0.0
 40
144.4768984247302
100
AcDbArc
 50
296.1871039389451
 51
296.8519184684696
  0
ARC
  5
BD
330
1F
100
AcDbEntity
  8
0
  6
Continuous
 62
     7
100
AcDbCircle
 10
281.427855203
 20
76.3869005765
 30
0.0
 40
159.2595221537701
100
AcDbArc
 50
156.0446773747412
 51
156.437458983071
  0
SPLINE
  5
BE
330
1F
100
AcDbEntity
  8
0
  6
Continuous
 62
     7
100
AcDbSpline
210
0.0
220
0.0
230
1.0
 70
     8
 71
     3
 72
    15
 73
    11
 74
     9
 42
0.0000000001
 43
0.0000000001
 44
0.00000001
 40
0.0
 40
0.0
 40
0.0
 40
0.0
 40
2.768071362152716
 40
5.54398716252316
 40
7.429045838022556
 40
9.3107452423362
 40
11.5227233401885
 40
13.73599890180814
 40
17.16735239688632
 40
20.59799187639067
 40
20.59799187639067
 40
20.59799187639067
 40
20.59799187639067
 10
147.2993448651
 20
155.2750532925
 30
0.0
 10
146.818355251815
 20
154.4775432849667
 30
0.0
 10
145.8550129486435
 20
152.8802632060637
 30
0.0
 10
145.4770709741056
 20
150.3883893427996
 30
0.0
 10
145.3352679360924
 20
148.2172055974893
 30
0.0
 10
145.3681088427061
 20
146.2211625589941
 30
0.0
 10
145.5297932692497
 20
144.1243544256029
 30
0.0
 10
145.8780774351755
 20
141.5277285670347
 30
0.0
 10
146.437504369799
 20
138.5521250713985
 30
0.0
 10
147.0120846296905
 20
136.337638924599
 30
0.0
 10
147.299344866043
 20
135.230511063908
 30
0.0
 11
147.2993448651
 21
155.2750532925
 31
0.0
 11
146.0262193565462
 21
152.8171333374487
 31
0.0
 11
145.4800244986588
 21
150.0954831564071
 31
0.0
 11
145.3608231983375
 21
148.2141970909515
 31
0.0
 11
145.3837171167225
 21
146.3326369625753
 31
0.0
 11
145.5504295225053
 21
144.1269502035053
 31
0.0
 11
145.8391046230028
 21
141.9325811830315
 31
0.0
 11
146.4754528480443
 21
138.560749671127
 31
0.0
 11
147.299344866043
 21
135.230511063908
 31
0.0
  0
SPLINE
  5
BF
330
1F
100
AcDbEntity
  8
0
  6
Continuous
 62
     7
100
AcDbSpline
210
0.0
220
0.0
230
1.0
 70
     8
 71
     3
 72
    15
 73
    11
 74
     9
 42
0.0000000001
 43
0.0000000001
 44
0.00000001
 40
0.0
 40
0.0
 40
0.0
 40
0.0
 40
4.908005104415873
 40
9.815816967555007
 40
11.81736697981856
 40
13.81798377233681
 40
15.47664584493366
 40
17.13807097055925
 40
18.87967154026213
 40
20.60869206087375
 40
20.60869206087375
 40
20.60869206087375
 40
20.60869206087375
 10
151.088019998857
 20
135.230511063908
 30
0.0
 10
151.4896797821522
 20
136.8170519607419
 30
0.0
 10
152.2929835343237
 20
139.9900712880549
 30
0.0
 10
152.8647094165959
 20
143.8977852663642
 30
0.0
 10
153.0453655714204
 20
146.8637079395988
 30
0.0
 10
153.0317579032
 20
148.7519844476767
 30
0.0
 10
152.8862250463378
 20
150.5228559402566
 30
0.0
 10
152.5727133740346
 20
152.1801843903198
 30
0.0
 10
152.0687110266109
 20
153.8345703803352
 30
0.0
 10
151.4141261117723
 20
154.7960540265718
 30
0.0
 10
151.0880199997
 20
155.2750532925
 30
0.0
 11
151.088019998857
 21
135.230511063908
 31
0.0
 11
152.2108928305285
 21
140.0083422359845
 31
0.0
 11
152.9073403661168
 21
144.8664877786934
 31
0.0
 11
153.0226820829501
 21
146.8647116750449
 31
0.0
 11
153.0036477482381
 21
148.8652379169643
 31
0.0
 11
152.8576412591854
 21
150.5174612602886
 31
0.0
 11
152.5482602421411
 21
152.1498266710814
 31
0.0
 11
151.9884694324303
 21
153.7990103460408
 31
0.0
 11
151.0880199997
 21
155.2750532925
 31
0.0
  0
SPLINE
  5
C0
330
1F
100
AcDbEntity
  8
0
  6
Continuous
 62
     7
100
AcDbSpline
210
0.0
220
0.0
230
1.0
 70
     8
 71
     3
 72
    15
 73
    11
 74
     9
 42
0.0000000001
 43
0.0000000001
 44
0.00000001
 40
0.0
 40
0.0
 40
0.0
 40
0.0
 40
2.768071363099973
 40
5.543987163860158
 40
7.429045839534181
 40
9.310745244023654
 40
11.52272334203723
 40
13.73599890381793
 40
17.16735239739513
 40
20.59799187461145
 40
20.59799187461145
 40
20.59799187461145
 40
20.59799187461145
 10
151.088020000071
 20
95.4471436000069
 30
0.0
 10
151.5690096134134
 20
96.24465360787633
 30
0.0
 10
152.5323519166023
 20
97.8419336872911
 30
0.0
 10
152.9102938910107
 20
100.3338075510787
 30
0.0
 10
153.0520969288459
 20
102.5049912966497
 30
0.0
 10
153.0192560220932
 20
104.501034335312
 30
0.0
 10
152.85757159541
 20
106.5978424688587
 30
0.0
 10
152.509287429406
 20
109.1944683270213
 30
0.0
 10
151.9498604948927
 20
112.1700718214356
 30
0.0
 10
151.3752802356801
 20
114.3845579671024
 30
0.0
 10
151.0880199997
 20
115.4916858271
 30
0.0
 11
151.088020000071
 21
95.4471436000069
 31
0.0
 11
152.3611455087367
 21
97.90506355606708
 31
0.0
 11
152.9073403664329
 21
100.6267137375445
 31
0.0
 11
153.0265416666048
 21
102.5079998031845
 31
0.0
 11
153.0036477480847
 21
104.389559931735
 31
0.0
 11
152.8369353421567
 21
106.5952466909557
 31
0.0
 11
152.548260241523
 21
108.7896157115741
 31
0.0
 11
151.911912016723
 21
112.1614472219966
 31
0.0
 11
151.0880199997
 21
115.4916858271
 31
0.0
  0
SPLINE
  5
C1
330
1F
100
AcDbEntity
  8
0
  6
Continuous
 62
     7
100
AcDbSpline
210
0.0
220
0.0
230
1.0
 70
     8
 71
     3
 72
    15
 73
    11
 74
     9
 42
0.0000000001
 43
0.0000000001
 44
0.00000001
 40
0.0
 40
0.0
 40
0.0
 40
0.0
 40
4.908005104137589
 40
9.815816966998792
 40
11.81736697909025
 40
13.81798377143654
 40
15.47664584385805
 40
17.13807096930752
 40
18.87967153826347
 40
20.60869205864729
 40
20.60869205864729
 40
20.60869205864729
 40
20.60869205864729
 10
147.299344865308
 20
115.491685825606
 30
0.0
 10
146.8976850820977
 20
113.9051449288463
 30
0.0
 10
146.094381330096
 20
110.7321256016816
 30
0.0
 10
145.5226554480487
 20
106.8244116235824
 30
0.0
 10
145.3419992934233
 20
103.8584889505434
 30
0.0
 10
145.3556069617808
 20
101.9702124426384
 30
0.0
 10
145.5011398187866
 20
100.1993409502466
 30
0.0
 10
145.8146514911926
 20
98.54201250056883
 30
0.0
 10
146.3186538387565
 20
96.88762651101771
 30
0.0
 10
146.9732387534382
 20
95.92614286507481
 30
0.0
 10
147.299344865481
 20
95.4471435992215
 30
0.0
 11
147.299344865308
 21
115.491685825606
 31
0.0
 11
146.1764720338948
 21
110.7138546537546
 31
0.0
 11
145.4800244985919
 21
105.8557091112856
 31
0.0
 11
145.3646827818952
 21
103.8574852150986
 31
0.0
 11
145.3837171167548
 21
101.8569589733526
 31
0.0
 11
145.5297236059393
 21
100.2047356302159
 31
0.0
 11
145.8391046231332
 21
98.57237021963077
 31
0.0
 11
146.3988954328049
 21
96.92318654544684
 31
0.0
 11
147.299344865481
 21
95.4471435992215
 31
0.0
  0
SPLINE
  5
C2
330
1F
100
AcDbEntity
  8
0
  6
Continuous
 62
     7
100
AcDbSpline
210
0.0
220
0.0
230
1.0
 70
     8
 71
     3
 72
    19
 73
    15
 74
    13
 42
0.0000000001
 43
0.0000000001
 44
0.00000001
 40
0.0
 40
0.0
 40
0.0
 40
0.0
 40
0.0414504390572267
 40
0.0829470893119962
 40
0.1073580008477782
 40
0.1315944496417311
 40
0.1468954396416921
 40
0.1621805373763915
 40
0.1749472186073714
 40
0.1877203211659864
 40
0.2122664929106714
 40
0.2369551402484026
 40
0.2632280832386876
 40
0.2894431839012413
 40
0.2894431839012413
 40
0.2894431839012413
 40
0.2894431839012413
 10
136.7987055436
 20
103.833669706
 30
0.0
 10
136.8116188646587
 20
103.828696379336
 30
0.0
 10
136.8374599032468
 20
103.8187441814738
 30
0.0
 10
136.87305778647
 20
103.8126945550679
 30
0.0
 10
136.9032036745283
 20
103.8129318597966
 30
0.0
 10
136.9242840836876
 20
103.8173489601312
 30
0.0
 10
136.9410143758507
 20
103.8249126055268
 30
0.0
 10
136.9530005974508
 20
103.8331449120959
 30
0.0
 10
136.9626871855506
 20
103.842782386556
 30
0.0
 10
136.9727336733576
 20
103.8561769346318
 30
0.0
 10
136.9819027633976
 20
103.8749052487562
 30
0.0
 10
136.988720449259
 20
103.8992113438192
 30
0.0
 10
136.9926303128949
 20
103.9247076105241
 30
0.0
 10
136.9932744913953
 20
103.9422018437123
 30
0.0
 10
136.9935962257
 20
103.9509393209
 30
0.0
 11
136.7987055436
 21
103.833669706
 31
0.0
 11
136.8378607057398
 21
103.8200677879058
 31
0.0
 11
136.878797245879
 21
103.813272814484
 31
0.0
 11
136.9032035676657
 21
103.8137461630318
 31
0.0
 11
136.9268660017096
 21
103.8189896986007
 31
0.0
 11
136.9407996136758
 21
103.82531225762
 31
0.0
 11
136.9533703293402
 21
103.8340077346309
 31
0.0
 11
136.9624515368194
 21
103.8429810183316
 31
0.0
 11
136.9701417128485
 21
103.8531797114642
 31
0.0
 11
136.9811770750977
 21
103.8751053888163
 31
0.0
 11
136.9881034042781
 21
103.8988025462714
 31
0.0
 11
136.9921284002393
 21
103.9247653454441
 31
0.0
 11
136.9935962257
 21
103.9509393209
 31
0.0
  0
SPLINE
  5
C3
330
1F
100
AcDbEntity
  8
0
  6
Continuous
 62
     7
100
AcDbSpline
210
0.0
220
0.0
230
1.0
 70
     8
 71
     3
 72
    19
 73
    15
 74
    13
 42
0.0000000001
 43
0.0000000001
 44
0.00000001
 40
0.0
 40
0.0
 40
0.0
 40
0.0
 40
0.1045384651735517
 40
0.2092514256459923
 40
0.3087263832373893
 40
0.4083161306997326
 40
0.4883199216804774
 40
0.5682513318303573
 40
0.6382737893056327
 40
0.7082962789110725
 40
0.8338795436393164
 40
0.9595807700271757
 40
1.074624552600622
 40
1.189598319481466
 40
1.189598319481466
 40
1.189598319481466
 40
1.189598319481466
 10
136.7987055436
 20
103.833669706
 30
0.0
 10
136.7657644195412
 20
103.8453761288252
 30
0.0
 10
136.6998271861962
 20
103.868808514802
 30
0.0
 10
136.595976712037
 20
103.8771520527752
 30
0.0
 10
136.4950832180603
 20
103.862900463604
 30
0.0
 10
136.4067901727812
 20
103.8318706832532
 30
0.0
 10
136.3303220105009
 20
103.7909758738942
 30
0.0
 10
136.2672439734177
 20
103.7471701549051
 30
0.0
 10
136.2108685809511
 20
103.700177509866
 30
0.0
 10
136.1470419953855
 20
103.6387240197694
 30
0.0
 10
136.0763427637367
 20
103.5580041075354
 30
0.0
 10
136.0044812394541
 20
103.4591463746804
 30
0.0
 10
135.9410162026446
 20
103.3588694154978
 30
0.0
 10
135.9047188187938
 20
103.2913108137813
 30
0.0
 10
135.8865756512
 20
103.2575417951
 30
0.0
 11
136.7987055436
 21
103.833669706
 31
0.0
 11
136.698771151138
 21
103.8643520772267
 31
0.0
 11
136.594443179629
 21
103.8733230555297
 31
0.0
 11
136.4959039856544
 21
103.8597107655439
 31
0.0
 11
136.4017939717384
 21
103.8271312768993
 31
0.0
 11
136.3311148441499
 21
103.7896470469538
 31
0.0
 11
136.2652938406854
 21
103.744297010223
 31
0.0
 11
136.2114285554574
 21
103.699556920838
 31
0.0
 11
136.1609000110735
 21
103.6510799649415
 31
0.0
 11
136.0778668136622
 21
103.5568640187994
 31
0.0
 11
136.0035558146996
 21
103.4554802244899
 31
0.0
 11
135.9421896464097
 21
103.3581700744631
 31
0.0
 11
135.8865756512
 21
103.2575417951
 31
0.0
  0
SPLINE
  5
C4
330
1F
100
AcDbEntity
  8
0
  6
Continuous
 62
     7
100
AcDbSpline
210
0.0
220
0.0
230
1.0
 70
     8
 71
     3
 72
    17
 73
    13
 74
    11
 42
0.0000000001
 43
0.0000000001
 44
0.00000001
 40
0.0
 40
0.0
 40
0.0
 40
0.0
 40
0.046414971710312
 40
0.0930041341532296
 40
0.1389991043711799
 40
0.1849760066893655
 40
0.2751398215364716
 40
0.365728522337905
 40
0.4550419001656518
 40
0.544192928545923
 40
0.6327944775654926
 40
0.7213871622838297
 40
0.7213871622838297
 40
0.7213871622838297
 40
0.7213871622838297
 10
150.6550072978
 20
116.0118771315
 30
0.0
 10
150.6704967323015
 20
116.010977164928
 30
0.0
 10
150.7015337315983
 20
116.0091738542997
 30
0.0
 10
150.7463060908705
 20
115.9958643328939
 30
0.0
 10
150.7881691032463
 20
115.9760527277702
 30
0.0
 10
150.8389249432529
 20
115.9424232366989
 30
0.0
 10
150.8943566889731
 20
115.8902594970223
 30
0.0
 10
150.9487932655725
 20
115.8182261329339
 30
0.0
 10
150.9942981207878
 20
115.740750818658
 30
0.0
 10
151.0317291433101
 20
115.6598752436466
 30
0.0
 10
151.0632664953865
 20
115.5767822918114
 30
0.0
 10
151.0797691067815
 20
115.5200503693153
 30
0.0
 10
151.0880199997
 20
115.4916858271
 30
0.0
 11
150.6550072978
 21
116.0118771315
 31
0.0
 11
150.7012066447772
 21
116.0074083578702
 31
0.0
 11
150.7460291056505
 21
115.9947002085797
 31
0.0
 11
150.7876350180697
 21
115.9750919109199
 31
0.0
 11
150.8260805388879
 21
115.9498764895316
 31
0.0
 11
150.8923226068609
 21
115.8887086716986
 31
0.0
 11
150.9475706505211
 21
115.8169175414344
 31
0.0
 11
150.9930305561874
 21
115.7400392191594
 31
0.0
 11
151.0308337004932
 21
115.6592999589333
 31
0.0
 11
151.0621477917056
 21
115.5764165336891
 31
0.0
 11
151.0880199997
 21
115.4916858271
 31
0.0
  0
SPLINE
  5
C5
330
1F
100
AcDbEntity
  8
0
  6
Continuous
 62
     7
100
AcDbSpline
210
0.0
220
0.0
230
1.0
 70
     8
 71
     3
 72
    11
 73
     7
 74
     5
 42
0.0000000001
 43
0.0000000001
 44
0.00000001
 40
0.0
 40
0.0
 40
0.0
 40
0.0
 40
0.0396097711505762
 40
0.0793139643828691
 40
0.2768296850902216
 40
0.4765470268237201
 40
0.4765470268237201
 40
0.4765470268237201
 40
0.4765470268237201
 10
147.2993448651
 20
155.2750532925
 30
0.0
 10
147.3081471421978
 20
155.28491752289
 30
0.0
 10
147.3257726793301
 20
155.3046694980995
 30
0.0
 10
147.3964450849821
 20
155.3642619173224
 30
0.0
 10
147.5328267591258
 20
155.4284953949416
 30
0.0
 10
147.6656020002663
 20
155.4372763800291
 30
0.0
 10
147.732357567
 20
155.4416912064
 30
0.0
 11
147.2993448651
 21
155.2750532925
 31
0.0
 11
147.3264058071761
 21
155.303978011765
 31
0.0
 11
147.3565347819932
 21
155.3298366241929
 31
0.0
 11
147.5343119027198
 21
155.4159049416661
 31
0.0
 11
147.732357567
 21
155.4416912064
 31
0.0
  0
SPLINE
  5
C6
330
1F
100
AcDbEntity
  8
0
  6
Continuous
 62
     7
100
AcDbSpline
210
0.0
220
0.0
230
1.0
 70
     8
 71
     3
 72
    17
 73
    13
 74
    11
 42
0.0000000001
 43
0.0000000001
 44
0.00000001
 40
0.0
 40
0.0
 40
0.0
 40
0.0
 40
0.0885925198793699
 40
0.1771938735157168
 40
0.2663445205610288
 40
0.3556576276708785
 40
0.4462461944965407
 40
0.5364096409504949
 40
0.5823867488503915
 40
0.628382043466709
 40
0.674971729503921
 40
0.721387130769473
 40
0.721387130769473
 40
0.721387130769473
 40
0.721387130769473
 10
151.0880199997
 20
135.230511065
 30
0.0
 10
151.0797691338749
 20
135.2021465723881
 30
0.0
 10
151.0632665795123
 20
135.1454147588777
 30
0.0
 10
151.0317293500208
 20
135.0623220215487
 30
0.0
 10
150.9942982768319
 20
134.9814467780694
 30
0.0
 10
150.9487936189825
 20
134.9039716789065
 30
0.0
 10
150.894357900965
 20
134.8319380224841
 30
0.0
 10
150.8389264510971
 20
134.7797740037589
 30
0.0
 10
150.7881702179824
 20
134.7461449679965
 30
0.0
 10
150.746306787465
 20
134.7263335147409
 30
0.0
 10
150.7015341921567
 20
134.713023326519
 30
0.0
 10
150.6704968753606
 20
134.7112198226947
 30
0.0
 10
150.6550072978
 20
134.7103197606
 30
0.0
 11
151.0880199997
 21
135.230511065
 31
0.0
 11
151.0621478747891
 21
135.1457805053938
 31
0.0
 11
151.0308338524472
 21
135.0628972629925
 31
0.0
 11
150.9930307730815
 21
134.9821583934248
 31
0.0
 11
150.947571136999
 21
134.9052802262454
 31
0.0
 11
150.8923236996284
 21
134.8334887984597
 31
0.0
 11
150.8260820718899
 21
134.7723210468989
 31
0.0
 11
150.7876361916022
 21
134.7471057987394
 31
0.0
 11
150.7460299059051
 21
134.7274975321834
 31
0.0
 11
150.7012070426358
 21
134.714788882633
 31
0.0
 11
150.6550072978
 21
134.7103197606
 31
0.0
  0
SPLINE
  5
C7
330
1F
100
AcDbEntity
  8
0
  6
Continuous
 62
     7
100
AcDbSpline
210
0.0
220
0.0
230
1.0
 70
     8
 71
     3
 72
    11
 73
     7
 74
     5
 42
0.0000000001
 43
0.0000000001
 44
0.00000001
 40
0.0
 40
0.0
 40
0.0
 40
0.0
 40
0.0858880417989207
 40
0.1724696234366025
 40
0.3262585112389481
 40
0.4767798626194577
 40
0.4767798626194577
 40
0.4767798626194577
 40
0.4767798626194577
 10
150.6550072978
 20
155.4416912064
 30
0.0
 10
150.6836805766833
 20
155.4408635072012
 30
0.0
 10
150.7412586691409
 20
155.4392014251913
 30
0.0
 10
150.848224991757
 20
155.4197653817465
 30
0.0
 10
150.9751418188371
 20
155.3786827440377
 30
0.0
 10
151.0506642472031
 20
155.3093482830238
 30
0.0
 10
151.0880199997
 20
155.2750532925
 30
0.0
 11
150.6550072978
 21
155.4416912064
 31
0.0
 11
150.7407710512639
 21
155.4370722978882
 31
0.0
 11
150.8260916348649
 21
155.4223492447785
 31
0.0
 11
150.9702564119186
 21
155.3687998370457
 31
0.0
 11
151.0880199997
 21
155.2750532925
 31
0.0
  0
SPLINE
  5
C8
330
1F
100
AcDbEntity
  8
0
  6
Continuous
 62
     7
100
AcDbSpline
210
0.0
220
0.0
230
1.0
 70
     8
 71
     3
 72
    11
 73
     7
 74
     5
 42
0.0000000001
 43
0.0000000001
 44
0.00000001
 40
0.0
 40
0.0
 40
0.0
 40
0.0
 40
0.0858653726961092
 40
0.1724244651199896
 40
0.3262359599022787
 40
0.4767776582961349
 40
0.4767776582961349
 40
0.4767776582961349
 40
0.4767776582961349
 10
147.732357567
 20
95.2805056858
 30
0.0
 10
147.7036918624316
 20
95.28133341944752
 30
0.0
 10
147.6461288586004
 20
95.28299557413179
 30
0.0
 10
147.539170020412
 20
95.30242934155015
 30
0.0
 10
147.4122426364981
 20
95.34350324279495
 30
0.0
 10
147.3367069515206
 20
95.41284513719755
 30
0.0
 10
147.2993448651
 20
95.4471435996
 30
0.0
 11
147.732357567
 21
95.2805056858
 31
0.0
 11
147.6466164770902
 21
95.28512388126126
 31
0.0
 11
147.5613177716498
 21
95.2998414670494
 31
0.0
 11
147.4171283005961
 21
95.35338931821491
 31
0.0
 11
147.2993448651
 21
95.4471435996
 31
0.0
  0
SPLINE
  5
C9
330
1F
100
AcDbEntity
  8
0
  6
Continuous
 62
     7
100
AcDbSpline
210
0.0
220
0.0
230
1.0
 70
     8
 71
     3
 72
    17
 73
    13
 74
    11
 42
0.0000000001
 43
0.0000000001
 44
0.00000001
 40
0.0
 40
0.0
 40
0.0
 40
0.0
 40
0.0885985679321075
 40
0.1772066589678088
 40
0.2663651707111113
 40
0.355683583181437
 40
0.4462764248321697
 40
0.5364496693850697
 40
0.5824215302980429
 40
0.6284087158044813
 40
0.6749841996038928
 40
0.7213876902643559
 40
0.7213876902643559
 40
0.7213876902643559
 40
0.7213876902643559
 10
147.2993448651
 20
115.4916858271
 30
0.0
 10
147.3075965351961
 20
115.5200521913769
 30
0.0
 10
147.3241007623271
 20
115.576787968917
 30
0.0
 10
147.3556413393282
 20
115.6598867393267
 30
0.0
 10
147.3930721359626
 20
115.7407693653741
 30
0.0
 10
147.4385820857771
 20
115.8182487148736
 30
0.0
 10
147.4930384420156
 20
115.890275631107
 30
0.0
 10
147.5484773847993
 20
115.9424334307665
 30
0.0
 10
147.5992244933879
 20
115.9760731312454
 30
0.0
 10
147.6410774098755
 20
115.9958875025662
 30
0.0
 10
147.6858433433629
 20
116.0091807622232
 30
0.0
 10
147.7168719581018
 20
116.0109794508165
 30
0.0
 10
147.732357567
 20
116.0118771315
 30
0.0
 11
147.2993448651
 21
115.4916858271
 31
0.0
 11
147.3252195044732
 21
115.5764219426407
 31
0.0
 11
147.3565361119726
 21
115.6593114105586
 31
0.0
 11
147.3943410316952
 21
115.7400581025098
 31
0.0
 11
147.4398071864775
 21
115.8169385784157
 31
0.0
 11
147.495069843825
 21
115.8887236859329
 31
0.0
 11
147.561322785527
 21
115.9498936274812
 31
0.0
 11
147.5997599365818
 21
115.975112616648
 31
0.0
 11
147.6413571685391
 21
115.9947210720765
 31
0.0
 11
147.6861689418705
 21
116.0074167667027
 31
0.0
 11
147.732357567
 21
116.0118771315
 31
0.0
  0
SPLINE
  5
CA
330
1F
100
AcDbEntity
  8
0
  6
Continuous
 62
     7
100
AcDbSpline
210
0.0
220
0.0
230
1.0
 70
     8
 71
     3
 72
    15
 73
    11
 74
     9
 42
0.0000000001
 43
0.0000000001
 44
0.00000001
 40
0.0
 40
0.0
 40
0.0
 40
0.0
 40
0.7059601945188677
 40
1.412231218808811
 40
2.201545610477162
 40
2.990774745230583
 40
3.849160443003979
 40
4.707601669134558
 40
5.617419625035995
 40
6.527149777975841
 40
6.527149777975841
 40
6.527149777975841
 40
6.527149777975841
 10
135.4467111833
 20
140.0508698787
 30
0.0
 10
135.4078970747769
 20
139.8187126725392
 30
0.0
 10
135.3302517681262
 20
139.3542960428804
 30
0.0
 10
135.2579483404556
 20
138.6235683329438
 30
0.0
 10
135.2130535681393
 20
137.8631337465296
 30
0.0
 10
135.1991686716524
 20
137.0507257725337
 30
0.0
 10
135.2148614644071
 20
136.2153401149169
 30
0.0
 10
135.2618858026852
 20
135.3409286935363
 30
0.0
 10
135.3362387786435
 20
134.4511511182189
 30
0.0
 10
135.409888233075
 20
133.8490779474524
 30
0.0
 10
135.4467111833
 20
133.5480558887
 30
0.0
 11
135.4467111833
 21
140.0508698787
 31
0.0
 11
135.338081576927
 21
139.3533174399082
 31
0.0
 11
135.2650758627123
 21
138.6508297706616
 31
0.0
 11
135.2185582483798
 21
137.8628873105469
 31
0.0
 11
135.2040840641758
 21
137.0737909126745
 31
0.0
 11
135.2198571321141
 21
136.2155501443176
 31
0.0
 11
135.265075858718
 21
135.3583007025069
 31
0.0
 11
135.3420244373006
 21
134.4517425801921
 31
0.0
 11
135.4467111833
 21
133.5480558887
 31
0.0
  0
SPLINE
  5
CB
330
1F
100
AcDbEntity
  8
0
  6
Continuous
 62
     7
100
AcDbSpline
210
0.0
220
0.0
230
1.0
 70
     8
 71
     3
 72
    27
 73
    23
 74
    21
 42
0.0000000001
 43
0.0000000001
 44
0.00000001
 40
0.0
 40
0.0
 40
0.0
 40
0.0
 40
0.1984187743868354
 40
0.3968374365232678
 40
0.5029769397812273
 40
0.6091160619714222
 40
0.7197506973272938
 40
0.830387100698962
 40
0.9454468408808343
 40
1.060500806708218
 40
1.179956515046741
 40
1.299443223322762
 40
1.36092842189573
 40
1.42234530011977
 40
1.484949305605876
 40
1.547805801676063
 40
1.612731563729727
 40
1.676696646138535
 40
1.709481594167538
 40
1.743841351762682
 40
1.784580073356584
 40
1.821170232155882
 40
1.821170232155882
 40
1.821170232155882
 40
1.821170232155882
 10
134.9937455215
 20
141.8186291947
 30
0.0
 10
134.9937438631466
 20
141.7524896054926
 30
0.0
 10
134.9937405464407
 20
141.6202104644947
 30
0.0
 10
134.9942047588623
 20
141.4525515536165
 30
0.0
 10
134.9951858743779
 20
141.315655640327
 30
0.0
 10
134.9964675201348
 20
141.208024991217
 30
0.0
 10
134.9984827356204
 20
141.0989057656826
 30
0.0
 10
135.0015570549862
 20
140.9868358581885
 30
0.0
 10
135.0059713468251
 20
140.8733349428433
 30
0.0
 10
135.0122382630319
 20
140.7569753803703
 30
0.0
 10
135.0207695134334
 20
140.6392763183374
 30
0.0
 10
135.0306439455202
 20
140.5396047688428
 30
0.0
 10
135.040665876057
 20
140.4594277101756
 30
0.0
 10
135.0495989779126
 20
140.3982368503222
 30
0.0
 10
135.0600895930984
 20
140.3368228650189
 30
0.0
 10
135.0730149026619
 20
140.274681162143
 30
0.0
 10
135.0889085295076
 20
140.2127130270545
 30
0.0
 10
135.1056785011658
 20
140.1615283639247
 30
0.0
 10
135.1220250718401
 20
140.1207819296085
 30
0.0
 10
135.1395654673315
 20
140.0898124182485
 30
0.0
 10
135.1612335856613
 20
140.0571559251817
 30
0.0
 10
135.1866697601066
 20
140.0496108148183
 30
0.0
 10
135.1987055436
 20
140.0460406508
 30
0.0
 11
134.9937455215
 21
141.8186291947
 31
0.0
 11
134.9938329389455
 21
141.6202104395699
 31
0.0
 11
134.9944794309628
 21
141.4217928306435
 31
0.0
 11
134.9952697313516
 21
141.3156562696612
 31
0.0
 11
134.9965632820702
 21
141.2095250302176
 31
0.0
 11
134.9986478867201
 21
141.0989100359185
 31
0.0
 11
135.0017234638692
 21
140.9883163897348
 31
0.0
 11
135.0062575190649
 21
140.8733460189682
 31
0.0
 11
135.0125077593644
 21
140.7584619489289
 31
0.0
 11
135.0212923982262
 21
140.6393296847234
 31
0.0
 11
135.0332192198039
 21
140.5204397171833
 31
0.0
 11
135.0408781372348
 21
140.4594334008927
 31
0.0
 11
135.0497845511281
 21
140.3986657390786
 31
0.0
 11
135.0604425890784
 21
140.3369756448174
 31
0.0
 11
135.0733381622085
 21
140.2754561902371
 31
0.0
 11
135.0896696473218
 21
140.212618007798
 31
0.0
 11
135.1097987676214
 21
140.1519026861442
 31
0.0
 11
135.1224355595439
 21
140.1216510034278
 31
0.0
 11
135.1390222450713
 21
140.0915598950199
 31
0.0
 11
135.1649343197836
 21
140.0601241220661
 31
0.0
 11
135.1987055436
 21
140.0460406508
 31
0.0
  0
SPLINE
  5
CC
330
1F
100
AcDbEntity
  8
0
  6
Continuous
 62
     7
100
AcDbSpline
210
0.0
220
0.0
230
1.0
 70
     8
 71
     3
 72
    35
 73
    31
 74
    29
 42
0.0000000001
 43
0.0000000001
 44
0.00000001
 40
0.0
 40
0.0
 40
0.0
 40
0.0
 40
0.0224671170514752
 40
0.0469716776956107
 40
0.0706451029931997
 40
0.0934198435416303
 40
0.1394101663905437
 40
0.1859681377152874
 40
0.2323174996329361
 40
0.2785095837998218
 40
0.3247931273846556
 40
0.3711204777974082
 40
0.4638921740420874
 40
0.5566437642827621
 40
0.6496253659054587
 40
0.742610921499351
 40
0.8358149913405792
 40
0.929017838426107
 40
1.022429258483929
 40
1.115841003276779
 40
1.303223325703118
 40
1.490608110813629
 40
1.678620804279714
 40
1.86663254134856
 40
2.055121153398178
 40
2.243609949543289
 40
2.432418417724436
 40
2.621226802753165
 40
2.810196206361088
 40
2.99916561522234
 40
2.99916561522234
 40
2.99916561522234
 40
2.99916561522234
 10
135.1987055436
 20
133.5470416328
 30
0.0
 10
135.1913108454618
 20
133.5449818243446
 30
0.0
 10
135.1758508566788
 20
133.5406754125047
 30
0.0
 10
135.1608074980272
 20
133.5212220012743
 30
0.0
 10
135.1482937217701
 20
133.50138336408
 30
0.0
 10
135.1356935502282
 20
133.4731164239809
 30
0.0
 10
135.1224632391817
 20
133.4370399113139
 30
0.0
 10
135.109480846263
 20
133.3925557833427
 30
0.0
 10
135.0984862856189
 20
133.3475052010418
 30
0.0
 10
135.0890746515146
 20
133.3021896844886
 30
0.0
 10
135.0807068777083
 20
133.2566822178523
 30
0.0
 10
135.0707118824929
 20
133.1956985426804
 30
0.0
 10
135.0600408841857
 20
133.1191434973201
 30
0.0
 10
135.0495057612818
 20
133.0269020749483
 30
0.0
 10
135.0405860007677
 20
132.9344210874885
 30
0.0
 10
135.0330264745516
 20
132.841668770639
 30
0.0
 10
135.026583828742
 20
132.7487591526633
 30
0.0
 10
135.0210951536613
 20
132.6556466223414
 30
0.0
 10
135.0164050774649
 20
132.5624215180058
 30
0.0
 10
135.0110692244726
 20
132.4377996374786
 30
0.0
 10
135.005877498598
 20
132.2818226300093
 30
0.0
 10
135.0014959662738
 20
132.0942785104878
 30
0.0
 10
134.9984501968948
 20
131.9064989081023
 30
0.0
 10
134.9964390891559
 20
131.7183379647607
 30
0.0
 10
134.9951633661257
 20
131.5300122326186
 30
0.0
 10
134.9944231549263
 20
131.3414182312033
 30
0.0
 10
134.9940183283487
 20
131.1527167226246
 30
0.0
 10
134.9938343602462
 20
130.9638547048734
 30
0.0
 10
134.9937533240805
 20
130.7749389850806
 30
0.0
 10
134.9937481223602
 20
130.6489593800773
 30
0.0
 10
134.9937455215
 20
130.5859695767
 30
0.0
 11
135.1987055436
 21
133.5470416328
 31
0.0
 11
135.1777700777198
 21
133.5388882520912
 31
0.0
 11
135.1610863704779
 21
133.520940343995
 31
0.0
 11
135.1486185648599
 21
133.5008161076519
 31
0.0
 11
135.1390208485727
 21
133.4801624724
 31
0.0
 11
135.1230141628046
 21
133.437047558432
 31
0.0
 11
135.1097979318585
 21
133.392404799406
 31
0.0
 11
135.0987349212387
 21
133.3473950988271
 31
0.0
 11
135.089254124695
 21
133.3021864366419
 31
0.0
 11
135.0808568564284
 21
133.2566710294436
 31
0.0
 11
135.0733376940033
 21
133.2109579504323
 31
0.0
 11
135.0604202660116
 21
133.119089959934
 31
0.0
 11
135.0497842524342
 21
133.0269502143985
 31
0.0
 11
135.0408150557573
 21
132.9344022173845
 31
0.0
 11
135.0332190256039
 21
132.8417274426343
 31
0.0
 11
135.0267443150937
 21
132.7487485377215
 31
0.0
 11
135.0212326748531
 21
132.6557088014434
 31
0.0
 11
135.0165213595555
 21
132.5624162674152
 31
0.0
 11
135.0125076725925
 21
132.469090791889
 31
0.0
 11
135.0061870490559
 21
132.2818151007916
 31
0.0
 11
135.001723428164
 21
132.0944834863229
 31
0.0
 11
134.9986234843883
 21
131.906496350452
 31
0.0
 11
134.9965632721058
 21
131.7184959015137
 31
0.0
 11
134.9952528676451
 21
131.530011844595
 31
0.0
 11
134.9944794297472
 21
131.3415246353046
 31
0.0
 11
134.9940551848578
 21
131.1527166437545
 31
0.0
 11
134.9938515594958
 21
130.9639083685284
 31
0.0
 11
134.9937655335157
 21
130.7749389845016
 31
0.0
 11
134.9937455215
 21
130.5859695767
 31
0.0
  0
SPLINE
  5
CD
330
1F
100
AcDbEntity
  8
0
  6
Continuous
 62
     7
100
AcDbSpline
210
0.0
220
0.0
230
1.0
 70
     8
 71
     3
 72
    11
 73
     7
 74
     5
 42
0.0000000001
 43
0.0000000001
 44
0.00000001
 40
0.0
 40
0.0
 40
0.0
 40
0.0
 40
0.0396067480760114
 40
0.0793078945770603
 40
0.2768264669713901
 40
0.4765469382602238
 40
0.4765469382602238
 40
0.4765469382602238
 40
0.4765469382602238
 10
151.0880199997
 20
95.4471435996
 30
0.0
 10
151.0792184249104
 20
95.43728009805936
 30
0.0
 10
151.0615942977242
 20
95.41752958638283
 30
0.0
 10
150.9909235232913
 20
95.35793694348325
 30
0.0
 10
150.8545411439641
 20
95.29370188470128
 30
0.0
 10
150.7217639082476
 20
95.28492064359475
 30
0.0
 10
150.6550072978
 20
95.2805056858
 30
0.0
 11
151.0880199997
 21
95.4471435996
 31
0.0
 11
151.0609612569525
 21
95.41822096254737
 31
0.0
 11
151.0308349119444
 21
95.39236396407587
 31
0.0
 11
150.8530560097975
 21
95.30629278195245
 31
0.0
 11
150.6550072978
 21
95.2805056858
 31
0.0
  0
SPLINE
  5
CE
330
1F
100
AcDbEntity
  8
0
  6
Continuous
 62
     7
100
AcDbSpline
210
0.0
220
0.0
230
1.0
 70
     8
 71
     3
 72
    19
 73
    15
 74
    13
 42
0.0000000001
 43
0.0000000001
 44
0.00000001
 40
0.0
 40
0.0
 40
0.0
 40
0.0
 40
0.1037214442577788
 40
0.2077048967801682
 40
0.3081965148329867
 40
0.4087745519847678
 40
0.4905582518677511
 40
0.5722694204131117
 40
0.6447917332781639
 40
0.7173167610934387
 40
0.8507493764632076
 40
0.9843287148853214
 40
1.111803128164091
 40
1.239193738949443
 40
1.239193738949443
 40
1.239193738949443
 40
1.239193738949443
 10
136.7987055436
 20
141.705576733
 30
0.0
 10
136.7655537440081
 20
141.7158028614933
 30
0.0
 10
136.6991664008547
 20
141.736280950459
 30
0.0
 10
136.5952298900094
 20
141.739789612808
 30
0.0
 10
136.4946083808313
 20
141.7213989981828
 30
0.0
 10
136.4063847536748
 20
141.686601608867
 30
0.0
 10
136.3300707816865
 20
141.6423197140169
 30
0.0
 10
136.2669188770419
 20
141.5951503535677
 30
0.0
 10
136.2106111782529
 20
141.5446130532519
 30
0.0
 10
136.1462568063078
 20
141.4776228501084
 30
0.0
 10
136.0753439047018
 20
141.3891030033433
 30
0.0
 10
136.0033151906247
 20
141.2789353556977
 30
0.0
 10
135.9400919706234
 20
141.1657905017619
 30
0.0
 10
135.9044105135194
 20
141.0886652715722
 30
0.0
 10
135.8865756512
 20
141.0501153363
 30
0.0
 11
136.7987055436
 21
141.705576733
 31
0.0
 11
136.6983376336846
 21
141.7317381675582
 31
0.0
 11
136.5944431797226
 21
141.7360394271893
 31
0.0
 11
136.4955380724197
 21
141.7182533357617
 31
0.0
 11
136.4017939717817
 21
141.6818118051563
 31
0.0
 11
136.330925905695
 21
141.640991580075
 31
0.0
 11
136.2652938406532
 21
141.5923176948448
 31
0.0
 11
136.2112364075141
 21
141.543972273286
 31
0.0
 11
136.1609000111268
 21
141.4917599485116
 31
0.0
 11
136.0771257672742
 21
141.3879036106629
 31
0.0
 11
136.0035558146317
 21
141.2764096569188
 31
0.0
 11
135.9415293808048
 21
141.1650433803919
 31
0.0
 11
135.8865756512
 21
141.0501153363
 31
0.0
  0
SPLINE
  5
CF
330
1F
100
AcDbEntity
  8
0
  6
Continuous
 62
     7
100
AcDbSpline
210
0.0
220
0.0
230
1.0
 70
     8
 71
     3
 72
    23
 73
    19
 74
    17
 42
0.0000000001
 43
0.0000000001
 44
0.00000001
 40
0.0
 40
0.0
 40
0.0
 40
0.0
 40
0.0673001185503161
 40
0.1346029788242138
 40
0.1680432784369117
 40
0.2014739084657056
 40
0.2346953928064318
 40
0.2679495049215707
 40
0.3010071809782102
 40
0.3339463089655459
 40
0.3663371066505072
 40
0.3992515325319691
 40
0.4324467180938612
 40
0.4643835783449427
 40
0.4811819319003958
 40
0.4980291548818683
 40
0.5155418557286261
 40
0.5331155180423804
 40
0.5331155180423804
 40
0.5331155180423804
 40
0.5331155180423804
 10
136.9895430579
 20
130.1288540793
 30
0.0
 10
136.9882057008729
 20
130.1512489446794
 30
0.0
 10
136.9855309323364
 20
130.1960395877772
 30
0.0
 10
136.9800327794571
 20
130.2518011202153
 30
0.0
 10
136.9743909607919
 20
130.2961708025863
 30
0.0
 10
136.9693976581346
 20
130.3291628542964
 30
0.0
 10
136.9635303180363
 20
130.3619492028394
 30
0.0
 10
136.956559690176
 20
130.3943940830893
 30
0.0
 10
136.9482667715865
 20
130.4264353566184
 30
0.0
 10
136.9384075599493
 20
130.4577265204288
 30
0.0
 10
136.9266131580383
 20
130.4883284985813
 30
0.0
 10
136.9110769667366
 20
130.5173648359967
 30
0.0
 10
136.8914103298015
 20
130.543693138468
 30
0.0
 10
136.8679620913742
 20
130.55970731523
 30
0.0
 10
136.8460886204734
 20
130.5633570874869
 30
0.0
 10
136.8289028658651
 20
130.5615647420227
 30
0.0
 10
136.812779054221
 20
130.5545881943576
 30
0.0
 10
136.8034021445035
 20
130.5475660644967
 30
0.0
 10
136.7987055436
 20
130.5440488992
 30
0.0
 11
136.9895430579
 21
130.1288540793
 31
0.0
 11
136.9850986888916
 21
130.1960072887617
 31
0.0
 11
136.9785053440184
 21
130.262986410915
 31
0.0
 11
136.9742594771265
 21
130.2961560695283
 31
0.0
 11
136.9692389714849
 21
130.3292075679395
 31
0.0
 11
136.9633445474267
 21
130.361901952577
 31
0.0
 11
136.9563204370543
 21
130.3944057653694
 31
0.0
 11
136.9479811207185
 21
130.4263942906451
 31
0.0
 11
136.9380230504917
 21
130.4577921088802
 31
0.0
 11
136.9260707436665
 21
130.4878970276847
 31
0.0
 11
136.9104189276717
 21
130.5168518215395
 31
0.0
 11
136.8897095201153
 21
130.5427948511071
 31
0.0
 11
136.8626389562196
 21
130.5597402815551
 31
0.0
 11
136.8460847350476
 21
130.5625937782802
 31
0.0
 11
136.8293367596253
 21
130.5607677877424
 31
0.0
 11
136.8131757516276
 21
130.5540211951621
 31
0.0
 11
136.7987055436
 21
130.5440488992
 31
0.0
  0
SPLINE
  5
D0
330
1F
100
AcDbEntity
  8
0
  6
Continuous
 62
     7
100
AcDbSpline
210
0.0
220
0.0
230
1.0
 70
     8
 71
     3
 72
     9
 73
     5
 74
     3
 42
0.0000000001
 43
0.0000000001
 44
0.00000001
 40
0.0
 40
0.0
 40
0.0
 40
0.0
 40
0.071300800819648
 40
0.1425989014189578
 40
0.1425989014189578
 40
0.1425989014189578
 40
0.1425989014189578
 10
136.993560479
 20
129.986321106
 30
0.0
 10
136.9932983648874
 20
130.0100885363431
 30
0.0
 10
136.9927741465888
 20
130.0576224969372
 30
0.0
 10
136.9906200738666
 20
130.1051105182532
 30
0.0
 10
136.9895430579
 20
130.1288540793
 30
0.0
 11
136.993560479
 21
129.986321106
 31
0.0
 11
136.992366657625
 21
130.057611911775
 31
0.0
 11
136.9895430579
 21
130.1288540793
 31
0.0
  0
SPLINE
  5
D1
330
1F
100
AcDbEntity
  8
0
  6
Continuous
 62
     7
100
AcDbSpline
210
0.0
220
0.0
230
1.0
 70
     8
 71
     3
 72
    27
 73
    23
 74
    21
 42
0.0000000001
 43
0.0000000001
 44
0.00000001
 40
0.0
 40
0.0
 40
0.0
 40
0.0
 40
0.110012512708768
 40
0.2200277365939135
 40
0.3300677973775499
 40
0.4401077965034439
 40
0.5501687867221084
 40
0.6602297674196809
 40
0.7703067275008679
 40
0.880388342370084
 40
0.9904732229169
 40
1.100583133475221
 40
1.155729536009813
 40
1.210732446737192
 40
1.265569397429984
 40
1.320943000378493
 40
1.432333428818982
 40
1.541000823160729
 40
1.596270656430928
 40
1.651829532656107
 40
1.707159214818115
 40
1.762420383782991
 40
1.762420383782991
 40
1.762420383782991
 40
1.762420383782991
 10
135.8865756512
 20
131.7756382068
 30
0.0
 10
135.8952633014501
 20
131.7400105337467
 30
0.0
 10
135.912638816051
 20
131.6687543096226
 30
0.0
 10
135.9408827520562
 20
131.5624108216198
 30
0.0
 10
135.9709246979275
 20
131.4565537599804
 30
0.0
 10
136.0031481771907
 20
131.3513211190904
 30
0.0
 10
136.0377441441422
 20
131.2468346797395
 30
0.0
 10
136.0751337358528
 20
131.1432977971185
 30
0.0
 10
136.1157090956172
 20
131.0409529374871
 30
0.0
 10
136.1601185055121
 20
130.9401948823653
 30
0.0
 10
136.2089730667832
 20
130.8414843346182
 30
0.0
 10
136.2548208506603
 20
130.7618721268926
 30
0.0
 10
136.2952796342032
 20
130.7005784567533
 30
0.0
 10
136.3277390771293
 20
130.6561589562222
 30
0.0
 10
136.3626681487919
 20
130.6135191939373
 30
0.0
 10
136.4140564815287
 20
130.5603618407891
 30
0.0
 10
136.4871578264899
 20
130.5036265804596
 30
0.0
 10
136.5761045707387
 20
130.4711961253059
 30
0.0
 10
136.6499945826609
 20
130.4730813605328
 30
0.0
 10
136.7040907119766
 20
130.4866354091641
 30
0.0
 10
136.7543317478912
 20
130.5109357767674
 30
0.0
 10
136.7839203886111
 20
130.5330157513813
 30
0.0
 10
136.7987055436
 20
130.5440488992
 30
0.0
 11
135.8865756512
 21
131.7756382068
 31
0.0
 11
135.9130016634713
 21
131.6688467332268
 31
0.0
 11
135.9411798243152
 21
131.5625013490395
 31
0.0
 11
135.9712875754028
 21
131.4566602497362
 31
0.0
 11
136.0035411147521
 21
131.3514532603911
 31
0.0
 11
136.0382090813212
 21
131.2469948779516
 31
0.0
 11
136.0756624012225
 21
131.1435025192942
 31
0.0
 11
136.1163470047622
 21
131.0412200663732
 31
0.0
 11
136.1608581047191
 21
130.9405387676487
 31
0.0
 11
136.2099926187023
 21
130.8420274461641
 31
0.0
 11
136.2652329928505
 21
130.7467767586751
 31
0.0
 11
136.2956663777996
 21
130.7007883384691
 31
0.0
 11
136.3281759920935
 21
130.6564211753082
 31
0.0
 11
136.3631134311931
 21
130.6141545630658
 31
0.0
 11
136.4016825703499
 21
130.5744222411075
 31
0.0
 11
136.4911311600972
 21
130.5080386788321
 31
0.0
 11
136.5943330327784
 21
130.474009631415
 31
0.0
 11
136.6495922956349
 21
130.4750905283915
 31
0.0
 11
136.7035199178537
 21
130.4884546703107
 31
0.0
 11
136.7533882029529
 21
130.5124239813022
 31
0.0
 11
136.7987055436
 21
130.5440488992
 31
0.0
  0
SPLINE
  5
D2
330
1F
100
AcDbEntity
  8
0
  6
Continuous
 62
     7
100
AcDbSpline
210
0.0
220
0.0
230
1.0
 70
     8
 71
     3
 72
    25
 73
    21
 74
    19
 42
0.0000000001
 43
0.0000000001
 44
0.00000001
 40
0.0
 40
0.0
 40
0.0
 40
0.0
 40
0.020084757083009
 40
0.0402074695875569
 40
0.0623257309878749
 40
0.0845392975320677
 40
0.1048528518342822
 40
0.1251579483848691
 40
0.1438116360644579
 40
0.1624497859879019
 40
0.197216923399874
 40
0.2320369263028771
 40
0.2649767171596204
 40
0.2978947205384453
 40
0.329682898524429
 40
0.3614753513901491
 40
0.3924441896309244
 40
0.4234129050553745
 40
0.483512299833081
 40
0.5436123644470161
 40
0.5436123644470161
 40
0.5436123644470161
 40
0.5436123644470161
 10
136.7987055436
 20
141.705576733
 30
0.0
 10
136.805141146522
 20
141.7036319207594
 30
0.0
 10
136.8180245141274
 20
141.6997386210451
 30
0.0
 10
136.8391387883821
 20
141.6998325068711
 30
0.0
 10
136.8600088637063
 20
141.7059065322436
 30
0.0
 10
136.8787255093405
 20
141.7169777694192
 30
0.0
 10
136.8943267392719
 20
141.731097789294
 30
0.0
 10
136.9069162413988
 20
141.7463840115397
 30
0.0
 10
136.9177336218306
 20
141.7622674647779
 30
0.0
 10
136.9297238449283
 20
141.7831022093149
 30
0.0
 10
136.9420430961103
 20
141.8098712884465
 30
0.0
 10
136.9535039428732
 20
141.8420984650859
 30
0.0
 10
136.9628237041164
 20
141.8743538098322
 30
0.0
 10
136.9702780740526
 20
141.9060492079065
 30
0.0
 10
136.9763620806189
 20
141.937642194957
 30
0.0
 10
136.9812366965893
 20
141.9687848865648
 30
0.0
 10
136.9851584651784
 20
141.9997854769962
 30
0.0
 10
136.9891766954738
 20
142.0402681002477
 30
0.0
 10
136.9925159400065
 20
142.09056979913
 30
0.0
 10
136.993236129131
 20
142.1306339476214
 30
0.0
 10
136.9935962257
 20
142.1506661335
 30
0.0
 11
136.7987055436
 21
141.705576733
 31
0.0
 11
136.8181964635493
 21
141.7007288977498
 31
0.0
 11
136.8383191733278
 21
141.7007184234874
 31
0.0
 11
136.8595998523976
 21
141.7067475350057
 31
0.0
 11
136.8787972458644
 21
141.7179235191994
 31
0.0
 11
136.8939641465083
 21
141.7314366836418
 31
0.0
 11
136.9070067768774
 21
141.7469990336887
 31
0.0
 11
136.9175367022948
 21
141.7623964599266
 31
0.0
 11
136.9268660016663
 21
141.7785316638548
 31
0.0
 11
136.9415519454826
 21
141.8100447864873
 31
0.0
 11
136.9533703293441
 21
141.8427977772678
 31
0.0
 11
136.9625583361718
 21
141.8744302029133
 31
0.0
 11
136.9701417128618
 21
141.9064628010662
 31
0.0
 11
136.976179178942
 21
141.9376723711209
 31
0.0
 11
136.981122698572
 21
141.9690781297153
 31
0.0
 11
136.985020429861
 21
141.9998007050107
 31
0.0
 11
136.988103404291
 21
142.0306155813483
 31
0.0
 11
136.9920321883845
 21
142.0905864234984
 31
0.0
 11
136.9935962257
 21
142.1506661335
 31
0.0
  0
SPLINE
  5
D3
330
1F
100
AcDbEntity
  8
0
  6
Continuous
 62
     7
100
AcDbSpline
210
0.0
220
0.0
230
1.0
 70
     8
 71
     3
 72
    11
 73
     7
 74
     5
 42
0.0000000001
 43
0.0000000001
 44
0.00000001
 40
0.0
 40
0.0
 40
0.0
 40
0.0
 40
0.114486908807294
 40
0.2289786248514615
 40
0.5593749201458944
 40
0.8897492709507089
 40
0.8897492709507089
 40
0.8897492709507089
 40
0.8897492709507089
 10
135.8865756512
 20
103.2575417951
 30
0.0
 10
135.8689157547144
 20
103.2237109454238
 30
0.0
 10
135.8335952202146
 20
103.1560478255344
 30
0.0
 10
135.7452842534366
 20
102.9918289280825
 30
0.0
 10
135.619227615982
 20
102.766164079587
 30
0.0
 10
135.5042153876581
 20
102.5782989939677
 30
0.0
 10
135.4467111833
 20
102.4843695707
 30
0.0
 11
135.8865756512
 21
103.2575417951
 31
0.0
 11
135.8333886396628
 21
103.1561593799976
 31
0.0
 11
135.7792308555433
 21
103.0552867501023
 31
0.0
 11
135.6173309738848
 21
102.7672760901203
 31
0.0
 11
135.4467111833
 21
102.4843695707
 31
0.0
  0
SPLINE
  5
D4
330
1F
100
AcDbEntity
  8
0
  6
Continuous
 62
     7
100
AcDbSpline
210
0.0
220
0.0
230
1.0
 70
     8
 71
     3
 72
    27
 73
    23
 74
    21
 42
0.0000000001
 43
0.0000000001
 44
0.00000001
 40
0.0
 40
0.0
 40
0.0
 40
0.0
 40
0.179360977034418
 40
0.3587208544341599
 40
0.4410792119702716
 40
0.5234388802203781
 40
0.6008752724992414
 40
0.6783083853296706
 40
0.7508855853071522
 40
0.8234767665637989
 40
0.891616260617381
 40
0.9597255709176177
 40
0.9925260806155013
 40
1.025318043721613
 40
1.057920649922514
 40
1.09056131955991
 40
1.124894913124606
 40
1.159116445906837
 40
1.179139500314945
 40
1.199267232906224
 40
1.231506795020495
 40
1.263337515830582
 40
1.263337515830582
 40
1.263337515830582
 40
1.263337515830582
 10
134.9937455215
 20
103.6786965668
 30
0.0
 10
134.9937314482492
 20
103.6189095912736
 30
0.0
 10
134.993703301834
 20
103.4993360067657
 30
0.0
 10
134.9941470315617
 20
103.3523094375092
 30
0.0
 10
134.9951504806457
 20
103.2376207173139
 30
0.0
 10
134.9964013439151
 20
103.1569114158127
 30
0.0
 10
134.9983896500937
 20
103.077858205025
 30
0.0
 10
135.0014029880474
 20
103.0020990175074
 30
0.0
 10
135.0057786498633
 20
102.9280213011924
 30
0.0
 10
135.0119373318034
 20
102.8571739894211
 30
0.0
 10
135.0204316698285
 20
102.788061630796
 30
0.0
 10
135.0303303744936
 20
102.732543383288
 30
0.0
 10
135.0405480866802
 20
102.6891518308984
 30
0.0
 10
135.0494818878562
 20
102.657649429917
 30
0.0
 10
135.0601029022363
 20
102.6267223814392
 30
0.0
 10
135.0731239078501
 20
102.5961546082337
 30
0.0
 10
135.0891278031187
 20
102.5663869934811
 30
0.0
 10
135.1063286965174
 20
102.542264972925
 30
0.0
 10
135.1232267442026
 20
102.524031377093
 30
0.0
 10
135.1418320515931
 20
102.5086534015501
 30
0.0
 10
135.1667708957744
 20
102.4945044926056
 30
0.0
 10
135.1881060418271
 20
102.4916374355732
 30
0.0
 10
135.1987055436
 20
102.4902130546
 30
0.0
 11
134.9937455215
 21
103.6786965668
 31
0.0
 11
134.9938005580642
 21
103.4993355982095
 31
0.0
 11
134.9944794309686
 21
103.3199770055733
 31
0.0
 11
134.9952430970231
 21
103.2376221886517
 31
0.0
 11
134.9965632820534
 21
103.1552731020401
 31
0.0
 11
134.9985781297001
 21
103.0778629267521
 31
0.0
 11
135.0017234638597
 21
103.0004937220539
 31
0.0
 11
135.0061127545348
 21
102.928049370418
 31
0.0
 11
135.0125077593499
 21
102.8557404255381
 31
0.0
 11
135.0210422412661
 21
102.7881375168114
 31
0.0
 11
135.0332192197847
 21
102.7211255824733
 31
0.0
 11
135.0407875335769
 21
102.6892101620189
 31
0.0
 11
135.0497845511434
 21
102.6576765843712
 31
0.0
 11
135.0604641156679
 21
102.6268727399252
 31
0.0
 11
135.0733381621836
 21
102.5968782030778
 31
0.0
 11
135.0897652452253
 21
102.5667294619796
 31
0.0
 11
135.1097987675515
 21
102.5389847095177
 31
0.0
 11
135.1235005741632
 21
102.5243839149021
 31
0.0
 11
135.1390222450934
 21
102.5115697293721
 31
0.0
 11
135.167489036682
 21
102.4964359544968
 31
0.0
 11
135.1987055436
 21
102.4902130546
 31
0.0
  0
SPLINE
  5
D5
330
1F
100
AcDbEntity
  8
0
  6
Continuous
 62
     7
100
AcDbSpline
210
0.0
220
0.0
230
1.0
 70
     8
 71
     3
 72
    17
 73
    13
 74
    11
 42
0.0000000001
 43
0.0000000001
 44
0.00000001
 40
0.0
 40
0.0
 40
0.0
 40
0.0
 40
0.0464036383759385
 40
0.0929793006390176
 40
0.1389666755286287
 40
0.1849386862304269
 40
0.2751119356763445
 40
0.3657048667841889
 40
0.4550230513710661
 40
0.5441812924481491
 40
0.6327892351866181
 40
0.7213876675031613
 40
0.7213876675031613
 40
0.7213876675031613
 40
0.7213876675031613
 10
147.732357567
 20
134.7103197606
 30
0.0
 10
147.7168719088909
 20
134.711217471918
 30
0.0
 10
147.6858431854693
 20
134.7130162224781
 30
0.0
 10
147.6410771417544
 20
134.7263097040899
 30
0.0
 10
147.5992240376328
 20
134.7461240555016
 30
0.0
 10
147.5484767342172
 20
134.7797636854695
 30
0.0
 10
147.4930378593684
 20
134.8319217167014
 30
0.0
 10
147.4385818387105
 20
134.9039488168089
 30
0.0
 10
147.3930719856997
 20
134.9814280524201
 30
0.0
 10
147.3556411974761
 20
135.0623104462063
 30
0.0
 10
147.3241007049365
 20
135.1454090525468
 30
0.0
 10
147.3075965164598
 20
135.202144742491
 30
0.0
 10
147.2993448651
 20
135.230511065
 30
0.0
 11
147.732357567
 21
134.7103197606
 31
0.0
 11
147.6861688042704
 21
134.7147802372599
 31
0.0
 11
147.6413568911974
 21
134.7274760933549
 31
0.0
 11
147.5997594640097
 21
134.7470845787782
 31
0.0
 11
147.5613221386117
 21
134.7723035752733
 31
0.0
 11
147.4950693069068
 21
134.8334736431719
 31
0.0
 11
147.4398068334993
 21
134.9052590051867
 31
0.0
 11
147.3943408528689
 21
134.9821393193328
 31
0.0
 11
147.3565360004146
 21
135.0628857439154
 31
0.0
 11
147.325219446558
 21
135.1457750735718
 31
0.0
 11
147.2993448651
 21
135.230511065
 31
0.0
  0
SPLINE
  5
D6
330
1F
100
AcDbEntity
  8
FASEN
  6
Continuous
 62
     7
100
AcDbSpline
210
0.0
220
0.0
230
1.0
 70
     8
 71
     3
 72
    21
 73
    17
 74
    15
 42
0.0000000001
 43
0.0000000001
 44
0.00000001
 40
0.0
 40
0.0
 40
0.0
 40
0.0
 40
0.0027216465673629
 40
0.0055309962050848
 40
0.0138345776365568
 40
0.0220391130265984
 40
0.0357576544152274
 40
0.0495301546518731
 40
0.0687569607506187
 40
0.087960574410117
 40
0.1125763739539976
 40
0.1372010097952457
 40
0.1671592589090045
 40
0.1971141969362055
 40
0.2727607190461695
 40
0.348409394536288
 40
0.348409394536288
 40
0.348409394536288
 40
0.348409394536288
 10
154.4161233438
 20
156.8610628748
 30
0.0
 10
154.4152095402743
 20
156.8610579282359
 30
0.0
 10
154.4133524865724
 20
156.8610478757081
 30
0.0
 10
154.4089609016879
 20
156.8595123899681
 30
0.0
 10
154.4026082435604
 20
156.8583941977605
 30
0.0
 10
154.3925919901076
 20
156.857300529346
 30
0.0
 10
154.3808364782966
 20
156.855424796731
 30
0.0
 10
154.3655295015205
 20
156.8525647240493
 30
0.0
 10
154.3483680973265
 20
156.8496795678296
 30
0.0
 10
154.327615642696
 20
156.8463670542462
 30
0.0
 10
154.3051032975965
 20
156.8426641764787
 30
0.0
 10
154.2790603740786
 20
156.8383397029412
 30
0.0
 10
154.2512500737722
 20
156.8337942221426
 30
0.0
 10
154.2066425752196
 20
156.8265833593742
 30
0.0
 10
154.1469906956636
 20
156.8170000052296
 30
0.0
 10
154.0971757879046
 20
156.8091363797635
 30
0.0
 10
154.072267979518
 20
156.805204511069
 30
0.0
 11
154.4161233438
 21
156.8610628748
 31
0.0
 11
154.413406466204
 21
156.8609018277068
 31
0.0
 11
154.4106968547346
 21
156.8601599038081
 31
0.0
 11
154.4025651637339
 21
156.8584791105256
 31
0.0
 11
154.3944254527256
 21
156.8574497876087
 31
0.0
 11
154.3808657462297
 21
156.8553682647097
 31
0.0
 11
154.3673102854239
 21
156.8529328499384
 31
0.0
 11
154.3483564481567
 21
156.8497045182318
 31
0.0
 11
154.3293992063284
 21
156.8466382893024
 31
0.0
 11
154.3051072595707
 21
156.8426584765046
 31
0.0
 11
154.2808126891166
 21
156.8386402011575
 31
0.0
 11
154.2512475929354
 21
156.8338026627586
 31
0.0
 11
154.2216774808687
 21
156.8290165594819
 31
0.0
 11
154.1469860033102
 21
156.8170340936482
 31
0.0
 11
154.072267979518
 21
156.805204511069
 31
0.0
  0
SPLINE
  5
D7
330
1F
100
AcDbEntity
  8
ACHSEN
  6
Continuous
 62
     7
100
AcDbSpline
210
0.0
220
0.0
230
1.0
 70
     8
 71
     3
 72
    15
 73
    11
 74
     9
 42
0.0000000001
 43
0.0000000001
 44
0.00000001
 40
0.0
 40
0.0
 40
0.0
 40
0.0
 40
0.7036199270444032
 40
1.407365568520413
 40
2.995285720769161
 40
4.58329955768833
 40
6.171264475936282
 40
7.759111163592117
 40
8.45827083723198
 40
9.157317424756277
 40
9.157317424756277
 40
9.157317424756277
 40
9.157317424756277
 10
126.3730437657
 20
145.7646167815
 30
0.0
 10
126.1410313898178
 20
145.7302245988348
 30
0.0
 10
125.6769651848443
 20
145.6614340887187
 30
0.0
 10
124.6860618672967
 20
145.5384920259303
 30
0.0
 10
123.3980801368935
 20
145.4175199793652
 30
0.0
 10
121.8114336839312
 20
145.3404537455135
 30
0.0
 10
120.2229359325944
 20
145.3361693088515
 30
0.0
 10
118.932041558447
 20
145.3921545314498
 30
0.0
 10
117.9393578112689
 20
145.4660506817357
 30
0.0
 10
117.4755617215029
 20
145.5121884366436
 30
0.0
 10
117.2436824324
 20
145.5352554483
 30
0.0
 11
126.3730437657
 21
145.7646167815
 31
0.0
 11
125.6766267477209
 21
145.6641959728838
 31
0.0
 11
124.9783145351268
 21
145.5769149231749
 31
0.0
 11
123.3972579032725
 21
145.4294349693258
 31
0.0
 11
121.8111047445623
 21
145.3525837926242
 31
0.0
 11
120.2231454566885
 21
145.348355123635
 31
0.0
 11
118.6367552049588
 21
145.4163483050344
 31
0.0
 11
117.9395761939232
 21
145.4689379980896
 31
0.0
 11
117.2436824324
 21
145.5352554483
 31
0.0
  0
SPLINE
  5
D8
330
1F
100
AcDbEntity
  8
ACHSEN
  6
Continuous
 62
     7
100
AcDbSpline
210
0.0
220
0.0
230
1.0
 70
     8
 71
     3
 72
    13
 73
     9
 74
     7
 42
0.0000000001
 43
0.0000000001
 44
0.00000001
 40
0.0
 40
0.0
 40
0.0
 40
0.0
 40
0.0909434545737197
 40
0.1818898142962607
 40
0.4124617941424611
 40
0.6430303334991135
 40
1.299474074857463
 40
1.955922659018343
 40
1.955922659018343
 40
1.955922659018343
 40
1.955922659018343
 10
107.4722527184
 20
145.2897562513
 30
0.0
 10
107.4422190476156
 20
145.2856376575861
 30
0.0
 10
107.3821507466342
 20
145.2774003385917
 30
0.0
 10
107.2461596267706
 20
145.2571627078118
 30
0.0
 10
107.0641415894986
 20
145.2300331677384
 30
0.0
 10
106.6959682673665
 20
145.1732384215825
 30
0.0
 10
106.1884617460309
 20
145.0884539866067
 30
0.0
 10
105.7586093988022
 20
145.0062512597413
 30
0.0
 10
105.5436824324
 20
144.9651497447
 30
0.0
 11
107.4722527184
 21
145.2897562513
 31
0.0
 11
107.3821762406602
 21
145.2772286781992
 31
0.0
 11
107.292195415748
 21
145.2640115871841
 31
0.0
 11
107.064169759428
 21
145.2298394062463
 31
0.0
 11
106.8363047264234
 21
145.1946346043744
 31
0.0
 11
106.1889235250611
 21
145.0859333362524
 31
0.0
 11
105.5436824324
 21
144.9651497447
 31
0.0
  0
MTEXT
  5
FC
330
1F
100
AcDbEntity
  8
0
 62
     5
100
AcDbMText
 10
31.6233917588
 20
88.6001721763
 30
0.0
 40
3.5
 41
0.0
 71
     1
 72
     1
  3
F\U+00fcr diese Unterlage behalten wir das Ur-\Pheberrecht. Sie darf nur f\U+00fcr den von uns \Pbestimmten Zweck benutzt und ohne unsere \PZustimmung weder vervielf\U+00e4ltigt noch\PDritten zug\U+00e4nglich gemacht werden\P \PWe own the copyright 
  3
of this document. It \Pdetermined and may neither be copied or \Pmade accessible to outsiders without our\Ppermission.\P \PCe plan reste notre propri\U+00e9t\U+00e9. Il ne peut\P\U+00eatre utilis\U+00e9, copi\U+00e9 ou reproduit sans notre\Paccord.\
  7
CONVERTER_11
 73
     1
 44
1.0
  0
DIMENSION
  5
108
330
1F
100
AcDbEntity
  8
1
100
AcDbDimension
  2
*D1
 10
271.025623955999
 20
93.86109844610003
 30
0.0
 11
267.275623955999
 21
126.3918183178424
 31
0.0
 70
    32
  1
<>
 71
     5
 42
-1.0
 53
90.0
  3
ME10_DIM_10
100
AcDbAlignedDimension
 13
235.1936824324
 23
156.8610984461
 33
0.0
 14
235.1936824324
 24
93.8610984461
 34
0.0
 50
90.0
100
AcDbRotatedDimension
  0
DIMENSION
  5
113
330
1F
100
AcDbEntity
  8
0
100
AcDbDimension
  2
*D2
 10
262.319089946
 20
150.3610984461
 30
0.0
 11
257.944089946
 21
125.3610984461
 31
0.0
 70
    32
  1
{\Fgdt;n}50
 71
     5
 42
-1.0
 53
90.0
  3
ME10_DIM_11
100
AcDbAlignedDimension
 13
223.6936824324
 23
100.3610984461
 33
0.0
 14
223.6936824324
 24
150.3610984461
 34
0.0
 50
90.0
100
AcDbRotatedDimension
  0
DIMENSION
  5
11E
330
1F
100
AcDbEntity
  8
0
100
AcDbDimension
  2
*D3
 10
237.1936824324
 20
184.2120690548
 30
0.0
 11
187.1936824324
 21
188.5870690548
 31
0.0
 70
    32
  1
100
 71
     5
 42
-1.0
 53
0.00013888888889
  3
ME10_DIM_12
100
AcDbAlignedDimension
 13
137.1936824324
 23
157.9019968309
 33
0.0
 14
237.1936824324
 24
154.8969968309
 34
0.0
100
AcDbRotatedDimension
  0
DIMENSION
  5
129
330
1F
100
AcDbEntity
  8
0
100
AcDbDimension
  2
*D4
 10
253.541836764
 20
105.3610984461
 30
0.0
 11
249.166836764
 21
125.3610984461
 31
0.0
 70
    32
  1
{\Fgdt;n}40
 71
     5
 42
-1.0
 53
90.0
  3
ME10_DIM_13
100
AcDbAlignedDimension
 13
223.6936824324
 23
145.3610984461
 33
0.0
 14
223.6936824324
 24
105.3610984461
 34
0.0
 50
90.0
100
AcDbRotatedDimension
  0
DIMENSION
  5
134
330
1F
100
AcDbEntity
  8
0
100
AcDbDimension
  2
*D5
 10
222.1936824324
 20
175.3933201297
 30
0.0
 11
179.6936824324
 21
179.7683201297
 31
0.0
 70
    32
  1
85
 71
     5
 42
-1.0
 53
0.00013888888889
  3
ME10_DIM_14
100
AcDbAlignedDimension
 13
137.1936824324
 23
159.2322388371
 33
0.0
 14
222.1936824324
 24
148.491950501
 34
0.0
100
AcDbRotatedDimension
  0
DIMENSION
  5
13F
330
1F
100
AcDbEntity
  8
0
100
AcDbDimension
  2
*D6
 10
222.1936824324
 20
192.389033264
 30
0.0
 11
160.6936824324
 21
196.764033264
 31
0.0
 70
    32
  1
123
 71
     5
 42
-1.0
 53
0.00013888888889
  3
ME10_DIM_15
100
AcDbAlignedDimension
 13
99.1936824324
 23
146.8073445773
 33
0.0
 14
222.1936824324
 24
151.0464261483
 34
0.0
100
AcDbRotatedDimension
  0
DIMENSION
  5
14A
330
1F
100
AcDbEntity
  8
0
100
AcDbDimension
  2
*D7
 10
222.1936824324
 20
165.2839831193
 30
0.0
 11
190.6936824324
 21
169.6589831193
 31
0.0
 70
    32
  1
63
 71
     5
 42
-1.0
 53
0.00013888888889
  3
ME10_DIM_16
100
AcDbAlignedDimension
 13
159.1936824324
 23
152.4406667211
 33
0.0
 14
222.1936824324
 24
151.0464261483
 34
0.0
100
AcDbRotatedDimension
  0
ENDSEC
  0
SECTION
  2
OBJECTS
  0
DICTIONARY
  5
C
330
0
100
AcDbDictionary
281
     1
  3
ACAD_GROUP
350
D
  3
ACAD_LAYOUT
350
1A
  3
ACAD_MLEADERSTYLE
350
14D
  3
ACAD_MLINESTYLE
350
17
  3
ACAD_PLOTSETTINGS
350
19
  3
ACAD_PLOTSTYLENAME
350
E
  3
ACAD_SCALELIST
350
DA
  3
ACAD_VISUALSTYLE
350
2A
  3
AcDbVariableDictionary
350
14B
  0
DICTIONARY
  5
D
102
{ACAD_REACTORS
330
C
102
}
330
C
100
AcDbDictionary
281
     1
  0
DICTIONARY
  5
1A
102
{ACAD_REACTORS
330
C
102
}
330
C
100
AcDbDictionary
281
     1
  3
Layout1
350
1E
  3
Layout2
350
26
  3
Model
350
22
  0
DICTIONARY
  5
14D
102
{ACAD_REACTORS
330
C
102
}
330
C
100
AcDbDictionary
281
     1
  0
DICTIONARY
  5
17
102
{ACAD_REACTORS
330
C
102
}
330
C
100
AcDbDictionary
281
     1
  3
Standard
350
18
  0
DICTIONARY
  5
19
102
{ACAD_REACTORS
330
C
102
}
330
C
100
AcDbDictionary
281
     1
  0
ACDBDICTIONARYWDFLT
  5
E
102
{ACAD_REACTORS
330
C
102
}
330
C
100
AcDbDictionary
281
     1
  3
Normal
350
F
100
AcDbDictionaryWithDefault
340
F
  0
DICTIONARY
  5
DA
102
{ACAD_REACTORS
330
C
102
}
330
C
100
AcDbDictionary
281
     1
  3
A0
350
DB
  3
A1
350
DC
  3
A2
350
DD
  3
A3
350
DE
  3
A4
350
DF
  3
A5
350
E0
  3
A6
350
E1
  3
A7
350
E2
  3
A8
350
E3
  3
A9
350
E4
  3
B0
350
E5
  3
B1
350
E6
  3
B2
350
E7
  3
B3
350
E8
  3
B4
350
E9
  3
B5
350
EA
  3
B6
350
EB
  3
B7
350
EC
  3
B8
350
ED
  3
B9
350
EE
  3
C0
350
EF
  3
C1
350
F0
  3
C2
350
F1
  3
C3
350
F2
  3
C4
350
F3
  3
C5
350
F4
  3
C6
350
F5
  3
C7
350
F6
  3
C8
350
F7
  3
C9
350
F8
  3
D0
350
F9
  3
D1
350
FA
  3
D2
350
FB
  0
DICTIONARY
  5
2A
102
{ACAD_REACTORS
330
C
102
}
330
C
100
AcDbDictionary
281
     1
  3
2dWireframe
350
2F
  3
3D Hidden
350
31
  3
3dWireframe
350
30
  3
Basic
350
32
  3
Brighten
350
36
  3
ColorChange
350
3A
  3
Conceptual
350
34
  3
Dim
350
35
  3
Facepattern
350
39
  3
Flat
350
2B
  3
FlatWithEdges
350
2C
  3
Gouraud
350
2D
  3
GouraudWithEdges
350
2E
  3
Linepattern
350
38
  3
Realistic
350
33
  3
Thicken
350
37
  0
DICTIONARY
  5
14B
102
{ACAD_REACTORS
330
C
102
}
330
C
100
AcDbDictionary
281
     1
  3
CANNOSCALE
350
14E
  0
LAYOUT
  5
1E
102
{ACAD_REACTORS
330
1A
102
}
330
1A
100
AcDbPlotSettings
  1

  2
none_device
  4

  6

 40
0.0
 41
0.0
 42
0.0
 43
0.0
 44
0.0
 45
0.0
 46
0.0
 47
0.0
 48
0.0
 49
0.0
140
0.0
141
0.0
142
1.0
143
1.0
 70
   688
 72
     0
 73
     0
 74
     5
  7

 75
    16
147
1.0
148
0.0
149
0.0
100
AcDbLayout
  1
Layout1
 70
     1
 71
     1
 10
0.0
 20
0.0
 11
12.0
 21
9.0
 12
0.0
 22
0.0
 32
0.0
 14
1.00000000000000E+20
 24
1.00000000000000E+20
 34
1.00000000000000E+20
 15
-1.00000000000000E+20
 25
-1.00000000000000E+20
 35
-1.00000000000000E+20
146
0.0
 13
0.0
 23
0.0
 33
0.0
 16
1.0
 26
0.0
 36
0.0
 17
0.0
 27
1.0
 37
0.0
 76
     0
330
1B
  0
LAYOUT
  5
26
102
{ACAD_REACTORS
330
1A
102
}
330
1A
100
AcDbPlotSettings
  1

  2
none_device
  4

  6

 40
0.0
 41
0.0
 42
0.0
 43
0.0
 44
0.0
 45
0.0
 46
0.0
 47
0.0
 48
0.0
 49
0.0
140
0.0
141
0.0
142
1.0
143
1.0
 70
   688
 72
     0
 73
     0
 74
     5
  7

 75
    16
147
1.0
148
0.0
149
0.0
100
AcDbLayout
  1
Layout2
 70
     1
 71
     2
 10
0.0
 20
0.0
 11
0.0
 21
0.0
 12
0.0
 22
0.0
 32
0.0
 14
0.0
 24
0.0
 34
0.0
 15
0.0
 25
0.0
 35
0.0
146
0.0
 13
0.0
 23
0.0
 33
0.0
 16
1.0
 26
0.0
 36
0.0
 17
0.0
 27
1.0
 37
0.0
 76
     0
330
23
  0
LAYOUT
  5
22
102
{ACAD_REACTORS
330
1A
102
}
330
1A
100
AcDbPlotSettings
  1

  2
none_device
  4

  6

 40
0.0
 41
0.0
 42
0.0
 43
0.0
 44
0.0
 45
0.0
 46
0.0
 47
0.0
 48
0.0
 49
0.0
140
0.0
141
0.0
142
1.0
143
1.0
 70
  1712
 72
     0
 73
     0
 74
     0
  7

 75
     0
147
1.0
148
0.0
149
0.0
100
AcDbLayout
  1
Model
 70
     1
 71
     0
 10
0.0
 20
0.0
 11
12.0
 21
9.0
 12
0.0
 22
0.0
 32
0.0
 14
0.0
 24
0.0
 34
0.0
 15
297.0
 25
210.0
 35
0.0
146
0.0
 13
0.0
 23
0.0
 33
0.0
 16
1.0
 26
0.0
 36
0.0
 17
0.0
 27
1.0
 37
0.0
 76
     0
330
1F
331
29
  0
MLINESTYLE
  5
18
102
{ACAD_REACTORS
330
17
102
}
330
17
100
AcDbMlineStyle
  2
Standard
 70
     0
  3

 62
   256
 51
90.0
 52
90.0
 71
     2
 49
0.5
 62
   256
  6
BYLAYER
 49
-0.5
 62
   256
  6
BYLAYER
  0
ACDBPLACEHOLDER
  5
F
102
{ACAD_REACTORS
330
E
102
}
330
E
  0
SCALE
  5
DB
102
{ACAD_REACTORS
330
DA
102
}
330
DA
100
AcDbScale
 70
     0
300
1:1
140
1.0
141
1.0
290
     1
  0
SCALE
  5
DC
102
{ACAD_REACTORS
330
DA
102
}
330
DA
100
AcDbScale
 70
     0
300
1:2
140
1.0
141
2.0
290
     0
  0
SCALE
  5
DD
102
{ACAD_REACTORS
330
DA
102
}
330
DA
100
AcDbScale
 70
     0
300
1:4
140
1.0
141
4.0
290
     0
  0
SCALE
  5
DE
102
{ACAD_REACTORS
330
DA
102
}
330
DA
100
AcDbScale
 70
     0
300
1:5
140
1.0
141
5.0
290
     0
  0
SCALE
  5
DF
102
{ACAD_REACTORS
330
DA
102
}
330
DA
100
AcDbScale
 70
     0
300
1:8
140
1.0
141
8.0
290
     0
  0
SCALE
  5
E0
102
{ACAD_REACTORS
330
DA
102
}
330
DA
100
AcDbScale
 70
     0
300
1:10
140
1.0
141
10.0
290
     0
  0
SCALE
  5
E1
102
{ACAD_REACTORS
330
DA
102
}
330
DA
100
AcDbScale
 70
     0
300
1:16
140
1.0
141
16.0
290
     0
  0
SCALE
  5
E2
102
{ACAD_REACTORS
330
DA
102
}
330
DA
100
AcDbScale
 70
     0
300
1:20
140
1.0
141
20.0
290
     0
  0
SCALE
  5
E3
102
{ACAD_REACTORS
330
DA
102
}
330
DA
100
AcDbScale
 70
     0
300
1:30
140
1.0
141
30.0
290
     0
  0
SCALE
  5
E4
102
{ACAD_REACTORS
330
DA
102
}
330
DA
100
AcDbScale
 70
     0
300
1:40
140
1.0
141
40.0
290
     0
  0
SCALE
  5
E5
102
{ACAD_REACTORS
330
DA
102
}
330
DA
100
AcDbScale
 70
     0
300
1:50
140
1.0
141
50.0
290
     0
  0
SCALE
  5
E6
102
{ACAD_REACTORS
330
DA
102
}
330
DA
100
AcDbScale
 70
     0
300
1:100
140
1.0
141
100.0
290
     0
  0
SCALE
  5
E7
102
{ACAD_REACTORS
330
DA
102
}
330
DA
100
AcDbScale
 70
     0
300
2:1
140
2.0
141
1.0
290
     0
  0
SCALE
  5
E8
102
{ACAD_REACTORS
330
DA
102
}
330
DA
100
AcDbScale
 70
     0
300
4:1
140
4.0
141
1.0
290
     0
  0
SCALE
  5
E9
102
{ACAD_REACTORS
330
DA
102
}
330
DA
100
AcDbScale
 70
     0
300
8:1
140
8.0
141
1.0
290
     0
  0
SCALE
  5
EA
102
{ACAD_REACTORS
330
DA
102
}
330
DA
100
AcDbScale
 70
     0
300
10:1
140
10.0
141
1.0
290
     0
  0
SCALE
  5
EB
102
{ACAD_REACTORS
330
DA
102
}
330
DA
100
AcDbScale
 70
     0
300
100:1
140
100.0
141
1.0
290
     0
  0
SCALE
  5
EC
102
{ACAD_REACTORS
330
DA
102
}
330
DA
100
AcDbScale
 70
     0
300
1/128" = 1'-0"
140
0.0078125
141
12.0
290
     0
  0
SCALE
  5
ED
102
{ACAD_REACTORS
330
DA
102
}
330
DA
100
AcDbScale
 70
     0
300
1/64" = 1'-0"
140
0.015625
141
12.0
290
     0
  0
SCALE
  5
EE
102
{ACAD_REACTORS
330
DA
102
}
330
DA
100
AcDbScale
 70
     0
300
1/32" = 1'-0"
140
0.03125
141
12.0
290
     0
  0
SCALE
  5
EF
102
{ACAD_REACTORS
330
DA
102
}
330
DA
100
AcDbScale
 70
     0
300
1/16" = 1'-0"
140
0.0625
141
12.0
290
     0
  0
SCALE
  5
F0
102
{ACAD_REACTORS
330
DA
102
}
330
DA
100
AcDbScale
 70
     0
300
3/32" = 1'-0"
140
0.09375
141
12.0
290
     0
  0
SCALE
  5
F1
102
{ACAD_REACTORS
330
DA
102
}
330
DA
100
AcDbScale
 70
     0
300
1/8" = 1'-0"
140
0.125
141
12.0
290
     0
  0
SCALE
  5
F2
102
{ACAD_REACTORS
330
DA
102
}
330
DA
100
AcDbScale
 70
     0
300
3/16" = 1'-0"
140
0.1875
141
12.0
290
     0
  0
SCALE
  5
F3
102
{ACAD_REACTORS
330
DA
102
}
330
DA
100
AcDbScale
 70
     0
300
1/4" = 1'-0"
140
0.25
141
12.0
290
     0
  0
SCALE
  5
F4
102
{ACAD_REACTORS
330
DA
102
}
330
DA
100
AcDbScale
 70
     0
300
3/8" = 1'-0"
140
0.375
141
12.0
290
     0
  0
SCALE
  5
F5
102
{ACAD_REACTORS
330
DA
102
}
330
DA
100
AcDbScale
 70
     0
300
1/2" = 1'-0"
140
0.5
141
12.0
290
     0
  0
SCALE
  5
F6
102
{ACAD_REACTORS
330
DA
102
}
330
DA
100
AcDbScale
 70
     0
300
3/4" = 1'-0"
140
0.75
141
12.0
290
     0
  0
SCALE
  5
F7
102
{ACAD_REACTORS
330
DA
102
}
330
DA
100
AcDbScale
 70
     0
300
1" = 1'-0"
140
1.0
141
12.0
290
     0
  0
SCALE
  5
F8
102
{ACAD_REACTORS
330
DA
102
}
330
DA
100
AcDbScale
 70
     0
300
1-1/2" = 1'-0"
140
1.5
141
12.0
290
     0
  0
SCALE
  5
F9
102
{ACAD_REACTORS
330
DA
102
}
330
DA
100
AcDbScale
 70
     0
300
3" = 1'-0"
140
3.0
141
12.0
290
     0
  0
SCALE
  5
FA
102
{ACAD_REACTORS
330
DA
102
}
330
DA
100
AcDbScale
 70
     0
300
6" = 1'-0"
140
6.0
141
12.0
290
     0
  0
SCALE
  5
FB
102
{ACAD_REACTORS
330
DA
102
}
330
DA
100
AcDbScale
 70
     0
300
1'-0" = 1'-0"
140
12.0
141
12.0
290
     0
  0
VISUALSTYLE
  5
2F
102
{ACAD_REACTORS
330
2A
102
}
330
2A
100
AcDbVisualStyle
  2
2dWireframe
 70
     4
 71
     0
 72
     2
 73
     0
 90
        0
 40
-0.6
 41
-30.0
 62
     5
 63
     7
 74
     1
 91
        4
 64
     7
 65
   257
 75
     1
175
     1
 42
1.0
 92
        0
 66
   257
 43
1.0
 76
     1
 77
     6
 78
     2
 67
     7
 79
     5
170
     0
171
     0
290
     0
174
     0
 93
        1
 44
0.0
173
     0
291
     0
 45
0.0
1001
ACAD
1000
AcDbSavedByObjectVersion
1070
     0
  0
VISUALSTYLE
  5
31
102
{ACAD_REACTORS
330
2A
102
}
330
2A
100
AcDbVisualStyle
  2
3D Hidden
 70
     6
 71
     1
 72
     2
 73
     2
 90
        0
 40
-0.6
 41
-30.0
 62
     5
 63
     7
 74
     2
 91
        2
 64
     7
 65
   257
 75
     2
175
     1
 42
40.0
 92
        0
 66
   257
 43
1.0
 76
     1
 77
     6
 78
     2
 67
     7
 79
     3
170
     0
171
     0
290
     0
174
     0
 93
        1
 44
0.0
173
     0
291
     0
 45
0.0
1001
ACAD
1000
AcDbSavedByObjectVersion
1070
     0
  0
VISUALSTYLE
  5
30
102
{ACAD_REACTORS
330
2A
102
}
330
2A
100
AcDbVisualStyle
  2
3dWireframe
 70
     5
 71
     0
 72
     2
 73
     0
 90
        0
 40
-0.6
 41
-30.0
 62
     5
 63
     7
 74
     1
 91
        4
 64
     7
 65
   257
 75
     1
175
     1
 42
1.0
 92
        0
 66
   257
 43
1.0
 76
     1
 77
     6
 78
     2
 67
     7
 79
     5
170
     0
171
     0
290
     0
174
     0
 93
        1
 44
0.0
173
     0
291
     0
 45
0.0
1001
ACAD
1000
AcDbSavedByObjectVersion
1070
     0
  0
VISUALSTYLE
  5
32
102
{ACAD_REACTORS
330
2A
102
}
330
2A
100
AcDbVisualStyle
  2
Basic
 70
     7
 71
     1
 72
     0
 73
     1
 90
        0
 40
-0.6
 41
-30.0
 62
     5
 63
     7
 74
     0
 91
        4
 64
     7
 65
   257
 75
     1
175
     1
 42
1.0
 92
        8
 66
     7
 43
1.0
 76
     1
 77
     6
 78
     2
 67
     7
 79
     5
170
     0
171
     0
290
     0
174
     0
 93
        1
 44
0.0
173
     0
291
     1
 45
0.0
1001
ACAD
1000
AcDbSavedByObjectVersion
1070
     0
  0
VISUALSTYLE
  5
36
102
{ACAD_REACTORS
330
2A
102
}
330
2A
100
AcDbVisualStyle
  2
Brighten
 70
    12
 71
     2
 72
     2
 73
     0
 90
        0
 40
-0.6
 41
-30.0
 62
     5
 63
     7
 74
     1
 91
        4
 64
     7
 65
   257
 75
     1
175
     1
 42
1.0
 92
        8
 66
     7
 43
1.0
 76
     1
 77
     6
 78
     2
 67
     7
 79
     5
170
     0
171
     0
290
     0
174
     0
 93
        1
 44
50.0
173
     0
291
     1
 45
0.0
1001
ACAD
1000
AcDbSavedByObjectVersion
1070
     0
  0
VISUALSTYLE
  5
3A
102
{ACAD_REACTORS
330
2A
102
}
330
2A
100
AcDbVisualStyle
  2
ColorChange
 70
    16
 71
     2
 72
     2
 73
     3
 90
        0
 40
-0.6
 41
-30.0
 62
     5
 63
     8
 74
     1
 91
        4
 64
     7
 65
   257
 75
     1
175
     1
 42
1.0
 92
        8
 66
     8
 43
1.0
 76
     1
 77
     6
 78
     2
 67
     7
 79
     5
170
     0
171
     0
290
     0
174
     0
 93
        1
 44
0.0
173
     0
291
     1
 45
0.0
1001
ACAD
1000
AcDbSavedByObjectVersion
1070
     0
  0
VISUALSTYLE
  5
34
102
{ACAD_REACTORS
330
2A
102
}
330
2A
100
AcDbVisualStyle
  2
Conceptual
 70
     9
 71
     3
 72
     2
 73
     0
 90
        0
 40
-0.6
 41
-30.0
 62
     5
 63
     7
 74
     2
 91
        2
 64
     7
 65
   257
 75
     1
175
     1
 42
40.0
 92
        8
 66
     7
 43
1.0
 76
     1
 77
     6
 78
     2
 67
     7
 79
     3
170
     0
171
     0
290
     0
174
     0
 93
        1
 44
0.0
173
     0
291
     0
 45
0.0
1001
ACAD
1000
AcDbSavedByObjectVersion
1070
     0
  0
VISUALSTYLE
  5
35
102
{ACAD_REACTORS
330
2A
102
}
330
2A
100
AcDbVisualStyle
  2
Dim
 70
    11
 71
     2
 72
     2
 73
     0
 90
        0
 40
-0.6
 41
-30.0
 62
     5
 63
     7
 74
     1
 91
        4
 64
     7
 65
   257
 75
     1
175
     1
 42
1.0
 92
        8
 66
     7
 43
1.0
 76
     1
 77
     6
 78
     2
 67
     7
 79
     5
170
     0
171
     0
290
     0
174
     0
 93
        1
 44
-50.0
173
     0
291
     1
 45
0.0
1001
ACAD
1000
AcDbSavedByObjectVersion
1070
     0
  0
VISUALSTYLE
  5
39
102
{ACAD_REACTORS
330
2A
102
}
330
2A
100
AcDbVisualStyle
  2
Facepattern
 70
    15
 71
     2
 72
     2
 73
     0
 90
        0
 40
-0.6
 41
-30.0
 62
     5
 63
     7
 74
     1
 91
        4
 64
     7
 65
   257
 75
     1
175
     1
 42
1.0
 92
        8
 66
     7
 43
1.0
 76
     1
 77
     6
 78
     2
 67
     7
 79
     5
170
     0
171
     0
290
     0
174
     0
 93
        1
 44
0.0
173
     0
291
     1
 45
0.0
1001
ACAD
1000
AcDbSavedByObjectVersion
1070
     0
  0
VISUALSTYLE
  5
2B
102
{ACAD_REACTORS
330
2A
102
}
330
2A
100
AcDbVisualStyle
  2
Flat
 70
     0
 71
     2
 72
     1
 73
     1
 90
        2
 40
-0.6
 41
30.0
 62
     5
 63
     7
 74
     0
 91
        4
 64
     7
 65
   257
 75
     1
175
     1
 42
1.0
 92
        8
 66
     7
 43
1.0
 76
     1
 77
     6
 78
     2
 67
     7
 79
     5
170
     0
171
     0
290
     0
174
     0
 93
       13
 44
0.0
173
     0
291
     1
 45
0.0
1001
ACAD
1000
AcDbSavedByObjectVersion
1070
     0
  0
VISUALSTYLE
  5
2C
102
{ACAD_REACTORS
330
2A
102
}
330
2A
100
AcDbVisualStyle
  2
FlatWithEdges
 70
     1
 71
     2
 72
     1
 73
     1
 90
        2
 40
-0.6
 41
30.0
 62
     5
 63
     7
 74
     1
 91
        4
 64
     7
 65
   257
 75
     1
175
     1
 42
1.0
 92
        0
 66
   257
 43
1.0
 76
     1
 77
     6
 78
     2
 67
     7
 79
     5
170
     0
171
     0
290
     0
174
     0
 93
       13
 44
0.0
173
     0
291
     1
 45
0.0
1001
ACAD
1000
AcDbSavedByObjectVersion
1070
     0
  0
VISUALSTYLE
  5
2D
102
{ACAD_REACTORS
330
2A
102
}
330
2A
100
AcDbVisualStyle
  2
Gouraud
 70
     2
 71
     2
 72
     2
 73
     1
 90
        2
 40
-0.6
 41
30.0
 62
     5
 63
     7
 74
     0
 91
        4
 64
     7
 65
   257
 75
     1
175
     1
 42
1.0
 92
        0
 66
     7
 43
1.0
 76
     1
 77
     6
 78
     2
 67
     7
 79
     5
170
     0
171
     0
290
     0
174
     0
 93
       13
 44
0.0
173
     0
291
     1
 45
0.0
1001
ACAD
1000
AcDbSavedByObjectVersion
1070
     0
  0
VISUALSTYLE
  5
2E
102
{ACAD_REACTORS
330
2A
102
}
330
2A
100
AcDbVisualStyle
  2
GouraudWithEdges
 70
     3
 71
     2
 72
     2
 73
     1
 90
        2
 40
-0.6
 41
30.0
 62
     5
 63
     7
 74
     1
 91
        4
 64
     7
 65
   257
 75
     1
175
     1
 42
1.0
 92
        0
 66
   257
 43
1.0
 76
     1
 77
     6
 78
     2
 67
     7
 79
     5
170
     0
171
     0
290
     0
174
     0
 93
       13
 44
0.0
173
     0
291
     1
 45
0.0
1001
ACAD
1000
AcDbSavedByObjectVersion
1070
     0
  0
VISUALSTYLE
  5
38
102
{ACAD_REACTORS
330
2A
102
}
330
2A
100
AcDbVisualStyle
  2
Linepattern
 70
    14
 71
     2
 72
     2
 73
     0
 90
        0
 40
-0.6
 41
-30.0
 62
     5
 63
     7
 74
     1
 91
        4
 64
     7
 65
   257
 75
     7
175
     7
 42
1.0
 92
        8
 66
     7
 43
1.0
 76
     1
 77
     6
 78
     2
 67
     7
 79
     5
170
     0
171
     0
290
     0
174
     0
 93
        1
 44
0.0
173
     0
291
     1
 45
0.0
1001
ACAD
1000
AcDbSavedByObjectVersion
1070
     0
  0
VISUALSTYLE
  5
33
102
{ACAD_REACTORS
330
2A
102
}
330
2A
100
AcDbVisualStyle
  2
Realistic
 70
     8
 71
     2
 72
     2
 73
     0
 90
        0
 40
-0.6
 41
-30.0
 62
     5
 63
     7
 74
     1
 91
        0
 64
     7
 65
   257
 75
     1
175
     1
 42
1.0
 92
        8
 66
     8
 43
1.0
 76
     1
 77
     6
 78
     2
 67
     7
 79
     5
170
     0
171
     0
290
     0
174
     0
 93
       13
 44
0.0
173
     0
291
     0
 45
0.0
1001
ACAD
1000
AcDbSavedByObjectVersion
1070
     0
  0
VISUALSTYLE
  5
37
102
{ACAD_REACTORS
330
2A
102
}
330
2A
100
AcDbVisualStyle
  2
Thicken
 70
    13
 71
     2
 72
     2
 73
     0
 90
        0
 40
-0.6
 41
-30.0
 62
     5
 63
     7
 74
     1
 91
        4
 64
     7
 65
   257
 75
     1
175
     1
 42
1.0
 92
       12
 66
     7
 43
1.0
 76
     1
 77
     6
 78
     2
 67
     7
 79
     5
170
     0
171
     0
290
     0
174
     0
 93
        1
 44
0.0
173
     0
291
     1
 45
0.0
1001
ACAD
1000
AcDbSavedByObjectVersion
1070
     0
  0
DICTIONARYVAR
  5
14E
102
{ACAD_REACTORS
330
14B
102
}
330
14B
100
DictionaryVariables
280
     0
  1
1:1
  0
ENDSEC
  0
EOF
