  0
SECTION
  2
HEADER
  9
$ACADVER
  1
AC1015
  9
$ACADMAINTVER
 70
     6
  9
$DWGCODEPAGE
  3
ANSI_1252
  9
$INSBASE
 10
0.0
 20
0.0
 30
0.0
  9
$EXTMIN
 10
0.0
 20
0.0
 30
0.0
  9
$EXTMAX
 10
297.0
 20
210.0
 30
0.0
  9
$LIMMIN
 10
0.0
 20
0.0
  9
$LIMMAX
 10
12.0
 20
9.0
  9
$ORTHOMODE
 70
     0
  9
$REGENMODE
 70
     1
  9
$FILLMODE
 70
     1
  9
$QTEXTMODE
 70
     0
  9
$MIRRTEXT
 70
     1
  9
$LTSCALE
 40
1.0
  9
$ATTMODE
 70
     1
  9
$TEXTSIZE
 40
0.2
  9
$TRACEWID
 40
0.05
  9
$TEXTSTYLE
  7
Standard
  9
$CLAYER
  8
0
  9
$CELTYPE
  6
ByLayer
  9
$CECOLOR
 62
   256
  9
$CELTSCALE
 40
1.0
  9
$DISPSILH
 70
     0
  9
$DIMSCALE
 40
1.0
  9
$DIMASZ
 40
0.18
  9
$DIMEXO
 40
0.0625
  9
$DIMDLI
 40
0.38
  9
$DIMRND
 40
0.0
  9
$DIMDLE
 40
0.0
  9
$DIMEXE
 40
0.18
  9
$DIMTP
 40
0.0
  9
$DIMTM
 40
0.0
  9
$DIMTXT
 40
0.18
  9
$DIMCEN
 40
0.09
  9
$DIMTSZ
 40
0.0
  9
$DIMTOL
 70
     0
  9
$DIMLIM
 70
     0
  9
$DIMTIH
 70
     1
  9
$DIMTOH
 70
     1
  9
$DIMSE1
 70
     0
  9
$DIMSE2
 70
     0
  9
$DIMTAD
 70
     0
  9
$DIMZIN
 70
     0
  9
$DIMBLK
  1

  9
$DIMASO
 70
     1
  9
$DIMSHO
 70
     1
  9
$DIMPOST
  1

  9
$DIMAPOST
  1

  9
$DIMALT
 70
     0
  9
$DIMALTD
 70
     2
  9
$DIMALTF
 40
25.4
  9
$DIMLFAC
 40
1.0
  9
$DIMTOFL
 70
     0
  9
$DIMTVP
 40
0.0
  9
$DIMTIX
 70
     0
  9
$DIMSOXD
 70
     0
  9
$DIMSAH
 70
     0
  9
$DIMBLK1
  1

  9
$DIMBLK2
  1

  9
$DIMSTYLE
  2
Standard
  9
$DIMCLRD
 70
     0
  9
$DIMCLRE
 70
     0
  9
$DIMCLRT
 70
     0
  9
$DIMTFAC
 40
1.0
  9
$DIMGAP
 40
0.09
  9
$DIMJUST
 70
     0
  9
$DIMSD1
 70
     0
  9
$DIMSD2
 70
     0
  9
$DIMTOLJ
 70
     1
  9
$DIMTZIN
 70
     0
  9
$DIMALTZ
 70
     0
  9
$DIMALTTZ
 70
     0
  9
$DIMUPT
 70
     0
  9
$DIMDEC
 70
     4
  9
$DIMTDEC
 70
     4
  9
$DIMALTU
 70
     2
  9
$DIMALTTD
 70
     2
  9
$DIMTXSTY
  7
Standard
  9
$DIMAUNIT
 70
     0
  9
$DIMADEC
 70
     0
  9
$DIMALTRND
 40
0.0
  9
$DIMAZIN
 70
     0
  9
$DIMDSEP
 70
    46
  9
$DIMATFIT
 70
     3
  9
$DIMFRAC
 70
     0
  9
$DIMLDRBLK
  1

  9
$DIMLUNIT
 70
     2
  9
$DIMLWD
 70
    -2
  9
$DIMLWE
 70
    -2
  9
$DIMTMOVE
 70
     0
  9
$LUNITS
 70
     2
  9
$LUPREC
 70
     4
  9
$SKETCHINC
 40
0.1
  9
$FILLETRAD
 40
0.5
  9
$AUNITS
 70
     0
  9
$AUPREC
 70
     0
  9
$MENU
  1
.
  9
$ELEVATION
 40
0.0
  9
$PELEVATION
 40
0.0
  9
$THICKNESS
 40
0.0
  9
$LIMCHECK
 70
     0
  9
$CHAMFERA
 40
0.5
  9
$CHAMFERB
 40
0.5
  9
$CHAMFERC
 40
1.0
  9
$CHAMFERD
 40
0.0
  9
$SKPOLY
 70
     0
  9
$TDCREATE
 40
2455877.375140903
  9
$TDUCREATE
 40
2455877.333474236
  9
$TDUPDATE
 40
2455877.375140914
  9
$TDUUPDATE
 40
2455877.333474248
  9
$TDINDWG
 40
0.0000000116
  9
$TDUSRTIMER
 40
0.0000000116
  9
$USRTIMER
 70
     1
  9
$ANGBASE
 50
0.0
  9
$ANGDIR
 70
     0
  9
$PDMODE
 70
     0
  9
$PDSIZE
 40
0.0
  9
$PLINEWID
 40
0.0
  9
$SPLFRAME
 70
     0
  9
$SPLINETYPE
 70
     6
  9
$SPLINESEGS
 70
     8
  9
$HANDSEED
  5
15B
  9
$SURFTAB1
 70
     6
  9
$SURFTAB2
 70
     6
  9
$SURFTYPE
 70
     6
  9
$SURFU
 70
     6
  9
$SURFV
 70
     6
  9
$UCSBASE
  2

  9
$UCSNAME
  2

  9
$UCSORG
 10
0.0
 20
0.0
 30
0.0
  9
$UCSXDIR
 10
1.0
 20
0.0
 30
0.0
  9
$UCSYDIR
 10
0.0
 20
1.0
 30
0.0
  9
$UCSORTHOREF
  2

  9
$UCSORTHOVIEW
 70
     0
  9
$UCSORGTOP
 10
0.0
 20
0.0
 30
0.0
  9
$UCSORGBOTTOM
 10
0.0
 20
0.0
 30
0.0
  9
$UCSORGLEFT
 10
0.0
 20
0.0
 30
0.0
  9
$UCSORGRIGHT
 10
0.0
 20
0.0
 30
0.0
  9
$UCSORGFRONT
 10
0.0
 20
0.0
 30
0.0
  9
$UCSORGBACK
 10
0.0
 20
0.0
 30
0.0
  9
$PUCSBASE
  2

  9
$PUCSNAME
  2

  9
$PUCSORG
 10
0.0
 20
0.0
 30
0.0
  9
$PUCSXDIR
 10
1.0
 20
0.0
 30
0.0
  9
$PUCSYDIR
 10
0.0
 20
1.0
 30
0.0
  9
$PUCSORTHOREF
  2

  9
$PUCSORTHOVIEW
 70
     0
  9
$PUCSORGTOP
 10
0.0
 20
0.0
 30
0.0
  9
$PUCSORGBOTTOM
 10
0.0
 20
0.0
 30
0.0
  9
$PUCSORGLEFT
 10
0.0
 20
0.0
 30
0.0
  9
$PUCSORGRIGHT
 10
0.0
 20
0.0
 30
0.0
  9
$PUCSORGFRONT
 10
0.0
 20
0.0
 30
0.0
  9
$PUCSORGBACK
 10
0.0
 20
0.0
 30
0.0
  9
$USERI1
 70
     0
  9
$USERI2
 70
     0
  9
$USERI3
 70
     0
  9
$USERI4
 70
     0
  9
$USERI5
 70
     0
  9
$USERR1
 40
16.5
  9
$USERR2
 40
0.0
  9
$USERR3
 40
0.0
  9
$USERR4
 40
0.0
  9
$USERR5
 40
0.0
  9
$WORLDVIEW
 70
     1
  9
$SHADEDGE
 70
     3
  9
$SHADEDIF
 70
    70
  9
$TILEMODE
 70
     1
  9
$MAXACTVP
 70
    64
  9
$PINSBASE
 10
0.0
 20
0.0
 30
0.0
  9
$PLIMCHECK
 70
     0
  9
$PEXTMIN
 10
1.00000000000000E+20
 20
1.00000000000000E+20
 30
1.00000000000000E+20
  9
$PEXTMAX
 10
-1.00000000000000E+20
 20
-1.00000000000000E+20
 30
-1.00000000000000E+20
  9
$PLIMMIN
 10
0.0
 20
0.0
  9
$PLIMMAX
 10
12.0
 20
9.0
  9
$UNITMODE
 70
     0
  9
$VISRETAIN
 70
     1
  9
$PLINEGEN
 70
     0
  9
$PSLTSCALE
 70
     1
  9
$TREEDEPTH
 70
  3020
  9
$CMLSTYLE
  2
Standard
  9
$CMLJUST
 70
     0
  9
$CMLSCALE
 40
1.0
  9
$PROXYGRAPHICS
 70
     1
  9
$MEASUREMENT
 70
     1
  9
$CELWEIGHT
370
    -1
  9
$ENDCAPS
280
     0
  9
$JOINSTYLE
280
     0
  9
$LWDISPLAY
290
     0
  9
$INSUNITS
 70
     1
  9
$HYPERLINKBASE
  1

  9
$STYLESHEET
  1

  9
$XEDIT
290
     1
  9
$CEPSNTYPE
380
     0
  9
$PSTYLEMODE
290
     1
  9
$FINGERPRINTGUID
  2
{881528C9-60FC-4437-91D6-679B75B9F54F}
  9
$VERSIONGUID
  2
{FAEB1C32-E019-11D5-929B-00C0DF256EC4}
  9
$EXTNAMES
290
     1
  9
$PSVPSCALE
 40
0.0
  9
$OLESTARTUP
290
     0
  0
ENDSEC
  0
SECTION
  2
CLASSES
  0
CLASS
  1
ACDBDICTIONARYWDFLT
  2
AcDbDictionaryWithDefault
  3
ObjectDBX Classes
 90
        0
280
     0
281
     0
  0
CLASS
  1
VISUALSTYLE
  2
AcDbVisualStyle
  3
ObjectDBX Classes
 90
     4095
280
     0
281
     0
  0
CLASS
  1
SCALE
  2
AcDbScale
  3
ObjectDBX Classes
 90
     1153
280
     0
281
     0
  0
CLASS
  1

  2
exOdDbSpline
  3

 90
        0
280
     0
281
     1
  0
CLASS
  1
DICTIONARYVAR
  2
AcDbDictionaryVar
  3
ObjectDBX Classes
 90
        0
280
     0
281
     0
  0
CLASS
  1
ACDBPLACEHOLDER
  2
AcDbPlaceHolder
  3
ObjectDBX Classes
 90
        0
280
     0
281
     0
  0
CLASS
  1
LAYOUT
  2
AcDbLayout
  3
ObjectDBX Classes
 90
        0
280
     0
281
     0
  0
ENDSEC
  0
SECTION
  2
TABLES
  0
TABLE
  2
VPORT
  5
8
330
0
100
AcDbSymbolTable
 70
     1
  0
VPORT
  5
29
330
8
100
AcDbSymbolTableRecord
100
AcDbViewportTableRecord
  2
*Active
 70
     0
 10
0.0
 20
0.0
 11
1.0
 21
1.0
 12
148.5
 22
105.0
 13
0.0
 23
0.0
 14
0.5
 24
0.5
 15
0.5
 25
0.5
 16
0.0
 26
0.0
 36
1.0
 17
0.0
 27
0.0
 37
0.0
 40
231.0
 41
1.60267857142857
 42
50.0
 43
0.0
 44
0.0
 50
0.0
 51
0.0
 71
     0
 72
   100
 73
     1
 74
     3
 75
     0
 76
     0
 77
     0
 78
     0
281
     0
 65
     1
110
0.0
120
0.0
130
0.0
111
1.0
121
0.0
131
0.0
112
0.0
122
1.0
132
0.0
 79
     0
146
0.0
  0
ENDTAB
  0
TABLE
  2
LTYPE
  5
5
330
0
100
AcDbSymbolTable
 70
     9
  0
LTYPE
  5
14
330
5
100
AcDbSymbolTableRecord
100
AcDbLinetypeTableRecord
  2
ByBlock
 70
     0
  3

 72
    65
 73
     0
 40
0.0
  0
LTYPE
  5
15
330
5
100
AcDbSymbolTableRecord
100
AcDbLinetypeTableRecord
  2
ByLayer
 70
     0
  3

 72
    65
 73
     0
 40
0.0
  0
LTYPE
  5
16
330
5
100
AcDbSymbolTableRecord
100
AcDbLinetypeTableRecord
  2
Continuous
 70
     0
  3
Solid line
 72
    65
 73
     0
 40
0.0
  0
LTYPE
  5
3B
330
5
100
AcDbSymbolTableRecord
100
AcDbLinetypeTableRecord
  2
DASHED
 70
     0
  3
Dashed
 72
    65
 73
     2
 40
15.0
 49
7.0
 74
     0
 49
-8.0
 74
     0
  0
LTYPE
  5
3C
330
5
100
AcDbSymbolTableRecord
100
AcDbLinetypeTableRecord
  2
DOTTED
 70
     0
  3
Dotted
 72
    65
 73
     2
 40
1.0
 49
0.0
 74
     0
 49
-1.0
 74
     0
  0
LTYPE
  5
3D
330
5
100
AcDbSymbolTableRecord
100
AcDbLinetypeTableRecord
  2
DOT_CENTER
 70
     0
  3
Dot_Center
 72
    65
 73
     4
 40
14.0
 49
12.0
 74
     0
 49
-1.0
 74
     0
 49
0.0
 74
     0
 49
-1.0
 74
     0
  0
LTYPE
  5
3E
330
5
100
AcDbSymbolTableRecord
100
AcDbLinetypeTableRecord
  2
LONG_DASHED
 70
     0
  3
Long_Dashed
 72
    65
 73
     2
 40
15.0
 49
10.0
 74
     0
 49
-5.0
 74
     0
  0
LTYPE
  5
3F
330
5
100
AcDbSymbolTableRecord
100
AcDbLinetypeTableRecord
  2
DASH_CENTER
 70
     0
  3
Dash_Center
 72
    65
 73
     4
 40
14.0
 49
11.0
 74
     0
 49
-1.0
 74
     0
 49
1.0
 74
     0
 49
-1.0
 74
     0
  0
LTYPE
  5
40
330
5
100
AcDbSymbolTableRecord
100
AcDbLinetypeTableRecord
  2
PHANTOM
 70
     0
  3
Phantom
 72
    65
 73
     6
 40
13.0
 49
10.0
 74
     0
 49
-1.0
 74
     0
 49
0.0
 74
     0
 49
-1.0
 74
     0
 49
0.0
 74
     0
 49
-1.0
 74
     0
  0
LTYPE
  5
41
330
5
100
AcDbSymbolTableRecord
100
AcDbLinetypeTableRecord
  2
CENTER_DASH_DASH
 70
     0
  3
Center_Dash_Dash
 72
    65
 73
     6
 40
14.0
 49
9.0
 74
     0
 49
-1.0
 74
     0
 49
1.0
 74
     0
 49
-1.0
 74
     0
 49
1.0
 74
     0
 49
-1.0
 74
     0
  0
LTYPE
  5
42
330
5
100
AcDbSymbolTableRecord
100
AcDbLinetypeTableRecord
  2
CENTER
 70
     0
  3
CENTER
 72
    65
 73
     4
 40
13.0
 49
7.0
 74
     0
 49
-2.0
 74
     0
 49
2.0
 74
     0
 49
-2.0
 74
     0
  0
ENDTAB
  0
TABLE
  2
LAYER
  5
2
330
0
100
AcDbSymbolTable
 70
     7
  0
LAYER
  5
10
330
2
100
AcDbSymbolTableRecord
100
AcDbLayerTableRecord
  2
0
 70
     0
 62
     7
  6
Continuous
370
    -3
390
F
  0
LAYER
  5
43
330
2
100
AcDbSymbolTableRecord
100
AcDbLayerTableRecord
  2
1
 70
     0
 62
     7
  6
Continuous
370
    -3
390
F
  0
LAYER
  5
44
330
2
100
AcDbSymbolTableRecord
100
AcDbLayerTableRecord
  2
ACHSEN
 70
     0
 62
     7
  6
Continuous
370
    -3
390
F
  0
LAYER
  5
45
330
2
100
AcDbSymbolTableRecord
100
AcDbLayerTableRecord
  2
DEFAULT_1
 70
     0
 62
     7
  6
Continuous
370
    -3
390
F
  0
LAYER
  5
46
330
2
100
AcDbSymbolTableRecord
100
AcDbLayerTableRecord
  2
FASEN
 70
     0
 62
     7
  6
Continuous
370
    -3
390
F
  0
LAYER
  5
47
330
2
100
AcDbSymbolTableRecord
100
AcDbLayerTableRecord
  2
RUNDUNGEN
 70
     0
 62
     7
  6
Continuous
370
    -3
390
F
  0
LAYER
  5
48
330
2
100
AcDbSymbolTableRecord
100
AcDbLayerTableRecord
  2
S_ACHSEN
 70
     0
 62
     7
  6
Continuous
370
    -3
390
F
  0
ENDTAB
  0
TABLE
  2
STYLE
  5
3
330
0
100
AcDbSymbolTable
 70
     3
  0
STYLE
  5
11
330
3
100
AcDbSymbolTableRecord
100
AcDbTextStyleTableRecord
  2
Standard
 70
     0
 40
0.0
 41
1.0
 50
0.0
 71
     0
 42
0.2
  3
txt
  4

  0
STYLE
  5
78
330
3
100
AcDbSymbolTableRecord
100
AcDbTextStyleTableRecord
  2
CONVERTER_11
 70
     0
 40
0.0
 41
0.7
 50
0.0
 71
     0
 42
0.2
  3
txt.shx
  4

  0
STYLE
  5
11A
330
3
100
AcDbSymbolTableRecord
100
AcDbTextStyleTableRecord
  2
CONVERTER_12
 70
     0
 40
0.0
 41
0.72
 50
0.0
 71
     0
 42
0.2
  3
txt.shx
  4

  0
ENDTAB
  0
TABLE
  2
VIEW
  5
6
330
0
100
AcDbSymbolTable
 70
     0
  0
ENDTAB
  0
TABLE
  2
UCS
  5
7
330
0
100
AcDbSymbolTable
 70
     0
  0
ENDTAB
  0
TABLE
  2
APPID
  5
9
330
0
100
AcDbSymbolTable
 70
     1
  0
APPID
  5
12
330
9
100
AcDbSymbolTableRecord
100
AcDbRegAppTableRecord
  2
ACAD
 70
     0
  0
ENDTAB
  0
TABLE
  2
DIMSTYLE
  5
A
330
0
100
AcDbSymbolTable
 70
     7
100
AcDbDimStyleTable
  0
DIMSTYLE
105
27
330
A
100
AcDbSymbolTableRecord
100
AcDbDimStyleTableRecord
  2
Standard
 70
     0
340
11
  0
DIMSTYLE
105
11E
102
{ACAD_REACTORS
330
11F
102
}
330
A
100
AcDbSymbolTableRecord
100
AcDbDimStyleTableRecord
  2
ME10_DIM_10
 70
     0
  3
\U+2300<>
 41
3.5
 42
2.0
 44
2.0
 71
     1
 73
     0
 74
     0
 77
     1
 78
     8
140
3.5
146
0.7
147
2.0
172
     1
173
     1
176
     2
177
     2
178
     3
271
     2
272
     0
340
11A
  0
DIMSTYLE
105
129
102
{ACAD_REACTORS
330
12A
102
}
330
A
100
AcDbSymbolTableRecord
100
AcDbDimStyleTableRecord
  2
ME10_DIM_11
 70
     0
 41
3.5
 73
     0
 74
     0
 77
     1
 78
    12
140
3.5
172
     1
173
     1
176
     2
177
     2
178
     5
271
     2
340
78
  0
DIMSTYLE
105
134
102
{ACAD_REACTORS
330
135
102
}
330
A
100
AcDbSymbolTableRecord
100
AcDbDimStyleTableRecord
  2
ME10_DIM_12
 70
     0
 41
3.5
 73
     0
 74
     0
 77
     1
 78
    12
140
3.5
172
     1
173
     1
176
     2
177
     2
178
     5
271
     2
340
78
  0
DIMSTYLE
105
13F
102
{ACAD_REACTORS
330
140
102
}
330
A
100
AcDbSymbolTableRecord
100
AcDbDimStyleTableRecord
  2
ME10_DIM_13
 70
     0
  3
{\Fgdt;n}<>
 41
3.5
 73
     0
 74
     0
 77
     1
 78
    12
140
3.5
172
     1
173
     1
176
     2
177
     2
178
     5
271
     2
340
78
  0
DIMSTYLE
105
14A
102
{ACAD_REACTORS
330
14B
102
}
330
A
100
AcDbSymbolTableRecord
100
AcDbDimStyleTableRecord
  2
ME10_DIM_14
 70
     0
 41
3.5
 73
     0
 74
     0
 77
     1
 78
    12
140
3.5
172
     1
173
     1
176
     2
177
     2
178
     5
271
     2
340
78
  0
DIMSTYLE
105
155
102
{ACAD_REACTORS
330
156
102
}
330
A
100
AcDbSymbolTableRecord
100
AcDbDimStyleTableRecord
  2
ME10_DIM_15
 70
     0
 41
3.5
 73
     0
 74
     0
 77
     1
 78
    12
140
3.5
172
     1
173
     1
176
     2
177
     2
178
     5
271
     2
340
78
  0
ENDTAB
  0
TABLE
  2
BLOCK_RECORD
  5
1
330
0
100
AcDbSymbolTable
 70
     9
  0
BLOCK_RECORD
  5
1F
330
1
100
AcDbSymbolTableRecord
100
AcDbBlockTableRecord
  2
*Model_Space
340
22
  0
BLOCK_RECORD
  5
1B
330
1
100
AcDbSymbolTableRecord
100
AcDbBlockTableRecord
  2
*Paper_Space
340
1E
  0
BLOCK_RECORD
  5
23
330
1
100
AcDbSymbolTableRecord
100
AcDbBlockTableRecord
  2
*Paper_Space0
340
26
  0
BLOCK_RECORD
  5
49
330
1
100
AcDbSymbolTableRecord
100
AcDbBlockTableRecord
  2
_FILLED
340
0
102
{BLKREFS
331
6F
102
}
  0
BLOCK_RECORD
  5
4C
330
1
100
AcDbSymbolTableRecord
100
AcDbBlockTableRecord
  2
_D1
340
0
102
{BLKREFS
331
72
102
}
  0
BLOCK_RECORD
  5
114
330
1
100
AcDbSymbolTableRecord
100
AcDbBlockTableRecord
  2
*D3
340
0
  0
BLOCK_RECORD
  5
120
330
1
100
AcDbSymbolTableRecord
100
AcDbBlockTableRecord
  2
*D4
340
0
  0
BLOCK_RECORD
  5
12B
330
1
100
AcDbSymbolTableRecord
100
AcDbBlockTableRecord
  2
*D5
340
0
  0
BLOCK_RECORD
  5
136
330
1
100
AcDbSymbolTableRecord
100
AcDbBlockTableRecord
  2
*D6
340
0
  0
BLOCK_RECORD
  5
141
330
1
100
AcDbSymbolTableRecord
100
AcDbBlockTableRecord
  2
*D7
340
0
  0
BLOCK_RECORD
  5
14C
330
1
100
AcDbSymbolTableRecord
100
AcDbBlockTableRecord
  2
*D8
340
0
  0
ENDTAB
  0
ENDSEC
  0
SECTION
  2
BLOCKS
  0
BLOCK
  5
20
330
1F
100
AcDbEntity
  8
0
100
AcDbBlockBegin
  2
*Model_Space
 70
     0
 10
0.0
 20
0.0
 30
0.0
  3
*Model_Space
  1

  0
ENDBLK
  5
21
330
1F
100
AcDbEntity
  8
0
100
AcDbBlockEnd
  0
BLOCK
  5
1C
330
1B
100
AcDbEntity
 67
     1
  8
0
100
AcDbBlockBegin
  2
*Paper_Space
 70
     0
 10
0.0
 20
0.0
 30
0.0
  3
*Paper_Space
  1

  0
ENDBLK
  5
1D
330
1B
100
AcDbEntity
 67
     1
  8
0
100
AcDbBlockEnd
  0
BLOCK
  5
24
330
23
100
AcDbEntity
  8
0
100
AcDbBlockBegin
  2
*Paper_Space0
 70
     0
 10
0.0
 20
0.0
 30
0.0
  3
*Paper_Space0
  1

  0
ENDBLK
  5
25
330
23
100
AcDbEntity
  8
0
100
AcDbBlockEnd
  0
BLOCK
  5
4A
330
49
100
AcDbEntity
  8
0
100
AcDbBlockBegin
  2
_FILLED
 70
     0
 10
0.0
 20
0.0
 30
0.0
  3
_FILLED
  1

  0
LINE
  5
73
102
{ACAD_REACTORS
330
76
330
76
102
}
330
49
100
AcDbEntity
  8
0
  6
Continuous
 62
     2
100
AcDbLine
 10
-1.0
 20
-0.125
 30
0.0
 11
-1.0
 21
0.125
 31
0.0
  0
LINE
  5
74
102
{ACAD_REACTORS
330
76
330
76
102
}
330
49
100
AcDbEntity
  8
0
  6
Continuous
 62
     2
100
AcDbLine
 10
0.0
 20
0.0
 30
0.0
 11
-1.0
 21
-0.125
 31
0.0
  0
LINE
  5
75
102
{ACAD_REACTORS
330
76
330
76
102
}
330
49
100
AcDbEntity
  8
0
  6
Continuous
 62
     2
100
AcDbLine
 10
-1.0
 20
0.125
 30
0.0
 11
0.0
 21
0.0
 31
0.0
  0
HATCH
  5
76
330
49
100
AcDbEntity
  8
0
  6
Continuous
 62
     2
100
AcDbHatch
 10
0.0
 20
0.0
 30
0.0
210
0.0
220
0.0
230
1.0
  2
SOLID
 70
     1
 71
     1
 91
        1
 92
        1
 93
        3
 72
     1
 10
0.0
 20
0.0
 11
-1.0
 21
-0.125
 72
     1
 10
-1.0
 20
-0.125
 11
-1.0
 21
0.125
 72
     1
 10
-1.0
 20
0.125
 11
0.0
 21
0.0
 97
        3
330
73
330
74
330
75
 75
     0
 76
     1
 98
        1
 10
0.0
 20
0.0
  0
ENDBLK
  5
4B
330
49
100
AcDbEntity
  8
0
100
AcDbBlockEnd
  0
BLOCK
  5
70
330
4C
100
AcDbEntity
  8
0
100
AcDbBlockBegin
  2
_D1
 70
     0
 10
0.0
 20
0.0
 30
0.0
  3
_D1
  1

  0
INSERT
  5
6F
330
4C
100
AcDbEntity
  8
0
100
AcDbBlockReference
  2
_FILLED
 10
161.9572747157
 20
145.6696361555
 30
0.0
 41
3.49999999999999
 42
3.49999999999999
 43
3.49999999999999
 50
-135.0
  0
LINE
  5
77
330
4C
100
AcDbEntity
  8
0
  6
Continuous
 62
     2
100
AcDbLine
 10
161.9572747157
 20
145.6696361555
 30
0.0
 11
172.8924786636
 21
156.6048401034
 31
0.0
  0
MTEXT
  5
79
330
4C
100
AcDbEntity
  8
0
 62
     5
100
AcDbMText
 10
166.4401292853
 20
156.3396750605
 30
0.0
 40
3.5
 41
0.0
 71
     1
 72
     1
  1
R1
  7
CONVERTER_11
 11
0.7071067811865476
 21
0.7071067811865476
 31
0.0
 73
     1
 44
1.0
  0
ENDBLK
  5
71
330
4C
100
AcDbEntity
  8
0
100
AcDbBlockEnd
  0
BLOCK
  5
11C
330
114
100
AcDbEntity
  8
0
100
AcDbBlockBegin
  2
*D3
 70
     1
 10
0.0
 20
0.0
 30
0.0
  3
*D3
  1

  0
LINE
  5
115
330
114
100
AcDbEntity
  8
1
  6
Continuous
 62
     2
100
AcDbLine
 10
213.589247138037
 20
105.4142429367
 30
0.0
 11
213.589247138037
 21
137.4142429367
 31
0.0
  0
LINE
  5
116
330
114
100
AcDbEntity
  8
1
  6
Continuous
 62
     2
100
AcDbLine
 10
190.1643814969
 20
137.4142429367
 30
0.0
 11
215.589247138037
 21
137.4142429367
 31
0.0
  0
LINE
  5
117
330
114
100
AcDbEntity
  8
1
  6
Continuous
 62
     2
100
AcDbLine
 10
190.1643814969
 20
105.4142429367
 30
0.0
 11
215.589247138037
 21
105.4142429367
 31
0.0
  0
SOLID
  5
118
330
114
100
AcDbEntity
  8
1
 62
     2
100
AcDbTrace
 10
213.1284633964811
 20
108.9142429367
 30
0.0
 11
214.0500308795929
 21
108.9142429367
 31
0.0
 12
213.589247138037
 22
105.4142429367
 32
0.0
 13
213.589247138037
 23
105.4142429367
 33
0.0
  0
SOLID
  5
119
330
114
100
AcDbEntity
  8
1
 62
     2
100
AcDbTrace
 10
214.0500308795929
 20
133.9142429367
 30
0.0
 11
213.1284633964811
 21
133.9142429367
 31
0.0
 12
213.589247138037
 22
137.4142429367
 32
0.0
 13
213.589247138037
 23
137.4142429367
 33
0.0
  0
MTEXT
  5
11B
330
114
100
AcDbEntity
  8
1
 62
     3
100
AcDbMText
 10
211.589247138037
 20
112.512564786148
 30
0.0
 40
3.5
 41
0.0
 71
     7
 72
     1
  1
\C3;%%c\C3;\C3;32\C2;\H2.45;\S^ ;\C3;
  7
CONVERTER_12
 11
0.0
 21
1.0
 31
0.0
 73
     1
 44
0.60024009603842
  0
ENDBLK
  5
11D
330
114
100
AcDbEntity
  8
0
100
AcDbBlockEnd
  0
BLOCK
  5
127
330
120
100
AcDbEntity
  8
0
100
AcDbBlockBegin
  2
*D4
 70
     1
 10
0.0
 20
0.0
 30
0.0
  3
*D4
  1

  0
LINE
  5
121
330
120
100
AcDbEntity
  8
0
  6
Continuous
 62
     2
100
AcDbLine
 10
139.6643814969
 20
184.1582584826
 30
0.0
 11
199.6643814969
 21
184.1582584826
 31
0.0
  0
LINE
  5
122
330
120
100
AcDbEntity
  8
0
  6
Continuous
 62
     2
100
AcDbLine
 10
139.6643814969
 20
159.8131308637
 30
0.0
 11
139.6643814969
 21
184.3382584826
 31
0.0
  0
LINE
  5
123
330
120
100
AcDbEntity
  8
0
  6
Continuous
 62
     2
100
AcDbLine
 10
199.6643814969
 20
143.4751413216
 30
0.0
 11
199.6643814969
 21
184.3382584826
 31
0.0
  0
SOLID
  5
124
330
120
100
AcDbEntity
  8
0
 62
     2
100
AcDbTrace
 10
196.1643814969
 20
183.6974747410441
 30
0.0
 11
196.1643814969
 21
184.6190422241559
 31
0.0
 12
199.6643814969
 22
184.1582584826
 32
0.0
 13
199.6643814969
 23
184.1582584826
 33
0.0
  0
SOLID
  5
125
330
120
100
AcDbEntity
  8
0
 62
     2
100
AcDbTrace
 10
143.1643814969
 20
184.6190422241559
 30
0.0
 11
143.1643814969
 21
183.6974747410441
 31
0.0
 12
139.6643814969
 22
184.1582584826
 32
0.0
 13
139.6643814969
 23
184.1582584826
 33
0.0
  0
MTEXT
  5
126
330
120
100
AcDbEntity
  8
0
 62
     5
100
AcDbMText
 10
167.6553814969
 20
186.7832584826
 30
0.0
 40
3.5
 41
0.0
 71
     7
 72
     1
  1
60
  7
CONVERTER_11
 11
0.9999999999970619
 21
2.424068405545306E-6
 31
0.0
 73
     1
 44
0.60024009603842
  0
ENDBLK
  5
128
330
120
100
AcDbEntity
  8
0
100
AcDbBlockEnd
  0
BLOCK
  5
132
330
12B
100
AcDbEntity
  8
0
100
AcDbBlockBegin
  2
*D5
 70
     1
 10
0.0
 20
0.0
 30
0.0
  3
*D5
  1

  0
LINE
  5
12C
330
12B
100
AcDbEntity
  8
0
  6
Continuous
 62
     2
100
AcDbLine
 10
139.6643814969
 20
174.9918305655
 30
0.0
 11
186.6643814969
 21
174.9918305655
 31
0.0
  0
LINE
  5
12D
330
12B
100
AcDbEntity
  8
0
  6
Continuous
 62
     2
100
AcDbLine
 10
139.6643814969
 20
154.4046474801
 30
0.0
 11
139.6643814969
 21
175.1718305655
 31
0.0
  0
LINE
  5
12E
330
12B
100
AcDbEntity
  8
0
  6
Continuous
 62
     2
100
AcDbLine
 10
186.6643814969
 20
164.4353348332
 30
0.0
 11
186.6643814969
 21
175.1718305655
 31
0.0
  0
SOLID
  5
12F
330
12B
100
AcDbEntity
  8
0
 62
     2
100
AcDbTrace
 10
183.1643814969
 20
174.5310468239441
 30
0.0
 11
183.1643814969
 21
175.4526143070559
 31
0.0
 12
186.6643814969
 22
174.9918305655
 32
0.0
 13
186.6643814969
 23
174.9918305655
 33
0.0
  0
SOLID
  5
130
330
12B
100
AcDbEntity
  8
0
 62
     2
100
AcDbTrace
 10
143.1643814969
 20
175.4526143070559
 30
0.0
 11
143.1643814969
 21
174.5310468239441
 31
0.0
 12
139.6643814969
 22
174.9918305655
 32
0.0
 13
139.6643814969
 23
174.9918305655
 33
0.0
  0
MTEXT
  5
131
330
12B
100
AcDbEntity
  8
0
 62
     5
100
AcDbMText
 10
161.1553814969
 20
177.6168305655
 30
0.0
 40
3.5
 41
0.0
 71
     7
 72
     1
  1
47
  7
CONVERTER_11
 11
0.9999999999970619
 21
2.424068405545306E-6
 31
0.0
 73
     1
 44
0.60024009603842
  0
ENDBLK
  5
133
330
12B
100
AcDbEntity
  8
0
100
AcDbBlockEnd
  0
BLOCK
  5
13D
330
136
100
AcDbEntity
  8
0
100
AcDbBlockBegin
  2
*D6
 70
     1
 10
0.0
 20
0.0
 30
0.0
  3
*D6
  1

  0
LINE
  5
137
330
136
100
AcDbEntity
  8
0
  6
Continuous
 62
     2
100
AcDbLine
 10
223.9305915164
 20
97.45174293670001
 30
0.0
 11
223.9305915164
 21
145.3767429367
 31
0.0
  0
LINE
  5
138
330
136
100
AcDbEntity
  8
0
  6
Continuous
 62
     2
100
AcDbLine
 10
165.2643814969
 20
97.45174293670001
 30
0.0
 11
224.1105915164
 21
97.45174293670001
 31
0.0
  0
LINE
  5
139
330
136
100
AcDbEntity
  8
0
  6
Continuous
 62
     2
100
AcDbLine
 10
165.2643814969
 20
145.3767429367
 30
0.0
 11
224.1105915164
 21
145.3767429367
 31
0.0
  0
SOLID
  5
13A
330
136
100
AcDbEntity
  8
0
 62
     2
100
AcDbTrace
 10
224.3913752579559
 20
141.8767429367
 30
0.0
 11
223.4698077748441
 21
141.8767429367
 31
0.0
 12
223.9305915164
 22
145.3767429367
 32
0.0
 13
223.9305915164
 23
145.3767429367
 33
0.0
  0
SOLID
  5
13B
330
136
100
AcDbEntity
  8
0
 62
     2
100
AcDbTrace
 10
223.4698077748441
 20
100.9517429367
 30
0.0
 11
224.3913752579559
 21
100.9517429367
 31
0.0
 12
223.9305915164
 22
97.45174293670001
 32
0.0
 13
223.9305915164
 23
97.45174293670001
 33
0.0
  0
MTEXT
  5
13C
330
136
100
AcDbEntity
  8
0
 62
     5
100
AcDbMText
 10
221.3055915164
 20
113.8087429367
 30
0.0
 40
3.5
 41
0.0
 71
     7
 72
     1
  1
\C5;{\Fgdt;n}\C5;48
  7
CONVERTER_11
 11
0.0
 21
1.0
 31
0.0
 73
     1
 44
0.60024009603842
  0
ENDBLK
  5
13E
330
136
100
AcDbEntity
  8
0
100
AcDbBlockEnd
  0
BLOCK
  5
148
330
141
100
AcDbEntity
  8
0
100
AcDbBlockBegin
  2
*D7
 70
     1
 10
0.0
 20
0.0
 30
0.0
  3
*D7
  1

  0
LINE
  5
142
330
141
100
AcDbEntity
  8
0
  6
Continuous
 62
     2
100
AcDbLine
 10
101.6643814969
 20
193.0947046719
 30
0.0
 11
186.6643814969
 21
193.0947046719
 31
0.0
  0
LINE
  5
143
330
141
100
AcDbEntity
  8
0
  6
Continuous
 62
     2
100
AcDbLine
 10
101.6643814969
 20
142.8339072245
 30
0.0
 11
101.6643814969
 21
193.2747046719
 31
0.0
  0
LINE
  5
144
330
141
100
AcDbEntity
  8
0
  6
Continuous
 62
     2
100
AcDbLine
 10
186.6643814969
 20
173.2612517097
 30
0.0
 11
186.6643814969
 21
193.2747046719
 31
0.0
  0
SOLID
  5
145
330
141
100
AcDbEntity
  8
0
 62
     2
100
AcDbTrace
 10
183.1643814969
 20
192.6339209303441
 30
0.0
 11
183.1643814969
 21
193.5554884134559
 31
0.0
 12
186.6643814969
 22
193.0947046719
 32
0.0
 13
186.6643814969
 23
193.0947046719
 33
0.0
  0
SOLID
  5
146
330
141
100
AcDbEntity
  8
0
 62
     2
100
AcDbTrace
 10
105.1643814969
 20
193.5554884134559
 30
0.0
 11
105.1643814969
 21
192.6339209303441
 31
0.0
 12
101.6643814969
 22
193.0947046719
 32
0.0
 13
101.6643814969
 23
193.0947046719
 33
0.0
  0
MTEXT
  5
147
330
141
100
AcDbEntity
  8
0
 62
     5
100
AcDbMText
 10
142.1553814969
 20
195.7197046719
 30
0.0
 40
3.5
 41
0.0
 71
     7
 72
     1
  1
85
  7
CONVERTER_11
 11
0.9999999999970619
 21
2.424068405545306E-6
 31
0.0
 73
     1
 44
0.60024009603842
  0
ENDBLK
  5
149
330
141
100
AcDbEntity
  8
0
100
AcDbBlockEnd
  0
BLOCK
  5
153
330
14C
100
AcDbEntity
  8
0
100
AcDbBlockBegin
  2
*D8
 70
     1
 10
0.0
 20
0.0
 30
0.0
  3
*D8
  1

  0
LINE
  5
14D
330
14C
100
AcDbEntity
  8
0
  6
Continuous
 62
     2
100
AcDbLine
 10
161.6643814969
 20
165.4484097293
 30
0.0
 11
186.6643814969
 21
165.4484097293
 31
0.0
  0
LINE
  5
14E
330
14C
100
AcDbEntity
  8
0
  6
Continuous
 62
     2
100
AcDbLine
 10
161.6643814969
 20
154.5508227066
 30
0.0
 11
161.6643814969
 21
165.6284097293
 31
0.0
  0
LINE
  5
14F
330
14C
100
AcDbEntity
  8
0
  6
Continuous
 62
     2
100
AcDbLine
 10
186.6643814969
 20
102.9767429367
 30
0.0
 11
186.6643814969
 21
165.6284097293
 31
0.0
  0
SOLID
  5
150
330
14C
100
AcDbEntity
  8
0
 62
     2
100
AcDbTrace
 10
183.1643814969
 20
164.9876259877441
 30
0.0
 11
183.1643814969
 21
165.9091934708559
 31
0.0
 12
186.6643814969
 22
165.4484097293
 32
0.0
 13
186.6643814969
 23
165.4484097293
 33
0.0
  0
SOLID
  5
151
330
14C
100
AcDbEntity
  8
0
 62
     2
100
AcDbTrace
 10
165.1643814969
 20
165.9091934708559
 30
0.0
 11
165.1643814969
 21
164.9876259877441
 31
0.0
 12
161.6643814969
 22
165.4484097293
 32
0.0
 13
161.6643814969
 23
165.4484097293
 33
0.0
  0
MTEXT
  5
152
330
14C
100
AcDbEntity
  8
0
 62
     5
100
AcDbMText
 10
172.1553814969
 20
168.0734097293
 30
0.0
 40
3.5
 41
0.0
 71
     7
 72
     1
  1
25
  7
CONVERTER_11
 11
0.9999999999970619
 21
2.424068405545306E-6
 31
0.0
 73
     1
 44
0.60024009603842
  0
ENDBLK
  5
154
330
14C
100
AcDbEntity
  8
0
100
AcDbBlockEnd
  0
ENDSEC
  0
SECTION
  2
ENTITIES
  0
INSERT
  5
72
330
1F
100
AcDbEntity
  8
0
100
AcDbBlockReference
  2
_D1
 10
0.0
 20
0.0
 30
0.0
  0
POINT
  5
7A
330
1F
100
AcDbEntity
  8
0
 62
     7
100
AcDbPoint
 10
139.6643814969
 20
159.7506308637
 30
0.0
  0
POINT
  5
7B
330
1F
100
AcDbEntity
  8
0
 62
     7
100
AcDbPoint
 10
199.6643814969
 20
143.4126413216
 30
0.0
  0
POINT
  5
7C
330
1F
100
AcDbEntity
  8
0
 62
     7
100
AcDbPoint
 10
188.1643814969
 20
137.4142429367
 30
0.0
  0
POINT
  5
7D
330
1F
100
AcDbEntity
  8
0
 62
     7
100
AcDbPoint
 10
188.1643814969
 20
105.4142429367
 30
0.0
  0
POINT
  5
7E
330
1F
100
AcDbEntity
  8
0
 62
     7
100
AcDbPoint
 10
139.6643814969
 20
154.3421474801
 30
0.0
  0
POINT
  5
7F
330
1F
100
AcDbEntity
  8
0
 62
     7
100
AcDbPoint
 10
186.6643814969
 20
164.3728348332
 30
0.0
  0
POINT
  5
80
330
1F
100
AcDbEntity
  8
0
 62
     7
100
AcDbPoint
 10
165.2018814969
 20
97.4517429367
 30
0.0
  0
POINT
  5
81
330
1F
100
AcDbEntity
  8
0
 62
     7
100
AcDbPoint
 10
165.2018814969
 20
145.3767429367
 30
0.0
  0
POINT
  5
82
330
1F
100
AcDbEntity
  8
0
 62
     7
100
AcDbPoint
 10
101.6643814969
 20
142.7714072245
 30
0.0
  0
POINT
  5
83
330
1F
100
AcDbEntity
  8
0
 62
     7
100
AcDbPoint
 10
186.6643814969
 20
173.1987517097
 30
0.0
  0
POINT
  5
84
330
1F
100
AcDbEntity
  8
0
 62
     7
100
AcDbPoint
 10
161.6643814969
 20
154.4883227066
 30
0.0
  0
POINT
  5
85
330
1F
100
AcDbEntity
  8
0
 62
     7
100
AcDbPoint
 10
186.6643814969
 20
102.9142429367
 30
0.0
  0
LINE
  5
86
330
1F
100
AcDbEntity
  8
ACHSEN
  6
Continuous
 62
     7
100
AcDbLine
 10
108.0143814969
 20
141.0182942354
 30
0.0
 11
103.1643814969
 21
140.9112325503
 31
0.0
  0
LINE
  5
87
330
1F
100
AcDbEntity
  8
DEFAULT_1
  6
CENTER
 62
     5
100
AcDbLine
 10
197.6643814969
 20
145.3767429367
 30
0.0
 11
199.6643814969
 21
141.9126413216
 31
0.0
  0
LINE
  5
88
330
1F
100
AcDbEntity
  8
DEFAULT_1
  6
CENTER
 62
     5
100
AcDbLine
 10
195.7015109997
 20
141.7042429367
 30
0.0
 11
199.6643814969
 21
138.1260265585
 31
0.0
  0
LINE
  5
89
330
1F
100
AcDbEntity
  8
DEFAULT_1
  6
CENTER
 62
     5
100
AcDbLine
 10
197.6643814969
 20
97.4517429367
 30
0.0
 11
199.6643814969
 21
100.9158445519
 31
0.0
  0
LINE
  5
8A
330
1F
100
AcDbEntity
  8
DEFAULT_1
  6
CENTER
 62
     5
100
AcDbLine
 10
199.6643814969
 20
141.9126413216
 30
0.0
 11
199.6643814969
 21
100.9158445519
 31
0.0
  0
LINE
  5
8B
330
1F
100
AcDbEntity
  8
FASEN
  6
Continuous
 62
     7
100
AcDbLine
 10
186.6643814969
 20
139.9142429366
 30
0.0
 11
185.7983560938
 21
141.4142429356
 31
0.0
  0
LINE
  5
8C
330
1F
100
AcDbEntity
  8
DEFAULT_1
  6
CENTER
 62
     5
100
AcDbLine
 10
195.7015109997
 20
101.1242429367
 30
0.0
 11
199.6643814969
 21
104.7024593149
 31
0.0
  0
LINE
  5
8D
330
1F
100
AcDbEntity
  8
0
  6
Continuous
 62
     7
100
AcDbLine
 10
146.4421592339
 20
152.9142429367
 30
0.0
 11
139.9643815693
 21
152.9142429367
 31
0.0
  0
LINE
  5
8E
330
1F
100
AcDbEntity
  8
0
  6
Continuous
 62
     7
100
AcDbLine
 10
161.6643814969
 20
152.9142429367
 30
0.0
 11
156.8866060692
 21
152.9142429367
 31
0.0
  0
LINE
  5
8F
330
1F
100
AcDbEntity
  8
0
  6
Continuous
 62
     7
100
AcDbLine
 10
153.1257063623
 20
151.494835697
 30
0.0
 11
150.2030566315
 21
151.494835697
 31
0.0
  0
LINE
  5
90
330
1F
100
AcDbEntity
  8
FASEN
  6
Continuous
 62
     7
100
AcDbLine
 10
186.6643814976
 20
102.9142429379
 30
0.0
 11
185.7983560939
 21
101.414242938
 31
0.0
  0
LINE
  5
91
330
1F
100
AcDbEntity
  8
FASEN
  6
Continuous
 62
     7
100
AcDbLine
 10
186.6643814969
 20
102.9142429367
 30
0.0
 11
186.6643814969
 21
139.9142429366
 31
0.0
  0
LINE
  5
92
330
1F
100
AcDbEntity
  8
0
  6
Continuous
 62
     7
100
AcDbLine
 10
186.3295183408
 20
140.4942429367
 30
0.0
 11
186.3295183408
 21
102.3342429367
 31
0.0
  0
LINE
  5
93
330
1F
100
AcDbEntity
  8
FASEN
  6
Continuous
 62
     7
100
AcDbLine
 10
185.7983560931
 20
101.4142429367
 30
0.0
 11
185.7983560931
 21
141.4142429367
 31
0.0
  0
LINE
  5
94
330
1F
100
AcDbEntity
  8
DEFAULT_1
  6
CENTER
 62
     5
100
AcDbLine
 10
191.7343814969
 20
102.3342429367
 30
0.0
 11
192.4015109997
 21
101.1242429367
 31
0.0
  0
LINE
  5
95
330
1F
100
AcDbEntity
  8
0
  6
Continuous
 62
     7
100
AcDbLine
 10
163.9947747157
 20
145.0838497179
 30
0.0
 11
167.3714882781
 21
141.7071361555
 31
0.0
  0
LINE
  5
96
330
1F
100
AcDbEntity
  8
DEFAULT_1
  6
CENTER
 62
     5
100
AcDbLine
 10
179.8243814969
 20
145.3767429367
 30
0.0
 11
197.6643814969
 21
145.3767429367
 31
0.0
  0
LINE
  5
97
330
1F
100
AcDbEntity
  8
0
  6
Continuous
 62
     7
100
AcDbLine
 10
162.6643814969
 20
145.3767429367
 30
0.0
 11
163.2876679345
 21
145.3767429367
 31
0.0
  0
LINE
  5
98
330
1F
100
AcDbEntity
  8
DEFAULT_1
  6
CENTER
 62
     5
100
AcDbLine
 10
192.4015109997
 20
141.7042429367
 30
0.0
 11
195.7015109997
 21
141.7042429367
 31
0.0
  0
LINE
  5
99
330
1F
100
AcDbEntity
  8
0
  6
Continuous
 62
     7
100
AcDbLine
 10
168.0785950593
 20
141.4142429367
 30
0.0
 11
185.7983560931
 21
141.4142429367
 31
0.0
  0
LINE
  5
9A
330
1F
100
AcDbEntity
  8
DEFAULT_1
  6
CENTER
 62
     5
100
AcDbLine
 10
186.3295183408
 20
140.4942429367
 30
0.0
 11
191.7343814969
 21
140.4942429367
 31
0.0
  0
LINE
  5
9B
330
1F
100
AcDbEntity
  8
0
  6
Continuous
 62
     2
100
AcDbLine
 10
170.1643814969
 20
140.4942429367
 30
0.0
 11
186.3295183408
 21
140.4942429367
 31
0.0
  0
LINE
  5
9C
330
1F
100
AcDbEntity
  8
0
  6
Continuous
 62
     7
100
AcDbLine
 10
128.8437428301
 20
141.8177612721
 30
0.0
 11
137.4644445859
 21
142.0343433063
 31
0.0
  0
LINE
  5
9D
330
1F
100
AcDbEntity
  8
0
  6
Continuous
 62
     7
100
AcDbLine
 10
109.927986251
 20
141.3425316269
 30
0.0
 11
119.7143814969
 21
141.5883999389
 31
0.0
  0
LINE
  5
9E
330
1F
100
AcDbEntity
  8
0
  6
Continuous
 62
     7
100
AcDbLine
 10
137.669404608
 20
141.8394295065
 30
0.0
 11
139.269404608
 21
141.8796270756
 31
0.0
  0
LINE
  5
9F
330
1F
100
AcDbEntity
  8
DEFAULT_1
  6
CENTER
 62
     5
100
AcDbLine
 10
191.7343814969
 20
140.4942429367
 30
0.0
 11
192.4015109997
 21
141.7042429367
 31
0.0
  0
LINE
  5
A0
330
1F
100
AcDbEntity
  8
DEFAULT_1
  6
CENTER
 62
     5
100
AcDbLine
 10
177.8243814969
 20
141.4142429367
 30
0.0
 11
177.8243814969
 21
143.3767429367
 31
0.0
  0
LINE
  5
A1
330
1F
100
AcDbEntity
  8
DEFAULT_1
  6
CENTER
 62
     5
100
AcDbLine
 10
177.8243814969
 20
99.4517429367
 30
0.0
 11
177.8243814969
 21
101.4142429367
 31
0.0
  0
LINE
  5
A2
330
1F
100
AcDbEntity
  8
0
  6
Continuous
 62
     7
100
AcDbLine
 10
137.9174102477
 20
136.1040143694
 30
0.0
 11
137.669404608
 21
136.0991851415
 31
0.0
  0
LINE
  5
A3
330
1F
100
AcDbEntity
  8
0
  6
Continuous
 62
     9
100
AcDbLine
 10
103.1643814969
 20
137.1254875754
 30
0.0
 11
137.4644445859
 21
137.8717736853
 31
0.0
  0
LINE
  5
A4
330
1F
100
AcDbEntity
  8
0
  6
Continuous
 62
     7
100
AcDbLine
 10
163.9947747157
 20
97.7446361555
 30
0.0
 11
167.3714882781
 21
101.1213497179
 31
0.0
  0
LINE
  5
A5
330
1F
100
AcDbEntity
  8
RUNDUNGEN
  6
Continuous
 62
     7
100
AcDbLine
 10
167.3714882781
 20
101.1213497179
 30
0.0
 11
163.9947747157
 21
97.7446361555
 31
0.0
  0
LINE
  5
A6
330
1F
100
AcDbEntity
  8
0
  6
Continuous
 62
     7
100
AcDbLine
 10
170.1643814969
 20
141.4142429367
 30
0.0
 11
170.1643814969
 21
101.4142429367
 31
0.0
  0
LINE
  5
A7
330
1F
100
AcDbEntity
  8
RUNDUNGEN
  6
Continuous
 62
     9
100
AcDbLine
 10
168.0785950593
 20
141.4142429367
 30
0.0
 11
168.0785950593
 21
101.4142429367
 31
0.0
  0
LINE
  5
A8
330
1F
100
AcDbEntity
  8
RUNDUNGEN
  6
Continuous
 62
     9
100
AcDbLine
 10
167.3714882781
 20
141.7071361555
 30
0.0
 11
167.3714882781
 21
101.1213497179
 31
0.0
  0
LINE
  5
A9
330
1F
100
AcDbEntity
  8
0
  6
Continuous
 62
     7
100
AcDbLine
 10
153.1257063623
 20
130.7634642512
 30
0.0
 11
150.2030566315
 21
130.7634642512
 31
0.0
  0
LINE
  5
AA
330
1F
100
AcDbEntity
  8
0
  6
Continuous
 62
     9
100
AcDbLine
 10
101.6643814969
 20
126.6391140673
 30
0.0
 11
137.4644445859
 21
126.6391140673
 31
0.0
  0
LINE
  5
AB
330
1F
100
AcDbEntity
  8
0
  6
Continuous
 62
     7
100
AcDbLine
 10
137.669404608
 20
129.6001861235
 30
0.0
 11
137.9174102477
 21
129.6012003794
 31
0.0
  0
LINE
  5
AC
330
1F
100
AcDbEntity
  8
RUNDUNGEN
  6
Continuous
 62
     9
100
AcDbLine
 10
163.9947747157
 20
97.7446361555
 30
0.0
 11
163.9947747157
 21
145.0838497179
 31
0.0
  0
LINE
  5
AD
330
1F
100
AcDbEntity
  8
RUNDUNGEN
  6
Continuous
 62
     9
100
AcDbLine
 10
163.2876679345
 20
97.4517429367
 30
0.0
 11
163.2876679345
 21
145.3767429367
 31
0.0
  0
LINE
  5
AE
330
1F
100
AcDbEntity
  8
RUNDUNGEN
  6
Continuous
 62
     9
100
AcDbLine
 10
162.6643814969
 20
145.3767429367
 30
0.0
 11
162.6643814969
 21
97.4517429367
 31
0.0
  0
LINE
  5
AF
330
1F
100
AcDbEntity
  8
0
  6
Continuous
 62
     7
100
AcDbLine
 10
161.6643814969
 20
89.9142429367
 30
0.0
 11
161.6643814969
 21
152.9142429367
 31
0.0
  0
LINE
  5
B0
330
1F
100
AcDbEntity
  8
S_ACHSEN
  6
CENTER
 62
     7
100
AcDbLine
 10
98.6643814969
 20
121.4142429367
 30
0.0
 11
202.6643814969
 21
121.4142429367
 31
0.0
  0
LINE
  5
B1
330
1F
100
AcDbEntity
  8
0
  6
Continuous
 62
     7
100
AcDbLine
 10
138.3572747157
 20
98.6713497179
 30
0.0
 11
137.6747843194
 21
97.9888593216
 31
0.0
  0
LINE
  5
B2
330
1F
100
AcDbEntity
  8
0
  6
Continuous
 62
     9
100
AcDbLine
 10
153.5587190642
 20
111.5448303177
 30
0.0
 11
153.5587190642
 21
91.5002880902
 31
0.0
  0
LINE
  5
B3
330
1F
100
AcDbEntity
  8
0
  6
Continuous
 62
     9
100
AcDbLine
 10
153.5587190642
 20
151.3281977832
 30
0.0
 11
153.5587190642
 21
131.2836555557
 31
0.0
  0
LINE
  5
B4
330
1F
100
AcDbEntity
  8
0
  6
Continuous
 62
     9
100
AcDbLine
 10
153.1257063623
 20
112.0650216222
 30
0.0
 11
153.1257063623
 21
91.3336501764
 31
0.0
  0
LINE
  5
B5
330
1F
100
AcDbEntity
  8
0
  6
Continuous
 62
     9
100
AcDbLine
 10
153.1257063623
 20
151.494835697
 30
0.0
 11
153.1257063623
 21
130.7634642512
 31
0.0
  0
LINE
  5
B6
330
1F
100
AcDbEntity
  8
ACHSEN
  6
CENTER
 62
     7
100
AcDbLine
 10
151.6643814969
 20
148.7125216987
 30
0.0
 11
151.6643814969
 21
155.9142429367
 31
0.0
  0
LINE
  5
B7
330
1F
100
AcDbEntity
  8
0
  6
Continuous
 62
     9
100
AcDbLine
 10
150.2030566315
 20
112.0650216222
 30
0.0
 11
150.2030566315
 21
91.3336501764
 31
0.0
  0
LINE
  5
B8
330
1F
100
AcDbEntity
  8
0
  6
Continuous
 62
     9
100
AcDbLine
 10
150.2030566315
 20
151.494835697
 30
0.0
 11
150.2030566315
 21
130.7634642512
 31
0.0
  0
LINE
  5
B9
330
1F
100
AcDbEntity
  8
0
  6
Continuous
 62
     9
100
AcDbLine
 10
149.7700439296
 20
111.5448303177
 30
0.0
 11
149.7700439296
 21
91.5002880902
 31
0.0
  0
LINE
  5
BA
330
1F
100
AcDbEntity
  8
0
  6
Continuous
 62
     9
100
AcDbLine
 10
149.7700439296
 20
151.3281977832
 30
0.0
 11
149.7700439296
 21
131.2836555557
 31
0.0
  0
LINE
  5
BB
330
1F
100
AcDbEntity
  8
0
  6
Continuous
 62
     7
100
AcDbLine
 10
153.1257063623
 20
112.0650216222
 30
0.0
 11
150.2030566315
 21
112.0650216222
 31
0.0
  0
LINE
  5
BC
330
1F
100
AcDbEntity
  8
0
  6
Continuous
 62
     7
100
AcDbLine
 10
139.9643815704
 20
89.9142429367
 30
0.0
 11
139.9643815704
 21
152.9142429367
 31
0.0
  0
LINE
  5
BD
330
1F
100
AcDbEntity
  8
0
  6
Continuous
 62
     7
100
AcDbLine
 10
139.6643814969
 20
90.2145186063
 30
0.0
 11
139.6643814969
 21
152.6139672672
 31
0.0
  0
LINE
  5
BE
330
1F
100
AcDbEntity
  8
0
  6
Continuous
 62
     7
100
AcDbLine
 10
139.4643814969
 20
138.2253262426
 30
0.0
 11
139.4643814969
 21
143.9477277977
 31
0.0
  0
LINE
  5
BF
330
1F
100
AcDbEntity
  8
0
  6
Continuous
 62
     7
100
AcDbLine
 10
139.4643814969
 20
100.0148279201
 30
0.0
 11
139.4643814969
 21
126.0025744843
 31
0.0
  0
LINE
  5
C0
330
1F
100
AcDbEntity
  8
0
  6
Continuous
 62
     9
100
AcDbLine
 10
139.269404608
 20
126.5971933899
 30
0.0
 11
139.269404608
 21
99.8868141966
 31
0.0
  0
LINE
  5
C1
330
1F
100
AcDbEntity
  8
0
  6
Continuous
 62
     9
100
AcDbLine
 10
139.269404608
 20
141.8796270756
 30
0.0
 11
139.269404608
 21
137.7587212237
 31
0.0
  0
LINE
  5
C2
330
1F
100
AcDbEntity
  8
0
  6
Continuous
 62
     9
100
AcDbLine
 10
138.3572747157
 20
127.8287826975
 30
0.0
 11
138.3572747157
 21
137.1032598269
 31
0.0
  0
LINE
  5
C3
330
1F
100
AcDbEntity
  8
0
  6
Continuous
 62
     9
100
AcDbLine
 10
138.3572747157
 20
98.6713497179
 30
0.0
 11
138.3572747157
 21
99.3106862858
 31
0.0
  0
LINE
  5
C4
330
1F
100
AcDbEntity
  8
0
  6
Continuous
 62
     9
100
AcDbLine
 10
137.669404608
 20
129.6001861235
 30
0.0
 11
137.669404608
 21
98.5433575452
 31
0.0
  0
LINE
  5
C5
330
1F
100
AcDbEntity
  8
0
  6
Continuous
 62
     9
100
AcDbLine
 10
137.669404608
 20
141.8394295065
 30
0.0
 11
137.669404608
 21
136.0991851415
 31
0.0
  0
LINE
  5
C6
330
1F
100
AcDbEntity
  8
0
  6
Continuous
 62
     7
100
AcDbLine
 10
137.4644445859
 20
126.6391140673
 30
0.0
 11
137.4644445859
 21
99.7318410575
 31
0.0
  0
LINE
  5
C7
330
1F
100
AcDbEntity
  8
0
  6
Continuous
 62
     7
100
AcDbLine
 10
137.4644445859
 20
142.0343433063
 30
0.0
 11
137.4644445859
 21
137.8717736853
 31
0.0
  0
LINE
  5
C8
330
1F
100
AcDbEntity
  8
0
  6
Continuous
 62
     7
100
AcDbLine
 10
139.4644047043
 20
100.0183163798
 30
0.0
 11
139.4643814969
 21
100.0208564796
 31
0.0
  0
LINE
  5
C9
330
1F
100
AcDbEntity
  8
0
  6
Continuous
 62
     9
100
AcDbLine
 10
137.4644445859
 20
99.7318410575
 30
0.0
 11
103.1643814969
 21
100.4781271674
 31
0.0
  0
LINE
  5
CA
330
1F
100
AcDbEntity
  8
DEFAULT_1
  6
CENTER
 62
     5
100
AcDbLine
 10
186.3295183408
 20
102.3342429367
 30
0.0
 11
191.7343814969
 21
102.3342429367
 31
0.0
  0
LINE
  5
CB
330
1F
100
AcDbEntity
  8
0
  6
Continuous
 62
     2
100
AcDbLine
 10
170.1643814969
 20
102.3342429367
 30
0.0
 11
186.3295183408
 21
102.3342429367
 31
0.0
  0
LINE
  5
CC
330
1F
100
AcDbEntity
  8
0
  6
Continuous
 62
     7
100
AcDbLine
 10
168.0785950593
 20
101.4142429367
 30
0.0
 11
185.7983560931
 21
101.4142429367
 31
0.0
  0
LINE
  5
CD
330
1F
100
AcDbEntity
  8
RUNDUNGEN
  6
Continuous
 62
     7
100
AcDbLine
 10
185.7983560931
 20
101.4142429367
 30
0.0
 11
168.0785950593
 21
101.4142429367
 31
0.0
  0
LINE
  5
CE
330
1F
100
AcDbEntity
  8
DEFAULT_1
  6
CENTER
 62
     5
100
AcDbLine
 10
192.4015109997
 20
101.1242429367
 30
0.0
 11
195.7015109997
 21
101.1242429367
 31
0.0
  0
LINE
  5
CF
330
1F
100
AcDbEntity
  8
0
  6
Continuous
 62
     7
100
AcDbLine
 10
103.1643814969
 20
98.85587954
 30
0.0
 11
137.6747843197
 21
97.9888581009
 31
0.0
  0
LINE
  5
D0
330
1F
100
AcDbEntity
  8
0
  6
Continuous
 62
     7
100
AcDbLine
 10
137.9174102477
 20
98.5375140614
 30
0.0
 11
137.669404608
 21
98.5433575452
 31
0.0
  0
LINE
  5
D1
330
1F
100
AcDbEntity
  8
0
  6
Continuous
 62
     7
100
AcDbLine
 10
162.6643814969
 20
97.4517429367
 30
0.0
 11
163.2876679345
 21
97.4517429367
 31
0.0
  0
LINE
  5
D2
330
1F
100
AcDbEntity
  8
RUNDUNGEN
  6
Continuous
 62
     7
100
AcDbLine
 10
163.2876679345
 20
97.4517429367
 30
0.0
 11
162.6643814969
 21
97.4517429367
 31
0.0
  0
LINE
  5
D3
330
1F
100
AcDbEntity
  8
DEFAULT_1
  6
CENTER
 62
     5
100
AcDbLine
 10
197.6643814969
 20
97.4517429367
 30
0.0
 11
179.8243814969
 21
97.4517429367
 31
0.0
  0
LINE
  5
D4
330
1F
100
AcDbEntity
  8
0
  6
Continuous
 62
     7
100
AcDbLine
 10
139.6643833328
 20
90.2142448441
 30
0.0
 11
139.9643834227
 21
89.9142447902
 31
0.0
  0
LINE
  5
D5
330
1F
100
AcDbEntity
  8
0
  6
Continuous
 62
     7
100
AcDbLine
 10
153.1257063623
 20
91.3336501764
 30
0.0
 11
150.2030566315
 21
91.3336501764
 31
0.0
  0
LINE
  5
D6
330
1F
100
AcDbEntity
  8
0
  6
Continuous
 62
     7
100
AcDbLine
 10
161.6643814969
 20
89.9142429367
 30
0.0
 11
139.9643815693
 21
89.9142429367
 31
0.0
  0
LINE
  5
D7
330
1F
100
AcDbEntity
  8
ACHSEN
  6
CENTER
 62
     7
100
AcDbLine
 10
124.1643814969
 20
98.4807574297
 30
0.0
 11
124.1643814969
 21
145.6026135013
 31
0.0
  0
LINE
  5
D8
330
1F
100
AcDbEntity
  8
0
  6
Continuous
 62
     9
100
AcDbLine
 10
103.1643814969
 20
100.4781271674
 30
0.0
 11
101.6643814969
 21
101.2281271674
 31
0.0
  0
LINE
  5
D9
330
1F
100
AcDbEntity
  8
0
  6
Continuous
 62
     7
100
AcDbLine
 10
139.6643833328
 20
152.6142410294
 30
0.0
 11
139.9643834227
 21
152.9142410833
 31
0.0
  0
LINE
  5
DA
330
1F
100
AcDbEntity
  8
0
  6
Continuous
 62
     7
100
AcDbLine
 10
103.1643814969
 20
98.85587954
 30
0.0
 11
101.6643814969
 21
99.7219049438
 31
0.0
  0
LINE
  5
DB
330
1F
100
AcDbEntity
  8
0
  6
Continuous
 62
     9
100
AcDbLine
 10
103.1643814969
 20
137.1254875754
 30
0.0
 11
101.6643814969
 21
136.3754875754
 31
0.0
  0
LINE
  5
DC
330
1F
100
AcDbEntity
  8
0
  6
Continuous
 62
     7
100
AcDbLine
 10
103.1643814969
 20
137.1254875754
 30
0.0
 11
103.1643814969
 21
98.85587954
 31
0.0
  0
LINE
  5
DD
330
1F
100
AcDbEntity
  8
ACHSEN
  6
Continuous
 62
     7
100
AcDbLine
 10
103.1643814969
 20
140.9112325503
 30
0.0
 11
103.1643814969
 21
137.1254875754
 31
0.0
  0
LINE
  5
DE
330
1F
100
AcDbEntity
  8
ACHSEN
  6
Continuous
 62
     7
100
AcDbLine
 10
101.6643814969
 20
136.3754875754
 30
0.0
 11
101.6643814969
 21
140.1627222507
 31
0.0
  0
LINE
  5
DF
330
1F
100
AcDbEntity
  8
0
  6
Continuous
 62
     7
100
AcDbLine
 10
101.6643814969
 20
99.7219049438
 30
0.0
 11
101.6643814969
 21
136.3754875754
 31
0.0
  0
LINE
  5
E0
330
1F
100
AcDbEntity
  8
0
  6
Continuous
 62
     7
100
AcDbLine
 10
297.0
 20
0.0
 30
0.0
 11
297.0
 21
210.0
 31
0.0
  0
LINE
  5
E1
330
1F
100
AcDbEntity
  8
0
  6
Continuous
 62
     7
100
AcDbLine
 10
0.0
 20
210.0
 30
0.0
 11
297.0
 21
210.0
 31
0.0
  0
LINE
  5
E2
330
1F
100
AcDbEntity
  8
0
  6
Continuous
 62
     7
100
AcDbLine
 10
0.0
 20
0.0
 30
0.0
 11
297.0
 21
0.0
 31
0.0
  0
LINE
  5
E3
330
1F
100
AcDbEntity
  8
0
  6
Continuous
 62
     7
100
AcDbLine
 10
0.0
 20
0.0
 30
0.0
 11
0.0
 21
210.0
 31
0.0
  0
ARC
  5
E4
330
1F
100
AcDbEntity
  8
0
  6
Continuous
 62
     7
100
AcDbCircle
 10
137.6643814969
 20
142.0393664174
 30
0.0
 40
0.2000000000633711
100
AcDbArc
 50
181.4391666591312
 51
271.4391666598509
  0
ARC
  5
E5
330
1F
100
AcDbEntity
  8
0
  6
Continuous
 62
     7
100
AcDbCircle
 10
139.2643814969
 20
142.0795639865
 30
0.0
 40
0.1999999999633866
100
AcDbArc
 50
271.4391666598509
 51
0.0
  0
ARC
  5
E6
330
1F
100
AcDbEntity
  8
0
  6
Continuous
 62
     7
100
AcDbCircle
 10
139.0643814969
 20
144.8642429367
 30
0.0
 40
1.000000000008096
100
AcDbArc
 50
293.578178477998
 51
306.9599393197838
  0
ARC
  5
E7
330
1F
100
AcDbEntity
  8
0
  6
Continuous
 62
     7
100
AcDbCircle
 10
139.0643814969
 20
97.9642429367
 30
0.0
 40
0.999999999999785
100
AcDbArc
 50
53.04006068021279
 51
135.0000000000011
  0
ARC
  5
E8
330
1F
100
AcDbEntity
  8
RUNDUNGEN
  6
Continuous
 62
     7
100
AcDbCircle
 10
168.0785950593
 20
100.4142429367
 30
0.0
 40
1.0
100
AcDbArc
 50
90.0
 51
135.0
  0
ARC
  5
E9
330
1F
100
AcDbEntity
  8
RUNDUNGEN
  6
Continuous
 62
     7
100
AcDbCircle
 10
168.0785950593
 20
142.4142429367
 30
0.0
 40
1.00000000001902
100
AcDbArc
 50
225.0
 51
270.0
  0
ARC
  5
EA
330
1F
100
AcDbEntity
  8
RUNDUNGEN
  6
Continuous
 62
     7
100
AcDbCircle
 10
163.2876679345
 20
98.4517429367
 30
0.0
 40
1.0
100
AcDbArc
 50
270.0
 51
315.0
  0
ARC
  5
EB
330
1F
100
AcDbEntity
  8
RUNDUNGEN
  6
Continuous
 62
     7
100
AcDbCircle
 10
163.2876679345
 20
144.3767429367
 30
0.0
 40
1.00000000001902
100
AcDbArc
 50
45.0
 51
90.0
  0
ARC
  5
EC
330
1F
100
AcDbEntity
  8
RUNDUNGEN
  6
Continuous
 62
     7
100
AcDbCircle
 10
162.6643814969
 20
96.4517429367
 30
0.0
 40
1.0
100
AcDbArc
 50
90.0
 51
179.9999999997997
  0
ARC
  5
ED
330
1F
100
AcDbEntity
  8
RUNDUNGEN
  6
Continuous
 62
     7
100
AcDbCircle
 10
162.6643814969
 20
146.3767429367
 30
0.0
 40
1.0
100
AcDbArc
 50
180.000000000114
 51
270.0
  0
ARC
  5
EE
330
1F
100
AcDbEntity
  8
DEFAULT_1
  6
CENTER
 62
     5
100
AcDbCircle
 10
179.8243814969
 20
99.4517429367
 30
0.0
 40
2.0
100
AcDbArc
 50
180.0
 51
270.0
  0
ARC
  5
EF
330
1F
100
AcDbEntity
  8
DEFAULT_1
  6
CENTER
 62
     5
100
AcDbCircle
 10
179.8243814969
 20
143.3767429367
 30
0.0
 40
2.0
100
AcDbArc
 50
90.0
 51
180.0
  0
ARC
  5
F0
330
1F
100
AcDbEntity
  8
0
  6
Continuous
 62
     7
100
AcDbCircle
 10
128.5093572561
 20
104.4015455155
 30
0.0
 40
11.08595174026243
100
AcDbArc
 50
328.0647477759301
 51
332.6633964604966
  0
ARC
  5
F1
330
1F
100
AcDbEntity
  8
FASEN
  6
Continuous
 62
     7
100
AcDbCircle
 10
153.3038665582
 20
173.4454069513
 30
0.0
 40
20.84057420809997
100
AcDbArc
 50
278.442864522901
 51
279.0714283332994
  0
ARC
  5
F2
330
1F
100
AcDbEntity
  8
0
  6
Continuous
 62
     7
100
AcDbCircle
 10
31.3746798373
 20
102.2194863966
 30
0.0
 40
110.0050529018697
100
AcDbArc
 50
13.4620399627636
 51
14.41321257218094
  0
ARC
  5
F3
330
1F
100
AcDbEntity
  8
ACHSEN
  6
Continuous
 62
     7
100
AcDbCircle
 10
38.0750751179
 20
269.4714599567
 30
0.0
 40
144.0984017398999
100
AcDbArc
 50
296.1862714672001
 51
296.8528322492001
  0
ARC
  5
F4
330
1F
100
AcDbEntity
  8
0
  6
Continuous
 62
     7
100
AcDbCircle
 10
284.4529791611
 20
72.1959891057
 30
0.0
 40
159.8652828161037
100
AcDbArc
 50
156.0454215406258
 51
156.436714817202
  0
SPLINE
  5
F5
330
1F
100
AcDbEntity
  8
0
  6
Continuous
 62
     7
100
AcDbSpline
210
0.0
220
0.0
230
1.0
 70
     8
 71
     3
 72
    15
 73
    11
 74
     9
 42
0.0000000001
 43
0.0000000001
 44
0.00000001
 40
0.0
 40
0.0
 40
0.0
 40
0.0
 40
2.768071363099884
 40
5.543987163860082
 40
7.429045839534132
 40
9.310745244023618
 40
11.52272334203719
 40
13.73599890381791
 40
17.16735239739281
 40
20.59799187458811
 40
20.59799187458811
 40
20.59799187458811
 40
20.59799187458811
 10
153.558719064471
 20
91.5002880906069
 30
0.0
 10
154.0397086778133
 20
92.29779809847629
 30
0.0
 10
155.0030509810023
 20
93.8950781778911
 30
0.0
 10
155.3809929554106
 20
96.3869520416786
 30
0.0
 10
155.5227959932459
 20
98.55813578724974
 30
0.0
 10
155.4899550864933
 20
100.554178825912
 30
0.0
 10
155.3282706598097
 20
102.6509869594586
 30
0.0
 10
154.979986493807
 20
105.2476128176209
 30
0.0
 10
154.4205595592884
 20
108.2232163120248
 30
0.0
 10
153.8459793001448
 20
110.4377024577008
 30
0.0
 10
153.5587190642
 20
111.5448303177
 30
0.0
 11
153.558719064471
 21
91.5002880906069
 31
0.0
 11
154.8318445731367
 21
93.958208046667
 31
0.0
 11
155.3780394308329
 21
96.67985822814447
 31
0.0
 11
155.4972407310048
 21
98.5611442937845
 31
0.0
 11
155.4743468124847
 21
100.442704422335
 31
0.0
 11
155.3076344065567
 21
102.6483911815557
 31
0.0
 11
155.018959305923
 21
104.8427602021741
 31
0.0
 11
154.3826110811355
 21
108.2145917125966
 31
0.0
 11
153.5587190642
 21
111.5448303177
 31
0.0
  0
SPLINE
  5
F6
330
1F
100
AcDbEntity
  8
0
  6
Continuous
 62
     7
100
AcDbSpline
210
0.0
220
0.0
230
1.0
 70
     8
 71
     3
 72
    15
 73
    11
 74
     9
 42
0.0000000001
 43
0.0000000001
 44
0.00000001
 40
0.0
 40
0.0
 40
0.0
 40
0.0
 40
4.908005104137914
 40
9.815816966999243
 40
11.81736697909047
 40
13.81798377143655
 40
15.47664584385801
 40
17.13807096930752
 40
18.87967153826347
 40
20.60869205864729
 40
20.60869205864729
 40
20.60869205864729
 40
20.60869205864729
 10
149.770043929708
 20
111.544830316206
 30
0.0
 10
149.3683841464977
 20
109.9582894194462
 30
0.0
 10
148.5650803944959
 20
106.7852700922813
 30
0.0
 10
147.9933545124488
 20
102.8775561141821
 30
0.0
 10
147.8126983578233
 20
99.91163344114317
 30
0.0
 10
147.826306026181
 20
98.0233569332384
 30
0.0
 10
147.9718388831865
 20
96.2524854408466
 30
0.0
 10
148.2853505555927
 20
94.59515699116886
 30
0.0
 10
148.7893529031565
 20
92.94077100161769
 30
0.0
 10
149.4439378178382
 20
91.97928735567478
 30
0.0
 10
149.770043929881
 20
91.5002880898215
 30
0.0
 11
149.770043929708
 21
111.544830316206
 31
0.0
 11
148.6471710982948
 21
106.7669991443543
 31
0.0
 11
147.9507235629919
 21
101.9088536018851
 31
0.0
 11
147.8353818462952
 21
99.91062970569837
 31
0.0
 11
147.8544161811548
 21
97.91010346395257
 31
0.0
 11
148.0004226703393
 21
96.25788012081597
 31
0.0
 11
148.3098036875332
 21
94.62551471023077
 31
0.0
 11
148.8695944972049
 21
92.97633103604683
 31
0.0
 11
149.770043929881
 21
91.5002880898215
 31
0.0
  0
SPLINE
  5
F7
330
1F
100
AcDbEntity
  8
0
  6
Continuous
 62
     7
100
AcDbSpline
210
0.0
220
0.0
230
1.0
 70
     8
 71
     3
 72
    15
 73
    11
 74
     9
 42
0.0000000001
 43
0.0000000001
 44
0.00000001
 40
0.0
 40
0.0
 40
0.0
 40
0.0
 40
2.768071362270682
 40
5.543987162655798
 40
7.42904583815525
 40
9.310745242468867
 40
11.52272334032116
 40
13.73599890194078
 40
17.16735239701902
 40
20.59799187652337
 40
20.59799187652337
 40
20.59799187652337
 40
20.59799187652337
 10
149.7700439296
 20
151.3281977832
 30
0.0
 10
149.2890543162806
 20
150.5306877756402
 30
0.0
 10
148.3257120130583
 20
148.9334076967139
 30
0.0
 10
147.9477700385047
 20
146.4415338334043
 30
0.0
 10
147.8059670004926
 20
144.2703500880893
 30
0.0
 10
147.8388079071061
 20
142.2743070495941
 30
0.0
 10
148.0004923336497
 20
140.1774989162029
 30
0.0
 10
148.3487764995755
 20
137.5808730576347
 30
0.0
 10
148.908203434199
 20
134.6052695619985
 30
0.0
 10
149.4827836940905
 20
132.3907834151989
 30
0.0
 10
149.770043930443
 20
131.283655554508
 30
0.0
 11
149.7700439296
 21
151.3281977832
 31
0.0
 11
148.4969184209587
 21
148.8702778280611
 31
0.0
 11
147.9507235630588
 21
146.1486276470071
 31
0.0
 11
147.8315222627375
 21
144.2673415815515
 31
0.0
 11
147.8544161811225
 21
142.3857814531753
 31
0.0
 11
148.0211285869053
 21
140.1800946941053
 31
0.0
 11
148.3098036874028
 21
137.9857256736315
 31
0.0
 11
148.9461519124443
 21
134.613894161727
 31
0.0
 11
149.770043930443
 21
131.283655554508
 31
0.0
  0
SPLINE
  5
F8
330
1F
100
AcDbEntity
  8
0
  6
Continuous
 62
     7
100
AcDbSpline
210
0.0
220
0.0
230
1.0
 70
     8
 71
     3
 72
    15
 73
    11
 74
     9
 42
0.0000000001
 43
0.0000000001
 44
0.00000001
 40
0.0
 40
0.0
 40
0.0
 40
0.0
 40
4.908005104415881
 40
9.815816967555037
 40
11.81736697981856
 40
13.81798377233661
 40
15.47664584493321
 40
17.13807097055868
 40
18.87967154026973
 40
20.60869206091069
 40
20.60869206091069
 40
20.60869206091069
 40
20.60869206091069
 10
153.558719063257
 20
131.283655554508
 30
0.0
 10
153.9603788465522
 20
132.8701964513419
 30
0.0
 10
154.7636825987237
 20
136.0432157786549
 30
0.0
 10
155.3354084809961
 20
139.9509297569643
 30
0.0
 10
155.5160646358203
 20
142.9168524301986
 30
0.0
 10
155.5024569676002
 20
144.8051289382767
 30
0.0
 10
155.3569241107372
 20
146.5760004308555
 30
0.0
 10
155.0434124384361
 20
148.2333288809245
 30
0.0
 10
154.5394100909984
 20
149.887714870939
 30
0.0
 10
153.8848251762363
 20
150.8491985172379
 30
0.0
 10
153.5587190642
 20
151.3281977832
 30
0.0
 11
153.558719063257
 21
131.283655554508
 31
0.0
 11
154.6815918949286
 21
136.0614867265845
 31
0.0
 11
155.3780394305168
 21
140.9196322692934
 31
0.0
 11
155.4933811473501
 21
142.9178561656449
 31
0.0
 11
155.474346812638
 21
144.9183824075641
 31
0.0
 11
155.3283403235853
 21
146.5706057508881
 31
0.0
 11
155.0189593065411
 21
148.2029711616808
 31
0.0
 11
154.4591684968428
 21
149.8521548366531
 31
0.0
 11
153.5587190642
 21
151.3281977832
 31
0.0
  0
SPLINE
  5
F9
330
1F
100
AcDbEntity
  8
0
  6
Continuous
 62
     7
100
AcDbSpline
210
0.0
220
0.0
230
1.0
 70
     8
 71
     3
 72
    27
 73
    23
 74
    21
 42
0.0000000001
 43
0.0000000001
 44
0.00000001
 40
0.0
 40
0.0
 40
0.0
 40
0.0
 40
0.0378319558369447
 40
0.0756644431096043
 40
0.0910535158190549
 40
0.1064345066483738
 40
0.1182538996506157
 40
0.1300665659101509
 40
0.1400007644785008
 40
0.1499314976667366
 40
0.1590702146568944
 40
0.1682086164517984
 40
0.177270807539829
 40
0.1863341596312564
 40
0.1958308510865838
 40
0.205328696385556
 40
0.215642147957514
 40
0.2259566487106064
 40
0.237391438623208
 40
0.2488261963358014
 40
0.2763278460746579
 40
0.3038301954193235
 40
0.3038301954193235
 40
0.3038301954193235
 40
0.3038301954193235
 10
139.269404608
 20
99.8868141966
 30
0.0
 10
139.2811921434471
 20
99.88229542489337
 30
0.0
 10
139.304767379924
 20
99.87325781800372
 30
0.0
 10
139.3347480024109
 20
99.86732867882644
 30
0.0
 10
139.3575915110987
 20
99.86590360207096
 30
0.0
 10
139.3718100226652
 20
99.86646638272184
 30
0.0
 10
139.3846939143924
 20
99.86837832999659
 30
0.0
 10
139.3955419435956
 20
99.87122930853107
 30
0.0
 10
139.4053915655409
 20
99.8750921563976
 30
0.0
 10
139.4139520974423
 20
99.87963565487405
 30
0.0
 10
139.4216931584254
 20
99.88500780215628
 30
0.0
 10
139.4285689231821
 20
99.89101793327589
 30
0.0
 10
139.4347192480544
 20
99.89773203040369
 30
0.0
 10
139.4402273965297
 20
99.90512822379998
 30
0.0
 10
139.4450760270284
 20
99.9131418113787
 30
0.0
 10
139.4493937031242
 20
99.92191696259671
 30
0.0
 10
139.4531026358922
 20
99.9312598449203
 30
0.0
 10
139.4563256352734
 20
99.94145770929013
 30
0.0
 10
139.4589762288805
 20
99.95220496609188
 30
0.0
 10
139.4620280962051
 20
99.9687215736362
 30
0.0
 10
139.4642899684892
 20
99.99080536093129
 30
0.0
 10
139.464357050812
 20
100.0091459380181
 30
0.0
 10
139.4643905924
 20
100.0183163432
 30
0.0
 11
139.269404608
 21
99.8868141966
 31
0.0
 11
139.305101790179
 21
99.8742855068469
 31
0.0
 11
139.3422378376998
 21
99.86705978420002
 31
0.0
 11
139.357600876169
 21
99.86616501727453
 31
0.0
 11
139.3729677110997
 21
99.86682476200002
 31
0.0
 11
139.384654383034
 21
99.86859104341659
 31
0.0
 11
139.3960704343997
 21
99.87162631200002
 31
0.0
 11
139.4053142498382
 21
99.87526501744759
 31
0.0
 11
139.4140786860999
 21
99.87993450550002
 31
0.0
 11
139.4215884589601
 21
99.88514214026189
 31
0.0
 11
139.4284691933001
 21
99.8911559479
 31
0.0
 11
139.4346003941221
 21
99.89782915431043
 31
0.0
 11
139.4400232480003
 21
99.90509117929996
 31
0.0
 11
139.4449548124372
 21
99.9132070169525
 31
0.0
 11
139.4491633276002
 21
99.92172156130002
 31
0.0
 11
139.4529860057006
 21
99.93130041381316
 31
0.0
 11
139.4561120293999
 21
99.94112980350003
 31
0.0
 11
139.458865954258
 21
99.9522280158886
 31
0.0
 11
139.4609655073999
 21
99.96346837000002
 31
0.0
 11
139.4638385812307
 21
99.99081953423705
 31
0.0
 11
139.4643905924
 21
100.0183163432
 31
0.0
  0
SPLINE
  5
FA
330
1F
100
AcDbEntity
  8
0
  6
Continuous
 62
     7
100
AcDbSpline
210
0.0
220
0.0
230
1.0
 70
     8
 71
     3
 72
    27
 73
    23
 74
    21
 42
0.0000000001
 43
0.0000000001
 44
0.00000001
 40
0.0
 40
0.0
 40
0.0
 40
0.0
 40
0.1081027526891434
 40
0.2162112572057476
 40
0.2686358014331409
 40
0.3210739859713797
 40
0.371288379132486
 40
0.4214984081018212
 40
0.4692620324668468
 40
0.5170243810745255
 40
0.5623716258249896
 40
0.6077173306664172
 40
0.6522695506595338
 40
0.6968217567003943
 40
0.7423293602148427
 40
0.787837205715475
 40
0.8349177525891528
 40
0.8819986441999614
 40
0.931112017303488
 40
0.980225368047246
 40
1.0851184250926
 40
1.190012254190115
 40
1.190012254190115
 40
1.190012254190115
 40
1.190012254190115
 10
139.269404608
 20
99.8868141966
 30
0.0
 10
139.2353448521015
 20
99.89898747755146
 30
0.0
 10
139.167223528086
 20
99.92333468715866
 30
0.0
 10
139.0765798716562
 20
99.92902862024243
 30
0.0
 10
139.0058937202291
 20
99.92188428135077
 30
0.0
 10
138.9552443606247
 20
99.91096718757925
 30
0.0
 10
138.9067067035669
 20
99.89523054528661
 30
0.0
 10
138.8612376943829
 20
99.87576633382041
 30
0.0
 10
138.818224966243
 20
99.85309263306664
 30
0.0
 10
138.7783142967755
 20
99.82828271414616
 30
0.0
 10
138.7406856603859
 20
99.80151733462374
 30
0.0
 10
138.7054230213946
 20
99.77339691780504
 30
0.0
 10
138.6717831236963
 20
99.74376034823582
 30
0.0
 10
138.6394552751301
 20
99.712623792714
 30
0.0
 10
138.6082030809376
 20
99.679967571567
 30
0.0
 10
138.577651166037
 20
99.64552284257422
 30
0.0
 10
138.5479957401183
 20
99.60962121446447
 30
0.0
 10
138.5188139100496
 20
99.57180584641992
 30
0.0
 10
138.4904211557487
 20
99.53255365166117
 30
0.0
 10
138.4524112064332
 20
99.47651787060397
 30
0.0
 10
138.4068155777737
 20
99.4031659614859
 30
0.0
 10
138.3737883769065
 20
99.34151291999325
 30
0.0
 10
138.3572747157
 20
99.3106862858
 30
0.0
 11
139.269404608
 21
99.8868141966
 31
0.0
 11
139.1660171214475
 21
99.91839318903688
 31
0.0
 11
139.0581925623
 21
99.92622346319999
 31
0.0
 11
139.0060370794319
 21
99.92091889495751
 31
0.0
 11
138.9547613560997
 21
99.9099387586
 31
0.0
 11
138.9069737642623
 21
99.89451697702576
 31
0.0
 11
138.8607879077001
 21
99.87482145310003
 31
0.0
 11
138.8185071694981
 21
99.85260202489899
 31
0.0
 11
138.7779126784004
 21
99.82743599150005
 31
0.0
 11
138.74093563991
 21
99.80118582519687
 31
0.0
 11
138.7054569348003
 21
99.7729458813
 31
0.0
 11
138.6720069464697
 21
99.74351802736868
 31
0.0
 11
138.6398969034002
 21
99.71263365919998
 31
0.0
 11
138.6084145555322
 21
99.67977329172875
 31
0.0
 11
138.578198416
 21
99.64574464330003
 31
0.0
 11
138.5481994057241
 21
99.60945914652257
 31
0.0
 11
138.5194186713999
 21
99.57219952110003
 31
0.0
 11
138.4906241579431
 21
99.53241259595629
 31
0.0
 11
138.4630218713999
 21
99.4917895114
 31
0.0
 11
138.4077954418548
 21
99.40261218863226
 31
0.0
 11
138.3572747157
 21
99.3106862858
 31
0.0
  0
SPLINE
  5
FB
330
1F
100
AcDbEntity
  8
0
  6
Continuous
 62
     7
100
AcDbSpline
210
0.0
220
0.0
230
1.0
 70
     8
 71
     3
 72
     9
 73
     5
 74
     3
 42
0.0000000001
 43
0.0000000001
 44
0.00000001
 40
0.0
 40
0.0
 40
0.0
 40
0.0
 40
0.2999549524384957
 40
0.5999096363190417
 40
0.5999096363190417
 40
0.5999096363190417
 40
0.5999096363190417
 10
137.9174102477
 20
98.5375140614
 30
0.0
 10
137.8768425043375
 20
98.44612879751088
 30
0.0
 10
137.7957070539339
 20
98.26335835155236
 30
0.0
 10
137.7150910916817
 20
98.08035817707656
 30
0.0
 10
137.6747831286
 20
97.9888581308
 30
0.0
 11
137.9174102477
 21
98.5375140614
 31
0.0
 11
137.7958368897666
 21
98.26330083755187
 31
0.0
 11
137.6747831286
 21
97.9888581308
 31
0.0
  0
SPLINE
  5
FC
330
1F
100
AcDbEntity
  8
0
  6
Continuous
 62
     7
100
AcDbSpline
210
0.0
220
0.0
230
1.0
 70
     8
 71
     3
 72
    11
 73
     7
 74
     5
 42
0.0000000001
 43
0.0000000001
 44
0.00000001
 40
0.0
 40
0.0
 40
0.0
 40
0.0
 40
1.494891550114998
 40
2.989940406524136
 40
4.757887773856438
 40
6.525871799284485
 40
6.525871799284485
 40
6.525871799284485
 40
6.525871799284485
 10
137.9174102477
 20
136.1040143694
 30
0.0
 10
137.8446277878825
 20
135.6106169662158
 30
0.0
 10
137.699055209405
 20
134.6237702400161
 30
0.0
 10
137.6589957367017
 20
133.0355857092057
 30
0.0
 10
137.7157111507864
 20
131.358331286385
 30
0.0
 10
137.8501767507133
 20
130.1869147298744
 30
0.0
 10
137.9174102477
 20
129.6012003794
 30
0.0
 11
137.9174102477
 21
136.1040143694
 31
0.0
 11
137.7291593263528
 21
134.6210233589022
 31
0.0
 11
137.6747831286002
 21
133.1269636840003
 31
0.0
 11
137.7393613022375
 21
131.3601961403922
 31
0.0
 11
137.9174102477
 21
129.6012003794
 31
0.0
  0
SPLINE
  5
FD
330
1F
100
AcDbEntity
  8
0
  6
Continuous
 62
     7
100
AcDbSpline
210
0.0
220
0.0
230
1.0
 70
     8
 71
     3
 72
    63
 73
    59
 74
    57
 42
0.0000000001
 43
0.0000000001
 44
0.00000001
 40
0.0
 40
0.0
 40
0.0
 40
0.0
 40
0.1268079521518069
 40
0.2536159045102057
 40
0.3121853226635846
 40
0.3707547402533184
 40
0.4261249776290854
 40
0.4814952131801013
 40
0.5337242473964707
 40
0.5859532779333899
 40
0.6351250892583116
 40
0.684296895450159
 40
0.7305137145699522
 40
0.7767305267538843
 40
0.8201076038528196
 40
0.8634846723517459
 40
0.9041451684287292
 40
0.9448056542694372
 40
0.9828771714846349
 40
1.020948676927209
 40
1.056560688142574
 40
1.092172686120441
 40
1.125454556257969
 40
1.158736411740167
 40
1.189815920331964
 40
1.22089541285204
 40
1.249897653051153
 40
1.278899875710931
 40
1.305946549125655
 40
1.332993203413037
 40
1.3582022242359
 40
1.383411224165726
 40
1.406896197112114
 40
1.430381147056327
 40
1.452251090087205
 40
1.474121007775236
 40
1.494480363087024
 40
1.514839689555796
 40
1.533788465799474
 40
1.552737211014595
 40
1.570371344953695
 40
1.588005437710083
 40
1.604417288769462
 40
1.620829111458431
 40
1.636108194563947
 40
1.651387178723167
 40
1.665622505080359
 40
1.679857946893339
 40
1.693142545736783
 40
1.706426504452049
 40
1.71885937210204
 40
1.731294291098535
 40
1.743005655514424
 40
1.754710060054681
 40
1.765868121494369
 40
1.777053761789074
 40
1.799458302187597
 40
1.821885203283103
 40
1.821885203283103
 40
1.821885203283103
 40
1.821885203283103
 10
137.4644445859
 20
137.8717736853
 30
0.0
 10
137.4644506909258
 20
137.8295043684608
 30
0.0
 10
137.4644629009775
 20
137.7449657347137
 30
0.0
 10
137.4645850846245
 20
137.6409039849701
 30
0.0
 10
137.4647992889018
 20
137.5595886553973
 30
0.0
 10
137.4650246596105
 20
137.5020860519982
 30
0.0
 10
137.465336138993
 20
137.4456502533869
 30
0.0
 10
137.4657412409297
 20
137.391328553395
 30
0.0
 10
137.4662586919675
 20
137.3380549166177
 30
0.0
 10
137.4668886233823
 20
137.2868487652827
 30
0.0
 10
137.4676515548948
 20
137.2366636068821
 30
0.0
 10
137.4685388257615
 20
137.1884848692322
 30
0.0
 10
137.4695733662707
 20
137.1412942952969
 30
0.0
 10
137.4707374157023
 20
137.0960389051135
 30
0.0
 10
137.47205739831
 20
137.05173478726
 30
0.0
 10
137.4735065388345
 20
137.0092878214328
 30
0.0
 10
137.475115674612
 20
136.9677528160331
 30
0.0
 10
137.4768493830015
 20
136.9279929248136
 30
0.0
 10
137.478743644468
 20
136.8891043612303
 30
0.0
 10
137.4807548952936
 20
136.8519068227526
 30
0.0
 10
137.4829247543563
 20
136.81553947182
 30
0.0
 10
137.485202093578
 20
136.7807784825595
 30
0.0
 10
137.4876344553029
 20
136.7468066684786
 30
0.0
 10
137.4901637478367
 20
136.7143571121927
 30
0.0
 10
137.4928435510357
 20
136.6826563349609
 30
0.0
 10
137.4956094065382
 20
136.6523951342492
 30
0.0
 10
137.498520919071
 20
136.6228433170978
 30
0.0
 10
137.5015078431072
 20
136.5946504451869
 30
0.0
 10
137.5046357129641
 20
136.5671288372997
 30
0.0
 10
137.5078290534611
 20
136.5408880089901
 30
0.0
 10
137.5111591870198
 20
136.5152817994868
 30
0.0
 10
137.5145459296098
 20
136.4908810501103
 30
0.0
 10
137.5180662316266
 20
136.4670800199943
 30
0.0
 10
137.5216356828751
 20
136.4444123495499
 30
0.0
 10
137.5253367279351
 20
136.4223114757439
 30
0.0
 10
137.529081187676
 20
136.4012753204421
 30
0.0
 10
137.5329569254436
 20
136.3807752118675
 30
0.0
 10
137.5368724407318
 20
136.3612748083723
 30
0.0
 10
137.5409210257262
 20
136.3422821164054
 30
0.0
 10
137.545008335547
 20
136.3242279036392
 30
0.0
 10
137.5492332309184
 20
136.3066558031912
 30
0.0
 10
137.5534990673839
 20
136.289964965746
 30
0.0
 10
137.5579105839836
 20
136.2737338825974
 30
0.0
 10
137.5623695981721
 20
136.2583312734348
 30
0.0
 10
137.5669873130488
 20
136.2433702256698
 30
0.0
 10
137.5716651538683
 20
136.2291896863674
 30
0.0
 10
137.5765217480072
 20
136.2154376963818
 30
0.0
 10
137.5814607996878
 20
136.2024235135911
 30
0.0
 10
137.5866099739457
 20
136.1898328101137
 30
0.0
 10
137.5918785960488
 20
136.177945528112
 30
0.0
 10
137.5974056100472
 20
136.1664892216429
 30
0.0
 10
137.6031193130243
 20
136.1557144017978
 30
0.0
 10
137.6091738662842
 20
136.1454045154001
 30
0.0
 10
137.6155309249783
 20
136.1357909292493
 30
0.0
 10
137.6223722890831
 20
136.1266997682944
 30
0.0
 10
137.6323186199226
 20
136.1156737723565
 30
0.0
 10
137.6468487859432
 20
136.1028472121987
 30
0.0
 10
137.6618835010128
 20
136.1004062375633
 30
0.0
 10
137.669404608
 20
136.0991851415
 30
0.0
 11
137.4644445859
 21
137.8717736853
 31
0.0
 11
137.4644846636255
 21
137.7449657394815
 31
0.0
 11
137.4646540096002
 21
137.6181579001999
 31
0.0
 11
137.4648118330154
 21
137.5595886946854
 31
0.0
 11
137.4650448943
 21
137.5010197408
 31
0.0
 11
137.4653540250536
 21
137.4456503663658
 31
0.0
 11
137.4657704701996
 21
137.3902816969
 31
0.0
 11
137.4662812229373
 21
137.3380551600934
 31
0.0
 11
137.4669271608997
 21
137.2858301239998
 31
0.0
 11
137.4676778827195
 21
137.2366640437643
 31
0.0
 11
137.4685865706002
 21
137.1875006344999
 31
0.0
 11
137.4696026058612
 21
137.1412949850412
 31
0.0
 11
137.4707940772
 21
137.0950935335002
 31
0.0
 11
137.4720887724608
 21
137.0517357823843
 31
0.0
 11
137.4735717104002
 21
137.0083840700002
 31
0.0
 11
137.4751485452076
 21
136.9677541606573
 31
0.0
 11
137.4769226003997
 21
136.9271323951002
 31
0.0
 11
137.4787775179344
 21
136.8891060923085
 31
0.0
 11
137.4808356718997
 21
136.8510902596999
 31
0.0
 11
137.482959268979
 21
136.8155416214947
 31
0.0
 11
137.4852899479999
 21
136.7800059726997
 31
0.0
 11
137.487669363954
 21
136.7468092671468
 31
0.0
 11
137.4902582243002
 21
136.7136282529
 31
0.0
 11
137.4928787040019
 21
136.6826594146841
 31
0.0
 11
137.4957100919002
 21
136.6517091627001
 31
0.0
 11
137.498556249623
 21
136.6228469153381
 31
0.0
 11
137.5016143784999
 21
136.5940063750003
 31
0.0
 11
137.5046712269662
 21
136.5671330011842
 31
0.0
 11
137.5079411441001
 21
136.5402847396003
 31
0.0
 11
137.5111949570889
 21
136.5152865910312
 31
0.0
 11
137.5146633710998
 21
136.4903173343
 31
0.0
 11
137.5181023952814
 21
136.4670855227699
 31
0.0
 11
137.5217583767
 21
136.4438868875999
 31
0.0
 11
137.5253734913515
 21
136.4223178043039
 31
0.0
 11
137.5292091547998
 21
136.4007868733999
 31
0.0
 11
137.5329945744487
 21
136.3807825252027
 31
0.0
 11
137.5370058464003
 21
136.3608222679
 31
0.0
 11
137.5409599468628
 21
136.3422906405924
 31
0.0
 11
137.5451475194002
 21
136.323810403
 31
0.0
 11
137.5492739465694
 21
136.3066658622188
 31
0.0
 11
137.5536445884001
 21
136.2895819891998
 31
0.0
 11
137.5579538136936
 21
136.2737459722585
 31
0.0
 11
137.5625223198002
 21
136.2579828293001
 31
0.0
 11
137.5670340712246
 21
136.2433850733208
 31
0.0
 11
137.5718261663002
 21
136.2288770348
 31
0.0
 11
137.5765735297804
 21
136.2154566377685
 31
0.0
 11
137.5816314982001
 21
136.2021500695002
 31
0.0
 11
137.5866691397761
 21
136.1898576843053
 31
0.0
 11
137.5920606854
 21
136.1777170585003
 31
0.0
 11
137.5974757507638
 21
136.1665253979842
 31
0.0
 11
137.6033135418002
 21
136.1555459897003
 31
0.0
 11
137.6092628245607
 21
136.1454582698828
 31
0.0
 11
137.6157336242001
 21
136.1357052274001
 31
0.0
 11
137.6224856616973
 21
136.1268219664714
 31
0.0
 11
137.6299632082002
 21
136.1185030214
 31
0.0
 11
137.6476936294913
 21
136.1048064674061
 31
0.0
 11
137.669404608
 21
136.0991851415
 31
0.0
  0
SPLINE
  5
FE
330
1F
100
AcDbEntity
  8
0
  6
Continuous
 62
     7
100
AcDbSpline
210
0.0
220
0.0
230
1.0
 70
     8
 71
     3
 72
    63
 73
    59
 74
    57
 42
0.0000000001
 43
0.0000000001
 44
0.00000001
 40
0.0
 40
0.0
 40
0.0
 40
0.0
 40
0.0250606574702716
 40
0.0502135207385984
 40
0.064633705234702
 40
0.0789716974229282
 40
0.0946241046786273
 40
0.1103014618105715
 40
0.1273428876110596
 40
0.1443764580534427
 40
0.1628819685602114
 40
0.1813899247558452
 40
0.2014741735458482
 40
0.2215577373543032
 40
0.243338526726679
 40
0.2651195807100733
 40
0.2887295243898647
 40
0.3123394370378234
 40
0.3379231455994999
 40
0.3635069057861599
 40
0.3912227826583852
 40
0.4189386805548967
 40
0.4489591038030483
 40
0.4789795528852925
 40
0.5114922403706698
 40
0.5440049487208787
 40
0.5792146654740267
 40
0.6144244017617222
 40
0.6525541524066906
 40
0.6906839206534281
 40
0.7319765326711876
 40
0.7732691608877453
 40
0.8179888490211727
 40
0.862708552021098
 40
0.9111423480096525
 40
0.9595761576458118
 40
1.012036397289562
 40
1.064496649391177
 40
1.12132397184612
 40
1.178151305562062
 40
1.23971755452004
 40
1.301283813495182
 40
1.367995220275066
 40
1.43470663575997
 40
1.507007344910605
 40
1.579308061363887
 40
1.657684003418995
 40
1.736059951330632
 40
1.821043228185949
 40
1.906026509346561
 40
1.998198410543274
 40
2.090370314717966
 40
2.190368494316254
 40
2.290366675321299
 40
2.398882254493966
 40
2.507397834102598
 40
2.753256239766556
 40
2.999114645179852
 40
2.999114645179852
 40
2.999114645179852
 40
2.999114645179852
 10
137.669404608
 20
129.6001861235
 30
0.0
 10
137.6611917911226
 20
129.5976956984678
 30
0.0
 10
137.6447359399109
 20
129.5927056853705
 30
0.0
 10
137.6316442308742
 20
129.5743449970034
 30
0.0
 10
137.6222360780963
 20
129.5591948645482
 30
0.0
 10
137.6154108982769
 20
129.5460089578627
 30
0.0
 10
137.609107114798
 20
129.5321581512422
 30
0.0
 10
137.6030752174123
 20
129.5171979340007
 30
0.0
 10
137.5973897510726
 20
129.501616841384
 30
0.0
 10
137.5918679824332
 20
129.4849801453848
 30
0.0
 10
137.5866169671994
 20
129.4677450013191
 30
0.0
 10
137.5814717569092
 20
129.4494197726372
 30
0.0
 10
137.5765443214606
 20
129.4304908868668
 30
0.0
 10
137.5716891619001
 20
129.4104193530122
 30
0.0
 10
137.5670198897682
 20
129.3897235923498
 30
0.0
 10
137.5624028862188
 20
129.3678135305352
 30
0.0
 10
137.5579506261039
 20
129.3452476246745
 30
0.0
 10
137.5535390739072
 20
129.3213836054178
 30
0.0
 10
137.549278694063
 20
129.2968240985432
 30
0.0
 10
137.5450530946779
 20
129.2708709880124
 30
0.0
 10
137.5409701989045
 20
129.2441758170012
 30
0.0
 10
137.5369202457683
 20
129.2159807883214
 30
0.0
 10
137.5330082879062
 20
129.1869909282314
 30
0.0
 10
137.5291305550693
 20
129.1563841087149
 30
0.0
 10
137.5253889240841
 20
129.1249235649407
 30
0.0
 10
137.5216852661699
 20
129.0917175027847
 30
0.0
 10
137.5181179774124
 20
129.0575924529231
 30
0.0
 10
137.5145944384946
 20
129.0215811185387
 30
0.0
 10
137.5112092294813
 20
128.9845789786482
 30
0.0
 10
137.5078752514158
 20
128.9455368136335
 30
0.0
 10
137.5046828594893
 20
128.9054250871717
 30
0.0
 10
137.5015505900972
 20
128.8631056750289
 30
0.0
 10
137.498564093571
 20
128.8196305851167
 30
0.0
 10
137.4956477261858
 20
128.7737653036725
 30
0.0
 10
137.4928818737228
 20
128.7266504589249
 30
0.0
 10
137.4901969083236
 20
128.6769468152772
 30
0.0
 10
137.4876673156056
 20
128.6258911693464
 30
0.0
 10
137.4852296590891
 20
128.5720302176642
 30
0.0
 10
137.4829518377645
 20
128.51670529694
 30
0.0
 10
137.4807767335601
 20
128.4583387111622
 30
0.0
 10
137.4787649297786
 20
128.3983857035974
 30
0.0
 10
137.4768656590417
 20
128.3351327899857
 30
0.0
 10
137.4751314250975
 20
128.270159449374
 30
0.0
 10
137.4735177011053
 20
128.2016038288303
 30
0.0
 10
137.4720681439357
 20
128.1311810302669
 30
0.0
 10
137.4707441693926
 20
128.0568669513323
 30
0.0
 10
137.4695798724085
 20
127.9805248782218
 30
0.0
 10
137.4685420858883
 20
127.8999531077759
 30
0.0
 10
137.4676547649264
 20
127.8171769660452
 30
0.0
 10
137.4668894355461
 20
127.7298007845053
 30
0.0
 10
137.4662596442673
 20
127.6400272553318
 30
0.0
 10
137.4657406681695
 20
127.5452479843666
 30
0.0
 10
137.4653358325704
 20
127.4478593786892
 30
0.0
 10
137.4650236271693
 20
127.3450225229418
 30
0.0
 10
137.4647986314209
 20
127.239346303655
 30
0.0
 10
137.4645811367004
 20
127.085049926344
 30
0.0
 10
137.4644620040381
 20
126.8849724711605
 30
0.0
 10
137.464450391946
 20
126.721066868559
 30
0.0
 10
137.4644445859
 20
126.6391140673
 30
0.0
 11
137.669404608
 21
129.6001861235
 31
0.0
 11
137.6463316383046
 21
129.5904047829848
 31
0.0
 11
137.6299185826001
 21
129.5713449263999
 31
0.0
 11
137.6223723421112
 21
129.5590568844328
 31
0.0
 11
137.6157201653002
 21
129.546355445
 31
0.0
 11
137.6092148424183
 21
129.5321189205962
 31
0.0
 11
137.6033236274998
 21
129.5175905650999
 31
0.0
 11
137.5974677718261
 21
129.5015868421692
 31
0.0
 11
137.5920867211
 21
129.4854255669999
 31
0.0
 11
137.5866823771652
 21
129.4677267821334
 31
0.0
 11
137.5816682548
 21
129.4499109739999
 31
0.0
 11
137.5766005344414
 21
129.4304765905565
 31
0.0
 11
137.5718704513998
 21
129.4109579878999
 31
0.0
 11
137.5670703268649
 21
129.3897127157168
 31
0.0
 11
137.5625725912998
 21
129.3684011064999
 31
0.0
 11
137.5579970103573
 21
129.3452387771783
 31
0.0
 11
137.5536997084
 21
129.3220232398997
 31
0.0
 11
137.5493222721329
 21
129.2968168082702
 31
0.0
 11
137.5452062507001
 21
129.2715663200996
 31
0.0
 11
137.5410118026519
 21
129.2441696700057
 31
0.0
 11
137.5370669482003
 21
129.2167359476996
 31
0.0
 11
137.5330485179165
 21
129.1869856866915
 31
0.0
 11
137.5292714436002
 21
129.1572037950003
 31
0.0
 11
137.5254282146246
 21
129.124919054974
 31
0.0
 11
137.5218207112998
 21
129.0926071048003
 31
0.0
 11
137.5181566454712
 21
129.0575885557807
 31
0.0
 11
137.5147245741998
 21
129.0225464893999
 31
0.0
 11
137.5112474988283
 21
128.9845756080418
 31
0.0
 11
137.5080000287998
 21
128.9465843832002
 31
0.0
 11
137.5047208744876
 21
128.9054221802193
 31
0.0
 11
137.5016698017001
 21
128.8642424267004
 31
0.0
 11
137.4986019240862
 21
128.8196280945447
 31
0.0
 11
137.4957610229002
 21
128.7749987195003
 31
0.0
 11
137.49291951352
 21
128.7266483480612
 31
0.0
 11
137.4903038377002
 21
128.6782852199998
 31
0.0
 11
137.4877046770729
 21
128.6258894080726
 31
0.0
 11
137.4853296812002
 21
128.5734829442998
 31
0.0
 11
137.4829887423214
 21
128.5167038585149
 31
0.0
 11
137.4808692276999
 21
128.4599160647998
 31
0.0
 11
137.4788010939449
 21
128.3983845620266
 31
0.0
 11
137.4769499429
 21
128.3368461391999
 31
0.0
 11
137.4751664442027
 21
128.2701585771891
 31
0.0
 11
137.4735930585
 21
128.2034657184002
 31
0.0
 11
137.4721014767909
 21
128.1311803967388
 31
0.0
 11
137.4708098911001
 21
128.0588912177003
 31
0.0
 11
137.4696108319696
 21
127.9805244482746
 31
0.0
 11
137.4685975295
 21
127.9021550510002
 31
0.0
 11
137.4676825294436
 21
127.8171767001103
 31
0.0
 11
137.4669341161003
 21
127.7321967145002
 31
0.0
 11
137.4662832958326
 21
127.6400271110336
 31
0.0
 11
137.4657743850001
 21
127.5478566118001
 31
0.0
 11
137.4653545148801
 21
127.4478593136763
 31
0.0
 11
137.4650467424998
 21
127.3478616063002
 31
0.0
 11
137.4648116444463
 21
127.2393462817967
 31
0.0
 11
137.4646546870001
 21
127.1308308157002
 31
0.0
 11
137.4644834997036
 21
126.8849724696337
 31
0.0
 11
137.4644445859
 21
126.6391140673
 31
0.0
  0
SPLINE
  5
FF
330
1F
100
AcDbEntity
  8
0
  6
Continuous
 62
     7
100
AcDbSpline
210
0.0
220
0.0
230
1.0
 70
     8
 71
     3
 72
    15
 73
    11
 74
     9
 42
0.0000000001
 43
0.0000000001
 44
0.00000001
 40
0.0
 40
0.0
 40
0.0
 40
0.0
 40
0.1385728136396791
 40
0.2771397276509914
 40
0.3383986837443159
 40
0.3996473233843163
 40
0.4562352908304029
 40
0.5128722539025617
 40
0.6167805642276731
 40
0.7205654887964902
 40
0.7205654887964902
 40
0.7205654887964902
 40
0.7205654887964902
 10
153.5587190642
 20
131.2836555557
 30
0.0
 10
153.5454069958711
 20
131.239391519345
 30
0.0
 10
153.5187834259642
 20
131.1508653311416
 30
0.0
 10
153.4720909122639
 20
131.047693020243
 30
0.0
 10
153.428338524432
 20
130.9723974224465
 30
0.0
 10
153.3942782379044
 20
130.9233022146848
 30
0.0
 10
153.3569527728438
 20
130.8784895347003
 30
0.0
 10
153.3046776043294
 20
130.8286440252571
 30
0.0
 10
153.2300224880659
 20
130.7769953901466
 30
0.0
 10
153.1604646299827
 20
130.7679728441534
 30
0.0
 10
153.1257063623
 20
130.7634642512
 30
0.0
 11
153.5587190642
 21
131.2836555557
 31
0.0
 11
153.5158786392287
 21
131.1518711762452
 31
0.0
 11
153.4585792216996
 21
131.0257063379999
 31
0.0
 11
153.4276447079782
 21
130.9728318114066
 31
0.0
 11
153.3926356990997
 21
130.9225748203
 31
0.0
 11
153.3562047480875
 21
130.8792737363872
 31
0.0
 11
153.3152254814996
 21
130.8401784003999
 31
0.0
 11
153.2272597037921
 21
130.7848705446565
 31
0.0
 11
153.1257063623
 21
130.7634642512
 31
0.0
  0
SPLINE
  5
100
330
1F
100
AcDbEntity
  8
0
  6
Continuous
 62
     7
100
AcDbSpline
210
0.0
220
0.0
230
1.0
 70
     8
 71
     3
 72
    25
 73
    21
 74
    19
 42
0.0000000001
 43
0.0000000001
 44
0.00000001
 40
0.0
 40
0.0
 40
0.0
 40
0.0
 40
0.0954322281057415
 40
0.1908641077349132
 40
0.2325098730940175
 40
0.2741550812727152
 40
0.3122430779854736
 40
0.3503328384422745
 40
0.3851083982223655
 40
0.419877503787971
 40
0.4515253113182613
 40
0.4831933317840459
 40
0.5119343187801007
 40
0.5406141084292372
 40
0.5663881914379231
 40
0.5923563158095964
 40
0.6158347902355524
 40
0.6389403007980243
 40
0.6810782417462959
 40
0.7232748694681006
 40
0.7232748694681006
 40
0.7232748694681006
 40
0.7232748694681006
 10
139.4643896536
 20
125.9911984473
 30
0.0
 10
139.4643249816521
 20
126.0230105595152
 30
0.0
 10
139.4641956379926
 20
126.0866346677817
 30
0.0
 10
139.4614229508541
 20
126.1641076444097
 30
0.0
 10
139.4578405906785
 20
126.2235758635478
 30
0.0
 10
139.454669828463
 20
126.2639138258643
 30
0.0
 10
139.4508311585814
 20
126.3030026667446
 30
0.0
 10
139.4464084916374
 20
126.339725204302
 30
0.0
 10
139.4412588962327
 20
126.3752356885132
 30
0.0
 10
139.4354803226412
 20
126.408473176271
 30
0.0
 10
139.4288590817274
 20
126.4404970794459
 30
0.0
 10
139.4215051523792
 20
126.4702971705921
 30
0.0
 10
139.4131396956127
 20
126.4988035256632
 30
0.0
 10
139.4038002140758
 20
126.5249335814387
 30
0.0
 10
139.3929814489352
 20
126.5495014934552
 30
0.0
 10
139.3807522555299
 20
126.5714072509547
 30
0.0
 10
139.3667017694515
 20
126.5912807543118
 30
0.0
 10
139.344561373282
 20
126.6110420283369
 30
0.0
 10
139.3058755907143
 20
126.6217027711611
 30
0.0
 10
139.2815672408062
 20
126.6053669729076
 30
0.0
 10
139.269404608
 20
126.5971933899
 30
0.0
 11
139.4643896536
 21
125.9911984473
 31
0.0
 11
139.463658956674
 21
126.0866278779974
 31
0.0
 11
139.4602421223997
 21
126.1819985700002
 31
0.0
 11
139.4577140044775
 21
126.2235675294786
 31
0.0
 11
139.4544364507998
 21
126.2650835626
 31
0.0
 11
139.4506925669446
 21
126.302987108968
 31
0.0
 11
139.4461174395998
 21
126.3408011018997
 31
0.0
 11
139.4410975374728
 21
126.3752124392851
 31
0.0
 11
139.4351127782004
 21
126.4094625977998
 31
0.0
 11
139.4286646166716
 21
126.4404465441975
 31
0.0
 11
139.4210386523004
 21
126.4711826498003
 31
0.0
 11
139.4128698241374
 21
126.4987383131012
 31
0.0
 11
139.4031377094
 21
126.5257163834002
 31
0.0
 11
139.3926473931874
 21
126.5492590387453
 31
0.0
 11
139.3799235891997
 21
126.5718963595997
 31
0.0
 11
139.3659682107831
 21
126.5907772010698
 31
0.0
 11
139.3484065327997
 21
126.6057922629997
 31
0.0
 11
139.3074090817611
 21
126.6155295663071
 31
0.0
 11
139.269404608
 21
126.5971933899
 31
0.0
  0
SPLINE
  5
101
330
1F
100
AcDbEntity
  8
0
  6
Continuous
 62
     7
100
AcDbSpline
210
0.0
220
0.0
230
1.0
 70
     8
 71
     3
 72
    15
 73
    11
 74
     9
 42
0.0000000001
 43
0.0000000001
 44
0.00000001
 40
0.0
 40
0.0
 40
0.0
 40
0.0
 40
0.096253215175195
 40
0.1925002137410423
 40
0.2331772606622892
 40
0.2738495961722645
 40
0.3103796210406229
 40
0.3469118967620896
 40
0.4124305133352533
 40
0.4779350203314814
 40
0.4779350203314814
 40
0.4779350203314814
 40
0.4779350203314814
 10
153.1257063623
 20
151.494835697
 30
0.0
 10
153.157808888366
 20
151.4937083549275
 30
0.0
 10
153.2220118671245
 20
151.491453743593
 30
0.0
 10
153.2986255398451
 20
151.4762690253967
 30
0.0
 10
153.3553693426132
 20
151.4593412820559
 30
0.0
 10
153.3922057961268
 20
151.4455699108967
 30
0.0
 10
153.4267741006626
 20
151.4299083828676
 30
0.0
 10
153.4673170490903
 20
151.4077764328354
 30
0.0
 10
153.5139071847429
 20
151.3762284453491
 30
0.0
 10
153.5437828434612
 20
151.3442068544727
 30
0.0
 10
153.5587190642
 20
151.3281977832
 30
0.0
 11
153.1257063623
 21
151.494835697
 31
0.0
 11
153.2217753444282
 21
151.4888832097536
 31
0.0
 11
153.3162712769997
 21
151.4706074481996
 31
0.0
 11
153.3552281199785
 21
151.4589033236551
 31
0.0
 11
153.3933169388997
 21
151.4446386557997
 31
0.0
 11
153.426565561822
 21
151.4295068419409
 31
0.0
 11
153.4586472377997
 21
151.4120319103002
 31
0.0
 11
153.5122716595282
 21
151.3743873819867
 31
0.0
 11
153.5587190642
 21
151.3281977832
 31
0.0
  0
SPLINE
  5
102
330
1F
100
AcDbEntity
  8
0
  6
Continuous
 62
     7
100
AcDbSpline
210
0.0
220
0.0
230
1.0
 70
     8
 71
     3
 72
    63
 73
    59
 74
    57
 42
0.0000000001
 43
0.0000000001
 44
0.00000001
 40
0.0
 40
0.0
 40
0.0
 40
0.0
 40
0.1187569421878207
 40
0.2375138853211639
 40
0.2873986568630148
 40
0.3372834273926771
 40
0.3818643027731055
 40
0.4264451742089656
 40
0.4663589468823445
 40
0.5062727101562827
 40
0.5420731618878543
 40
0.5778735988808268
 40
0.610043153908046
 40
0.6422126879182828
 40
0.6711729735549153
 40
0.7001332319636266
 40
0.7262532808518753
 40
0.7523732963902519
 40
0.775976903413254
 40
0.7995804713079379
 40
0.8209524898771587
 40
0.8423244639562503
 40
0.8617161400904522
 40
0.8811077668376704
 40
0.8987413048779659
 40
0.9163747891000136
 40
0.9324472759796499
 40
0.94851970505401
 40
0.9632065664052765
 40
0.9778933663754392
 40
0.9913514366938464
 40
1.004809442429469
 40
1.017179538682245
 40
1.029549567482581
 40
1.040958879251469
 40
1.052368121016973
 40
1.062932534268328
 40
1.07349687532234
 40
1.083323259938059
 40
1.093149570593194
 40
1.102338217088042
 40
1.1115267886498
 40
1.120174176590146
 40
1.128821489754398
 40
1.137023717450018
 40
1.145225873330347
 40
1.153084310479521
 40
1.160942684250085
 40
1.168572753940909
 40
1.176202777832813
 40
1.18374840399684
 40
1.19129405508242
 40
1.198959595095207
 40
1.20662516909695
 40
1.214748987369733
 40
1.222873933865105
 40
1.243253525780293
 40
1.263649808995045
 40
1.263649808995045
 40
1.263649808995045
 40
1.263649808995045
 10
137.4644445859
 20
99.7318410575
 30
0.0
 10
137.4644501248094
 20
99.6922554119242
 30
0.0
 10
137.4644612026284
 20
99.61308412045739
 30
0.0
 10
137.4645758815119
 20
99.51728457486473
 30
0.0
 10
137.4647954215104
 20
99.44444272280342
 30
0.0
 10
137.4650185040772
 20
99.39632640505755
 30
0.0
 10
137.4653294212763
 20
99.3499785700325
 30
0.0
 10
137.4657313312489
 20
99.30695520990574
 30
0.0
 10
137.4662488564439
 20
99.26548889529776
 30
0.0
 10
137.4668746445183
 20
99.22695120044627
 30
0.0
 10
137.4676385169699
 20
99.18978737731966
 30
0.0
 10
137.4685208651821
 20
99.1552083133687
 30
0.0
 10
137.4695573223587
 20
99.12184438995524
 30
0.0
 10
137.4707158542886
 20
99.09076594801654
 30
0.0
 10
137.4720387376287
 20
99.0607648387496
 30
0.0
 10
137.4734819605954
 20
99.03278820408211
 30
0.0
 10
137.475094916745
 20
99.00576923610498
 30
0.0
 10
137.4768225009045
 20
98.98054673438854
 30
0.0
 10
137.478721388996
 20
98.95617785307338
 30
0.0
 10
137.4807264968772
 20
98.93340578694992
 30
0.0
 10
137.4829016453017
 20
98.91139674170141
 30
0.0
 10
137.4851730051826
 20
98.8908092631101
 30
0.0
 10
137.4876111591999
 20
98.87090581032464
 30
0.0
 10
137.4901348143929
 20
98.8522697236502
 30
0.0
 10
137.4928207461574
 20
98.83424870539642
 30
0.0
 10
137.4955814843049
 20
98.81735904668326
 30
0.0
 10
137.498499294269
 20
98.80102420995004
 30
0.0
 10
137.5014818035751
 20
98.7857004723447
 30
0.0
 10
137.5046159749323
 20
98.77087888301898
 30
0.0
 10
137.5078057976059
 20
98.75696175856051
 30
0.0
 10
137.5111420762706
 20
98.74350071167407
 30
0.0
 10
137.5145264140008
 20
98.73084934628922
 30
0.0
 10
137.5180525491173
 20
98.71861383328238
 30
0.0
 10
137.5216209601858
 20
98.7071035820634
 30
0.0
 10
137.5253273751145
 20
98.6959741678092
 30
0.0
 10
137.5290724666953
 20
98.6854946396071
 30
0.0
 10
137.5329529626704
 20
98.67536561217248
 30
0.0
 10
137.5368711752874
 20
98.66581897491523
 30
0.0
 10
137.5409237629377
 20
98.65659678178224
 30
0.0
 10
137.5450163612949
 20
98.64789634497944
 30
0.0
 10
137.5492443594146
 20
98.6394983069936
 30
0.0
 10
137.5535188137052
 20
98.63156736931725
 30
0.0
 10
137.5579324174151
 20
98.62392070431441
 30
0.0
 10
137.5624044468985
 20
98.61669173698279
 30
0.0
 10
137.5670230961188
 20
98.6097330029096
 30
0.0
 10
137.5717200264967
 20
98.60314704351401
 30
0.0
 10
137.5765765187001
 20
98.59682170047564
 30
0.0
 10
137.5815433216818
 20
98.5908279430312
 30
0.0
 10
137.5866911871524
 20
98.58509068577835
 30
0.0
 10
137.592001174734
 20
98.57964743844734
 30
0.0
 10
137.597527589483
 20
98.57446466877994
 30
0.0
 10
137.6033035278182
 20
98.56954273746818
 30
0.0
 10
137.6093570880307
 20
98.56489909627899
 30
0.0
 10
137.6158186961549
 20
98.56049136755284
 30
0.0
 10
137.622671420495
 20
98.55640241898718
 30
0.0
 10
137.6335648430066
 20
98.5508977282863
 30
0.0
 10
137.6490149614931
 20
98.54514612656094
 30
0.0
 10
137.6626062046731
 20
98.54395390166309
 30
0.0
 10
137.669404608
 20
98.5433575452
 30
0.0
 11
137.4644445859
 21
99.7318410575
 31
0.0
 11
137.4644821265925
 21
99.61308412124575
 31
0.0
 11
137.4646540095998
 21
99.49432730250001
 31
0.0
 11
137.4648089100004
 21
99.44444277145432
 31
0.0
 11
137.4650448942998
 21
99.39455855910003
 31
0.0
 11
137.4653489854304
 21
99.34997872085145
 31
0.0
 11
137.4657704701999
 21
99.30539984189998
 31
0.0
 11
137.4662738463414
 21
99.26548924353962
 31
0.0
 11
137.4669271608998
 21
99.22558082739997
 31
0.0
 11
137.4676681045704
 21
99.18978804395607
 31
0.0
 11
137.4685865705999
 21
99.1539993906
 31
0.0
 11
137.4695905735126
 21
99.1218455067164
 31
0.0
 11
137.4707940772001
 21
99.08969849290003
 31
0.0
 11
137.4720747779619
 21
99.06076653911681
 31
0.0
 11
137.4735717103997
 21
99.03184499419999
 31
0.0
 11
137.4751329784083
 21
99.00577164773027
 31
0.0
 11
137.4769226003998
 21
98.9797130126
 31
0.0
 11
137.4787608286953
 21
98.95618109425003
 31
0.0
 11
137.4808356718997
 21
98.9326688965
 31
0.0
 11
137.4829419405003
 21
98.91140092033147
 31
0.0
 11
137.4852899480001
 21
98.89015831840001
 31
0.0
 11
137.4876518963235
 21
98.8709110249952
 31
0.0
 11
137.4902582243
 21
98.85169534800004
 31
0.0
 11
137.4928616061121
 21
98.83425504791778
 31
0.0
 11
137.4957100919002
 21
98.81685315449998
 31
0.0
 11
137.4985400382988
 21
98.8010317690399
 31
0.0
 11
137.5016143784999
 21
98.78525611029997
 31
0.0
 11
137.5046564324107
 21
98.77088774907277
 31
0.0
 11
137.5079411441
 21
98.75657297479997
 31
0.0
 11
137.511182134863
 21
98.74351098277847
 31
0.0
 11
137.5146633711001
 21
98.73051102460003
 31
0.0
 11
137.5180921462646
 21
98.71862562253808
 31
0.0
 11
137.5217583766999
 21
98.7068113783
 31
0.0
 11
137.5253664917801
 21
98.69598761275341
 31
0.0
 11
137.5292091548002
 21
98.685244953
 31
0.0
 11
137.5329916196365
 21
98.6753808875548
 31
0.0
 11
137.5370058464001
 21
98.66560892330003
 31
0.0
 11
137.5409620193913
 21
98.65661411758343
 31
0.0
 11
137.5451475193997
 21
98.64772378739997
 31
0.0
 11
137.549282314052
 21
98.63951801518827
 31
0.0
 11
137.5536445883997
 21
98.63143096319999
 31
0.0
 11
137.5579702128539
 21
98.62394322046457
 31
0.0
 11
137.5625223198001
 21
98.61659105429999
 31
0.0
 11
137.5670609249824
 21
98.60975895343934
 31
0.0
 11
137.5718261662998
 21
98.60308303879998
 31
0.0
 11
137.5766146454894
 21
98.59685202752745
 31
0.0
 11
137.5816314981997
 21
98.59080345519999
 31
0.0
 11
137.5867299676793
 21
98.5851268741469
 31
0.0
 11
137.5920606853999
 21
98.57966787119996
 31
0.0
 11
137.5975675192826
 21
98.57450926142639
 31
0.0
 11
137.6033135417999
 21
98.56961844599998
 31
0.0
 11
137.6093987575696
 21
98.56495683118061
 31
0.0
 11
137.6157336242002
 21
98.56064052610002
 31
0.0
 11
137.6227151704168
 21
98.5564866802008
 31
0.0
 11
137.6299632082003
 21
98.55281507240004
 31
0.0
 11
137.6491865893869
 21
98.54604828716752
 31
0.0
 11
137.669404608
 21
98.5433575452
 31
0.0
  0
SPLINE
  5
103
330
1F
100
AcDbEntity
  8
0
  6
Continuous
 62
     7
100
AcDbSpline
210
0.0
220
0.0
230
1.0
 70
     8
 71
     3
 72
    15
 73
    11
 74
     9
 42
0.0000000001
 43
0.0000000001
 44
0.00000001
 40
0.0
 40
0.0
 40
0.0
 40
0.0
 40
0.0937305602656487
 40
0.1874572097628214
 40
0.2294991250046469
 40
0.2715362990273854
 40
0.3089445466950625
 40
0.3463542810768817
 40
0.412155755791043
 40
0.4779420870472889
 40
0.4779420870472889
 40
0.4779420870472889
 40
0.4779420870472889
 10
150.2030566315
 20
91.3336501764
 30
0.0
 10
150.1717962146642
 20
91.3347194925529
 30
0.0
 10
150.1092766852871
 20
91.33685808024306
 30
0.0
 10
150.0338161069855
 20
91.35139553608089
 30
0.0
 10
149.9768877810779
 20
91.36795241132238
 30
0.0
 10
149.9388501391449
 20
91.38195145250722
 30
0.0
 10
149.9032751986441
 20
91.39791686071229
 30
0.0
 10
149.8620887071895
 20
91.42028999119731
 30
0.0
 10
149.8150623314781
 20
91.45206110527849
 30
0.0
 10
149.7850489122193
 20
91.4842136619587
 30
0.0
 10
149.7700439296
 20
91.5002880902
 30
0.0
 11
150.2030566315
 21
91.3336501764
 31
0.0
 11
150.1094960313802
 21
91.33929216478417
 31
0.0
 11
150.0173805328001
 21
91.35659591430004
 31
0.0
 11
149.9770349281505
 21
91.3684177086927
 31
0.0
 11
149.9375935269001
 21
91.38296074369998
 31
0.0
 11
149.9034915476308
 21
91.39833708928266
 31
0.0
 11
149.8706027859002
 21
91.41616452820003
 31
0.0
 11
149.8167092664823
 21
91.45391797359659
 31
0.0
 11
149.7700439296
 21
91.5002880902
 31
0.0
  0
SPLINE
  5
104
330
1F
100
AcDbEntity
  8
0
  6
Continuous
 62
     7
100
AcDbSpline
210
0.0
220
0.0
230
1.0
 70
     8
 71
     3
 72
    15
 73
    11
 74
     9
 42
0.0000000001
 43
0.0000000001
 44
0.00000001
 40
0.0
 40
0.0
 40
0.0
 40
0.0
 40
0.1396489615777513
 40
0.2792918322638808
 40
0.3413972345438367
 40
0.4034977815450155
 40
0.461171044554704
 40
0.5188799767552482
 40
0.6198192720533808
 40
0.720630387863681
 40
0.720630387863681
 40
0.720630387863681
 40
0.720630387863681
 10
149.7700439296
 20
111.5448303177
 30
0.0
 10
149.7834681268287
 20
111.5894359906862
 30
0.0
 10
149.81031593578
 20
111.6786453911494
 30
0.0
 10
149.8575741925386
 20
111.7826735355442
 30
0.0
 10
149.9020174439744
 20
111.8586406444833
 30
0.0
 10
149.9368494023652
 20
111.9083348005086
 30
0.0
 10
149.9751574768113
 20
111.9536430020194
 30
0.0
 10
150.027818656974
 20
112.0027147083607
 30
0.0
 10
150.101736223313
 20
112.0522856223731
 30
0.0
 10
150.1692974701562
 20
112.06077808745
 30
0.0
 10
150.2030566315
 20
112.0650216222
 30
0.0
 11
149.7700439296
 21
111.5448303177
 31
0.0
 11
149.8132700113071
 21
111.6776208984277
 31
0.0
 11
149.8712086235001
 21
111.8046769827
 31
0.0
 11
149.90273465634
 21
111.8581857693217
 31
0.0
 11
149.9384806439
 21
111.9089666940002
 31
0.0
 11
149.9759453740827
 21
111.9528141484135
 31
0.0
 11
150.0181648222002
 21
111.9921567342002
 31
0.0
 11
150.1042970503219
 21
112.0447873394986
 31
0.0
 11
150.2030566315
 21
112.0650216222
 31
0.0
  0
SPLINE
  5
105
330
1F
100
AcDbEntity
  8
0
  6
Continuous
 62
     7
100
AcDbSpline
210
0.0
220
0.0
230
1.0
 70
     8
 71
     3
 72
    15
 73
    11
 74
     9
 42
0.0000000001
 43
0.0000000001
 44
0.00000001
 40
0.0
 40
0.0
 40
0.0
 40
0.0
 40
0.0655045069667246
 40
0.1310231235111687
 40
0.167555399232261
 40
0.2040854241000035
 40
0.2447577596267785
 40
0.285434806563104
 40
0.3816818051292629
 40
0.4779350203045372
 40
0.4779350203045372
 40
0.4779350203045372
 40
0.4779350203045372
 10
153.5587190642
 20
91.5002880902
 30
0.0
 10
153.5437828434728
 20
91.48427901892784
 30
0.0
 10
153.5139071847777
 20
91.45225742805228
 30
0.0
 10
153.4673170490795
 20
91.42070944066197
 30
0.0
 10
153.426774100654
 20
91.39857749065067
 30
0.0
 10
153.3922057961203
 20
91.38291596260535
 30
0.0
 10
153.3553693426163
 20
91.36914459139298
 30
0.0
 10
153.2986255398592
 20
91.35221684797293
 30
0.0
 10
153.2220118671216
 20
91.33703212981867
 30
0.0
 10
153.157808888365
 20
91.33477751847639
 30
0.0
 10
153.1257063623
 20
91.3336501764
 30
0.0
 11
153.5587190642
 21
91.5002880902
 31
0.0
 11
153.5122716595493
 21
91.45409849143394
 31
0.0
 11
153.4586472378
 21
91.41645396320007
 31
0.0
 11
153.4265655618153
 21
91.39897903157299
 31
0.0
 11
153.3933169389001
 21
91.38384721770004
 31
0.0
 11
153.3552281199801
 21
91.3695825497936
 31
0.0
 11
153.3162712770003
 21
91.35787842520004
 31
0.0
 11
153.2217753444282
 21
91.33960266364727
 31
0.0
 11
153.1257063623
 21
91.3336501764
 31
0.0
  0
SPLINE
  5
106
330
1F
100
AcDbEntity
  8
0
  6
Continuous
 62
     7
100
AcDbSpline
210
0.0
220
0.0
230
1.0
 70
     8
 71
     3
 72
    15
 73
    11
 74
     9
 42
0.0000000001
 43
0.0000000001
 44
0.00000001
 40
0.0
 40
0.0
 40
0.0
 40
0.0
 40
0.1036797241652507
 40
0.2074832444582668
 40
0.2641563894311107
 40
0.3207809784470541
 40
0.3821179392457958
 40
0.4434651487220402
 40
0.5820136106874998
 40
0.7205679884255304
 40
0.7205679884255304
 40
0.7205679884255304
 40
0.7205679884255304
 10
153.1257063623
 20
112.0650216222
 30
0.0
 10
153.1604292899947
 20
112.0605225470902
 30
0.0
 10
153.2299166054094
 20
112.0515190248649
 30
0.0
 10
153.3045457323486
 20
111.9999444684402
 30
0.0
 10
153.3568338132962
 20
111.9501269343271
 30
0.0
 10
153.3942056652024
 20
111.9052825952592
 30
0.0
 10
153.4283131216698
 20
111.8561332055028
 30
0.0
 10
153.4720921677625
 20
111.7807918691345
 30
0.0
 10
153.5187891800063
 20
111.6776029990707
 30
0.0
 10
153.5454089133702
 20
111.5890885080453
 30
0.0
 10
153.5587190642
 20
111.5448303177
 30
0.0
 11
153.1257063623
 21
112.0650216222
 31
0.0
 11
153.2271610337513
 21
112.0436572864115
 31
0.0
 11
153.3150628745002
 21
111.9884446319002
 31
0.0
 11
153.3560844479417
 21
111.9493412321312
 31
0.0
 11
153.3925507427998
 21
111.9060220283002
 31
0.0
 11
153.427617205354
 21
111.8556974223509
 31
0.0
 11
153.4585967485998
 21
111.8027469926
 31
0.0
 11
153.5158852346378
 21
111.6765974556192
 31
0.0
 11
153.5587190642
 21
111.5448303177
 31
0.0
  0
SPLINE
  5
107
330
1F
100
AcDbEntity
  8
0
  6
Continuous
 62
     7
100
AcDbSpline
210
0.0
220
0.0
230
1.0
 70
     8
 71
     3
 72
    27
 73
    23
 74
    21
 42
0.0000000001
 43
0.0000000001
 44
0.00000001
 40
0.0
 40
0.0
 40
0.0
 40
0.0
 40
0.107337259123388
 40
0.2146848635527867
 40
0.2674861719448857
 40
0.3202984092028287
 40
0.3712335556548182
 40
0.4221647024291246
 40
0.4709202848105141
 40
0.5196747448275092
 40
0.5662951882769666
 40
0.6129142812086419
 40
0.6591196132222197
 40
0.7053251110637528
 40
0.7530327310246737
 40
0.8007407995483851
 40
0.850747654365348
 40
0.9007551099547197
 40
0.9537380546909714
 40
1.006721039771266
 40
1.123167587994754
 40
1.239615534172714
 40
1.239615534172714
 40
1.239615534172714
 40
1.239615534172714
 10
139.269404608
 20
137.7587212237
 30
0.0
 10
139.2350986096172
 20
137.769372255256
 30
0.0
 10
139.1664833063943
 20
137.7906753449284
 30
0.0
 10
139.0760659514996
 20
137.7921380624007
 30
0.0
 10
139.0057507753147
 20
137.7820727848923
 30
0.0
 10
138.9550979752116
 20
137.7690483135197
 30
0.0
 10
138.9066079570499
 20
137.7513242021711
 30
0.0
 10
138.8611223795163
 20
137.7299190970267
 30
0.0
 10
138.8181351628542
 20
137.7053256534731
 30
0.0
 10
138.7781993028895
 20
137.6785518641753
 30
0.0
 10
138.7405912546351
 20
137.6497698552356
 30
0.0
 10
138.7052974443566
 20
137.6194889602432
 30
0.0
 10
138.6716775718605
 20
137.587566400776
 30
0.0
 10
138.6393121854391
 20
137.5538715814382
 30
0.0
 10
138.6080807927331
 20
137.5184541365117
 30
0.0
 10
138.5774865971301
 20
137.4808394800578
 30
0.0
 10
138.547855775457
 20
137.4414976207632
 30
0.0
 10
138.518627188513
 20
137.3996940758181
 30
0.0
 10
138.4902627950765
 20
137.3561088392945
 30
0.0
 10
138.4518568106141
 20
137.2926882225142
 30
0.0
 10
138.4060500995249
 20
137.2090269250877
 30
0.0
 10
138.373533242036
 20
137.1385156673777
 30
0.0
 10
138.3572747157
 20
137.1032598269
 30
0.0
 11
139.269404608
 21
137.7587212237
 31
0.0
 11
139.1654982526215
 21
137.7856425258247
 31
0.0
 11
139.0581925622998
 21
137.7886420259997
 31
0.0
 11
139.0059291123142
 21
137.7811247150763
 31
0.0
 11
138.9547613560996
 21
137.7680482809999
 31
0.0
 11
138.9068996885683
 21
137.7506227272007
 31
0.0
 11
138.8607879076998
 21
137.7289966924998
 31
0.0
 11
138.8184397980154
 21
137.7048358891294
 31
0.0
 11
138.7779126784002
 21
137.6777333072
 31
0.0
 11
138.7408648975471
 21
137.6494326414606
 31
0.0
 11
138.7054569348
 21
137.6191074703998
 31
0.0
 11
138.6719278510067
 21
137.587315439221
 31
0.0
 11
138.6398969034002
 21
137.5540142917001
 31
0.0
 11
138.6083229185616
 21
137.5182497773912
 31
0.0
 11
138.578198416
 21
137.4812555325999
 31
0.0
 11
138.5480945415253
 21
137.441325064655
 31
0.0
 11
138.5194186713996
 21
137.4003562949999
 31
0.0
 11
138.4905058607754
 21
137.355957625935
 31
0.0
 11
138.4630218713999
 21
137.3106605285001
 31
0.0
 11
138.4072503805252
 21
137.2084385181561
 31
0.0
 11
138.3572747157
 21
137.1032598269
 31
0.0
  0
SPLINE
  5
108
330
1F
100
AcDbEntity
  8
0
  6
Continuous
 62
     7
100
AcDbSpline
210
0.0
220
0.0
230
1.0
 70
     8
 71
     3
 72
    25
 73
    21
 74
    19
 42
0.0000000001
 43
0.0000000001
 44
0.00000001
 40
0.0
 40
0.0
 40
0.0
 40
0.0
 40
0.2337819060197411
 40
0.4675620102666984
 40
0.567221346881543
 40
0.6668803631597259
 40
0.7568157221327033
 40
0.8467506404774593
 40
0.9276362245248658
 40
1.008518949992735
 40
1.08093392732794
 40
1.153354483847093
 40
1.220066849245121
 40
1.286762917796081
 40
1.349127103640547
 40
1.411598861754896
 40
1.469166541252634
 40
1.526318794732552
 40
1.644085401884701
 40
1.761942600211764
 40
1.761942600211764
 40
1.761942600211764
 40
1.761942600211764
 10
138.3572747157
 20
127.8287826975
 30
0.0
 10
138.3761021725878
 20
127.7531567722836
 30
0.0
 10
138.4137569412591
 20
127.6019055047049
 30
0.0
 10
138.468080625186
 20
127.4207083718737
 30
0.0
 10
138.5141405836579
 20
127.2838791998697
 30
0.0
 10
138.5471832172937
 20
127.1932867492337
 30
0.0
 10
138.581443799911
 20
127.1066254942466
 30
0.0
 10
138.6158374964495
 20
127.0267841456947
 30
0.0
 10
138.6515844306215
 20
126.950861024047
 30
0.0
 10
138.6875418555098
 20
126.8815488446543
 30
0.0
 10
138.7250500746904
 20
126.8162954204211
 30
0.0
 10
138.7633284554825
 20
126.757028459362
 30
0.0
 10
138.8039856242032
 20
126.7017003253316
 30
0.0
 10
138.8465650987725
 20
126.652150345543
 30
0.0
 10
138.8925084637165
 20
126.6076447198833
 30
0.0
 10
138.9413400971973
 20
126.5710911393096
 30
0.0
 10
138.9938179585646
 20
126.5432707009944
 30
0.0
 10
139.0684941864487
 20
126.5210658685138
 30
0.0
 10
139.1713118039177
 20
126.5293079102884
 30
0.0
 10
139.2366986267996
 20
126.5745590973979
 30
0.0
 10
139.269404608
 20
126.5971933899
 30
0.0
 11
138.3572747157
 21
127.8287826975
 31
0.0
 11
138.4155381959018
 21
127.6023774271175
 31
0.0
 11
138.4826594389999
 21
127.378440213
 31
0.0
 11
138.514533486973
 21
127.2840154893291
 31
0.0
 11
138.5487304201
 21
127.1904073204001
 31
0.0
 11
138.5818636159367
 21
127.1067977508088
 31
0.0
 11
138.6175102901002
 21
127.0242289663999
 31
0.0
 11
138.6520508984925
 21
126.9510892092321
 31
0.0
 11
138.6893809634
 21
126.8793362892001
 31
0.0
 11
138.7255839674773
 21
126.8166204902477
 31
0.0
 11
138.7649864910002
 21
126.7558571942
 31
0.0
 11
138.8046549028342
 21
126.70221992358
 31
0.0
 11
138.8482785873003
 21
126.6517685636999
 31
0.0
 11
138.8933499883093
 21
126.6086656579146
 31
0.0
 11
138.9435780210001
 21
126.5715191198
 31
0.0
 11
138.9946644174607
 21
126.5449820171052
 31
0.0
 11
139.0495841974002
 21
126.5291643734997
 31
0.0
 11
139.1669433354091
 21
126.5389524522653
 31
0.0
 11
139.269404608
 21
126.5971933899
 31
0.0
  0
SPLINE
  5
109
330
1F
100
AcDbEntity
  8
0
  6
Continuous
 62
     7
100
AcDbSpline
210
0.0
220
0.0
230
1.0
 70
     8
 71
     3
 72
    27
 73
    23
 74
    21
 42
0.0000000001
 43
0.0000000001
 44
0.00000001
 40
0.0
 40
0.0
 40
0.0
 40
0.0
 40
0.0376391438879615
 40
0.0753724599981912
 40
0.0961643804217361
 40
0.1170065161160729
 40
0.1379377036099806
 40
0.1588389836093412
 40
0.1803177607439043
 40
0.2018038985065331
 40
0.2241877031504838
 40
0.2465689390946531
 40
0.2700705745071523
 40
0.2935730454467886
 40
0.3183574919932089
 40
0.3431418046812393
 40
0.3693468995556998
 40
0.395552234544118
 40
0.4233094435054481
 40
0.4510665195396988
 40
0.5123424724141705
 40
0.5736187797393523
 40
0.5736187797393523
 40
0.5736187797393523
 40
0.5736187797393523
 10
139.269404608
 20
137.7587212237
 30
0.0
 10
139.2818552214068
 20
137.7556659325621
 30
0.0
 10
139.3067875993521
 20
137.7495477060222
 30
0.0
 10
139.3382471801679
 20
137.762220128793
 30
0.0
 10
139.3591497580807
 20
137.7784037946485
 30
0.0
 10
139.3732965947273
 20
137.7938702487115
 30
0.0
 10
139.3856073145043
 20
137.8107767054091
 30
0.0
 10
139.3963929344025
 20
137.8289484551036
 30
0.0
 10
139.4058845362145
 20
137.8480210585531
 30
0.0
 10
139.4143615288401
 20
137.8680992740122
 30
0.0
 10
139.4219079961813
 20
137.8888624869152
 30
0.0
 10
139.4287162193276
 20
137.9105823959054
 30
0.0
 10
139.4347761780088
 20
137.9329083424642
 30
0.0
 10
139.4402361872479
 20
137.9562108786433
 30
0.0
 10
139.4450563733003
 20
137.9800900118511
 30
0.0
 10
139.4493467136399
 20
138.004983936472
 30
0.0
 10
139.4530578729532
 20
138.0304493401494
 30
0.0
 10
139.4562686259746
 20
138.0569805519856
 30
0.0
 10
139.4589350652089
 20
138.0840921625666
 30
0.0
 10
139.4619017585096
 20
138.1229105011126
 30
0.0
 10
139.4642468174836
 20
138.1729787544781
 30
0.0
 10
139.4643424450023
 20
138.2138328613727
 30
0.0
 10
139.4643902589
 20
138.2342599739
 30
0.0
 11
139.269404608
 21
137.7587212237
 31
0.0
 11
139.3066879335042
 21
137.7535580084258
 31
0.0
 11
139.3422378377002
 21
137.7662074138003
 31
0.0
 11
139.3587497348455
 21
137.7788431253972
 31
0.0
 11
139.3729677111002
 21
137.7940826717003
 31
0.0
 11
139.3853402176936
 21
137.8109656717447
 31
0.0
 11
139.3960704344003
 21
137.8289023926
 31
0.0
 11
139.4056805278114
 21
137.848111348111
 31
0.0
 11
139.4140786861005
 21
137.8678882299003
 31
0.0
 11
139.4217496109801
 21
137.8889165827086
 31
0.0
 11
139.4284691933003
 21
137.9102652814003
 31
0.0
 11
139.4346435474407
 21
137.9329413528857
 31
0.0
 11
139.4400232480001
 21
137.9558198354001
 31
0.0
 11
139.444940573351
 21
137.9801115768363
 31
0.0
 11
139.4491633276002
 21
138.0045335035001
 31
0.0
 11
139.4529527165913
 21
138.0304631685279
 31
0.0
 11
139.4561120293998
 21
138.0564773631999
 31
0.0
 11
139.4588347655107
 21
138.0841007112481
 31
0.0
 11
139.4609655073999
 21
138.1117758843997
 31
0.0
 11
139.463792720085
 21
138.1729865801081
 31
0.0
 11
139.4643902589
 21
138.2342599739
 31
0.0
  0
SPLINE
  5
10A
330
1F
100
AcDbEntity
  8
0
  6
Continuous
 62
     7
100
AcDbSpline
210
0.0
220
0.0
230
1.0
 70
     8
 71
     3
 72
    15
 73
    11
 74
     9
 42
0.0000000001
 43
0.0000000001
 44
0.00000001
 40
0.0
 40
0.0
 40
0.0
 40
0.0
 40
0.1008759644705761
 40
0.2018808408879685
 40
0.2596071958284319
 40
0.3172976005740561
 40
0.3793599163251139
 40
0.4414270459500394
 40
0.5810249796320821
 40
0.7206290114626462
 40
0.7206290114626462
 40
0.7206290114626462
 40
0.7206290114626462
 10
150.2030566315
 20
130.7634642512
 30
0.0
 10
150.1692756814086
 20
130.7677135238104
 30
0.0
 10
150.1016706116952
 20
130.7762174992843
 30
0.0
 10
150.0277248710751
 20
130.8258413412565
 30
0.0
 10
149.9750542216219
 20
130.8749512527516
 30
0.0
 10
149.9367594378411
 20
130.9202691246539
 30
0.0
 10
149.9019492966694
 20
130.9699541321243
 30
0.0
 10
149.8575360368439
 20
131.0458917257636
 30
0.0
 10
149.8103019188701
 20
131.1498832859804
 30
0.0
 10
149.7834634547528
 20
131.2390641498499
 30
0.0
 10
149.7700439296
 20
131.2836555557
 30
0.0
 11
150.2030566315
 21
130.7634642512
 31
0.0
 11
150.1042360399731
 21
130.7837238390079
 31
0.0
 11
150.0180626829
 21
130.8364129042002
 31
0.0
 11
149.9758423395749
 21
130.875780081699
 31
0.0
 11
149.9383785803003
 21
130.9196509096001
 31
0.0
 11
149.902665398857
 21
130.9704081722094
 31
0.0
 11
149.8711657389002
 21
131.0238880749999
 31
0.0
 11
149.8132539122163
 21
131.1509069846883
 31
0.0
 11
149.7700439296
 21
131.2836555557
 31
0.0
  0
SPLINE
  5
10B
330
1F
100
AcDbEntity
  8
0
  6
Continuous
 62
     7
100
AcDbSpline
210
0.0
220
0.0
230
1.0
 70
     8
 71
     3
 72
    15
 73
    11
 74
     9
 42
0.0000000001
 43
0.0000000001
 44
0.00000001
 40
0.0
 40
0.0
 40
0.0
 40
0.0
 40
0.0657863312915766
 40
0.1315878060409459
 40
0.1689975403980827
 40
0.2064057880457194
 40
0.2484429620865629
 40
0.2904848773409856
 40
0.3842115268351085
 40
0.4779420870974925
 40
0.4779420870974925
 40
0.4779420870974925
 40
0.4779420870974925
 10
149.7700439296
 20
151.3281977832
 30
0.0
 10
149.7850489122061
 20
151.3442722114702
 30
0.0
 10
149.8150623314386
 20
151.3764247682082
 30
0.0
 10
149.8620887071598
 20
151.4081958823153
 30
0.0
 10
149.903275198651
 20
151.4305690127276
 30
0.0
 10
149.9388501391628
 20
151.4465344208828
 30
0.0
 10
149.9768877810812
 20
151.4605334621119
 30
0.0
 10
150.0338161069695
 20
151.477090337456
 30
0.0
 10
150.1092766852865
 20
151.4916277932681
 30
0.0
 10
150.171796214664
 20
151.4937663808842
 30
0.0
 10
150.2030566315
 20
151.494835697
 30
0.0
 11
149.7700439296
 21
151.3281977832
 31
0.0
 11
149.8167092664538
 21
151.3745678998823
 31
0.0
 11
149.8706027858998
 21
151.4123213453
 31
0.0
 11
149.903491547634
 21
151.4301487841589
 31
0.0
 11
149.9375935269
 21
151.4455251297003
 31
0.0
 11
149.9770349281554
 21
151.4600681647463
 31
0.0
 11
150.0173805328001
 21
151.4718899592002
 31
0.0
 11
150.1094960313775
 21
151.4891937087139
 31
0.0
 11
150.2030566315
 21
151.494835697
 31
0.0
  0
SPLINE
  5
10C
330
1F
100
AcDbEntity
  8
ACHSEN
  6
Continuous
 62
     7
100
AcDbSpline
210
0.0
220
0.0
230
1.0
 70
     8
 71
     3
 72
    35
 73
    31
 74
    29
 42
0.0000000001
 43
0.0000000001
 44
0.00000001
 40
0.0
 40
0.0
 40
0.0
 40
0.0
 40
0.1889762325729782
 40
0.3779528439429989
 40
0.6013916178203086
 40
0.8248308300435878
 40
1.118932909727213
 40
1.413035702944578
 40
1.772161528837688
 40
2.131288327784334
 40
2.540353815152557
 40
2.94942009220656
 40
3.38202967520505
 40
3.814639610468438
 40
4.255517512876055
 40
4.696395470688925
 40
5.132695672317689
 40
5.568995558720672
 40
5.985972240198246
 40
6.402948299860295
 40
6.78684940796668
 40
7.170749684328079
 40
7.505526625742209
 40
7.840302735400012
 40
8.11595229707552
 40
8.391601231930117
 40
8.600839238931869
 40
8.81007683978747
 40
8.983971817695886
 40
9.15786645945016
 40
9.15786645945016
 40
9.15786645945016
 40
9.15786645945016
 10
128.8437428301
 20
141.8177612721
 30
0.0
 10
128.7814664836754
 20
141.8082915960557
 30
0.0
 10
128.6569136659952
 20
141.7893522249854
 30
0.0
 10
128.4585426592377
 20
141.7604526230489
 30
0.0
 10
128.2486520032596
 20
141.7309599778794
 30
0.0
 10
128.0038576827264
 20
141.6980636005802
 30
0.0
 10
127.7354756432429
 20
141.6638745145623
 30
0.0
 10
127.4219206121619
 20
141.6264540598725
 30
0.0
 10
127.0864993753084
 20
141.589439029062
 30
0.0
 10
126.7126002238201
 20
141.551902394531
 30
0.0
 10
126.3217398519996
 20
141.5168584873673
 30
0.0
 10
125.9060843707755
 20
141.4843757053827
 30
0.0
 10
125.4822400973085
 20
141.4563071145568
 30
0.0
 10
125.0474944845237
 20
141.4328727752812
 30
0.0
 10
124.6097358287738
 20
141.4147505052634
 30
0.0
 10
124.1705533347725
 20
141.4021296568753
 30
0.0
 10
123.7327725619827
 20
141.3950814666796
 30
0.0
 10
123.3029048421316
 20
141.39356800847
 30
0.0
 10
122.8794935902756
 20
141.3972911230292
 30
0.0
 10
122.4736202502076
 20
141.4057374353571
 30
0.0
 10
122.0788929612165
 20
141.4185022302092
 30
0.0
 10
121.7117041905776
 20
141.4344219540252
 30
0.0
 10
121.361052030605
 20
141.4532305265479
 30
0.0
 10
121.0466065600669
 20
141.4730975258951
 30
0.0
 10
120.7520048524044
 20
141.4942628578773
 30
0.0
 10
120.4992903124894
 20
141.5143902422171
 30
0.0
 10
120.2687738060642
 20
141.5343167266003
 30
0.0
 10
120.072153744639
 20
141.5524866614128
 30
0.0
 10
119.8873518066773
 20
141.5704897502461
 30
0.0
 10
119.7720382296738
 20
141.5824298798622
 30
0.0
 10
119.7143814969
 20
141.5883999389
 30
0.0
 11
128.8437428301
 21
141.8177612721
 31
0.0
 11
128.6568847475668
 21
141.7895464981424
 31
0.0
 11
128.4698894278997
 21
141.7622534575003
 31
0.0
 11
128.248621606717
 21
141.7311819757062
 31
0.0
 11
128.0271734106002
 21
141.701419953
 31
0.0
 11
127.7354283457754
 21
141.6642601571902
 31
0.0
 11
127.4433974821004
 21
141.6294115182
 31
0.0
 11
127.0864379584432
 21
141.5900255144189
 31
0.0
 11
126.7291067834
 21
141.5541578539999
 31
0.0
 11
126.3216750021621
 21
141.5176350310929
 31
0.0
 11
125.9138516116999
 21
141.4857712394999
 31
0.0
 11
125.4821871570558
 21
141.4571906534489
 31
0.0
 11
125.0502040267998
 21
141.4339112363002
 31
0.0
 11
124.6097032729204
 21
141.4156791035933
 31
0.0
 11
124.1690071368999
 21
141.4030185593004
 31
0.0
 11
123.7327634546952
 21
141.3959960470831
 31
0.0
 11
123.2964662685999
 21
141.3944610290002
 31
0.0
 11
122.8795056938382
 21
141.3981259970082
 31
0.0
 11
122.4626198666003
 21
141.4068001758999
 31
0.0
 11
122.0789192481813
 21
141.4192056678373
 31
0.0
 11
121.6953791609001
 21
141.4358316607001
 31
0.0
 11
121.361082636779
 21
141.4537602541519
 31
0.0
 11
121.0269725414002
 21
141.4748668351998
 31
0.0
 11
120.7520315213532
 21
141.4946181983789
 31
0.0
 11
120.4772524165003
 21
141.5164992135002
 31
0.0
 11
120.268792089291
 21
141.5345224083846
 31
0.0
 11
120.0604406291001
 21
141.553758901
 31
0.0
 11
119.8873693758451
 21
141.5706646585543
 31
0.0
 11
119.7143814969
 21
141.5883999389
 31
0.0
  0
SPLINE
  5
10D
330
1F
100
AcDbEntity
  8
ACHSEN
  6
Continuous
 62
     7
100
AcDbSpline
210
0.0
220
0.0
230
1.0
 70
     8
 71
     3
 72
    13
 73
     9
 74
     7
 42
0.0000000001
 43
0.0000000001
 44
0.00000001
 40
0.0
 40
0.0
 40
0.0
 40
0.0
 40
0.5901184301047026
 40
1.180233986010674
 40
1.374260793695354
 40
1.568287271587091
 40
1.754585048610095
 40
1.940882528429825
 40
1.940882528429825
 40
1.940882528429825
 40
1.940882528429825
 10
108.0143814969
 20
141.0182942354
 30
0.0
 10
108.2075822751071
 20
141.0552859269197
 30
0.0
 10
108.5939828905281
 20
141.1292691297895
 30
0.0
 10
109.0456269856213
 20
141.2060357751253
 30
0.0
 10
109.3675902529806
 20
141.2575350817161
 30
0.0
 10
109.5568072449212
 20
141.2866999004221
 30
0.0
 10
109.7436171439352
 20
141.3145543707158
 30
0.0
 10
109.8665769179383
 20
141.3320533862914
 30
0.0
 10
109.9280567559
 20
141.3408028871
 30
0.0
 11
108.0143814969
 21
141.0182942354
 31
0.0
 11
108.5943532126599
 21
141.1272555609597
 31
0.0
 11
109.1760233793998
 21
141.2267351389999
 31
0.0
 11
109.3676190645078
 21
141.2573536880886
 31
0.0
 11
109.5593777592
 21
141.2869320101002
 31
0.0
 11
109.7436468905586
 21
141.3143500507311
 31
0.0
 11
109.9280567559
 21
141.3408028871
 31
0.0
  0
SPLINE
  5
10E
330
1F
100
AcDbEntity
  8
FASEN
  6
Continuous
 62
     7
100
AcDbSpline
210
0.0
220
0.0
230
1.0
 70
     8
 71
     3
 72
    22
 73
    18
 74
    16
 42
0.0000000001
 43
0.0000000001
 44
0.00000001
 40
0.0
 40
0.0
 40
0.0
 40
0.0
 40
1.110052478279874
 40
2.220086643175422
 40
2.727775935353401
 40
3.232212024555113
 40
3.651894241531364
 40
4.080901355705183
 40
4.40986230877181
 40
4.715694294872796
 40
4.891067765445816
 40
5.111240996950355
 40
5.199875452957729
 40
5.247073143061051
 40
5.464451807174249
 40
5.813816710409961
 40
5.850881068663231
 40
5.850881068663231
 40
5.850881068663231
 40
5.850881068663231
 10
151.6643814969
 20
152.4726689136
 30
0.0
 10
152.0344158178453
 20
152.4765628652708
 30
0.0
 10
152.7744783549968
 20
152.4843507043709
 30
0.0
 10
153.6826334504972
 20
152.5354218325467
 30
0.0
 10
154.3877443860046
 20
152.5921449622904
 30
0.0
 10
154.862839602366
 20
152.6379749334187
 30
0.0
 10
155.3111445822021
 20
152.6874713242633
 30
0.0
 10
155.7007411419625
 20
152.7363403982044
 30
0.0
 10
156.0517676410124
 20
152.7848738527375
 30
0.0
 10
156.3196744500084
 20
152.8238532290421
 30
0.0
 10
156.5492337217928
 20
152.8587418339433
 30
0.0
 10
156.7136004433864
 20
152.8854828164922
 30
0.0
 10
156.8222620296535
 20
152.9034985853076
 30
0.0
 10
156.9631300419051
 20
152.9268639429637
 30
0.0
 10
156.5970725048104
 20
152.8680597563477
 30
0.0
 10
156.2128461952062
 20
152.7958136839626
 30
0.0
 10
156.3505373907398
 20
152.8276347727465
 30
0.0
 10
156.363744040205
 20
152.830686892118
 30
0.0
 11
151.6643814969
 21
152.4726689136
 31
0.0
 11
152.7742515021872
 21
152.4927954110351
 31
0.0
 11
153.8826627950001
 21
152.5527975209998
 31
0.0
 11
154.3887117062018
 21
152.5935763986668
 31
0.0
 11
154.8908233625999
 21
152.6419463542
 31
0.0
 11
155.30795440732
 21
152.6881508429081
 31
0.0
 11
155.7336322593998
 21
152.7414937923999
 31
0.0
 11
156.059520139891
 21
152.7863535515549
 31
0.0
 11
156.3621568681
 21
152.8304467988999
 31
0.0
 11
156.5355176668678
 21
152.8569399608747
 31
0.0
 11
156.7528780134001
 21
152.8920217457
 31
0.0
 11
156.8403228664748
 21
152.90649463285
 31
0.0
 11
156.8868802203001
 21
152.9142428427001
 31
0.0
 11
156.6724250904694
 21
152.8787114354533
 31
0.0
 11
156.3276530087834
 21
152.8222486397129
 31
0.0
 11
156.363744040205
 21
152.830686892118
 31
0.0
  0
SPLINE
  5
10F
330
1F
100
AcDbEntity
  8
FASEN
  6
Continuous
 62
     7
100
AcDbSpline
210
0.0
220
0.0
230
1.0
 70
     8
 71
     3
 72
     9
 73
     5
 74
     3
 42
0.0000000001
 43
0.0000000001
 44
0.00000001
 40
0.0
 40
0.0
 40
0.0
 40
0.0
 40
0.1505715715328338
 40
0.3011432195542744
 40
0.3011432195542744
 40
0.3011432195542744
 40
0.3011432195542744
 10
156.8868804462
 20
152.9142428785
 30
0.0
 10
156.8373709806227
 20
152.9060021752923
 30
0.0
 10
156.7383520243178
 20
152.8895207646908
 30
0.0
 10
156.6392569010531
 20
152.873503675433
 30
0.0
 10
156.589709326836
 20
152.86549512877
 30
0.0
 11
156.8868804462
 21
152.9142428785
 31
0.0
 11
156.7383330077378
 21
152.889636849154
 31
0.0
 11
156.589709326836
 21
152.86549512877
 31
0.0
  0
SPLINE
  5
110
330
1F
100
AcDbEntity
  8
FASEN
  6
Continuous
 62
     7
100
AcDbSpline
210
0.0
220
0.0
230
1.0
 70
     8
 71
     3
 72
     9
 73
     5
 74
     3
 42
0.0000000001
 43
0.0000000001
 44
0.00000001
 40
0.0
 40
0.0
 40
0.0
 40
0.0
 40
0.1146260855518125
 40
0.2292521300893792
 40
0.2292521300893792
 40
0.2292521300893792
 40
0.2292521300893792
 10
146.4418823246
 20
152.9142428767
 30
0.0
 10
146.4795721287491
 20
152.9079671379377
 30
0.0
 10
146.5549517235616
 20
152.8954156626585
 30
0.0
 10
146.630368848418
 20
152.8830916972179
 30
0.0
 10
146.6680774041
 20
152.8769297156
 30
0.0
 11
146.4418823246
 21
152.9142428767
 31
0.0
 11
146.5549611195617
 21
152.895472537893
 31
0.0
 11
146.6680774041
 21
152.8769297156
 31
0.0
  0
SPLINE
  5
111
330
1F
100
AcDbEntity
  8
FASEN
  6
Continuous
 62
     7
100
AcDbSpline
210
0.0
220
0.0
230
1.0
 70
     8
 71
     3
 72
    20
 73
    16
 74
    14
 42
0.0000000001
 43
0.0000000001
 44
0.00000001
 40
0.0
 40
0.0
 40
0.0
 40
0.0
 40
0.0866379540050576
 40
0.0921810563526111
 40
0.1486734734749584
 40
0.2479710168635842
 40
0.3709063906046799
 40
0.498311046851628
 40
0.6110162031248808
 40
0.6898530007815038
 40
0.7156525490455159
 40
0.7512202025741723
 40
0.8227031910044462
 40
0.8979738049123407
 40
0.944904507623053
 40
0.944904507623053
 40
0.944904507623053
 40
0.944904507623053
 10
146.9665927855
 20
152.8304488237
 30
0.0
 10
146.9941546219113
 20
152.8274091029379
 30
0.0
 10
147.0234798665408
 20
152.8241749006291
 30
0.0
 10
147.0755380524123
 20
152.8078462958815
 30
0.0
 10
146.9598494192714
 20
152.8308352466801
 30
0.0
 10
146.9069815550984
 20
152.8367022016966
 30
0.0
 10
146.776527029254
 20
152.8591166602451
 30
0.0
 10
146.6640109462037
 20
152.877379422118
 30
0.0
 10
146.5502838788501
 20
152.8962689257769
 30
0.0
 10
146.4954023287799
 20
152.9053526155639
 30
0.0
 10
146.4253573651472
 20
152.9169883194137
 30
0.0
 10
146.5016185713083
 20
152.9043156545688
 30
0.0
 10
146.5440643842141
 20
152.8972942148449
 30
0.0
 10
146.6131133467619
 20
152.8858366383738
 30
0.0
 10
146.6528259937228
 20
152.8794012058975
 30
0.0
 10
146.6680774041
 20
152.8769297156
 30
0.0
 11
146.9665927855
 21
152.8304488237
 31
0.0
 11
147.0518859955954
 21
152.8152434501166
 31
0.0
 11
147.0571694961429
 21
152.8135669640297
 31
0.0
 11
147.0013480540195
 21
152.8222479657916
 31
0.0
 11
146.9033264361022
 21
152.8381150557541
 31
0.0
 11
146.7820094092678
 21
152.8579968342694
 31
0.0
 11
146.6563017403934
 21
152.8787219016896
 31
0.0
 11
146.545108196356
 21
152.8971188583667
 31
0.0
 11
146.4673335440325
 21
152.9100163046529
 31
0.0
 11
146.4418825502999
 21
152.9142428409001
 31
0.0
 11
146.4769693045327
 21
152.9084138053934
 31
0.0
 11
146.5474895282772
 21
152.8967212574271
 31
0.0
 11
146.6217549764831
 21
152.8844612198723
 31
0.0
 11
146.6680774041
 21
152.8769297156
 31
0.0
  0
SPLINE
  5
112
330
1F
100
AcDbEntity
  8
FASEN
  6
Continuous
 62
     7
100
AcDbSpline
210
0.0
220
0.0
230
1.0
 70
     8
 71
     3
 72
    13
 73
     9
 74
     7
 42
0.0000000001
 43
0.0000000001
 44
0.00000001
 40
0.0
 40
0.0
 40
0.0
 40
0.0
 40
1.110101042228506
 40
2.220200832435312
 40
2.726240464005259
 40
3.232277511831899
 40
3.973985991370123
 40
4.715685271596158
 40
4.715685271596158
 40
4.715685271596158
 40
4.715685271596158
 10
151.6643814969
 20
152.4726689136
 30
0.0
 10
151.2943295233464
 20
152.4765480026645
 30
0.0
 10
150.5542259936006
 20
152.4843061764184
 30
0.0
 10
149.6466000587123
 20
152.5355320230164
 30
0.0
 10
148.9414477859425
 20
152.591893431024
 30
0.0
 10
148.3595610923246
 20
152.6483146867453
 30
0.0
 10
147.7006702011131
 20
152.724144487145
 30
0.0
 10
147.2112842457332
 20
152.7950141913472
 30
0.0
 10
146.9665927855
 20
152.8304488237
 30
0.0
 11
151.6643814969
 21
152.4726689136
 31
0.0
 11
150.55446293031
 21
152.4927959972351
 31
0.0
 11
149.4459863288002
 21
152.5528057308
 31
0.0
 11
148.9415706109908
 21
152.593313660224
 31
0.0
 11
148.4378765430001
 21
152.6419529410998
 31
0.0
 11
147.7011443679179
 21
152.7277268929588
 31
0.0
 11
146.9665927855
 21
152.8304488237
 31
0.0
  0
MTEXT
  5
113
330
1F
100
AcDbEntity
  8
0
 62
     5
100
AcDbMText
 10
16.9513058732
 20
84.3476481289
 30
0.0
 40
3.5
 41
0.0
 71
     1
 72
     1
  3
F\U+00fcr diese Unterlage behalten wir das Ur-\Pheberrecht. Sie darf nur f\U+00fcr den von uns \Pbestimmten Zweck benutzt und ohne unsere \PZustimmung weder vervielf\U+00e4ltigt noch\PDritten zug\U+00e4nglich gemacht werden\P \PWe own the copyright 
  1
of this document. It \Pdetermined and may neither be copied or \Pmade accessible to outsiders without our\Ppermission.\P \PCe plan reste notre propri\U+00e9t\U+00e9. Il ne peut\P\U+00eatre utilis\U+00e9, copi\U+00e9 ou reproduit sans notre\Paccord.
  7
CONVERTER_11
 73
     1
 44
1.0
  0
DIMENSION
  5
11F
330
1F
100
AcDbEntity
  8
1
100
AcDbDimension
  2
*D3
 10
213.589247138037
 20
105.4142429367
 30
0.0
 11
209.839247138037
 21
121.367564786148
 31
0.0
 70
    32
  1
<>
 71
     5
 42
-1.0
 53
90.0
  3
ME10_DIM_10
100
AcDbAlignedDimension
 13
188.1643814969
 23
137.4142429367
 33
0.0
 14
188.1643814969
 24
105.4142429367
 34
0.0
 50
90.0
100
AcDbRotatedDimension
  0
DIMENSION
  5
12A
330
1F
100
AcDbEntity
  8
0
100
AcDbDimension
  2
*D4
 10
199.6643814969
 20
184.1582584826
 30
0.0
 11
169.6643814969
 21
188.5332584826
 31
0.0
 70
    32
  1
60
 71
     5
 42
-1.0
 53
0.00013888888889
  3
ME10_DIM_11
100
AcDbAlignedDimension
 13
139.6643814969
 23
159.7506308637
 33
0.0
 14
199.6643814969
 24
143.4126413216
 34
0.0
100
AcDbRotatedDimension
  0
DIMENSION
  5
135
330
1F
100
AcDbEntity
  8
0
100
AcDbDimension
  2
*D5
 10
186.6643814969
 20
174.9918305655
 30
0.0
 11
163.1643814969
 21
179.3668305655
 31
0.0
 70
    32
  1
47
 71
     5
 42
-1.0
 53
0.00013888888889
  3
ME10_DIM_12
100
AcDbAlignedDimension
 13
139.6643814969
 23
154.3421474801
 33
0.0
 14
186.6643814969
 24
164.3728348332
 34
0.0
100
AcDbRotatedDimension
  0
DIMENSION
  5
140
330
1F
100
AcDbEntity
  8
0
100
AcDbDimension
  2
*D6
 10
223.9305915164
 20
145.3767429367
 30
0.0
 11
219.5555915164
 21
121.4142429367
 31
0.0
 70
    32
  1
{\Fgdt;n}48
 71
     5
 42
-1.0
 53
90.0
  3
ME10_DIM_13
100
AcDbAlignedDimension
 13
165.2018814969
 23
97.4517429367
 33
0.0
 14
165.2018814969
 24
145.3767429367
 34
0.0
 50
90.0
100
AcDbRotatedDimension
  0
DIMENSION
  5
14B
330
1F
100
AcDbEntity
  8
0
100
AcDbDimension
  2
*D7
 10
186.6643814969
 20
193.0947046719
 30
0.0
 11
144.1643814969
 21
197.4697046719
 31
0.0
 70
    32
  1
85
 71
     5
 42
-1.0
 53
0.00013888888889
  3
ME10_DIM_14
100
AcDbAlignedDimension
 13
101.6643814969
 23
142.7714072245
 33
0.0
 14
186.6643814969
 24
173.1987517097
 34
0.0
100
AcDbRotatedDimension
  0
DIMENSION
  5
156
330
1F
100
AcDbEntity
  8
0
100
AcDbDimension
  2
*D8
 10
186.6643814969
 20
165.4484097293
 30
0.0
 11
174.1643814969
 21
169.8234097293
 31
0.0
 70
    32
  1
25
 71
     5
 42
-1.0
 53
0.00013888888889
  3
ME10_DIM_15
100
AcDbAlignedDimension
 13
161.6643814969
 23
154.4883227066
 33
0.0
 14
186.6643814969
 24
102.9142429367
 34
0.0
100
AcDbRotatedDimension
  0
ENDSEC
  0
SECTION
  2
OBJECTS
  0
DICTIONARY
  5
C
330
0
100
AcDbDictionary
281
     1
  3
ACAD_GROUP
350
D
  3
ACAD_LAYOUT
350
1A
  3
ACAD_MLEADERSTYLE
350
159
  3
ACAD_MLINESTYLE
350
17
  3
ACAD_PLOTSETTINGS
350
19
  3
ACAD_PLOTSTYLENAME
350
E
  3
ACAD_SCALELIST
350
4D
  3
ACAD_VISUALSTYLE
350
2A
  3
AcDbVariableDictionary
350
157
  0
DICTIONARY
  5
D
102
{ACAD_REACTORS
330
C
102
}
330
C
100
AcDbDictionary
281
     1
  0
DICTIONARY
  5
1A
102
{ACAD_REACTORS
330
C
102
}
330
C
100
AcDbDictionary
281
     1
  3
Layout1
350
1E
  3
Layout2
350
26
  3
Model
350
22
  0
DICTIONARY
  5
159
102
{ACAD_REACTORS
330
C
102
}
330
C
100
AcDbDictionary
281
     1
  0
DICTIONARY
  5
17
102
{ACAD_REACTORS
330
C
102
}
330
C
100
AcDbDictionary
281
     1
  3
Standard
350
18
  0
DICTIONARY
  5
19
102
{ACAD_REACTORS
330
C
102
}
330
C
100
AcDbDictionary
281
     1
  0
ACDBDICTIONARYWDFLT
  5
E
102
{ACAD_REACTORS
330
C
102
}
330
C
100
AcDbDictionary
281
     1
  3
Normal
350
F
100
AcDbDictionaryWithDefault
340
F
  0
DICTIONARY
  5
4D
102
{ACAD_REACTORS
330
C
102
}
330
C
100
AcDbDictionary
281
     1
  3
A0
350
4E
  3
A1
350
4F
  3
A2
350
50
  3
A3
350
51
  3
A4
350
52
  3
A5
350
53
  3
A6
350
54
  3
A7
350
55
  3
A8
350
56
  3
A9
350
57
  3
B0
350
58
  3
B1
350
59
  3
B2
350
5A
  3
B3
350
5B
  3
B4
350
5C
  3
B5
350
5D
  3
B6
350
5E
  3
B7
350
5F
  3
B8
350
60
  3
B9
350
61
  3
C0
350
62
  3
C1
350
63
  3
C2
350
64
  3
C3
350
65
  3
C4
350
66
  3
C5
350
67
  3
C6
350
68
  3
C7
350
69
  3
C8
350
6A
  3
C9
350
6B
  3
D0
350
6C
  3
D1
350
6D
  3
D2
350
6E
  0
DICTIONARY
  5
2A
102
{ACAD_REACTORS
330
C
102
}
330
C
100
AcDbDictionary
281
     1
  3
2dWireframe
350
2F
  3
3D Hidden
350
31
  3
3dWireframe
350
30
  3
Basic
350
32
  3
Brighten
350
36
  3
ColorChange
350
3A
  3
Conceptual
350
34
  3
Dim
350
35
  3
Facepattern
350
39
  3
Flat
350
2B
  3
FlatWithEdges
350
2C
  3
Gouraud
350
2D
  3
GouraudWithEdges
350
2E
  3
Linepattern
350
38
  3
Realistic
350
33
  3
Thicken
350
37
  0
DICTIONARY
  5
157
102
{ACAD_REACTORS
330
C
102
}
330
C
100
AcDbDictionary
281
     1
  3
CANNOSCALE
350
15A
  0
LAYOUT
  5
1E
102
{ACAD_REACTORS
330
1A
102
}
330
1A
100
AcDbPlotSettings
  1

  2
none_device
  4

  6

 40
0.0
 41
0.0
 42
0.0
 43
0.0
 44
0.0
 45
0.0
 46
0.0
 47
0.0
 48
0.0
 49
0.0
140
0.0
141
0.0
142
1.0
143
1.0
 70
   688
 72
     0
 73
     0
 74
     5
  7

 75
    16
147
1.0
148
0.0
149
0.0
100
AcDbLayout
  1
Layout1
 70
     1
 71
     1
 10
0.0
 20
0.0
 11
12.0
 21
9.0
 12
0.0
 22
0.0
 32
0.0
 14
1.00000000000000E+20
 24
1.00000000000000E+20
 34
1.00000000000000E+20
 15
-1.00000000000000E+20
 25
-1.00000000000000E+20
 35
-1.00000000000000E+20
146
0.0
 13
0.0
 23
0.0
 33
0.0
 16
1.0
 26
0.0
 36
0.0
 17
0.0
 27
1.0
 37
0.0
 76
     0
330
1B
  0
LAYOUT
  5
26
102
{ACAD_REACTORS
330
1A
102
}
330
1A
100
AcDbPlotSettings
  1

  2
none_device
  4

  6

 40
0.0
 41
0.0
 42
0.0
 43
0.0
 44
0.0
 45
0.0
 46
0.0
 47
0.0
 48
0.0
 49
0.0
140
0.0
141
0.0
142
1.0
143
1.0
 70
   688
 72
     0
 73
     0
 74
     5
  7

 75
    16
147
1.0
148
0.0
149
0.0
100
AcDbLayout
  1
Layout2
 70
     1
 71
     2
 10
0.0
 20
0.0
 11
0.0
 21
0.0
 12
0.0
 22
0.0
 32
0.0
 14
0.0
 24
0.0
 34
0.0
 15
0.0
 25
0.0
 35
0.0
146
0.0
 13
0.0
 23
0.0
 33
0.0
 16
1.0
 26
0.0
 36
0.0
 17
0.0
 27
1.0
 37
0.0
 76
     0
330
23
  0
LAYOUT
  5
22
102
{ACAD_REACTORS
330
1A
102
}
330
1A
100
AcDbPlotSettings
  1

  2
none_device
  4

  6

 40
0.0
 41
0.0
 42
0.0
 43
0.0
 44
0.0
 45
0.0
 46
0.0
 47
0.0
 48
0.0
 49
0.0
140
0.0
141
0.0
142
1.0
143
1.0
 70
  1712
 72
     0
 73
     0
 74
     0
  7

 75
     0
147
1.0
148
0.0
149
0.0
100
AcDbLayout
  1
Model
 70
     1
 71
     0
 10
0.0
 20
0.0
 11
12.0
 21
9.0
 12
0.0
 22
0.0
 32
0.0
 14
0.0
 24
0.0
 34
0.0
 15
297.0
 25
210.0
 35
0.0
146
0.0
 13
0.0
 23
0.0
 33
0.0
 16
1.0
 26
0.0
 36
0.0
 17
0.0
 27
1.0
 37
0.0
 76
     0
330
1F
331
29
  0
MLINESTYLE
  5
18
102
{ACAD_REACTORS
330
17
102
}
330
17
100
AcDbMlineStyle
  2
Standard
 70
     0
  3

 62
   256
 51
90.0
 52
90.0
 71
     2
 49
0.5
 62
   256
  6
BYLAYER
 49
-0.5
 62
   256
  6
BYLAYER
  0
ACDBPLACEHOLDER
  5
F
102
{ACAD_REACTORS
330
E
102
}
330
E
  0
SCALE
  5
4E
102
{ACAD_REACTORS
330
4D
102
}
330
4D
100
AcDbScale
 70
     0
300
1:1
140
1.0
141
1.0
290
     1
  0
SCALE
  5
4F
102
{ACAD_REACTORS
330
4D
102
}
330
4D
100
AcDbScale
 70
     0
300
1:2
140
1.0
141
2.0
290
     0
  0
SCALE
  5
50
102
{ACAD_REACTORS
330
4D
102
}
330
4D
100
AcDbScale
 70
     0
300
1:4
140
1.0
141
4.0
290
     0
  0
SCALE
  5
51
102
{ACAD_REACTORS
330
4D
102
}
330
4D
100
AcDbScale
 70
     0
300
1:5
140
1.0
141
5.0
290
     0
  0
SCALE
  5
52
102
{ACAD_REACTORS
330
4D
102
}
330
4D
100
AcDbScale
 70
     0
300
1:8
140
1.0
141
8.0
290
     0
  0
SCALE
  5
53
102
{ACAD_REACTORS
330
4D
102
}
330
4D
100
AcDbScale
 70
     0
300
1:10
140
1.0
141
10.0
290
     0
  0
SCALE
  5
54
102
{ACAD_REACTORS
330
4D
102
}
330
4D
100
AcDbScale
 70
     0
300
1:16
140
1.0
141
16.0
290
     0
  0
SCALE
  5
55
102
{ACAD_REACTORS
330
4D
102
}
330
4D
100
AcDbScale
 70
     0
300
1:20
140
1.0
141
20.0
290
     0
  0
SCALE
  5
56
102
{ACAD_REACTORS
330
4D
102
}
330
4D
100
AcDbScale
 70
     0
300
1:30
140
1.0
141
30.0
290
     0
  0
SCALE
  5
57
102
{ACAD_REACTORS
330
4D
102
}
330
4D
100
AcDbScale
 70
     0
300
1:40
140
1.0
141
40.0
290
     0
  0
SCALE
  5
58
102
{ACAD_REACTORS
330
4D
102
}
330
4D
100
AcDbScale
 70
     0
300
1:50
140
1.0
141
50.0
290
     0
  0
SCALE
  5
59
102
{ACAD_REACTORS
330
4D
102
}
330
4D
100
AcDbScale
 70
     0
300
1:100
140
1.0
141
100.0
290
     0
  0
SCALE
  5
5A
102
{ACAD_REACTORS
330
4D
102
}
330
4D
100
AcDbScale
 70
     0
300
2:1
140
2.0
141
1.0
290
     0
  0
SCALE
  5
5B
102
{ACAD_REACTORS
330
4D
102
}
330
4D
100
AcDbScale
 70
     0
300
4:1
140
4.0
141
1.0
290
     0
  0
SCALE
  5
5C
102
{ACAD_REACTORS
330
4D
102
}
330
4D
100
AcDbScale
 70
     0
300
8:1
140
8.0
141
1.0
290
     0
  0
SCALE
  5
5D
102
{ACAD_REACTORS
330
4D
102
}
330
4D
100
AcDbScale
 70
     0
300
10:1
140
10.0
141
1.0
290
     0
  0
SCALE
  5
5E
102
{ACAD_REACTORS
330
4D
102
}
330
4D
100
AcDbScale
 70
     0
300
100:1
140
100.0
141
1.0
290
     0
  0
SCALE
  5
5F
102
{ACAD_REACTORS
330
4D
102
}
330
4D
100
AcDbScale
 70
     0
300
1/128" = 1'-0"
140
0.0078125
141
12.0
290
     0
  0
SCALE
  5
60
102
{ACAD_REACTORS
330
4D
102
}
330
4D
100
AcDbScale
 70
     0
300
1/64" = 1'-0"
140
0.015625
141
12.0
290
     0
  0
SCALE
  5
61
102
{ACAD_REACTORS
330
4D
102
}
330
4D
100
AcDbScale
 70
     0
300
1/32" = 1'-0"
140
0.03125
141
12.0
290
     0
  0
SCALE
  5
62
102
{ACAD_REACTORS
330
4D
102
}
330
4D
100
AcDbScale
 70
     0
300
1/16" = 1'-0"
140
0.0625
141
12.0
290
     0
  0
SCALE
  5
63
102
{ACAD_REACTORS
330
4D
102
}
330
4D
100
AcDbScale
 70
     0
300
3/32" = 1'-0"
140
0.09375
141
12.0
290
     0
  0
SCALE
  5
64
102
{ACAD_REACTORS
330
4D
102
}
330
4D
100
AcDbScale
 70
     0
300
1/8" = 1'-0"
140
0.125
141
12.0
290
     0
  0
SCALE
  5
65
102
{ACAD_REACTORS
330
4D
102
}
330
4D
100
AcDbScale
 70
     0
300
3/16" = 1'-0"
140
0.1875
141
12.0
290
     0
  0
SCALE
  5
66
102
{ACAD_REACTORS
330
4D
102
}
330
4D
100
AcDbScale
 70
     0
300
1/4" = 1'-0"
140
0.25
141
12.0
290
     0
  0
SCALE
  5
67
102
{ACAD_REACTORS
330
4D
102
}
330
4D
100
AcDbScale
 70
     0
300
3/8" = 1'-0"
140
0.375
141
12.0
290
     0
  0
SCALE
  5
68
102
{ACAD_REACTORS
330
4D
102
}
330
4D
100
AcDbScale
 70
     0
300
1/2" = 1'-0"
140
0.5
141
12.0
290
     0
  0
SCALE
  5
69
102
{ACAD_REACTORS
330
4D
102
}
330
4D
100
AcDbScale
 70
     0
300
3/4" = 1'-0"
140
0.75
141
12.0
290
     0
  0
SCALE
  5
6A
102
{ACAD_REACTORS
330
4D
102
}
330
4D
100
AcDbScale
 70
     0
300
1" = 1'-0"
140
1.0
141
12.0
290
     0
  0
SCALE
  5
6B
102
{ACAD_REACTORS
330
4D
102
}
330
4D
100
AcDbScale
 70
     0
300
1-1/2" = 1'-0"
140
1.5
141
12.0
290
     0
  0
SCALE
  5
6C
102
{ACAD_REACTORS
330
4D
102
}
330
4D
100
AcDbScale
 70
     0
300
3" = 1'-0"
140
3.0
141
12.0
290
     0
  0
SCALE
  5
6D
102
{ACAD_REACTORS
330
4D
102
}
330
4D
100
AcDbScale
 70
     0
300
6" = 1'-0"
140
6.0
141
12.0
290
     0
  0
SCALE
  5
6E
102
{ACAD_REACTORS
330
4D
102
}
330
4D
100
AcDbScale
 70
     0
300
1'-0" = 1'-0"
140
12.0
141
12.0
290
     0
  0
VISUALSTYLE
  5
2F
102
{ACAD_REACTORS
330
2A
102
}
330
2A
100
AcDbVisualStyle
  2
2dWireframe
 70
     4
 71
     0
 72
     2
 73
     0
 90
        0
 40
-0.6
 41
-30.0
 62
     5
 63
     7
 74
     1
 91
        4
 64
     7
 65
   257
 75
     1
175
     1
 42
1.0
 92
        0
 66
   257
 43
1.0
 76
     1
 77
     6
 78
     2
 67
     7
 79
     5
170
     0
171
     0
290
     0
174
     0
 93
        1
 44
0.0
173
     0
291
     0
 45
0.0
1001
ACAD
1000
AcDbSavedByObjectVersion
1070
     0
  0
VISUALSTYLE
  5
31
102
{ACAD_REACTORS
330
2A
102
}
330
2A
100
AcDbVisualStyle
  2
3D Hidden
 70
     6
 71
     1
 72
     2
 73
     2
 90
        0
 40
-0.6
 41
-30.0
 62
     5
 63
     7
 74
     2
 91
        2
 64
     7
 65
   257
 75
     2
175
     1
 42
40.0
 92
        0
 66
   257
 43
1.0
 76
     1
 77
     6
 78
     2
 67
     7
 79
     3
170
     0
171
     0
290
     0
174
     0
 93
        1
 44
0.0
173
     0
291
     0
 45
0.0
1001
ACAD
1000
AcDbSavedByObjectVersion
1070
     0
  0
VISUALSTYLE
  5
30
102
{ACAD_REACTORS
330
2A
102
}
330
2A
100
AcDbVisualStyle
  2
3dWireframe
 70
     5
 71
     0
 72
     2
 73
     0
 90
        0
 40
-0.6
 41
-30.0
 62
     5
 63
     7
 74
     1
 91
        4
 64
     7
 65
   257
 75
     1
175
     1
 42
1.0
 92
        0
 66
   257
 43
1.0
 76
     1
 77
     6
 78
     2
 67
     7
 79
     5
170
     0
171
     0
290
     0
174
     0
 93
        1
 44
0.0
173
     0
291
     0
 45
0.0
1001
ACAD
1000
AcDbSavedByObjectVersion
1070
     0
  0
VISUALSTYLE
  5
32
102
{ACAD_REACTORS
330
2A
102
}
330
2A
100
AcDbVisualStyle
  2
Basic
 70
     7
 71
     1
 72
     0
 73
     1
 90
        0
 40
-0.6
 41
-30.0
 62
     5
 63
     7
 74
     0
 91
        4
 64
     7
 65
   257
 75
     1
175
     1
 42
1.0
 92
        8
 66
     7
 43
1.0
 76
     1
 77
     6
 78
     2
 67
     7
 79
     5
170
     0
171
     0
290
     0
174
     0
 93
        1
 44
0.0
173
     0
291
     1
 45
0.0
1001
ACAD
1000
AcDbSavedByObjectVersion
1070
     0
  0
VISUALSTYLE
  5
36
102
{ACAD_REACTORS
330
2A
102
}
330
2A
100
AcDbVisualStyle
  2
Brighten
 70
    12
 71
     2
 72
     2
 73
     0
 90
        0
 40
-0.6
 41
-30.0
 62
     5
 63
     7
 74
     1
 91
        4
 64
     7
 65
   257
 75
     1
175
     1
 42
1.0
 92
        8
 66
     7
 43
1.0
 76
     1
 77
     6
 78
     2
 67
     7
 79
     5
170
     0
171
     0
290
     0
174
     0
 93
        1
 44
50.0
173
     0
291
     1
 45
0.0
1001
ACAD
1000
AcDbSavedByObjectVersion
1070
     0
  0
VISUALSTYLE
  5
3A
102
{ACAD_REACTORS
330
2A
102
}
330
2A
100
AcDbVisualStyle
  2
ColorChange
 70
    16
 71
     2
 72
     2
 73
     3
 90
        0
 40
-0.6
 41
-30.0
 62
     5
 63
     8
 74
     1
 91
        4
 64
     7
 65
   257
 75
     1
175
     1
 42
1.0
 92
        8
 66
     8
 43
1.0
 76
     1
 77
     6
 78
     2
 67
     7
 79
     5
170
     0
171
     0
290
     0
174
     0
 93
        1
 44
0.0
173
     0
291
     1
 45
0.0
1001
ACAD
1000
AcDbSavedByObjectVersion
1070
     0
  0
VISUALSTYLE
  5
34
102
{ACAD_REACTORS
330
2A
102
}
330
2A
100
AcDbVisualStyle
  2
Conceptual
 70
     9
 71
     3
 72
     2
 73
     0
 90
        0
 40
-0.6
 41
-30.0
 62
     5
 63
     7
 74
     2
 91
        2
 64
     7
 65
   257
 75
     1
175
     1
 42
40.0
 92
        8
 66
     7
 43
1.0
 76
     1
 77
     6
 78
     2
 67
     7
 79
     3
170
     0
171
     0
290
     0
174
     0
 93
        1
 44
0.0
173
     0
291
     0
 45
0.0
1001
ACAD
1000
AcDbSavedByObjectVersion
1070
     0
  0
VISUALSTYLE
  5
35
102
{ACAD_REACTORS
330
2A
102
}
330
2A
100
AcDbVisualStyle
  2
Dim
 70
    11
 71
     2
 72
     2
 73
     0
 90
        0
 40
-0.6
 41
-30.0
 62
     5
 63
     7
 74
     1
 91
        4
 64
     7
 65
   257
 75
     1
175
     1
 42
1.0
 92
        8
 66
     7
 43
1.0
 76
     1
 77
     6
 78
     2
 67
     7
 79
     5
170
     0
171
     0
290
     0
174
     0
 93
        1
 44
-50.0
173
     0
291
     1
 45
0.0
1001
ACAD
1000
AcDbSavedByObjectVersion
1070
     0
  0
VISUALSTYLE
  5
39
102
{ACAD_REACTORS
330
2A
102
}
330
2A
100
AcDbVisualStyle
  2
Facepattern
 70
    15
 71
     2
 72
     2
 73
     0
 90
        0
 40
-0.6
 41
-30.0
 62
     5
 63
     7
 74
     1
 91
        4
 64
     7
 65
   257
 75
     1
175
     1
 42
1.0
 92
        8
 66
     7
 43
1.0
 76
     1
 77
     6
 78
     2
 67
     7
 79
     5
170
     0
171
     0
290
     0
174
     0
 93
        1
 44
0.0
173
     0
291
     1
 45
0.0
1001
ACAD
1000
AcDbSavedByObjectVersion
1070
     0
  0
VISUALSTYLE
  5
2B
102
{ACAD_REACTORS
330
2A
102
}
330
2A
100
AcDbVisualStyle
  2
Flat
 70
     0
 71
     2
 72
     1
 73
     1
 90
        2
 40
-0.6
 41
30.0
 62
     5
 63
     7
 74
     0
 91
        4
 64
     7
 65
   257
 75
     1
175
     1
 42
1.0
 92
        8
 66
     7
 43
1.0
 76
     1
 77
     6
 78
     2
 67
     7
 79
     5
170
     0
171
     0
290
     0
174
     0
 93
       13
 44
0.0
173
     0
291
     1
 45
0.0
1001
ACAD
1000
AcDbSavedByObjectVersion
1070
     0
  0
VISUALSTYLE
  5
2C
102
{ACAD_REACTORS
330
2A
102
}
330
2A
100
AcDbVisualStyle
  2
FlatWithEdges
 70
     1
 71
     2
 72
     1
 73
     1
 90
        2
 40
-0.6
 41
30.0
 62
     5
 63
     7
 74
     1
 91
        4
 64
     7
 65
   257
 75
     1
175
     1
 42
1.0
 92
        0
 66
   257
 43
1.0
 76
     1
 77
     6
 78
     2
 67
     7
 79
     5
170
     0
171
     0
290
     0
174
     0
 93
       13
 44
0.0
173
     0
291
     1
 45
0.0
1001
ACAD
1000
AcDbSavedByObjectVersion
1070
     0
  0
VISUALSTYLE
  5
2D
102
{ACAD_REACTORS
330
2A
102
}
330
2A
100
AcDbVisualStyle
  2
Gouraud
 70
     2
 71
     2
 72
     2
 73
     1
 90
        2
 40
-0.6
 41
30.0
 62
     5
 63
     7
 74
     0
 91
        4
 64
     7
 65
   257
 75
     1
175
     1
 42
1.0
 92
        0
 66
     7
 43
1.0
 76
     1
 77
     6
 78
     2
 67
     7
 79
     5
170
     0
171
     0
290
     0
174
     0
 93
       13
 44
0.0
173
     0
291
     1
 45
0.0
1001
ACAD
1000
AcDbSavedByObjectVersion
1070
     0
  0
VISUALSTYLE
  5
2E
102
{ACAD_REACTORS
330
2A
102
}
330
2A
100
AcDbVisualStyle
  2
GouraudWithEdges
 70
     3
 71
     2
 72
     2
 73
     1
 90
        2
 40
-0.6
 41
30.0
 62
     5
 63
     7
 74
     1
 91
        4
 64
     7
 65
   257
 75
     1
175
     1
 42
1.0
 92
        0
 66
   257
 43
1.0
 76
     1
 77
     6
 78
     2
 67
     7
 79
     5
170
     0
171
     0
290
     0
174
     0
 93
       13
 44
0.0
173
     0
291
     1
 45
0.0
1001
ACAD
1000
AcDbSavedByObjectVersion
1070
     0
  0
VISUALSTYLE
  5
38
102
{ACAD_REACTORS
330
2A
102
}
330
2A
100
AcDbVisualStyle
  2
Linepattern
 70
    14
 71
     2
 72
     2
 73
     0
 90
        0
 40
-0.6
 41
-30.0
 62
     5
 63
     7
 74
     1
 91
        4
 64
     7
 65
   257
 75
     7
175
     7
 42
1.0
 92
        8
 66
     7
 43
1.0
 76
     1
 77
     6
 78
     2
 67
     7
 79
     5
170
     0
171
     0
290
     0
174
     0
 93
        1
 44
0.0
173
     0
291
     1
 45
0.0
1001
ACAD
1000
AcDbSavedByObjectVersion
1070
     0
  0
VISUALSTYLE
  5
33
102
{ACAD_REACTORS
330
2A
102
}
330
2A
100
AcDbVisualStyle
  2
Realistic
 70
     8
 71
     2
 72
     2
 73
     0
 90
        0
 40
-0.6
 41
-30.0
 62
     5
 63
     7
 74
     1
 91
        0
 64
     7
 65
   257
 75
     1
175
     1
 42
1.0
 92
        8
 66
     8
 43
1.0
 76
     1
 77
     6
 78
     2
 67
     7
 79
     5
170
     0
171
     0
290
     0
174
     0
 93
       13
 44
0.0
173
     0
291
     0
 45
0.0
1001
ACAD
1000
AcDbSavedByObjectVersion
1070
     0
  0
VISUALSTYLE
  5
37
102
{ACAD_REACTORS
330
2A
102
}
330
2A
100
AcDbVisualStyle
  2
Thicken
 70
    13
 71
     2
 72
     2
 73
     0
 90
        0
 40
-0.6
 41
-30.0
 62
     5
 63
     7
 74
     1
 91
        4
 64
     7
 65
   257
 75
     1
175
     1
 42
1.0
 92
       12
 66
     7
 43
1.0
 76
     1
 77
     6
 78
     2
 67
     7
 79
     5
170
     0
171
     0
290
     0
174
     0
 93
        1
 44
0.0
173
     0
291
     1
 45
0.0
1001
ACAD
1000
AcDbSavedByObjectVersion
1070
     0
  0
DICTIONARYVAR
  5
15A
102
{ACAD_REACTORS
330
157
102
}
330
157
100
DictionaryVariables
280
     0
  1
1:1
  0
ENDSEC
  0
EOF
