999
DXF file: cc6-025-25.dxf
999
Pro/ENGINEER 2010430 by Parametric Technology Corporation
  0
SECTION
  2
HEADER
  9
$ACADVER
  1
AC1021
  9
$DWGCODEPAGE
  3
ANSI_1252
  9
$EXTMAX
 10
297.0
 20
210.0
 30
0.0
  9
$EXTMIN
 10
0.0
 20
0.0
 30
0.0
  9
$LIMMIN
 10
0.0
 20
0.0
  9
$LIMMAX
 10
297.0
 20
210.0
  9
$VIEWCTR
 10
148.5
 20
105.0
  9
$VIEWSIZE
 40
210.0
  9
$CLAYER
  8
0
  9
$LTSCALE
 40
16.335
  9
$CELTYPE
  6
BYLAYER
  9
$DIMSCALE
 40
1.0
  9
$DIMASZ
 40
3.5
  9
$DIMEXO
 40
1.85625
  9
$DIMDLI
 40
11.286
  9
$DIMEXE
 40
5.346
  9
$DIMCEN
 40
2.673
  9
$DIMLFAC
 40
1.0
  9
$DIMBLK
  1
_FILLED
  9
$DIMTXT
 40
3.5
  9
$DIMTOL
 70
1
  9
$DIMLIM
 70
0
  9
$DIMTFAC
 40
1.0
  9
$DIMTP
 40
0.005
  9
$DIMTM
 40
0.005
  9
$PDMODE
 70
3
  9
$PDSIZE
 40
0.3125
  9
$HANDSEED
  5
303
  9
$TILEMODE
 70
1
  9
$MEASUREMENT
 70
1
  9
$INSUNITS
 70
4
  0
ENDSEC
  0
SECTION
  2
CLASSES
  0
CLASS
  1
ACDBDICTIONARYWDFLT
  2
AcDbDictionaryWithDefault
  3
AutoCAD 2000
 90
0
 91
1
280
0
281
0
  0
CLASS
  1
ACDBPLACEHOLDER
  2
AcDbPlaceHolder
  3
AutoCAD 2000
 90
0
 91
1
280
0
281
0
  0
CLASS
  1
LAYOUT
  2
AcDbLayout
  3
AutoCAD 2000
 90
0
 91
0
280
0
281
0
  0
ENDSEC
  0
SECTION
  2
TABLES
  0
TABLE
  2
VPORT
  5
8
100
AcDbSymbolTable
 70
2
  0
VPORT
  5
1F4
100
AcDbSymbolTableRecord
100
AcDbViewportTableRecord
  2
*ACTIVE
 70
0
 10
0.0
 20
0.0
 11
1.0
 21
1.0
 12
148.5
 22
105.0
 13
0.0
 23
0.0
 14
1.0
 24
1.0
 15
0.0
 25
0.0
 16
0.0
 26
0.0
 36
1.0
 17
0.0
 27
0.0
 37
0.0
 40
210.0
 41
1.4142857143
 42
50.0
 43
0.0
 44
0.0
 50
0.0
 51
0.0
 71
0
 72
100
 73
1
 74
1
 75
0
 76
0
 77
0
 78
0
  0
ENDTAB
  0
TABLE
  2
LTYPE
  5
5
100
AcDbSymbolTable
 70
6
  0
LTYPE
  5
14
100
AcDbSymbolTableRecord
100
AcDbLinetypeTableRecord
  2
BYBLOCK
 70
0
  3

 72
65
 73
0
 40
0.0
  0
LTYPE
  5
15
100
AcDbSymbolTableRecord
100
AcDbLinetypeTableRecord
  2
BYLAYER
 70
0
  3

 72
65
 73
0
 40
0.0
  0
LTYPE
  5
16
100
AcDbSymbolTableRecord
100
AcDbLinetypeTableRecord
  2
CONTINUOUS
 70
64
  3
Solid line
 72
65
 73
0
 40
0.0
  0
LTYPE
  5
1F5
100
AcDbSymbolTableRecord
100
AcDbLinetypeTableRecord
  2
CENTER
 70
64
  3
____ _ ____ _ ____ _ ____ _ ____ _ ____ _ ____
 72
65
 73
4
 40
0.6
 49
0.375
 74
0
 49
-0.075
 74
0
 49
0.075
 74
0
 49
-0.075
 74
0
  0
LTYPE
  5
1F6
100
AcDbSymbolTableRecord
100
AcDbLinetypeTableRecord
  2
HIDDEN
 70
64
  3
- - - - - - - - - - - - - - - - - - - -
 72
65
 73
2
 40
0.2
 49
0.1
 74
0
 49
-0.1
 74
0
  0
LTYPE
  5
1F7
100
AcDbSymbolTableRecord
100
AcDbLinetypeTableRecord
  2
PHANTOM
 70
64
  3
_____ _ _ _____ _ _ _____ _ _ _____
 72
65
 73
6
 40
0.8
 49
0.45
 74
0
 49
-0.05
 74
0
 49
0.1
 74
0
 49
-0.05
 74
0
 49
0.1
 74
0
 49
-0.05
 74
0
  0
LTYPE
  5
1F8
100
AcDbSymbolTableRecord
100
AcDbLinetypeTableRecord
  2
DOT
 70
64
  3
. . . . . . . . . . . . . . . . . . . .
 72
65
 73
2
 40
0.2
 49
0.1
 74
0
 49
-0.1
 74
0
  0
LTYPE
  5
1F9
100
AcDbSymbolTableRecord
100
AcDbLinetypeTableRecord
  2
DASHED
 70
64
  3
- - - - - - - - - - - - - - - - - - - -
 72
65
 73
2
 40
0.2
 49
0.1
 74
0
 49
-0.1
 74
0
  0
ENDTAB
  0
TABLE
  2
LAYER
  5
2
100
AcDbSymbolTable
 70
36
  0
LAYER
  5
10
100
AcDbSymbolTableRecord
100
AcDbLayerTableRecord
  2
0
 70
0
 62
7
  6
CONTINUOUS
370
-3
390
F
  0
LAYER
  5
1FA
100
AcDbSymbolTableRecord
100
AcDbLayerTableRecord
  2
DEFAULT_1
 70
0
 62
7
  6
CENTER
370
-3
390
F
  0
LAYER
  5
1FB
100
AcDbSymbolTableRecord
100
AcDbLayerTableRecord
  2
DEFAULT_2
 70
0
 62
8
  6
HIDDEN
370
-3
390
F
  0
LAYER
  5
1FC
100
AcDbSymbolTableRecord
100
AcDbLayerTableRecord
  2
DEFAULT_3
 70
0
 62
7
  6
PHANTOM
370
-3
390
F
  0
LAYER
  5
1FD
100
AcDbSymbolTableRecord
100
AcDbLayerTableRecord
  2
ACHSEN
 70
0
 62
7
  6
CONTINUOUS
370
-3
390
F
  0
LAYER
  5
1FE
100
AcDbSymbolTableRecord
100
AcDbLayerTableRecord
  2
BEZUGSACHSEN
 70
0
 62
7
  6
CONTINUOUS
370
-3
390
F
  0
LAYER
  5
1FF
100
AcDbSymbolTableRecord
100
AcDbLayerTableRecord
  2
BEZUGSEBENE_B
 70
0
 62
7
  6
CONTINUOUS
370
-3
390
F
  0
LAYER
  5
200
100
AcDbSymbolTableRecord
100
AcDbLayerTableRecord
  2
BOHRUNGEN
 70
0
 62
7
  6
CONTINUOUS
370
-3
390
F
  0
LAYER
  5
201
100
AcDbSymbolTableRecord
100
AcDbLayerTableRecord
  2
EBENEN
 70
0
 62
7
  6
CONTINUOUS
370
-3
390
F
  0
LAYER
  5
202
100
AcDbSymbolTableRecord
100
AcDbLayerTableRecord
  2
FASEN
 70
0
 62
7
  6
CONTINUOUS
370
-3
390
F
  0
LAYER
  5
203
100
AcDbSymbolTableRecord
100
AcDbLayerTableRecord
  2
FLAECHEN
 70
0
 62
7
  6
CONTINUOUS
370
-3
390
F
  0
LAYER
  5
204
100
AcDbSymbolTableRecord
100
AcDbLayerTableRecord
  2
GEWINDE
 70
0
 62
7
  6
CONTINUOUS
370
-3
390
F
  0
LAYER
  5
205
100
AcDbSymbolTableRecord
100
AcDbLayerTableRecord
  2
KOORDSYS
 70
0
 62
7
  6
CONTINUOUS
370
-3
390
F
  0
LAYER
  5
206
100
AcDbSymbolTableRecord
100
AcDbLayerTableRecord
  2
KURVEN
 70
0
 62
7
  6
CONTINUOUS
370
-3
390
F
  0
LAYER
  5
207
100
AcDbSymbolTableRecord
100
AcDbLayerTableRecord
  2
KURVE_FUER_GTOL_DETAILANSICHT
 70
0
 62
7
  6
CONTINUOUS
370
-3
390
F
  0
LAYER
  5
208
100
AcDbSymbolTableRecord
100
AcDbLayerTableRecord
  2
KURVE_GAUGE2_POLIGON_INNENEINST
 70
0
 62
7
  6
CONTINUOUS
370
-3
390
F
  0
LAYER
  5
209
100
AcDbSymbolTableRecord
100
AcDbLayerTableRecord
  2
KURVE_PHANTOM1_GAUGE_PIN_1
 70
0
 62
7
  6
CONTINUOUS
370
-3
390
F
  0
LAYER
  5
20A
100
AcDbSymbolTableRecord
100
AcDbLayerTableRecord
  2
KURVE_PHANTOM2_GAUGE_PIN1
 70
0
 62
7
  6
CONTINUOUS
370
-3
390
F
  0
LAYER
  5
20B
100
AcDbSymbolTableRecord
100
AcDbLayerTableRecord
  2
KURVE_POLIGON_BEMASUNG
 70
0
 62
7
  6
CONTINUOUS
370
-3
390
F
  0
LAYER
  5
20C
100
AcDbSymbolTableRecord
100
AcDbLayerTableRecord
  2
PUNKTE
 70
0
 62
7
  6
CONTINUOUS
370
-3
390
F
  0
LAYER
  5
20D
100
AcDbSymbolTableRecord
100
AcDbLayerTableRecord
  2
RUNDUNGEN
 70
0
 62
7
  6
CONTINUOUS
370
-3
390
F
  0
LAYER
  5
20E
100
AcDbSymbolTableRecord
100
AcDbLayerTableRecord
  2
S_ACHSEN
 70
0
 62
7
  6
CONTINUOUS
370
-3
390
F
  0
LAYER
  5
20F
100
AcDbSymbolTableRecord
100
AcDbLayerTableRecord
  2
S_EBENEN
 70
0
 62
7
  6
CONTINUOUS
370
-3
390
F
  0
LAYER
  5
210
100
AcDbSymbolTableRecord
100
AcDbLayerTableRecord
  2
S_KOORDSYS
 70
0
 62
7
  6
CONTINUOUS
370
-3
390
F
  0
LAYER
  5
211
100
AcDbSymbolTableRecord
100
AcDbLayerTableRecord
  2
TOL_BEZUEGE
 70
0
 62
7
  6
CONTINUOUS
370
-3
390
F
  0
LAYER
  5
212
100
AcDbSymbolTableRecord
100
AcDbLayerTableRecord
  2
VERBFLAECHE
 70
0
 62
7
  6
CONTINUOUS
370
-3
390
F
  0
LAYER
  5
213
100
AcDbSymbolTableRecord
100
AcDbLayerTableRecord
  2
ZEICHNUNGSBEMASSUNGEN
 70
0
 62
7
  6
CONTINUOUS
370
-3
390
F
  0
ENDTAB
  0
TABLE
  2
STYLE
  5
3
100
AcDbSymbolTable
 70
1
  0
STYLE
  5
11
100
AcDbSymbolTableRecord
100
AcDbTextStyleTableRecord
  2
STANDARD
 70
0
 40
0.0
 41
0.7
 50
0.0
 71
0
 42
0.2
  3
txt
  4

  0
STYLE
  5
214
100
AcDbSymbolTableRecord
100
AcDbTextStyleTableRecord
  2
TEXTSTYLE_1
 70
0
 40
0.0
 41
0.8
 50
0.0
 71
0
 42
0.2
  3
gdt
  4

  0
STYLE
  5
215
100
AcDbSymbolTableRecord
100
AcDbTextStyleTableRecord
  2
TEXTSTYLE_2
 70
0
 40
0.0
 41
0.7
 50
0.0
 71
0
 42
0.2
  3
gdt
  4

  0
ENDTAB
  0
TABLE
  2
VIEW
  5
6
100
AcDbSymbolTable
 70
0
  0
ENDTAB
  0
TABLE
  2
UCS
  5
7
100
AcDbSymbolTable
 70
0
  0
ENDTAB
  0
TABLE
  2
APPID
  5
9
100
AcDbSymbolTable
 70
1
  0
APPID
  5
216
100
AcDbSymbolTableRecord
100
AcDbRegAppTableRecord
  2
ACAD
 70
0
  0
ENDTAB
  0
TABLE
  2
BLOCK_RECORD
  5
1
100
AcDbSymbolTable
 70
0
  0
BLOCK_RECORD
  5
217
100
AcDbSymbolTableRecord
100
AcDbBlockTableRecord
  2
*Model_Space
  0
BLOCK_RECORD
  5
218
100
AcDbSymbolTableRecord
100
AcDbBlockTableRecord
  2
*Paper_Space
  0
BLOCK_RECORD
  5
219
100
AcDbSymbolTableRecord
100
AcDbBlockTableRecord
  2
_FILLED
  0
BLOCK_RECORD
  5
21A
100
AcDbSymbolTableRecord
100
AcDbBlockTableRecord
  2
*D0
  0
BLOCK_RECORD
  5
21B
100
AcDbSymbolTableRecord
100
AcDbBlockTableRecord
  2
*D1
  0
BLOCK_RECORD
  5
21C
100
AcDbSymbolTableRecord
100
AcDbBlockTableRecord
  2
*D2
  0
BLOCK_RECORD
  5
21D
100
AcDbSymbolTableRecord
100
AcDbBlockTableRecord
  2
*D3
  0
BLOCK_RECORD
  5
21E
100
AcDbSymbolTableRecord
100
AcDbBlockTableRecord
  2
*D4
  0
BLOCK_RECORD
  5
21F
100
AcDbSymbolTableRecord
100
AcDbBlockTableRecord
  2
*D5
  0
ENDTAB
  0
TABLE
  2
DIMSTYLE
  5
A
100
AcDbSymbolTable
 70
1
100
AcDbDimStyleTable
 71
0
  0
DIMSTYLE
105
220
100
AcDbSymbolTableRecord
100
AcDbDimStyleTableRecord
  2
STANDARD
 70
0
  3

  4

 40
1.0
 41
3.5
 42
0.0625
 43
0.38
 44
0.18
 45
0.0
 46
0.0
 47
0.005
 48
0.005
140
3.5
141
0.09
142
0.0
143
25.4
144
1.0
145
0.0
146
1.0
147
0.09
 71
1.0
 72
0.0
 73
0
 74
0
 75
0
 76
0
 77
1
 78
8
170
0
171
2
172
0
173
0
174
0
175
0
176
0
177
0
178
5
270
2
271
3
272
3
273
2
274
2
275
0
280
0
281
0
282
0
283
1
284
8
285
0
286
0
287
3
288
0
340
11
341
219
342
219
343
219
344
219
  0
DIMSTYLE
105
221
100
AcDbSymbolTableRecord
100
AcDbDimStyleTableRecord
  2
DIMSTYLE_1
 70
0
  3

  4

 40
1.0
 41
3.5
 42
0.0625
 43
0.38
 44
0.18
 45
0.0
 46
0.0
 47
0.2
 48
0.2
140
3.5
141
0.09
142
0.0
143
25.4
144
1.0
145
0.0
146
1.0
147
0.09
 71
0.0
 72
0.0
 73
0
 74
0
 75
0
 76
0
 77
1
 78
8
170
0
171
2
172
0
173
0
174
0
175
0
176
0
177
0
178
5
270
2
271
2
272
2
273
2
274
2
275
0
280
0
281
0
282
0
283
1
284
8
285
0
286
0
287
3
288
0
340
11
341
219
342
219
343
219
344
219
  0
DIMSTYLE
105
222
100
AcDbSymbolTableRecord
100
AcDbDimStyleTableRecord
  2
DIMSTYLE_2
 70
0
  3

  4

 40
1.0
 41
3.5
 42
0.0625
 43
0.38
 44
0.18
 45
0.0
 46
0.0
 47
0.3
 48
0.3
140
3.5
141
0.09
142
0.0
143
25.4
144
1.0
145
0.0
146
1.0
147
0.09
 71
0.0
 72
0.0
 73
0
 74
0
 75
0
 76
0
 77
1
 78
8
170
0
171
2
172
0
173
0
174
0
175
0
176
0
177
0
178
5
270
2
271
2
272
2
273
2
274
2
275
0
280
0
281
0
282
0
283
1
284
8
285
0
286
0
287
3
288
0
340
11
341
219
342
219
343
219
344
219
  0
DIMSTYLE
105
223
100
AcDbSymbolTableRecord
100
AcDbDimStyleTableRecord
  2
DIMSTYLE_3
 70
0
  3

  4

 40
1.0
 41
3.5
 42
0.0625
 43
0.38
 44
0.18
 45
0.0
 46
0.0
 47
0.0
 48
0.15
140
3.5
141
0.09
142
0.0
143
25.4
144
1.0
145
0.0
146
1.0
147
0.09
 71
0.0
 72
0.0
 73
0
 74
0
 75
0
 76
0
 77
1
 78
8
170
0
171
2
172
0
173
0
174
0
175
0
176
0
177
0
178
5
270
2
271
2
272
2
273
2
274
2
275
0
280
0
281
0
282
0
283
1
284
8
285
0
286
0
287
3
288
0
340
11
341
219
342
219
343
219
344
219
  0
DIMSTYLE
105
224
100
AcDbSymbolTableRecord
100
AcDbDimStyleTableRecord
  2
DIMSTYLE_4
 70
0
  3

  4

 40
1.0
 41
3.5
 42
0.0625
 43
0.38
 44
0.18
 45
0.0
 46
0.0
 47
0.02
 48
0.02
140
3.5
141
0.09
142
0.0
143
25.4
144
1.0
145
0.0
146
1.0
147
0.09
 71
0.0
 72
0.0
 73
0
 74
0
 75
0
 76
0
 77
1
 78
8
170
0
171
2
172
0
173
0
174
0
175
0
176
0
177
0
178
5
270
2
271
2
272
2
273
2
274
2
275
0
280
0
281
0
282
0
283
1
284
8
285
0
286
0
287
3
288
0
340
11
341
219
342
219
343
219
344
219
  0
ENDTAB
  0
ENDSEC
  0
SECTION
  2
BLOCKS
  0
BLOCK
  5
20
100
AcDbEntity
  8
0
100
AcDbBlockBegin
  2
*Model_Space
 70
0
 10
0.0
 20
0.0
 30
0.0
  3
*Model_Space
  1

  0
ENDBLK
  5
21
100
AcDbEntity
  8
0
100
AcDbBlockEnd
  0
BLOCK
  5
1C
100
AcDbEntity
  8
0
100
AcDbBlockBegin
  2
*Paper_Space
 70
0
 10
0.0
 20
0.0
 30
0.0
  3
*Paper_Space
  1

  0
ENDBLK
  5
1D
100
AcDbEntity
  8
0
100
AcDbBlockEnd
  0
BLOCK
  5
225
100
AcDbEntity
  8
0
100
AcDbBlockBegin
  2
_FILLED
 70
64
 10
0.0
 20
0.0
  3
_FILLED
  1

  0
SOLID
  5
226
100
AcDbEntity
  8
0
  6
BYBLOCK
 62
0
100
AcDbTrace
 10
0.0
 20
0.0
 11
-1.0
 21
0.125
 12
-1.0
 22
-0.125
 13
-1.0
 23
-0.125
  0
ENDBLK
  5
227
100
AcDbEntity
  8
0
  6
BYBLOCK
 62
0
100
AcDbBlockEnd
  0
BLOCK
  5
228
100
AcDbEntity
  8
0
100
AcDbBlockBegin
 62
2
  6
CONTINUOUS
  2
*D0
 70
65
 10
0.0
 20
0.0
  3
*D0
  1

  0
MTEXT
  5
229
100
AcDbEntity
  8
0
100
AcDbMText
 62
5
  6
CONTINUOUS
  7
STANDARD
 71
2
 72
1
 10
190.1334238565
 20
167.3829631089
 30
0.0
 11
1.0
 21
0.0
 31
0.0
 44
0.9
  1
26
 40
3.5
 41
5.5
  0
LINE
  5
22A
100
AcDbEntity
  8
0
100
AcDbLine
 62
2
  6
CONTINUOUS
 10
203.1334238565
 20
128.8728171381
 11
203.1334238565
 21
142.9693712892
  0
LINE
  5
22B
100
AcDbEntity
  8
0
100
AcDbLine
 62
2
  6
CONTINUOUS
 10
203.1334238565
 20
157.7880310596
 11
203.1334238565
 21
164.5079631089
  0
LINE
  5
22C
100
AcDbEntity
  8
0
100
AcDbLine
 62
2
  6
CONTINUOUS
 10
177.1334238565
 20
145.317530129
 11
177.1334238565
 21
164.5079631089
  0
LINE
  5
22D
100
AcDbEntity
  8
0
100
AcDbLine
 62
2
  6
CONTINUOUS
 10
203.1334238565
 20
163.0079631089
 11
190.1334238565
 21
163.0079631089
  0
LINE
  5
22E
100
AcDbEntity
  8
0
100
AcDbLine
 62
2
  6
CONTINUOUS
 10
177.1334238565
 20
163.0079631089
 11
190.1334238565
 21
163.0079631089
  0
INSERT
  5
22F
100
AcDbEntity
  8
0
100
AcDbBlockReference
 62
2
  6
CONTINUOUS
  2
_FILLED
 10
203.1334238565
 20
163.0079631089
 41
3.5
 42
3.5
 43
3.5
  0
INSERT
  5
230
100
AcDbEntity
  8
0
100
AcDbBlockReference
 62
2
  6
CONTINUOUS
  2
_FILLED
 10
177.1334238565
 20
163.0079631089
 41
3.5
 42
3.5
 43
3.5
 50
180.0
  0
ENDBLK
  5
231
100
AcDbEntity
  8
0
  6
BYBLOCK
 62
0
100
AcDbBlockEnd
  0
BLOCK
  5
232
100
AcDbEntity
  8
0
100
AcDbBlockBegin
 62
2
  6
CONTINUOUS
  2
*D1
 70
65
 10
0.0
 20
0.0
  3
*D1
  1

  0
MTEXT
  5
233
100
AcDbEntity
  8
0
100
AcDbMText
 62
5
  6
CONTINUOUS
  7
STANDARD
 71
2
 72
1
 10
160.1334238565
 20
193.7383415343
 30
0.0
 11
1.0
 21
0.0
 31
0.0
 44
0.9
  1
86
 40
3.5
 41
5.5
  0
LINE
  5
234
100
AcDbEntity
  8
0
100
AcDbLine
 62
2
  6
CONTINUOUS
 10
203.1334238565
 20
130.5172884372
 11
203.1334238565
 21
179.5542038529
  0
LINE
  5
235
100
AcDbEntity
  8
0
100
AcDbLine
 62
2
  6
CONTINUOUS
 10
203.1334238565
 20
185.1602831849
 11
203.1334238565
 21
190.8633415343
  0
LINE
  5
236
100
AcDbEntity
  8
0
100
AcDbLine
 62
2
  6
CONTINUOUS
 10
117.1334238565
 20
132.3444787695
 11
117.1334238565
 21
190.8633415343
  0
LINE
  5
237
100
AcDbEntity
  8
0
100
AcDbLine
 62
2
  6
CONTINUOUS
 10
203.1334238565
 20
189.3633415343
 11
160.1334238565
 21
189.3633415343
  0
LINE
  5
238
100
AcDbEntity
  8
0
100
AcDbLine
 62
2
  6
CONTINUOUS
 10
117.1334238565
 20
189.3633415343
 11
160.1334238565
 21
189.3633415343
  0
INSERT
  5
239
100
AcDbEntity
  8
0
100
AcDbBlockReference
 62
2
  6
CONTINUOUS
  2
_FILLED
 10
203.1334238565
 20
189.3633415343
 41
3.5
 42
3.5
 43
3.5
  0
INSERT
  5
23A
100
AcDbEntity
  8
0
100
AcDbBlockReference
 62
2
  6
CONTINUOUS
  2
_FILLED
 10
117.1334238565
 20
189.3633415343
 41
3.5
 42
3.5
 43
3.5
 50
180.0
  0
ENDBLK
  5
23B
100
AcDbEntity
  8
0
  6
BYBLOCK
 62
0
100
AcDbBlockEnd
  0
BLOCK
  5
23C
100
AcDbEntity
  8
0
100
AcDbBlockBegin
 62
2
  6
CONTINUOUS
  2
*D2
 70
65
 10
0.0
 20
0.0
  3
*D2
  1

  0
MTEXT
  5
23D
100
AcDbEntity
  8
0
100
AcDbMText
 62
5
  6
CONTINUOUS
  7
TEXTSTYLE_2
 71
2
 72
1
 10
237.5906793543
 20
111.6655098286
 30
0.0
 11
0.0
 21
1.0
 31
0.0
 44
0.9
  1
{\Fgdt;n}\Ftxt;42
 40
3.5
 41
10.1666666667
  0
LINE
  5
23E
100
AcDbEntity
  8
0
100
AcDbLine
 62
2
  6
CONTINUOUS
 10
183.6709238565
 20
132.6280098286
 11
213.1405136726
 21
132.6280098286
  0
LINE
  5
23F
100
AcDbEntity
  8
0
100
AcDbLine
 62
2
  6
CONTINUOUS
 10
217.504164612
 20
132.6280098286
 11
243.4656793543
 21
132.6280098286
  0
LINE
  5
240
100
AcDbEntity
  8
0
100
AcDbLine
 62
2
  6
CONTINUOUS
 10
183.6709238565
 20
90.7030098286
 11
201.5239900216
 21
90.7030098286
  0
LINE
  5
241
100
AcDbEntity
  8
0
100
AcDbLine
 62
2
  6
CONTINUOUS
 10
206.9232807841
 20
90.7030098286
 11
243.4656793543
 21
90.7030098286
  0
LINE
  5
242
100
AcDbEntity
  8
0
100
AcDbLine
 62
2
  6
CONTINUOUS
 10
241.9656793543
 20
132.6280098286
 11
241.9656793543
 21
111.6655098286
  0
LINE
  5
243
100
AcDbEntity
  8
0
100
AcDbLine
 62
2
  6
CONTINUOUS
 10
241.9656793543
 20
90.7030098286
 11
241.9656793543
 21
111.6655098286
  0
INSERT
  5
244
100
AcDbEntity
  8
0
100
AcDbBlockReference
 62
2
  6
CONTINUOUS
  2
_FILLED
 10
241.9656793543
 20
132.6280098286
 41
3.5
 42
3.5
 43
3.5
 50
90.0
  0
INSERT
  5
245
100
AcDbEntity
  8
0
100
AcDbBlockReference
 62
2
  6
CONTINUOUS
  2
_FILLED
 10
241.9656793543
 20
90.7030098286
 41
3.5
 42
3.5
 43
3.5
 50
270.0
  0
ENDBLK
  5
246
100
AcDbEntity
  8
0
  6
BYBLOCK
 62
0
100
AcDbBlockEnd
  0
BLOCK
  5
247
100
AcDbEntity
  8
0
100
AcDbBlockBegin
 62
2
  6
CONTINUOUS
  2
*D3
 70
65
 10
0.0
 20
0.0
  3
*D3
  1

  0
MTEXT
  5
248
100
AcDbEntity
  8
0
100
AcDbMText
 62
5
  6
CONTINUOUS
  7
STANDARD
 71
2
 72
1
 10
179.1334238565
 20
177.4923001193
 30
0.0
 11
1.0
 21
0.0
 31
0.0
 44
0.9
  1
48
 40
3.5
 41
5.5
  0
LINE
  5
249
100
AcDbEntity
  8
0
100
AcDbLine
 62
2
  6
CONTINUOUS
 10
203.1334238565
 20
129.4209742378
 11
203.1334238565
 21
174.6173001193
  0
LINE
  5
24A
100
AcDbEntity
  8
0
100
AcDbLine
 62
2
  6
CONTINUOUS
 10
155.1334238565
 20
144.4039349629
 11
155.1334238565
 21
148.283133126
  0
LINE
  5
24B
100
AcDbEntity
  8
0
100
AcDbLine
 62
2
  6
CONTINUOUS
 10
155.1334238565
 20
151.2768017665
 11
155.1334238565
 21
174.6173001193
  0
LINE
  5
24C
100
AcDbEntity
  8
0
100
AcDbLine
 62
2
  6
CONTINUOUS
 10
203.1334238565
 20
173.1173001193
 11
179.1334238565
 21
173.1173001193
  0
LINE
  5
24D
100
AcDbEntity
  8
0
100
AcDbLine
 62
2
  6
CONTINUOUS
 10
155.1334238565
 20
173.1173001193
 11
179.1334238565
 21
173.1173001193
  0
INSERT
  5
24E
100
AcDbEntity
  8
0
100
AcDbBlockReference
 62
2
  6
CONTINUOUS
  2
_FILLED
 10
203.1334238565
 20
173.1173001193
 41
3.5
 42
3.5
 43
3.5
  0
INSERT
  5
24F
100
AcDbEntity
  8
0
100
AcDbBlockReference
 62
2
  6
CONTINUOUS
  2
_FILLED
 10
155.1334238565
 20
173.1173001193
 41
3.5
 42
3.5
 43
3.5
 50
180.0
  0
ENDBLK
  5
250
100
AcDbEntity
  8
0
  6
BYBLOCK
 62
0
100
AcDbBlockEnd
  0
BLOCK
  5
251
100
AcDbEntity
  8
0
100
AcDbBlockBegin
 62
2
  6
CONTINUOUS
  2
*D4
 70
65
 10
0.0
 20
0.0
  3
*D4
  1

  0
MTEXT
  5
252
100
AcDbEntity
  8
0
100
AcDbMText
 62
5
  6
CONTINUOUS
  7
TEXTSTYLE_2
 71
2
 72
1
 10
227.0941168168
 20
111.6655098286
 30
0.0
 11
0.0
 21
1.0
 31
0.0
 44
0.9
  1
{\Fgdt;n}\Ftxt;25
 40
3.5
 41
9.9166666667
  0
LINE
  5
253
100
AcDbEntity
  8
0
100
AcDbLine
 62
2
  6
CONTINUOUS
 10
204.6334238565
 20
99.1655098286
 11
232.9691168168
 21
99.1655098286
  0
LINE
  5
254
100
AcDbEntity
  8
0
100
AcDbLine
 62
2
  6
CONTINUOUS
 10
204.6334238565
 20
124.1655098286
 11
232.9691168168
 21
124.1655098286
  0
LINE
  5
255
100
AcDbEntity
  8
0
100
AcDbLine
 62
2
  6
CONTINUOUS
 10
231.4691168168
 20
99.1655098286
 11
231.4691168168
 21
111.6655098286
  0
LINE
  5
256
100
AcDbEntity
  8
0
100
AcDbLine
 62
2
  6
CONTINUOUS
 10
231.4691168168
 20
124.1655098286
 11
231.4691168168
 21
111.6655098286
  0
INSERT
  5
257
100
AcDbEntity
  8
0
100
AcDbBlockReference
 62
2
  6
CONTINUOUS
  2
_FILLED
 10
231.4691168168
 20
99.1655098286
 41
3.5
 42
3.5
 43
3.5
 50
270.0
  0
INSERT
  5
258
100
AcDbEntity
  8
0
100
AcDbBlockReference
 62
2
  6
CONTINUOUS
  2
_FILLED
 10
231.4691168168
 20
124.1655098286
 41
3.5
 42
3.5
 43
3.5
 50
90.0
  0
ENDBLK
  5
259
100
AcDbEntity
  8
0
  6
BYBLOCK
 62
0
100
AcDbBlockEnd
  0
BLOCK
  5
25A
100
AcDbEntity
  8
0
100
AcDbBlockBegin
 62
2
  6
CONTINUOUS
  2
*D5
 70
65
 10
0.0
 20
0.0
  3
*D5
  1

  0
MTEXT
  5
25B
100
AcDbEntity
  8
0
100
AcDbMText
 62
5
  6
CONTINUOUS
  7
STANDARD
 71
2
 72
1
 10
185.1334238565
 20
185.55662077
 30
0.0
 11
1.0
 21
0.0
 31
0.0
 44
0.9
  1
60
 40
3.5
 41
5.5
  0
LINE
  5
25C
100
AcDbEntity
  8
0
100
AcDbLine
 62
2
  6
CONTINUOUS
 10
215.1334238565
 20
130.6639082135
 11
215.1334238565
 21
137.8801346003
  0
LINE
  5
25D
100
AcDbEntity
  8
0
100
AcDbLine
 62
2
  6
CONTINUOUS
 10
215.1334238565
 20
140.1253860807
 11
215.1334238565
 21
182.68162077
  0
LINE
  5
25E
100
AcDbEntity
  8
0
100
AcDbLine
 62
2
  6
CONTINUOUS
 10
155.1334238565
 20
144.9520920626
 11
155.1334238565
 21
182.68162077
  0
LINE
  5
25F
100
AcDbEntity
  8
0
100
AcDbLine
 62
2
  6
CONTINUOUS
 10
215.1334238565
 20
181.18162077
 11
185.1334238565
 21
181.18162077
  0
LINE
  5
260
100
AcDbEntity
  8
0
100
AcDbLine
 62
2
  6
CONTINUOUS
 10
155.1334238565
 20
181.18162077
 11
185.1334238565
 21
181.18162077
  0
INSERT
  5
261
100
AcDbEntity
  8
0
100
AcDbBlockReference
 62
2
  6
CONTINUOUS
  2
_FILLED
 10
215.1334238565
 20
181.18162077
 41
3.5
 42
3.5
 43
3.5
  0
INSERT
  5
262
100
AcDbEntity
  8
0
100
AcDbBlockReference
 62
2
  6
CONTINUOUS
  2
_FILLED
 10
155.1334238565
 20
181.18162077
 41
3.5
 42
3.5
 43
3.5
 50
180.0
  0
ENDBLK
  5
263
100
AcDbEntity
  8
0
  6
BYBLOCK
 62
0
100
AcDbBlockEnd
  0
ENDSEC
  0
SECTION
  2
ENTITIES
  0
DIMENSION
  5
264
100
AcDbEntity
  8
0
100
AcDbDimension
 62
2
  6
CONTINUOUS
  2
*D0
 10
177.1334238565
 20
163.0079631089
 11
187.3834238565
 21
165.6329631089
 70
160
 71
2
 42
26.0
  3
DIMSTYLE_1
100
AcDbAlignedDimension
 13
203.1334238565
 23
128.8728171381
 14
177.1334238565
 24
145.317530129
 50
180.0
100
AcDbRotatedDimension
  0
DIMENSION
  5
265
100
AcDbEntity
  8
0
100
AcDbDimension
 62
2
  6
CONTINUOUS
  2
*D1
 10
117.1334238565
 20
189.3633415343
 11
157.3834238565
 21
191.9883415343
 70
160
 71
2
 42
86.0
  3
DIMSTYLE_2
100
AcDbAlignedDimension
 13
203.1334238565
 23
130.5172884372
 14
117.1334238565
 24
132.3444787695
 50
180.0
100
AcDbRotatedDimension
  0
DIMENSION
  5
266
100
AcDbEntity
  8
0
100
AcDbDimension
 62
2
  6
CONTINUOUS
  2
*D2
 10
241.9656793543
 20
90.7030098286
 11
240.4795331286
 21
109.3932683086
 70
160
 71
2
 42
41.925
  1
%%c<>
  3
DIMSTYLE_3
100
AcDbAlignedDimension
 13
183.6709238565
 23
132.6280098286
 14
183.6709238565
 24
90.7030098286
 50
270.0
100
AcDbRotatedDimension
  0
DIMENSION
  5
267
100
AcDbEntity
  8
0
100
AcDbDimension
 62
2
  6
CONTINUOUS
  2
*D3
 10
155.1334238565
 20
173.1173001193
 11
176.3834238565
 21
175.7423001193
 70
160
 71
2
 42
48.0
  3
DIMSTYLE_2
100
AcDbAlignedDimension
 13
203.1334238565
 23
129.4209742378
 14
155.1334238565
 24
144.4039349629
 50
180.0
100
AcDbRotatedDimension
  0
DIMENSION
  5
268
100
AcDbEntity
  8
0
100
AcDbDimension
 62
2
  6
CONTINUOUS
  2
*D4
 10
231.4691168168
 20
124.1655098286
 11
229.9549659901
 21
109.4491431001
 70
160
 71
2
 42
25.0
  1
%%c<>
  3
DIMSTYLE_4
100
AcDbAlignedDimension
 13
204.6334238565
 23
99.1655098286
 14
204.6334238565
 24
124.1655098286
 50
90.0
100
AcDbRotatedDimension
  0
DIMENSION
  5
269
100
AcDbEntity
  8
0
100
AcDbDimension
 62
2
  6
CONTINUOUS
  2
*D5
 10
155.1334238565
 20
181.18162077
 11
182.3834238565
 21
183.80662077
 70
160
 71
2
 42
60.0
  3
DIMSTYLE_2
100
AcDbAlignedDimension
 13
215.1334238565
 23
130.6639082135
 14
155.1334238565
 24
144.9520920626
 50
180.0
100
AcDbRotatedDimension
  0
MTEXT
  5
26A
100
AcDbEntity
  8
0
100
AcDbMText
 62
5
  6
CONTINUOUS
  7
STANDARD
 71
1
 72
1
 10
8.5356279496
 20
81.2503927365
 30
0.0
 11
1.0
 21
0.0
 31
0.0
 44
0.9
  3
Für diese Unterlage behalten wir das Ur-\Pheberrecht. Sie darf nur für den von uns \Pbestimmten Zweck benutzt und ohne unsere \PZustimmung weder vervielfältigt noch\PDritten zugänglich gemacht werden\P \PWe own the copyright of this document. It \Pde
  1
termined and may neither be copied or \Pmade accessible to outsiders without our\Ppermission.\P \PCe plan reste notre propriété. Il ne peut\Pêtre utilisé, copié ou reproduit sans notre\Paccord.\P 
 40
3.5
 41
104.8333333333
  0
LINE
  5
26B
100
AcDbEntity
  8
0
100
AcDbLine
 62
7
  6
CONTINUOUS
 10
0.0
 20
0.0
 11
0.0
 21
210.0
  0
LINE
  5
26C
100
AcDbEntity
  8
0
100
AcDbLine
 62
7
  6
CONTINUOUS
 10
0.0
 20
0.0
 11
297.0
 21
0.0
  0
LINE
  5
26D
100
AcDbEntity
  8
0
100
AcDbLine
 62
7
  6
CONTINUOUS
 10
0.0
 20
210.0
 11
297.0
 21
210.0
  0
LINE
  5
26E
100
AcDbEntity
  8
0
100
AcDbLine
 62
7
  6
CONTINUOUS
 10
297.0
 20
0.0
 11
297.0
 21
210.0
  0
LINE
  5
26F
100
AcDbEntity
  8
0
100
AcDbLine
 62
7
  6
CONTINUOUS
 10
117.1334238565
 20
89.9731718357
 11
117.1334238565
 21
126.6267544673
  0
LINE
  5
270
100
AcDbEntity
  8
ACHSEN
100
AcDbLine
 62
7
  6
CONTINUOUS
 10
117.1334238565
 20
126.6267544673
 11
117.1334238565
 21
130.4139891426
  0
LINE
  5
271
100
AcDbEntity
  8
ACHSEN
100
AcDbLine
 62
7
  6
CONTINUOUS
 10
118.6334238565
 20
131.1624994421
 11
118.6334238565
 21
127.3767544673
  0
LINE
  5
272
100
AcDbEntity
  8
0
100
AcDbLine
 62
7
  6
CONTINUOUS
 10
118.6334238565
 20
127.3767544673
 11
118.6334238565
 21
89.1071464319
  0
LINE
  5
273
100
AcDbEntity
  8
0
100
AcDbLine
 62
9
  6
CONTINUOUS
 10
118.6334238565
 20
127.3767544673
 11
117.1334238565
 21
126.6267544673
  0
LINE
  5
274
100
AcDbEntity
  8
0
100
AcDbLine
 62
7
  6
CONTINUOUS
 10
118.6334238565
 20
89.1071464319
 11
117.1334238565
 21
89.9731718357
  0
LINE
  5
275
100
AcDbEntity
  8
0
100
AcDbLine
 62
7
  6
CONTINUOUS
 10
155.1334256925
 20
142.8655079213
 11
155.4334257824
 21
143.1655079752
  0
LINE
  5
276
100
AcDbEntity
  8
0
100
AcDbLine
 62
9
  6
CONTINUOUS
 10
118.6334238565
 20
90.7293940593
 11
117.1334238565
 21
91.4793940593
  0
LINE
  5
277
100
AcDbEntity
  8
ACHSEN
100
AcDbLine
 62
7
  6
CENTER
 10
139.6334238565
 20
88.7320243215
 11
139.6334238565
 21
135.8538803932
  0
LINE
  5
278
100
AcDbEntity
  8
0
100
AcDbLine
 62
7
  6
CONTINUOUS
 10
177.1334238565
 20
80.1655098286
 11
155.4334239289
 21
80.1655098286
  0
LINE
  5
279
100
AcDbEntity
  8
0
100
AcDbLine
 62
7
  6
CONTINUOUS
 10
168.594748722
 20
81.5849170683
 11
165.6720989911
 21
81.5849170683
  0
LINE
  5
27A
100
AcDbEntity
  8
0
100
AcDbLine
 62
7
  6
CONTINUOUS
 10
155.1334256925
 20
80.465511736
 11
155.4334257824
 21
80.1655116821
  0
LINE
  5
27B
100
AcDbEntity
  8
0
100
AcDbLine
 62
7
  6
CONTINUOUS
 10
153.3864526074
 20
88.7887809533
 11
153.1384469677
 21
88.7946244371
  0
LINE
  5
27C
100
AcDbEntity
  8
0
100
AcDbLine
 62
7
  6
CONTINUOUS
 10
118.6334238565
 20
89.1071464319
 11
153.1438266794
 21
88.2401249928
  0
LINE
  5
27D
100
AcDbEntity
  8
DEFAULT_1
100
AcDbLine
 62
5
  6
CENTER
 10
213.1334238565
 20
90.7030098286
 11
195.2934238565
 21
90.7030098286
  0
LINE
  5
27E
100
AcDbEntity
  8
RUNDUNGEN
100
AcDbLine
 62
7
  6
CONTINUOUS
 10
180.9282831694
 20
90.7030098286
 11
179.1334238565
 21
90.7030098286
  0
LINE
  5
27F
100
AcDbEntity
  8
0
100
AcDbLine
 62
7
  6
CONTINUOUS
 10
179.1334238565
 20
90.7030098286
 11
180.9282831694
 21
90.7030098286
  0
LINE
  5
280
100
AcDbEntity
  8
0
100
AcDbLine
 62
9
  6
CONTINUOUS
 10
152.9334869456
 20
89.9831079494
 11
118.6334238565
 21
90.7293940593
  0
LINE
  5
281
100
AcDbEntity
  8
0
100
AcDbLine
 62
7
  6
CONTINUOUS
 10
154.933447064
 20
90.2695832716
 11
154.9334238565
 21
90.2721233714
  0
LINE
  5
282
100
AcDbEntity
  8
0
100
AcDbLine
 62
7
  6
CONTINUOUS
 10
152.9334869456
 20
132.2856101982
 11
152.9334869456
 21
128.1230405772
  0
LINE
  5
283
100
AcDbEntity
  8
0
100
AcDbLine
 62
7
  6
CONTINUOUS
 10
152.9334869456
 20
116.8903809592
 11
152.9334869456
 21
89.9831079494
  0
LINE
  5
284
100
AcDbEntity
  8
0
100
AcDbLine
 62
9
  6
CONTINUOUS
 10
153.1384469677
 20
132.0906963984
 11
153.1384469677
 21
126.3504520334
  0
LINE
  5
285
100
AcDbEntity
  8
0
100
AcDbLine
 62
9
  6
CONTINUOUS
 10
153.1384469677
 20
119.8514530153
 11
153.1384469677
 21
88.7946244371
  0
LINE
  5
286
100
AcDbEntity
  8
0
100
AcDbLine
 62
9
  6
CONTINUOUS
 10
153.8263170754
 20
88.9226166098
 11
153.8263170754
 21
89.5619531777
  0
LINE
  5
287
100
AcDbEntity
  8
0
100
AcDbLine
 62
9
  6
CONTINUOUS
 10
153.8263170754
 20
118.0800495893
 11
153.8263170754
 21
127.3545267188
  0
LINE
  5
288
100
AcDbEntity
  8
0
100
AcDbLine
 62
9
  6
CONTINUOUS
 10
154.7384469677
 20
132.1308939675
 11
154.7384469677
 21
128.0099881156
  0
LINE
  5
289
100
AcDbEntity
  8
0
100
AcDbLine
 62
9
  6
CONTINUOUS
 10
154.7384469677
 20
116.8484602817
 11
154.7384469677
 21
90.1380810885
  0
LINE
  5
28A
100
AcDbEntity
  8
0
100
AcDbLine
 62
7
  6
CONTINUOUS
 10
154.9334238565
 20
90.266094812
 11
154.9334238565
 21
116.2538413762
  0
LINE
  5
28B
100
AcDbEntity
  8
0
100
AcDbLine
 62
7
  6
CONTINUOUS
 10
154.9334238565
 20
128.4765931345
 11
154.9334238565
 21
134.1989946896
  0
LINE
  5
28C
100
AcDbEntity
  8
0
100
AcDbLine
 62
7
  6
CONTINUOUS
 10
155.1334238565
 20
80.4657854981
 11
155.1334238565
 21
142.8652341591
  0
LINE
  5
28D
100
AcDbEntity
  8
0
100
AcDbLine
 62
7
  6
CONTINUOUS
 10
155.4334239301
 20
80.1655098286
 11
155.4334239301
 21
143.1655098286
  0
LINE
  5
28E
100
AcDbEntity
  8
DEFAULT_1
100
AcDbLine
 62
5
  6
CENTER
 10
207.8705533594
 20
95.3755098286
 11
211.1705533594
 21
95.3755098286
  0
LINE
  5
28F
100
AcDbEntity
  8
RUNDUNGEN
100
AcDbLine
 62
7
  6
CONTINUOUS
 10
202.2673984528
 20
95.6655098286
 11
187.5476374189
 21
95.6655098286
  0
LINE
  5
290
100
AcDbEntity
  8
0
100
AcDbLine
 62
7
  6
CONTINUOUS
 10
187.5476374189
 20
95.6655098286
 11
202.2673984528
 21
95.6655098286
  0
LINE
  5
291
100
AcDbEntity
  8
0
100
AcDbLine
 62
2
  6
CONTINUOUS
 10
188.6334238565
 20
96.5855098286
 11
202.7985607004
 21
96.5855098286
  0
LINE
  5
292
100
AcDbEntity
  8
DEFAULT_1
100
AcDbLine
 62
5
  6
CENTER
 10
202.7985607004
 20
96.5855098286
 11
207.2034238565
 21
96.5855098286
  0
LINE
  5
293
100
AcDbEntity
  8
0
100
AcDbLine
 62
7
  6
CONTINUOUS
 10
168.594748722
 20
102.3162885141
 11
165.6720989911
 21
102.3162885141
  0
LINE
  5
294
100
AcDbEntity
  8
0
100
AcDbLine
 62
9
  6
CONTINUOUS
 10
165.2390862893
 20
141.5794646751
 11
165.2390862893
 21
121.5349224476
  0
LINE
  5
295
100
AcDbEntity
  8
0
100
AcDbLine
 62
9
  6
CONTINUOUS
 10
165.2390862893
 20
101.7960972096
 11
165.2390862893
 21
81.7515549821
  0
LINE
  5
296
100
AcDbEntity
  8
0
100
AcDbLine
 62
9
  6
CONTINUOUS
 10
165.6720989911
 20
141.7461025889
 11
165.6720989911
 21
121.0147311431
  0
LINE
  5
297
100
AcDbEntity
  8
0
100
AcDbLine
 62
9
  6
CONTINUOUS
 10
165.6720989911
 20
102.3162885141
 11
165.6720989911
 21
81.5849170683
  0
LINE
  5
298
100
AcDbEntity
  8
DEFAULT_2
100
AcDbLine
 62
8
  6
HIDDEN
 10
166.5583162792
 20
120.6655098286
 11
166.5583162792
 21
102.6655098286
  0
LINE
  5
299
100
AcDbEntity
  8
DEFAULT_2
100
AcDbLine
 62
8
  6
HIDDEN
 10
166.6334238565
 20
120.7905098286
 11
166.6334238565
 21
102.5405098286
  0
LINE
  5
29A
100
AcDbEntity
  8
DEFAULT_2
100
AcDbLine
 62
8
  6
HIDDEN
 10
179.1190510435
 20
102.5405098286
 11
166.6334238565
 21
102.5405098286
  0
LINE
  5
29B
100
AcDbEntity
  8
FASEN
100
AcDbLine
 62
8
  6
HIDDEN
 10
202.6382898222
 20
99.2350963791
 11
179.1190510435
 21
102.5405098286
  0
LINE
  5
29C
100
AcDbEntity
  8
DEFAULT_2
100
AcDbLine
 62
8
  6
HIDDEN
 10
179.1190510435
 20
102.5405098286
 11
202.6382898222
 21
99.2350963791
  0
LINE
  5
29D
100
AcDbEntity
  8
ACHSEN
100
AcDbLine
 62
7
  6
CENTER
 10
167.1334238565
 20
138.9637885906
 11
167.1334238565
 21
146.1655098286
  0
LINE
  5
29E
100
AcDbEntity
  8
0
100
AcDbLine
 62
9
  6
CONTINUOUS
 10
168.594748722
 20
141.7461025889
 11
168.594748722
 21
121.0147311431
  0
LINE
  5
29F
100
AcDbEntity
  8
0
100
AcDbLine
 62
9
  6
CONTINUOUS
 10
168.594748722
 20
102.3162885141
 11
168.594748722
 21
81.5849170683
  0
LINE
  5
2A0
100
AcDbEntity
  8
0
100
AcDbLine
 62
9
  6
CONTINUOUS
 10
169.0277614238
 20
141.5794646751
 11
169.0277614238
 21
121.5349224476
  0
LINE
  5
2A1
100
AcDbEntity
  8
0
100
AcDbLine
 62
9
  6
CONTINUOUS
 10
169.0277614238
 20
101.7960972096
 11
169.0277614238
 21
81.7515549821
  0
LINE
  5
2A2
100
AcDbEntity
  8
0
100
AcDbLine
 62
7
  6
CONTINUOUS
 10
153.8263170754
 20
88.9226166098
 11
153.1438266791
 21
88.2401262135
  0
LINE
  5
2A3
100
AcDbEntity
  8
S_ACHSEN
100
AcDbLine
 62
7
  6
CENTER
 10
114.1334238565
 20
111.6655098286
 11
218.1334238565
 21
111.6655098286
  0
LINE
  5
2A4
100
AcDbEntity
  8
0
100
AcDbLine
 62
7
  6
CONTINUOUS
 10
177.1334238565
 20
80.1655098286
 11
177.1334238565
 21
143.1655098286
  0
LINE
  5
2A5
100
AcDbEntity
  8
RUNDUNGEN
100
AcDbLine
 62
9
  6
CONTINUOUS
 10
179.1334238565
 20
132.6280098286
 11
179.1334238565
 21
90.7030098286
  0
LINE
  5
2A6
100
AcDbEntity
  8
FASEN
100
AcDbLine
 62
8
  6
HIDDEN
 10
202.6382898222
 20
124.0959232781
 11
179.1190510435
 21
120.7905098286
  0
LINE
  5
2A7
100
AcDbEntity
  8
DEFAULT_2
100
AcDbLine
 62
8
  6
HIDDEN
 10
179.1190510435
 20
120.7905098286
 11
202.6382898222
 21
124.0959232781
  0
LINE
  5
2A8
100
AcDbEntity
  8
0
100
AcDbLine
 62
7
  6
CONTINUOUS
 10
153.1384469677
 20
119.8514530153
 11
153.3864526074
 21
119.8524672713
  0
LINE
  5
2A9
100
AcDbEntity
  8
0
100
AcDbLine
 62
9
  6
CONTINUOUS
 10
117.1334238565
 20
116.8903809592
 11
152.9334869456
 21
116.8903809592
  0
LINE
  5
2AA
100
AcDbEntity
  8
DEFAULT_2
100
AcDbLine
 62
8
  6
HIDDEN
 10
179.1190510435
 20
120.7905098286
 11
166.6334238565
 21
120.7905098286
  0
LINE
  5
2AB
100
AcDbEntity
  8
0
100
AcDbLine
 62
7
  6
CONTINUOUS
 10
168.594748722
 20
121.0147311431
 11
165.6720989911
 21
121.0147311431
  0
LINE
  5
2AC
100
AcDbEntity
  8
RUNDUNGEN
100
AcDbLine
 62
9
  6
CONTINUOUS
 10
180.9282831694
 20
90.7030098286
 11
180.9282831694
 21
132.6280098286
  0
LINE
  5
2AD
100
AcDbEntity
  8
RUNDUNGEN
100
AcDbLine
 62
9
  6
CONTINUOUS
 10
183.049603513
 20
91.581689485
 11
183.049603513
 21
131.7493301722
  0
LINE
  5
2AE
100
AcDbEntity
  8
RUNDUNGEN
100
AcDbLine
 62
9
  6
CONTINUOUS
 10
186.8405306377
 20
127.9584030474
 11
186.8405306377
 21
95.3726166098
  0
LINE
  5
2AF
100
AcDbEntity
  8
RUNDUNGEN
100
AcDbLine
 62
9
  6
CONTINUOUS
 10
187.5476374189
 20
127.6655098286
 11
187.5476374189
 21
95.6655098286
  0
LINE
  5
2B0
100
AcDbEntity
  8
0
100
AcDbLine
 62
7
  6
CONTINUOUS
 10
188.6334238565
 20
127.6655098286
 11
188.6334238565
 21
95.6655098286
  0
LINE
  5
2B1
100
AcDbEntity
  8
RUNDUNGEN
100
AcDbLine
 62
7
  6
CONTINUOUS
 10
186.8405306377
 20
95.3726166098
 11
183.049603513
 21
91.581689485
  0
LINE
  5
2B2
100
AcDbEntity
  8
0
100
AcDbLine
 62
7
  6
CONTINUOUS
 10
183.049603513
 20
91.581689485
 11
186.8405306377
 21
95.3726166098
  0
LINE
  5
2B3
100
AcDbEntity
  8
0
100
AcDbLine
 62
9
  6
CONTINUOUS
 10
118.6334238565
 20
127.3767544673
 11
152.9334869456
 21
128.1230405772
  0
LINE
  5
2B4
100
AcDbEntity
  8
0
100
AcDbLine
 62
7
  6
CONTINUOUS
 10
153.3864526074
 20
126.3552812613
 11
153.1384469677
 21
126.3504520334
  0
LINE
  5
2B5
100
AcDbEntity
  8
0
100
AcDbLine
 62
2
  6
CONTINUOUS
 10
188.6334238565
 20
126.7455098286
 11
202.7985607004
 21
126.7455098286
  0
LINE
  5
2B6
100
AcDbEntity
  8
DEFAULT_1
100
AcDbLine
 62
5
  6
CENTER
 10
202.7985607004
 20
126.7455098286
 11
207.2034238565
 21
126.7455098286
  0
LINE
  5
2B7
100
AcDbEntity
  8
0
100
AcDbLine
 62
7
  6
CONTINUOUS
 10
187.5476374189
 20
127.6655098286
 11
202.2673984528
 21
127.6655098286
  0
LINE
  5
2B8
100
AcDbEntity
  8
DEFAULT_1
100
AcDbLine
 62
5
  6
CENTER
 10
207.8705533594
 20
127.9555098286
 11
211.1705533594
 21
127.9555098286
  0
LINE
  5
2B9
100
AcDbEntity
  8
DEFAULT_1
100
AcDbLine
 62
5
  6
CENTER
 10
193.2934238565
 20
92.7030098286
 11
193.2934238565
 21
95.6655098286
  0
LINE
  5
2BA
100
AcDbEntity
  8
DEFAULT_1
100
AcDbLine
 62
5
  6
CENTER
 10
193.2934238565
 20
127.6655098286
 11
193.2934238565
 21
130.6280098286
  0
LINE
  5
2BB
100
AcDbEntity
  8
DEFAULT_1
100
AcDbLine
 62
5
  6
CENTER
 10
207.2034238565
 20
126.7455098286
 11
207.8705533594
 21
127.9555098286
  0
LINE
  5
2BC
100
AcDbEntity
  8
0
100
AcDbLine
 62
7
  6
CONTINUOUS
 10
153.1384469677
 20
132.0906963984
 11
154.7384469677
 21
132.1308939675
  0
LINE
  5
2BD
100
AcDbEntity
  8
0
100
AcDbLine
 62
7
  6
CONTINUOUS
 10
125.3970286106
 20
131.5937985188
 11
135.1834238565
 21
131.8396668308
  0
LINE
  5
2BE
100
AcDbEntity
  8
0
100
AcDbLine
 62
7
  6
CONTINUOUS
 10
144.3127851898
 20
132.069028164
 11
152.9334869456
 21
132.2856101982
  0
LINE
  5
2BF
100
AcDbEntity
  8
0
100
AcDbLine
 62
7
  6
CONTINUOUS
 10
179.1334238565
 20
132.6280098286
 11
180.9282831694
 21
132.6280098286
  0
LINE
  5
2C0
100
AcDbEntity
  8
DEFAULT_1
100
AcDbLine
 62
5
  6
CENTER
 10
195.2934238565
 20
132.6280098286
 11
213.1334238565
 21
132.6280098286
  0
LINE
  5
2C1
100
AcDbEntity
  8
0
100
AcDbLine
 62
7
  6
CONTINUOUS
 10
183.049603513
 20
131.7493301722
 11
186.8405306377
 21
127.9584030474
  0
LINE
  5
2C2
100
AcDbEntity
  8
DEFAULT_1
100
AcDbLine
 62
5
  6
CENTER
 10
207.2034238565
 20
96.5855098286
 11
207.8705533594
 21
95.3755098286
  0
LINE
  5
2C3
100
AcDbEntity
  8
FASEN
100
AcDbLine
 62
7
  6
CONTINUOUS
 10
202.2673984528
 20
95.6655098286
 11
202.2673984528
 21
127.6655098286
  0
LINE
  5
2C4
100
AcDbEntity
  8
0
100
AcDbLine
 62
7
  6
CONTINUOUS
 10
202.7985607004
 20
126.7455098286
 11
202.7985607004
 21
96.5855098286
  0
LINE
  5
2C5
100
AcDbEntity
  8
FASEN
100
AcDbLine
 62
7
  6
CONTINUOUS
 10
203.1334238565
 20
97.1655098288
 11
203.1334238565
 21
126.1655098284
  0
LINE
  5
2C6
100
AcDbEntity
  8
FASEN
100
AcDbLine
 62
7
  6
CONTINUOUS
 10
203.1334238576
 20
97.1655098304
 11
202.2673984539
 21
95.6655098306
  0
LINE
  5
2C7
100
AcDbEntity
  8
0
100
AcDbLine
 62
7
  6
CONTINUOUS
 10
168.594748722
 20
141.7461025889
 11
165.6720989911
 21
141.7461025889
  0
LINE
  5
2C8
100
AcDbEntity
  8
0
100
AcDbLine
 62
7
  6
CONTINUOUS
 10
177.1334238565
 20
143.1655098286
 11
172.3556484289
 21
143.1655098286
  0
LINE
  5
2C9
100
AcDbEntity
  8
0
100
AcDbLine
 62
7
  6
CONTINUOUS
 10
161.9112015936
 20
143.1655098286
 11
155.4334239289
 21
143.1655098286
  0
LINE
  5
2CA
100
AcDbEntity
  8
DEFAULT_1
100
AcDbLine
 62
5
  6
CENTER
 10
211.1705533594
 20
95.3755098286
 11
215.1334238565
 21
98.9537262068
  0
LINE
  5
2CB
100
AcDbEntity
  8
FASEN
100
AcDbLine
 62
7
  6
CONTINUOUS
 10
203.1334238574
 20
126.1655098271
 11
202.2673984538
 21
127.6655098269
  0
LINE
  5
2CC
100
AcDbEntity
  8
DEFAULT_1
100
AcDbLine
 62
5
  6
CENTER
 10
211.1705533594
 20
127.9555098286
 11
215.1334238565
 21
124.3772934504
  0
LINE
  5
2CD
100
AcDbEntity
  8
DEFAULT_1
100
AcDbLine
 62
5
  6
CENTER
 10
215.1334238565
 20
129.1639082135
 11
215.1334238565
 21
94.1671114437
  0
LINE
  5
2CE
100
AcDbEntity
  8
DEFAULT_1
100
AcDbLine
 62
5
  6
CENTER
 10
213.1334238565
 20
90.7030098286
 11
215.1334238565
 21
94.1671114437
  0
LINE
  5
2CF
100
AcDbEntity
  8
DEFAULT_1
100
AcDbLine
 62
5
  6
CENTER
 10
213.1334238565
 20
132.6280098286
 11
215.1334238565
 21
129.1639082135
  0
ARC
  5
2D0
100
AcDbEntity
  8
0
100
AcDbCircle
 62
7
  6
CONTINUOUS
 10
46.381412661
 20
92.3560209993
 40
110.4813700653
100
AcDbArc
 50
13.4640903998
 51
14.4111621352
  0
ARC
  5
2D1
100
AcDbEntity
  8
0
100
AcDbCircle
 62
7
  6
CONTINUOUS
 10
154.5334238565
 20
88.2155098286
 40
1.0
100
AcDbArc
 50
53.0400606802
 51
135.0
  0
ARC
  5
2D2
100
AcDbEntity
  8
0
100
AcDbCircle
 62
7
  6
CONTINUOUS
 10
154.5334238565
 20
135.1155098286
 40
1.0
100
AcDbArc
 50
293.5781784782
 51
306.9599393198
  0
ARC
  5
2D3
100
AcDbEntity
  8
0
100
AcDbCircle
 62
7
  6
CONTINUOUS
 10
154.7334238565
 20
132.3308308784
 40
0.2
100
AcDbArc
 50
271.439166666
 51
360.0
  0
ARC
  5
2D4
100
AcDbEntity
  8
0
100
AcDbCircle
 62
7
  6
CONTINUOUS
 10
153.1334238565
 20
132.2906333093
 40
0.2
100
AcDbArc
 50
181.439166666
 51
271.439166666
  0
ARC
  5
2D5
100
AcDbEntity
  8
ACHSEN
100
AcDbCircle
 62
7
  6
CONTINUOUS
 10
53.3752068801
 20
260.0614493782
 40
144.4768984217
100
AcDbArc
 50
296.1871039389
 51
296.8519184685
  0
ARC
  5
2D6
100
AcDbEntity
  8
FASEN
100
AcDbCircle
 62
7
  6
CONTINUOUS
 10
167.3207752348
 20
175.3518372552
 40
32.6377900275
100
AcDbArc
 50
260.8474859291
 51
261.3917671614
  0
ARC
  5
2D7
100
AcDbEntity
  8
FASEN
100
AcDbCircle
 62
7
  6
CONTINUOUS
 10
166.9566306293
 20
175.2845662084
 40
32.5696966834
100
AcDbArc
 50
278.6103816355
 51
279.0127404964
  0
ARC
  5
2D8
100
AcDbEntity
  8
FASEN
100
AcDbCircle
 62
7
  6
CONTINUOUS
 10
167.0922033638
 20
174.2860452793
 40
31.562136391
100
AcDbArc
 50
270.0748289314
 51
278.6384254927
  0
ARC
  5
2D9
100
AcDbEntity
  8
FASEN
100
AcDbCircle
 62
7
  6
CONTINUOUS
 10
167.1463759286
 20
173.914783596
 40
31.1908504797
100
AcDbArc
 50
261.3134035617
 51
269.9762077958
  0
ARC
  5
2DA
100
AcDbEntity
  8
RUNDUNGEN
100
AcDbCircle
 62
7
  6
CONTINUOUS
 10
180.9282831694
 20
93.7030098286
 40
3.0
100
AcDbArc
 50
270.0
 51
315.0
  0
ARC
  5
2DB
100
AcDbEntity
  8
RUNDUNGEN
100
AcDbCircle
 62
7
  6
CONTINUOUS
 10
179.1334238565
 20
88.7030098286
 40
2.0
100
AcDbArc
 50
90.0
 51
180.0
  0
ARC
  5
2DC
100
AcDbEntity
  8
DEFAULT_1
100
AcDbCircle
 62
5
  6
CENTER
 10
195.2934238565
 20
92.7030098286
 40
2.0
100
AcDbArc
 50
180.0
 51
270.0
  0
ARC
  5
2DD
100
AcDbEntity
  8
RUNDUNGEN
100
AcDbCircle
 62
7
  6
CONTINUOUS
 10
187.5476374189
 20
94.6655098286
 40
1.0
100
AcDbArc
 50
90.0
 51
135.0000000049
  0
ARC
  5
2DE
100
AcDbEntity
  8
RUNDUNGEN
100
AcDbCircle
 62
7
  6
CONTINUOUS
 10
180.9282831694
 20
129.6280098286
 40
3.0
100
AcDbArc
 50
45.0
 51
90.0
  0
ARC
  5
2DF
100
AcDbEntity
  8
RUNDUNGEN
100
AcDbCircle
 62
7
  6
CONTINUOUS
 10
179.1334238565
 20
134.6280098286
 40
2.0
100
AcDbArc
 50
180.0
 51
270.0
  0
ARC
  5
2E0
100
AcDbEntity
  8
DEFAULT_1
100
AcDbCircle
 62
5
  6
CENTER
 10
195.2934238565
 20
130.6280098286
 40
2.0
100
AcDbArc
 50
90.0
 51
180.0
  0
ARC
  5
2E1
100
AcDbEntity
  8
RUNDUNGEN
100
AcDbCircle
 62
7
  6
CONTINUOUS
 10
187.5476374189
 20
128.6655098286
 40
1.0
100
AcDbArc
 50
224.9999999926
 51
270.0
  0
ARC
  5
2E2
100
AcDbEntity
  8
0
100
AcDbCircle
 62
7
  6
CONTINUOUS
 10
299.367596635
 20
62.6913119556
 40
159.2595221623
100
AcDbArc
 50
156.0446773748
 51
156.4374589831
  0
LINE
  5
2E3
100
AcDbEntity
  8
FASEN
100
AcDbLine
 62
7
  6
CONTINUOUS
 10
162.1293101673
 20
143.1295774287
 11
161.9109243783
 21
143.1655098266
  0
LINE
  5
2E4
100
AcDbEntity
  8
FASEN
100
AcDbLine
 62
7
  6
CONTINUOUS
 10
172.3559230916
 20
143.1655098254
 11
172.0588067309
 21
143.1169902805
  0
LINE
  5
2E5
100
AcDbEntity
  8
ACHSEN
100
AcDbLine
 62
7
  6
CONTINUOUS
 10
123.4834238565
 20
131.2695611273
 11
118.6334238565
 21
131.1624994421
  0
LINE
  5
2E6
100
AcDbEntity
  8
ACHSEN
100
AcDbLine
 62
7
  6
CONTINUOUS
 10
125.3970432045
 20
131.5920619045
 11
125.4119941425
 21
131.5941676339
  0
SPLINE
  5
2E7
100
AcDbEntity
  8
ACHSEN
100
AcDbSpline
 62
7
  6
CONTINUOUS
 70
0
 71
3
 72
10
 73
6
 74
0
 42
0.0000001
 43
0.0000001
 44
0.0000000001
 40
0.0
 40
0.0
 40
0.0
 40
0.0
 40
0.0929965444
 40
0.3287693884
 40
1.0
 40
1.0
 40
1.0
 40
1.0
 10
125.4119941421
 20
131.5941676338
 30
0.0
 10
125.3518925672
 20
131.5861841365
 30
0.0
 10
125.1398401369
 20
131.554867469
 30
0.0
 10
124.4951426245
 20
131.4579199673
 30
0.0
 10
123.9128413773
 20
131.353849674
 30
0.0
 10
123.4834238565
 20
131.2695611273
 30
0.0
  0
SPLINE
  5
2E8
100
AcDbEntity
  8
ACHSEN
100
AcDbSpline
 62
7
  6
CONTINUOUS
 70
0
 71
3
 72
11
 73
7
 74
0
 42
0.0000001
 43
0.0000001
 44
0.0000000001
 40
0.0
 40
0.0
 40
0.0
 40
0.0
 40
0.1537099379
 40
0.500508937
 40
0.8472910559
 40
1.0
 40
1.0
 40
1.0
 40
1.0
 10
144.3127851898
 20
132.069028164
 30
0.0
 10
143.8491999207
 20
131.9977512093
 30
0.0
 10
142.3349676065
 20
131.7936934369
 30
0.0
 10
139.752193179
 20
131.608184405
 30
0.0
 10
137.166147149
 20
131.6611316237
 30
0.0
 10
135.6468579663
 20
131.7908981164
 30
0.0
 10
135.1834238565
 20
131.8396668308
 30
0.0
  0
SPLINE
  5
2E9
100
AcDbEntity
  8
0
100
AcDbSpline
 62
7
  6
CONTINUOUS
 70
0
 71
3
 72
12
 73
8
 74
0
 42
0.0000001
 43
0.0000001
 44
0.0000000001
 40
0.0
 40
0.0
 40
0.0
 40
0.0
 40
0.2460280129
 40
0.4936634005
 40
0.7438647573
 40
0.8713194616
 40
1.0
 40
1.0
 40
1.0
 40
1.0
 10
169.0277614238
 20
121.5349224476
 30
0.0
 10
169.0121847368
 20
121.4779810123
 30
0.0
 10
168.9745082416
 20
121.3652258375
 30
0.0
 10
168.8931317877
 20
121.2057319968
 30
0.0
 10
168.7937620086
 20
121.0889689375
 30
0.0
 10
168.6875399844
 20
121.0270556294
 30
0.0
 10
168.6256251621
 20
121.0147311431
 30
0.0
 10
168.594748722
 20
121.0147311431
 30
0.0
  0
SPLINE
  5
2EA
100
AcDbEntity
  8
0
100
AcDbSpline
 62
7
  6
CONTINUOUS
 70
0
 71
3
 72
9
 73
5
 74
0
 42
0.0000001
 43
0.0000001
 44
0.0000000001
 40
0.0
 40
0.0
 40
0.0
 40
0.0
 40
0.1680322176
 40
1.0
 40
1.0
 40
1.0
 40
1.0
 10
165.2390862893
 20
141.5794646751
 30
0.0
 10
165.2559358482
 20
141.5997863419
 30
0.0
 10
165.371390425
 20
141.7082663739
 30
0.0
 10
165.5413939741
 20
141.7461025889
 30
0.0
 10
165.6720989911
 20
141.7461025889
 30
0.0
  0
SPLINE
  5
2EB
100
AcDbEntity
  8
0
100
AcDbSpline
 62
7
  6
CONTINUOUS
 70
0
 71
3
 72
12
 73
8
 74
0
 42
0.0000001
 43
0.0000001
 44
0.0000000001
 40
0.0
 40
0.0
 40
0.0
 40
0.0
 40
0.1286448926
 40
0.256081
 40
0.5063027424
 40
0.7539549585
 40
1.0
 40
1.0
 40
1.0
 40
1.0
 10
165.6720989911
 20
121.0147311431
 30
0.0
 10
165.6412310596
 20
121.0147311431
 30
0.0
 10
165.5793220654
 20
121.0270247669
 30
0.0
 10
165.4731257681
 20
121.0889722306
 30
0.0
 10
165.3737217861
 20
121.2057004326
 30
0.0
 10
165.2923459396
 20
121.3652166706
 30
0.0
 10
165.2546640768
 20
121.4779769892
 30
0.0
 10
165.2390862893
 20
121.5349224476
 30
0.0
  0
SPLINE
  5
2EC
100
AcDbEntity
  8
0
100
AcDbSpline
 62
7
  6
CONTINUOUS
 70
0
 71
3
 72
16
 73
12
 74
0
 42
0.0000001
 43
0.0000001
 44
0.0000000001
 40
0.0
 40
0.0
 40
0.0
 40
0.0
 40
0.0743965135
 40
0.1556627402
 40
0.2298193637
 40
0.29809286
 40
0.4258659311
 40
0.5470924886
 40
0.6642319821
 40
0.778389894
 40
1.0
 40
1.0
 40
1.0
 40
1.0
 10
154.7384469677
 20
128.0099881156
 30
0.0
 10
154.7517469295
 20
128.0049856523
 30
0.0
 10
154.7830666069
 20
128.0012892803
 30
0.0
 10
154.8239148097
 20
128.0226885303
 30
0.0
 10
154.851459042
 20
128.055879712
 30
0.0
 10
154.8772390273
 20
128.100745385
 30
0.0
 10
154.89793277
 20
128.1580816488
 30
0.0
 10
154.9139253138
 20
128.2262152232
 30
0.0
 10
154.9240531842
 20
128.2928415063
 30
0.0
 10
154.9321739354
 20
128.3789988634
 30
0.0
 10
154.9334811959
 20
128.4431949958
 30
0.0
 10
154.9334327062
 20
128.4855221922
 30
0.0
  0
SPLINE
  5
2ED
100
AcDbEntity
  8
0
100
AcDbSpline
 62
7
  6
CONTINUOUS
 70
0
 71
3
 72
17
 73
13
 74
0
 42
0.0000001
 43
0.0000001
 44
0.0000000001
 40
0.0
 40
0.0
 40
0.0
 40
0.0
 40
0.125135549
 40
0.2502986125
 40
0.3754807531
 40
0.5006727147
 40
0.6258456077
 40
0.6884746641
 40
0.7511065344
 40
0.8746656069
 40
0.9373062378
 40
1.0
 40
1.0
 40
1.0
 40
1.0
 10
153.8263170754
 20
118.0800495893
 30
0.0
 10
153.843385419
 20
118.0087232808
 30
0.0
 10
153.8796519809
 20
117.8665495992
 30
0.0
 10
153.9416984544
 20
117.6553560893
 30
0.0
 10
154.0132796136
 20
117.4471183995
 30
0.0
 10
154.0976196685
 20
117.2436157914
 30
0.0
 10
154.1827890222
 20
117.0807328965
 30
0.0
 10
154.2664434285
 20
116.9594213488
 30
0.0
 10
154.3612785489
 20
116.8500941963
 30
0.0
 10
154.4958869311
 20
116.7640180576
 30
0.0
 10
154.6464139627
 20
116.785610946
 30
0.0
 10
154.7097217819
 20
116.8255479004
 30
0.0
 10
154.7384469677
 20
116.8484602817
 30
0.0
  0
SPLINE
  5
2EE
100
AcDbEntity
  8
0
100
AcDbSpline
 62
7
  6
CONTINUOUS
 70
0
 71
3
 72
13
 73
9
 74
0
 42
0.0000001
 43
0.0000001
 44
0.0000000001
 40
0.0
 40
0.0
 40
0.0
 40
0.0
 40
0.1670510693
 40
0.3289369806
 40
0.4609641718
 40
0.578209763
 40
0.7939442568
 40
1.0
 40
1.0
 40
1.0
 40
1.0
 10
154.7384469677
 20
128.0099881156
 30
0.0
 10
154.6740135169
 20
128.0342232206
 30
0.0
 10
154.534812524
 20
128.056157563
 30
0.0
 10
154.3482045357
 20
127.9996813908
 30
0.0
 10
154.2067434975
 20
127.9041179362
 30
0.0
 10
154.0692149002
 20
127.7697504671
 30
0.0
 10
153.9397951957
 20
127.5873782085
 30
0.0
 10
153.8607952291
 20
127.4321259674
 30
0.0
 10
153.8263170754
 20
127.3545267188
 30
0.0
  0
SPLINE
  5
2EF
100
AcDbEntity
  8
0
100
AcDbSpline
 62
7
  6
CONTINUOUS
 70
0
 71
3
 72
9
 73
5
 74
0
 42
0.0000001
 43
0.0000001
 44
0.0000000001
 40
0.0
 40
0.0
 40
0.0
 40
0.0
 40
0.2573720101
 40
1.0
 40
1.0
 40
1.0
 40
1.0
 10
153.8263170754
 20
89.5619531777
 30
0.0
 10
153.7911776871
 20
89.4941978835
 30
0.0
 10
153.6521895516
 20
89.2322262325
 30
0.0
 10
153.5032060611
 20
88.9755170825
 30
0.0
 10
153.3864526074
 20
88.7887809533
 30
0.0
  0
SPLINE
  5
2F0
100
AcDbEntity
  8
0
100
AcDbSpline
 62
7
  6
CONTINUOUS
 70
0
 71
3
 72
12
 73
8
 74
0
 42
0.0000001
 43
0.0000001
 44
0.0000000001
 40
0.0
 40
0.0
 40
0.0
 40
0.0
 40
0.128679218
 40
0.2561331636
 40
0.5063352459
 40
0.7539715031
 40
1.0
 40
1.0
 40
1.0
 40
1.0
 10
168.594748722
 20
102.3162885141
 30
0.0
 10
168.6256248475
 20
102.3162885141
 30
0.0
 10
168.6875394741
 20
102.3039652876
 30
0.0
 10
168.7937604012
 20
102.2420504965
 30
0.0
 10
168.8931316745
 20
102.1252889314
 30
0.0
 10
168.974507965
 20
101.9657941227
 30
0.0
 10
169.0121847051
 20
101.853038761
 30
0.0
 10
169.0277614238
 20
101.7960972096
 30
0.0
  0
SPLINE
  5
2F1
100
AcDbEntity
  8
0
100
AcDbSpline
 62
7
  6
CONTINUOUS
 70
0
 71
3
 72
9
 73
5
 74
0
 42
0.0000001
 43
0.0000001
 44
0.0000000001
 40
0.0
 40
0.0
 40
0.0
 40
0.0
 40
0.1680195226
 40
1.0
 40
1.0
 40
1.0
 40
1.0
 10
169.0277614238
 20
81.7515549821
 30
0.0
 10
169.0109131508
 20
81.7312348662
 30
0.0
 10
168.8954598683
 20
81.62275389
 30
0.0
 10
168.7254556333
 20
81.5849170683
 30
0.0
 10
168.594748722
 20
81.5849170683
 30
0.0
  0
SPLINE
  5
2F2
100
AcDbEntity
  8
0
100
AcDbSpline
 62
7
  6
CONTINUOUS
 70
0
 71
3
 72
12
 73
8
 74
0
 42
0.0000001
 43
0.0000001
 44
0.0000000001
 40
0.0
 40
0.0
 40
0.0
 40
0.0
 40
0.2460454262
 40
0.4936983158
 40
0.7439199328
 40
0.8713555617
 40
1.0
 40
1.0
 40
1.0
 40
1.0
 10
165.2390862893
 20
101.7960972096
 30
0.0
 10
165.2546641018
 20
101.8530427594
 30
0.0
 10
165.2923461215
 20
101.9658032648
 30
0.0
 10
165.3737218694
 20
102.1253199329
 30
0.0
 10
165.4731264812
 20
102.2420474657
 30
0.0
 10
165.5793222976
 20
102.303995304
 30
0.0
 10
165.6412311674
 20
102.3162885141
 30
0.0
 10
165.6720989911
 20
102.3162885141
 30
0.0
  0
SPLINE
  5
2F3
100
AcDbEntity
  8
0
100
AcDbSpline
 62
7
  6
CONTINUOUS
 70
0
 71
3
 72
17
 73
13
 74
0
 42
0.0000001
 43
0.0000001
 44
0.0000000001
 40
0.0
 40
0.0
 40
0.0
 40
0.0
 40
0.2841775711
 40
0.4146661432
 40
0.5373502072
 40
0.652341305
 40
0.7602377654
 40
0.8121867936
 40
0.8638391814
 40
0.9180398508
 40
0.9497831112
 40
1.0
 40
1.0
 40
1.0
 40
1.0
 10
152.9334869456
 20
89.9831079494
 30
0.0
 10
152.9334869456
 20
89.8635345121
 30
0.0
 10
152.9333441323
 20
89.6890518524
 30
0.0
 10
152.9357241275
 20
89.4629617683
 30
0.0
 10
152.9403436953
 20
89.308092266
 30
0.0
 10
152.9502712725
 20
89.1629931451
 30
0.0
 10
152.9663855879
 20
89.0482316713
 30
0.0
 10
152.9883539898
 20
88.9618545779
 30
0.0
 10
153.011658117
 20
88.8995549591
 30
0.0
 10
153.0417928165
 20
88.8492099373
 30
0.0
 10
153.0828823645
 20
88.808962672
 30
0.0
 10
153.117323063
 20
88.7951221577
 30
0.0
 10
153.1384469677
 20
88.7946244371
 30
0.0
  0
SPLINE
  5
2F4
100
AcDbEntity
  8
0
100
AcDbSpline
 62
7
  6
CONTINUOUS
 70
0
 71
3
 72
17
 73
13
 74
0
 42
0.0000001
 43
0.0000001
 44
0.0000000001
 40
0.0
 40
0.0
 40
0.0
 40
0.0
 40
0.2536810086
 40
0.3797805479
 40
0.5052013146
 40
0.6297018311
 40
0.6915472735
 40
0.7529628459
 40
0.813907906
 40
0.8744772172
 40
0.9358455192
 40
1.0
 40
1.0
 40
1.0
 40
1.0
 10
154.9334319967
 20
116.2424640238
 30
0.0
 10
154.9334751536
 20
116.3035749189
 30
0.0
 10
154.932268345
 20
116.3951093256
 30
0.0
 10
154.9241253447
 20
116.5165721539
 30
0.0
 10
154.9141118198
 20
116.6066267782
 30
0.0
 10
154.9010709132
 20
116.6807002345
 30
0.0
 10
154.886092561
 20
116.7384951003
 30
0.0
 10
154.8717272177
 20
116.7805981158
 30
0.0
 10
154.8522977999
 20
116.8201688385
 30
0.0
 10
154.8260228276
 20
116.8565423809
 30
0.0
 10
154.7796537431
 20
116.8741026979
 30
0.0
 10
154.7505288749
 20
116.8580973044
 30
0.0
 10
154.7384469677
 20
116.8484602817
 30
0.0
  0
SPLINE
  5
2F5
100
AcDbEntity
  8
0
100
AcDbSpline
 62
7
  6
CONTINUOUS
 70
0
 71
3
 72
9
 73
5
 74
0
 42
0.0000001
 43
0.0000001
 44
0.0000000001
 40
0.0
 40
0.0
 40
0.0
 40
0.0
 40
0.3641598889
 40
1.0
 40
1.0
 40
1.0
 40
1.0
 10
165.6720989911
 20
81.5849170683
 30
0.0
 10
165.6147225693
 20
81.5849170683
 30
0.0
 10
165.4585362362
 20
81.6010361623
 30
0.0
 10
165.3030302456
 20
81.6744344012
 30
0.0
 10
165.2390862893
 20
81.7515549821
 30
0.0
  0
SPLINE
  5
2F6
100
AcDbEntity
  8
0
100
AcDbSpline
 62
7
  6
CONTINUOUS
 70
0
 71
3
 72
9
 73
5
 74
0
 42
0.0000001
 43
0.0000001
 44
0.0000000001
 40
0.0
 40
0.0
 40
0.0
 40
0.0
 40
0.3642526053
 40
1.0
 40
1.0
 40
1.0
 40
1.0
 10
168.594748722
 20
141.7461025889
 30
0.0
 10
168.6521401285
 20
141.7461025889
 30
0.0
 10
168.808329587
 20
141.7299880334
 30
0.0
 10
168.9638263723
 20
141.6565745163
 30
0.0
 10
169.0277614238
 20
141.5794646751
 30
0.0
  0
SPLINE
  5
2F7
100
AcDbEntity
  8
0
100
AcDbSpline
 62
7
  6
CONTINUOUS
 70
0
 71
3
 72
21
 73
17
 74
0
 42
0.0000001
 43
0.0000001
 44
0.0000000001
 40
0.0
 40
0.0
 40
0.0
 40
0.0
 40
0.0152736556
 40
0.0307400416
 40
0.0615944727
 40
0.0924597446
 40
0.1233512662
 40
0.1852330485
 40
0.2472659363
 40
0.3094463907
 40
0.3717660941
 40
0.4967787028
 40
0.6222117836
 40
0.747963109
 40
0.8739278454
 40
1.0
 40
1.0
 40
1.0
 40
1.0
 10
153.1384469677
 20
119.8514530153
 30
0.0
 10
153.1231846525
 20
119.851390596
 30
0.0
 10
153.0974964876
 20
119.8253934413
 30
0.0
 10
153.0717553949
 20
119.7716409055
 30
0.0
 10
153.0481078651
 20
119.6968690125
 30
0.0
 10
153.0283094917
 20
119.6067741881
 30
0.0
 10
153.0073318167
 20
119.4848768239
 30
0.0
 10
152.9884284166
 20
119.3313280205
 30
0.0
 10
152.9722007765
 20
119.1460440683
 30
0.0
 10
152.960431582
 20
118.9600100009
 30
0.0
 10
152.948976942
 20
118.7109341486
 30
0.0
 10
152.9405631779
 20
118.3984886295
 30
0.0
 10
152.9358107298
 20
118.0225931496
 30
0.0
 10
152.9339963071
 20
117.6457230934
 30
0.0
 10
152.933522969
 20
117.2682124604
 30
0.0
 10
152.9334869456
 20
117.0163605615
 30
0.0
 10
152.9334869456
 20
116.8903809592
 30
0.0
  0
SPLINE
  5
2F8
100
AcDbEntity
  8
0
100
AcDbSpline
 62
7
  6
CONTINUOUS
 70
0
 71
3
 72
17
 73
13
 74
0
 42
0.0000001
 43
0.0000001
 44
0.0000000001
 40
0.0
 40
0.0
 40
0.0
 40
0.0
 40
0.2182009024
 40
0.3349220057
 40
0.456586696
 40
0.5831112211
 40
0.7144823146
 40
0.7820564401
 40
0.8510300181
 40
0.92186225
 40
0.958727904
 40
1.0
 40
1.0
 40
1.0
 40
1.0
 10
152.9334869456
 20
128.1230405772
 30
0.0
 10
152.9334869456
 20
127.990761563
 30
0.0
 10
152.9334692582
 20
127.7877219016
 30
0.0
 10
152.9358763671
 20
127.5109331313
 30
0.0
 10
152.9407015606
 20
127.2897607287
 30
0.0
 10
152.9509872987
 20
127.0598457478
 30
0.0
 10
152.9671123221
 20
126.8631770526
 30
0.0
 10
152.9886864226
 20
126.701976181
 30
0.0
 10
153.0112908932
 20
126.578805889
 30
0.0
 10
153.0408866895
 20
126.4736551583
 30
0.0
 10
153.0753183642
 20
126.3941853041
 30
0.0
 10
153.1134315008
 20
126.3499649274
 30
0.0
 10
153.1384469677
 20
126.3504520334
 30
0.0
  0
SPLINE
  5
2F9
100
AcDbEntity
  8
0
100
AcDbSpline
 62
7
  6
CONTINUOUS
 70
0
 71
3
 72
11
 73
7
 74
0
 42
0.0000001
 43
0.0000001
 44
0.0000000001
 40
0.0
 40
0.0
 40
0.0
 40
0.0
 40
0.2163338898
 40
0.4581730139
 40
0.72121324
 40
1.0
 40
1.0
 40
1.0
 40
1.0
 10
153.3864526074
 20
126.3552812613
 30
0.0
 10
153.3007512194
 20
125.8925597056
 30
0.0
 10
153.1784827334
 20
124.9013483082
 30
0.0
 10
153.1239006923
 20
123.3320015974
 30
0.0
 10
153.1885282047
 20
121.627215166
 30
0.0
 10
153.3078368224
 20
120.4537948491
 30
0.0
 10
153.3864526074
 20
119.8524672713
 30
0.0
  0
LINE
  5
2FA
100
AcDbEntity
  8
0
100
AcDbLine
 62
7
  6
CONTINUOUS
 10
153.1438254883
 20
88.2401250227
 11
153.3864526074
 21
88.7887809533
  0
SPLINE
  5
2FB
100
AcDbEntity
  8
0
100
AcDbSpline
 62
7
  6
CONTINUOUS
 70
0
 71
3
 72
13
 73
9
 74
0
 42
0.0000001
 43
0.0000001
 44
0.0000000001
 40
0.0
 40
0.0
 40
0.0
 40
0.0
 40
0.1753307868
 40
0.3422637982
 40
0.4768046258
 40
0.5947351366
 40
0.8062611466
 40
1.0
 40
1.0
 40
1.0
 40
1.0
 10
154.7384469677
 20
90.1380810885
 30
0.0
 10
154.6745342228
 20
90.1650212501
 30
0.0
 10
154.5367571794
 20
90.1937592362
 30
0.0
 10
154.3491101812
 20
90.1449804182
 30
0.0
 10
154.2075254975
 20
90.0561385152
 30
0.0
 10
154.0710602748
 20
89.9325359034
 30
0.0
 10
153.9426415882
 20
89.7686592973
 30
0.0
 10
153.8616015912
 20
89.629988305
 30
0.0
 10
153.8263170754
 20
89.5619531777
 30
0.0
  0
SPLINE
  5
2FC
100
AcDbEntity
  8
0
100
AcDbSpline
 62
7
  6
CONTINUOUS
 70
0
 71
3
 72
13
 73
9
 74
0
 42
0.0000001
 43
0.0000001
 44
0.0000000001
 40
0.0
 40
0.0
 40
0.0
 40
0.0
 40
0.2871857844
 40
0.4477281833
 40
0.5504595041
 40
0.6385386311
 40
0.8121667373
 40
1.0
 40
1.0
 40
1.0
 40
1.0
 10
154.7384469677
 20
90.1380810885
 30
0.0
 10
154.765137227
 20
90.1268307518
 30
0.0
 10
154.8095117215
 20
90.1136308243
 30
0.0
 10
154.8664426378
 20
90.120002035
 30
0.0
 10
154.8971204407
 20
90.1396029502
 30
0.0
 10
154.9193693911
 20
90.1695258458
 30
0.0
 10
154.9321878962
 20
90.2141458272
 30
0.0
 10
154.9334786771
 20
90.2506451325
 30
0.0
 10
154.9334327062
 20
90.2695892222
 30
0.0
  0
ELLIPSE
  5
2FD
100
AcDbEntity
  8
0
100
AcDbEllipse
 62
7
  6
CONTINUOUS
 10
152.7862696672
 20
111.6655098286
 30
0.0
 11
14.7536831607
 21
31.0932549156
 31
0.0
 40
0.3419987131
 41
-1.0912395858
 42
-0.1578061866
  0
ELLIPSE
  5
2FE
100
AcDbEntity
  8
0
100
AcDbEllipse
 62
7
  6
CONTINUOUS
 10
181.4805780459
 20
111.6655098286
 30
0.0
 11
-14.7536831607
 21
31.0932549156
 31
0.0
 40
0.3419987131
 41
0.1578061866
 42
1.0912395858
  0
ELLIPSE
  5
2FF
100
AcDbEntity
  8
0
100
AcDbEllipse
 62
7
  6
CONTINUOUS
 10
181.4805780459
 20
111.6655098286
 30
0.0
 11
14.7536831607
 21
31.0932549156
 31
0.0
 40
0.3419987131
 41
-4.2328322393
 42
-3.2993988402
  0
ELLIPSE
  5
300
100
AcDbEntity
  8
0
100
AcDbEllipse
 62
7
  6
CONTINUOUS
 10
152.7862696672
 20
111.6655098286
 30
0.0
 11
-14.7536831607
 21
31.0932549156
 31
0.0
 40
0.3419987131
 41
-2.9837864669
 42
-2.0503530678
  0
ENDSEC
  0
SECTION
  2
OBJECTS
  0
DICTIONARY
  5
C
100
AcDbDictionary
280
0
281
1
  3
ACAD_GROUP
350
D
  3
ACAD_MLINESTYLE
350
17
  3
ACAD_LAYOUT
350
1A
  3
ACAD_PLOTSETTINGS
350
19
  3
ACAD_PLOTSTYLENAME
350
E
  0
DICTIONARY
  5
D
102
{ACAD_REACTORS
330
C
102
}
100
AcDbDictionary
280
0
281
1
  0
ACDBDICTIONARYWDFLT
  5
E
102
{ACAD_REACTORS
330
C
102
}
100
AcDbDictionary
281
1
  3
Normal
350
F
100
AcDbDictionaryWithDefault
340
F
  0
DICTIONARY
  5
17
102
{ACAD_REACTORS
330
C
102
}
100
AcDbDictionary
280
0
281
1
  3
Standard
350
18
  0
DICTIONARY
  5
19
102
{ACAD_REACTORS
330
C
102
}
100
AcDbDictionary
281
1
  0
DICTIONARY
  5
1A
102
{ACAD_REACTORS
330
C
102
}
100
AcDbDictionary
281
1
  3
Model
350
301
  3
Layout1
350
302
  0
ACDBPLACEHOLDER
  5
F
102
{ACAD_REACTORS
330
E
102
}
  0
MLINESTYLE
  5
18
102
{ACAD_REACTORS
330
17
102
}
100
AcDbMlineStyle
  2
STANDARD
 70
0
  3

 62
256
 51
90.0
 52
90.0
 71
2
 49
0.5
 62
256
  6
BYLAYER
 49
-0.5
 62
256
  6
BYLAYER
  0
LAYOUT
  5
301
102
{ACAD_REACTORS
330
1A
102
}
100
AcDbPlotSettings
  1

  2
none_device
  4
ISO_A4_(297.00_x_210.00_MM)
  6

 40
0.0
 41
0.0
 42
0.0
 43
0.0
 44
297.0
 45
210.0
 46
0.0
 47
0.0
 48
0.0
 49
0.0
140
0.0
141
0.0
142
1.0
143
1.0
 70
1024
 72
1
 73
0
 74
0
  7

 75
0
147
1.0
148
0.0
149
0.0
100
AcDbLayout
  1
Model
 70
0
 71
0
 10
0.0
 20
0.0
 11
297.0
 21
210.0
 12
0.0
 22
0.0
 32
0.0
 14
0.0
 24
0.0
 34
0.0
 15
0.0
 25
0.0
 35
0.0
146
0.0
 13
0.0
 23
0.0
 33
0.0
 16
1.0
 26
0.0
 36
0.0
 17
0.0
 27
1.0
 37
0.0
 76
0
330
217
345
0
346
0
  0
LAYOUT
  5
302
102
{ACAD_REACTORS
330
1A
102
}
100
AcDbPlotSettings
  1

  2
none_device
  4
ISO_A4_(297.00_x_210.00_MM)
  6

 40
0.0
 41
0.0
 42
0.0
 43
0.0
 44
297.0
 45
210.0
 46
0.0
 47
0.0
 48
0.0
 49
0.0
140
0.0
141
0.0
142
1.0
143
1.0
 70
0
 72
1
 73
0
 74
0
  7

 75
0
147
1.0
148
0.0
149
0.0
100
AcDbLayout
  1
Layout1
 70
0
 71
1
 10
0.0
 20
0.0
 11
297.0
 21
210.0
 12
0.0
 22
0.0
 32
0.0
 14
0.0
 24
0.0
 34
0.0
 15
0.0
 25
0.0
 35
0.0
146
0.0
 13
0.0
 23
0.0
 33
0.0
 16
1.0
 26
0.0
 36
0.0
 17
0.0
 27
1.0
 37
0.0
 76
0
330
218
345
0
346
0
  0
ENDSEC
  0
EOF
