  0
SECTION
  2
HEADER
  9
$ACADVER
  1
AC1015
  9
$ACADMAINTVER
 70
     6
  9
$DWGCODEPAGE
  3
ANSI_1252
  9
$INSBASE
 10
0.0
 20
0.0
 30
0.0
  9
$EXTMIN
 10
0.0
 20
0.0
 30
0.0
  9
$EXTMAX
 10
297.0
 20
210.0
 30
0.0
  9
$LIMMIN
 10
0.0
 20
0.0
  9
$LIMMAX
 10
12.0
 20
9.0
  9
$ORTHOMODE
 70
     0
  9
$REGENMODE
 70
     1
  9
$FILLMODE
 70
     1
  9
$QTEXTMODE
 70
     0
  9
$MIRRTEXT
 70
     1
  9
$LTSCALE
 40
1.0
  9
$ATTMODE
 70
     1
  9
$TEXTSIZE
 40
0.2
  9
$TRACEWID
 40
0.05
  9
$TEXTSTYLE
  7
Standard
  9
$CLAYER
  8
0
  9
$CELTYPE
  6
ByLayer
  9
$CECOLOR
 62
   256
  9
$CELTSCALE
 40
1.0
  9
$DISPSILH
 70
     0
  9
$DIMSCALE
 40
1.0
  9
$DIMASZ
 40
0.18
  9
$DIMEXO
 40
0.0625
  9
$DIMDLI
 40
0.38
  9
$DIMRND
 40
0.0
  9
$DIMDLE
 40
0.0
  9
$DIMEXE
 40
0.18
  9
$DIMTP
 40
0.0
  9
$DIMTM
 40
0.0
  9
$DIMTXT
 40
0.18
  9
$DIMCEN
 40
0.09
  9
$DIMTSZ
 40
0.0
  9
$DIMTOL
 70
     0
  9
$DIMLIM
 70
     0
  9
$DIMTIH
 70
     1
  9
$DIMTOH
 70
     1
  9
$DIMSE1
 70
     0
  9
$DIMSE2
 70
     0
  9
$DIMTAD
 70
     0
  9
$DIMZIN
 70
     0
  9
$DIMBLK
  1

  9
$DIMASO
 70
     1
  9
$DIMSHO
 70
     1
  9
$DIMPOST
  1

  9
$DIMAPOST
  1

  9
$DIMALT
 70
     0
  9
$DIMALTD
 70
     2
  9
$DIMALTF
 40
25.4
  9
$DIMLFAC
 40
1.0
  9
$DIMTOFL
 70
     0
  9
$DIMTVP
 40
0.0
  9
$DIMTIX
 70
     0
  9
$DIMSOXD
 70
     0
  9
$DIMSAH
 70
     0
  9
$DIMBLK1
  1

  9
$DIMBLK2
  1

  9
$DIMSTYLE
  2
Standard
  9
$DIMCLRD
 70
     0
  9
$DIMCLRE
 70
     0
  9
$DIMCLRT
 70
     0
  9
$DIMTFAC
 40
1.0
  9
$DIMGAP
 40
0.09
  9
$DIMJUST
 70
     0
  9
$DIMSD1
 70
     0
  9
$DIMSD2
 70
     0
  9
$DIMTOLJ
 70
     1
  9
$DIMTZIN
 70
     0
  9
$DIMALTZ
 70
     0
  9
$DIMALTTZ
 70
     0
  9
$DIMUPT
 70
     0
  9
$DIMDEC
 70
     4
  9
$DIMTDEC
 70
     4
  9
$DIMALTU
 70
     2
  9
$DIMALTTD
 70
     2
  9
$DIMTXSTY
  7
Standard
  9
$DIMAUNIT
 70
     0
  9
$DIMADEC
 70
     0
  9
$DIMALTRND
 40
0.0
  9
$DIMAZIN
 70
     0
  9
$DIMDSEP
 70
    46
  9
$DIMATFIT
 70
     3
  9
$DIMFRAC
 70
     0
  9
$DIMLDRBLK
  1

  9
$DIMLUNIT
 70
     2
  9
$DIMLWD
 70
    -2
  9
$DIMLWE
 70
    -2
  9
$DIMTMOVE
 70
     0
  9
$LUNITS
 70
     2
  9
$LUPREC
 70
     4
  9
$SKETCHINC
 40
0.1
  9
$FILLETRAD
 40
0.5
  9
$AUNITS
 70
     0
  9
$AUPREC
 70
     0
  9
$MENU
  1
.
  9
$ELEVATION
 40
0.0
  9
$PELEVATION
 40
0.0
  9
$THICKNESS
 40
0.0
  9
$LIMCHECK
 70
     0
  9
$CHAMFERA
 40
0.5
  9
$CHAMFERB
 40
0.5
  9
$CHAMFERC
 40
1.0
  9
$CHAMFERD
 40
0.0
  9
$SKPOLY
 70
     0
  9
$TDCREATE
 40
2455954.455587813
  9
$TDUCREATE
 40
2455954.413921146
  9
$TDUPDATE
 40
2455954.455587824
  9
$TDUUPDATE
 40
2455954.413921157
  9
$TDINDWG
 40
0.0000000116
  9
$TDUSRTIMER
 40
0.0000000116
  9
$USRTIMER
 70
     1
  9
$ANGBASE
 50
0.0
  9
$ANGDIR
 70
     0
  9
$PDMODE
 70
     0
  9
$PDSIZE
 40
0.0
  9
$PLINEWID
 40
0.0
  9
$SPLFRAME
 70
     0
  9
$SPLINETYPE
 70
     6
  9
$SPLINESEGS
 70
     8
  9
$HANDSEED
  5
15B
  9
$SURFTAB1
 70
     6
  9
$SURFTAB2
 70
     6
  9
$SURFTYPE
 70
     6
  9
$SURFU
 70
     6
  9
$SURFV
 70
     6
  9
$UCSBASE
  2

  9
$UCSNAME
  2

  9
$UCSORG
 10
0.0
 20
0.0
 30
0.0
  9
$UCSXDIR
 10
1.0
 20
0.0
 30
0.0
  9
$UCSYDIR
 10
0.0
 20
1.0
 30
0.0
  9
$UCSORTHOREF
  2

  9
$UCSORTHOVIEW
 70
     0
  9
$UCSORGTOP
 10
0.0
 20
0.0
 30
0.0
  9
$UCSORGBOTTOM
 10
0.0
 20
0.0
 30
0.0
  9
$UCSORGLEFT
 10
0.0
 20
0.0
 30
0.0
  9
$UCSORGRIGHT
 10
0.0
 20
0.0
 30
0.0
  9
$UCSORGFRONT
 10
0.0
 20
0.0
 30
0.0
  9
$UCSORGBACK
 10
0.0
 20
0.0
 30
0.0
  9
$PUCSBASE
  2

  9
$PUCSNAME
  2

  9
$PUCSORG
 10
0.0
 20
0.0
 30
0.0
  9
$PUCSXDIR
 10
1.0
 20
0.0
 30
0.0
  9
$PUCSYDIR
 10
0.0
 20
1.0
 30
0.0
  9
$PUCSORTHOREF
  2

  9
$PUCSORTHOVIEW
 70
     0
  9
$PUCSORGTOP
 10
0.0
 20
0.0
 30
0.0
  9
$PUCSORGBOTTOM
 10
0.0
 20
0.0
 30
0.0
  9
$PUCSORGLEFT
 10
0.0
 20
0.0
 30
0.0
  9
$PUCSORGRIGHT
 10
0.0
 20
0.0
 30
0.0
  9
$PUCSORGFRONT
 10
0.0
 20
0.0
 30
0.0
  9
$PUCSORGBACK
 10
0.0
 20
0.0
 30
0.0
  9
$USERI1
 70
     0
  9
$USERI2
 70
     0
  9
$USERI3
 70
     0
  9
$USERI4
 70
     0
  9
$USERI5
 70
     0
  9
$USERR1
 40
16.5
  9
$USERR2
 40
0.0
  9
$USERR3
 40
0.0
  9
$USERR4
 40
0.0
  9
$USERR5
 40
0.0
  9
$WORLDVIEW
 70
     1
  9
$SHADEDGE
 70
     3
  9
$SHADEDIF
 70
    70
  9
$TILEMODE
 70
     1
  9
$MAXACTVP
 70
    64
  9
$PINSBASE
 10
0.0
 20
0.0
 30
0.0
  9
$PLIMCHECK
 70
     0
  9
$PEXTMIN
 10
1.00000000000000E+20
 20
1.00000000000000E+20
 30
1.00000000000000E+20
  9
$PEXTMAX
 10
-1.00000000000000E+20
 20
-1.00000000000000E+20
 30
-1.00000000000000E+20
  9
$PLIMMIN
 10
0.0
 20
0.0
  9
$PLIMMAX
 10
12.0
 20
9.0
  9
$UNITMODE
 70
     0
  9
$VISRETAIN
 70
     1
  9
$PLINEGEN
 70
     0
  9
$PSLTSCALE
 70
     1
  9
$TREEDEPTH
 70
  3020
  9
$CMLSTYLE
  2
Standard
  9
$CMLJUST
 70
     0
  9
$CMLSCALE
 40
1.0
  9
$PROXYGRAPHICS
 70
     1
  9
$MEASUREMENT
 70
     1
  9
$CELWEIGHT
370
    -1
  9
$ENDCAPS
280
     0
  9
$JOINSTYLE
280
     0
  9
$LWDISPLAY
290
     0
  9
$INSUNITS
 70
     1
  9
$HYPERLINKBASE
  1

  9
$STYLESHEET
  1

  9
$XEDIT
290
     1
  9
$CEPSNTYPE
380
     0
  9
$PSTYLEMODE
290
     1
  9
$FINGERPRINTGUID
  2
{766CC26C-95D7-40BD-A29A-F76E8F7BBF3E}
  9
$VERSIONGUID
  2
{FAEB1C32-E019-11D5-929B-00C0DF256EC4}
  9
$EXTNAMES
290
     1
  9
$PSVPSCALE
 40
0.0
  9
$OLESTARTUP
290
     0
  0
ENDSEC
  0
SECTION
  2
CLASSES
  0
CLASS
  1
ACDBDICTIONARYWDFLT
  2
AcDbDictionaryWithDefault
  3
ObjectDBX Classes
 90
        0
280
     0
281
     0
  0
CLASS
  1
VISUALSTYLE
  2
AcDbVisualStyle
  3
ObjectDBX Classes
 90
     4095
280
     0
281
     0
  0
CLASS
  1

  2
exOdDbSpline
  3

 90
        0
280
     0
281
     1
  0
CLASS
  1
SCALE
  2
AcDbScale
  3
ObjectDBX Classes
 90
     1153
280
     0
281
     0
  0
CLASS
  1
DICTIONARYVAR
  2
AcDbDictionaryVar
  3
ObjectDBX Classes
 90
        0
280
     0
281
     0
  0
CLASS
  1
ACDBPLACEHOLDER
  2
AcDbPlaceHolder
  3
ObjectDBX Classes
 90
        0
280
     0
281
     0
  0
CLASS
  1
LAYOUT
  2
AcDbLayout
  3
ObjectDBX Classes
 90
        0
280
     0
281
     0
  0
ENDSEC
  0
SECTION
  2
TABLES
  0
TABLE
  2
VPORT
  5
8
330
0
100
AcDbSymbolTable
 70
     1
  0
VPORT
  5
29
330
8
100
AcDbSymbolTableRecord
100
AcDbViewportTableRecord
  2
*Active
 70
     0
 10
0.0
 20
0.0
 11
1.0
 21
1.0
 12
148.5
 22
105.0
 13
0.0
 23
0.0
 14
0.5
 24
0.5
 15
0.5
 25
0.5
 16
0.0
 26
0.0
 36
1.0
 17
0.0
 27
0.0
 37
0.0
 40
231.0
 41
1.60267857142857
 42
50.0
 43
0.0
 44
0.0
 50
0.0
 51
0.0
 71
     0
 72
   100
 73
     1
 74
     3
 75
     0
 76
     0
 77
     0
 78
     0
281
     0
 65
     1
110
0.0
120
0.0
130
0.0
111
1.0
121
0.0
131
0.0
112
0.0
122
1.0
132
0.0
 79
     0
146
0.0
  0
ENDTAB
  0
TABLE
  2
LTYPE
  5
5
330
0
100
AcDbSymbolTable
 70
    10
  0
LTYPE
  5
14
330
5
100
AcDbSymbolTableRecord
100
AcDbLinetypeTableRecord
  2
ByBlock
 70
     0
  3

 72
    65
 73
     0
 40
0.0
  0
LTYPE
  5
15
330
5
100
AcDbSymbolTableRecord
100
AcDbLinetypeTableRecord
  2
ByLayer
 70
     0
  3

 72
    65
 73
     0
 40
0.0
  0
LTYPE
  5
16
330
5
100
AcDbSymbolTableRecord
100
AcDbLinetypeTableRecord
  2
Continuous
 70
     0
  3
Solid line
 72
    65
 73
     0
 40
0.0
  0
LTYPE
  5
3B
330
5
100
AcDbSymbolTableRecord
100
AcDbLinetypeTableRecord
  2
DASHED
 70
     0
  3
Dashed
 72
    65
 73
     2
 40
15.0
 49
7.0
 74
     0
 49
-8.0
 74
     0
  0
LTYPE
  5
3C
330
5
100
AcDbSymbolTableRecord
100
AcDbLinetypeTableRecord
  2
DOTTED
 70
     0
  3
Dotted
 72
    65
 73
     2
 40
1.0
 49
0.0
 74
     0
 49
-1.0
 74
     0
  0
LTYPE
  5
3D
330
5
100
AcDbSymbolTableRecord
100
AcDbLinetypeTableRecord
  2
DOT_CENTER
 70
     0
  3
Dot_Center
 72
    65
 73
     4
 40
14.0
 49
12.0
 74
     0
 49
-1.0
 74
     0
 49
0.0
 74
     0
 49
-1.0
 74
     0
  0
LTYPE
  5
3E
330
5
100
AcDbSymbolTableRecord
100
AcDbLinetypeTableRecord
  2
LONG_DASHED
 70
     0
  3
Long_Dashed
 72
    65
 73
     2
 40
15.0
 49
10.0
 74
     0
 49
-5.0
 74
     0
  0
LTYPE
  5
3F
330
5
100
AcDbSymbolTableRecord
100
AcDbLinetypeTableRecord
  2
DASH_CENTER
 70
     0
  3
Dash_Center
 72
    65
 73
     4
 40
14.0
 49
11.0
 74
     0
 49
-1.0
 74
     0
 49
1.0
 74
     0
 49
-1.0
 74
     0
  0
LTYPE
  5
40
330
5
100
AcDbSymbolTableRecord
100
AcDbLinetypeTableRecord
  2
PHANTOM
 70
     0
  3
Phantom
 72
    65
 73
     6
 40
13.0
 49
10.0
 74
     0
 49
-1.0
 74
     0
 49
0.0
 74
     0
 49
-1.0
 74
     0
 49
0.0
 74
     0
 49
-1.0
 74
     0
  0
LTYPE
  5
41
330
5
100
AcDbSymbolTableRecord
100
AcDbLinetypeTableRecord
  2
CENTER_DASH_DASH
 70
     0
  3
Center_Dash_Dash
 72
    65
 73
     6
 40
14.0
 49
9.0
 74
     0
 49
-1.0
 74
     0
 49
1.0
 74
     0
 49
-1.0
 74
     0
 49
1.0
 74
     0
 49
-1.0
 74
     0
  0
LTYPE
  5
42
330
5
100
AcDbSymbolTableRecord
100
AcDbLinetypeTableRecord
  2
HIDDEN
 70
     0
  3
HIDDEN
 72
    65
 73
     2
 40
4.0
 49
2.0
 74
     0
 49
-2.0
 74
     0
  0
LTYPE
  5
43
330
5
100
AcDbSymbolTableRecord
100
AcDbLinetypeTableRecord
  2
CENTER
 70
     0
  3
CENTER
 72
    65
 73
     4
 40
13.0
 49
7.0
 74
     0
 49
-2.0
 74
     0
 49
2.0
 74
     0
 49
-2.0
 74
     0
  0
ENDTAB
  0
TABLE
  2
LAYER
  5
2
330
0
100
AcDbSymbolTable
 70
     8
  0
LAYER
  5
10
330
2
100
AcDbSymbolTableRecord
100
AcDbLayerTableRecord
  2
0
 70
     0
 62
     7
  6
Continuous
370
    -3
390
F
  0
LAYER
  5
44
330
2
100
AcDbSymbolTableRecord
100
AcDbLayerTableRecord
  2
ACHSEN
 70
     0
 62
     7
  6
Continuous
370
    -3
390
F
  0
LAYER
  5
45
330
2
100
AcDbSymbolTableRecord
100
AcDbLayerTableRecord
  2
DEFAULT_1
 70
     0
 62
     7
  6
Continuous
370
    -3
390
F
  0
LAYER
  5
46
330
2
100
AcDbSymbolTableRecord
100
AcDbLayerTableRecord
  2
DEFAULT_2
 70
     0
 62
     7
  6
Continuous
370
    -3
390
F
  0
LAYER
  5
47
330
2
100
AcDbSymbolTableRecord
100
AcDbLayerTableRecord
  2
FASEN
 70
     0
 62
     7
  6
Continuous
370
    -3
390
F
  0
LAYER
  5
48
330
2
100
AcDbSymbolTableRecord
100
AcDbLayerTableRecord
  2
KURVEN
 70
     0
 62
     7
  6
Continuous
370
    -3
390
F
  0
LAYER
  5
49
330
2
100
AcDbSymbolTableRecord
100
AcDbLayerTableRecord
  2
RUNDUNGEN
 70
     0
 62
     7
  6
Continuous
370
    -3
390
F
  0
LAYER
  5
4A
330
2
100
AcDbSymbolTableRecord
100
AcDbLayerTableRecord
  2
S_ACHSEN
 70
     0
 62
     7
  6
Continuous
370
    -3
390
F
  0
ENDTAB
  0
TABLE
  2
STYLE
  5
3
330
0
100
AcDbSymbolTable
 70
     2
  0
STYLE
  5
11
330
3
100
AcDbSymbolTableRecord
100
AcDbTextStyleTableRecord
  2
Standard
 70
     0
 40
0.0
 41
1.0
 50
0.0
 71
     0
 42
0.2
  3
txt
  4

  0
STYLE
  5
F1
330
3
100
AcDbSymbolTableRecord
100
AcDbTextStyleTableRecord
  2
CONVERTER_11
 70
     0
 40
0.0
 41
0.7
 50
0.0
 71
     0
 42
0.2
  3
txt.shx
  4

  0
ENDTAB
  0
TABLE
  2
VIEW
  5
6
330
0
100
AcDbSymbolTable
 70
     0
  0
ENDTAB
  0
TABLE
  2
UCS
  5
7
330
0
100
AcDbSymbolTable
 70
     0
  0
ENDTAB
  0
TABLE
  2
APPID
  5
9
330
0
100
AcDbSymbolTable
 70
     1
  0
APPID
  5
12
330
9
100
AcDbSymbolTableRecord
100
AcDbRegAppTableRecord
  2
ACAD
 70
     0
  0
ENDTAB
  0
TABLE
  2
DIMSTYLE
  5
A
330
0
100
AcDbSymbolTable
 70
     7
100
AcDbDimStyleTable
  0
DIMSTYLE
105
27
330
A
100
AcDbSymbolTableRecord
100
AcDbDimStyleTableRecord
  2
Standard
 70
     0
340
11
  0
DIMSTYLE
105
11E
102
{ACAD_REACTORS
330
11F
102
}
330
A
100
AcDbSymbolTableRecord
100
AcDbDimStyleTableRecord
  2
ME10_DIM_10
 70
     0
 41
3.5
 73
     0
 74
     0
 77
     1
 78
    12
140
3.5
172
     1
173
     1
176
     2
177
     2
178
     5
271
     2
340
F1
  0
DIMSTYLE
105
129
102
{ACAD_REACTORS
330
12A
102
}
330
A
100
AcDbSymbolTableRecord
100
AcDbDimStyleTableRecord
  2
ME10_DIM_11
 70
     0
  3
ER<>
 41
3.5
 73
     0
 74
     0
 77
     1
 78
    12
140
3.5
172
     1
173
     1
176
     2
177
     2
178
     5
271
     2
340
F1
  0
DIMSTYLE
105
134
102
{ACAD_REACTORS
330
135
102
}
330
A
100
AcDbSymbolTableRecord
100
AcDbDimStyleTableRecord
  2
ME10_DIM_12
 70
     0
 41
3.5
 73
     0
 74
     0
 77
     1
 78
    12
140
3.5
172
     1
173
     1
176
     2
177
     2
178
     5
271
     2
340
F1
  0
DIMSTYLE
105
13F
102
{ACAD_REACTORS
330
140
102
}
330
A
100
AcDbSymbolTableRecord
100
AcDbDimStyleTableRecord
  2
ME10_DIM_13
 70
     0
  3
{\Fgdt;n}<>
 41
3.5
 73
     0
 74
     0
 77
     1
 78
    12
140
3.5
172
     1
173
     1
176
     2
177
     2
178
     5
271
     2
340
F1
  0
DIMSTYLE
105
14A
102
{ACAD_REACTORS
330
14B
102
}
330
A
100
AcDbSymbolTableRecord
100
AcDbDimStyleTableRecord
  2
ME10_DIM_14
 70
     0
 41
3.5
 73
     0
 74
     0
 77
     1
 78
    12
140
3.5
172
     1
173
     1
176
     2
177
     2
178
     5
271
     2
340
F1
  0
DIMSTYLE
105
155
102
{ACAD_REACTORS
330
156
102
}
330
A
100
AcDbSymbolTableRecord
100
AcDbDimStyleTableRecord
  2
ME10_DIM_15
 70
     0
 41
3.5
 73
     0
 74
     0
 77
     1
 78
    12
140
3.5
172
     1
173
     1
176
     2
177
     2
178
     5
271
     2
340
F1
  0
ENDTAB
  0
TABLE
  2
BLOCK_RECORD
  5
1
330
0
100
AcDbSymbolTable
 70
     7
  0
BLOCK_RECORD
  5
1F
330
1
100
AcDbSymbolTableRecord
100
AcDbBlockTableRecord
  2
*Model_Space
340
22
  0
BLOCK_RECORD
  5
1B
330
1
100
AcDbSymbolTableRecord
100
AcDbBlockTableRecord
  2
*Paper_Space
340
1E
  0
BLOCK_RECORD
  5
23
330
1
100
AcDbSymbolTableRecord
100
AcDbBlockTableRecord
  2
*Paper_Space0
340
26
  0
BLOCK_RECORD
  5
115
330
1
100
AcDbSymbolTableRecord
100
AcDbBlockTableRecord
  2
*D1
340
0
  0
BLOCK_RECORD
  5
120
330
1
100
AcDbSymbolTableRecord
100
AcDbBlockTableRecord
  2
*D2
340
0
  0
BLOCK_RECORD
  5
12B
330
1
100
AcDbSymbolTableRecord
100
AcDbBlockTableRecord
  2
*D3
340
0
  0
BLOCK_RECORD
  5
136
330
1
100
AcDbSymbolTableRecord
100
AcDbBlockTableRecord
  2
*D4
340
0
  0
BLOCK_RECORD
  5
141
330
1
100
AcDbSymbolTableRecord
100
AcDbBlockTableRecord
  2
*D5
340
0
  0
BLOCK_RECORD
  5
14C
330
1
100
AcDbSymbolTableRecord
100
AcDbBlockTableRecord
  2
*D6
340
0
  0
ENDTAB
  0
ENDSEC
  0
SECTION
  2
BLOCKS
  0
BLOCK
  5
20
330
1F
100
AcDbEntity
  8
0
100
AcDbBlockBegin
  2
*Model_Space
 70
     0
 10
0.0
 20
0.0
 30
0.0
  3
*Model_Space
  1

  0
ENDBLK
  5
21
330
1F
100
AcDbEntity
  8
0
100
AcDbBlockEnd
  0
BLOCK
  5
1C
330
1B
100
AcDbEntity
 67
     1
  8
0
100
AcDbBlockBegin
  2
*Paper_Space
 70
     0
 10
0.0
 20
0.0
 30
0.0
  3
*Paper_Space
  1

  0
ENDBLK
  5
1D
330
1B
100
AcDbEntity
 67
     1
  8
0
100
AcDbBlockEnd
  0
BLOCK
  5
24
330
23
100
AcDbEntity
  8
0
100
AcDbBlockBegin
  2
*Paper_Space0
 70
     0
 10
0.0
 20
0.0
 30
0.0
  3
*Paper_Space0
  1

  0
ENDBLK
  5
25
330
23
100
AcDbEntity
  8
0
100
AcDbBlockEnd
  0
BLOCK
  5
11C
330
115
100
AcDbEntity
  8
0
100
AcDbBlockBegin
  2
*D1
 70
     1
 10
0.0
 20
0.0
 30
0.0
  3
*D1
  1

  0
LINE
  5
116
330
115
100
AcDbEntity
  8
0
  6
Continuous
 62
     2
100
AcDbLine
 10
157.3910252079
 20
192.0312634415
 30
0.0
 11
217.3910252079
 21
192.0312634415
 31
0.0
  0
LINE
  5
117
330
115
100
AcDbEntity
  8
0
  6
Continuous
 62
     2
100
AcDbLine
 10
157.3910252079
 20
174.6891378337
 30
0.0
 11
157.3910252079
 21
192.2112634415
 31
0.0
  0
LINE
  5
118
330
115
100
AcDbEntity
  8
0
  6
Continuous
 62
     2
100
AcDbLine
 10
217.3910252079
 20
150.7785456875
 30
0.0
 11
217.3910252079
 21
192.2112634415
 31
0.0
  0
SOLID
  5
119
330
115
100
AcDbEntity
  8
0
 62
     2
100
AcDbTrace
 10
213.8910252079
 20
191.5704796999441
 30
0.0
 11
213.8910252079
 21
192.4920471830559
 31
0.0
 12
217.3910252079
 22
192.0312634415
 32
0.0
 13
217.3910252079
 23
192.0312634415
 33
0.0
  0
SOLID
  5
11A
330
115
100
AcDbEntity
  8
0
 62
     2
100
AcDbTrace
 10
160.8910252079
 20
192.4920471830559
 30
0.0
 11
160.8910252079
 21
191.5704796999441
 31
0.0
 12
157.3910252079
 22
192.0312634415
 32
0.0
 13
157.3910252079
 23
192.0312634415
 33
0.0
  0
MTEXT
  5
11B
330
115
100
AcDbEntity
  8
0
 62
     5
100
AcDbMText
 10
185.3820252079
 20
194.6562634415
 30
0.0
 40
3.5
 41
0.0
 71
     7
 72
     1
  1
60
  7
CONVERTER_11
 11
0.9999999999970619
 21
2.424068405545306E-6
 31
0.0
 73
     1
 44
0.60024009603842
  0
ENDBLK
  5
11D
330
115
100
AcDbEntity
  8
0
100
AcDbBlockEnd
  0
BLOCK
  5
127
330
120
100
AcDbEntity
  8
0
100
AcDbBlockBegin
  2
*D2
 70
     1
 10
0.0
 20
0.0
 30
0.0
  3
*D2
  1

  0
LINE
  5
121
330
120
100
AcDbEntity
  8
0
  6
Continuous
 62
     2
100
AcDbLine
 10
228.179847973
 20
145.7176473026
 30
0.0
 11
228.179847973
 21
125.7176473026
 31
0.0
  0
LINE
  5
122
330
120
100
AcDbEntity
  8
0
  6
Continuous
 62
     2
100
AcDbLine
 10
207.4535252079
 20
145.7176473026
 30
0.0
 11
228.359847973
 21
145.7176473026
 31
0.0
  0
LINE
  5
123
330
120
100
AcDbEntity
  8
0
  6
Continuous
 62
     2
100
AcDbLine
 10
207.4535252079
 20
125.7176473026
 30
0.0
 11
228.359847973
 21
125.7176473026
 31
0.0
  0
SOLID
  5
124
330
120
100
AcDbEntity
  8
0
 62
     2
100
AcDbTrace
 10
227.7190642314441
 20
129.2176473026
 30
0.0
 11
228.6406317145559
 21
129.2176473026
 31
0.0
 12
228.179847973
 22
125.7176473026
 32
0.0
 13
228.179847973
 23
125.7176473026
 33
0.0
  0
SOLID
  5
125
330
120
100
AcDbEntity
  8
0
 62
     2
100
AcDbTrace
 10
228.6406317145559
 20
142.2176473026
 30
0.0
 11
227.7190642314441
 21
142.2176473026
 31
0.0
 12
228.179847973
 22
145.7176473026
 32
0.0
 13
228.179847973
 23
145.7176473026
 33
0.0
  0
MTEXT
  5
126
330
120
100
AcDbEntity
  8
0
 62
     5
100
AcDbMText
 10
225.554847973
 20
129.9776473026
 30
0.0
 40
3.5
 41
0.0
 71
     7
 72
     1
  1
\C5;ER\C5;20
  7
CONVERTER_11
 11
0.0
 21
1.0
 31
0.0
 73
     1
 44
0.60024009603842
  0
ENDBLK
  5
128
330
120
100
AcDbEntity
  8
0
100
AcDbBlockEnd
  0
BLOCK
  5
132
330
12B
100
AcDbEntity
  8
0
100
AcDbBlockBegin
  2
*D3
 70
     1
 10
0.0
 20
0.0
 30
0.0
  3
*D3
  1

  0
LINE
  5
12C
330
12B
100
AcDbEntity
  8
0
  6
Continuous
 62
     2
100
AcDbLine
 10
157.3910252079
 20
183.2125145164
 30
0.0
 11
205.8910252079
 21
183.2125145164
 31
0.0
  0
LINE
  5
12D
330
12B
100
AcDbEntity
  8
0
  6
Continuous
 62
     2
100
AcDbLine
 10
157.3910252079
 20
169.0694417722
 30
0.0
 11
157.3910252079
 21
183.3925145164
 31
0.0
  0
LINE
  5
12E
330
12B
100
AcDbEntity
  8
0
  6
Continuous
 62
     2
100
AcDbLine
 10
205.8910252079
 20
181.7750145164
 30
0.0
 11
205.8910252079
 21
183.3925145164
 31
0.0
  0
SOLID
  5
12F
330
12B
100
AcDbEntity
  8
0
 62
     2
100
AcDbTrace
 10
202.3910252079
 20
182.7517307748441
 30
0.0
 11
202.3910252079
 21
183.6732982579559
 31
0.0
 12
205.8910252079
 22
183.2125145164
 32
0.0
 13
205.8910252079
 23
183.2125145164
 33
0.0
  0
SOLID
  5
130
330
12B
100
AcDbEntity
  8
0
 62
     2
100
AcDbTrace
 10
160.8910252079
 20
183.6732982579559
 30
0.0
 11
160.8910252079
 21
182.7517307748441
 31
0.0
 12
157.3910252079
 22
183.2125145164
 32
0.0
 13
157.3910252079
 23
183.2125145164
 33
0.0
  0
MTEXT
  5
131
330
12B
100
AcDbEntity
  8
0
 62
     5
100
AcDbMText
 10
177.6230252079
 20
185.8375145164
 30
0.0
 40
3.5
 41
0.0
 71
     7
 72
     1
  1
48.5
  7
CONVERTER_11
 11
0.9999999999970619
 21
2.424068405545306E-6
 31
0.0
 73
     1
 44
0.60024009603842
  0
ENDBLK
  5
133
330
12B
100
AcDbEntity
  8
0
100
AcDbBlockEnd
  0
BLOCK
  5
13D
330
136
100
AcDbEntity
  8
0
100
AcDbBlockBegin
  2
*D4
 70
     1
 10
0.0
 20
0.0
 30
0.0
  3
*D4
  1

  0
LINE
  5
137
330
136
100
AcDbEntity
  8
0
  6
Continuous
 62
     2
100
AcDbLine
 10
236.9527627193
 20
118.7551473026
 30
0.0
 11
236.9527627193
 21
152.6801473026
 31
0.0
  0
LINE
  5
138
330
136
100
AcDbEntity
  8
0
  6
Continuous
 62
     2
100
AcDbLine
 10
186.9910252079
 20
118.7551473026
 30
0.0
 11
237.1327627193
 21
118.7551473026
 31
0.0
  0
LINE
  5
139
330
136
100
AcDbEntity
  8
0
  6
Continuous
 62
     2
100
AcDbLine
 10
186.9910252079
 20
152.6801473026
 30
0.0
 11
237.1327627193
 21
152.6801473026
 31
0.0
  0
SOLID
  5
13A
330
136
100
AcDbEntity
  8
0
 62
     2
100
AcDbTrace
 10
237.4135464608559
 20
149.1801473026
 30
0.0
 11
236.4919789777441
 21
149.1801473026
 31
0.0
 12
236.9527627193
 22
152.6801473026
 32
0.0
 13
236.9527627193
 23
152.6801473026
 33
0.0
  0
SOLID
  5
13B
330
136
100
AcDbEntity
  8
0
 62
     2
100
AcDbTrace
 10
236.4919789777441
 20
122.2551473026
 30
0.0
 11
237.4135464608559
 21
122.2551473026
 31
0.0
 12
236.9527627193
 22
118.7551473026
 32
0.0
 13
236.9527627193
 23
118.7551473026
 33
0.0
  0
MTEXT
  5
13C
330
136
100
AcDbEntity
  8
0
 62
     5
100
AcDbMText
 10
234.3277627193
 20
128.1121473026
 30
0.0
 40
3.5
 41
0.0
 71
     7
 72
     1
  1
\C5;{\Fgdt;n}\C5;34
  7
CONVERTER_11
 11
0.0
 21
1.0
 31
0.0
 73
     1
 44
0.60024009603842
  0
ENDBLK
  5
13E
330
136
100
AcDbEntity
  8
0
100
AcDbBlockEnd
  0
BLOCK
  5
148
330
141
100
AcDbEntity
  8
0
100
AcDbBlockBegin
  2
*D5
 70
     1
 10
0.0
 20
0.0
 30
0.0
  3
*D5
  1

  0
LINE
  5
142
330
141
100
AcDbEntity
  8
0
  6
Continuous
 62
     2
100
AcDbLine
 10
119.3910252079
 20
198.5155205884
 30
0.0
 11
205.8910252079
 21
198.5155205884
 31
0.0
  0
LINE
  5
143
330
141
100
AcDbEntity
  8
0
  6
Continuous
 62
     2
100
AcDbLine
 10
119.3910252079
 20
156.790722739
 30
0.0
 11
119.3910252079
 21
198.6955205884
 31
0.0
  0
LINE
  5
144
330
141
100
AcDbEntity
  8
0
  6
Continuous
 62
     2
100
AcDbLine
 10
205.8910252079
 20
151.3024386694
 30
0.0
 11
205.8910252079
 21
198.6955205884
 31
0.0
  0
SOLID
  5
145
330
141
100
AcDbEntity
  8
0
 62
     2
100
AcDbTrace
 10
202.3910252079
 20
198.0547368468441
 30
0.0
 11
202.3910252079
 21
198.9763043299559
 31
0.0
 12
205.8910252079
 22
198.5155205884
 32
0.0
 13
205.8910252079
 23
198.5155205884
 33
0.0
  0
SOLID
  5
146
330
141
100
AcDbEntity
  8
0
 62
     2
100
AcDbTrace
 10
122.8910252079
 20
198.9763043299559
 30
0.0
 11
122.8910252079
 21
198.0547368468441
 31
0.0
 12
119.3910252079
 22
198.5155205884
 32
0.0
 13
119.3910252079
 23
198.5155205884
 33
0.0
  0
MTEXT
  5
147
330
141
100
AcDbEntity
  8
0
 62
     5
100
AcDbMText
 10
158.6230252079
 20
201.1405205884
 30
0.0
 40
3.5
 41
0.0
 71
     7
 72
     1
  1
86.5
  7
CONVERTER_11
 11
0.9999999999970619
 21
2.424068405545306E-6
 31
0.0
 73
     1
 44
0.60024009603842
  0
ENDBLK
  5
149
330
141
100
AcDbEntity
  8
0
100
AcDbBlockEnd
  0
BLOCK
  5
153
330
14C
100
AcDbEntity
  8
0
100
AcDbBlockBegin
  2
*D6
 70
     1
 10
0.0
 20
0.0
 30
0.0
  3
*D6
  1

  0
LINE
  5
14D
330
14C
100
AcDbEntity
  8
0
  6
Continuous
 62
     2
100
AcDbLine
 10
179.3910252079
 20
173.103177506
 30
0.0
 11
205.8910252079
 21
173.103177506
 31
0.0
  0
LINE
  5
14E
330
14C
100
AcDbEntity
  8
0
  6
Continuous
 62
     2
100
AcDbLine
 10
179.3910252079
 20
164.5198925046
 30
0.0
 11
179.3910252079
 21
173.283177506
 31
0.0
  0
LINE
  5
14F
330
14C
100
AcDbEntity
  8
0
  6
Continuous
 62
     2
100
AcDbLine
 10
205.8910252079
 20
124.7801473026
 30
0.0
 11
205.8910252079
 21
173.283177506
 31
0.0
  0
SOLID
  5
150
330
14C
100
AcDbEntity
  8
0
 62
     2
100
AcDbTrace
 10
202.3910252079
 20
172.6423937644441
 30
0.0
 11
202.3910252079
 21
173.5639612475559
 31
0.0
 12
205.8910252079
 22
173.103177506
 32
0.0
 13
205.8910252079
 23
173.103177506
 33
0.0
  0
SOLID
  5
151
330
14C
100
AcDbEntity
  8
0
 62
     2
100
AcDbTrace
 10
182.8910252079
 20
173.5639612475559
 30
0.0
 11
182.8910252079
 21
172.6423937644441
 31
0.0
 12
179.3910252079
 22
173.103177506
 32
0.0
 13
179.3910252079
 23
173.103177506
 33
0.0
  0
MTEXT
  5
152
330
14C
100
AcDbEntity
  8
0
 62
     5
100
AcDbMText
 10
188.6230252079
 20
175.728177506
 30
0.0
 40
3.5
 41
0.0
 71
     7
 72
     1
  1
26.5
  7
CONVERTER_11
 11
0.9999999999970619
 21
2.424068405545306E-6
 31
0.0
 73
     1
 44
0.60024009603842
  0
ENDBLK
  5
154
330
14C
100
AcDbEntity
  8
0
100
AcDbBlockEnd
  0
ENDSEC
  0
SECTION
  2
ENTITIES
  0
POINT
  5
4B
330
1F
100
AcDbEntity
  8
0
 62
     7
100
AcDbPoint
 10
157.3910252079
 20
174.6266378337
 30
0.0
  0
POINT
  5
4C
330
1F
100
AcDbEntity
  8
0
 62
     7
100
AcDbPoint
 10
217.3910252079
 20
150.7160456875
 30
0.0
  0
POINT
  5
4D
330
1F
100
AcDbEntity
  8
0
 62
     7
100
AcDbPoint
 10
207.3910252079
 20
145.7176473026
 30
0.0
  0
POINT
  5
4E
330
1F
100
AcDbEntity
  8
0
 62
     7
100
AcDbPoint
 10
207.3910252079
 20
125.7176473026
 30
0.0
  0
POINT
  5
4F
330
1F
100
AcDbEntity
  8
0
 62
     7
100
AcDbPoint
 10
157.3910252079
 20
169.0069417722
 30
0.0
  0
POINT
  5
50
330
1F
100
AcDbEntity
  8
0
 62
     7
100
AcDbPoint
 10
205.8910252079
 20
181.7125145164
 30
0.0
  0
POINT
  5
51
330
1F
100
AcDbEntity
  8
0
 62
     7
100
AcDbPoint
 10
186.9285252079
 20
118.7551473026
 30
0.0
  0
POINT
  5
52
330
1F
100
AcDbEntity
  8
0
 62
     7
100
AcDbPoint
 10
186.9285252079
 20
152.6801473026
 30
0.0
  0
POINT
  5
53
330
1F
100
AcDbEntity
  8
0
 62
     7
100
AcDbPoint
 10
119.3910252079
 20
156.728222739
 30
0.0
  0
POINT
  5
54
330
1F
100
AcDbEntity
  8
0
 62
     7
100
AcDbPoint
 10
205.8910252079
 20
151.2399386694
 30
0.0
  0
POINT
  5
55
330
1F
100
AcDbEntity
  8
0
 62
     7
100
AcDbPoint
 10
179.3910252079
 20
164.4573925046
 30
0.0
  0
POINT
  5
56
330
1F
100
AcDbEntity
  8
0
 62
     7
100
AcDbPoint
 10
205.8910252079
 20
124.7176473026
 30
0.0
  0
LINE
  5
57
330
1F
100
AcDbEntity
  8
0
  6
Continuous
 62
     7
100
AcDbLine
 10
155.4014268396
 20
112.2922624967
 30
0.0
 11
155.6440539587
 21
112.8409184273
 31
0.0
  0
LINE
  5
58
330
1F
100
AcDbEntity
  8
FASEN
  6
Continuous
 62
     7
100
AcDbLine
 10
174.613524443
 20
167.2176472994
 30
0.0
 11
174.316408082244
 21
167.16912775441
 31
0.0
  0
LINE
  5
59
330
1F
100
AcDbEntity
  8
ACHSEN
  6
Continuous
 62
     7
100
AcDbLine
 10
127.6546445558
 20
155.6441993785
 30
0.0
 11
127.6695954939
 21
155.6463051079
 31
0.0
  0
LINE
  5
5A
330
1F
100
AcDbEntity
  8
ACHSEN
  6
Continuous
 62
     7
100
AcDbLine
 10
125.7410252079
 20
155.3216986013
 30
0.0
 11
120.8910252079
 21
155.2146369162
 31
0.0
  0
LINE
  5
5B
330
1F
100
AcDbEntity
  8
FASEN
  6
Continuous
 62
     7
100
AcDbLine
 10
164.386911518644
 20
167.181714902658
 30
0.0
 11
164.1685257297
 21
167.2176473007
 31
0.0
  0
LINE
  5
5C
330
1F
100
AcDbEntity
  8
DEFAULT_1
  6
CENTER
 62
     5
100
AcDbLine
 10
215.3910252079
 20
152.6801473026
 30
0.0
 11
217.3910252079
 21
149.2160456875
 31
0.0
  0
LINE
  5
5D
330
1F
100
AcDbEntity
  8
DEFAULT_1
  6
CENTER
 62
     5
100
AcDbLine
 10
217.3910252079
 20
149.2160456875
 30
0.0
 11
217.3910252079
 21
122.2192489178
 31
0.0
  0
LINE
  5
5E
330
1F
100
AcDbEntity
  8
DEFAULT_1
  6
CENTER
 62
     5
100
AcDbLine
 10
213.432257236
 20
148.5086779692
 30
0.0
 11
217.3910252079
 21
144.9344432967
 31
0.0
  0
LINE
  5
5F
330
1F
100
AcDbEntity
  8
DEFAULT_1
  6
CENTER
 62
     5
100
AcDbLine
 10
215.3910252079
 20
118.7551473026
 30
0.0
 11
217.3910252079
 21
122.2192489178
 31
0.0
  0
LINE
  5
60
330
1F
100
AcDbEntity
  8
0
  6
Continuous
 62
     7
100
AcDbLine
 10
205.8910252079
 20
146.7176473023
 30
0.0
 11
205.0249998041
 21
148.2176473026
 31
0.0
  0
LINE
  5
61
330
1F
100
AcDbEntity
  8
FASEN
  6
Continuous
 62
     7
100
AcDbLine
 10
205.8910252092
 20
146.7176473003
 30
0.0
 11
205.0249998056
 21
148.2176473
 31
0.0
  0
LINE
  5
62
330
1F
100
AcDbEntity
  8
0
  6
Continuous
 62
     7
100
AcDbLine
 10
164.1688029449
 20
167.2176473026
 30
0.0
 11
157.6910252803
 21
167.2176473026
 31
0.0
  0
LINE
  5
63
330
1F
100
AcDbEntity
  8
0
  6
Continuous
 62
     7
100
AcDbLine
 10
179.3910252079
 20
167.2176473026
 30
0.0
 11
174.6132497802
 21
167.2176473026
 31
0.0
  0
LINE
  5
64
330
1F
100
AcDbEntity
  8
0
  6
Continuous
 62
     7
100
AcDbLine
 10
170.8523500733
 20
165.7982400629
 30
0.0
 11
167.9297003425
 21
165.7982400629
 31
0.0
  0
LINE
  5
65
330
1F
100
AcDbEntity
  8
DEFAULT_1
  6
CENTER
 62
     5
100
AcDbLine
 10
213.432257236
 20
122.9266166361
 30
0.0
 11
217.3910252079
 21
126.5008513086
 31
0.0
  0
LINE
  5
66
330
1F
100
AcDbEntity
  8
FASEN
  6
Continuous
 62
     7
100
AcDbLine
 10
205.8910252094
 20
124.7176473053
 30
0.0
 11
205.0249998059
 21
123.2176473056
 31
0.0
  0
LINE
  5
67
330
1F
100
AcDbEntity
  8
FASEN
  6
Continuous
 62
     7
100
AcDbLine
 10
205.8910252079
 20
124.7176473026
 30
0.0
 11
205.8910252079
 21
146.7176473023
 31
0.0
  0
LINE
  5
68
330
1F
100
AcDbEntity
  8
0
  6
Continuous
 62
     7
100
AcDbLine
 10
205.5561620518
 20
147.2976473026
 30
0.0
 11
205.5561620518
 21
124.1376473026
 31
0.0
  0
LINE
  5
69
330
1F
100
AcDbEntity
  8
FASEN
  6
Continuous
 62
     7
100
AcDbLine
 10
205.0249998041
 20
123.2176473026
 30
0.0
 11
205.0249998041
 21
148.2176473026
 31
0.0
  0
LINE
  5
6A
330
1F
100
AcDbEntity
  8
DEFAULT_1
  6
CENTER
 62
     5
100
AcDbLine
 10
209.4652495225
 20
124.1376473026
 30
0.0
 11
210.1329636921
 21
122.9266166361
 31
0.0
  0
LINE
  5
6B
330
1F
100
AcDbEntity
  8
DEFAULT_1
  6
CENTER
 62
     5
100
AcDbLine
 10
199.3910252079
 20
148.2176473026
 30
0.0
 11
199.3910252079
 21
150.6801473026
 31
0.0
  0
LINE
  5
6C
330
1F
100
AcDbEntity
  8
DEFAULT_1
  6
CENTER
 62
     5
100
AcDbLine
 10
199.3910252079
 20
120.7551473026
 30
0.0
 11
199.3910252079
 21
123.2176473026
 31
0.0
  0
LINE
  5
6D
330
1F
100
AcDbEntity
  8
0
  6
Continuous
 62
     7
100
AcDbLine
 10
185.7214184267
 20
152.3872540838
 30
0.0
 11
189.5981319891
 21
148.5105405214
 31
0.0
  0
LINE
  5
6E
330
1F
100
AcDbEntity
  8
0
  6
Continuous
 62
     7
100
AcDbLine
 10
146.5703865411
 20
156.121165638
 30
0.0
 11
155.191088297
 21
156.3377476722
 31
0.0
  0
LINE
  5
6F
330
1F
100
AcDbEntity
  8
0
  6
Continuous
 62
     7
100
AcDbLine
 10
127.654629962
 20
155.6459359928
 30
0.0
 11
137.4410252079
 21
155.8918043048
 31
0.0
  0
LINE
  5
70
330
1F
100
AcDbEntity
  8
0
  6
Continuous
 62
     7
100
AcDbLine
 10
155.396048319
 20
156.1428338724
 30
0.0
 11
156.996048319
 21
156.1830314415
 31
0.0
  0
LINE
  5
71
330
1F
100
AcDbEntity
  8
DEFAULT_1
  6
CENTER
 62
     5
100
AcDbLine
 10
209.4652495225
 20
147.2976473026
 30
0.0
 11
210.1329636921
 21
148.5086779692
 31
0.0
  0
LINE
  5
72
330
1F
100
AcDbEntity
  8
DEFAULT_1
  6
CENTER
 62
     5
100
AcDbLine
 10
201.3910252079
 20
152.6801473026
 30
0.0
 11
215.3910252079
 21
152.6801473026
 31
0.0
  0
LINE
  5
73
330
1F
100
AcDbEntity
  8
0
  6
Continuous
 62
     7
100
AcDbLine
 10
183.3910252079
 20
152.6801473026
 30
0.0
 11
185.0143116455
 21
152.6801473026
 31
0.0
  0
LINE
  5
74
330
1F
100
AcDbEntity
  8
0
  6
Continuous
 62
     7
100
AcDbLine
 10
155.6440539587
 20
150.4074187353
 30
0.0
 11
155.396048319
 21
150.4025895074
 31
0.0
  0
LINE
  5
75
330
1F
100
AcDbEntity
  8
0
  6
Continuous
 62
     9
100
AcDbLine
 10
120.8910252079
 20
151.4288919413
 30
0.0
 11
155.191088297
 21
152.1751780513
 31
0.0
  0
LINE
  5
76
330
1F
100
AcDbEntity
  8
0
  6
Continuous
 62
     7
100
AcDbLine
 10
185.7214184267
 20
119.0480405214
 30
0.0
 11
189.5981319891
 21
122.9247540838
 31
0.0
  0
LINE
  5
77
330
1F
100
AcDbEntity
  8
RUNDUNGEN
  6
Continuous
 62
     7
100
AcDbLine
 10
189.5981319891
 20
122.9247540838
 30
0.0
 11
185.7214184267
 21
119.0480405214
 31
0.0
  0
LINE
  5
78
330
1F
100
AcDbEntity
  8
0
  6
Continuous
 62
     7
100
AcDbLine
 10
191.3910252079
 20
148.2176473026
 30
0.0
 11
191.3910252079
 21
123.2176473026
 31
0.0
  0
LINE
  5
79
330
1F
100
AcDbEntity
  8
RUNDUNGEN
  6
Continuous
 62
     9
100
AcDbLine
 10
190.3052387703
 20
148.2176473026
 30
0.0
 11
190.3052387703
 21
123.2176473026
 31
0.0
  0
LINE
  5
7A
330
1F
100
AcDbEntity
  8
RUNDUNGEN
  6
Continuous
 62
     9
100
AcDbLine
 10
189.5981319891
 20
148.5105405214
 30
0.0
 11
189.5981319891
 21
122.9247540838
 31
0.0
  0
LINE
  5
7B
330
1F
100
AcDbEntity
  8
DEFAULT_1
  6
CENTER
 62
     5
100
AcDbLine
 10
210.1329636921
 20
148.5086779692
 30
0.0
 11
213.432257236
 21
148.5086779692
 31
0.0
  0
LINE
  5
7C
330
1F
100
AcDbEntity
  8
0
  6
Continuous
 62
     7
100
AcDbLine
 10
190.3052387703
 20
148.2176473026
 30
0.0
 11
205.0249998041
 21
148.2176473026
 31
0.0
  0
LINE
  5
7D
330
1F
100
AcDbEntity
  8
DEFAULT_1
  6
CENTER
 62
     5
100
AcDbLine
 10
205.5561620518
 20
147.2976473026
 30
0.0
 11
209.4652495225
 21
147.2976473026
 31
0.0
  0
LINE
  5
7E
330
1F
100
AcDbEntity
  8
0
  6
Continuous
 62
     2
100
AcDbLine
 10
191.3910252079
 20
147.2976473026
 30
0.0
 11
205.5561620518
 21
147.2976473026
 31
0.0
  0
LINE
  5
7F
330
1F
100
AcDbEntity
  8
RUNDUNGEN
  6
Continuous
 62
     9
100
AcDbLine
 10
185.7214184267
 20
119.0480405214
 30
0.0
 11
185.7214184267
 21
152.3872540838
 31
0.0
  0
LINE
  5
80
330
1F
100
AcDbEntity
  8
RUNDUNGEN
  6
Continuous
 62
     9
100
AcDbLine
 10
185.0143116455
 20
118.7551473026
 30
0.0
 11
185.0143116455
 21
152.6801473026
 31
0.0
  0
LINE
  5
81
330
1F
100
AcDbEntity
  8
DEFAULT_2
  6
HIDDEN
 62
     8
100
AcDbLine
 10
183.6554948255
 20
142.5926473026
 30
0.0
 11
183.6554948255
 21
128.8426473026
 31
0.0
  0
LINE
  5
82
330
1F
100
AcDbEntity
  8
RUNDUNGEN
  6
Continuous
 62
     9
100
AcDbLine
 10
183.3910252079
 20
152.6801473026
 30
0.0
 11
183.3910252079
 21
118.7551473026
 31
0.0
  0
LINE
  5
83
330
1F
100
AcDbEntity
  8
0
  6
Continuous
 62
     7
100
AcDbLine
 10
170.8523500733
 20
145.0668686171
 30
0.0
 11
167.9297003425
 21
145.0668686171
 31
0.0
  0
LINE
  5
84
330
1F
100
AcDbEntity
  8
DEFAULT_2
  6
HIDDEN
 62
     8
100
AcDbLine
 10
183.6554948255
 20
142.5926473026
 30
0.0
 11
173.8819289815
 21
142.5926473026
 31
0.0
  0
LINE
  5
85
330
1F
100
AcDbEntity
  8
0
  6
Continuous
 62
     9
100
AcDbLine
 10
119.3910252079
 20
140.9425184332
 30
0.0
 11
155.191088297
 21
140.9425184332
 31
0.0
  0
LINE
  5
86
330
1F
100
AcDbEntity
  8
0
  6
Continuous
 62
     7
100
AcDbLine
 10
155.396048319
 20
143.9035904894
 30
0.0
 11
155.6440539587
 21
143.9046047453
 31
0.0
  0
LINE
  5
87
330
1F
100
AcDbEntity
  8
0
  6
Continuous
 62
     7
100
AcDbLine
 10
179.3910252079
 20
104.2176473026
 30
0.0
 11
179.3910252079
 21
167.2176473026
 31
0.0
  0
LINE
  5
88
330
1F
100
AcDbEntity
  8
DEFAULT_2
  6
HIDDEN
 62
     8
100
AcDbLine
 10
183.6554948255
 20
142.5926473026
 30
0.0
 11
205.3958911735
 21
145.6480607521
 31
0.0
  0
LINE
  5
89
330
1F
100
AcDbEntity
  8
FASEN
  6
HIDDEN
 62
     8
100
AcDbLine
 10
205.3958911735
 20
145.6480607521
 30
0.0
 11
183.6554948255
 21
142.5926473026
 31
0.0
  0
LINE
  5
8A
330
1F
100
AcDbEntity
  8
DEFAULT_2
  6
HIDDEN
 62
     8
100
AcDbLine
 10
173.8819289815
 20
142.5926473026
 30
0.0
 11
173.8819289815
 21
128.8426473026
 31
0.0
  0
LINE
  5
8B
330
1F
100
AcDbEntity
  8
S_ACHSEN
  6
CENTER
 62
     7
100
AcDbLine
 10
116.3910252079
 20
135.7176473026
 30
0.0
 11
220.3910252079
 21
135.7176473026
 31
0.0
  0
LINE
  5
8C
330
1F
100
AcDbEntity
  8
0
  6
Continuous
 62
     7
100
AcDbLine
 10
206.8910252079
 20
135.7176473026
 30
0.0
 11
205.8910252079
 21
135.7176473026
 31
0.0
  0
LINE
  5
8D
330
1F
100
AcDbEntity
  8
0
  6
Continuous
 62
     7
100
AcDbLine
 10
156.0839184267
 20
112.9747540838
 30
0.0
 11
155.4014280304
 21
112.2922636875
 31
0.0
  0
LINE
  5
8E
330
1F
100
AcDbEntity
  8
0
  6
Continuous
 62
     9
100
AcDbLine
 10
171.2853627752
 20
125.8482346837
 30
0.0
 11
171.2853627752
 21
105.8036924561
 31
0.0
  0
LINE
  5
8F
330
1F
100
AcDbEntity
  8
0
  6
Continuous
 62
     9
100
AcDbLine
 10
171.2853627752
 20
165.6316021491
 30
0.0
 11
171.2853627752
 21
145.5870599216
 31
0.0
  0
LINE
  5
90
330
1F
100
AcDbEntity
  8
0
  6
Continuous
 62
     9
100
AcDbLine
 10
170.8523500733
 20
126.3684259881
 30
0.0
 11
170.8523500733
 21
105.6370545423
 31
0.0
  0
LINE
  5
91
330
1F
100
AcDbEntity
  8
0
  6
Continuous
 62
     9
100
AcDbLine
 10
170.8523500733
 20
165.7982400629
 30
0.0
 11
170.8523500733
 21
145.0668686171
 31
0.0
  0
LINE
  5
92
330
1F
100
AcDbEntity
  8
ACHSEN
  6
CENTER
 62
     7
100
AcDbLine
 10
169.3910252079
 20
163.0159260646
 30
0.0
 11
169.3910252079
 21
170.2176473026
 31
0.0
  0
LINE
  5
93
330
1F
100
AcDbEntity
  8
DEFAULT_2
  6
HIDDEN
 62
     8
100
AcDbLine
 10
183.6554948255
 20
128.8426473026
 30
0.0
 11
205.3958911735
 21
125.7872338531
 31
0.0
  0
LINE
  5
94
330
1F
100
AcDbEntity
  8
FASEN
  6
HIDDEN
 62
     8
100
AcDbLine
 10
205.3958911735
 20
125.7872338531
 30
0.0
 11
183.6554948255
 21
128.8426473026
 31
0.0
  0
LINE
  5
95
330
1F
100
AcDbEntity
  8
DEFAULT_2
  6
HIDDEN
 62
     8
100
AcDbLine
 10
183.6554948255
 20
128.8426473026
 30
0.0
 11
173.8819289815
 21
128.8426473026
 31
0.0
  0
LINE
  5
96
330
1F
100
AcDbEntity
  8
0
  6
Continuous
 62
     9
100
AcDbLine
 10
167.9297003425
 20
126.3684259881
 30
0.0
 11
167.9297003425
 21
105.6370545423
 31
0.0
  0
LINE
  5
97
330
1F
100
AcDbEntity
  8
0
  6
Continuous
 62
     9
100
AcDbLine
 10
167.9297003425
 20
165.7982400629
 30
0.0
 11
167.9297003425
 21
145.0668686171
 31
0.0
  0
LINE
  5
98
330
1F
100
AcDbEntity
  8
0
  6
Continuous
 62
     9
100
AcDbLine
 10
167.4966876406
 20
125.8482346837
 30
0.0
 11
167.4966876406
 21
105.8036924561
 31
0.0
  0
LINE
  5
99
330
1F
100
AcDbEntity
  8
0
  6
Continuous
 62
     9
100
AcDbLine
 10
167.4966876406
 20
165.6316021491
 30
0.0
 11
167.4966876406
 21
145.5870599216
 31
0.0
  0
LINE
  5
9A
330
1F
100
AcDbEntity
  8
0
  6
Continuous
 62
     7
100
AcDbLine
 10
170.8523500733
 20
126.3684259881
 30
0.0
 11
167.9297003425
 21
126.3684259881
 31
0.0
  0
LINE
  5
9B
330
1F
100
AcDbEntity
  8
DEFAULT_1
  6
CENTER
 62
     5
100
AcDbLine
 10
205.5561620518
 20
124.1376473026
 30
0.0
 11
209.4652495225
 21
124.1376473026
 31
0.0
  0
LINE
  5
9C
330
1F
100
AcDbEntity
  8
0
  6
Continuous
 62
     2
100
AcDbLine
 10
191.3910252079
 20
124.1376473026
 30
0.0
 11
205.5561620518
 21
124.1376473026
 31
0.0
  0
LINE
  5
9D
330
1F
100
AcDbEntity
  8
0
  6
Continuous
 62
     7
100
AcDbLine
 10
190.3052387703
 20
123.2176473026
 30
0.0
 11
205.0249998041
 21
123.2176473026
 31
0.0
  0
LINE
  5
9E
330
1F
100
AcDbEntity
  8
RUNDUNGEN
  6
Continuous
 62
     7
100
AcDbLine
 10
205.0249998041
 20
123.2176473026
 30
0.0
 11
190.3052387703
 21
123.2176473026
 31
0.0
  0
LINE
  5
9F
330
1F
100
AcDbEntity
  8
DEFAULT_1
  6
CENTER
 62
     5
100
AcDbLine
 10
210.1329636921
 20
122.9266166361
 30
0.0
 11
213.432257236
 21
122.9266166361
 31
0.0
  0
LINE
  5
A0
330
1F
100
AcDbEntity
  8
0
  6
Continuous
 62
     7
100
AcDbLine
 10
183.3910252079
 20
118.7551473026
 30
0.0
 11
185.0143116455
 21
118.7551473026
 31
0.0
  0
LINE
  5
A1
330
1F
100
AcDbEntity
  8
RUNDUNGEN
  6
Continuous
 62
     7
100
AcDbLine
 10
185.0143116455
 20
118.7551473026
 30
0.0
 11
183.3910252079
 21
118.7551473026
 31
0.0
  0
LINE
  5
A2
330
1F
100
AcDbEntity
  8
DEFAULT_1
  6
CENTER
 62
     5
100
AcDbLine
 10
215.3910252079
 20
118.7551473026
 30
0.0
 11
201.3910252079
 21
118.7551473026
 31
0.0
  0
LINE
  5
A3
330
1F
100
AcDbEntity
  8
0
  6
Continuous
 62
     7
100
AcDbLine
 10
157.6910252815
 20
104.2176473026
 30
0.0
 11
157.6910252815
 21
167.2176473026
 31
0.0
  0
LINE
  5
A4
330
1F
100
AcDbEntity
  8
0
  6
Continuous
 62
     7
100
AcDbLine
 10
157.3910252079
 20
104.5179229722
 30
0.0
 11
157.3910252079
 21
166.9173716331
 31
0.0
  0
LINE
  5
A5
330
1F
100
AcDbEntity
  8
0
  6
Continuous
 62
     7
100
AcDbLine
 10
157.1910252079
 20
152.5287306085
 30
0.0
 11
157.1910252079
 21
158.2511321636
 31
0.0
  0
LINE
  5
A6
330
1F
100
AcDbEntity
  8
0
  6
Continuous
 62
     7
100
AcDbLine
 10
157.1910252079
 20
114.318232286
 30
0.0
 11
157.1910252079
 21
140.3059788502
 31
0.0
  0
LINE
  5
A7
330
1F
100
AcDbEntity
  8
0
  6
Continuous
 62
     9
100
AcDbLine
 10
156.996048319
 20
140.9005977558
 30
0.0
 11
156.996048319
 21
114.1902185625
 31
0.0
  0
LINE
  5
A8
330
1F
100
AcDbEntity
  8
0
  6
Continuous
 62
     9
100
AcDbLine
 10
156.996048319
 20
156.1830314415
 30
0.0
 11
156.996048319
 21
152.0621255896
 31
0.0
  0
LINE
  5
A9
330
1F
100
AcDbEntity
  8
0
  6
Continuous
 62
     9
100
AcDbLine
 10
156.0839184267
 20
142.1321870634
 30
0.0
 11
156.0839184267
 21
151.4066641928
 31
0.0
  0
LINE
  5
AA
330
1F
100
AcDbEntity
  8
0
  6
Continuous
 62
     9
100
AcDbLine
 10
156.0839184267
 20
112.9747540838
 30
0.0
 11
156.0839184267
 21
113.6140906517
 31
0.0
  0
LINE
  5
AB
330
1F
100
AcDbEntity
  8
0
  6
Continuous
 62
     9
100
AcDbLine
 10
155.396048319
 20
143.9035904894
 30
0.0
 11
155.396048319
 21
112.8467619111
 31
0.0
  0
LINE
  5
AC
330
1F
100
AcDbEntity
  8
0
  6
Continuous
 62
     9
100
AcDbLine
 10
155.396048319
 20
156.1428338724
 30
0.0
 11
155.396048319
 21
150.4025895074
 31
0.0
  0
LINE
  5
AD
330
1F
100
AcDbEntity
  8
0
  6
Continuous
 62
     7
100
AcDbLine
 10
155.191088297
 20
140.9425184332
 30
0.0
 11
155.191088297
 21
114.0352454234
 31
0.0
  0
LINE
  5
AE
330
1F
100
AcDbEntity
  8
0
  6
Continuous
 62
     7
100
AcDbLine
 10
155.191088297
 20
156.3377476722
 30
0.0
 11
155.191088297
 21
152.1751780513
 31
0.0
  0
LINE
  5
AF
330
1F
100
AcDbEntity
  8
0
  6
Continuous
 62
     7
100
AcDbLine
 10
157.1910484153
 20
114.3217207457
 30
0.0
 11
157.1910252079
 21
114.3242608455
 31
0.0
  0
LINE
  5
B0
330
1F
100
AcDbEntity
  8
0
  6
Continuous
 62
     9
100
AcDbLine
 10
155.191088297
 20
114.0352454234
 30
0.0
 11
120.8910252079
 21
114.7815315333
 31
0.0
  0
LINE
  5
B1
330
1F
100
AcDbEntity
  8
0
  6
Continuous
 62
     7
100
AcDbLine
 10
120.8910252079
 20
113.1592839059
 30
0.0
 11
155.4014280307
 21
112.2922624668
 31
0.0
  0
LINE
  5
B2
330
1F
100
AcDbEntity
  8
0
  6
Continuous
 62
     7
100
AcDbLine
 10
155.6440539587
 20
112.8409184273
 30
0.0
 11
155.396048319
 21
112.8467619111
 31
0.0
  0
LINE
  5
B3
330
1F
100
AcDbEntity
  8
0
  6
Continuous
 62
     7
100
AcDbLine
 10
157.3910270439
 20
104.51764921
 30
0.0
 11
157.6910271337
 21
104.2176491561
 31
0.0
  0
LINE
  5
B4
330
1F
100
AcDbEntity
  8
0
  6
Continuous
 62
     7
100
AcDbLine
 10
170.8523500733
 20
105.6370545423
 30
0.0
 11
167.9297003425
 21
105.6370545423
 31
0.0
  0
LINE
  5
B5
330
1F
100
AcDbEntity
  8
0
  6
Continuous
 62
     7
100
AcDbLine
 10
179.3910252079
 20
104.2176473026
 30
0.0
 11
157.6910252803
 21
104.2176473026
 31
0.0
  0
LINE
  5
B6
330
1F
100
AcDbEntity
  8
ACHSEN
  6
CENTER
 62
     7
100
AcDbLine
 10
141.8910252079
 20
112.7841617956
 30
0.0
 11
141.8910252079
 21
159.9060178672
 31
0.0
  0
LINE
  5
B7
330
1F
100
AcDbEntity
  8
0
  6
Continuous
 62
     9
100
AcDbLine
 10
120.8910252079
 20
114.7815315333
 30
0.0
 11
119.3910252079
 21
115.5315315333
 31
0.0
  0
LINE
  5
B8
330
1F
100
AcDbEntity
  8
0
  6
Continuous
 62
     7
100
AcDbLine
 10
157.3910270439
 20
166.9176453953
 30
0.0
 11
157.6910271337
 21
167.2176454492
 31
0.0
  0
LINE
  5
B9
330
1F
100
AcDbEntity
  8
0
  6
Continuous
 62
     7
100
AcDbLine
 10
120.8910252079
 20
113.1592839059
 30
0.0
 11
119.3910252079
 21
114.0253093097
 31
0.0
  0
LINE
  5
BA
330
1F
100
AcDbEntity
  8
0
  6
Continuous
 62
     9
100
AcDbLine
 10
120.8910252079
 20
151.4288919413
 30
0.0
 11
119.3910252079
 21
150.6788919413
 31
0.0
  0
LINE
  5
BB
330
1F
100
AcDbEntity
  8
0
  6
Continuous
 62
     7
100
AcDbLine
 10
120.8910252079
 20
151.4288919413
 30
0.0
 11
120.8910252079
 21
113.1592839059
 31
0.0
  0
LINE
  5
BC
330
1F
100
AcDbEntity
  8
ACHSEN
  6
Continuous
 62
     7
100
AcDbLine
 10
120.8910252079
 20
155.2146369162
 30
0.0
 11
120.8910252079
 21
151.4288919413
 31
0.0
  0
LINE
  5
BD
330
1F
100
AcDbEntity
  8
ACHSEN
  6
Continuous
 62
     7
100
AcDbLine
 10
119.3910252079
 20
150.6788919413
 30
0.0
 11
119.3910252079
 21
154.4661266166
 31
0.0
  0
LINE
  5
BE
330
1F
100
AcDbEntity
  8
KURVEN
  6
Continuous
 62
     4
100
AcDbLine
 10
119.3910252079
 20
113.196969127
 30
0.0
 11
119.3910252079
 21
154.7611576007
 31
0.0
  0
LINE
  5
BF
330
1F
100
AcDbEntity
  8
0
  6
Continuous
 62
     7
100
AcDbLine
 10
119.3910252079
 20
114.0253093097
 30
0.0
 11
119.3910252079
 21
150.6788919413
 31
0.0
  0
LINE
  5
C0
330
1F
100
AcDbEntity
  8
0
  6
Continuous
 62
     7
100
AcDbLine
 10
297.0
 20
0.0
 30
0.0
 11
297.0
 21
210.0
 31
0.0
  0
LINE
  5
C1
330
1F
100
AcDbEntity
  8
0
  6
Continuous
 62
     7
100
AcDbLine
 10
0.0
 20
210.0
 30
0.0
 11
297.0
 21
210.0
 31
0.0
  0
LINE
  5
C2
330
1F
100
AcDbEntity
  8
0
  6
Continuous
 62
     7
100
AcDbLine
 10
0.0
 20
0.0
 30
0.0
 11
297.0
 21
0.0
 31
0.0
  0
LINE
  5
C3
330
1F
100
AcDbEntity
  8
0
  6
Continuous
 62
     7
100
AcDbLine
 10
0.0
 20
0.0
 30
0.0
 11
0.0
 21
210.0
 31
0.0
  0
ARC
  5
C4
330
1F
100
AcDbEntity
  8
0
  6
Continuous
 62
     7
100
AcDbCircle
 10
301.6251979835
 20
86.7434494309
 30
0.0
 40
159.2595221591922
100
AcDbArc
 50
156.0446773747812
 51
156.437458983079
  0
ARC
  5
C5
330
1F
100
AcDbEntity
  8
0
  6
Continuous
 62
     7
100
AcDbCircle
 10
190.3052387703
 20
149.2176473026
 30
0.0
 40
1.00000000001902
100
AcDbArc
 50
225.0
 51
270.0
  0
ARC
  5
C6
330
1F
100
AcDbEntity
  8
RUNDUNGEN
  6
Continuous
 62
     7
100
AcDbCircle
 10
185.0143116455
 20
151.6801473026
 30
0.0
 40
1.00000000001904
100
AcDbArc
 50
44.99999999999885
 51
90.0
  0
ARC
  5
C7
330
1F
100
AcDbEntity
  8
RUNDUNGEN
  6
Continuous
 62
     7
100
AcDbCircle
 10
190.3052387703
 20
122.2176473026
 30
0.0
 40
1.0
100
AcDbArc
 50
90.0
 51
135.0
  0
ARC
  5
C8
330
1F
100
AcDbEntity
  8
RUNDUNGEN
  6
Continuous
 62
     7
100
AcDbCircle
 10
190.3052387703
 20
149.2176473026
 30
0.0
 40
1.00000000001902
100
AcDbArc
 50
225.0
 51
270.0
  0
ARC
  5
C9
330
1F
100
AcDbEntity
  8
DEFAULT_1
  6
CENTER
 62
     5
100
AcDbCircle
 10
201.3910252079
 20
150.6801473026
 30
0.0
 40
2.0
100
AcDbArc
 50
90.0
 51
180.0
  0
ARC
  5
CA
330
1F
100
AcDbEntity
  8
RUNDUNGEN
  6
Continuous
 62
     7
100
AcDbCircle
 10
183.3910252079
 20
156.6801473026
 30
0.0
 40
4.0
100
AcDbArc
 50
180.0
 51
270.0
  0
ARC
  5
CB
330
1F
100
AcDbEntity
  8
RUNDUNGEN
  6
Continuous
 62
     7
100
AcDbCircle
 10
185.0143116455
 20
119.7551473026
 30
0.0
 40
1.0
100
AcDbArc
 50
270.0
 51
315.0000000000011
  0
ARC
  5
CC
330
1F
100
AcDbEntity
  8
DEFAULT_1
  6
CENTER
 62
     5
100
AcDbCircle
 10
201.3910252079
 20
120.7551473026
 30
0.0
 40
2.0
100
AcDbArc
 50
180.0
 51
270.0
  0
ARC
  5
CD
330
1F
100
AcDbEntity
  8
RUNDUNGEN
  6
Continuous
 62
     7
100
AcDbCircle
 10
183.3910252079
 20
114.7551473026
 30
0.0
 40
4.0
100
AcDbArc
 50
90.0
 51
179.9999999998996
  0
ARC
  5
CE
330
1F
100
AcDbEntity
  8
FASEN
  6
Continuous
 62
     7
100
AcDbCircle
 10
169.4039772799
 20
197.96692107
 30
0.0
 40
31.19085047968346
100
AcDbArc
 50
261.313403561717
 51
269.9762077958475
  0
ARC
  5
CF
330
1F
100
AcDbEntity
  8
FASEN
  6
Continuous
 62
     7
100
AcDbCircle
 10
169.3498047151
 20
198.3381827533
 30
0.0
 40
31.56213639100007
100
AcDbArc
 50
270.0748289314006
 51
278.6384254927517
  0
ARC
  5
D0
330
1F
100
AcDbEntity
  8
FASEN
  6
Continuous
 62
     7
100
AcDbCircle
 10
169.2142319793
 20
199.3367036908
 30
0.0
 40
32.56969669199995
100
AcDbArc
 50
278.6103816355992
 51
279.0127404964009
  0
ARC
  5
D1
330
1F
100
AcDbEntity
  8
FASEN
  6
Continuous
 62
     7
100
AcDbCircle
 10
169.5783765867
 20
199.4039747326
 30
0.0
 40
32.63779003090037
100
AcDbArc
 50
260.8474859290995
 51
261.3917671613992
  0
ARC
  5
D2
330
1F
100
AcDbEntity
  8
ACHSEN
  6
Continuous
 62
     7
100
AcDbCircle
 10
55.6328082299
 20
284.1135868553
 30
0.0
 40
144.4768984251774
100
AcDbArc
 50
296.1871039389462
 51
296.8519184684686
  0
ARC
  5
D3
330
1F
100
AcDbEntity
  8
0
  6
Continuous
 62
     7
100
AcDbCircle
 10
155.3910252079
 20
156.3427707833
 30
0.0
 40
0.1999999999633866
100
AcDbArc
 50
181.4391666598508
 51
271.4391666598506
  0
ARC
  5
D4
330
1F
100
AcDbEntity
  8
0
  6
Continuous
 62
     7
100
AcDbCircle
 10
156.9910252079
 20
156.3829683524
 30
0.0
 40
0.1999999999634151
100
AcDbArc
 50
271.4391666598506
 51
0.0
  0
ARC
  5
D5
330
1F
100
AcDbEntity
  8
0
  6
Continuous
 62
     7
100
AcDbCircle
 10
156.7910252079
 20
159.1676473026
 30
0.0
 40
1.000000000008082
100
AcDbArc
 50
293.5781784780001
 51
306.9599393197851
  0
ARC
  5
D6
330
1F
100
AcDbEntity
  8
0
  6
Continuous
 62
     7
100
AcDbCircle
 10
156.7910252079
 20
112.2676473026
 30
0.0
 40
0.9999999999998929
100
AcDbArc
 50
53.0400606802154
 51
135.0
  0
ARC
  5
D7
330
1F
100
AcDbEntity
  8
0
  6
Continuous
 62
     7
100
AcDbCircle
 10
48.6390140124
 20
116.4081584733
 30
0.0
 40
110.4813700652845
100
AcDbArc
 50
13.46409039976459
 51
14.41116213518667
  0
SPLINE
  5
D8
330
1F
100
AcDbEntity
  8
0
  6
Continuous
 62
     7
100
AcDbSpline
210
0.0
220
0.0
230
1.0
 70
     8
 71
     3
 72
    15
 73
    11
 74
     9
 42
0.0000000001
 43
0.0000000001
 44
0.00000001
 40
0.0
 40
0.0
 40
0.0
 40
0.0
 40
2.768071363525065
 40
5.543987164341782
 40
7.429045840015831
 40
9.310745244505334
 40
11.52272334251889
 40
13.73599890429955
 40
17.16735239788668
 40
20.5979918751669
 40
20.5979918751669
 40
20.5979918751669
 40
20.5979918751669
 10
171.2853627752
 20
105.8036924561
 30
0.0
 10
171.7663523886346
 20
106.601202464082
 30
0.0
 10
172.729694691944
 20
108.1984825436157
 30
0.0
 10
173.1076366664144
 20
110.690356407559
 30
0.0
 10
173.2494397042443
 20
112.8615401531499
 30
0.0
 10
173.2165987974929
 20
114.857583191812
 30
0.0
 10
173.0549143708089
 20
116.9543913253586
 30
0.0
 10
172.7066302048068
 20
119.5510171835251
 30
0.0
 10
172.1472032702789
 20
122.5266206779599
 30
0.0
 10
171.5726230111437
 20
124.7411068236713
 30
0.0
 10
171.2853627752
 20
125.8482346837
 30
0.0
 11
171.2853627752
 21
105.8036924561
 31
0.0
 11
172.5584882841028
 21
108.2616124125161
 31
0.0
 11
173.1046831418326
 21
110.9832625940445
 31
0.0
 11
173.2238844420043
 21
112.8645486596845
 31
0.0
 11
173.200990523484
 21
114.746108788235
 31
0.0
 11
173.0342781175561
 21
116.9517955474557
 31
0.0
 11
172.7456030169227
 21
119.1461645680741
 31
0.0
 11
172.1092547921355
 21
122.5179960785091
 31
0.0
 11
171.2853627752
 21
125.8482346837
 31
0.0
  0
SPLINE
  5
D9
330
1F
100
AcDbEntity
  8
0
  6
Continuous
 62
     7
100
AcDbSpline
210
0.0
220
0.0
230
1.0
 70
     8
 71
     3
 72
    15
 73
    11
 74
     9
 42
0.0000000001
 43
0.0000000001
 44
0.00000001
 40
0.0
 40
0.0
 40
0.0
 40
0.0
 40
4.908005104415901
 40
9.81581696755503
 40
11.81736697981858
 40
13.8179837723368
 40
15.47664584493371
 40
17.13807097055927
 40
18.87967154026997
 40
20.6086920609107
 40
20.6086920609107
 40
20.6086920609107
 40
20.6086920609107
 10
171.285362774257
 20
145.587059920408
 30
0.0
 10
171.6870225575523
 20
147.1736008172419
 30
0.0
 10
172.4903263097236
 20
150.3466201445548
 30
0.0
 10
173.062052191996
 20
154.2543341228643
 30
0.0
 10
173.2427083468203
 20
157.2202567960987
 30
0.0
 10
173.2291006786002
 20
159.108533304177
 30
0.0
 10
173.0835678217372
 20
160.8794047967559
 30
0.0
 10
172.7700561494362
 20
162.536733246825
 30
0.0
 10
172.2660538019984
 20
164.1911192368393
 30
0.0
 10
171.6114688872362
 20
165.1526028831379
 30
0.0
 10
171.2853627752
 20
165.6316021491
 30
0.0
 11
171.285362774257
 21
145.587059920408
 31
0.0
 11
172.4082356059286
 21
150.3648910924846
 31
0.0
 11
173.1046831415168
 21
155.2230366351934
 31
0.0
 11
173.2200248583501
 21
157.2212605315449
 31
0.0
 11
173.200990523638
 21
159.2217867734643
 31
0.0
 11
173.0549840345853
 21
160.8740101167887
 31
0.0
 11
172.7456030175411
 21
162.5063755275814
 31
0.0
 11
172.1858122078428
 21
164.1555592025533
 31
0.0
 11
171.2853627752
 21
165.6316021491
 31
0.0
  0
SPLINE
  5
DA
330
1F
100
AcDbEntity
  8
0
  6
Continuous
 62
     7
100
AcDbSpline
210
0.0
220
0.0
230
1.0
 70
     8
 71
     3
 72
    15
 73
    11
 74
     9
 42
0.0000000001
 43
0.0000000001
 44
0.00000001
 40
0.0
 40
0.0
 40
0.0
 40
0.0
 40
4.908005104137992
 40
9.815816966999382
 40
11.8173669790906
 40
13.8179837714367
 40
15.4766458438581
 40
17.13807096930751
 40
18.87967153820331
 40
20.60869205813091
 40
20.60869205813091
 40
20.60869205813091
 40
20.60869205813091
 10
167.496687640808
 20
125.848234682106
 30
0.0
 10
167.0950278575975
 20
124.2616937853462
 30
0.0
 10
166.2917241055956
 20
121.0886744581813
 30
0.0
 10
165.7199982235482
 20
117.1809604800821
 30
0.0
 10
165.5393420689228
 20
114.215037807043
 30
0.0
 10
165.5529497372812
 20
112.3267612991384
 30
0.0
 10
165.6984825942852
 20
110.5558898067465
 30
0.0
 10
166.0119942666939
 20
108.8985613570891
 30
0.0
 10
166.5159966141792
 20
107.2441753677019
 30
0.0
 10
167.1705815286832
 20
106.2826917218519
 30
0.0
 10
167.4966876406
 20
105.8036924561
 30
0.0
 11
167.496687640808
 21
125.848234682106
 31
0.0
 11
166.3738148093945
 21
121.0704035102543
 31
0.0
 11
165.6773672740914
 21
116.2122579677851
 31
0.0
 11
165.5620255573949
 21
114.2140340715983
 31
0.0
 11
165.5810598922547
 21
112.2135078298525
 31
0.0
 11
165.7270663814393
 21
110.561284486716
 31
0.0
 11
166.0364473986332
 21
108.9289190761309
 31
0.0
 11
166.5962382082572
 21
107.2797354019943
 31
0.0
 11
167.4966876406
 21
105.8036924561
 31
0.0
  0
SPLINE
  5
DB
330
1F
100
AcDbEntity
  8
0
  6
Continuous
 62
     7
100
AcDbSpline
210
0.0
220
0.0
230
1.0
 70
     8
 71
     3
 72
    15
 73
    11
 74
     9
 42
0.0000000001
 43
0.0000000001
 44
0.00000001
 40
0.0
 40
0.0
 40
0.0
 40
0.0
 40
2.768071362230383
 40
5.54398716261306
 40
7.429045838112486
 40
9.310745242426274
 40
11.52272334027882
 40
13.73599890189864
 40
17.16735239697658
 40
20.59799187648065
 40
20.59799187648065
 40
20.59799187648065
 40
20.59799187648065
 10
167.4966876406
 20
165.6316021491
 30
0.0
 10
167.0156980273157
 20
164.8340921415368
 30
0.0
 10
166.0523557241572
 20
163.2368120625927
 30
0.0
 10
165.6744137496045
 20
160.7449381993046
 30
0.0
 10
165.5326107115926
 20
158.5737544539891
 30
0.0
 10
165.5654516182061
 20
156.5777114154941
 30
0.0
 10
165.7271360447496
 20
154.4809032821025
 30
0.0
 10
166.0754202106754
 20
151.8842774235343
 30
0.0
 10
166.634847145299
 20
148.9086739278982
 30
0.0
 10
167.2094274051905
 20
146.6941877810989
 30
0.0
 10
167.496687641543
 20
145.587059920408
 30
0.0
 11
167.4966876406
 21
165.6316021491
 31
0.0
 11
166.2235621320462
 21
163.1736821939612
 31
0.0
 11
165.6773672741588
 21
160.4520320129071
 31
0.0
 11
165.5581659738374
 21
158.5707459474515
 31
0.0
 11
165.5810598922225
 21
156.6891858190751
 31
0.0
 11
165.7477722980053
 21
154.483499060005
 31
0.0
 11
166.0364473985028
 21
152.2891300395309
 31
0.0
 11
166.6727956235443
 21
148.9172985276267
 31
0.0
 11
167.496687641543
 21
145.587059920408
 31
0.0
  0
SPLINE
  5
DC
330
1F
100
AcDbEntity
  8
0
  6
Continuous
 62
     7
100
AcDbSpline
210
0.0
220
0.0
230
1.0
 70
     8
 71
     3
 72
    19
 73
    15
 74
    13
 42
0.0000000001
 43
0.0000000001
 44
0.00000001
 40
0.0
 40
0.0
 40
0.0
 40
0.0
 40
0.0436157294392686
 40
0.0872604309943714
 40
0.1117843750053272
 40
0.1361038377413908
 40
0.1517159520443266
 40
0.167320946764396
 40
0.1806756934667071
 40
0.1940407092300356
 40
0.2203437975444661
 40
0.2467804307171365
 40
0.2752444903108526
 40
0.303662079128571
 40
0.303662079128571
 40
0.303662079128571
 40
0.303662079128571
 10
156.996048319
 20
114.1902185625
 30
0.0
 10
157.0096409878986
 20
114.1849922904623
 30
0.0
 10
157.0368353547407
 20
114.1745362747917
 30
0.0
 10
157.0740554576029
 20
114.1687734637804
 30
0.0
 10
157.104974572402
 20
114.1699956708902
 30
0.0
 10
157.1260408642702
 20
114.1753464372524
 30
0.0
 10
157.1425389643221
 20
114.1839601510451
 30
0.0
 10
157.1543127499085
 20
114.1931765189237
 30
0.0
 10
157.1636876486107
 20
114.2037994685854
 30
0.0
 10
157.1733885374073
 20
114.2186306075311
 30
0.0
 10
157.1819902919007
 20
114.2391156903618
 30
0.0
 10
157.187953353011
 20
114.2655997792304
 30
0.0
 10
157.1907950210532
 20
114.293285722324
 30
0.0
 10
157.1909544221598
 20
114.3122515364279
 30
0.0
 10
157.1910340576
 20
114.3217266962
 30
0.0
 11
156.996048319
 21
114.1902185625
 31
0.0
 11
157.0372910571515
 21
114.1760281289516
 31
0.0
 11
157.0804594221161
 21
114.1695975582064
 31
0.0
 11
157.1049509617046
 21
114.1708578432701
 31
0.0
 11
157.128445836727
 21
114.1771369447546
 31
0.0
 11
157.1422840890558
 21
114.1843647304107
 31
0.0
 11
157.1545484938961
 21
114.1940135766696
 31
0.0
 11
157.1634281108295
 21
114.2039886286794
 31
0.0
 11
157.1707835221749
 21
114.2151475520278
 31
0.0
 11
157.1812292437731
 21
114.2392875469567
 31
0.0
 11
157.1873038312246
 21
114.26501680969
 31
0.0
 11
157.1903507247269
 21
114.2933173243239
 31
0.0
 11
157.1910340576
 21
114.3217266962
 31
0.0
  0
SPLINE
  5
DD
330
1F
100
AcDbEntity
  8
0
  6
Continuous
 62
     7
100
AcDbSpline
210
0.0
220
0.0
230
1.0
 70
     8
 71
     3
 72
    19
 73
    15
 74
    13
 42
0.0000000001
 43
0.0000000001
 44
0.00000001
 40
0.0
 40
0.0
 40
0.0
 40
0.0
 40
0.1045384651149148
 40
0.2092514255745253
 40
0.3087263831704105
 40
0.4083161306373573
 40
0.4883199216092896
 40
0.568251331753387
 40
0.6382737892418031
 40
0.708296278866765
 40
0.8338795436097123
 40
0.9595807699856482
 40
1.074624552534701
 40
1.189598319402471
 40
1.189598319402471
 40
1.189598319402471
 40
1.189598319402471
 10
156.996048319
 20
114.1902185625
 30
0.0
 10
156.963107194973
 20
114.201924985361
 30
0.0
 10
156.8971699616772
 20
114.2253573714148
 30
0.0
 10
156.7933194875279
 20
114.2337009093582
 30
0.0
 10
156.69242599356
 20
114.2194493201498
 30
0.0
 10
156.6041329482888
 20
114.1884195397821
 30
0.0
 10
156.5276647859996
 20
114.1475247304498
 30
0.0
 10
156.464586748898
 20
114.103719011488
 30
0.0
 10
156.4082113564071
 20
114.0567263664638
 30
0.0
 10
156.3443847708109
 20
113.995272876376
 30
0.0
 10
156.273685539145
 20
113.9145529641458
 30
0.0
 10
156.2018240148775
 20
113.8156952312874
 30
0.0
 10
156.1383589781202
 20
113.7154182720914
 30
0.0
 10
156.1020615942862
 20
113.6478596703803
 30
0.0
 10
156.0839184267
 20
113.6140906517
 30
0.0
 11
156.996048319
 21
114.1902185625
 31
0.0
 11
156.8961139266255
 21
114.2209009338119
 31
0.0
 11
156.791785955129
 21
114.2298719121109
 31
0.0
 11
156.6932467611544
 21
114.2162596220927
 31
0.0
 11
156.5991367472384
 21
114.1836801334339
 31
0.0
 11
156.5284576196479
 21
114.1461959035108
 31
0.0
 11
156.46263661617
 21
114.1008458668099
 31
0.0
 11
156.4087713309153
 21
114.0561057774363
 31
0.0
 11
156.3582427865028
 21
114.0076288215415
 31
0.0
 11
156.2752095890692
 21
113.9134128753994
 31
0.0
 11
156.2008985901268
 21
113.8120290810899
 31
0.0
 11
156.1395324218826
 21
113.7147189310631
 31
0.0
 11
156.0839184267
 21
113.6140906517
 31
0.0
  0
SPLINE
  5
DE
330
1F
100
AcDbEntity
  8
0
  6
Continuous
 62
     7
100
AcDbSpline
210
0.0
220
0.0
230
1.0
 70
     8
 71
     3
 72
    11
 73
     7
 74
     5
 42
0.0000000001
 43
0.0000000001
 44
0.00000001
 40
0.0
 40
0.0
 40
0.0
 40
0.0
 40
0.0858653726977546
 40
0.1724244651330926
 40
0.3262359599524381
 40
0.4767776583050002
 40
0.4767776583050002
 40
0.4767776583050002
 40
0.4767776583050002
 10
167.9297003425
 20
105.6370545423
 30
0.0
 10
167.901034637931
 20
105.6378822759475
 30
0.0
 10
167.8434716340952
 20
105.6395444306318
 30
0.0
 10
167.7365127958921
 20
105.6589781980542
 30
0.0
 10
167.6095854119603
 20
105.7000520992704
 30
0.0
 10
167.5340497270016
 20
105.7693939936954
 30
0.0
 10
167.4966876406
 20
105.8036924561
 30
0.0
 11
167.9297003425
 21
105.6370545423
 31
0.0
 11
167.8439592525885
 21
105.6416727377613
 31
0.0
 11
167.7586605471365
 21
105.6563903235494
 31
0.0
 11
167.6144710760433
 21
105.7099381747149
 31
0.0
 11
167.4966876406
 21
105.8036924561
 31
0.0
  0
SPLINE
  5
DF
330
1F
100
AcDbEntity
  8
0
  6
Continuous
 62
     7
100
AcDbSpline
210
0.0
220
0.0
230
1.0
 70
     8
 71
     3
 72
    17
 73
    13
 74
    11
 42
0.0000000001
 43
0.0000000001
 44
0.00000001
 40
0.0
 40
0.0
 40
0.0
 40
0.0
 40
0.088598567849758
 40
0.1772066588822143
 40
0.2663651706425435
 40
0.3556835831334134
 40
0.446276424807455
 40
0.5364496693659748
 40
0.5824215302699307
 40
0.6284087157754332
 40
0.6749841995845554
 40
0.721387690247608
 40
0.721387690247608
 40
0.721387690247608
 40
0.721387690247608
 10
167.4966876406
 20
125.8482346837
 30
0.0
 10
167.5049393106984
 20
125.8766010479475
 30
0.0
 10
167.5214435378415
 20
125.9333368254541
 30
0.0
 10
167.5529841148192
 20
126.0164355958469
 30
0.0
 10
167.5904149114133
 20
126.097318221925
 30
0.0
 10
167.6359248612059
 20
126.1747975714628
 30
0.0
 10
167.69038121747
 20
126.2468244877
 30
0.0
 10
167.7458201602834
 20
126.2989822873393
 30
0.0
 10
167.7965672688917
 20
126.3326219877861
 30
0.0
 10
167.8384201853816
 20
126.3524363590955
 30
0.0
 10
167.8831861188581
 20
126.3657296188004
 30
0.0
 10
167.914214733601
 20
126.367528307409
 30
0.0
 10
167.9297003425
 20
126.3684259881
 30
0.0
 11
167.4966876406
 21
125.8482346837
 31
0.0
 11
167.5225622799712
 21
125.9329707991552
 31
0.0
 11
167.5538788874561
 21
126.0158602670751
 31
0.0
 11
167.5916838071479
 21
126.0966069590595
 31
0.0
 11
167.6371499619142
 21
126.1734874349988
 31
0.0
 11
167.6924126192859
 21
126.2452725425267
 31
0.0
 11
167.7586655610201
 21
126.3064424840485
 31
0.0
 11
167.7971027120809
 21
126.3316614731896
 31
0.0
 11
167.8386999440391
 21
126.351269928614
 31
0.0
 11
167.8835117173705
 21
126.3639656232761
 31
0.0
 11
167.9297003425
 21
126.3684259881
 31
0.0
  0
SPLINE
  5
E0
330
1F
100
AcDbEntity
  8
0
  6
Continuous
 62
     7
100
AcDbSpline
210
0.0
220
0.0
230
1.0
 70
     8
 71
     3
 72
    11
 73
     7
 74
     5
 42
0.0000000001
 43
0.0000000001
 44
0.00000001
 40
0.0
 40
0.0
 40
0.0
 40
0.0
 40
0.0396067480826806
 40
0.0793078945975201
 40
0.2768264669979065
 40
0.4765469382523841
 40
0.4765469382523841
 40
0.4765469382523841
 40
0.4765469382523841
 10
171.2853627752
 20
105.8036924561
 30
0.0
 10
171.2765612004075
 20
105.793828954559
 30
0.0
 10
171.2589370732136
 20
105.7740784428798
 30
0.0
 10
171.1882662987526
 20
105.7144858000001
 30
0.0
 10
171.0518839194469
 20
105.6502507412015
 30
0.0
 10
170.9191066837373
 20
105.6414695000946
 30
0.0
 10
170.8523500733
 20
105.6370545423
 30
0.0
 11
171.2853627752
 21
105.8036924561
 31
0.0
 11
171.2583040324427
 21
105.7747698190474
 31
0.0
 11
171.2281776874165
 21
105.7489128205759
 31
0.0
 11
171.0503987852628
 21
105.6628416384525
 31
0.0
 11
170.8523500733
 21
105.6370545423
 31
0.0
  0
SPLINE
  5
E1
330
1F
100
AcDbEntity
  8
0
  6
Continuous
 62
     7
100
AcDbSpline
210
0.0
220
0.0
230
1.0
 70
     8
 71
     3
 72
    17
 73
    13
 74
    11
 42
0.0000000001
 43
0.0000000001
 44
0.00000001
 40
0.0
 40
0.0
 40
0.0
 40
0.0
 40
0.0464149716823467
 40
0.0930041340830842
 40
0.1389991042928745
 40
0.1849760066259464
 40
0.2751398214958666
 40
0.3657285223050968
 40
0.4550419001511992
 40
0.5441929285311318
 40
0.6327944775083072
 40
0.7213871622191497
 40
0.7213871622191497
 40
0.7213871622191497
 40
0.7213871622191497
 10
170.8523500733
 20
126.3684259881
 30
0.0
 10
170.8678395077924
 20
126.3675260215286
 30
0.0
 10
170.8988765070662
 20
126.3657227109019
 30
0.0
 10
170.9436488663073
 20
126.3524131894779
 30
0.0
 10
170.9855118786563
 20
126.3326015843259
 30
0.0
 10
171.0362677186557
 20
126.2989720932287
 30
0.0
 10
171.0916994644081
 20
126.24680835357
 30
0.0
 10
171.1461360410622
 20
126.1747749894998
 30
0.0
 10
171.1916408962823
 20
126.0972996752153
 30
0.0
 10
171.2290719187841
 20
126.016424100202
 30
0.0
 10
171.2606092708091
 20
125.9333311483675
 30
0.0
 10
171.2771118822546
 20
125.8765992259044
 30
0.0
 10
171.2853627752
 20
125.8482346837
 30
0.0
 11
170.8523500733
 21
126.3684259881
 31
0.0
 11
170.8985494202489
 21
126.3639572144686
 31
0.0
 11
170.9433718810752
 21
126.3512490651669
 31
0.0
 11
170.9849777934737
 21
126.3316407674823
 31
0.0
 11
171.0234233142948
 21
126.3064253460712
 31
0.0
 11
171.0896653823021
 21
126.2452575282417
 31
0.0
 11
171.1449134260014
 21
126.1734663979978
 31
0.0
 11
171.1903733316818
 21
126.0965880757098
 31
0.0
 11
171.2281764759681
 21
126.015848815475
 31
0.0
 11
171.2594905671461
 21
125.9329653902631
 31
0.0
 11
171.2853627752
 21
125.8482346837
 31
0.0
  0
SPLINE
  5
E2
330
1F
100
AcDbEntity
  8
0
  6
Continuous
 62
     7
100
AcDbSpline
210
0.0
220
0.0
230
1.0
 70
     8
 71
     3
 72
    25
 73
    21
 74
    19
 42
0.0000000001
 43
0.0000000001
 44
0.00000001
 40
0.0
 40
0.0
 40
0.0
 40
0.0
 40
0.0214698908734801
 40
0.0429923127336863
 40
0.0664085474965768
 40
0.0899445748666971
 40
0.1112530590375071
 40
0.132541591797056
 40
0.1521215415386205
 40
0.1716871741757259
 40
0.2083017736127832
 40
0.2449693017045229
 40
0.2797218990489719
 40
0.3144520847656399
 40
0.3480144519722199
 40
0.3815822145650649
 40
0.4142922599042246
 40
0.4469999924880091
 40
0.510496648635969
 40
0.5740011479758467
 40
0.5740011479758467
 40
0.5740011479758467
 40
0.5740011479758467
 10
156.996048319
 20
152.0621255896
 30
0.0
 10
157.0029466927566
 20
152.0600931703113
 30
0.0
 10
157.0167603187151
 20
152.0560233589563
 30
0.0
 10
157.0392963645873
 20
152.0567690053009
 30
0.0
 10
157.0611906626504
 20
152.0641627446246
 30
0.0
 10
157.0803660534599
 20
152.0767998610232
 30
0.0
 10
157.0960934961641
 20
152.092383682188
 30
0.0
 10
157.1086322150532
 20
152.1089415654822
 30
0.0
 10
157.119389766873
 20
152.1259928504679
 30
0.0
 10
157.1313065139567
 20
152.1482785540181
 30
0.0
 10
157.1434727120586
 20
152.1767997412984
 30
0.0
 10
157.1546985047017
 20
152.2110462568211
 30
0.0
 10
157.1637606442029
 20
152.2452651653685
 30
0.0
 10
157.1709328234124
 20
152.278868199414
 30
0.0
 10
157.1766927138761
 20
152.312336940189
 30
0.0
 10
157.1812202309058
 20
152.3453129710087
 30
0.0
 10
157.1847797595432
 20
152.3781198110204
 30
0.0
 10
157.1882672556943
 20
152.420953350758
 30
0.0
 10
157.1907135823741
 20
152.4741548409565
 30
0.0
 10
157.1909272281267
 20
152.5164905196127
 30
0.0
 10
157.1910340576
 20
152.5376596662
 30
0.0
 11
156.996048319
 21
152.0621255896
 31
0.0
 11
157.0169369697168
 21
152.0571636861998
 31
0.0
 11
157.0384515393928
 21
152.0577450074382
 31
0.0
 11
157.0606989042385
 21
152.0650508138887
 31
0.0
 11
157.0804594221278
 21
152.0778362163898
 31
0.0
 11
157.0957128734757
 21
152.0927151854279
 31
0.0
 11
157.1087144301706
 21
152.1095722655595
 31
0.0
 11
157.1191895009235
 21
152.1261145545367
 31
0.0
 11
157.1284458367446
 21
152.1433521363757
 31
0.0
 11
157.1429695548901
 21
152.1769630052006
 31
0.0
 11
157.1545484939628
 21
152.2117543228863
 31
0.0
 11
157.1634884705035
 21
152.2453373519581
 31
0.0
 11
157.1707835222448
 21
152.2792927347421
 31
0.0
 11
157.1765044862818
 21
152.312363916502
 31
0.0
 11
157.1810995276503
 21
152.3456156875874
 31
0.0
 11
157.1846341586491
 21
152.3781341969288
 31
0.0
 11
157.1873038312967
 21
152.4107327953454
 31
0.0
 11
157.1902805949206
 21
152.4741596368268
 31
0.0
 11
157.1910340576
 21
152.5376596662
 31
0.0
  0
SPLINE
  5
E3
330
1F
100
AcDbEntity
  8
0
  6
Continuous
 62
     7
100
AcDbSpline
210
0.0
220
0.0
230
1.0
 70
     8
 71
     3
 72
    19
 73
    15
 74
    13
 42
0.0000000001
 43
0.0000000001
 44
0.00000001
 40
0.0
 40
0.0
 40
0.0
 40
0.0
 40
0.1037214442505886
 40
0.2077048967710512
 40
0.3081965148244311
 40
0.4087745519527659
 40
0.4905582517917396
 40
0.5722694203036337
 40
0.6447917331716929
 40
0.7173167610045541
 40
0.8507493763960825
 40
0.9843287148313404
 40
1.111803128116397
 40
1.239193738902847
 40
1.239193738902847
 40
1.239193738902847
 40
1.239193738902847
 10
156.996048319
 20
152.0621255896
 30
0.0
 10
156.9628965194078
 20
152.072351718086
 30
0.0
 10
156.896509176252
 20
152.0928298070377
 30
0.0
 10
156.792572665407
 20
152.0963384693249
 30
0.0
 10
156.6919511562437
 20
152.0779478546858
 30
0.0
 10
156.6037275291042
 20
152.0431504653895
 30
0.0
 10
156.5274135571372
 20
151.9988685705699
 30
0.0
 10
156.4642616525057
 20
151.9516992101449
 30
0.0
 10
156.407953953707
 20
151.9011619098466
 30
0.0
 10
156.3435995817383
 20
151.8341717067053
 30
0.0
 10
156.2726866801456
 20
151.7456518599045
 30
0.0
 10
156.2006579661121
 20
151.6354842122147
 30
0.0
 10
156.1374347461247
 20
151.5223393582643
 30
0.0
 10
156.1017532890195
 20
151.4452141280725
 30
0.0
 10
156.0839184267
 20
151.4066641928
 30
0.0
 11
156.996048319
 21
152.0621255896
 31
0.0
 11
156.8956804090847
 21
152.0882870241297
 31
0.0
 11
156.7917859551226
 21
152.0925882837135
 31
0.0
 11
156.6928808478225
 21
152.0748021922674
 31
0.0
 11
156.5991367472034
 21
152.0383606616779
 31
0.0
 11
156.5282686811482
 21
151.9975404366301
 31
0.0
 11
156.4626366161248
 21
151.9488665514314
 31
0.0
 11
156.408579182972
 21
151.9005211298833
 31
0.0
 11
156.3582427865645
 21
151.848308805104
 31
0.0
 11
156.2744685427204
 21
151.7444524672204
 31
0.0
 11
156.200898590113
 21
151.6329585134375
 31
0.0
 11
156.1388721563025
 21
151.5215922368942
 31
0.0
 11
156.0839184267
 21
151.4066641928
 31
0.0
  0
SPLINE
  5
E4
330
1F
100
AcDbEntity
  8
0
  6
Continuous
 62
     7
100
AcDbSpline
210
0.0
220
0.0
230
1.0
 70
     8
 71
     3
 72
    15
 73
    11
 74
     9
 42
0.0000000001
 43
0.0000000001
 44
0.00000001
 40
0.0
 40
0.0
 40
0.0
 40
0.0
 40
0.7059601945654677
 40
1.412231218821386
 40
2.201545610465365
 40
2.990774745215347
 40
3.84916044299167
 40
4.707601669142824
 40
5.617419625078151
 40
6.527149777949685
 40
6.527149777949685
 40
6.527149777949685
 40
6.527149777949685
 10
155.6440539587
 20
150.4074187353
 30
0.0
 10
155.6052398502131
 20
150.1752615291178
 30
0.0
 10
155.5275945436394
 20
149.7108448994426
 30
0.0
 10
155.4552911159518
 20
148.9801171895135
 30
0.0
 10
155.4103963436398
 20
148.2196826031189
 30
0.0
 10
155.3965114471521
 20
147.4072746291317
 30
0.0
 10
155.4122042399077
 20
146.5718889715081
 30
0.0
 10
155.4592285781848
 20
145.6974775501081
 30
0.0
 10
155.5335815541438
 20
144.8076999747962
 30
0.0
 10
155.6072310085098
 20
144.2056268040335
 30
0.0
 10
155.6440539587
 20
143.9046047453
 30
0.0
 11
155.6440539587
 21
150.4074187353
 31
0.0
 11
155.5354243524145
 21
149.7098662964474
 31
0.0
 11
155.4624186382123
 21
149.0073786272337
 31
0.0
 11
155.4159010238798
 21
148.2194361671434
 31
0.0
 11
155.4014268396758
 21
147.4303397692744
 31
0.0
 11
155.4171999076141
 21
146.5720990009147
 31
0.0
 11
155.462418634218
 21
145.7148495590833
 31
0.0
 11
155.5393672127881
 21
144.8082914367335
 31
0.0
 11
155.6440539587
 21
143.9046047453
 31
0.0
  0
SPLINE
  5
E5
330
1F
100
AcDbEntity
  8
0
  6
Continuous
 62
     7
100
AcDbSpline
210
0.0
220
0.0
230
1.0
 70
     8
 71
     3
 72
    27
 73
    23
 74
    21
 42
0.0000000001
 43
0.0000000001
 44
0.00000001
 40
0.0
 40
0.0
 40
0.0
 40
0.0
 40
0.1984187744389023
 40
0.3968374365353136
 40
0.5029769397824279
 40
0.6091160619707968
 40
0.719750697326472
 40
0.8303871006980644
 40
0.9454468408799367
 40
1.060500806707321
 40
1.179956515050195
 40
1.299443223357239
 40
1.360928421960355
 40
1.422345300199727
 40
1.484949305665937
 40
1.54780580170185
 40
1.612731563732009
 40
1.676696646136504
 40
1.709481594175493
 40
1.743841351790333
 40
1.784580073389274
 40
1.821170232140679
 40
1.821170232140679
 40
1.821170232140679
 40
1.821170232140679
 10
155.191088297
 20
152.1751780513
 30
0.0
 10
155.1910866386465
 20
152.1090384620753
 30
0.0
 10
155.1910833219406
 20
151.9767593210733
 30
0.0
 10
155.1915475343426
 20
151.8091004101948
 30
0.0
 10
155.1925286498173
 20
151.6722044969225
 30
0.0
 10
155.1938102955449
 20
151.5645738478164
 30
0.0
 10
155.1958255110204
 20
151.4554546222824
 30
0.0
 10
155.1988998303862
 20
151.3433847147885
 30
0.0
 10
155.2033141222251
 20
151.2298837994433
 30
0.0
 10
155.2095810384319
 20
151.1135242369689
 30
0.0
 10
155.2181122888344
 20
150.9958251749241
 30
0.0
 10
155.2279867209422
 20
150.8961536254093
 30
0.0
 10
155.2380086515177
 20
150.8159765667212
 30
0.0
 10
155.2469417533998
 20
150.7547857068632
 30
0.0
 10
155.257432368597
 20
150.6933717215751
 30
0.0
 10
155.2703576781487
 20
150.6312300187237
 30
0.0
 10
155.2862513049513
 20
150.5692618836457
 30
0.0
 10
155.3030212765954
 20
150.5180772205166
 30
0.0
 10
155.3193678473025
 20
150.4773307862026
 30
0.0
 10
155.3369082428016
 20
150.4463612748419
 30
0.0
 10
155.3585763610603
 20
150.4137047817144
 30
0.0
 10
155.3840125355124
 20
150.4061596713948
 30
0.0
 10
155.396048319
 20
150.4025895074
 30
0.0
 11
155.191088297
 21
152.1751780513
 31
0.0
 11
155.1911757144416
 21
151.9767592961179
 31
0.0
 11
155.1918222064317
 21
151.7783416872314
 31
0.0
 11
155.1926125067914
 21
151.6722051262597
 31
0.0
 11
155.1939060574838
 21
151.5660738868176
 31
0.0
 11
155.1959906621218
 21
151.4554588925185
 31
0.0
 11
155.1990662392692
 21
151.3448652463348
 31
0.0
 11
155.2036002944648
 21
151.2298948755682
 31
0.0
 11
155.2098505347644
 21
151.1150108055289
 31
0.0
 11
155.2186351736302
 21
150.9958785413193
 31
0.0
 11
155.2305619952363
 21
150.8769885737509
 31
0.0
 11
155.2382209126959
 21
150.8159822574335
 31
0.0
 11
155.2471273266151
 21
150.7552145956078
 31
0.0
 11
155.2577853645743
 21
150.6935245013683
 31
0.0
 11
155.2706809376893
 21
150.6320050468198
 31
0.0
 11
155.2870124227674
 21
150.5691668643959
 31
0.0
 11
155.3071415430599
 21
150.5084515427442
 31
0.0
 11
155.3197783350015
 21
150.478199860025
 31
0.0
 11
155.3363650205343
 21
150.4481087515977
 31
0.0
 11
155.3622770952113
 21
150.4166729786081
 31
0.0
 11
155.396048319
 21
150.4025895074
 31
0.0
  0
SPLINE
  5
E6
330
1F
100
AcDbEntity
  8
0
  6
Continuous
 62
     7
100
AcDbSpline
210
0.0
220
0.0
230
1.0
 70
     8
 71
     3
 72
    35
 73
    31
 74
    29
 42
0.0000000001
 43
0.0000000001
 44
0.00000001
 40
0.0
 40
0.0
 40
0.0
 40
0.0
 40
0.0224671170263186
 40
0.0469716776955378
 40
0.0706451029910248
 40
0.093419843525897
 40
0.1394101663464329
 40
0.1859681376575348
 40
0.2323174995928722
 40
0.2785095837775248
 40
0.3247931273477829
 40
0.3711204777354501
 40
0.463892173980902
 40
0.5566437642559038
 40
0.6496253658941954
 40
0.7426109214772589
 40
0.8358149912890545
 40
0.9290178383534677
 40
1.022429258421612
 40
1.115841003239846
 40
1.303223325692396
 40
1.49060811079281
 40
1.678620804226104
 40
1.866632541261791
 40
2.055121153296685
 40
2.243609949439624
 40
2.432418417620807
 40
2.621226802649546
 40
2.810196206269931
 40
2.999165615218691
 40
2.999165615218691
 40
2.999165615218691
 40
2.999165615218691
 10
155.396048319
 20
143.9035904894
 30
0.0
 10
155.3886536208869
 20
143.9015306809052
 30
0.0
 10
155.373193632139
 20
143.8972242689779
 30
0.0
 10
155.3581502734661
 20
143.8777708577907
 30
0.0
 10
155.3456364972089
 20
143.8579322205839
 30
0.0
 10
155.333036325701
 20
143.829665280488
 30
0.0
 10
155.3198060146391
 20
143.7935887678475
 30
0.0
 10
155.3068236216736
 20
143.7491046398981
 30
0.0
 10
155.2958290610189
 20
143.7040540575916
 30
0.0
 10
155.2864174269276
 20
143.6587385410286
 30
0.0
 10
155.2780496531466
 20
143.6132310743949
 30
0.0
 10
155.2680546579684
 20
143.5522473992302
 30
0.0
 10
155.2573836596837
 20
143.4756923538636
 30
0.0
 10
155.2468485367831
 20
143.3834509314745
 30
0.0
 10
155.2379287762687
 20
143.2909699440016
 30
0.0
 10
155.2303692500399
 20
143.1982176271615
 30
0.0
 10
155.2239266041918
 20
143.1053080092091
 30
0.0
 10
155.2184379290823
 20
143.0121954789022
 30
0.0
 10
155.213747852902
 20
142.9189703745608
 30
0.0
 10
155.2084119999521
 20
142.7943484940112
 30
0.0
 10
155.2032202740985
 20
142.6383714865275
 30
0.0
 10
155.1988387417615
 20
142.4508273670119
 30
0.0
 10
155.1957929723449
 20
142.2630477646524
 30
0.0
 10
155.1937818645808
 20
142.0748868213379
 30
0.0
 10
155.1925061415757
 20
141.8865610892123
 30
0.0
 10
155.1917659304012
 20
141.6979670878025
 30
0.0
 10
155.191361103799
 20
141.5092655792246
 30
0.0
 10
155.1911771356765
 20
141.3204035614693
 30
0.0
 10
155.1910960995588
 20
141.1314878416431
 30
0.0
 10
155.191090897853
 20
141.0055082366064
 30
0.0
 10
155.191088297
 20
140.9425184332
 30
0.0
 11
155.396048319
 21
143.9035904894
 31
0.0
 11
155.3751128531808
 21
143.8954371086037
 31
0.0
 11
155.3584291459156
 21
143.877489200495
 31
0.0
 11
155.3459613403001
 21
143.8573649641528
 31
0.0
 11
155.3363636240326
 21
143.8367113289067
 31
0.0
 11
155.3203569382596
 21
143.7935964149708
 31
0.0
 11
155.3071407072785
 21
143.7489536559694
 31
0.0
 11
155.2960776966428
 21
143.7039439553762
 31
0.0
 11
155.2865969001075
 21
143.658735293171
 31
0.0
 11
155.2781996318664
 21
143.6132198859829
 31
0.0
 11
155.2706804694699
 21
143.5675068069923
 31
0.0
 11
155.2577630415074
 21
143.4756388164891
 31
0.0
 11
155.2471270279342
 21
143.3834990709185
 31
0.0
 11
155.2381578312553
 21
143.2909510738891
 31
0.0
 11
155.2305618010873
 21
143.1982762991509
 31
0.0
 11
155.2240870905453
 21
143.1052973942699
 31
0.0
 11
155.2185754502823
 21
143.0122576580142
 31
0.0
 11
155.2138641349956
 21
142.9189651239752
 31
0.0
 11
155.209850448059
 21
142.8256396484224
 31
0.0
 11
155.2035298245496
 21
142.6383639572979
 31
0.0
 11
155.1990662036474
 21
142.4510323428395
 31
0.0
 11
155.1959662598405
 21
142.2630452070019
 31
0.0
 11
155.1939060475391
 21
142.075044758097
 31
0.0
 11
155.1925956430951
 21
141.8865607011928
 31
0.0
 11
155.1918222052139
 21
141.6980734919046
 31
0.0
 11
155.1913979603088
 21
141.5092655003545
 31
0.0
 11
155.1911943349374
 21
141.3204572251284
 31
0.0
 11
155.1911083089896
 21
141.1314878410891
 31
0.0
 11
155.191088297
 21
140.9425184332
 31
0.0
  0
SPLINE
  5
E7
330
1F
100
AcDbEntity
  8
0
  6
Continuous
 62
     7
100
AcDbSpline
210
0.0
220
0.0
230
1.0
 70
     8
 71
     3
 72
    27
 73
    23
 74
    21
 42
0.0000000001
 43
0.0000000001
 44
0.00000001
 40
0.0
 40
0.0
 40
0.0
 40
0.0
 40
0.0916761740170189
 40
0.1833469344821321
 40
0.2289150825620908
 40
0.2744823249500424
 40
0.3198039461076522
 40
0.3651308415490236
 40
0.4101361476864127
 40
0.455126241505826
 40
0.4774733445211917
 40
0.4998270698123449
 40
0.5220362035022591
 40
0.5442257439597821
 40
0.5662307722780492
 40
0.5883008845810995
 40
0.6103058235659469
 40
0.6322788945838961
 40
0.654970399318366
 40
0.6772901013936555
 40
0.7005698648055565
 40
0.7241809551175744
 40
0.7241809551175744
 40
0.7241809551175744
 40
0.7241809551175744
 10
157.1910333481
 20
140.2946014978
 30
0.0
 10
157.1909327890269
 20
140.325160878669
 30
0.0
 10
157.1907316768189
 20
140.3862778358511
 30
0.0
 10
157.1882908834349
 20
140.4625597498901
 30
0.0
 10
157.1847659079631
 20
140.5233960591838
 30
0.0
 10
157.1812233546899
 20
140.5687469504512
 30
0.0
 10
157.1766985619579
 20
140.6139305438095
 30
0.0
 10
157.1709840224312
 20
140.6587923745797
 30
0.0
 10
157.1638647658654
 20
140.7033438137872
 30
0.0
 10
157.156395161335
 20
140.7400550413319
 30
0.0
 10
157.1492755142407
 20
140.7690958667949
 30
0.0
 10
157.1432717041585
 20
140.7905804210506
 30
0.0
 10
157.1364796460797
 20
140.8117765712288
 30
0.0
 10
157.1286630597713
 20
140.8324973885552
 30
0.0
 10
157.1195567604494
 20
140.8526430820871
 30
0.0
 10
157.1089900793099
 20
140.8719875836838
 30
0.0
 10
157.0968422879088
 20
140.8904159040286
 30
0.0
 10
157.0810531585074
 20
140.9063977559729
 30
0.0
 10
157.0611091649922
 20
140.9171916761206
 30
0.0
 10
157.0380588490617
 20
140.9210540439564
 30
0.0
 10
157.0152101154078
 20
140.9143293913794
 30
0.0
 10
157.0024656016964
 20
140.9051964784626
 30
0.0
 10
156.996048319
 20
140.9005977558
 30
0.0
 11
157.1910333481
 21
140.2946014978
 31
0.0
 11
157.1902931916084
 21
140.3862746839057
 31
0.0
 11
157.1872714810182
 21
140.4778956290512
 31
0.0
 11
157.184613728729
 21
140.5233862046928
 31
0.0
 11
157.1810511931106
 21
140.5688139706384
 31
0.0
 11
157.1764968849247
 21
140.6139061830626
 31
0.0
 11
157.1707320317734
 21
140.658864985521
 31
0.0
 11
157.1635515774302
 21
140.7032937898707
 31
0.0
 11
157.1545021675206
 21
140.7473643778197
 31
0.0
 11
157.1491604119844
 21
140.7690636557102
 31
0.0
 11
157.1431239444743
 21
140.790586901153
 31
0.0
 11
157.1363003110622
 21
140.8117217928328
 31
0.0
 11
157.1284217492403
 21
140.8324655622428
 31
0.0
 11
157.1193186882949
 21
140.8524994223978
 31
0.0
 11
157.1087142463731
 21
140.8718549298465
 31
0.0
 11
157.0962539359196
 21
140.8899921292755
 31
0.0
 11
157.0805648273748
 21
140.9053761379544
 31
0.0
 11
157.060543292714
 21
140.9160552079953
 31
0.0
 11
157.0384637140973
 21
140.9193203739694
 31
0.0
 11
157.0159938002627
 21
140.9132334735446
 31
0.0
 11
156.996048319
 21
140.9005977558
 31
0.0
  0
SPLINE
  5
E8
330
1F
100
AcDbEntity
  8
0
  6
Continuous
 62
     7
100
AcDbSpline
210
0.0
220
0.0
230
1.0
 70
     8
 71
     3
 72
    27
 73
    23
 74
    21
 42
0.0000000001
 43
0.0000000001
 44
0.00000001
 40
0.0
 40
0.0
 40
0.0
 40
0.0
 40
0.1793609770344081
 40
0.3587208544340548
 40
0.4410792119703757
 40
0.5234388802208273
 40
0.6008752724998971
 40
0.6783083853297165
 40
0.7508855853080338
 40
0.8234767665822755
 40
0.8916162606771694
 40
0.9597255710104414
 40
0.9925260807067333
 40
1.025318043796957
 40
1.057920649974127
 40
1.090561319593566
 40
1.124894913152118
 40
1.15911644593381
 40
1.179139500340664
 40
1.19926723292183
 40
1.231506794996598
 40
1.263337515790817
 40
1.263337515790817
 40
1.263337515790817
 40
1.263337515790817
 10
155.191088297
 20
114.0352454234
 30
0.0
 10
155.1910742237394
 20
113.9754584478737
 30
0.0
 10
155.1910460773045
 20
113.8558848633658
 30
0.0
 10
155.1914898069938
 20
113.708858294109
 30
0.0
 10
155.1924932561108
 20
113.5941695739138
 30
0.0
 10
155.1937441194066
 20
113.5134602724127
 30
0.0
 10
155.1957324255937
 20
113.4344070616254
 30
0.0
 10
155.1987457635339
 20
113.3586478741073
 30
0.0
 10
155.2031214253117
 20
113.2845701577841
 30
0.0
 10
155.2092801072324
 20
113.2137228459907
 30
0.0
 10
155.2177744452897
 20
113.1446104873382
 30
0.0
 10
155.227673149963
 20
113.0890922398083
 30
0.0
 10
155.2378908621151
 20
113.0457006874055
 30
0.0
 10
155.2468246632763
 20
113.0141982864335
 30
0.0
 10
155.2574456776867
 20
112.9832712379855
 30
0.0
 10
155.2704666833401
 20
112.9527034648147
 30
0.0
 10
155.2864705786202
 20
112.9229358500789
 30
0.0
 10
155.3036714720174
 20
112.8988138295251
 30
0.0
 10
155.3205695196995
 20
112.8805802336963
 30
0.0
 10
155.3391748270702
 20
112.8652022581552
 30
0.0
 10
155.364113671216
 20
112.8510533492073
 30
0.0
 10
155.3854488172383
 20
112.8481862921073
 30
0.0
 10
155.396048319
 20
112.8467619111
 30
0.0
 11
155.191088297
 21
114.0352454234
 31
0.0
 11
155.1911433335318
 21
113.8558844548095
 31
0.0
 11
155.1918222064148
 21
113.6765258621733
 31
0.0
 11
155.1925858724887
 21
113.5941710452516
 31
0.0
 11
155.1939060575424
 21
113.5118219586401
 31
0.0
 11
155.1959209051964
 21
113.4344117833521
 31
0.0
 11
155.1990662393414
 21
113.3570425786539
 31
0.0
 11
155.2034555299855
 21
113.2845982270153
 31
0.0
 11
155.2098505347867
 21
113.2122892821165
 31
0.0
 11
155.2183850167242
 21
113.1446863733509
 31
0.0
 11
155.2305619952441
 21
113.0776744389795
 31
0.0
 11
155.2381303090154
 21
113.0457590185217
 31
0.0
 11
155.247127326572
 21
113.0142254408878
 31
0.0
 11
155.2578068911187
 21
112.9834215964745
 31
0.0
 11
155.270680937666
 21
112.9534270596602
 31
0.0
 11
155.2871080207231
 21
112.9232783185774
 31
0.0
 11
155.3071415430514
 21
112.8955335661177
 31
0.0
 11
155.3208433496613
 21
112.8809327715021
 31
0.0
 11
155.3363650205784
 21
112.8681185859721
 31
0.0
 11
155.3648318121156
 21
112.8529848110843
 31
0.0
 11
155.396048319
 21
112.8467619111
 31
0.0
  0
SPLINE
  5
E9
330
1F
100
AcDbEntity
  8
0
  6
Continuous
 62
     7
100
AcDbSpline
210
0.0
220
0.0
230
1.0
 70
     8
 71
     3
 72
    11
 73
     7
 74
     5
 42
0.0000000001
 43
0.0000000001
 44
0.00000001
 40
0.0
 40
0.0
 40
0.0
 40
0.0
 40
0.1144869088851713
 40
0.2289786249431128
 40
0.5593749202530365
 40
0.8897492710033141
 40
0.8897492710033141
 40
0.8897492710033141
 40
0.8897492710033141
 10
156.0839184267
 20
113.6140906517
 30
0.0
 10
156.0662585302169
 20
113.5802598019932
 30
0.0
 10
156.0309379957322
 20
113.5125966820612
 30
0.0
 10
155.9426270289264
 20
113.3483777845837
 30
0.0
 10
155.8165703914365
 20
113.1227129361171
 30
0.0
 10
155.7015581630722
 20
112.9348478505378
 30
0.0
 10
155.6440539587
 20
112.8409184273
 30
0.0
 11
156.0839184267
 21
113.6140906517
 31
0.0
 11
156.0307314151619
 21
113.5127082365101
 31
0.0
 11
155.9765736310366
 21
113.4118356066023
 31
0.0
 11
155.8146737493242
 21
113.1238249466328
 31
0.0
 11
155.6440539587
 21
112.8409184273
 31
0.0
  0
SPLINE
  5
EA
330
1F
100
AcDbEntity
  8
0
  6
Continuous
 62
     7
100
AcDbSpline
210
0.0
220
0.0
230
1.0
 70
     8
 71
     3
 72
    27
 73
    23
 74
    21
 42
0.0000000001
 43
0.0000000001
 44
0.00000001
 40
0.0
 40
0.0
 40
0.0
 40
0.0
 40
0.110012512729828
 40
0.2200277366519804
 40
0.3300677974592053
 40
0.4401077965926891
 40
0.5501687868041294
 40
0.6602297674823336
 40
0.7703067275408648
 40
0.880388342401164
 40
0.9904732229608593
 40
1.100583133545484
 40
1.155729536096187
 40
1.210732446829956
 40
1.265569397509938
 40
1.320943000438858
 40
1.432333428864651
 40
1.541000823214132
 40
1.596270656480642
 40
1.651829532678426
 40
1.707159214798846
 40
1.762420383789817
 40
1.762420383789817
 40
1.762420383789817
 40
1.762420383789817
 10
156.0839184267
 20
142.1321870634
 30
0.0
 10
156.0926060769434
 20
142.0965593903379
 30
0.0
 10
156.109981591532
 20
142.025303166191
 30
0.0
 10
156.1382255274844
 20
141.9189596781459
 30
0.0
 10
156.1682674733756
 20
141.8131026164881
 30
0.0
 10
156.2004909526633
 20
141.7078699755974
 30
0.0
 10
156.2350869195901
 20
141.6033835362454
 30
0.0
 10
156.2724765112772
 20
141.4998466536329
 30
0.0
 10
156.3130518710699
 20
141.3975017940305
 30
0.0
 10
156.3574612809895
 20
141.2967437389273
 30
0.0
 10
156.4063158422261
 20
141.1980331911528
 30
0.0
 10
156.4521636260897
 20
141.1184209833965
 30
0.0
 10
156.4926224096629
 20
141.0571273132573
 30
0.0
 10
156.5250818526135
 20
141.01270781274
 30
0.0
 10
156.5600109242897
 20
140.9700680504776
 30
0.0
 10
156.6113992570364
 20
140.9169106973609
 30
0.0
 10
156.6845006020013
 20
140.8601754370544
 30
0.0
 10
156.773447346234
 20
140.8277449818867
 30
0.0
 10
156.8473373581486
 20
140.8296302170691
 30
0.0
 10
156.9014334874484
 20
140.8431842656694
 30
0.0
 10
156.9516745233483
 20
140.8674846332821
 30
0.0
 10
156.9812631640241
 20
140.8895646079483
 30
0.0
 10
156.996048319
 20
140.9005977558
 30
0.0
 11
156.0839184267
 21
142.1321870634
 31
0.0
 11
156.1103444389452
 21
142.0253955897987
 31
0.0
 11
156.1385225997569
 21
141.9190502055645
 31
0.0
 11
156.1686303508538
 21
141.8132091062394
 31
0.0
 11
156.2008838902188
 21
141.7080021168911
 31
0.0
 11
156.2355518567712
 21
141.6035437344537
 31
0.0
 11
156.2730051766559
 21
141.5000513758108
 31
0.0
 11
156.3136897802118
 21
141.3977689229207
 31
0.0
 11
156.3582008801824
 21
141.2970876242121
 31
0.0
 11
156.4073353941452
 21
141.1985763027029
 31
0.0
 11
156.4625757682905
 21
141.1033256151818
 31
0.0
 11
156.4930091532624
 21
141.0573371949716
 31
0.0
 11
156.525518767581
 21
141.0129700318208
 31
0.0
 11
156.5604562066915
 21
140.9707034196041
 31
0.0
 11
156.5990253458499
 21
140.9309710976746
 31
0.0
 11
156.6884739355972
 21
140.8645875354238
 31
0.0
 11
156.7916758082784
 21
140.830558487982
 31
0.0
 11
156.8469350711318
 21
140.8316393849298
 31
0.0
 11
156.9008626933287
 21
140.8450035268232
 31
0.0
 11
156.950730978381
 21
140.8689728378163
 31
0.0
 11
156.996048319
 21
140.9005977558
 31
0.0
  0
SPLINE
  5
EB
330
1F
100
AcDbEntity
  8
0
  6
Continuous
 62
     7
100
AcDbSpline
210
0.0
220
0.0
230
1.0
 70
     8
 71
     3
 72
    17
 73
    13
 74
    11
 42
0.0000000001
 43
0.0000000001
 44
0.00000001
 40
0.0
 40
0.0
 40
0.0
 40
0.0
 40
0.0464036384024491
 40
0.092979300700003
 40
0.1389666755867226
 40
0.1849386862721241
 40
0.2751119357206294
 40
0.3657048668408182
 40
0.4550230514210593
 40
0.5441812924944303
 40
0.6327892352515927
 40
0.7213876676338965
 40
0.7213876676338965
 40
0.7213876676338965
 40
0.7213876676338965
 10
167.9297003425
 20
145.0668686171
 30
0.0
 10
167.9142146843822
 20
145.0677663284185
 30
0.0
 10
167.8831859609406
 20
145.0695650789799
 30
0.0
 10
167.8384199172028
 20
145.0828585605824
 30
0.0
 10
167.7965668130761
 20
145.1026729119977
 30
0.0
 10
167.7458195096764
 20
145.1363125419793
 30
0.0
 10
167.6903806348263
 20
145.1884705732052
 30
0.0
 10
167.6359246141444
 20
145.2604976732993
 30
0.0
 10
167.590414761148
 20
145.3379769089216
 30
0.0
 10
167.5529839729434
 20
145.4188593027172
 30
0.0
 10
167.521443480343
 20
145.5019579090656
 30
0.0
 10
167.5049392919301
 20
145.5586935990589
 30
0.0
 10
167.4966876406
 20
145.5870599216
 30
0.0
 11
167.9297003425
 21
145.0668686171
 31
0.0
 11
167.8835115797438
 21
145.0713290937599
 31
0.0
 11
167.838699666635
 21
145.0840249498549
 31
0.0
 11
167.7971022394504
 21
145.1036334352781
 31
0.0
 11
167.7586649140721
 21
145.1288524317733
 31
0.0
 11
167.6924120823637
 21
145.1900224996719
 31
0.0
 11
167.6371496089359
 21
145.2618078616867
 31
0.0
 11
167.5916836283185
 21
145.3386881758328
 31
0.0
 11
167.553878775873
 21
145.4194346004154
 31
0.0
 11
167.5225622219964
 21
145.5023239300842
 31
0.0
 11
167.4966876406
 21
145.5870599216
 31
0.0
  0
SPLINE
  5
EC
330
1F
100
AcDbEntity
  8
0
  6
Continuous
 62
     7
100
AcDbSpline
210
0.0
220
0.0
230
1.0
 70
     8
 71
     3
 72
    11
 73
     7
 74
     5
 42
0.0000000001
 43
0.0000000001
 44
0.00000001
 40
0.0
 40
0.0
 40
0.0
 40
0.0
 40
0.0396097710866919
 40
0.0793139643108616
 40
0.2768296850181498
 40
0.476547026751701
 40
0.476547026751701
 40
0.476547026751701
 40
0.476547026751701
 10
167.4966876406
 20
165.6316021491
 30
0.0
 10
167.5054899177014
 20
165.6414663794575
 30
0.0
 10
167.5231154548534
 20
165.6612183546159
 30
0.0
 10
167.5937878604801
 20
165.7208107738251
 30
0.0
 10
167.7301695346275
 20
165.7850442514411
 30
0.0
 10
167.8629447757669
 20
165.7938252365289
 30
0.0
 10
167.9297003425
 20
165.7982400629
 30
0.0
 11
167.4966876406
 21
165.6316021491
 31
0.0
 11
167.5237485826761
 21
165.6605268682775
 31
0.0
 11
167.5538775574932
 21
165.6863854806929
 31
0.0
 11
167.7316546782198
 21
165.7724537981661
 31
0.0
 11
167.9297003425
 21
165.7982400629
 31
0.0
  0
SPLINE
  5
ED
330
1F
100
AcDbEntity
  8
0
  6
Continuous
 62
     7
100
AcDbSpline
210
0.0
220
0.0
230
1.0
 70
     8
 71
     3
 72
    17
 73
    13
 74
    11
 42
0.0000000001
 43
0.0000000001
 44
0.00000001
 40
0.0
 40
0.0
 40
0.0
 40
0.0
 40
0.0885925199630384
 40
0.177193873611147
 40
0.2663445206564212
 40
0.3556576277662954
 40
0.4462461945886517
 40
0.5364096410231701
 40
0.5823867489090307
 40
0.6283820435236291
 40
0.6749717295705902
 40
0.7213871308387345
 40
0.7213871308387345
 40
0.7213871308387345
 40
0.7213871308387345
 10
171.2853627752
 20
145.5870599216
 30
0.0
 10
171.2771119093771
 20
145.5586954289583
 30
0.0
 10
171.2606093550257
 20
145.5019636154113
 30
0.0
 10
171.2290721255222
 20
145.4188708780521
 30
0.0
 10
171.1916410523319
 20
145.3379956345694
 30
0.0
 10
171.1461363944831
 20
145.2605205354075
 30
0.0
 10
171.0917006764707
 20
145.1884868789907
 30
0.0
 10
171.036269226601
 20
145.1363228602821
 30
0.0
 10
170.9855129934767
 20
145.1026938245547
 30
0.0
 10
170.9436495629586
 20
145.0828823713116
 30
0.0
 10
170.8988769676615
 20
145.0695721830417
 30
0.0
 10
170.8678396508613
 20
145.0677686792022
 30
0.0
 10
170.8523500733
 20
145.0668686171
 30
0.0
 11
171.2853627752
 21
145.5870599216
 31
0.0
 11
171.2594906502891
 21
145.5023293619064
 31
0.0
 11
171.2281766279472
 21
145.4194461194924
 31
0.0
 11
171.1903735485815
 21
145.3387072499248
 31
0.0
 11
171.144913912499
 21
145.2618290827454
 31
0.0
 11
171.0896664751285
 21
145.1900376549638
 31
0.0
 11
171.0234248473899
 21
145.1288699034317
 31
0.0
 11
170.9849789671022
 21
145.1036546552978
 31
0.0
 11
170.943372681405
 21
145.0840463887459
 31
0.0
 11
170.8985498181358
 21
145.0713377391597
 31
0.0
 11
170.8523500733
 21
145.0668686171
 31
0.0
  0
SPLINE
  5
EE
330
1F
100
AcDbEntity
  8
0
  6
Continuous
 62
     7
100
AcDbSpline
210
0.0
220
0.0
230
1.0
 70
     8
 71
     3
 72
    11
 73
     7
 74
     5
 42
0.0000000001
 43
0.0000000001
 44
0.00000001
 40
0.0
 40
0.0
 40
0.0
 40
0.0
 40
0.0858880417971829
 40
0.1724696234214097
 40
0.3262585111686375
 40
0.4767798625688487
 40
0.4767798625688487
 40
0.4767798625688487
 40
0.4767798625688487
 10
170.8523500733
 20
165.7982400629
 30
0.0
 10
170.8810233521826
 20
165.7974123637012
 30
0.0
 10
170.9386014446349
 20
165.7957502816913
 30
0.0
 10
171.0455677672304
 20
165.7763142382643
 30
0.0
 10
171.1724845942985
 20
165.7352316005861
 30
0.0
 10
171.2480070226842
 20
165.6658971396124
 30
0.0
 10
171.2853627752
 20
165.6316021491
 30
0.0
 11
170.8523500733
 21
165.7982400629
 31
0.0
 11
170.9381138267622
 21
165.7936211543899
 31
0.0
 11
171.0234344103515
 21
165.7788981012918
 31
0.0
 11
171.1675991873658
 21
165.725348693611
 31
0.0
 11
171.2853627752
 21
165.6316021491
 31
0.0
  0
SPLINE
  5
EF
330
1F
100
AcDbEntity
  8
ACHSEN
  6
Continuous
 62
     7
100
AcDbSpline
210
0.0
220
0.0
230
1.0
 70
     8
 71
     3
 72
    15
 73
    11
 74
     9
 42
0.0000000001
 43
0.0000000001
 44
0.00000001
 40
0.0
 40
0.0
 40
0.0
 40
0.0
 40
0.70361992703436
 40
1.407365568512446
 40
2.995285720759598
 40
4.583299557660121
 40
6.17126447587418
 40
7.759111163538623
 40
8.458270837196196
 40
9.1573174246439
 40
9.1573174246439
 40
9.1573174246439
 40
9.1573174246439
 10
146.5703865411
 20
156.121165638
 30
0.0
 10
146.3383741652167
 20
156.0867734553658
 30
0.0
 10
145.8743079602371
 20
156.017982945311
 30
0.0
 10
144.8834046427012
 20
155.8950408824605
 30
0.0
 10
143.5954229123012
 20
155.7740688359065
 30
0.0
 10
142.0087764593565
 20
155.6970026020819
 30
0.0
 10
140.4202787080351
 20
155.6927181653918
 30
0.0
 10
139.1293843338884
 20
155.7487033879821
 30
0.0
 10
138.1367005867318
 20
155.822599538324
 30
0.0
 10
137.6729044969802
 20
155.868737293174
 30
0.0
 10
137.4410252079
 20
155.8918043048
 30
0.0
 11
146.5703865411
 21
156.121165638
 31
0.0
 11
145.873969523121
 21
156.020744829454
 31
0.0
 11
145.1756573105268
 21
155.9334637797285
 31
0.0
 11
143.5946006786751
 21
155.7859838258688
 31
0.0
 11
142.0084475199828
 21
155.7091326491832
 31
0.0
 11
140.4204882321429
 21
155.704903980178
 31
0.0
 11
138.8340979804051
 21
155.7728971615882
 31
0.0
 11
138.136918969353
 21
155.8254868546599
 31
0.0
 11
137.4410252079
 21
155.8918043048
 31
0.0
  0
SPLINE
  5
F0
330
1F
100
AcDbEntity
  8
ACHSEN
  6
Continuous
 62
     7
100
AcDbSpline
210
0.0
220
0.0
230
1.0
 70
     8
 71
     3
 72
    13
 73
     9
 74
     7
 42
0.0000000001
 43
0.0000000001
 44
0.00000001
 40
0.0
 40
0.0
 40
0.0
 40
0.0
 40
0.090943454575967
 40
0.181889814302816
 40
0.4124617941535777
 40
0.6430303335128102
 40
1.299474074904751
 40
1.955922659017198
 40
1.955922659017198
 40
1.955922659017198
 40
1.955922659017198
 10
127.6695954939
 20
155.6463051079
 30
0.0
 10
127.6395618231154
 20
155.642186514182
 30
0.0
 10
127.579493522133
 20
155.6339491951793
 30
0.0
 10
127.4435024022736
 20
155.6137115643445
 30
0.0
 10
127.2614843649995
 20
155.5865820242603
 30
0.0
 10
126.8933110428465
 20
155.5297872781507
 30
0.0
 10
126.3858045215078
 20
155.4450028432161
 30
0.0
 10
125.9559521742855
 20
155.3628001163427
 30
0.0
 10
125.7410252079
 20
155.3216986013
 30
0.0
 11
127.6695954939
 21
155.6463051079
 31
0.0
 11
127.5795190161602
 21
155.6337775347829
 31
0.0
 11
127.489538191248
 21
155.6205604437381
 31
0.0
 11
127.2615125349272
 21
155.5863882627752
 31
0.0
 11
127.0336475019166
 21
155.5511834609247
 31
0.0
 11
126.386266300513
 21
155.4424821928462
 31
0.0
 11
125.7410252079
 21
155.3216986013
 31
0.0
  0
MTEXT
  5
114
330
1F
100
AcDbEntity
  8
0
 62
     5
100
AcDbMText
 10
29.9759290541
 20
88.7760200104
 30
0.0
 40
3.5
 41
0.0
 71
     1
 72
     1
  3
F\U+00fcr diese Unterlage behalten wir das Ur-\Pheberrecht. Sie darf nur f\U+00fcr den von uns \Pbestimmten Zweck benutzt und ohne unsere \PZustimmung weder vervielf\U+00e4ltigt noch\PDritten zug\U+00e4nglich gemacht werden\P \PWe own the copyright 
  3
of this document. It \Pdetermined and may neither be copied or \Pmade accessible to outsiders without our\Ppermission.\P \PCe plan reste notre propri\U+00e9t\U+00e9. Il ne peut\P\U+00eatre utilis\U+00e9, copi\U+00e9 ou reproduit sans notre\Paccord.\
  7
CONVERTER_11
 73
     1
 44
1.0
  0
DIMENSION
  5
11F
330
1F
100
AcDbEntity
  8
0
100
AcDbDimension
  2
*D1
 10
217.3910252079
 20
192.0312634415
 30
0.0
 11
187.3910252079
 21
196.4062634415
 31
0.0
 70
    32
  1
60
 71
     5
 42
-1.0
 53
0.00013888888889
  3
ME10_DIM_10
100
AcDbAlignedDimension
 13
157.3910252079
 23
174.6266378337
 33
0.0
 14
217.3910252079
 24
150.7160456875
 34
0.0
100
AcDbRotatedDimension
  0
DIMENSION
  5
12A
330
1F
100
AcDbEntity
  8
0
100
AcDbDimension
  2
*D2
 10
228.179847973
 20
125.7176473026
 30
0.0
 11
223.804847973
 21
135.7176473026
 31
0.0
 70
    32
  1
ER20
 71
     5
 42
-1.0
 53
90.0
  3
ME10_DIM_11
100
AcDbAlignedDimension
 13
207.3910252079
 23
145.7176473026
 33
0.0
 14
207.3910252079
 24
125.7176473026
 34
0.0
 50
90.0
100
AcDbRotatedDimension
  0
DIMENSION
  5
135
330
1F
100
AcDbEntity
  8
0
100
AcDbDimension
  2
*D3
 10
205.8910252079
 20
183.2125145164
 30
0.0
 11
181.6410252079
 21
187.5875145164
 31
0.0
 70
    32
  1
48.5
 71
     5
 42
-1.0
 53
0.00013888888889
  3
ME10_DIM_12
100
AcDbAlignedDimension
 13
157.3910252079
 23
169.0069417722
 33
0.0
 14
205.8910252079
 24
181.7125145164
 34
0.0
100
AcDbRotatedDimension
  0
DIMENSION
  5
140
330
1F
100
AcDbEntity
  8
0
100
AcDbDimension
  2
*D4
 10
236.9527627193
 20
152.6801473026
 30
0.0
 11
232.5777627193
 21
135.7176473026
 31
0.0
 70
    32
  1
{\Fgdt;n}34
 71
     5
 42
-1.0
 53
90.0
  3
ME10_DIM_13
100
AcDbAlignedDimension
 13
186.9285252079
 23
118.7551473026
 33
0.0
 14
186.9285252079
 24
152.6801473026
 34
0.0
 50
90.0
100
AcDbRotatedDimension
  0
DIMENSION
  5
14B
330
1F
100
AcDbEntity
  8
0
100
AcDbDimension
  2
*D5
 10
205.8910252079
 20
198.5155205884
 30
0.0
 11
162.6410252079
 21
202.8905205884
 31
0.0
 70
    32
  1
86.5
 71
     5
 42
-1.0
 53
0.00013888888889
  3
ME10_DIM_14
100
AcDbAlignedDimension
 13
119.3910252079
 23
156.728222739
 33
0.0
 14
205.8910252079
 24
151.2399386694
 34
0.0
100
AcDbRotatedDimension
  0
DIMENSION
  5
156
330
1F
100
AcDbEntity
  8
0
100
AcDbDimension
  2
*D6
 10
205.8910252079
 20
173.103177506
 30
0.0
 11
192.6410252079
 21
177.478177506
 31
0.0
 70
    32
  1
26.5
 71
     5
 42
-1.0
 53
0.00013888888889
  3
ME10_DIM_15
100
AcDbAlignedDimension
 13
179.3910252079
 23
164.4573925046
 33
0.0
 14
205.8910252079
 24
124.7176473026
 34
0.0
100
AcDbRotatedDimension
  0
ENDSEC
  0
SECTION
  2
OBJECTS
  0
DICTIONARY
  5
C
330
0
100
AcDbDictionary
281
     1
  3
ACAD_GROUP
350
D
  3
ACAD_LAYOUT
350
1A
  3
ACAD_MLEADERSTYLE
350
159
  3
ACAD_MLINESTYLE
350
17
  3
ACAD_PLOTSETTINGS
350
19
  3
ACAD_PLOTSTYLENAME
350
E
  3
ACAD_SCALELIST
350
F2
  3
ACAD_VISUALSTYLE
350
2A
  3
AcDbVariableDictionary
350
157
  0
DICTIONARY
  5
D
102
{ACAD_REACTORS
330
C
102
}
330
C
100
AcDbDictionary
281
     1
  0
DICTIONARY
  5
1A
102
{ACAD_REACTORS
330
C
102
}
330
C
100
AcDbDictionary
281
     1
  3
Layout1
350
1E
  3
Layout2
350
26
  3
Model
350
22
  0
DICTIONARY
  5
159
102
{ACAD_REACTORS
330
C
102
}
330
C
100
AcDbDictionary
281
     1
  0
DICTIONARY
  5
17
102
{ACAD_REACTORS
330
C
102
}
330
C
100
AcDbDictionary
281
     1
  3
Standard
350
18
  0
DICTIONARY
  5
19
102
{ACAD_REACTORS
330
C
102
}
330
C
100
AcDbDictionary
281
     1
  0
ACDBDICTIONARYWDFLT
  5
E
102
{ACAD_REACTORS
330
C
102
}
330
C
100
AcDbDictionary
281
     1
  3
Normal
350
F
100
AcDbDictionaryWithDefault
340
F
  0
DICTIONARY
  5
F2
102
{ACAD_REACTORS
330
C
102
}
330
C
100
AcDbDictionary
281
     1
  3
A0
350
F3
  3
A1
350
F4
  3
A2
350
F5
  3
A3
350
F6
  3
A4
350
F7
  3
A5
350
F8
  3
A6
350
F9
  3
A7
350
FA
  3
A8
350
FB
  3
A9
350
FC
  3
B0
350
FD
  3
B1
350
FE
  3
B2
350
FF
  3
B3
350
100
  3
B4
350
101
  3
B5
350
102
  3
B6
350
103
  3
B7
350
104
  3
B8
350
105
  3
B9
350
106
  3
C0
350
107
  3
C1
350
108
  3
C2
350
109
  3
C3
350
10A
  3
C4
350
10B
  3
C5
350
10C
  3
C6
350
10D
  3
C7
350
10E
  3
C8
350
10F
  3
C9
350
110
  3
D0
350
111
  3
D1
350
112
  3
D2
350
113
  0
DICTIONARY
  5
2A
102
{ACAD_REACTORS
330
C
102
}
330
C
100
AcDbDictionary
281
     1
  3
2dWireframe
350
2F
  3
3D Hidden
350
31
  3
3dWireframe
350
30
  3
Basic
350
32
  3
Brighten
350
36
  3
ColorChange
350
3A
  3
Conceptual
350
34
  3
Dim
350
35
  3
Facepattern
350
39
  3
Flat
350
2B
  3
FlatWithEdges
350
2C
  3
Gouraud
350
2D
  3
GouraudWithEdges
350
2E
  3
Linepattern
350
38
  3
Realistic
350
33
  3
Thicken
350
37
  0
DICTIONARY
  5
157
102
{ACAD_REACTORS
330
C
102
}
330
C
100
AcDbDictionary
281
     1
  3
CANNOSCALE
350
15A
  0
LAYOUT
  5
1E
102
{ACAD_REACTORS
330
1A
102
}
330
1A
100
AcDbPlotSettings
  1

  2
none_device
  4

  6

 40
0.0
 41
0.0
 42
0.0
 43
0.0
 44
0.0
 45
0.0
 46
0.0
 47
0.0
 48
0.0
 49
0.0
140
0.0
141
0.0
142
1.0
143
1.0
 70
   688
 72
     0
 73
     0
 74
     5
  7

 75
    16
147
1.0
148
0.0
149
0.0
100
AcDbLayout
  1
Layout1
 70
     1
 71
     1
 10
0.0
 20
0.0
 11
12.0
 21
9.0
 12
0.0
 22
0.0
 32
0.0
 14
1.00000000000000E+20
 24
1.00000000000000E+20
 34
1.00000000000000E+20
 15
-1.00000000000000E+20
 25
-1.00000000000000E+20
 35
-1.00000000000000E+20
146
0.0
 13
0.0
 23
0.0
 33
0.0
 16
1.0
 26
0.0
 36
0.0
 17
0.0
 27
1.0
 37
0.0
 76
     0
330
1B
  0
LAYOUT
  5
26
102
{ACAD_REACTORS
330
1A
102
}
330
1A
100
AcDbPlotSettings
  1

  2
none_device
  4

  6

 40
0.0
 41
0.0
 42
0.0
 43
0.0
 44
0.0
 45
0.0
 46
0.0
 47
0.0
 48
0.0
 49
0.0
140
0.0
141
0.0
142
1.0
143
1.0
 70
   688
 72
     0
 73
     0
 74
     5
  7

 75
    16
147
1.0
148
0.0
149
0.0
100
AcDbLayout
  1
Layout2
 70
     1
 71
     2
 10
0.0
 20
0.0
 11
0.0
 21
0.0
 12
0.0
 22
0.0
 32
0.0
 14
0.0
 24
0.0
 34
0.0
 15
0.0
 25
0.0
 35
0.0
146
0.0
 13
0.0
 23
0.0
 33
0.0
 16
1.0
 26
0.0
 36
0.0
 17
0.0
 27
1.0
 37
0.0
 76
     0
330
23
  0
LAYOUT
  5
22
102
{ACAD_REACTORS
330
1A
102
}
330
1A
100
AcDbPlotSettings
  1

  2
none_device
  4

  6

 40
0.0
 41
0.0
 42
0.0
 43
0.0
 44
0.0
 45
0.0
 46
0.0
 47
0.0
 48
0.0
 49
0.0
140
0.0
141
0.0
142
1.0
143
1.0
 70
  1712
 72
     0
 73
     0
 74
     0
  7

 75
     0
147
1.0
148
0.0
149
0.0
100
AcDbLayout
  1
Model
 70
     1
 71
     0
 10
0.0
 20
0.0
 11
12.0
 21
9.0
 12
0.0
 22
0.0
 32
0.0
 14
0.0
 24
0.0
 34
0.0
 15
297.0
 25
210.0
 35
0.0
146
0.0
 13
0.0
 23
0.0
 33
0.0
 16
1.0
 26
0.0
 36
0.0
 17
0.0
 27
1.0
 37
0.0
 76
     0
330
1F
331
29
  0
MLINESTYLE
  5
18
102
{ACAD_REACTORS
330
17
102
}
330
17
100
AcDbMlineStyle
  2
Standard
 70
     0
  3

 62
   256
 51
90.0
 52
90.0
 71
     2
 49
0.5
 62
   256
  6
BYLAYER
 49
-0.5
 62
   256
  6
BYLAYER
  0
ACDBPLACEHOLDER
  5
F
102
{ACAD_REACTORS
330
E
102
}
330
E
  0
SCALE
  5
F3
102
{ACAD_REACTORS
330
F2
102
}
330
F2
100
AcDbScale
 70
     0
300
1:1
140
1.0
141
1.0
290
     1
  0
SCALE
  5
F4
102
{ACAD_REACTORS
330
F2
102
}
330
F2
100
AcDbScale
 70
     0
300
1:2
140
1.0
141
2.0
290
     0
  0
SCALE
  5
F5
102
{ACAD_REACTORS
330
F2
102
}
330
F2
100
AcDbScale
 70
     0
300
1:4
140
1.0
141
4.0
290
     0
  0
SCALE
  5
F6
102
{ACAD_REACTORS
330
F2
102
}
330
F2
100
AcDbScale
 70
     0
300
1:5
140
1.0
141
5.0
290
     0
  0
SCALE
  5
F7
102
{ACAD_REACTORS
330
F2
102
}
330
F2
100
AcDbScale
 70
     0
300
1:8
140
1.0
141
8.0
290
     0
  0
SCALE
  5
F8
102
{ACAD_REACTORS
330
F2
102
}
330
F2
100
AcDbScale
 70
     0
300
1:10
140
1.0
141
10.0
290
     0
  0
SCALE
  5
F9
102
{ACAD_REACTORS
330
F2
102
}
330
F2
100
AcDbScale
 70
     0
300
1:16
140
1.0
141
16.0
290
     0
  0
SCALE
  5
FA
102
{ACAD_REACTORS
330
F2
102
}
330
F2
100
AcDbScale
 70
     0
300
1:20
140
1.0
141
20.0
290
     0
  0
SCALE
  5
FB
102
{ACAD_REACTORS
330
F2
102
}
330
F2
100
AcDbScale
 70
     0
300
1:30
140
1.0
141
30.0
290
     0
  0
SCALE
  5
FC
102
{ACAD_REACTORS
330
F2
102
}
330
F2
100
AcDbScale
 70
     0
300
1:40
140
1.0
141
40.0
290
     0
  0
SCALE
  5
FD
102
{ACAD_REACTORS
330
F2
102
}
330
F2
100
AcDbScale
 70
     0
300
1:50
140
1.0
141
50.0
290
     0
  0
SCALE
  5
FE
102
{ACAD_REACTORS
330
F2
102
}
330
F2
100
AcDbScale
 70
     0
300
1:100
140
1.0
141
100.0
290
     0
  0
SCALE
  5
FF
102
{ACAD_REACTORS
330
F2
102
}
330
F2
100
AcDbScale
 70
     0
300
2:1
140
2.0
141
1.0
290
     0
  0
SCALE
  5
100
102
{ACAD_REACTORS
330
F2
102
}
330
F2
100
AcDbScale
 70
     0
300
4:1
140
4.0
141
1.0
290
     0
  0
SCALE
  5
101
102
{ACAD_REACTORS
330
F2
102
}
330
F2
100
AcDbScale
 70
     0
300
8:1
140
8.0
141
1.0
290
     0
  0
SCALE
  5
102
102
{ACAD_REACTORS
330
F2
102
}
330
F2
100
AcDbScale
 70
     0
300
10:1
140
10.0
141
1.0
290
     0
  0
SCALE
  5
103
102
{ACAD_REACTORS
330
F2
102
}
330
F2
100
AcDbScale
 70
     0
300
100:1
140
100.0
141
1.0
290
     0
  0
SCALE
  5
104
102
{ACAD_REACTORS
330
F2
102
}
330
F2
100
AcDbScale
 70
     0
300
1/128" = 1'-0"
140
0.0078125
141
12.0
290
     0
  0
SCALE
  5
105
102
{ACAD_REACTORS
330
F2
102
}
330
F2
100
AcDbScale
 70
     0
300
1/64" = 1'-0"
140
0.015625
141
12.0
290
     0
  0
SCALE
  5
106
102
{ACAD_REACTORS
330
F2
102
}
330
F2
100
AcDbScale
 70
     0
300
1/32" = 1'-0"
140
0.03125
141
12.0
290
     0
  0
SCALE
  5
107
102
{ACAD_REACTORS
330
F2
102
}
330
F2
100
AcDbScale
 70
     0
300
1/16" = 1'-0"
140
0.0625
141
12.0
290
     0
  0
SCALE
  5
108
102
{ACAD_REACTORS
330
F2
102
}
330
F2
100
AcDbScale
 70
     0
300
3/32" = 1'-0"
140
0.09375
141
12.0
290
     0
  0
SCALE
  5
109
102
{ACAD_REACTORS
330
F2
102
}
330
F2
100
AcDbScale
 70
     0
300
1/8" = 1'-0"
140
0.125
141
12.0
290
     0
  0
SCALE
  5
10A
102
{ACAD_REACTORS
330
F2
102
}
330
F2
100
AcDbScale
 70
     0
300
3/16" = 1'-0"
140
0.1875
141
12.0
290
     0
  0
SCALE
  5
10B
102
{ACAD_REACTORS
330
F2
102
}
330
F2
100
AcDbScale
 70
     0
300
1/4" = 1'-0"
140
0.25
141
12.0
290
     0
  0
SCALE
  5
10C
102
{ACAD_REACTORS
330
F2
102
}
330
F2
100
AcDbScale
 70
     0
300
3/8" = 1'-0"
140
0.375
141
12.0
290
     0
  0
SCALE
  5
10D
102
{ACAD_REACTORS
330
F2
102
}
330
F2
100
AcDbScale
 70
     0
300
1/2" = 1'-0"
140
0.5
141
12.0
290
     0
  0
SCALE
  5
10E
102
{ACAD_REACTORS
330
F2
102
}
330
F2
100
AcDbScale
 70
     0
300
3/4" = 1'-0"
140
0.75
141
12.0
290
     0
  0
SCALE
  5
10F
102
{ACAD_REACTORS
330
F2
102
}
330
F2
100
AcDbScale
 70
     0
300
1" = 1'-0"
140
1.0
141
12.0
290
     0
  0
SCALE
  5
110
102
{ACAD_REACTORS
330
F2
102
}
330
F2
100
AcDbScale
 70
     0
300
1-1/2" = 1'-0"
140
1.5
141
12.0
290
     0
  0
SCALE
  5
111
102
{ACAD_REACTORS
330
F2
102
}
330
F2
100
AcDbScale
 70
     0
300
3" = 1'-0"
140
3.0
141
12.0
290
     0
  0
SCALE
  5
112
102
{ACAD_REACTORS
330
F2
102
}
330
F2
100
AcDbScale
 70
     0
300
6" = 1'-0"
140
6.0
141
12.0
290
     0
  0
SCALE
  5
113
102
{ACAD_REACTORS
330
F2
102
}
330
F2
100
AcDbScale
 70
     0
300
1'-0" = 1'-0"
140
12.0
141
12.0
290
     0
  0
VISUALSTYLE
  5
2F
102
{ACAD_REACTORS
330
2A
102
}
330
2A
100
AcDbVisualStyle
  2
2dWireframe
 70
     4
 71
     0
 72
     2
 73
     0
 90
        0
 40
-0.6
 41
-30.0
 62
     5
 63
     7
 74
     1
 91
        4
 64
     7
 65
   257
 75
     1
175
     1
 42
1.0
 92
        0
 66
   257
 43
1.0
 76
     1
 77
     6
 78
     2
 67
     7
 79
     5
170
     0
171
     0
290
     0
174
     0
 93
        1
 44
0.0
173
     0
291
     0
 45
0.0
1001
ACAD
1000
AcDbSavedByObjectVersion
1070
     0
  0
VISUALSTYLE
  5
31
102
{ACAD_REACTORS
330
2A
102
}
330
2A
100
AcDbVisualStyle
  2
3D Hidden
 70
     6
 71
     1
 72
     2
 73
     2
 90
        0
 40
-0.6
 41
-30.0
 62
     5
 63
     7
 74
     2
 91
        2
 64
     7
 65
   257
 75
     2
175
     1
 42
40.0
 92
        0
 66
   257
 43
1.0
 76
     1
 77
     6
 78
     2
 67
     7
 79
     3
170
     0
171
     0
290
     0
174
     0
 93
        1
 44
0.0
173
     0
291
     0
 45
0.0
1001
ACAD
1000
AcDbSavedByObjectVersion
1070
     0
  0
VISUALSTYLE
  5
30
102
{ACAD_REACTORS
330
2A
102
}
330
2A
100
AcDbVisualStyle
  2
3dWireframe
 70
     5
 71
     0
 72
     2
 73
     0
 90
        0
 40
-0.6
 41
-30.0
 62
     5
 63
     7
 74
     1
 91
        4
 64
     7
 65
   257
 75
     1
175
     1
 42
1.0
 92
        0
 66
   257
 43
1.0
 76
     1
 77
     6
 78
     2
 67
     7
 79
     5
170
     0
171
     0
290
     0
174
     0
 93
        1
 44
0.0
173
     0
291
     0
 45
0.0
1001
ACAD
1000
AcDbSavedByObjectVersion
1070
     0
  0
VISUALSTYLE
  5
32
102
{ACAD_REACTORS
330
2A
102
}
330
2A
100
AcDbVisualStyle
  2
Basic
 70
     7
 71
     1
 72
     0
 73
     1
 90
        0
 40
-0.6
 41
-30.0
 62
     5
 63
     7
 74
     0
 91
        4
 64
     7
 65
   257
 75
     1
175
     1
 42
1.0
 92
        8
 66
     7
 43
1.0
 76
     1
 77
     6
 78
     2
 67
     7
 79
     5
170
     0
171
     0
290
     0
174
     0
 93
        1
 44
0.0
173
     0
291
     1
 45
0.0
1001
ACAD
1000
AcDbSavedByObjectVersion
1070
     0
  0
VISUALSTYLE
  5
36
102
{ACAD_REACTORS
330
2A
102
}
330
2A
100
AcDbVisualStyle
  2
Brighten
 70
    12
 71
     2
 72
     2
 73
     0
 90
        0
 40
-0.6
 41
-30.0
 62
     5
 63
     7
 74
     1
 91
        4
 64
     7
 65
   257
 75
     1
175
     1
 42
1.0
 92
        8
 66
     7
 43
1.0
 76
     1
 77
     6
 78
     2
 67
     7
 79
     5
170
     0
171
     0
290
     0
174
     0
 93
        1
 44
50.0
173
     0
291
     1
 45
0.0
1001
ACAD
1000
AcDbSavedByObjectVersion
1070
     0
  0
VISUALSTYLE
  5
3A
102
{ACAD_REACTORS
330
2A
102
}
330
2A
100
AcDbVisualStyle
  2
ColorChange
 70
    16
 71
     2
 72
     2
 73
     3
 90
        0
 40
-0.6
 41
-30.0
 62
     5
 63
     8
 74
     1
 91
        4
 64
     7
 65
   257
 75
     1
175
     1
 42
1.0
 92
        8
 66
     8
 43
1.0
 76
     1
 77
     6
 78
     2
 67
     7
 79
     5
170
     0
171
     0
290
     0
174
     0
 93
        1
 44
0.0
173
     0
291
     1
 45
0.0
1001
ACAD
1000
AcDbSavedByObjectVersion
1070
     0
  0
VISUALSTYLE
  5
34
102
{ACAD_REACTORS
330
2A
102
}
330
2A
100
AcDbVisualStyle
  2
Conceptual
 70
     9
 71
     3
 72
     2
 73
     0
 90
        0
 40
-0.6
 41
-30.0
 62
     5
 63
     7
 74
     2
 91
        2
 64
     7
 65
   257
 75
     1
175
     1
 42
40.0
 92
        8
 66
     7
 43
1.0
 76
     1
 77
     6
 78
     2
 67
     7
 79
     3
170
     0
171
     0
290
     0
174
     0
 93
        1
 44
0.0
173
     0
291
     0
 45
0.0
1001
ACAD
1000
AcDbSavedByObjectVersion
1070
     0
  0
VISUALSTYLE
  5
35
102
{ACAD_REACTORS
330
2A
102
}
330
2A
100
AcDbVisualStyle
  2
Dim
 70
    11
 71
     2
 72
     2
 73
     0
 90
        0
 40
-0.6
 41
-30.0
 62
     5
 63
     7
 74
     1
 91
        4
 64
     7
 65
   257
 75
     1
175
     1
 42
1.0
 92
        8
 66
     7
 43
1.0
 76
     1
 77
     6
 78
     2
 67
     7
 79
     5
170
     0
171
     0
290
     0
174
     0
 93
        1
 44
-50.0
173
     0
291
     1
 45
0.0
1001
ACAD
1000
AcDbSavedByObjectVersion
1070
     0
  0
VISUALSTYLE
  5
39
102
{ACAD_REACTORS
330
2A
102
}
330
2A
100
AcDbVisualStyle
  2
Facepattern
 70
    15
 71
     2
 72
     2
 73
     0
 90
        0
 40
-0.6
 41
-30.0
 62
     5
 63
     7
 74
     1
 91
        4
 64
     7
 65
   257
 75
     1
175
     1
 42
1.0
 92
        8
 66
     7
 43
1.0
 76
     1
 77
     6
 78
     2
 67
     7
 79
     5
170
     0
171
     0
290
     0
174
     0
 93
        1
 44
0.0
173
     0
291
     1
 45
0.0
1001
ACAD
1000
AcDbSavedByObjectVersion
1070
     0
  0
VISUALSTYLE
  5
2B
102
{ACAD_REACTORS
330
2A
102
}
330
2A
100
AcDbVisualStyle
  2
Flat
 70
     0
 71
     2
 72
     1
 73
     1
 90
        2
 40
-0.6
 41
30.0
 62
     5
 63
     7
 74
     0
 91
        4
 64
     7
 65
   257
 75
     1
175
     1
 42
1.0
 92
        8
 66
     7
 43
1.0
 76
     1
 77
     6
 78
     2
 67
     7
 79
     5
170
     0
171
     0
290
     0
174
     0
 93
       13
 44
0.0
173
     0
291
     1
 45
0.0
1001
ACAD
1000
AcDbSavedByObjectVersion
1070
     0
  0
VISUALSTYLE
  5
2C
102
{ACAD_REACTORS
330
2A
102
}
330
2A
100
AcDbVisualStyle
  2
FlatWithEdges
 70
     1
 71
     2
 72
     1
 73
     1
 90
        2
 40
-0.6
 41
30.0
 62
     5
 63
     7
 74
     1
 91
        4
 64
     7
 65
   257
 75
     1
175
     1
 42
1.0
 92
        0
 66
   257
 43
1.0
 76
     1
 77
     6
 78
     2
 67
     7
 79
     5
170
     0
171
     0
290
     0
174
     0
 93
       13
 44
0.0
173
     0
291
     1
 45
0.0
1001
ACAD
1000
AcDbSavedByObjectVersion
1070
     0
  0
VISUALSTYLE
  5
2D
102
{ACAD_REACTORS
330
2A
102
}
330
2A
100
AcDbVisualStyle
  2
Gouraud
 70
     2
 71
     2
 72
     2
 73
     1
 90
        2
 40
-0.6
 41
30.0
 62
     5
 63
     7
 74
     0
 91
        4
 64
     7
 65
   257
 75
     1
175
     1
 42
1.0
 92
        0
 66
     7
 43
1.0
 76
     1
 77
     6
 78
     2
 67
     7
 79
     5
170
     0
171
     0
290
     0
174
     0
 93
       13
 44
0.0
173
     0
291
     1
 45
0.0
1001
ACAD
1000
AcDbSavedByObjectVersion
1070
     0
  0
VISUALSTYLE
  5
2E
102
{ACAD_REACTORS
330
2A
102
}
330
2A
100
AcDbVisualStyle
  2
GouraudWithEdges
 70
     3
 71
     2
 72
     2
 73
     1
 90
        2
 40
-0.6
 41
30.0
 62
     5
 63
     7
 74
     1
 91
        4
 64
     7
 65
   257
 75
     1
175
     1
 42
1.0
 92
        0
 66
   257
 43
1.0
 76
     1
 77
     6
 78
     2
 67
     7
 79
     5
170
     0
171
     0
290
     0
174
     0
 93
       13
 44
0.0
173
     0
291
     1
 45
0.0
1001
ACAD
1000
AcDbSavedByObjectVersion
1070
     0
  0
VISUALSTYLE
  5
38
102
{ACAD_REACTORS
330
2A
102
}
330
2A
100
AcDbVisualStyle
  2
Linepattern
 70
    14
 71
     2
 72
     2
 73
     0
 90
        0
 40
-0.6
 41
-30.0
 62
     5
 63
     7
 74
     1
 91
        4
 64
     7
 65
   257
 75
     7
175
     7
 42
1.0
 92
        8
 66
     7
 43
1.0
 76
     1
 77
     6
 78
     2
 67
     7
 79
     5
170
     0
171
     0
290
     0
174
     0
 93
        1
 44
0.0
173
     0
291
     1
 45
0.0
1001
ACAD
1000
AcDbSavedByObjectVersion
1070
     0
  0
VISUALSTYLE
  5
33
102
{ACAD_REACTORS
330
2A
102
}
330
2A
100
AcDbVisualStyle
  2
Realistic
 70
     8
 71
     2
 72
     2
 73
     0
 90
        0
 40
-0.6
 41
-30.0
 62
     5
 63
     7
 74
     1
 91
        0
 64
     7
 65
   257
 75
     1
175
     1
 42
1.0
 92
        8
 66
     8
 43
1.0
 76
     1
 77
     6
 78
     2
 67
     7
 79
     5
170
     0
171
     0
290
     0
174
     0
 93
       13
 44
0.0
173
     0
291
     0
 45
0.0
1001
ACAD
1000
AcDbSavedByObjectVersion
1070
     0
  0
VISUALSTYLE
  5
37
102
{ACAD_REACTORS
330
2A
102
}
330
2A
100
AcDbVisualStyle
  2
Thicken
 70
    13
 71
     2
 72
     2
 73
     0
 90
        0
 40
-0.6
 41
-30.0
 62
     5
 63
     7
 74
     1
 91
        4
 64
     7
 65
   257
 75
     1
175
     1
 42
1.0
 92
       12
 66
     7
 43
1.0
 76
     1
 77
     6
 78
     2
 67
     7
 79
     5
170
     0
171
     0
290
     0
174
     0
 93
        1
 44
0.0
173
     0
291
     1
 45
0.0
1001
ACAD
1000
AcDbSavedByObjectVersion
1070
     0
  0
DICTIONARYVAR
  5
15A
102
{ACAD_REACTORS
330
157
102
}
330
157
100
DictionaryVariables
280
     0
  1
1:1
  0
ENDSEC
  0
EOF
