999
DXF file: cc6-000-20.dxf
999
Pro/ENGINEER 2010430 by Parametric Technology Corporation
  0
SECTION
  2
HEADER
  9
$ACADVER
  1
AC1021
  9
$DWGCODEPAGE
  3
ANSI_1252
  9
$EXTMAX
 10
297.0
 20
210.0
 30
0.0
  9
$EXTMIN
 10
0.0
 20
0.0
 30
0.0
  9
$LIMMIN
 10
0.0
 20
0.0
  9
$LIMMAX
 10
297.0
 20
210.0
  9
$VIEWCTR
 10
148.5
 20
105.0
  9
$VIEWSIZE
 40
210.0
  9
$CLAYER
  8
0
  9
$LTSCALE
 40
16.335
  9
$CELTYPE
  6
BYLAYER
  9
$DIMSCALE
 40
1.0
  9
$DIMASZ
 40
3.5
  9
$DIMEXO
 40
1.85625
  9
$DIMDLI
 40
11.286
  9
$DIMEXE
 40
5.346
  9
$DIMCEN
 40
2.673
  9
$DIMLFAC
 40
1.0
  9
$DIMBLK
  1
_FILLED
  9
$DIMTXT
 40
3.5
  9
$DIMTOL
 70
1
  9
$DIMLIM
 70
0
  9
$DIMTFAC
 40
1.0
  9
$DIMTP
 40
0.005
  9
$DIMTM
 40
0.005
  9
$PDMODE
 70
3
  9
$PDSIZE
 40
0.3125
  9
$HANDSEED
  5
2EA
  9
$TILEMODE
 70
1
  9
$MEASUREMENT
 70
1
  9
$INSUNITS
 70
4
  0
ENDSEC
  0
SECTION
  2
CLASSES
  0
CLASS
  1
ACDBDICTIONARYWDFLT
  2
AcDbDictionaryWithDefault
  3
AutoCAD 2000
 90
0
 91
1
280
0
281
0
  0
CLASS
  1
ACDBPLACEHOLDER
  2
AcDbPlaceHolder
  3
AutoCAD 2000
 90
0
 91
1
280
0
281
0
  0
CLASS
  1
LAYOUT
  2
AcDbLayout
  3
AutoCAD 2000
 90
0
 91
0
280
0
281
0
  0
ENDSEC
  0
SECTION
  2
TABLES
  0
TABLE
  2
VPORT
  5
8
100
AcDbSymbolTable
 70
2
  0
VPORT
  5
1F4
100
AcDbSymbolTableRecord
100
AcDbViewportTableRecord
  2
*ACTIVE
 70
0
 10
0.0
 20
0.0
 11
1.0
 21
1.0
 12
148.5
 22
105.0
 13
0.0
 23
0.0
 14
1.0
 24
1.0
 15
0.0
 25
0.0
 16
0.0
 26
0.0
 36
1.0
 17
0.0
 27
0.0
 37
0.0
 40
210.0
 41
1.4142857143
 42
50.0
 43
0.0
 44
0.0
 50
0.0
 51
0.0
 71
0
 72
100
 73
1
 74
1
 75
0
 76
0
 77
0
 78
0
  0
ENDTAB
  0
TABLE
  2
LTYPE
  5
5
100
AcDbSymbolTable
 70
6
  0
LTYPE
  5
14
100
AcDbSymbolTableRecord
100
AcDbLinetypeTableRecord
  2
BYBLOCK
 70
0
  3

 72
65
 73
0
 40
0.0
  0
LTYPE
  5
15
100
AcDbSymbolTableRecord
100
AcDbLinetypeTableRecord
  2
BYLAYER
 70
0
  3

 72
65
 73
0
 40
0.0
  0
LTYPE
  5
16
100
AcDbSymbolTableRecord
100
AcDbLinetypeTableRecord
  2
CONTINUOUS
 70
64
  3
Solid line
 72
65
 73
0
 40
0.0
  0
LTYPE
  5
1F5
100
AcDbSymbolTableRecord
100
AcDbLinetypeTableRecord
  2
CENTER
 70
64
  3
____ _ ____ _ ____ _ ____ _ ____ _ ____ _ ____
 72
65
 73
4
 40
0.6
 49
0.375
 74
0
 49
-0.075
 74
0
 49
0.075
 74
0
 49
-0.075
 74
0
  0
LTYPE
  5
1F6
100
AcDbSymbolTableRecord
100
AcDbLinetypeTableRecord
  2
HIDDEN
 70
64
  3
- - - - - - - - - - - - - - - - - - - -
 72
65
 73
2
 40
0.2
 49
0.1
 74
0
 49
-0.1
 74
0
  0
LTYPE
  5
1F7
100
AcDbSymbolTableRecord
100
AcDbLinetypeTableRecord
  2
PHANTOM
 70
64
  3
_____ _ _ _____ _ _ _____ _ _ _____
 72
65
 73
6
 40
0.8
 49
0.45
 74
0
 49
-0.05
 74
0
 49
0.1
 74
0
 49
-0.05
 74
0
 49
0.1
 74
0
 49
-0.05
 74
0
  0
LTYPE
  5
1F8
100
AcDbSymbolTableRecord
100
AcDbLinetypeTableRecord
  2
DOT
 70
64
  3
. . . . . . . . . . . . . . . . . . . .
 72
65
 73
2
 40
0.2
 49
0.1
 74
0
 49
-0.1
 74
0
  0
LTYPE
  5
1F9
100
AcDbSymbolTableRecord
100
AcDbLinetypeTableRecord
  2
DASHED
 70
64
  3
- - - - - - - - - - - - - - - - - - - -
 72
65
 73
2
 40
0.2
 49
0.1
 74
0
 49
-0.1
 74
0
  0
ENDTAB
  0
TABLE
  2
LAYER
  5
2
100
AcDbSymbolTable
 70
36
  0
LAYER
  5
10
100
AcDbSymbolTableRecord
100
AcDbLayerTableRecord
  2
0
 70
0
 62
7
  6
CONTINUOUS
370
-3
390
F
  0
LAYER
  5
1FA
100
AcDbSymbolTableRecord
100
AcDbLayerTableRecord
  2
DEFAULT_1
 70
0
 62
7
  6
CENTER
370
-3
390
F
  0
LAYER
  5
1FB
100
AcDbSymbolTableRecord
100
AcDbLayerTableRecord
  2
DEFAULT_2
 70
0
 62
8
  6
HIDDEN
370
-3
390
F
  0
LAYER
  5
1FC
100
AcDbSymbolTableRecord
100
AcDbLayerTableRecord
  2
DEFAULT_3
 70
0
 62
7
  6
PHANTOM
370
-3
390
F
  0
LAYER
  5
1FD
100
AcDbSymbolTableRecord
100
AcDbLayerTableRecord
  2
ACHSEN
 70
0
 62
7
  6
CONTINUOUS
370
-3
390
F
  0
LAYER
  5
1FE
100
AcDbSymbolTableRecord
100
AcDbLayerTableRecord
  2
BEZUGSACHSEN
 70
0
 62
7
  6
CONTINUOUS
370
-3
390
F
  0
LAYER
  5
1FF
100
AcDbSymbolTableRecord
100
AcDbLayerTableRecord
  2
BEZUGSEBENE_B
 70
0
 62
7
  6
CONTINUOUS
370
-3
390
F
  0
LAYER
  5
200
100
AcDbSymbolTableRecord
100
AcDbLayerTableRecord
  2
BOHRUNGEN
 70
0
 62
7
  6
CONTINUOUS
370
-3
390
F
  0
LAYER
  5
201
100
AcDbSymbolTableRecord
100
AcDbLayerTableRecord
  2
EBENEN
 70
0
 62
7
  6
CONTINUOUS
370
-3
390
F
  0
LAYER
  5
202
100
AcDbSymbolTableRecord
100
AcDbLayerTableRecord
  2
FASEN
 70
0
 62
7
  6
CONTINUOUS
370
-3
390
F
  0
LAYER
  5
203
100
AcDbSymbolTableRecord
100
AcDbLayerTableRecord
  2
FLAECHEN
 70
0
 62
7
  6
CONTINUOUS
370
-3
390
F
  0
LAYER
  5
204
100
AcDbSymbolTableRecord
100
AcDbLayerTableRecord
  2
GEWINDE
 70
0
 62
7
  6
CONTINUOUS
370
-3
390
F
  0
LAYER
  5
205
100
AcDbSymbolTableRecord
100
AcDbLayerTableRecord
  2
KOORDSYS
 70
0
 62
7
  6
CONTINUOUS
370
-3
390
F
  0
LAYER
  5
206
100
AcDbSymbolTableRecord
100
AcDbLayerTableRecord
  2
KURVEN
 70
0
 62
7
  6
CONTINUOUS
370
-3
390
F
  0
LAYER
  5
207
100
AcDbSymbolTableRecord
100
AcDbLayerTableRecord
  2
KURVE_FUER_GTOL_DETAILANSICHT
 70
0
 62
7
  6
CONTINUOUS
370
-3
390
F
  0
LAYER
  5
208
100
AcDbSymbolTableRecord
100
AcDbLayerTableRecord
  2
KURVE_GAUGE2_POLIGON_INNENEINST
 70
0
 62
7
  6
CONTINUOUS
370
-3
390
F
  0
LAYER
  5
209
100
AcDbSymbolTableRecord
100
AcDbLayerTableRecord
  2
KURVE_PHANTOM1_GAUGE_PIN_1
 70
0
 62
7
  6
CONTINUOUS
370
-3
390
F
  0
LAYER
  5
20A
100
AcDbSymbolTableRecord
100
AcDbLayerTableRecord
  2
KURVE_PHANTOM2_GAUGE_PIN1
 70
0
 62
7
  6
CONTINUOUS
370
-3
390
F
  0
LAYER
  5
20B
100
AcDbSymbolTableRecord
100
AcDbLayerTableRecord
  2
KURVE_POLIGON_BEMASUNG
 70
0
 62
7
  6
CONTINUOUS
370
-3
390
F
  0
LAYER
  5
20C
100
AcDbSymbolTableRecord
100
AcDbLayerTableRecord
  2
PUNKTE
 70
0
 62
7
  6
CONTINUOUS
370
-3
390
F
  0
LAYER
  5
20D
100
AcDbSymbolTableRecord
100
AcDbLayerTableRecord
  2
RUNDUNGEN
 70
0
 62
7
  6
CONTINUOUS
370
-3
390
F
  0
LAYER
  5
20E
100
AcDbSymbolTableRecord
100
AcDbLayerTableRecord
  2
S_ACHSEN
 70
0
 62
7
  6
CONTINUOUS
370
-3
390
F
  0
LAYER
  5
20F
100
AcDbSymbolTableRecord
100
AcDbLayerTableRecord
  2
S_EBENEN
 70
0
 62
7
  6
CONTINUOUS
370
-3
390
F
  0
LAYER
  5
210
100
AcDbSymbolTableRecord
100
AcDbLayerTableRecord
  2
S_KOORDSYS
 70
0
 62
7
  6
CONTINUOUS
370
-3
390
F
  0
LAYER
  5
211
100
AcDbSymbolTableRecord
100
AcDbLayerTableRecord
  2
TOL_BEZUEGE
 70
0
 62
7
  6
CONTINUOUS
370
-3
390
F
  0
LAYER
  5
212
100
AcDbSymbolTableRecord
100
AcDbLayerTableRecord
  2
VERBFLAECHE
 70
0
 62
7
  6
CONTINUOUS
370
-3
390
F
  0
LAYER
  5
213
100
AcDbSymbolTableRecord
100
AcDbLayerTableRecord
  2
ZEICHNUNGSBEMASSUNGEN
 70
0
 62
7
  6
CONTINUOUS
370
-3
390
F
  0
ENDTAB
  0
TABLE
  2
STYLE
  5
3
100
AcDbSymbolTable
 70
1
  0
STYLE
  5
11
100
AcDbSymbolTableRecord
100
AcDbTextStyleTableRecord
  2
STANDARD
 70
0
 40
0.0
 41
0.7
 50
0.0
 71
0
 42
0.2
  3
txt
  4

  0
STYLE
  5
214
100
AcDbSymbolTableRecord
100
AcDbTextStyleTableRecord
  2
TEXTSTYLE_1
 70
0
 40
0.0
 41
0.8
 50
0.0
 71
0
 42
0.2
  3
gdt
  4

  0
STYLE
  5
215
100
AcDbSymbolTableRecord
100
AcDbTextStyleTableRecord
  2
TEXTSTYLE_2
 70
0
 40
0.0
 41
0.7
 50
0.0
 71
0
 42
0.2
  3
gdt
  4

  0
ENDTAB
  0
TABLE
  2
VIEW
  5
6
100
AcDbSymbolTable
 70
0
  0
ENDTAB
  0
TABLE
  2
UCS
  5
7
100
AcDbSymbolTable
 70
0
  0
ENDTAB
  0
TABLE
  2
APPID
  5
9
100
AcDbSymbolTable
 70
1
  0
APPID
  5
216
100
AcDbSymbolTableRecord
100
AcDbRegAppTableRecord
  2
ACAD
 70
0
  0
ENDTAB
  0
TABLE
  2
BLOCK_RECORD
  5
1
100
AcDbSymbolTable
 70
0
  0
BLOCK_RECORD
  5
217
100
AcDbSymbolTableRecord
100
AcDbBlockTableRecord
  2
*Model_Space
  0
BLOCK_RECORD
  5
218
100
AcDbSymbolTableRecord
100
AcDbBlockTableRecord
  2
*Paper_Space
  0
BLOCK_RECORD
  5
219
100
AcDbSymbolTableRecord
100
AcDbBlockTableRecord
  2
_FILLED
  0
BLOCK_RECORD
  5
21A
100
AcDbSymbolTableRecord
100
AcDbBlockTableRecord
  2
*D0
  0
BLOCK_RECORD
  5
21B
100
AcDbSymbolTableRecord
100
AcDbBlockTableRecord
  2
*D1
  0
BLOCK_RECORD
  5
21C
100
AcDbSymbolTableRecord
100
AcDbBlockTableRecord
  2
*D2
  0
BLOCK_RECORD
  5
21D
100
AcDbSymbolTableRecord
100
AcDbBlockTableRecord
  2
*D3
  0
BLOCK_RECORD
  5
21E
100
AcDbSymbolTableRecord
100
AcDbBlockTableRecord
  2
*D4
  0
BLOCK_RECORD
  5
21F
100
AcDbSymbolTableRecord
100
AcDbBlockTableRecord
  2
*D5
  0
ENDTAB
  0
TABLE
  2
DIMSTYLE
  5
A
100
AcDbSymbolTable
 70
1
100
AcDbDimStyleTable
 71
0
  0
DIMSTYLE
105
220
100
AcDbSymbolTableRecord
100
AcDbDimStyleTableRecord
  2
STANDARD
 70
0
  3

  4

 40
1.0
 41
3.5
 42
0.0625
 43
0.38
 44
0.18
 45
0.0
 46
0.0
 47
0.005
 48
0.005
140
3.5
141
0.09
142
0.0
143
25.4
144
1.0
145
0.0
146
1.0
147
0.09
 71
1.0
 72
0.0
 73
0
 74
0
 75
0
 76
0
 77
1
 78
8
170
0
171
2
172
0
173
0
174
0
175
0
176
0
177
0
178
5
270
2
271
3
272
3
273
2
274
2
275
0
280
0
281
0
282
0
283
1
284
8
285
0
286
0
287
3
288
0
340
11
341
219
342
219
343
219
344
219
  0
DIMSTYLE
105
221
100
AcDbSymbolTableRecord
100
AcDbDimStyleTableRecord
  2
DIMSTYLE_1
 70
0
  3

  4

 40
1.0
 41
3.5
 42
0.0625
 43
0.38
 44
0.18
 45
0.0
 46
0.0
 47
0.01
 48
0.01
140
3.5
141
0.09
142
0.0
143
25.4
144
1.0
145
0.0
146
1.0
147
0.09
 71
0.0
 72
0.0
 73
0
 74
0
 75
0
 76
0
 77
1
 78
8
170
0
171
2
172
0
173
0
174
0
175
0
176
0
177
0
178
5
270
2
271
2
272
2
273
2
274
2
275
0
280
0
281
0
282
0
283
1
284
8
285
0
286
0
287
3
288
0
340
11
341
219
342
219
343
219
344
219
  0
DIMSTYLE
105
222
100
AcDbSymbolTableRecord
100
AcDbDimStyleTableRecord
  2
DIMSTYLE_2
 70
0
  3

  4

 40
1.0
 41
3.5
 42
0.0625
 43
0.38
 44
0.18
 45
0.0
 46
0.0
 47
0.3
 48
0.3
140
3.5
141
0.09
142
0.0
143
25.4
144
1.0
145
0.0
146
1.0
147
0.09
 71
0.0
 72
0.0
 73
0
 74
0
 75
0
 76
0
 77
1
 78
8
170
0
171
2
172
0
173
0
174
0
175
0
176
0
177
0
178
5
270
2
271
2
272
2
273
2
274
2
275
0
280
0
281
0
282
0
283
1
284
8
285
0
286
0
287
3
288
0
340
11
341
219
342
219
343
219
344
219
  0
DIMSTYLE
105
223
100
AcDbSymbolTableRecord
100
AcDbDimStyleTableRecord
  2
DIMSTYLE_3
 70
0
  3

  4

 40
1.0
 41
3.5
 42
0.0625
 43
0.38
 44
0.18
 45
0.0
 46
0.0
 47
0.009
 48
0.0
140
3.5
141
0.09
142
0.0
143
25.4
144
1.0
145
0.0
146
1.0
147
0.09
 71
0.0
 72
0.0
 73
0
 74
0
 75
0
 76
0
 77
1
 78
8
170
0
171
2
172
0
173
0
174
0
175
0
176
0
177
0
178
5
270
2
271
3
272
3
273
2
274
2
275
0
280
0
281
0
282
0
283
1
284
8
285
0
286
0
287
3
288
0
340
11
341
219
342
219
343
219
344
219
  0
DIMSTYLE
105
224
100
AcDbSymbolTableRecord
100
AcDbDimStyleTableRecord
  2
DIMSTYLE_4
 70
0
  3

  4

 40
1.0
 41
3.5
 42
0.0625
 43
0.38
 44
0.18
 45
0.0
 46
0.0
 47
0.0
 48
0.15
140
3.5
141
0.09
142
0.0
143
25.4
144
1.0
145
0.0
146
1.0
147
0.09
 71
0.0
 72
0.0
 73
0
 74
0
 75
0
 76
0
 77
1
 78
8
170
0
171
2
172
0
173
0
174
0
175
0
176
0
177
0
178
5
270
2
271
2
272
2
273
2
274
2
275
0
280
0
281
0
282
0
283
1
284
8
285
0
286
0
287
3
288
0
340
11
341
219
342
219
343
219
344
219
  0
ENDTAB
  0
ENDSEC
  0
SECTION
  2
BLOCKS
  0
BLOCK
  5
20
100
AcDbEntity
  8
0
100
AcDbBlockBegin
  2
*Model_Space
 70
0
 10
0.0
 20
0.0
 30
0.0
  3
*Model_Space
  1

  0
ENDBLK
  5
21
100
AcDbEntity
  8
0
100
AcDbBlockEnd
  0
BLOCK
  5
1C
100
AcDbEntity
  8
0
100
AcDbBlockBegin
  2
*Paper_Space
 70
0
 10
0.0
 20
0.0
 30
0.0
  3
*Paper_Space
  1

  0
ENDBLK
  5
1D
100
AcDbEntity
  8
0
100
AcDbBlockEnd
  0
BLOCK
  5
225
100
AcDbEntity
  8
0
100
AcDbBlockBegin
  2
_FILLED
 70
64
 10
0.0
 20
0.0
  3
_FILLED
  1

  0
SOLID
  5
226
100
AcDbEntity
  8
0
  6
BYBLOCK
 62
0
100
AcDbTrace
 10
0.0
 20
0.0
 11
-1.0
 21
0.125
 12
-1.0
 22
-0.125
 13
-1.0
 23
-0.125
  0
ENDBLK
  5
227
100
AcDbEntity
  8
0
  6
BYBLOCK
 62
0
100
AcDbBlockEnd
  0
BLOCK
  5
228
100
AcDbEntity
  8
0
100
AcDbBlockBegin
 62
2
  6
CONTINUOUS
  2
*D0
 70
65
 10
0.0
 20
0.0
  3
*D0
  1

  0
MTEXT
  5
229
100
AcDbEntity
  8
0
100
AcDbMText
 62
5
  6
CONTINUOUS
  7
TEXTSTYLE_2
 71
2
 72
1
 10
223.0123193867
 20
137.5469869329
 30
0.0
 11
0.0
 21
1.0
 31
0.0
 44
0.9
  1
{\Fgdt;n}\Ftxt;40
 40
3.5
 41
10.1666666667
  0
LINE
  5
22A
100
AcDbEntity
  8
0
100
AcDbLine
 62
2
  6
CONTINUOUS
 10
209.034481981
 20
157.5469869329
 11
228.8873193867
 21
157.5469869329
  0
LINE
  5
22B
100
AcDbEntity
  8
0
100
AcDbLine
 62
2
  6
CONTINUOUS
 10
209.034481981
 20
117.5469869329
 11
228.8873193867
 21
117.5469869329
  0
LINE
  5
22C
100
AcDbEntity
  8
0
100
AcDbLine
 62
2
  6
CONTINUOUS
 10
227.3873193867
 20
157.5469869329
 11
227.3873193867
 21
137.5469869329
  0
LINE
  5
22D
100
AcDbEntity
  8
0
100
AcDbLine
 62
2
  6
CONTINUOUS
 10
227.3873193867
 20
117.5469869329
 11
227.3873193867
 21
137.5469869329
  0
INSERT
  5
22E
100
AcDbEntity
  8
0
100
AcDbBlockReference
 62
2
  6
CONTINUOUS
  2
_FILLED
 10
227.3873193867
 20
157.5469869329
 41
3.5
 42
3.5
 43
3.5
 50
90.0
  0
INSERT
  5
22F
100
AcDbEntity
  8
0
100
AcDbBlockReference
 62
2
  6
CONTINUOUS
  2
_FILLED
 10
227.3873193867
 20
117.5469869329
 41
3.5
 42
3.5
 43
3.5
 50
270.0
  0
ENDBLK
  5
230
100
AcDbEntity
  8
0
  6
BYBLOCK
 62
0
100
AcDbBlockEnd
  0
BLOCK
  5
231
100
AcDbEntity
  8
0
100
AcDbBlockBegin
 62
2
  6
CONTINUOUS
  2
*D1
 70
65
 10
0.0
 20
0.0
  3
*D1
  1

  0
MTEXT
  5
232
100
AcDbEntity
  8
0
100
AcDbMText
 62
5
  6
CONTINUOUS
  7
STANDARD
 71
2
 72
1
 10
175.034481981
 20
189.860614605
 30
0.0
 11
1.0
 21
0.0
 31
0.0
 44
0.9
  1
65
 40
3.5
 41
5.25
  0
LINE
  5
233
100
AcDbEntity
  8
0
100
AcDbLine
 62
2
  6
CONTINUOUS
 10
142.534481981
 20
170.423497554
 11
142.534481981
 21
186.985614605
  0
LINE
  5
234
100
AcDbEntity
  8
0
100
AcDbLine
 62
2
  6
CONTINUOUS
 10
207.534481981
 20
159.0218298803
 11
207.534481981
 21
186.985614605
  0
LINE
  5
235
100
AcDbEntity
  8
0
100
AcDbLine
 62
2
  6
CONTINUOUS
 10
142.534481981
 20
185.485614605
 11
175.034481981
 21
185.485614605
  0
LINE
  5
236
100
AcDbEntity
  8
0
100
AcDbLine
 62
2
  6
CONTINUOUS
 10
207.534481981
 20
185.485614605
 11
175.034481981
 21
185.485614605
  0
INSERT
  5
237
100
AcDbEntity
  8
0
100
AcDbBlockReference
 62
2
  6
CONTINUOUS
  2
_FILLED
 10
142.534481981
 20
185.485614605
 41
3.5
 42
3.5
 43
3.5
 50
180.0
  0
INSERT
  5
238
100
AcDbEntity
  8
0
100
AcDbBlockReference
 62
2
  6
CONTINUOUS
  2
_FILLED
 10
207.534481981
 20
185.485614605
 41
3.5
 42
3.5
 43
3.5
  0
ENDBLK
  5
239
100
AcDbEntity
  8
0
  6
BYBLOCK
 62
0
100
AcDbBlockEnd
  0
BLOCK
  5
23A
100
AcDbEntity
  8
0
100
AcDbBlockBegin
 62
2
  6
CONTINUOUS
  2
*D2
 70
65
 10
0.0
 20
0.0
  3
*D2
  1

  0
MTEXT
  5
23B
100
AcDbEntity
  8
0
100
AcDbMText
 62
5
  6
CONTINUOUS
  7
TEXTSTYLE_2
 71
2
 72
1
 10
215.8866484744
 20
137.5469869329
 30
0.0
 11
0.0
 21
1.0
 31
0.0
 44
0.9
  1
{\Fgdt;n}\Ftxt;20
 40
3.5
 41
10.1666666667
  0
LINE
  5
23C
100
AcDbEntity
  8
0
100
AcDbLine
 62
2
  6
CONTINUOUS
 10
209.2380474582
 20
127.5447369329
 11
221.7616484744
 21
127.5447369329
  0
LINE
  5
23D
100
AcDbEntity
  8
0
100
AcDbLine
 62
2
  6
CONTINUOUS
 10
209.2380474582
 20
147.5492369329
 11
221.7616484744
 21
147.5492369329
  0
LINE
  5
23E
100
AcDbEntity
  8
0
100
AcDbLine
 62
2
  6
CONTINUOUS
 10
220.2616484744
 20
127.5447369329
 11
220.2616484744
 21
137.5469869329
  0
LINE
  5
23F
100
AcDbEntity
  8
0
100
AcDbLine
 62
2
  6
CONTINUOUS
 10
220.2616484744
 20
147.5492369329
 11
220.2616484744
 21
137.5469869329
  0
INSERT
  5
240
100
AcDbEntity
  8
0
100
AcDbBlockReference
 62
2
  6
CONTINUOUS
  2
_FILLED
 10
220.2616484744
 20
127.5447369329
 41
3.5
 42
3.5
 43
3.5
 50
270.0
  0
INSERT
  5
241
100
AcDbEntity
  8
0
100
AcDbBlockReference
 62
2
  6
CONTINUOUS
  2
_FILLED
 10
220.2616484744
 20
147.5492369329
 41
3.5
 42
3.5
 43
3.5
 50
90.0
  0
ENDBLK
  5
242
100
AcDbEntity
  8
0
  6
BYBLOCK
 62
0
100
AcDbBlockEnd
  0
BLOCK
  5
243
100
AcDbEntity
  8
0
100
AcDbBlockBegin
 62
2
  6
CONTINUOUS
  2
*D3
 70
65
 10
0.0
 20
0.0
  3
*D3
  1

  0
MTEXT
  5
244
100
AcDbEntity
  8
0
100
AcDbMText
 62
5
  6
CONTINUOUS
  7
STANDARD
 71
2
 72
1
 10
186.034481981
 20
180.9310639166
 30
0.0
 11
1.0
 21
0.0
 31
0.0
 44
0.9
  1
43
 40
3.5
 41
5.25
  0
LINE
  5
245
100
AcDbEntity
  8
0
100
AcDbLine
 62
2
  6
CONTINUOUS
 10
207.534481981
 20
158.7034108628
 11
207.534481981
 21
178.0560639166
  0
LINE
  5
246
100
AcDbEntity
  8
0
100
AcDbLine
 62
2
  6
CONTINUOUS
 10
164.534481981
 20
166.2296566448
 11
164.534481981
 21
178.0560639166
  0
LINE
  5
247
100
AcDbEntity
  8
0
100
AcDbLine
 62
2
  6
CONTINUOUS
 10
207.534481981
 20
176.5560639166
 11
186.034481981
 21
176.5560639166
  0
LINE
  5
248
100
AcDbEntity
  8
0
100
AcDbLine
 62
2
  6
CONTINUOUS
 10
164.534481981
 20
176.5560639166
 11
186.034481981
 21
176.5560639166
  0
INSERT
  5
249
100
AcDbEntity
  8
0
100
AcDbBlockReference
 62
2
  6
CONTINUOUS
  2
_FILLED
 10
207.534481981
 20
176.5560639166
 41
3.5
 42
3.5
 43
3.5
  0
INSERT
  5
24A
100
AcDbEntity
  8
0
100
AcDbBlockReference
 62
2
  6
CONTINUOUS
  2
_FILLED
 10
164.534481981
 20
176.5560639166
 41
3.5
 42
3.5
 43
3.5
 50
180.0
  0
ENDBLK
  5
24B
100
AcDbEntity
  8
0
  6
BYBLOCK
 62
0
100
AcDbBlockEnd
  0
BLOCK
  5
24C
100
AcDbEntity
  8
0
100
AcDbBlockBegin
 62
2
  6
CONTINUOUS
  2
*D4
 70
65
 10
0.0
 20
0.0
  3
*D4
  1

  0
MTEXT
  5
24D
100
AcDbEntity
  8
0
100
AcDbMText
 62
5
  6
CONTINUOUS
  7
STANDARD
 71
2
 72
1
 10
156.034481981
 20
197.7566338916
 30
0.0
 11
1.0
 21
0.0
 31
0.0
 44
0.9
  1
103
 40
3.5
 41
7.25
  0
LINE
  5
24E
100
AcDbEntity
  8
0
100
AcDbLine
 62
2
  6
CONTINUOUS
 10
207.534481981
 20
173.7919763514
 11
207.534481981
 21
194.8816338916
  0
LINE
  5
24F
100
AcDbEntity
  8
0
100
AcDbLine
 62
2
  6
CONTINUOUS
 10
104.534481981
 20
118.8608711636
 11
104.534481981
 21
194.8816338916
  0
LINE
  5
250
100
AcDbEntity
  8
0
100
AcDbLine
 62
2
  6
CONTINUOUS
 10
207.534481981
 20
193.3816338916
 11
156.034481981
 21
193.3816338916
  0
LINE
  5
251
100
AcDbEntity
  8
0
100
AcDbLine
 62
2
  6
CONTINUOUS
 10
104.534481981
 20
193.3816338916
 11
156.034481981
 21
193.3816338916
  0
INSERT
  5
252
100
AcDbEntity
  8
0
100
AcDbBlockReference
 62
2
  6
CONTINUOUS
  2
_FILLED
 10
207.534481981
 20
193.3816338916
 41
3.5
 42
3.5
 43
3.5
  0
INSERT
  5
253
100
AcDbEntity
  8
0
100
AcDbBlockReference
 62
2
  6
CONTINUOUS
  2
_FILLED
 10
104.534481981
 20
193.3816338916
 41
3.5
 42
3.5
 43
3.5
 50
180.0
  0
ENDBLK
  5
254
100
AcDbEntity
  8
0
  6
BYBLOCK
 62
0
100
AcDbBlockEnd
  0
BLOCK
  5
255
100
AcDbEntity
  8
0
100
AcDbBlockBegin
 62
2
  6
CONTINUOUS
  2
*D5
 70
65
 10
0.0
 20
0.0
  3
*D5
  1

  0
MTEXT
  5
256
100
AcDbEntity
  8
0
100
AcDbMText
 62
5
  6
CONTINUOUS
  7
TEXTSTYLE_2
 71
2
 72
1
 10
231.3030635497
 20
137.5469869329
 30
0.0
 11
0.0
 21
1.0
 31
0.0
 44
0.9
  1
{\Fgdt;n}\Ftxt;52
 40
3.5
 41
9.9166666667
  0
LINE
  5
257
100
AcDbEntity
  8
0
100
AcDbLine
 62
2
  6
CONTINUOUS
 10
196.2478594675
 20
163.5094869329
 11
204.381937258
 21
163.5094869329
  0
LINE
  5
258
100
AcDbEntity
  8
0
100
AcDbLine
 62
2
  6
CONTINUOUS
 10
209.2810408004
 20
163.5094869329
 11
237.1780635497
 21
163.5094869329
  0
LINE
  5
259
100
AcDbEntity
  8
0
100
AcDbLine
 62
2
  6
CONTINUOUS
 10
196.2478594675
 20
111.5844869329
 11
237.1780635497
 21
111.5844869329
  0
LINE
  5
25A
100
AcDbEntity
  8
0
100
AcDbLine
 62
2
  6
CONTINUOUS
 10
235.6780635497
 20
163.5094869329
 11
235.6780635497
 21
137.5469869329
  0
LINE
  5
25B
100
AcDbEntity
  8
0
100
AcDbLine
 62
2
  6
CONTINUOUS
 10
235.6780635497
 20
111.5844869329
 11
235.6780635497
 21
137.5469869329
  0
INSERT
  5
25C
100
AcDbEntity
  8
0
100
AcDbBlockReference
 62
2
  6
CONTINUOUS
  2
_FILLED
 10
235.6780635497
 20
163.5094869329
 41
3.5
 42
3.5
 43
3.5
 50
90.0
  0
INSERT
  5
25D
100
AcDbEntity
  8
0
100
AcDbBlockReference
 62
2
  6
CONTINUOUS
  2
_FILLED
 10
235.6780635497
 20
111.5844869329
 41
3.5
 42
3.5
 43
3.5
 50
270.0
  0
ENDBLK
  5
25E
100
AcDbEntity
  8
0
  6
BYBLOCK
 62
0
100
AcDbBlockEnd
  0
ENDSEC
  0
SECTION
  2
ENTITIES
  0
DIMENSION
  5
25F
100
AcDbEntity
  8
0
100
AcDbDimension
 62
2
  6
CONTINUOUS
  2
*D0
 10
227.3873193867
 20
117.5469869329
 11
225.901173161
 21
135.274745413
 70
160
 71
2
 42
40.0
  1
%%c<>
  3
DIMSTYLE_1
100
AcDbAlignedDimension
 13
209.034481981
 23
157.5469869329
 14
209.034481981
 24
117.5469869329
 50
270.0
100
AcDbRotatedDimension
  0
DIMENSION
  5
260
100
AcDbEntity
  8
0
100
AcDbDimension
 62
2
  6
CONTINUOUS
  2
*D1
 10
207.534481981
 20
185.485614605
 11
172.409481981
 21
188.110614605
 70
160
 71
2
 42
65.0
  3
DIMSTYLE_2
100
AcDbAlignedDimension
 13
142.534481981
 23
170.423497554
 14
207.534481981
 24
159.0218298803
100
AcDbRotatedDimension
  0
DIMENSION
  5
261
100
AcDbEntity
  8
0
100
AcDbDimension
 62
2
  6
CONTINUOUS
  2
*D2
 10
220.2616484744
 20
147.5492369329
 11
218.7755022488
 21
135.274745413
 70
160
 71
2
 42
20.0045
  1
%%c<>
  3
DIMSTYLE_3
100
AcDbAlignedDimension
 13
209.2380474582
 23
127.5447369329
 14
209.2380474582
 24
147.5492369329
 50
90.0
100
AcDbRotatedDimension
  0
DIMENSION
  5
262
100
AcDbEntity
  8
0
100
AcDbDimension
 62
2
  6
CONTINUOUS
  2
*D3
 10
164.534481981
 20
176.5560639166
 11
183.409481981
 21
179.1810639166
 70
160
 71
2
 42
43.0
  3
DIMSTYLE_2
100
AcDbAlignedDimension
 13
207.534481981
 23
158.7034108628
 14
164.534481981
 24
166.2296566448
 50
180.0
100
AcDbRotatedDimension
  0
DIMENSION
  5
263
100
AcDbEntity
  8
0
100
AcDbDimension
 62
2
  6
CONTINUOUS
  2
*D4
 10
104.534481981
 20
193.3816338916
 11
152.409481981
 21
196.0066338916
 70
160
 71
2
 42
103.0
  3
DIMSTYLE_2
100
AcDbAlignedDimension
 13
207.534481981
 23
173.7919763514
 14
104.534481981
 24
118.8608711636
 50
180.0
100
AcDbRotatedDimension
  0
DIMENSION
  5
264
100
AcDbEntity
  8
0
100
AcDbDimension
 62
2
  6
CONTINUOUS
  2
*D5
 10
235.6780635497
 20
111.5844869329
 11
234.163912723
 21
135.3306202044
 70
160
 71
2
 42
51.925
  1
%%c<>
  3
DIMSTYLE_4
100
AcDbAlignedDimension
 13
196.2478594675
 23
163.5094869329
 14
196.2478594675
 24
111.5844869329
 50
270.0
100
AcDbRotatedDimension
  0
MTEXT
  5
265
100
AcDbEntity
  8
0
100
AcDbMText
 62
5
  6
CONTINUOUS
  7
STANDARD
 71
1
 72
1
 10
16.7210529019
 20
95.5862011536
 30
0.0
 11
1.0
 21
0.0
 31
0.0
 44
0.9
  3
Für diese Unterlage behalten wir das Ur-\Pheberrecht. Sie darf nur für den von uns \Pbestimmten Zweck benutzt und ohne unsere \PZustimmung weder vervielfältigt noch\PDritten zugänglich gemacht werden\P \PWe own the copyright of this document. It \Pde
  1
termined and may neither be copied or \Pmade accessible to outsiders without our\Ppermission.\P \PCe plan reste notre propriété. Il ne peut\Pêtre utilisé, copié ou reproduit sans notre\Paccord.\P 
 40
3.5
 41
104.8333333333
  0
LINE
  5
266
100
AcDbEntity
  8
0
100
AcDbLine
 62
7
  6
CONTINUOUS
 10
0.0
 20
0.0
 11
0.0
 21
210.0
  0
LINE
  5
267
100
AcDbEntity
  8
0
100
AcDbLine
 62
7
  6
CONTINUOUS
 10
0.0
 20
0.0
 11
297.0
 21
0.0
  0
LINE
  5
268
100
AcDbEntity
  8
0
100
AcDbLine
 62
7
  6
CONTINUOUS
 10
0.0
 20
210.0
 11
297.0
 21
210.0
  0
LINE
  5
269
100
AcDbEntity
  8
0
100
AcDbLine
 62
7
  6
CONTINUOUS
 10
297.0
 20
0.0
 11
297.0
 21
210.0
  0
LINE
  5
26A
100
AcDbEntity
  8
0
100
AcDbLine
 62
7
  6
CONTINUOUS
 10
104.534481981
 20
115.85464894
 11
104.534481981
 21
152.5082315717
  0
LINE
  5
26B
100
AcDbEntity
  8
ACHSEN
100
AcDbLine
 62
7
  6
CONTINUOUS
 10
104.534481981
 20
152.5082315717
 11
104.534481981
 21
156.2954662469
  0
LINE
  5
26C
100
AcDbEntity
  8
ACHSEN
100
AcDbLine
 62
7
  6
CONTINUOUS
 10
106.034481981
 20
157.0439765465
 11
106.034481981
 21
153.2582315717
  0
LINE
  5
26D
100
AcDbEntity
  8
0
100
AcDbLine
 62
7
  6
CONTINUOUS
 10
106.034481981
 20
153.2582315717
 11
106.034481981
 21
114.9886235363
  0
LINE
  5
26E
100
AcDbEntity
  8
0
100
AcDbLine
 62
9
  6
CONTINUOUS
 10
106.034481981
 20
153.2582315717
 11
104.534481981
 21
152.5082315717
  0
LINE
  5
26F
100
AcDbEntity
  8
0
100
AcDbLine
 62
7
  6
CONTINUOUS
 10
106.034481981
 20
114.9886235363
 11
104.534481981
 21
115.85464894
  0
LINE
  5
270
100
AcDbEntity
  8
0
100
AcDbLine
 62
7
  6
CONTINUOUS
 10
142.534483817
 20
168.7469850256
 11
142.8344839069
 21
169.0469850795
  0
LINE
  5
271
100
AcDbEntity
  8
0
100
AcDbLine
 62
9
  6
CONTINUOUS
 10
106.034481981
 20
116.6108711636
 11
104.534481981
 21
117.3608711636
  0
LINE
  5
272
100
AcDbEntity
  8
ACHSEN
100
AcDbLine
 62
7
  6
CENTER
 10
127.034481981
 20
114.6135014259
 11
127.034481981
 21
161.7353574975
  0
LINE
  5
273
100
AcDbEntity
  8
0
100
AcDbLine
 62
7
  6
CONTINUOUS
 10
164.534481981
 20
106.0469869329
 11
142.8344820534
 21
106.0469869329
  0
LINE
  5
274
100
AcDbEntity
  8
0
100
AcDbLine
 62
7
  6
CONTINUOUS
 10
155.9958068464
 20
107.4663941726
 11
153.0731571156
 21
107.4663941726
  0
LINE
  5
275
100
AcDbEntity
  8
0
100
AcDbLine
 62
7
  6
CONTINUOUS
 10
142.534483817
 20
106.3469888403
 11
142.8344839069
 21
106.0469887864
  0
LINE
  5
276
100
AcDbEntity
  8
RUNDUNGEN
100
AcDbLine
 62
7
  6
CONTINUOUS
 10
194.5261648048
 20
111.5844869329
 11
165.534481981
 21
111.5844869329
  0
LINE
  5
277
100
AcDbEntity
  8
0
100
AcDbLine
 62
7
  6
CONTINUOUS
 10
165.534481981
 20
111.5844869329
 11
194.5261648048
 21
111.5844869329
  0
LINE
  5
278
100
AcDbEntity
  8
0
100
AcDbLine
 62
7
  6
CONTINUOUS
 10
106.034481981
 20
114.9886235363
 11
140.5448848038
 21
114.1216020971
  0
LINE
  5
279
100
AcDbEntity
  8
0
100
AcDbLine
 62
7
  6
CONTINUOUS
 10
140.3345450701
 20
158.1670873025
 11
140.3345450701
 21
154.0045176816
  0
LINE
  5
27A
100
AcDbEntity
  8
0
100
AcDbLine
 62
7
  6
CONTINUOUS
 10
140.3345450701
 20
142.7718580635
 11
140.3345450701
 21
115.8645850537
  0
LINE
  5
27B
100
AcDbEntity
  8
0
100
AcDbLine
 62
9
  6
CONTINUOUS
 10
140.5395050921
 20
157.9721735027
 11
140.5395050921
 21
152.2319291377
  0
LINE
  5
27C
100
AcDbEntity
  8
0
100
AcDbLine
 62
9
  6
CONTINUOUS
 10
140.5395050921
 20
145.7329301197
 11
140.5395050921
 21
114.6761015414
  0
LINE
  5
27D
100
AcDbEntity
  8
0
100
AcDbLine
 62
9
  6
CONTINUOUS
 10
141.2273751998
 20
114.8040937141
 11
141.2273751998
 21
115.443430282
  0
LINE
  5
27E
100
AcDbEntity
  8
0
100
AcDbLine
 62
9
  6
CONTINUOUS
 10
141.2273751998
 20
143.9615266937
 11
141.2273751998
 21
153.2360038231
  0
LINE
  5
27F
100
AcDbEntity
  8
0
100
AcDbLine
 62
9
  6
CONTINUOUS
 10
142.1395050921
 20
158.0123710718
 11
142.1395050921
 21
153.8914652199
  0
LINE
  5
280
100
AcDbEntity
  8
0
100
AcDbLine
 62
9
  6
CONTINUOUS
 10
142.1395050921
 20
142.7299373861
 11
142.1395050921
 21
116.0195581928
  0
LINE
  5
281
100
AcDbEntity
  8
0
100
AcDbLine
 62
7
  6
CONTINUOUS
 10
142.3344171292
 20
154.3365615187
 11
142.334481981
 21
154.3723600281
  0
LINE
  5
282
100
AcDbEntity
  8
0
100
AcDbLine
 62
9
  6
CONTINUOUS
 10
140.3345450701
 20
115.8645850537
 11
106.034481981
 21
116.6108711636
  0
LINE
  5
283
100
AcDbEntity
  8
0
100
AcDbLine
 62
7
  6
CONTINUOUS
 10
140.7875107318
 20
114.6702580576
 11
140.5395050921
 21
114.6761015414
  0
LINE
  5
284
100
AcDbEntity
  8
0
100
AcDbLine
 62
7
  6
CONTINUOUS
 10
142.334481981
 20
154.3580702388
 11
142.334481981
 21
160.0804717939
  0
LINE
  5
285
100
AcDbEntity
  8
0
100
AcDbLine
 62
7
  6
CONTINUOUS
 10
142.534481981
 20
106.3472626025
 11
142.534481981
 21
168.7467112634
  0
LINE
  5
286
100
AcDbEntity
  8
0
100
AcDbLine
 62
7
  6
CONTINUOUS
 10
142.8344820546
 20
106.0469869329
 11
142.8344820546
 21
169.0469869329
  0
LINE
  5
287
100
AcDbEntity
  8
0
100
AcDbLine
 62
7
  6
CONTINUOUS
 10
142.3344171292
 20
116.1368188415
 11
142.334481981
 21
142.1353184806
  0
LINE
  5
288
100
AcDbEntity
  8
DEFAULT_2
100
AcDbLine
 62
8
  6
HIDDEN
 10
157.1492726998
 20
127.1947369329
 11
153.134481981
 21
127.1947369329
  0
LINE
  5
289
100
AcDbEntity
  8
RUNDUNGEN
100
AcDbLine
 62
8
  6
HIDDEN
 10
157.1492726998
 20
127.1947369329
 11
153.134481981
 21
127.1947369329
  0
LINE
  5
28A
100
AcDbEntity
  8
BOHRUNGEN
100
AcDbLine
 62
8
  6
HIDDEN
 10
158.534481981
 20
127.5447369329
 11
206.534481981
 21
127.5447369329
  0
LINE
  5
28B
100
AcDbEntity
  8
0
100
AcDbLine
 62
7
  6
CONTINUOUS
 10
155.9958068464
 20
128.1977656184
 11
153.0731571156
 21
128.1977656184
  0
LINE
  5
28C
100
AcDbEntity
  8
RUNDUNGEN
100
AcDbLine
 62
8
  6
HIDDEN
 10
152.534481981
 20
147.2992369329
 11
152.534481981
 21
127.7947369329
  0
LINE
  5
28D
100
AcDbEntity
  8
DEFAULT_2
100
AcDbLine
 62
8
  6
HIDDEN
 10
152.534481981
 20
128.5469869329
 11
152.534481981
 21
146.5469869329
  0
LINE
  5
28E
100
AcDbEntity
  8
0
100
AcDbLine
 62
9
  6
CONTINUOUS
 10
152.6401444137
 20
167.4609417794
 11
152.6401444137
 21
147.4163995519
  0
LINE
  5
28F
100
AcDbEntity
  8
0
100
AcDbLine
 62
9
  6
CONTINUOUS
 10
152.6401444137
 20
127.677574314
 11
152.6401444137
 21
107.6330320865
  0
LINE
  5
290
100
AcDbEntity
  8
0
100
AcDbLine
 62
9
  6
CONTINUOUS
 10
153.0731571156
 20
167.6275796933
 11
153.0731571156
 21
146.8962082475
  0
LINE
  5
291
100
AcDbEntity
  8
0
100
AcDbLine
 62
9
  6
CONTINUOUS
 10
153.0731571156
 20
128.1977656184
 11
153.0731571156
 21
107.4663941726
  0
LINE
  5
292
100
AcDbEntity
  8
ACHSEN
100
AcDbLine
 62
7
  6
CENTER
 10
154.534481981
 20
164.8452656949
 11
154.534481981
 21
172.0469869329
  0
LINE
  5
293
100
AcDbEntity
  8
0
100
AcDbLine
 62
9
  6
CONTINUOUS
 10
155.9958068464
 20
167.6275796933
 11
155.9958068464
 21
146.8962082475
  0
LINE
  5
294
100
AcDbEntity
  8
0
100
AcDbLine
 62
9
  6
CONTINUOUS
 10
155.9958068464
 20
128.1977656184
 11
155.9958068464
 21
107.4663941726
  0
LINE
  5
295
100
AcDbEntity
  8
0
100
AcDbLine
 62
9
  6
CONTINUOUS
 10
156.4288195483
 20
167.4609417794
 11
156.4288195483
 21
147.4163995519
  0
LINE
  5
296
100
AcDbEntity
  8
0
100
AcDbLine
 62
9
  6
CONTINUOUS
 10
156.4288195483
 20
127.677574314
 11
156.4288195483
 21
107.6330320865
  0
LINE
  5
297
100
AcDbEntity
  8
0
100
AcDbLine
 62
7
  6
CONTINUOUS
 10
141.2273751998
 20
114.8040937141
 11
140.5448848036
 21
114.1216033179
  0
LINE
  5
298
100
AcDbEntity
  8
S_ACHSEN
100
AcDbLine
 62
7
  6
CENTER
 10
101.534481981
 20
137.5469869329
 11
210.5344819831
 21
137.5469869329
  0
LINE
  5
299
100
AcDbEntity
  8
0
100
AcDbLine
 62
7
  6
CONTINUOUS
 10
164.534481981
 20
106.0469869329
 11
164.534481981
 21
169.0469869329
  0
LINE
  5
29A
100
AcDbEntity
  8
RUNDUNGEN
100
AcDbLine
 62
9
  6
CONTINUOUS
 10
165.534481981
 20
163.5094869329
 11
165.534481981
 21
111.5844869329
  0
LINE
  5
29B
100
AcDbEntity
  8
0
100
AcDbLine
 62
7
  6
CONTINUOUS
 10
140.5395050921
 20
145.7329301197
 11
140.7875107318
 21
145.7339443756
  0
LINE
  5
29C
100
AcDbEntity
  8
0
100
AcDbLine
 62
9
  6
CONTINUOUS
 10
104.534481981
 20
142.7718580635
 11
140.3345450701
 21
142.7718580635
  0
LINE
  5
29D
100
AcDbEntity
  8
0
100
AcDbLine
 62
7
  6
CONTINUOUS
 10
155.9958068464
 20
146.8962082475
 11
153.0731571156
 21
146.8962082475
  0
LINE
  5
29E
100
AcDbEntity
  8
BOHRUNGEN
100
AcDbLine
 62
8
  6
HIDDEN
 10
158.534481981
 20
147.5492369329
 11
176.036829156
 21
147.5492369329
  0
LINE
  5
29F
100
AcDbEntity
  8
BOHRUNGEN
100
AcDbLine
 62
8
  6
HIDDEN
 10
190.0328629544
 20
147.5492369329
 11
206.534481981
 21
147.5492369329
  0
LINE
  5
2A0
100
AcDbEntity
  8
DEFAULT_2
100
AcDbLine
 62
8
  6
HIDDEN
 10
157.1492726998
 20
147.8992369329
 11
153.134481981
 21
147.8992369329
  0
LINE
  5
2A1
100
AcDbEntity
  8
RUNDUNGEN
100
AcDbLine
 62
8
  6
HIDDEN
 10
157.1492726998
 20
147.8992369329
 11
153.134481981
 21
147.8992369329
  0
LINE
  5
2A2
100
AcDbEntity
  8
BEZUGSACHSEN
100
AcDbLine
 62
8
  6
HIDDEN
 10
176.034481981
 20
147.5476077138
 11
176.034481981
 21
159.2094869329
  0
LINE
  5
2A3
100
AcDbEntity
  8
0
100
AcDbLine
 62
9
  6
CONTINUOUS
 10
106.034481981
 20
153.2582315717
 11
140.3345450701
 21
154.0045176816
  0
LINE
  5
2A4
100
AcDbEntity
  8
0
100
AcDbLine
 62
7
  6
CONTINUOUS
 10
140.7875107318
 20
152.2367583656
 11
140.5395050921
 21
152.2319291377
  0
LINE
  5
2A5
100
AcDbEntity
  8
BEZUGSACHSEN
100
AcDbLine
 62
7
  6
CENTER
 10
183.034481981
 20
141.6341065822
 11
183.034481981
 21
166.5094869329
  0
LINE
  5
2A6
100
AcDbEntity
  8
0
100
AcDbLine
 62
7
  6
CONTINUOUS
 10
140.5395050921
 20
157.9721735027
 11
142.1395050921
 21
158.0123710718
  0
LINE
  5
2A7
100
AcDbEntity
  8
0
100
AcDbLine
 62
7
  6
CONTINUOUS
 10
112.7980867351
 20
157.4752756231
 11
122.584481981
 21
157.7211439351
  0
LINE
  5
2A8
100
AcDbEntity
  8
0
100
AcDbLine
 62
7
  6
CONTINUOUS
 10
131.7138433142
 20
157.9505052684
 11
140.3345450701
 21
158.1670873025
  0
LINE
  5
2A9
100
AcDbEntity
  8
BEZUGSACHSEN
100
AcDbLine
 62
8
  6
HIDDEN
 10
190.034481981
 20
147.5481133235
 11
190.034481981
 21
159.2094869329
  0
LINE
  5
2AA
100
AcDbEntity
  8
0
100
AcDbLine
 62
7
  6
CONTINUOUS
 10
165.534481981
 20
163.5094869329
 11
173.134481981
 21
163.5094869329
  0
LINE
  5
2AB
100
AcDbEntity
  8
0
100
AcDbLine
 62
7
  6
CONTINUOUS
 10
192.934481981
 20
163.5094869329
 11
194.5261648048
 21
163.5094869329
  0
LINE
  5
2AC
100
AcDbEntity
  8
RUNDUNGEN
100
AcDbLine
 62
9
  6
CONTINUOUS
 10
194.5261648048
 20
111.5844869329
 11
194.5261648048
 21
163.5094869329
  0
LINE
  5
2AD
100
AcDbEntity
  8
RUNDUNGEN
100
AcDbLine
 62
9
  6
CONTINUOUS
 10
194.9487830666
 20
111.6781791459
 11
194.9487830666
 21
163.41579472
  0
LINE
  5
2AE
100
AcDbEntity
  8
RUNDUNGEN
100
AcDbLine
 62
7
  6
CONTINUOUS
 10
206.9571002428
 20
117.2777494067
 11
194.9487830666
 21
111.6781791459
  0
LINE
  5
2AF
100
AcDbEntity
  8
0
100
AcDbLine
 62
7
  6
CONTINUOUS
 10
194.9487830666
 20
111.6781791459
 11
206.9571002428
 21
117.2777494067
  0
LINE
  5
2B0
100
AcDbEntity
  8
0
100
AcDbLine
 62
7
  6
CONTINUOUS
 10
155.9958068464
 20
167.6275796933
 11
153.0731571156
 21
167.6275796933
  0
LINE
  5
2B1
100
AcDbEntity
  8
0
100
AcDbLine
 62
7
  6
CONTINUOUS
 10
164.534481981
 20
169.0469869329
 11
159.7567008783
 21
169.0469869329
  0
LINE
  5
2B2
100
AcDbEntity
  8
0
100
AcDbLine
 62
7
  6
CONTINUOUS
 10
149.3122655308
 20
169.0469869329
 11
142.8344820534
 21
169.0469869329
  0
LINE
  5
2B3
100
AcDbEntity
  8
0
100
AcDbLine
 62
7
  6
CONTINUOUS
 10
194.9487830666
 20
163.41579472
 11
206.9571002428
 21
157.8162244592
  0
LINE
  5
2B4
100
AcDbEntity
  8
RUNDUNGEN
100
AcDbLine
 62
9
  6
CONTINUOUS
 10
206.9571002428
 20
117.2777494067
 11
206.9571002428
 21
157.8162244592
  0
LINE
  5
2B5
100
AcDbEntity
  8
RUNDUNGEN
100
AcDbLine
 62
7
  6
CONTINUOUS
 10
207.534481981
 20
118.1840571937
 11
207.534481981
 21
156.9099166721
  0
ARC
  5
2B6
100
AcDbEntity
  8
0
100
AcDbCircle
 62
7
  6
CONTINUOUS
 10
33.7824707857
 20
118.2374981036
 40
110.4813700651
100
AcDbArc
 50
13.4640903998
 51
14.4111621352
  0
ARC
  5
2B7
100
AcDbEntity
  8
0
100
AcDbCircle
 62
7
  6
CONTINUOUS
 10
141.934481981
 20
114.0969869329
 40
1.0
100
AcDbArc
 50
53.0400606802
 51
135.0
  0
ARC
  5
2B8
100
AcDbEntity
  8
0
100
AcDbCircle
 62
7
  6
CONTINUOUS
 10
141.934481981
 20
160.9969869329
 40
1.0
100
AcDbArc
 50
293.5781784782
 51
306.9599393198
  0
ARC
  5
2B9
100
AcDbEntity
  8
RUNDUNGEN
100
AcDbCircle
 62
8
  6
HIDDEN
 10
153.134481981
 20
147.2992369329
 40
0.6
100
AcDbArc
 50
90.0
 51
180.0
  0
ARC
  5
2BA
100
AcDbEntity
  8
RUNDUNGEN
100
AcDbCircle
 62
8
  6
HIDDEN
 10
153.134481981
 20
127.7947369329
 40
0.6
100
AcDbArc
 50
180.0
 51
270.0
  0
ARC
  5
2BB
100
AcDbEntity
  8
0
100
AcDbCircle
 62
7
  6
CONTINUOUS
 10
142.134481981
 20
158.2123079827
 40
0.2
100
AcDbArc
 50
271.439166666
 51
360.0
  0
ARC
  5
2BC
100
AcDbEntity
  8
0
100
AcDbCircle
 62
7
  6
CONTINUOUS
 10
140.534481981
 20
158.1721104136
 40
0.2
100
AcDbArc
 50
181.439166666
 51
271.439166666
  0
ARC
  5
2BD
100
AcDbEntity
  8
ACHSEN
100
AcDbCircle
 62
7
  6
CONTINUOUS
 10
40.776265003
 20
285.9429264857
 40
144.4768984252
100
AcDbArc
 50
296.187103939
 51
296.8519184685
  0
ARC
  5
2BE
100
AcDbEntity
  8
FASEN
100
AcDbCircle
 62
7
  6
CONTINUOUS
 10
154.7219802221
 20
201.2342503445
 40
32.6387374475
100
AcDbArc
 50
260.8474929484
 51
261.3917665832
  0
ARC
  5
2BF
100
AcDbEntity
  8
FASEN
100
AcDbCircle
 62
7
  6
CONTINUOUS
 10
154.357580145
 20
201.1666786385
 40
32.5703411249
100
AcDbArc
 50
278.6104585847
 51
279.0127892331
  0
ARC
  5
2C0
100
AcDbEntity
  8
FASEN
100
AcDbCircle
 62
7
  6
CONTINUOUS
 10
154.4932621536
 20
200.1675164156
 40
31.5621304221
100
AcDbArc
 50
270.0748277377
 51
278.6384830641
  0
ARC
  5
2C1
100
AcDbEntity
  8
FASEN
100
AcDbCircle
 62
7
  6
CONTINUOUS
 10
154.5474377823
 20
199.7963088363
 40
31.1908986172
100
AcDbArc
 50
261.3134189307
 51
269.9762009821
  0
ARC
  5
2C2
100
AcDbEntity
  8
RUNDUNGEN
100
AcDbCircle
 62
7
  6
CONTINUOUS
 10
165.534481981
 20
110.5844869329
 40
1.0
100
AcDbArc
 50
90.0
 51
179.9999999998
  0
ARC
  5
2C3
100
AcDbEntity
  8
RUNDUNGEN
100
AcDbCircle
 62
7
  6
CONTINUOUS
 10
206.534481981
 20
118.1840571937
 40
1.0
100
AcDbArc
 50
295.0000000004
 51
360.0
  0
ARC
  5
2C4
100
AcDbEntity
  8
RUNDUNGEN
100
AcDbCircle
 62
7
  6
CONTINUOUS
 10
194.5261648048
 20
112.5844869329
 40
1.0
100
AcDbArc
 50
270.0
 51
295.0000000028
  0
ARC
  5
2C5
100
AcDbEntity
  8
RUNDUNGEN
100
AcDbCircle
 62
7
  6
CONTINUOUS
 10
206.534481981
 20
156.9099166721
 40
1.0
100
AcDbArc
 50
0.0
 51
64.9999999995
  0
ARC
  5
2C6
100
AcDbEntity
  8
RUNDUNGEN
100
AcDbCircle
 62
7
  6
CONTINUOUS
 10
165.534481981
 20
164.5094869329
 40
1.0
100
AcDbArc
 50
180.0000000001
 51
270.0
  0
ARC
  5
2C7
100
AcDbEntity
  8
RUNDUNGEN
100
AcDbCircle
 62
7
  6
CONTINUOUS
 10
194.5261648048
 20
162.5094869329
 40
1.0
100
AcDbArc
 50
64.9999999972
 51
90.0
  0
ARC
  5
2C8
100
AcDbEntity
  8
0
100
AcDbCircle
 62
7
  6
CONTINUOUS
 10
286.7686547549
 20
88.572789062
 40
159.2595221573
100
AcDbArc
 50
156.0446773748
 51
156.4374589831
  0
LINE
  5
2C9
100
AcDbEntity
  8
FASEN
100
AcDbLine
 62
7
  6
CONTINUOUS
 10
149.5303684028
 20
169.011054524
 11
149.3119825188
 21
169.0469869309
  0
LINE
  5
2CA
100
AcDbEntity
  8
FASEN
100
AcDbLine
 62
7
  6
CONTINUOUS
 10
159.7569811918
 20
169.0469869296
 11
159.4598845637
 21
168.9984705658
  0
LINE
  5
2CB
100
AcDbEntity
  8
ACHSEN
100
AcDbLine
 62
7
  6
CONTINUOUS
 10
110.884481981
 20
157.1510382316
 11
106.034481981
 21
157.0439765465
  0
LINE
  5
2CC
100
AcDbEntity
  8
ACHSEN
100
AcDbLine
 62
7
  6
CONTINUOUS
 10
112.7981013289
 20
157.4735390088
 11
112.813052267
 21
157.4756447382
  0
SPLINE
  5
2CD
100
AcDbEntity
  8
BEZUGSACHSEN
100
AcDbSpline
 62
7
  6
CONTINUOUS
 70
0
 71
3
 72
15
 73
11
 74
0
 42
0.0000001
 43
0.0000001
 44
0.0000000001
 40
0.0
 40
0.0
 40
0.0
 40
0.0
 40
0.0454810818
 40
0.1630455824
 40
0.3221297573
 40
0.4999999751
 40
0.677870027
 40
0.836955188
 40
0.9545196505
 40
1.0
 40
1.0
 40
1.0
 40
1.0
 10
192.934481981
 20
163.5094869329
 30
0.0
 10
192.6413575393
 20
163.4285662181
 30
0.0
 10
191.5876367009
 20
163.1486064151
 30
0.0
 10
189.4860675998
 20
162.6717886461
 30
0.0
 10
186.4784090788
 20
162.2096851808
 30
0.0
 10
183.0344836017
 20
162.0216148885
 30
0.0
 10
179.5905514959
 20
162.2096851015
 30
0.0
 10
176.582887906
 20
162.6717903126
 30
0.0
 10
174.4813174693
 20
163.1486086976
 30
0.0
 10
173.4276016851
 20
163.4285674478
 30
0.0
 10
173.134481981
 20
163.5094869329
 30
0.0
  0
SPLINE
  5
2CE
100
AcDbEntity
  8
ACHSEN
100
AcDbSpline
 62
7
  6
CONTINUOUS
 70
0
 71
3
 72
10
 73
6
 74
0
 42
0.0000001
 43
0.0000001
 44
0.0000000001
 40
0.0
 40
0.0
 40
0.0
 40
0.0
 40
0.0929965444
 40
0.3287693884
 40
1.0
 40
1.0
 40
1.0
 40
1.0
 10
112.8130522666
 20
157.4756447382
 30
0.0
 10
112.7529506917
 20
157.4676612408
 30
0.0
 10
112.5408982613
 20
157.4363445733
 30
0.0
 10
111.896200749
 20
157.3393970716
 30
0.0
 10
111.3138995017
 20
157.2353267783
 30
0.0
 10
110.884481981
 20
157.1510382316
 30
0.0
  0
SPLINE
  5
2CF
100
AcDbEntity
  8
ACHSEN
100
AcDbSpline
 62
7
  6
CONTINUOUS
 70
0
 71
3
 72
11
 73
7
 74
0
 42
0.0000001
 43
0.0000001
 44
0.0000000001
 40
0.0
 40
0.0
 40
0.0
 40
0.0
 40
0.1537099379
 40
0.500508937
 40
0.8472910559
 40
1.0
 40
1.0
 40
1.0
 40
1.0
 10
131.7138433142
 20
157.9505052684
 30
0.0
 10
131.2502580451
 20
157.8792283136
 30
0.0
 10
129.7360257309
 20
157.6751705412
 30
0.0
 10
127.1532513035
 20
157.4896615093
 30
0.0
 10
124.5672052735
 20
157.542608728
 30
0.0
 10
123.0479160908
 20
157.6723752208
 30
0.0
 10
122.584481981
 20
157.7211439351
 30
0.0
  0
SPLINE
  5
2D0
100
AcDbEntity
  8
0
100
AcDbSpline
 62
7
  6
CONTINUOUS
 70
0
 71
3
 72
12
 73
8
 74
0
 42
0.0000001
 43
0.0000001
 44
0.0000000001
 40
0.0
 40
0.0
 40
0.0
 40
0.0
 40
0.128679218
 40
0.2561331636
 40
0.5063352459
 40
0.7539715031
 40
1.0
 40
1.0
 40
1.0
 40
1.0
 10
155.9958068464
 20
128.1977656184
 30
0.0
 10
156.026682972
 20
128.1977656184
 30
0.0
 10
156.0885975985
 20
128.185442392
 30
0.0
 10
156.1948185256
 20
128.1235276008
 30
0.0
 10
156.294189799
 20
128.0067660358
 30
0.0
 10
156.3755660895
 20
127.847271227
 30
0.0
 10
156.4132428295
 20
127.7345158654
 30
0.0
 10
156.4288195483
 20
127.677574314
 30
0.0
  0
SPLINE
  5
2D1
100
AcDbEntity
  8
0
100
AcDbSpline
 62
7
  6
CONTINUOUS
 70
0
 71
3
 72
9
 73
5
 74
0
 42
0.0000001
 43
0.0000001
 44
0.0000000001
 40
0.0
 40
0.0
 40
0.0
 40
0.0
 40
0.1680195226
 40
1.0
 40
1.0
 40
1.0
 40
1.0
 10
156.4288195483
 20
107.6330320865
 30
0.0
 10
156.4119712753
 20
107.6127119706
 30
0.0
 10
156.2965179927
 20
107.5042309943
 30
0.0
 10
156.1265137577
 20
107.4663941726
 30
0.0
 10
155.9958068464
 20
107.4663941726
 30
0.0
  0
SPLINE
  5
2D2
100
AcDbEntity
  8
0
100
AcDbSpline
 62
7
  6
CONTINUOUS
 70
0
 71
3
 72
12
 73
8
 74
0
 42
0.0000001
 43
0.0000001
 44
0.0000000001
 40
0.0
 40
0.0
 40
0.0
 40
0.0
 40
0.2460454262
 40
0.4936983158
 40
0.7439199328
 40
0.8713555617
 40
1.0
 40
1.0
 40
1.0
 40
1.0
 10
152.6401444137
 20
127.677574314
 30
0.0
 10
152.6557222263
 20
127.7345198637
 30
0.0
 10
152.6934042459
 20
127.8472803692
 30
0.0
 10
152.7747799938
 20
128.0067970372
 30
0.0
 10
152.8741846057
 20
128.12352457
 30
0.0
 10
152.9803804221
 20
128.1854724084
 30
0.0
 10
153.0422892918
 20
128.1977656184
 30
0.0
 10
153.0731571156
 20
128.1977656184
 30
0.0
  0
SPLINE
  5
2D3
100
AcDbEntity
  8
0
100
AcDbSpline
 62
7
  6
CONTINUOUS
 70
0
 71
3
 72
13
 73
9
 74
0
 42
0.0000001
 43
0.0000001
 44
0.0000000001
 40
0.0
 40
0.0
 40
0.0
 40
0.0
 40
0.1753307868
 40
0.3422637982
 40
0.4768046258
 40
0.5947351366
 40
0.8062611466
 40
1.0
 40
1.0
 40
1.0
 40
1.0
 10
142.1395050921
 20
116.0195581928
 30
0.0
 10
142.0755923472
 20
116.0464983545
 30
0.0
 10
141.9378153039
 20
116.0752363405
 30
0.0
 10
141.7501683057
 20
116.0264575226
 30
0.0
 10
141.608583622
 20
115.9376156196
 30
0.0
 10
141.4721183992
 20
115.8140130077
 30
0.0
 10
141.3436997127
 20
115.6501364016
 30
0.0
 10
141.2626597157
 20
115.5114654093
 30
0.0
 10
141.2273751998
 20
115.443430282
 30
0.0
  0
SPLINE
  5
2D4
100
AcDbEntity
  8
0
100
AcDbSpline
 62
7
  6
CONTINUOUS
 70
0
 71
3
 72
13
 73
9
 74
0
 42
0.0000001
 43
0.0000001
 44
0.0000000001
 40
0.0
 40
0.0
 40
0.0
 40
0.0
 40
0.286526882
 40
0.4543474408
 40
0.5599589325
 40
0.648267425
 40
0.8182504149
 40
1.0
 40
1.0
 40
1.0
 40
1.0
 10
142.1395050921
 20
116.0195581928
 30
0.0
 10
142.164891376
 20
116.0088575009
 30
0.0
 10
142.2076165854
 20
115.9960585784
 30
0.0
 10
142.2628064787
 20
116.0002624448
 30
0.0
 10
142.2939915394
 20
116.0175485206
 30
0.0
 10
142.3170538441
 20
116.0445601612
 30
0.0
 10
142.3312926357
 20
116.0855387481
 30
0.0
 10
142.3340723097
 20
116.1193556944
 30
0.0
 10
142.3343957743
 20
116.1368278078
 30
0.0
  0
SPLINE
  5
2D5
100
AcDbEntity
  8
0
100
AcDbSpline
 62
7
  6
CONTINUOUS
 70
0
 71
3
 72
9
 73
5
 74
0
 42
0.0000001
 43
0.0000001
 44
0.0000000001
 40
0.0
 40
0.0
 40
0.0
 40
0.0
 40
0.3641598889
 40
1.0
 40
1.0
 40
1.0
 40
1.0
 10
153.0731571156
 20
107.4663941726
 30
0.0
 10
153.0157806938
 20
107.4663941726
 30
0.0
 10
152.8595943607
 20
107.4825132666
 30
0.0
 10
152.70408837
 20
107.5559115055
 30
0.0
 10
152.6401444137
 20
107.6330320865
 30
0.0
  0
SPLINE
  5
2D6
100
AcDbEntity
  8
0
100
AcDbSpline
 62
7
  6
CONTINUOUS
 70
0
 71
3
 72
17
 73
13
 74
0
 42
0.0000001
 43
0.0000001
 44
0.0000000001
 40
0.0
 40
0.0
 40
0.0
 40
0.0
 40
0.125135549
 40
0.2502986125
 40
0.3754807531
 40
0.5006727147
 40
0.6258456077
 40
0.6884746641
 40
0.7511065344
 40
0.8746656069
 40
0.9373062378
 40
1.0
 40
1.0
 40
1.0
 40
1.0
 10
141.2273751998
 20
143.9615266937
 30
0.0
 10
141.2444435435
 20
143.8902003851
 30
0.0
 10
141.2807101053
 20
143.7480267035
 30
0.0
 10
141.3427565789
 20
143.5368331936
 30
0.0
 10
141.4143377381
 20
143.3285955038
 30
0.0
 10
141.498677793
 20
143.1250928957
 30
0.0
 10
141.5838471466
 20
142.9622100009
 30
0.0
 10
141.667501553
 20
142.8408984532
 30
0.0
 10
141.7623366734
 20
142.7315713007
 30
0.0
 10
141.8969450555
 20
142.645495162
 30
0.0
 10
142.0474720872
 20
142.6670880503
 30
0.0
 10
142.1107799064
 20
142.7070250048
 30
0.0
 10
142.1395050921
 20
142.7299373861
 30
0.0
  0
SPLINE
  5
2D7
100
AcDbEntity
  8
0
100
AcDbSpline
 62
7
  6
CONTINUOUS
 70
0
 71
3
 72
13
 73
9
 74
0
 42
0.0000001
 43
0.0000001
 44
0.0000000001
 40
0.0
 40
0.0
 40
0.0
 40
0.0
 40
0.1670510693
 40
0.3289369806
 40
0.4609641718
 40
0.578209763
 40
0.7939442568
 40
1.0
 40
1.0
 40
1.0
 40
1.0
 10
142.1395050921
 20
153.8914652199
 30
0.0
 10
142.0750716414
 20
153.9157003249
 30
0.0
 10
141.9358706484
 20
153.9376346674
 30
0.0
 10
141.7492626601
 20
153.8811584951
 30
0.0
 10
141.607801622
 20
153.7855950405
 30
0.0
 10
141.4702730246
 20
153.6512275715
 30
0.0
 10
141.3408533201
 20
153.4688553128
 30
0.0
 10
141.2618533535
 20
153.3136030717
 30
0.0
 10
141.2273751998
 20
153.2360038231
 30
0.0
  0
SPLINE
  5
2D8
100
AcDbEntity
  8
0
100
AcDbSpline
 62
7
  6
CONTINUOUS
 70
0
 71
3
 72
16
 73
12
 74
0
 42
0.0000001
 43
0.0000001
 44
0.0000000001
 40
0.0
 40
0.0
 40
0.0
 40
0.0
 40
0.0735401093
 40
0.1545841369
 40
0.2292313659
 40
0.2978973002
 40
0.4259913051
 40
0.5473045002
 40
0.6644420892
 40
0.7785599955
 40
1.0
 40
1.0
 40
1.0
 40
1.0
 10
142.1395050921
 20
153.8914652199
 30
0.0
 10
142.1519569109
 20
153.8867817654
 30
0.0
 10
142.1811071515
 20
153.8827012565
 30
0.0
 10
142.2205767052
 20
153.9009432665
 30
0.0
 10
142.2481381713
 20
153.9313466181
 30
0.0
 10
142.2740340841
 20
153.9732240505
 30
0.0
 10
142.2951138699
 20
154.0271559861
 30
0.0
 10
142.3116427115
 20
154.091426877
 30
0.0
 10
142.3224586584
 20
154.1543453899
 30
0.0
 10
142.3315468252
 20
154.2357605195
 30
0.0
 10
142.3340526922
 20
154.2964973741
 30
0.0
 10
142.3343957743
 20
154.3365546203
 30
0.0
  0
SPLINE
  5
2D9
100
AcDbEntity
  8
0
100
AcDbSpline
 62
7
  6
CONTINUOUS
 70
0
 71
3
 72
9
 73
5
 74
0
 42
0.0000001
 43
0.0000001
 44
0.0000000001
 40
0.0
 40
0.0
 40
0.0
 40
0.0
 40
0.3642526053
 40
1.0
 40
1.0
 40
1.0
 40
1.0
 10
155.9958068464
 20
167.6275796933
 30
0.0
 10
156.0531982529
 20
167.6275796933
 30
0.0
 10
156.2093877115
 20
167.6114651377
 30
0.0
 10
156.3648844968
 20
167.5380516206
 30
0.0
 10
156.4288195483
 20
167.4609417794
 30
0.0
  0
SPLINE
  5
2DA
100
AcDbEntity
  8
0
100
AcDbSpline
 62
7
  6
CONTINUOUS
 70
0
 71
3
 72
12
 73
8
 74
0
 42
0.0000001
 43
0.0000001
 44
0.0000000001
 40
0.0
 40
0.0
 40
0.0
 40
0.0
 40
0.2460280129
 40
0.4936634005
 40
0.7438647573
 40
0.8713194616
 40
1.0
 40
1.0
 40
1.0
 40
1.0
 10
156.4288195483
 20
147.4163995519
 30
0.0
 10
156.4132428613
 20
147.3594581166
 30
0.0
 10
156.3755663661
 20
147.2467029418
 30
0.0
 10
156.2941899122
 20
147.0872091012
 30
0.0
 10
156.194820133
 20
146.9704460419
 30
0.0
 10
156.0885981089
 20
146.9085327337
 30
0.0
 10
156.0266832866
 20
146.8962082475
 30
0.0
 10
155.9958068464
 20
146.8962082475
 30
0.0
  0
SPLINE
  5
2DB
100
AcDbEntity
  8
0
100
AcDbSpline
 62
7
  6
CONTINUOUS
 70
0
 71
3
 72
9
 73
5
 74
0
 42
0.0000001
 43
0.0000001
 44
0.0000000001
 40
0.0
 40
0.0
 40
0.0
 40
0.0
 40
0.2573720101
 40
1.0
 40
1.0
 40
1.0
 40
1.0
 10
141.2273751998
 20
115.443430282
 30
0.0
 10
141.1922358116
 20
115.3756749879
 30
0.0
 10
141.0532476761
 20
115.1137033369
 30
0.0
 10
140.9042641855
 20
114.8569941868
 30
0.0
 10
140.7875107318
 20
114.6702580576
 30
0.0
  0
SPLINE
  5
2DC
100
AcDbEntity
  8
0
100
AcDbSpline
 62
7
  6
CONTINUOUS
 70
0
 71
3
 72
9
 73
5
 74
0
 42
0.0000001
 43
0.0000001
 44
0.0000000001
 40
0.0
 40
0.0
 40
0.0
 40
0.0
 40
0.1680322176
 40
1.0
 40
1.0
 40
1.0
 40
1.0
 10
152.6401444137
 20
167.4609417794
 30
0.0
 10
152.6569939727
 20
167.4812634462
 30
0.0
 10
152.7724485495
 20
167.5897434782
 30
0.0
 10
152.9424520986
 20
167.6275796933
 30
0.0
 10
153.0731571156
 20
167.6275796933
 30
0.0
  0
SPLINE
  5
2DD
100
AcDbEntity
  8
0
100
AcDbSpline
 62
7
  6
CONTINUOUS
 70
0
 71
3
 72
12
 73
8
 74
0
 42
0.0000001
 43
0.0000001
 44
0.0000000001
 40
0.0
 40
0.0
 40
0.0
 40
0.0
 40
0.1286448926
 40
0.256081
 40
0.5063027424
 40
0.7539549585
 40
1.0
 40
1.0
 40
1.0
 40
1.0
 10
153.0731571156
 20
146.8962082475
 30
0.0
 10
153.0422891841
 20
146.8962082475
 30
0.0
 10
152.9803801898
 20
146.9085018713
 30
0.0
 10
152.8741838926
 20
146.9704493349
 30
0.0
 10
152.7747799105
 20
147.0871775369
 30
0.0
 10
152.6934040641
 20
147.246693775
 30
0.0
 10
152.6557222013
 20
147.3594540935
 30
0.0
 10
152.6401444137
 20
147.4163995519
 30
0.0
  0
SPLINE
  5
2DE
100
AcDbEntity
  8
0
100
AcDbSpline
 62
7
  6
CONTINUOUS
 70
0
 71
3
 72
17
 73
13
 74
0
 42
0.0000001
 43
0.0000001
 44
0.0000000001
 40
0.0
 40
0.0
 40
0.0
 40
0.0
 40
0.2536810086
 40
0.3797805479
 40
0.5052013146
 40
0.6297018311
 40
0.6915472735
 40
0.7529628459
 40
0.813907906
 40
0.8744772172
 40
0.9358455192
 40
1.0
 40
1.0
 40
1.0
 40
1.0
 10
142.3344901212
 20
142.1239411282
 30
0.0
 10
142.3345332781
 20
142.1850520232
 30
0.0
 10
142.3333264695
 20
142.2765864299
 30
0.0
 10
142.3251834692
 20
142.3980492582
 30
0.0
 10
142.3151699443
 20
142.4881038826
 30
0.0
 10
142.3021290376
 20
142.5621773388
 30
0.0
 10
142.2871506854
 20
142.6199722046
 30
0.0
 10
142.2727853422
 20
142.6620752201
 30
0.0
 10
142.2533559244
 20
142.7016459428
 30
0.0
 10
142.2270809521
 20
142.7380194852
 30
0.0
 10
142.1807118675
 20
142.7555798022
 30
0.0
 10
142.1515869993
 20
142.7395744087
 30
0.0
 10
142.1395050921
 20
142.7299373861
 30
0.0
  0
SPLINE
  5
2DF
100
AcDbEntity
  8
0
100
AcDbSpline
 62
7
  6
CONTINUOUS
 70
0
 71
3
 72
17
 73
13
 74
0
 42
0.0000001
 43
0.0000001
 44
0.0000000001
 40
0.0
 40
0.0
 40
0.0
 40
0.0
 40
0.2841775711
 40
0.4146661432
 40
0.5373502072
 40
0.652341305
 40
0.7602377654
 40
0.8121867936
 40
0.8638391814
 40
0.9180398508
 40
0.9497831112
 40
1.0
 40
1.0
 40
1.0
 40
1.0
 10
140.3345450701
 20
115.8645850537
 30
0.0
 10
140.3345450701
 20
115.7450116164
 30
0.0
 10
140.3344022567
 20
115.5705289567
 30
0.0
 10
140.336782252
 20
115.3444388727
 30
0.0
 10
140.3414018198
 20
115.1895693704
 30
0.0
 10
140.351329397
 20
115.0444702494
 30
0.0
 10
140.3674437124
 20
114.9297087757
 30
0.0
 10
140.3894121143
 20
114.8433316823
 30
0.0
 10
140.4127162414
 20
114.7810320634
 30
0.0
 10
140.4428509409
 20
114.7306870417
 30
0.0
 10
140.483940489
 20
114.6904397763
 30
0.0
 10
140.5183811874
 20
114.676599262
 30
0.0
 10
140.5395050921
 20
114.6761015414
 30
0.0
  0
LINE
  5
2E0
100
AcDbEntity
  8
0
100
AcDbLine
 62
7
  6
CONTINUOUS
 10
140.5448836128
 20
114.121602127
 11
140.7875107318
 21
114.6702580576
  0
SPLINE
  5
2E1
100
AcDbEntity
  8
0
100
AcDbSpline
 62
7
  6
CONTINUOUS
 70
0
 71
3
 72
21
 73
17
 74
0
 42
0.0000001
 43
0.0000001
 44
0.0000000001
 40
0.0
 40
0.0
 40
0.0
 40
0.0
 40
0.0152736556
 40
0.0307400416
 40
0.0615944727
 40
0.0924597446
 40
0.1233512662
 40
0.1852330485
 40
0.2472659363
 40
0.3094463907
 40
0.3717660941
 40
0.4967787028
 40
0.6222117836
 40
0.747963109
 40
0.8739278454
 40
1.0
 40
1.0
 40
1.0
 40
1.0
 10
140.5395050921
 20
145.7329301197
 30
0.0
 10
140.5242427769
 20
145.7328677004
 30
0.0
 10
140.498554612
 20
145.7068705457
 30
0.0
 10
140.4728135194
 20
145.6531180098
 30
0.0
 10
140.4491659896
 20
145.5783461168
 30
0.0
 10
140.4293676162
 20
145.4882512924
 30
0.0
 10
140.4083899412
 20
145.3663539283
 30
0.0
 10
140.3894865411
 20
145.2128051248
 30
0.0
 10
140.373258901
 20
145.0275211726
 30
0.0
 10
140.3614897064
 20
144.8414871053
 30
0.0
 10
140.3500350665
 20
144.592411253
 30
0.0
 10
140.3416213024
 20
144.2799657338
 30
0.0
 10
140.3368688542
 20
143.9040702539
 30
0.0
 10
140.3350544316
 20
143.5272001977
 30
0.0
 10
140.3345810934
 20
143.1496895647
 30
0.0
 10
140.3345450701
 20
142.8978376658
 30
0.0
 10
140.3345450701
 20
142.7718580635
 30
0.0
  0
SPLINE
  5
2E2
100
AcDbEntity
  8
0
100
AcDbSpline
 62
7
  6
CONTINUOUS
 70
0
 71
3
 72
17
 73
13
 74
0
 42
0.0000001
 43
0.0000001
 44
0.0000000001
 40
0.0
 40
0.0
 40
0.0
 40
0.0
 40
0.2182009024
 40
0.3349220057
 40
0.456586696
 40
0.5831112211
 40
0.7144823146
 40
0.7820564401
 40
0.8510300181
 40
0.92186225
 40
0.958727904
 40
1.0
 40
1.0
 40
1.0
 40
1.0
 10
140.3345450701
 20
154.0045176816
 30
0.0
 10
140.3345450701
 20
153.8722386673
 30
0.0
 10
140.3345273827
 20
153.669199006
 30
0.0
 10
140.3369344916
 20
153.3924102357
 30
0.0
 10
140.3417596851
 20
153.171237833
 30
0.0
 10
140.3520454232
 20
152.9413228521
 30
0.0
 10
140.3681704465
 20
152.744654157
 30
0.0
 10
140.3897445471
 20
152.5834532853
 30
0.0
 10
140.4123490177
 20
152.4602829933
 30
0.0
 10
140.4419448139
 20
152.3551322626
 30
0.0
 10
140.4763764887
 20
152.2756624084
 30
0.0
 10
140.5144896252
 20
152.2314420318
 30
0.0
 10
140.5395050921
 20
152.2319291377
 30
0.0
  0
SPLINE
  5
2E3
100
AcDbEntity
  8
0
100
AcDbSpline
 62
7
  6
CONTINUOUS
 70
0
 71
3
 72
11
 73
7
 74
0
 42
0.0000001
 43
0.0000001
 44
0.0000000001
 40
0.0
 40
0.0
 40
0.0
 40
0.0
 40
0.2163338898
 40
0.4581730139
 40
0.72121324
 40
1.0
 40
1.0
 40
1.0
 40
1.0
 10
140.7875107318
 20
152.2367583656
 30
0.0
 10
140.7018093439
 20
151.7740368099
 30
0.0
 10
140.5795408579
 20
150.7828254126
 30
0.0
 10
140.5249588168
 20
149.2134787017
 30
0.0
 10
140.5895863291
 20
147.5086922703
 30
0.0
 10
140.7088949469
 20
146.3352719534
 30
0.0
 10
140.7875107318
 20
145.7339443756
 30
0.0
  0
ELLIPSE
  5
2E4
100
AcDbEntity
  8
0
100
AcDbEllipse
 62
7
  6
CONTINUOUS
 10
140.1873277917
 20
137.5469869329
 30
0.0
 11
14.7536831607
 21
31.0932549156
 31
0.0
 40
0.3419987131
 41
-1.0912395858
 42
-0.1578061866
  0
ELLIPSE
  5
2E5
100
AcDbEntity
  8
0
100
AcDbEllipse
 62
7
  6
CONTINUOUS
 10
168.8816361704
 20
137.5469869329
 30
0.0
 11
-14.7536831607
 21
31.0932549156
 31
0.0
 40
0.3419987131
 41
0.1578061866
 42
1.0912395858
  0
ELLIPSE
  5
2E6
100
AcDbEntity
  8
0
100
AcDbEllipse
 62
7
  6
CONTINUOUS
 10
168.8816361704
 20
137.5469869329
 30
0.0
 11
14.7536831607
 21
31.0932549156
 31
0.0
 40
0.3419987131
 41
-4.2328322393
 42
-3.2993988402
  0
ELLIPSE
  5
2E7
100
AcDbEntity
  8
0
100
AcDbEllipse
 62
7
  6
CONTINUOUS
 10
140.1873277917
 20
137.5469869329
 30
0.0
 11
-14.7536831607
 21
31.0932549156
 31
0.0
 40
0.3419987131
 41
-2.9837864669
 42
-2.0503530678
  0
ENDSEC
  0
SECTION
  2
OBJECTS
  0
DICTIONARY
  5
C
100
AcDbDictionary
280
0
281
1
  3
ACAD_GROUP
350
D
  3
ACAD_MLINESTYLE
350
17
  3
ACAD_LAYOUT
350
1A
  3
ACAD_PLOTSETTINGS
350
19
  3
ACAD_PLOTSTYLENAME
350
E
  0
DICTIONARY
  5
D
102
{ACAD_REACTORS
330
C
102
}
100
AcDbDictionary
280
0
281
1
  0
ACDBDICTIONARYWDFLT
  5
E
102
{ACAD_REACTORS
330
C
102
}
100
AcDbDictionary
281
1
  3
Normal
350
F
100
AcDbDictionaryWithDefault
340
F
  0
DICTIONARY
  5
17
102
{ACAD_REACTORS
330
C
102
}
100
AcDbDictionary
280
0
281
1
  3
Standard
350
18
  0
DICTIONARY
  5
19
102
{ACAD_REACTORS
330
C
102
}
100
AcDbDictionary
281
1
  0
DICTIONARY
  5
1A
102
{ACAD_REACTORS
330
C
102
}
100
AcDbDictionary
281
1
  3
Model
350
2E8
  3
Layout1
350
2E9
  0
ACDBPLACEHOLDER
  5
F
102
{ACAD_REACTORS
330
E
102
}
  0
MLINESTYLE
  5
18
102
{ACAD_REACTORS
330
17
102
}
100
AcDbMlineStyle
  2
STANDARD
 70
0
  3

 62
256
 51
90.0
 52
90.0
 71
2
 49
0.5
 62
256
  6
BYLAYER
 49
-0.5
 62
256
  6
BYLAYER
  0
LAYOUT
  5
2E8
102
{ACAD_REACTORS
330
1A
102
}
100
AcDbPlotSettings
  1

  2
none_device
  4
ISO_A4_(297.00_x_210.00_MM)
  6

 40
0.0
 41
0.0
 42
0.0
 43
0.0
 44
297.0
 45
210.0
 46
0.0
 47
0.0
 48
0.0
 49
0.0
140
0.0
141
0.0
142
1.0
143
1.0
 70
1024
 72
1
 73
0
 74
0
  7

 75
0
147
1.0
148
0.0
149
0.0
100
AcDbLayout
  1
Model
 70
0
 71
0
 10
0.0
 20
0.0
 11
297.0
 21
210.0
 12
0.0
 22
0.0
 32
0.0
 14
0.0
 24
0.0
 34
0.0
 15
0.0
 25
0.0
 35
0.0
146
0.0
 13
0.0
 23
0.0
 33
0.0
 16
1.0
 26
0.0
 36
0.0
 17
0.0
 27
1.0
 37
0.0
 76
0
330
217
345
0
346
0
  0
LAYOUT
  5
2E9
102
{ACAD_REACTORS
330
1A
102
}
100
AcDbPlotSettings
  1

  2
none_device
  4
ISO_A4_(297.00_x_210.00_MM)
  6

 40
0.0
 41
0.0
 42
0.0
 43
0.0
 44
297.0
 45
210.0
 46
0.0
 47
0.0
 48
0.0
 49
0.0
140
0.0
141
0.0
142
1.0
143
1.0
 70
0
 72
1
 73
0
 74
0
  7

 75
0
147
1.0
148
0.0
149
0.0
100
AcDbLayout
  1
Layout1
 70
0
 71
1
 10
0.0
 20
0.0
 11
297.0
 21
210.0
 12
0.0
 22
0.0
 32
0.0
 14
0.0
 24
0.0
 34
0.0
 15
0.0
 25
0.0
 35
0.0
146
0.0
 13
0.0
 23
0.0
 33
0.0
 16
1.0
 26
0.0
 36
0.0
 17
0.0
 27
1.0
 37
0.0
 76
0
330
218
345
0
346
0
  0
ENDSEC
  0
EOF
