  0
SECTION
  2
HEADER
  9
$ACADVER
  1
AC1015
  9
$ACADMAINTVER
 70
     6
  9
$DWGCODEPAGE
  3
ANSI_1252
  9
$INSBASE
 10
0.0
 20
0.0
 30
0.0
  9
$EXTMIN
 10
-6.58359264356066
 20
265.4896894950568
 30
0.0
  9
$EXTMAX
 10
253.454860664055
 20
374.259076412363
 30
0.0
  9
$LIMMIN
 10
0.0
 20
0.0
  9
$LIMMAX
 10
12.0
 20
9.0
  9
$ORTHOMODE
 70
     0
  9
$REGENMODE
 70
     1
  9
$FILLMODE
 70
     1
  9
$QTEXTMODE
 70
     0
  9
$MIRRTEXT
 70
     1
  9
$LTSCALE
 40
1.0
  9
$ATTMODE
 70
     1
  9
$TEXTSIZE
 40
0.2
  9
$TRACEWID
 40
0.05
  9
$TEXTSTYLE
  7
Standard
  9
$CLAYER
  8
0
  9
$CELTYPE
  6
ByLayer
  9
$CECOLOR
 62
   256
  9
$CELTSCALE
 40
1.0
  9
$DISPSILH
 70
     0
  9
$DIMSCALE
 40
1.0
  9
$DIMASZ
 40
0.18
  9
$DIMEXO
 40
0.0625
  9
$DIMDLI
 40
0.38
  9
$DIMRND
 40
0.0
  9
$DIMDLE
 40
0.0
  9
$DIMEXE
 40
0.18
  9
$DIMTP
 40
0.0
  9
$DIMTM
 40
0.0
  9
$DIMTXT
 40
0.18
  9
$DIMCEN
 40
0.09
  9
$DIMTSZ
 40
0.0
  9
$DIMTOL
 70
     0
  9
$DIMLIM
 70
     0
  9
$DIMTIH
 70
     1
  9
$DIMTOH
 70
     1
  9
$DIMSE1
 70
     0
  9
$DIMSE2
 70
     0
  9
$DIMTAD
 70
     0
  9
$DIMZIN
 70
     0
  9
$DIMBLK
  1

  9
$DIMASO
 70
     1
  9
$DIMSHO
 70
     1
  9
$DIMPOST
  1

  9
$DIMAPOST
  1

  9
$DIMALT
 70
     0
  9
$DIMALTD
 70
     2
  9
$DIMALTF
 40
25.4
  9
$DIMLFAC
 40
1.0
  9
$DIMTOFL
 70
     0
  9
$DIMTVP
 40
0.0
  9
$DIMTIX
 70
     0
  9
$DIMSOXD
 70
     0
  9
$DIMSAH
 70
     0
  9
$DIMBLK1
  1

  9
$DIMBLK2
  1

  9
$DIMSTYLE
  2
Standard
  9
$DIMCLRD
 70
     0
  9
$DIMCLRE
 70
     0
  9
$DIMCLRT
 70
     0
  9
$DIMTFAC
 40
1.0
  9
$DIMGAP
 40
0.09
  9
$DIMJUST
 70
     0
  9
$DIMSD1
 70
     0
  9
$DIMSD2
 70
     0
  9
$DIMTOLJ
 70
     1
  9
$DIMTZIN
 70
     0
  9
$DIMALTZ
 70
     0
  9
$DIMALTTZ
 70
     0
  9
$DIMUPT
 70
     0
  9
$DIMDEC
 70
     4
  9
$DIMTDEC
 70
     4
  9
$DIMALTU
 70
     2
  9
$DIMALTTD
 70
     2
  9
$DIMTXSTY
  7
Standard
  9
$DIMAUNIT
 70
     0
  9
$DIMADEC
 70
     0
  9
$DIMALTRND
 40
0.0
  9
$DIMAZIN
 70
     0
  9
$DIMDSEP
 70
    46
  9
$DIMATFIT
 70
     3
  9
$DIMFRAC
 70
     0
  9
$DIMLDRBLK
  1

  9
$DIMLUNIT
 70
     2
  9
$DIMLWD
 70
    -2
  9
$DIMLWE
 70
    -2
  9
$DIMTMOVE
 70
     0
  9
$LUNITS
 70
     2
  9
$LUPREC
 70
     4
  9
$SKETCHINC
 40
0.1
  9
$FILLETRAD
 40
0.5
  9
$AUNITS
 70
     0
  9
$AUPREC
 70
     0
  9
$MENU
  1
.
  9
$ELEVATION
 40
0.0
  9
$PELEVATION
 40
0.0
  9
$THICKNESS
 40
0.0
  9
$LIMCHECK
 70
     0
  9
$CHAMFERA
 40
0.5
  9
$CHAMFERB
 40
0.5
  9
$CHAMFERC
 40
1.0
  9
$CHAMFERD
 40
0.0
  9
$SKPOLY
 70
     0
  9
$TDCREATE
 40
2456637.603084815
  9
$TDUCREATE
 40
2456637.561418148
  9
$TDUPDATE
 40
2456637.603084826
  9
$TDUUPDATE
 40
2456637.56141816
  9
$TDINDWG
 40
0.0000000116
  9
$TDUSRTIMER
 40
0.0000000116
  9
$USRTIMER
 70
     1
  9
$ANGBASE
 50
0.0
  9
$ANGDIR
 70
     0
  9
$PDMODE
 70
     0
  9
$PDSIZE
 40
0.0
  9
$PLINEWID
 40
0.0
  9
$SPLFRAME
 70
     0
  9
$SPLINETYPE
 70
     6
  9
$SPLINESEGS
 70
     8
  9
$HANDSEED
  5
159
  9
$SURFTAB1
 70
     6
  9
$SURFTAB2
 70
     6
  9
$SURFTYPE
 70
     6
  9
$SURFU
 70
     6
  9
$SURFV
 70
     6
  9
$UCSBASE
  2

  9
$UCSNAME
  2

  9
$UCSORG
 10
0.0
 20
0.0
 30
0.0
  9
$UCSXDIR
 10
1.0
 20
0.0
 30
0.0
  9
$UCSYDIR
 10
0.0
 20
1.0
 30
0.0
  9
$UCSORTHOREF
  2

  9
$UCSORTHOVIEW
 70
     0
  9
$UCSORGTOP
 10
0.0
 20
0.0
 30
0.0
  9
$UCSORGBOTTOM
 10
0.0
 20
0.0
 30
0.0
  9
$UCSORGLEFT
 10
0.0
 20
0.0
 30
0.0
  9
$UCSORGRIGHT
 10
0.0
 20
0.0
 30
0.0
  9
$UCSORGFRONT
 10
0.0
 20
0.0
 30
0.0
  9
$UCSORGBACK
 10
0.0
 20
0.0
 30
0.0
  9
$PUCSBASE
  2

  9
$PUCSNAME
  2

  9
$PUCSORG
 10
0.0
 20
0.0
 30
0.0
  9
$PUCSXDIR
 10
1.0
 20
0.0
 30
0.0
  9
$PUCSYDIR
 10
0.0
 20
1.0
 30
0.0
  9
$PUCSORTHOREF
  2

  9
$PUCSORTHOVIEW
 70
     0
  9
$PUCSORGTOP
 10
0.0
 20
0.0
 30
0.0
  9
$PUCSORGBOTTOM
 10
0.0
 20
0.0
 30
0.0
  9
$PUCSORGLEFT
 10
0.0
 20
0.0
 30
0.0
  9
$PUCSORGRIGHT
 10
0.0
 20
0.0
 30
0.0
  9
$PUCSORGFRONT
 10
0.0
 20
0.0
 30
0.0
  9
$PUCSORGBACK
 10
0.0
 20
0.0
 30
0.0
  9
$USERI1
 70
     0
  9
$USERI2
 70
     0
  9
$USERI3
 70
     0
  9
$USERI4
 70
     0
  9
$USERI5
 70
     0
  9
$USERR1
 40
16.5
  9
$USERR2
 40
0.0
  9
$USERR3
 40
0.0
  9
$USERR4
 40
0.0
  9
$USERR5
 40
0.0
  9
$WORLDVIEW
 70
     1
  9
$SHADEDGE
 70
     3
  9
$SHADEDIF
 70
    70
  9
$TILEMODE
 70
     1
  9
$MAXACTVP
 70
    64
  9
$PINSBASE
 10
0.0
 20
0.0
 30
0.0
  9
$PLIMCHECK
 70
     0
  9
$PEXTMIN
 10
1.00000000000000E+20
 20
1.00000000000000E+20
 30
1.00000000000000E+20
  9
$PEXTMAX
 10
-1.00000000000000E+20
 20
-1.00000000000000E+20
 30
-1.00000000000000E+20
  9
$PLIMMIN
 10
0.0
 20
0.0
  9
$PLIMMAX
 10
12.0
 20
9.0
  9
$UNITMODE
 70
     0
  9
$VISRETAIN
 70
     1
  9
$PLINEGEN
 70
     0
  9
$PSLTSCALE
 70
     1
  9
$TREEDEPTH
 70
  3020
  9
$CMLSTYLE
  2
Standard
  9
$CMLJUST
 70
     0
  9
$CMLSCALE
 40
1.0
  9
$PROXYGRAPHICS
 70
     1
  9
$MEASUREMENT
 70
     1
  9
$CELWEIGHT
370
    -1
  9
$ENDCAPS
280
     0
  9
$JOINSTYLE
280
     0
  9
$LWDISPLAY
290
     0
  9
$INSUNITS
 70
     1
  9
$HYPERLINKBASE
  1

  9
$STYLESHEET
  1

  9
$XEDIT
290
     1
  9
$CEPSNTYPE
380
     0
  9
$PSTYLEMODE
290
     1
  9
$FINGERPRINTGUID
  2
{37371CB3-36D6-4248-8BC7-F443EE0B91DD}
  9
$VERSIONGUID
  2
{FAEB1C32-E019-11D5-929B-00C0DF256EC4}
  9
$EXTNAMES
290
     1
  9
$PSVPSCALE
 40
0.0
  9
$OLESTARTUP
290
     0
  0
ENDSEC
  0
SECTION
  2
CLASSES
  0
CLASS
  1
ACDBDICTIONARYWDFLT
  2
AcDbDictionaryWithDefault
  3
ObjectDBX Classes
 90
        0
280
     0
281
     0
  0
CLASS
  1
VISUALSTYLE
  2
AcDbVisualStyle
  3
ObjectDBX Classes
 90
     4095
280
     0
281
     0
  0
CLASS
  1
SCALE
  2
AcDbScale
  3
ObjectDBX Classes
 90
     1153
280
     0
281
     0
  0
CLASS
  1

  2
exOdDbPolyline
  3

 90
        0
280
     0
281
     1
  0
CLASS
  1

  2
exOdDbCircle
  3

 90
        0
280
     0
281
     1
  0
CLASS
  1

  2
exOdDbSpline
  3

 90
        0
280
     0
281
     1
  0
CLASS
  1
DICTIONARYVAR
  2
AcDbDictionaryVar
  3
ObjectDBX Classes
 90
        0
280
     0
281
     0
  0
CLASS
  1
ACDBPLACEHOLDER
  2
AcDbPlaceHolder
  3
ObjectDBX Classes
 90
        0
280
     0
281
     0
  0
CLASS
  1
LAYOUT
  2
AcDbLayout
  3
ObjectDBX Classes
 90
        0
280
     0
281
     0
  0
ENDSEC
  0
SECTION
  2
TABLES
  0
TABLE
  2
VPORT
  5
8
330
0
100
AcDbSymbolTable
 70
     1
  0
VPORT
  5
29
330
8
100
AcDbSymbolTableRecord
100
AcDbViewportTableRecord
  2
*Active
 70
     0
 10
0.0
 20
0.0
 11
1.0
 21
1.0
 12
123.4356340102472
 22
319.8743829537099
 13
0.0
 23
0.0
 14
0.5
 24
0.5
 15
0.5
 25
0.5
 16
0.0
 26
0.0
 36
1.0
 17
0.0
 27
0.0
 37
0.0
 40
178.4776459470655
 41
1.60267857142857
 42
50.0
 43
0.0
 44
0.0
 50
0.0
 51
0.0
 71
     0
 72
   100
 73
     1
 74
     3
 75
     0
 76
     0
 77
     0
 78
     0
281
     0
 65
     1
110
0.0
120
0.0
130
0.0
111
1.0
121
0.0
131
0.0
112
0.0
122
1.0
132
0.0
 79
     0
146
0.0
  0
ENDTAB
  0
TABLE
  2
LTYPE
  5
5
330
0
100
AcDbSymbolTable
 70
     8
  0
LTYPE
  5
14
330
5
100
AcDbSymbolTableRecord
100
AcDbLinetypeTableRecord
  2
ByBlock
 70
     0
  3

 72
    65
 73
     0
 40
0.0
  0
LTYPE
  5
15
330
5
100
AcDbSymbolTableRecord
100
AcDbLinetypeTableRecord
  2
ByLayer
 70
     0
  3

 72
    65
 73
     0
 40
0.0
  0
LTYPE
  5
16
330
5
100
AcDbSymbolTableRecord
100
AcDbLinetypeTableRecord
  2
Continuous
 70
     0
  3
Solid line
 72
    65
 73
     0
 40
0.0
  0
LTYPE
  5
3B
330
5
100
AcDbSymbolTableRecord
100
AcDbLinetypeTableRecord
  2
DASHED
 70
     0
  3
Dashed
 72
    65
 73
     2
 40
15.0
 49
7.0
 74
     0
 49
-8.0
 74
     0
  0
LTYPE
  5
3C
330
5
100
AcDbSymbolTableRecord
100
AcDbLinetypeTableRecord
  2
DOTTED
 70
     0
  3
Dotted
 72
    65
 73
     2
 40
1.0
 49
0.0
 74
     0
 49
-1.0
 74
     0
  0
LTYPE
  5
3D
330
5
100
AcDbSymbolTableRecord
100
AcDbLinetypeTableRecord
  2
DOT_CENTER
 70
     0
  3
Dot_Center
 72
    65
 73
     4
 40
14.0
 49
12.0
 74
     0
 49
-1.0
 74
     0
 49
0.0
 74
     0
 49
-1.0
 74
     0
  0
LTYPE
  5
3E
330
5
100
AcDbSymbolTableRecord
100
AcDbLinetypeTableRecord
  2
LONG_DASHED
 70
     0
  3
Long_Dashed
 72
    65
 73
     2
 40
15.0
 49
10.0
 74
     0
 49
-5.0
 74
     0
  0
LTYPE
  5
3F
330
5
100
AcDbSymbolTableRecord
100
AcDbLinetypeTableRecord
  2
DASH_CENTER
 70
     0
  3
Dash_Center
 72
    65
 73
     4
 40
14.0
 49
11.0
 74
     0
 49
-1.0
 74
     0
 49
1.0
 74
     0
 49
-1.0
 74
     0
  0
LTYPE
  5
40
330
5
100
AcDbSymbolTableRecord
100
AcDbLinetypeTableRecord
  2
PHANTOM
 70
     0
  3
Phantom
 72
    65
 73
     6
 40
13.0
 49
10.0
 74
     0
 49
-1.0
 74
     0
 49
0.0
 74
     0
 49
-1.0
 74
     0
 49
0.0
 74
     0
 49
-1.0
 74
     0
  0
LTYPE
  5
41
330
5
100
AcDbSymbolTableRecord
100
AcDbLinetypeTableRecord
  2
CENTER_DASH_DASH
 70
     0
  3
Center_Dash_Dash
 72
    65
 73
     6
 40
14.0
 49
9.0
 74
     0
 49
-1.0
 74
     0
 49
1.0
 74
     0
 49
-1.0
 74
     0
 49
1.0
 74
     0
 49
-1.0
 74
     0
  0
ENDTAB
  0
TABLE
  2
LAYER
  5
2
330
0
100
AcDbSymbolTable
 70
     6
  0
LAYER
  5
10
330
2
100
AcDbSymbolTableRecord
100
AcDbLayerTableRecord
  2
0
 70
     0
 62
     7
  6
Continuous
370
    -3
390
F
  0
LAYER
  5
42
330
2
100
AcDbSymbolTableRecord
100
AcDbLayerTableRecord
  2
1
 70
     0
 62
     7
  6
Continuous
370
    -3
390
F
  0
LAYER
  5
43
330
2
100
AcDbSymbolTableRecord
100
AcDbLayerTableRecord
  2
BEZUGSACHSEN
 70
     0
 62
     7
  6
Continuous
370
    -3
390
F
  0
LAYER
  5
44
330
2
100
AcDbSymbolTableRecord
100
AcDbLayerTableRecord
  2
FASEN
 70
     0
 62
     7
  6
Continuous
370
    -3
390
F
  0
LAYER
  5
45
330
2
100
AcDbSymbolTableRecord
100
AcDbLayerTableRecord
  2
RUNDUNGEN
 70
     0
 62
     7
  6
Continuous
370
    -3
390
F
  0
LAYER
  5
46
330
2
100
AcDbSymbolTableRecord
100
AcDbLayerTableRecord
  2
VERERBUNG
 70
     0
 62
     7
  6
Continuous
370
    -3
390
F
  0
ENDTAB
  0
TABLE
  2
STYLE
  5
3
330
0
100
AcDbSymbolTable
 70
     2
  0
STYLE
  5
11
330
3
100
AcDbSymbolTableRecord
100
AcDbTextStyleTableRecord
  2
Standard
 70
     0
 40
0.0
 41
1.0
 50
0.0
 71
     0
 42
0.2
  3
txt
  4

  0
STYLE
  5
6D
330
3
100
AcDbSymbolTableRecord
100
AcDbTextStyleTableRecord
  2
CONVERTER_11
 70
     0
 40
0.0
 41
0.72
 50
0.0
 71
     0
 42
0.2
  3
txt.shx
  4

  0
ENDTAB
  0
TABLE
  2
VIEW
  5
6
330
0
100
AcDbSymbolTable
 70
     0
  0
ENDTAB
  0
TABLE
  2
UCS
  5
7
330
0
100
AcDbSymbolTable
 70
     0
  0
ENDTAB
  0
TABLE
  2
APPID
  5
9
330
0
100
AcDbSymbolTable
 70
     1
  0
APPID
  5
12
330
9
100
AcDbSymbolTableRecord
100
AcDbRegAppTableRecord
  2
ACAD
 70
     0
  0
ENDTAB
  0
TABLE
  2
DIMSTYLE
  5
A
330
0
100
AcDbSymbolTable
 70
     8
100
AcDbDimStyleTable
  0
DIMSTYLE
105
27
330
A
100
AcDbSymbolTableRecord
100
AcDbDimStyleTableRecord
  2
Standard
 70
     0
340
11
  0
DIMSTYLE
105
10A
102
{ACAD_REACTORS
330
10B
102
}
330
A
100
AcDbSymbolTableRecord
100
AcDbDimStyleTableRecord
  2
ME10_DIM_10
 70
     0
  3
\U+2300<>
 41
3.5
 42
2.0
 44
2.0
 71
     1
 73
     0
 74
     0
 77
     1
 78
     8
140
3.5
146
0.7
147
2.0
172
     1
173
     1
176
     2
177
     2
178
     3
271
     2
272
     0
340
6D
  0
DIMSTYLE
105
115
102
{ACAD_REACTORS
330
116
102
}
330
A
100
AcDbSymbolTableRecord
100
AcDbDimStyleTableRecord
  2
ME10_DIM_11
 70
     0
  3
\U+2300<>
 41
3.5
 42
2.0
 44
2.0
 71
     1
 73
     0
 74
     0
 77
     1
 78
     8
140
3.5
146
0.7
147
2.0
172
     1
173
     1
176
     2
177
     2
178
     3
271
     2
272
     0
340
6D
  0
DIMSTYLE
105
120
102
{ACAD_REACTORS
330
121
102
}
330
A
100
AcDbSymbolTableRecord
100
AcDbDimStyleTableRecord
  2
ME10_DIM_12
 70
     0
  3
<>
 41
3.5
 42
2.0
 44
2.0
 71
     1
 73
     0
 74
     0
 77
     1
 78
     8
140
3.5
146
0.7
147
2.0
172
     1
173
     1
176
     2
177
     2
178
     3
271
     2
272
     0
340
6D
  0
DIMSTYLE
105
12B
102
{ACAD_REACTORS
330
12C
102
}
330
A
100
AcDbSymbolTableRecord
100
AcDbDimStyleTableRecord
  2
ME10_DIM_13
 70
     0
  3
<>
 41
3.5
 42
2.0
 44
2.0
 71
     1
 73
     0
 74
     0
 77
     1
 78
     8
140
3.5
146
0.7
147
2.0
172
     1
173
     1
176
     2
177
     2
178
     3
271
     2
272
     0
340
6D
  0
DIMSTYLE
105
136
102
{ACAD_REACTORS
330
137
102
}
330
A
100
AcDbSymbolTableRecord
100
AcDbDimStyleTableRecord
  2
ME10_DIM_14
 70
     0
  3
<>
 41
3.5
 42
2.0
 44
2.0
 71
     1
 73
     0
 74
     0
 77
     1
 78
     8
140
3.5
146
0.7
147
2.0
172
     1
173
     1
176
     2
177
     2
178
     3
271
     2
272
     0
340
6D
  0
DIMSTYLE
105
141
102
{ACAD_REACTORS
330
142
102
}
330
A
100
AcDbSymbolTableRecord
100
AcDbDimStyleTableRecord
  2
ME10_DIM_15
 70
     0
  3
<>
 41
3.5
 42
2.0
 44
2.0
 71
     1
 73
     0
 74
     0
 77
     1
 78
     8
140
3.5
146
0.7
147
2.0
172
     1
173
     1
176
     2
177
     2
178
     3
271
     2
272
     0
340
6D
  0
DIMSTYLE
105
14C
102
{ACAD_REACTORS
330
14D
102
}
330
A
100
AcDbSymbolTableRecord
100
AcDbDimStyleTableRecord
  2
ME10_DIM_16
 70
     0
  3
<>
 41
3.5
 42
2.0
 44
2.0
 71
     1
 73
     0
 74
     0
 77
     1
 78
     8
140
3.5
146
0.7
147
2.0
172
     1
173
     1
176
     2
177
     2
178
     3
271
     2
272
     0
340
6D
  0
ENDTAB
  0
TABLE
  2
BLOCK_RECORD
  5
1
330
0
100
AcDbSymbolTable
 70
    10
  0
BLOCK_RECORD
  5
1F
330
1
100
AcDbSymbolTableRecord
100
AcDbBlockTableRecord
  2
*Model_Space
340
22
  0
BLOCK_RECORD
  5
1B
330
1
100
AcDbSymbolTableRecord
100
AcDbBlockTableRecord
  2
*Paper_Space
340
1E
  0
BLOCK_RECORD
  5
23
330
1
100
AcDbSymbolTableRecord
100
AcDbBlockTableRecord
  2
*Paper_Space0
340
26
  0
BLOCK_RECORD
  5
47
330
1
100
AcDbSymbolTableRecord
100
AcDbBlockTableRecord
  2
Urheberrecht_DE-EN
340
0
102
{BLKREFS
331
6C
102
}
  0
BLOCK_RECORD
  5
101
330
1
100
AcDbSymbolTableRecord
100
AcDbBlockTableRecord
  2
*D2
340
0
  0
BLOCK_RECORD
  5
10C
330
1
100
AcDbSymbolTableRecord
100
AcDbBlockTableRecord
  2
*D3
340
0
  0
BLOCK_RECORD
  5
117
330
1
100
AcDbSymbolTableRecord
100
AcDbBlockTableRecord
  2
*D4
340
0
  0
BLOCK_RECORD
  5
122
330
1
100
AcDbSymbolTableRecord
100
AcDbBlockTableRecord
  2
*D5
340
0
  0
BLOCK_RECORD
  5
12D
330
1
100
AcDbSymbolTableRecord
100
AcDbBlockTableRecord
  2
*D6
340
0
  0
BLOCK_RECORD
  5
138
330
1
100
AcDbSymbolTableRecord
100
AcDbBlockTableRecord
  2
*D7
340
0
  0
BLOCK_RECORD
  5
143
330
1
100
AcDbSymbolTableRecord
100
AcDbBlockTableRecord
  2
*D8
340
0
  0
BLOCK_RECORD
  5
14E
330
1
100
AcDbSymbolTableRecord
100
AcDbBlockTableRecord
  2
*D9
340
0
102
{BLKREFS
331
154
102
}
  0
ENDTAB
  0
ENDSEC
  0
SECTION
  2
BLOCKS
  0
BLOCK
  5
20
330
1F
100
AcDbEntity
  8
0
100
AcDbBlockBegin
  2
*Model_Space
 70
     0
 10
0.0
 20
0.0
 30
0.0
  3
*Model_Space
  1

  0
ENDBLK
  5
21
330
1F
100
AcDbEntity
  8
0
100
AcDbBlockEnd
  0
BLOCK
  5
1C
330
1B
100
AcDbEntity
 67
     1
  8
0
100
AcDbBlockBegin
  2
*Paper_Space
 70
     0
 10
0.0
 20
0.0
 30
0.0
  3
*Paper_Space
  1

  0
ENDBLK
  5
1D
330
1B
100
AcDbEntity
 67
     1
  8
0
100
AcDbBlockEnd
  0
BLOCK
  5
24
330
23
100
AcDbEntity
  8
0
100
AcDbBlockBegin
  2
*Paper_Space0
 70
     0
 10
0.0
 20
0.0
 30
0.0
  3
*Paper_Space0
  1

  0
ENDBLK
  5
25
330
23
100
AcDbEntity
  8
0
100
AcDbBlockEnd
  0
BLOCK
  5
48
330
47
100
AcDbEntity
  8
0
100
AcDbBlockBegin
  2
Urheberrecht_DE-EN
 70
     0
 10
7.41640735643934
 20
321.779076412363
 30
0.0
  3
Urheberrecht_DE-EN
  1

  0
MTEXT
  5
6E
330
47
100
AcDbEntity
  8
1
 62
     1
100
AcDbMText
 10
7.41640735643934
 20
321.779076412363
 30
0.0
 40
2.0
 41
0.0
 71
     7
 72
     1
  1
We own the copyright of this document. It \Pdetermined and may neither be copied or \Pmade accessible to outsiders without our\Ppermission.
  7
CONVERTER_11
 11
0.0
 21
1.0
 31
0.0
 73
     1
 44
0.90036014405762
  0
MTEXT
  5
6F
330
47
100
AcDbEntity
  8
1
 62
     1
100
AcDbMText
 10
7.41640735643934
 20
265.4896894950568
 30
0.0
 40
2.0
 41
0.0
 71
     7
 72
     1
  1
F\U+00fcr diese Unterlage behalten wir das Ur-\Pheberrecht. Sie darf nur f\U+00fcr den von uns \Pbestimmten Zweck benutzt und ohne unsere \PZustimmung weder vervielf\U+00e4ltigt noch\PDritten zug\U+00e4nglich gemacht werden.
  7
CONVERTER_11
 11
0.0
 21
1.0
 31
0.0
 73
     1
 44
0.90036014405762
  0
ENDBLK
  5
49
330
47
100
AcDbEntity
  8
0
100
AcDbBlockEnd
  0
BLOCK
  5
108
330
101
100
AcDbEntity
  8
0
100
AcDbBlockBegin
  2
*D2
 70
     1
 10
0.0
 20
0.0
 30
0.0
  3
*D2
  1

  0
LINE
  5
102
330
101
100
AcDbEntity
  8
1
  6
Continuous
 62
     2
100
AcDbLine
 10
243.045427475752
 20
323.1825688669
 30
0.0
 11
243.045427475752
 21
301.1825688669
 31
0.0
  0
LINE
  5
103
330
101
100
AcDbEntity
  8
1
  6
Continuous
 62
     2
100
AcDbLine
 10
232.5976481289
 20
323.1825688669
 30
0.0
 11
245.045427475752
 21
323.1825688669
 31
0.0
  0
LINE
  5
104
330
101
100
AcDbEntity
  8
1
  6
Continuous
 62
     2
100
AcDbLine
 10
232.5976481289
 20
301.1825688669
 30
0.0
 11
245.045427475752
 21
301.1825688669
 31
0.0
  0
SOLID
  5
105
330
101
100
AcDbEntity
  8
1
 62
     2
100
AcDbTrace
 10
243.5062112173079
 20
319.6825688669
 30
0.0
 11
242.5846437341961
 21
319.6825688669
 31
0.0
 12
243.045427475752
 22
323.1825688669
 32
0.0
 13
243.045427475752
 23
323.1825688669
 33
0.0
  0
SOLID
  5
106
330
101
100
AcDbEntity
  8
1
 62
     2
100
AcDbTrace
 10
242.5846437341961
 20
304.6825688669
 30
0.0
 11
243.5062112173079
 21
304.6825688669
 31
0.0
 12
243.045427475752
 22
301.1825688669
 32
0.0
 13
243.045427475752
 23
301.1825688669
 33
0.0
  0
MTEXT
  5
107
330
101
100
AcDbEntity
  8
1
 62
     3
100
AcDbMText
 10
241.045427475752
 20
302.865734755765
 30
0.0
 40
3.5
 41
0.0
 71
     7
 72
     1
  1
\C3;%%c\C3;\C3;22\C2;\H2.45;\S^ ;\C3;
  7
CONVERTER_11
 11
0.0
 21
1.0
 31
0.0
 73
     1
 44
0.60024009603842
  0
ENDBLK
  5
109
330
101
100
AcDbEntity
  8
0
100
AcDbBlockEnd
  0
BLOCK
  5
113
330
10C
100
AcDbEntity
  8
0
100
AcDbBlockBegin
  2
*D3
 70
     1
 10
0.0
 20
0.0
 30
0.0
  3
*D3
  1

  0
LINE
  5
10D
330
10C
100
AcDbEntity
  8
1
  6
Continuous
 62
     2
100
AcDbLine
 10
251.454860664055
 20
336.1825688669
 30
0.0
 11
251.454860664055
 21
288.1825688669
 31
0.0
  0
LINE
  5
10E
330
10C
100
AcDbEntity
  8
1
  6
Continuous
 62
     2
100
AcDbLine
 10
213.5976481289
 20
336.1825688669
 30
0.0
 11
253.454860664055
 21
336.1825688669
 31
0.0
  0
LINE
  5
10F
330
10C
100
AcDbEntity
  8
1
  6
Continuous
 62
     2
100
AcDbLine
 10
213.5976481289
 20
288.1825688669
 30
0.0
 11
253.454860664055
 21
288.1825688669
 31
0.0
  0
SOLID
  5
110
330
10C
100
AcDbEntity
  8
1
 62
     2
100
AcDbTrace
 10
251.9156444056109
 20
332.6825688669
 30
0.0
 11
250.9940769224991
 21
332.6825688669
 31
0.0
 12
251.454860664055
 22
336.1825688669
 32
0.0
 13
251.454860664055
 23
336.1825688669
 33
0.0
  0
SOLID
  5
111
330
10C
100
AcDbEntity
  8
1
 62
     2
100
AcDbTrace
 10
250.9940769224991
 20
291.6825688669
 30
0.0
 11
251.9156444056109
 21
291.6825688669
 31
0.0
 12
251.454860664055
 22
288.1825688669
 32
0.0
 13
251.454860664055
 23
288.1825688669
 33
0.0
  0
MTEXT
  5
112
330
10C
100
AcDbEntity
  8
1
 62
     3
100
AcDbMText
 10
249.454860664055
 20
303.030625602595
 30
0.0
 40
3.5
 41
0.0
 71
     7
 72
     1
  1
\C3;%%c\C3;\C3;48\C2;\H2.45;\S^ ;\C3;
  7
CONVERTER_11
 11
0.0
 21
1.0
 31
0.0
 73
     1
 44
0.60024009603842
  0
ENDBLK
  5
114
330
10C
100
AcDbEntity
  8
0
100
AcDbBlockEnd
  0
BLOCK
  5
11E
330
117
100
AcDbEntity
  8
0
100
AcDbBlockBegin
  2
*D4
 70
     1
 10
0.0
 20
0.0
 30
0.0
  3
*D4
  1

  0
LINE
  5
118
330
117
100
AcDbEntity
  8
1
  6
Continuous
 62
     2
100
AcDbLine
 10
231.5976481289
 20
346.182921743124
 30
0.0
 11
212.5976481289
 21
346.182921743124
 31
0.0
  0
LINE
  5
119
330
117
100
AcDbEntity
  8
1
  6
Continuous
 62
     2
100
AcDbLine
 10
231.5976481289
 20
324.1825688669
 30
0.0
 11
231.5976481289
 21
348.182921743124
 31
0.0
  0
LINE
  5
11A
330
117
100
AcDbEntity
  8
1
  6
Continuous
 62
     2
100
AcDbLine
 10
212.5976481289
 20
337.1825688669
 30
0.0
 11
212.5976481289
 21
348.182921743124
 31
0.0
  0
SOLID
  5
11B
330
117
100
AcDbEntity
  8
1
 62
     2
100
AcDbTrace
 10
228.0976481289
 20
345.7221380015681
 30
0.0
 11
228.0976481289
 21
346.6437054846799
 31
0.0
 12
231.5976481289
 22
346.182921743124
 32
0.0
 13
231.5976481289
 23
346.182921743124
 33
0.0
  0
SOLID
  5
11C
330
117
100
AcDbEntity
  8
1
 62
     2
100
AcDbTrace
 10
216.0976481289
 20
346.6437054846799
 30
0.0
 11
216.0976481289
 21
345.7221380015681
 31
0.0
 12
212.5976481289
 22
346.182921743124
 32
0.0
 13
212.5976481289
 23
346.182921743124
 33
0.0
  0
MTEXT
  5
11D
330
117
100
AcDbEntity
  8
1
 62
     3
100
AcDbMText
 10
220.589180775239
 20
348.182921743124
 30
0.0
 40
3.5
 41
0.0
 71
     7
 72
     1
  1
\C3;\C3;\C3;19\C2;\H2.45;\S^ ;\C3;
  7
CONVERTER_11
 11
0.9999999999970619
 21
2.424068405545306E-6
 31
0.0
 73
     1
 44
0.60024009603842
  0
ENDBLK
  5
11F
330
117
100
AcDbEntity
  8
0
100
AcDbBlockEnd
  0
BLOCK
  5
129
330
122
100
AcDbEntity
  8
0
100
AcDbBlockBegin
  2
*D5
 70
     1
 10
0.0
 20
0.0
 30
0.0
  3
*D5
  1

  0
LINE
  5
123
330
122
100
AcDbEntity
  8
1
  6
Continuous
 62
     2
100
AcDbLine
 10
231.5976481289
 20
353.932791544109
 30
0.0
 11
78.5976481289
 21
353.932791544109
 31
0.0
  0
LINE
  5
124
330
122
100
AcDbEntity
  8
1
  6
Continuous
 62
     2
100
AcDbLine
 10
231.5976481289
 20
324.1825688669
 30
0.0
 11
231.5976481289
 21
355.932791544109
 31
0.0
  0
LINE
  5
125
330
122
100
AcDbEntity
  8
1
  6
Continuous
 62
     2
100
AcDbLine
 10
78.5976481289
 20
345.6825199614
 30
0.0
 11
78.5976481289
 21
355.932791544109
 31
0.0
  0
SOLID
  5
126
330
122
100
AcDbEntity
  8
1
 62
     2
100
AcDbTrace
 10
228.0976481289
 20
353.4720078025532
 30
0.0
 11
228.0976481289
 21
354.3935752856649
 31
0.0
 12
231.5976481289
 22
353.932791544109
 32
0.0
 13
231.5976481289
 23
353.932791544109
 33
0.0
  0
SOLID
  5
127
330
122
100
AcDbEntity
  8
1
 62
     2
100
AcDbTrace
 10
82.0976481289
 20
354.3935752856649
 30
0.0
 11
82.0976481289
 21
353.4720078025532
 31
0.0
 12
78.5976481289
 22
353.932791544109
 32
0.0
 13
78.5976481289
 23
353.932791544109
 33
0.0
  0
MTEXT
  5
128
330
122
100
AcDbEntity
  8
1
 62
     3
100
AcDbMText
 10
151.229261034668
 20
355.932791544109
 30
0.0
 40
3.5
 41
0.0
 71
     7
 72
     1
  1
\C3;\C3;\C3;153\C2;\H2.45;\S^ ;\C3;
  7
CONVERTER_11
 11
0.9999999999970619
 21
2.424068405545306E-6
 31
0.0
 73
     1
 44
0.60024009603842
  0
ENDBLK
  5
12A
330
122
100
AcDbEntity
  8
0
100
AcDbBlockEnd
  0
BLOCK
  5
134
330
12D
100
AcDbEntity
  8
0
100
AcDbBlockBegin
  2
*D6
 70
     1
 10
0.0
 20
0.0
 30
0.0
  3
*D6
  1

  0
LINE
  5
12E
330
12D
100
AcDbEntity
  8
1
  6
Continuous
 62
     2
100
AcDbLine
 10
231.5976481289
 20
361.187988804606
 30
0.0
 11
52.5976481289
 21
361.187988804606
 31
0.0
  0
LINE
  5
12F
330
12D
100
AcDbEntity
  8
1
  6
Continuous
 62
     2
100
AcDbLine
 10
231.5976481289
 20
324.1825688669
 30
0.0
 11
231.5976481289
 21
363.187988804606
 31
0.0
  0
LINE
  5
130
330
12D
100
AcDbEntity
  8
1
  6
Continuous
 62
     2
100
AcDbLine
 10
52.5976481289
 20
345.6825688669
 30
0.0
 11
52.5976481289
 21
363.187988804606
 31
0.0
  0
SOLID
  5
131
330
12D
100
AcDbEntity
  8
1
 62
     2
100
AcDbTrace
 10
228.0976481289
 20
360.7272050630501
 30
0.0
 11
228.0976481289
 21
361.6487725461619
 31
0.0
 12
231.5976481289
 22
361.187988804606
 32
0.0
 13
231.5976481289
 23
361.187988804606
 33
0.0
  0
SOLID
  5
132
330
12D
100
AcDbEntity
  8
1
 62
     2
100
AcDbTrace
 10
56.0976481289
 20
361.6487725461619
 30
0.0
 11
56.0976481289
 21
360.7272050630501
 31
0.0
 12
52.5976481289
 22
361.187988804606
 32
0.0
 13
52.5976481289
 23
361.187988804606
 33
0.0
  0
MTEXT
  5
133
330
12D
100
AcDbEntity
  8
1
 62
     3
100
AcDbMText
 10
134.90506719855
 20
363.187988804606
 30
0.0
 40
3.5
 41
0.0
 71
     7
 72
     1
  1
\C3;\C3;\C3;179\C2;\H2.45;\S^ ;\C3;
  7
CONVERTER_11
 11
0.9999999999970619
 21
2.424068405545306E-6
 31
0.0
 73
     1
 44
0.60024009603842
  0
ENDBLK
  5
135
330
12D
100
AcDbEntity
  8
0
100
AcDbBlockEnd
  0
BLOCK
  5
13F
330
138
100
AcDbEntity
  8
0
100
AcDbBlockBegin
  2
*D7
 70
     1
 10
0.0
 20
0.0
 30
0.0
  3
*D7
  1

  0
LINE
  5
139
330
138
100
AcDbEntity
  8
1
  6
Continuous
 62
     2
100
AcDbLine
 10
231.5976481289
 20
368.608076911932
 30
0.0
 11
20.59764812890002
 21
368.608076911932
 31
0.0
  0
LINE
  5
13A
330
138
100
AcDbEntity
  8
1
  6
Continuous
 62
     2
100
AcDbLine
 10
231.5976481289
 20
324.1825688669
 30
0.0
 11
231.5976481289
 21
370.608076911932
 31
0.0
  0
LINE
  5
13B
330
138
100
AcDbEntity
  8
1
  6
Continuous
 62
     2
100
AcDbLine
 10
20.59764812890002
 20
335.7585960471
 30
0.0
 11
20.59764812890002
 21
370.608076911932
 31
0.0
  0
SOLID
  5
13C
330
138
100
AcDbEntity
  8
1
 62
     2
100
AcDbTrace
 10
228.0976481289
 20
368.1472931703761
 30
0.0
 11
228.0976481289
 21
369.0688606534879
 31
0.0
 12
231.5976481289
 22
368.608076911932
 32
0.0
 13
231.5976481289
 23
368.608076911932
 33
0.0
  0
SOLID
  5
13D
330
138
100
AcDbEntity
  8
1
 62
     2
100
AcDbTrace
 10
24.09764812890002
 20
369.0688606534879
 30
0.0
 11
24.09764812890002
 21
368.1472931703761
 31
0.0
 12
20.59764812890002
 22
368.608076911932
 32
0.0
 13
20.59764812890002
 23
368.608076911932
 33
0.0
  0
MTEXT
  5
13E
330
138
100
AcDbEntity
  8
1
 62
     3
100
AcDbMText
 10
126.915634010247
 20
370.608076911932
 30
0.0
 40
3.5
 41
0.0
 71
     7
 72
     1
  1
\C3;\C3;\C3;211\C2;\H2.45;\S^ ;\C3;
  7
CONVERTER_11
 11
0.9999999999970619
 21
2.424068405545306E-6
 31
0.0
 73
     1
 44
0.60024009603842
  0
ENDBLK
  5
140
330
138
100
AcDbEntity
  8
0
100
AcDbBlockEnd
  0
BLOCK
  5
14A
330
143
100
AcDbEntity
  8
0
100
AcDbBlockBegin
  2
*D8
 70
     1
 10
0.0
 20
0.0
 30
0.0
  3
*D8
  1

  0
LINE
  5
144
330
143
100
AcDbEntity
  8
1
  6
Continuous
 62
     2
100
AcDbLine
 10
52.5976481289
 20
271.487368129374
 30
0.0
 11
212.5976481289
 21
271.487368129374
 31
0.0
  0
LINE
  5
145
330
143
100
AcDbEntity
  8
1
  6
Continuous
 62
     2
100
AcDbLine
 10
52.5976481289
 20
278.6825688669
 30
0.0
 11
52.5976481289
 21
269.487368129374
 31
0.0
  0
LINE
  5
146
330
143
100
AcDbEntity
  8
1
  6
Continuous
 62
     2
100
AcDbLine
 10
212.5976481289
 20
287.1825688669
 30
0.0
 11
212.5976481289
 21
269.487368129374
 31
0.0
  0
SOLID
  5
147
330
143
100
AcDbEntity
  8
1
 62
     2
100
AcDbTrace
 10
56.0976481289
 20
271.9481518709298
 30
0.0
 11
56.0976481289
 21
271.0265843878181
 31
0.0
 12
52.5976481289
 22
271.487368129374
 32
0.0
 13
52.5976481289
 23
271.487368129374
 33
0.0
  0
SOLID
  5
148
330
143
100
AcDbEntity
  8
1
 62
     2
100
AcDbTrace
 10
209.0976481289
 20
271.0265843878181
 30
0.0
 11
209.0976481289
 21
271.9481518709298
 31
0.0
 12
212.5976481289
 22
271.487368129374
 32
0.0
 13
212.5976481289
 23
271.487368129374
 33
0.0
  0
MTEXT
  5
149
330
143
100
AcDbEntity
  8
1
 62
     3
100
AcDbMText
 10
127.649869938054
 20
273.487368129374
 30
0.0
 40
3.5
 41
0.0
 71
     7
 72
     1
  1
\C3;\C3;\C3;160\C2;\H2.45;\S^ ;\C3;
  7
CONVERTER_11
 11
0.9999999999970619
 21
2.424068405545306E-6
 31
0.0
 73
     1
 44
0.60024009603842
  0
ENDBLK
  5
14B
330
143
100
AcDbEntity
  8
0
100
AcDbBlockEnd
  0
BLOCK
  5
152
330
14E
100
AcDbEntity
  8
0
100
AcDbBlockBegin
  2
*D9
 70
     1
 10
0.0
 20
0.0
 30
0.0
  3
*D9
  1

  0
LINE
  5
14F
330
14E
100
AcDbEntity
  8
1
  6
Continuous
 62
     2
100
AcDbLine
 10
89.33423847175963
 20
344.4490939256337
 30
0.0
 11
78.97248098298465
 21
337.0168794795256
 31
0.0
  0
SOLID
  5
150
330
14E
100
AcDbEntity
  8
1
 62
     2
100
AcDbTrace
 10
81.54795812963334
 20
339.4312612065051
 30
0.0
 11
82.08508884703971
 21
338.6824106083565
 31
0.0
 12
78.97248098298465
 22
337.0168794795256
 32
0.0
 13
78.97248098298465
 23
337.0168794795256
 33
0.0
  0
MTEXT
  5
151
330
14E
100
AcDbEntity
  8
1
 62
     3
100
AcDbMText
 10
82.13917897303925
 20
341.74955344439
 30
0.0
 40
3.5
 41
0.0
 71
     7
 72
     1
  1
\C3; R\C3;\C3;2\C2;\H2.45;\S^ ;\C3;
  7
CONVERTER_11
 11
0.8125835729576774
 21
0.5828446936872079
 31
0.0
 73
     1
 44
0.60024009603842
  0
ENDBLK
  5
153
330
14E
100
AcDbEntity
  8
0
100
AcDbBlockEnd
  0
ENDSEC
  0
SECTION
  2
ENTITIES
  0
INSERT
  5
6C
330
1F
100
AcDbEntity
  8
0
100
AcDbBlockReference
  2
Urheberrecht_DE-EN
 10
7.41640735643934
 20
321.779076412363
 30
0.0
  0
LINE
  5
70
330
1F
100
AcDbEntity
  8
VERERBUNG
  6
Continuous
 62
     7
100
AcDbLine
 10
20.5976481289
 20
290.6078927631
 30
0.0
 11
20.5976481289
 21
304.9125688669
 31
0.0
  0
LINE
  5
71
330
1F
100
AcDbEntity
  8
VERERBUNG
  6
Continuous
 62
     7
100
AcDbLine
 10
20.5976481289
 20
319.4525688669
 30
0.0
 11
20.5976481289
 21
333.7585960471
 31
0.0
  0
LINE
  5
72
330
1F
100
AcDbEntity
  8
VERERBUNG
  6
Continuous
 62
     7
100
AcDbLine
 10
21.5976481289
 20
304.5526871871
 30
0.0
 11
21.5976481289
 21
305.9125688669
 31
0.0
  0
LINE
  5
73
330
1F
100
AcDbEntity
  8
VERERBUNG
  6
Continuous
 62
     7
100
AcDbLine
 10
21.5976481289
 20
318.4525688669
 30
0.0
 11
21.5976481289
 21
319.8124505468
 31
0.0
  0
LINE
  5
74
330
1F
100
AcDbEntity
  8
VERERBUNG
  6
Continuous
 62
     9
100
AcDbLine
 10
21.7376050646
 20
334.9571441244
 30
0.0
 11
21.7376050646
 21
321.7445967983
 31
0.0
  0
LINE
  5
75
330
1F
100
AcDbEntity
  8
VERERBUNG
  6
Continuous
 62
     9
100
AcDbLine
 10
21.7376050646
 20
302.6205409356
 30
0.0
 11
21.7376050646
 21
289.4079936094
 31
0.0
  0
LINE
  5
76
330
1F
100
AcDbEntity
  8
VERERBUNG
  6
Continuous
 62
     9
100
AcDbLine
 10
25.0976481289
 20
302.226255985
 30
0.0
 11
25.0976481289
 21
305.9125688669
 31
0.0
  0
LINE
  5
77
330
1F
100
AcDbEntity
  8
VERERBUNG
  6
Continuous
 62
     9
100
AcDbLine
 10
25.0976481289
 20
318.4525688669
 30
0.0
 11
25.0976481289
 21
322.1388817489
 31
0.0
  0
LINE
  5
78
330
1F
100
AcDbEntity
  8
VERERBUNG
  6
Continuous
 62
     7
100
AcDbLine
 10
26.5976481289
 20
319.6243565855
 30
0.0
 11
26.5976481289
 21
304.7407811484
 31
0.0
  0
LWPOLYLINE
  5
79
330
1F
100
AcDbEntity
  8
BEZUGSACHSEN
  6
DOT_CENTER
 62
     7
100
AcDbPolyline
 90
        2
 70
     0
 43
0.25
 10
43.5976481289
 20
312.1825688669
 10
43.5976481289
 20
305.4325688669
  0
LWPOLYLINE
  5
7A
330
1F
100
AcDbEntity
  8
BEZUGSACHSEN
  6
DOT_CENTER
 62
     7
100
AcDbPolyline
 90
        2
 70
     0
 43
0.25
 10
43.5976481289
 20
312.1825688669
 10
43.5976481289
 20
318.9325688669
  0
LINE
  5
7B
330
1F
100
AcDbEntity
  8
VERERBUNG
  6
Continuous
 62
     7
100
AcDbLine
 10
50.5976481289
 20
336.4029930166
 30
0.0
 11
50.5976481289
 21
287.9621447173
 31
0.0
  0
LINE
  5
7C
330
1F
100
AcDbEntity
  8
VERERBUNG
  6
Continuous
 62
     9
100
AcDbLine
 10
51.2677583619
 20
288.1417002131
 30
0.0
 11
51.2677583619
 21
336.2234375208
 31
0.0
  0
LINE
  5
7D
330
1F
100
AcDbEntity
  8
VERERBUNG
  6
Continuous
 62
     9
100
AcDbLine
 10
51.423049789
 20
288.1621447173
 30
0.0
 11
51.423049789
 21
336.2029930166
 31
0.0
  0
LINE
  5
7E
330
1F
100
AcDbEntity
  8
VERERBUNG
  6
Continuous
 62
     9
100
AcDbLine
 10
52.2954784984
 20
288.1621447173
 30
0.0
 11
52.2954784984
 21
336.2029930166
 31
0.0
  0
LINE
  5
7F
330
1F
100
AcDbEntity
  8
VERERBUNG
  6
Continuous
 62
     7
100
AcDbLine
 10
52.5976481289
 20
343.6825688669
 30
0.0
 11
52.5976481289
 21
280.6825688669
 31
0.0
  0
LWPOLYLINE
  5
80
330
1F
100
AcDbEntity
  8
BEZUGSACHSEN
  6
DOT_CENTER
 62
     7
100
AcDbPolyline
 90
        2
 70
     0
 43
0.25
 10
59.5976481289
 20
335.6832119471
 10
59.5976481289
 20
346.6825688669
  0
LINE
  5
81
330
1F
100
AcDbEntity
  8
VERERBUNG
  6
Continuous
 62
     7
100
AcDbLine
 10
20.5976481289
 20
304.9125688669
 30
0.0
 11
21.5976481289
 21
305.9125688669
 31
0.0
  0
LINE
  5
82
330
1F
100
AcDbEntity
  8
VERERBUNG
  6
Continuous
 62
     7
100
AcDbLine
 10
21.5976481289
 20
318.4525688669
 30
0.0
 11
20.5976481289
 21
319.4525688669
 31
0.0
  0
LINE
  5
83
330
1F
100
AcDbEntity
  8
FASEN
  6
Continuous
 62
     9
100
AcDbLine
 10
64.7346585319
 20
291.9325688669
 30
0.0
 11
64.7346585319
 21
292.3325688669
 31
0.0
  0
LINE
  5
84
330
1F
100
AcDbEntity
  8
0
  6
Continuous
 62
     7
100
AcDbLine
 10
67.2201490541
 20
343.6825688669
 30
0.0
 11
67.2201490541
 21
320.2000688669
 31
0.0
  0
LINE
  5
85
330
1F
100
AcDbEntity
  8
0
  6
Continuous
 62
     7
100
AcDbLine
 10
67.2201490541
 20
304.1650688669
 30
0.0
 11
67.2201490541
 21
292.3325688669
 31
0.0
  0
LINE
  5
86
330
1F
100
AcDbEntity
  8
0
  6
Continuous
 62
     7
100
AcDbLine
 10
67.2201490541
 20
287.7238792046
 30
0.0
 11
67.2201490541
 21
280.6825688669
 31
0.0
  0
LINE
  5
87
330
1F
100
AcDbEntity
  8
VERERBUNG
  6
Continuous
 62
     7
100
AcDbLine
 10
72.4726481289
 20
341.0801641311
 30
0.0
 11
73.9751472037
 21
343.6825688669
 31
0.0
  0
LINE
  5
88
330
1F
100
AcDbEntity
  8
VERERBUNG
  6
Continuous
 62
     7
100
AcDbLine
 10
72.4726481289
 20
283.2849736028
 30
0.0
 11
73.9751472037
 21
280.6825688669
 31
0.0
  0
LINE
  5
89
330
1F
100
AcDbEntity
  8
0
  6
Continuous
 62
     7
100
AcDbLine
 10
68.7226481289
 20
341.0801415946
 30
0.0
 11
68.7226481289
 21
320.2000688669
 31
0.0
  0
LINE
  5
8A
330
1F
100
AcDbEntity
  8
0
  6
Continuous
 62
     7
100
AcDbLine
 10
68.7226481289
 20
304.1650688669
 30
0.0
 11
68.7226481289
 21
292.3325688669
 31
0.0
  0
LINE
  5
8B
330
1F
100
AcDbEntity
  8
0
  6
Continuous
 62
     7
100
AcDbLine
 10
68.7226481289
 20
283.2849799155
 30
0.0
 11
68.7226481289
 21
291.7319576291
 31
0.0
  0
LINE
  5
8C
330
1F
100
AcDbEntity
  8
0
  6
Continuous
 62
     9
100
AcDbLine
 10
69.7226481289
 20
284.6825688669
 30
0.0
 11
69.7226481289
 21
304.4825688669
 31
0.0
  0
LINE
  5
8D
330
1F
100
AcDbEntity
  8
0
  6
Continuous
 62
     9
100
AcDbLine
 10
69.7226481289
 20
319.8825688669
 30
0.0
 11
69.7226481289
 21
339.6825688669
 31
0.0
  0
LINE
  5
8E
330
1F
100
AcDbEntity
  8
0
  6
Continuous
 62
     9
100
AcDbLine
 10
71.4726481289
 20
284.6825688669
 30
0.0
 11
71.4726481289
 21
304.4825688669
 31
0.0
  0
LINE
  5
8F
330
1F
100
AcDbEntity
  8
0
  6
Continuous
 62
     9
100
AcDbLine
 10
71.4726481289
 20
319.8825688669
 30
0.0
 11
71.4726481289
 21
339.6825688669
 31
0.0
  0
LINE
  5
90
330
1F
100
AcDbEntity
  8
0
  6
Continuous
 62
     7
100
AcDbLine
 10
72.4726481289
 20
283.2849799155
 30
0.0
 11
72.4726481289
 21
291.7319576291
 31
0.0
  0
LINE
  5
91
330
1F
100
AcDbEntity
  8
0
  6
Continuous
 62
     7
100
AcDbLine
 10
72.4726481289
 20
292.3325688669
 30
0.0
 11
72.4726481289
 21
304.1650688669
 31
0.0
  0
LINE
  5
92
330
1F
100
AcDbEntity
  8
0
  6
Continuous
 62
     7
100
AcDbLine
 10
72.4726481289
 20
320.2000688669
 30
0.0
 11
72.4726481289
 21
341.0801415946
 31
0.0
  0
LINE
  5
93
330
1F
100
AcDbEntity
  8
0
  6
Continuous
 62
     7
100
AcDbLine
 10
73.9751472037
 20
343.6825688669
 30
0.0
 11
73.9751472037
 21
320.2000688669
 31
0.0
  0
LINE
  5
94
330
1F
100
AcDbEntity
  8
0
  6
Continuous
 62
     7
100
AcDbLine
 10
73.9751472037
 20
304.1650688669
 30
0.0
 11
73.9751472037
 21
292.3325688669
 31
0.0
  0
LINE
  5
95
330
1F
100
AcDbEntity
  8
0
  6
Continuous
 62
     7
100
AcDbLine
 10
73.9751472037
 20
287.7238792046
 30
0.0
 11
73.9751472037
 21
280.6825688669
 31
0.0
  0
LINE
  5
96
330
1F
100
AcDbEntity
  8
0
  6
Continuous
 62
     7
100
AcDbLine
 10
78.5976481289
 20
287.7238792046
 30
0.0
 11
78.5976481289
 21
280.6826079287
 31
0.0
  0
LINE
  5
97
330
1F
100
AcDbEntity
  8
FASEN
  6
Continuous
 62
     7
100
AcDbLine
 10
78.5976481289
 20
287.7238792046
 30
0.0
 11
78.5976481289
 21
292.3325688669
 31
0.0
  0
LINE
  5
98
330
1F
100
AcDbEntity
  8
0
  6
Continuous
 62
     7
100
AcDbLine
 10
78.5976481289
 20
292.3325688669
 30
0.0
 11
78.5976481289
 21
343.6825199614
 31
0.0
  0
LINE
  5
99
330
1F
100
AcDbEntity
  8
RUNDUNGEN
  6
Continuous
 62
     9
100
AcDbLine
 10
80.5976481289
 20
336.1825688669
 30
0.0
 11
80.5976481289
 21
288.1825688669
 31
0.0
  0
LINE
  5
9A
330
1F
100
AcDbEntity
  8
VERERBUNG
  6
Continuous
 62
     9
100
AcDbLine
 10
20.5976481289
 20
304.0059810804
 30
0.0
 11
21.5976481289
 21
304.5526871871
 31
0.0
  0
LINE
  5
9B
330
1F
100
AcDbEntity
  8
VERERBUNG
  6
Continuous
 62
     7
100
AcDbLine
 10
67.2201490541
 20
280.6825688669
 30
0.0
 11
68.7226481289
 21
283.2849736028
 31
0.0
  0
LINE
  5
9C
330
1F
100
AcDbEntity
  8
VERERBUNG
  6
Continuous
 62
     9
100
AcDbLine
 10
21.5976481289
 20
319.8124505468
 30
0.0
 11
20.5976481289
 21
320.3591566535
 31
0.0
  0
LINE
  5
9D
330
1F
100
AcDbEntity
  8
VERERBUNG
  6
Continuous
 62
     7
100
AcDbLine
 10
52.5976481289
 20
280.6825688669
 30
0.0
 11
67.2201490541
 21
280.6825688669
 31
0.0
  0
LINE
  5
9E
330
1F
100
AcDbEntity
  8
VERERBUNG
  6
Continuous
 62
     7
100
AcDbLine
 10
73.9751472037
 20
280.6825688669
 30
0.0
 11
78.5976481289
 21
280.6825688669
 31
0.0
  0
LINE
  5
9F
330
1F
100
AcDbEntity
  8
VERERBUNG
  6
Continuous
 62
     7
100
AcDbLine
 10
67.2201490541
 20
343.6825688669
 30
0.0
 11
68.7226481289
 21
341.0801641311
 31
0.0
  0
LINE
  5
A0
330
1F
100
AcDbEntity
  8
VERERBUNG
  6
Continuous
 62
     7
100
AcDbLine
 10
69.7226481289
 20
284.6825688669
 30
0.0
 11
71.4726481289
 21
284.6825688669
 31
0.0
  0
LINE
  5
A1
330
1F
100
AcDbEntity
  8
FASEN
  6
Continuous
 62
     7
100
AcDbLine
 10
57.9332605731
 20
287.7238792046
 30
0.0
 11
67.2201490541
 21
287.7238792046
 31
0.0
  0
LINE
  5
A2
330
1F
100
AcDbEntity
  8
0
  6
Continuous
 62
     7
100
AcDbLine
 10
73.9751472037
 20
287.7238792046
 30
0.0
 11
78.5976481289
 21
287.7238792046
 31
0.0
  0
LINE
  5
A3
330
1F
100
AcDbEntity
  8
VERERBUNG
  6
Continuous
 62
     7
100
AcDbLine
 10
52.2954784984
 20
288.1621447173
 30
0.0
 11
51.423049789
 21
288.1621447173
 31
0.0
  0
LINE
  5
A4
330
1F
100
AcDbEntity
  8
0
  6
Continuous
 62
     7
100
AcDbLine
 10
80.5976481289
 20
288.1825688669
 30
0.0
 11
211.5976481289
 21
288.1825688669
 31
0.0
  0
LINE
  5
A5
330
1F
100
AcDbEntity
  8
VERERBUNG
  6
Continuous
 62
     7
100
AcDbLine
 10
21.7376050646
 20
289.4079936094
 30
0.0
 11
50.5976481289
 21
287.9621447173
 31
0.0
  0
LINE
  5
A6
330
1F
100
AcDbEntity
  8
0
  6
Continuous
 62
     7
100
AcDbLine
 10
212.5976481289
 20
290.1825688669
 30
0.0
 11
218.1976481289
 21
290.1825688669
 31
0.0
  0
LINE
  5
A7
330
1F
100
AcDbEntity
  8
FASEN
  6
Continuous
 62
     7
100
AcDbLine
 10
64.7346585319
 20
291.9325688669
 30
0.0
 11
68.7330133942
 21
291.9325688669
 31
0.0
  0
LINE
  5
A8
330
1F
100
AcDbEntity
  8
FASEN
  6
Continuous
 62
     7
100
AcDbLine
 10
72.4622828636
 20
291.9325688669
 30
0.0
 11
78.5976481289
 21
291.9325688669
 31
0.0
  0
LINE
  5
A9
330
1F
100
AcDbEntity
  8
0
  6
Continuous
 62
     7
100
AcDbLine
 10
64.7346585319
 20
292.3325688669
 30
0.0
 11
68.7226481289
 21
292.3325688669
 31
0.0
  0
LINE
  5
AA
330
1F
100
AcDbEntity
  8
FASEN
  6
Continuous
 62
     7
100
AcDbLine
 10
68.7226481289
 20
292.3325688669
 30
0.0
 11
68.7330133942
 21
292.3325688669
 31
0.0
  0
LINE
  5
AB
330
1F
100
AcDbEntity
  8
FASEN
  6
Continuous
 62
     7
100
AcDbLine
 10
72.4622828636
 20
292.3325688669
 30
0.0
 11
72.4726481289
 21
292.3325688669
 31
0.0
  0
LINE
  5
AC
330
1F
100
AcDbEntity
  8
0
  6
Continuous
 62
     7
100
AcDbLine
 10
72.4726481289
 20
292.3325688669
 30
0.0
 11
78.5976481289
 21
292.3325688669
 31
0.0
  0
LINE
  5
AD
330
1F
100
AcDbEntity
  8
0
  6
Continuous
 62
     7
100
AcDbLine
 10
212.5976481289
 20
300.1825688669
 30
0.0
 11
218.1976481289
 21
300.1825688669
 31
0.0
  0
LINE
  5
AE
330
1F
100
AcDbEntity
  8
0
  6
Continuous
 62
     7
100
AcDbLine
 10
212.5976481289
 20
301.1825688669
 30
0.0
 11
230.5976481289
 21
301.1825688669
 31
0.0
  0
LINE
  5
AF
330
1F
100
AcDbEntity
  8
VERERBUNG
  6
Continuous
 62
     9
100
AcDbLine
 10
26.0850551666
 20
302.9125688669
 30
0.0
 11
21.2693229393
 21
302.9125688669
 31
0.0
  0
LINE
  5
B0
330
1F
100
AcDbEntity
  8
VERERBUNG
  6
Continuous
 62
     7
100
AcDbLine
 10
51.2677583619
 20
288.1417002131
 30
0.0
 11
50.5976481289
 21
287.9621447173
 31
0.0
  0
LINE
  5
B1
330
1F
100
AcDbEntity
  8
0
  6
Continuous
 62
     7
100
AcDbLine
 10
78.5976481289
 20
304.1650688669
 30
0.0
 11
71.8885350194
 21
304.1650688669
 31
0.0
  0
LINE
  5
B2
330
1F
100
AcDbEntity
  8
0
  6
Continuous
 62
     7
100
AcDbLine
 10
65.5651481289
 20
304.1650688669
 30
0.0
 11
69.3067612384
 21
304.1650688669
 31
0.0
  0
LINE
  5
B3
330
1F
100
AcDbEntity
  8
0
  6
Continuous
 62
     7
100
AcDbLine
 10
69.7226481289
 20
304.4825688669
 30
0.0
 11
71.4726481289
 21
304.4825688669
 31
0.0
  0
LINE
  5
B4
330
1F
100
AcDbEntity
  8
VERERBUNG
  6
Continuous
 62
     7
100
AcDbLine
 10
25.0976481289
 20
305.9125688669
 30
0.0
 11
21.5976481289
 21
305.9125688669
 31
0.0
  0
LWPOLYLINE
  5
B5
330
1F
100
AcDbEntity
  8
BEZUGSACHSEN
  6
DOT_CENTER
 62
     7
100
AcDbPolyline
 90
        2
 70
     0
 43
0.25
 10
234.5976481289
 20
312.1825688669
 10
17.5976481289
 20
312.1825688669
  0
LINE
  5
B6
330
1F
100
AcDbEntity
  8
VERERBUNG
  6
Continuous
 62
     9
100
AcDbLine
 10
39.3482114188
 20
312.1825688019
 30
0.0
 11
39.8475977504
 21
312.1825688192
 31
0.0
  0
LINE
  5
B7
330
1F
100
AcDbEntity
  8
VERERBUNG
  6
Continuous
 62
     9
100
AcDbLine
 10
47.8470814241
 20
312.1825689182
 30
0.0
 11
47.3476919439
 21
312.1825688992
 31
0.0
  0
LINE
  5
B8
330
1F
100
AcDbEntity
  8
VERERBUNG
  6
Continuous
 62
     7
100
AcDbLine
 10
51.2677583619
 20
336.2234375208
 30
0.0
 11
50.5976481289
 21
336.4029930166
 31
0.0
  0
LINE
  5
B9
330
1F
100
AcDbEntity
  8
VERERBUNG
  6
Continuous
 62
     7
100
AcDbLine
 10
25.0976481289
 20
318.4525688669
 30
0.0
 11
21.5976481289
 21
318.4525688669
 31
0.0
  0
LINE
  5
BA
330
1F
100
AcDbEntity
  8
0
  6
Continuous
 62
     7
100
AcDbLine
 10
69.7226481289
 20
319.8825688669
 30
0.0
 11
71.4726481289
 21
319.8825688669
 31
0.0
  0
LINE
  5
BB
330
1F
100
AcDbEntity
  8
0
  6
Continuous
 62
     7
100
AcDbLine
 10
65.5651481289
 20
320.2000688669
 30
0.0
 11
69.3067612384
 21
320.2000688669
 31
0.0
  0
LINE
  5
BC
330
1F
100
AcDbEntity
  8
0
  6
Continuous
 62
     7
100
AcDbLine
 10
71.8885350194
 20
320.2000688669
 30
0.0
 11
78.5976481289
 21
320.2000688669
 31
0.0
  0
LINE
  5
BD
330
1F
100
AcDbEntity
  8
VERERBUNG
  6
Continuous
 62
     9
100
AcDbLine
 10
21.2693229393
 20
321.4525688669
 30
0.0
 11
26.0850551666
 21
321.4525688669
 31
0.0
  0
LINE
  5
BE
330
1F
100
AcDbEntity
  8
0
  6
Continuous
 62
     7
100
AcDbLine
 10
212.5976481289
 20
323.1825688669
 30
0.0
 11
230.5976481289
 21
323.1825688669
 31
0.0
  0
LINE
  5
BF
330
1F
100
AcDbEntity
  8
0
  6
Continuous
 62
     7
100
AcDbLine
 10
212.5976481289
 20
324.1825688669
 30
0.0
 11
218.1976481289
 21
324.1825688669
 31
0.0
  0
LINE
  5
C0
330
1F
100
AcDbEntity
  8
VERERBUNG
  6
Continuous
 62
     7
100
AcDbLine
 10
21.7376050646
 20
334.9571441244
 30
0.0
 11
50.5976481289
 21
336.4029930166
 31
0.0
  0
LINE
  5
C1
330
1F
100
AcDbEntity
  8
0
  6
Continuous
 62
     7
100
AcDbLine
 10
212.5976481289
 20
334.1825688669
 30
0.0
 11
218.1976481289
 21
334.1825688669
 31
0.0
  0
LINE
  5
C2
330
1F
100
AcDbEntity
  8
0
  6
Continuous
 62
     7
100
AcDbLine
 10
80.5976481289
 20
336.1825688669
 30
0.0
 11
211.5976481289
 21
336.1825688669
 31
0.0
  0
LINE
  5
C3
330
1F
100
AcDbEntity
  8
VERERBUNG
  6
Continuous
 62
     7
100
AcDbLine
 10
52.2954784984
 20
336.2029930166
 30
0.0
 11
51.423049789
 21
336.2029930166
 31
0.0
  0
LINE
  5
C4
330
1F
100
AcDbEntity
  8
VERERBUNG
  6
Continuous
 62
     7
100
AcDbLine
 10
69.7226481289
 20
339.6825688669
 30
0.0
 11
71.4726481289
 21
339.6825688669
 31
0.0
  0
LINE
  5
C5
330
1F
100
AcDbEntity
  8
VERERBUNG
  6
Continuous
 62
     7
100
AcDbLine
 10
52.5976481289
 20
343.6825688669
 30
0.0
 11
54.5976481289
 21
343.6825688669
 31
0.0
  0
LINE
  5
C6
330
1F
100
AcDbEntity
  8
VERERBUNG
  6
Continuous
 62
     7
100
AcDbLine
 10
64.5976481289
 20
343.6825688669
 30
0.0
 11
67.2201490541
 21
343.6825688669
 31
0.0
  0
LINE
  5
C7
330
1F
100
AcDbEntity
  8
VERERBUNG
  6
Continuous
 62
     7
100
AcDbLine
 10
73.9751472037
 20
343.6825688669
 30
0.0
 11
78.5976481289
 21
343.6825688669
 31
0.0
  0
LINE
  5
C8
330
1F
100
AcDbEntity
  8
RUNDUNGEN
  6
Continuous
 62
     9
100
AcDbLine
 10
211.5976481289
 20
288.1825688669
 30
0.0
 11
211.5976481289
 21
336.1825688669
 31
0.0
  0
LINE
  5
C9
330
1F
100
AcDbEntity
  8
RUNDUNGEN
  6
Continuous
 62
     7
100
AcDbLine
 10
212.5976481289
 20
289.1825688669
 30
0.0
 11
212.5976481289
 21
335.1825688669
 31
0.0
  0
LINE
  5
CA
330
1F
100
AcDbEntity
  8
0
  6
Continuous
 62
     7
100
AcDbLine
 10
218.1976481289
 20
334.1825688669
 30
0.0
 11
218.1976481289
 21
324.1825688669
 31
0.0
  0
LINE
  5
CB
330
1F
100
AcDbEntity
  8
0
  6
Continuous
 62
     7
100
AcDbLine
 10
218.1976481289
 20
300.1825688669
 30
0.0
 11
218.1976481289
 21
290.1825688669
 31
0.0
  0
LINE
  5
CC
330
1F
100
AcDbEntity
  8
RUNDUNGEN
  6
Continuous
 62
     9
100
AcDbLine
 10
230.5976481289
 20
301.1825688669
 30
0.0
 11
230.5976481289
 21
323.1825688669
 31
0.0
  0
LINE
  5
CD
330
1F
100
AcDbEntity
  8
RUNDUNGEN
  6
Continuous
 62
     7
100
AcDbLine
 10
231.5976481289
 20
302.1825688669
 30
0.0
 11
231.5976481289
 21
322.1825688669
 31
0.0
  0
ARC
  5
CE
330
1F
100
AcDbEntity
  8
FASEN
  6
Continuous
 62
     7
100
AcDbCircle
 10
-28.9725923496
 20
292.1325688669
 30
0.0
 40
97.70581044013137
100
AcDbArc
 50
359.8827176822605
 51
0.11728231773952
  0
ARC
  5
CF
330
1F
100
AcDbEntity
  8
FASEN
  6
Continuous
 62
     7
100
AcDbCircle
 10
67.6416540445
 20
296.2519660237
 30
0.0
 40
12.9221193535998
100
AcDbArc
 50
219.3764519581988
 51
221.2968513340144
  0
ARC
  5
D0
330
1F
100
AcDbEntity
  8
FASEN
  6
Continuous
 62
     7
100
AcDbCircle
 10
64.7346585319
 20
284.3325688669
 30
0.0
 40
8.0
100
AcDbArc
 50
90.0
 51
152.2781454968997
  0
ARC
  5
D1
330
1F
100
AcDbEntity
  8
FASEN
  6
Continuous
 62
     7
100
AcDbCircle
 10
64.7346585319
 20
284.3325688669
 30
0.0
 40
7.599996372100009
100
AcDbArc
 50
90.0
 51
153.4982565746012
  0
ARC
  5
D2
330
1F
100
AcDbEntity
  8
FASEN
  6
Continuous
 62
     7
100
AcDbCircle
 10
70.5251026658
 20
291.7319044335
 30
0.0
 40
1.947545463826496
100
AcDbArc
 50
0.00156498701871
 51
5.91393925840453
  0
ARC
  5
D3
330
1F
100
AcDbEntity
  8
FASEN
  6
Continuous
 62
     7
100
AcDbCircle
 10
70.670193592
 20
291.7319044335
 30
0.0
 40
1.947545463803144
100
AcDbArc
 50
174.0860607415955
 51
179.9984350129813
  0
ARC
  5
D4
330
1F
100
AcDbEntity
  8
VERERBUNG
  6
Continuous
 62
     7
100
AcDbCircle
 10
25.0976481289
 20
307.4125688669
 30
0.0
 40
1.5
100
AcDbArc
 50
270.0
 51
354.8576388685818
  0
ARC
  5
D5
330
1F
100
AcDbEntity
  8
VERERBUNG
  6
Continuous
 62
     7
100
AcDbCircle
 10
21.7976481289
 20
290.6064905141
 30
0.0
 40
1.199999999999999
100
AcDbArc
 50
180.0
 51
267.1319572717895
  0
ARC
  5
D6
330
1F
100
AcDbEntity
  8
VERERBUNG
  6
Continuous
 62
     7
100
AcDbCircle
 10
71.4726481289
 20
283.6825688669
 30
0.0
 40
1.0
100
AcDbArc
 50
0.0
 51
90.0
  0
ARC
  5
D7
330
1F
100
AcDbEntity
  8
VERERBUNG
  6
Continuous
 62
     7
100
AcDbCircle
 10
69.7226481289
 20
283.6825688669
 30
0.0
 40
1.0
100
AcDbArc
 50
90.0
 51
180.0
  0
ARC
  5
D8
330
1F
100
AcDbEntity
  8
VERERBUNG
  6
Continuous
 62
     7
100
AcDbCircle
 10
51.423049789
 20
287.5621447173
 30
0.0
 40
0.6000000000000227
100
AcDbArc
 50
90.0
 51
105.0000000028924
  0
ARC
  5
D9
330
1F
100
AcDbEntity
  8
VERERBUNG
  6
Continuous
 62
     7
100
AcDbCircle
 10
52.2954784984
 20
287.5621447173
 30
0.0
 40
0.6000000000003822
100
AcDbArc
 50
59.74152092741755
 51
90.0
  0
ARC
  5
DA
330
1F
100
AcDbEntity
  8
0
  6
Continuous
 62
     7
100
AcDbCircle
 10
-75.1508933437
 20
351.6475724712
 30
0.0
 40
156.0632957305418
100
AcDbArc
 50
335.8202227521907
 51
337.2043014055999
  0
ARC
  5
DB
330
1F
100
AcDbEntity
  8
VERERBUNG
  6
Continuous
 62
     7
100
AcDbCircle
 10
59.5790819439
 20
374.9971167262
 30
0.0
 40
31.71385608959983
100
AcDbArc
 50
270.0335425085
 51
279.1049739730003
  0
ARC
  5
DC
330
1F
100
AcDbEntity
  8
0
  6
Continuous
 62
     7
100
AcDbCircle
 10
65.5651481289
 20
312.1825688669
 30
0.0
 40
8.017499999999984
100
AcDbArc
 50
90.0
 51
270.0
  0
ARC
  5
DD
330
1F
100
AcDbEntity
  8
VERERBUNG
  6
Continuous
 62
     7
100
AcDbCircle
 10
25.0976481289
 20
316.9525688669
 30
0.0
 40
1.499999999999929
100
AcDbArc
 50
5.14236106798624
 51
90.0
  0
ARC
  5
DE
330
1F
100
AcDbEntity
  8
VERERBUNG
  6
Continuous
 62
     7
100
AcDbCircle
 10
21.7976481289
 20
333.7586472198
 30
0.0
 40
1.199999999960914
100
AcDbArc
 50
92.86804272844952
 51
180.0
  0
ARC
  5
DF
330
1F
100
AcDbEntity
  8
VERERBUNG
  6
Continuous
 62
     7
100
AcDbCircle
 10
71.4726481289
 20
340.6825688669
 30
0.0
 40
1.0
100
AcDbArc
 50
270.0
 51
0.0
  0
ARC
  5
E0
330
1F
100
AcDbEntity
  8
VERERBUNG
  6
Continuous
 62
     7
100
AcDbCircle
 10
69.7226481289
 20
340.6825688669
 30
0.0
 40
1.0
100
AcDbArc
 50
180.0
 51
270.0
  0
ARC
  5
E1
330
1F
100
AcDbEntity
  8
VERERBUNG
  6
Continuous
 62
     7
100
AcDbCircle
 10
51.423049789
 20
336.8029930166
 30
0.0
 40
0.6000000000355948
100
AcDbArc
 50
254.9999999971062
 51
270.0
  0
ARC
  5
E2
330
1F
100
AcDbEntity
  8
VERERBUNG
  6
Continuous
 62
     7
100
AcDbCircle
 10
52.2954784984
 20
336.8029930166
 30
0.0
 40
0.6000000000000227
100
AcDbArc
 50
270.0
 51
300.2584790725825
  0
ARC
  5
E3
330
1F
100
AcDbEntity
  8
VERERBUNG
  6
Continuous
 62
     7
100
AcDbCircle
 10
126.4812455354
 20
-556.3524930493
 30
0.0
 40
884.3221864331545
100
AcDbArc
 50
96.58318095120157
 51
96.8023740697
  0
ARC
  5
E4
330
1F
100
AcDbEntity
  8
FASEN
  6
Continuous
 62
     7
100
AcDbCircle
 10
170.1678886094
 20
292.1325688669
 30
0.0
 40
97.70581044213137
100
AcDbArc
 50
179.8827176822629
 51
180.1172823177371
  0
ARC
  5
E5
330
1F
100
AcDbEntity
  8
RUNDUNGEN
  6
Continuous
 62
     7
100
AcDbCircle
 10
80.5976481289
 20
286.1825688669
 30
0.0
 40
2.0
100
AcDbArc
 50
90.0
 51
180.0
  0
ARC
  5
E6
330
1F
100
AcDbEntity
  8
RUNDUNGEN
  6
Continuous
 62
     7
100
AcDbCircle
 10
211.5976481289
 20
289.1825688669
 30
0.0
 40
1.0
100
AcDbArc
 50
270.0
 51
0.0
  0
ARC
  5
E7
330
1F
100
AcDbEntity
  8
RUNDUNGEN
  6
Continuous
 62
     7
100
AcDbCircle
 10
230.5976481289
 20
302.1825688669
 30
0.0
 40
1.0
100
AcDbArc
 50
270.0
 51
0.0
  0
ARC
  5
E8
330
1F
100
AcDbEntity
  8
VERERBUNG
  6
Continuous
 62
     7
100
AcDbCircle
 10
126.4812455354
 20
1180.7176307832
 30
0.0
 40
884.3221864331002
100
AcDbArc
 50
263.1976259303
 51
263.4168190487984
  0
ARC
  5
E9
330
1F
100
AcDbEntity
  8
0
  6
Continuous
 62
     7
100
AcDbCircle
 10
216.3461896015
 20
351.6475724712
 30
0.0
 40
156.0632957306001
100
AcDbArc
 50
202.7956985944
 51
204.1797772478093
  0
ARC
  5
EA
330
1F
100
AcDbEntity
  8
RUNDUNGEN
  6
Continuous
 62
     7
100
AcDbCircle
 10
80.5976481289
 20
338.1825688669
 30
0.0
 40
2.0
100
AcDbArc
 50
180.0
 51
270.0
  0
ARC
  5
EB
330
1F
100
AcDbEntity
  8
RUNDUNGEN
  6
Continuous
 62
     7
100
AcDbCircle
 10
211.5976481289
 20
335.1825688669
 30
0.0
 40
1.0
100
AcDbArc
 50
0.0
 51
90.0
  0
ARC
  5
EC
330
1F
100
AcDbEntity
  8
RUNDUNGEN
  6
Continuous
 62
     7
100
AcDbCircle
 10
230.5976481289
 20
322.1825688669
 30
0.0
 40
1.0
100
AcDbArc
 50
0.0
 51
90.0
  0
CIRCLE
  5
ED
330
1F
100
AcDbEntity
  8
VERERBUNG
  6
Continuous
 62
     7
100
AcDbCircle
 10
43.5976481289
 20
312.1825688669
 30
0.0
 40
3.75
  0
SPLINE
  5
EE
330
1F
100
AcDbEntity
  8
VERERBUNG
  6
Continuous
 62
     7
100
AcDbSpline
210
0.0
220
0.0
230
1.0
 70
     8
 71
     3
 72
    13
 73
     9
 74
     7
 42
0.0000000001
 43
0.0000000001
 44
0.00000001
 40
0.0
 40
0.0
 40
0.0
 40
0.0
 40
0.958145116170584
 40
1.916374757543962
 40
2.729668920807238
 40
3.542928077724327
 40
4.281951737045675
 40
5.020980281037096
 40
5.020980281037096
 40
5.020980281037096
 40
5.020980281037096
 10
59.5976481289
 20
343.2832119471
 30
0.0
 10
59.27825396257469
 20
343.286055484802
 30
0.0
 10
58.63943745375724
 20
343.2917428110559
 30
0.0
 10
57.73037333253616
 20
343.3353505296984
 30
0.0
 10
56.87105522530808
 20
343.3989069158811
 30
0.0
 10
56.08641668239414
 20
343.4779039318681
 30
0.0
 10
55.32828515489869
 20
343.5713149923272
 30
0.0
 10
54.84119434081248
 20
343.6454841603376
 30
0.0
 10
54.5976481289
 20
343.6825688669
 30
0.0
 11
59.5976481289
 21
343.2832119471
 31
0.0
 11
58.63961673705616
 21
343.2979739213345
 31
0.0
 11
57.68240502516246
 21
343.3421302823721
 31
0.0
 11
56.87135369483065
 21
343.4024886750371
 31
0.0
 11
56.06214194673972
 21
343.4835244884848
 31
0.0
 11
55.32877570827616
 21
343.574792934941
 31
0.0
 11
54.5976481289
 21
343.6825688669
 31
0.0
  0
SPLINE
  5
EF
330
1F
100
AcDbEntity
  8
VERERBUNG
  6
Continuous
 62
     7
100
AcDbSpline
210
0.0
220
0.0
230
1.0
 70
     8
 71
     3
 72
    13
 73
     9
 74
     7
 42
0.0000000001
 43
0.0000000001
 44
0.00000001
 40
0.0
 40
0.0
 40
0.0
 40
0.0
 40
0.476518241897624
 40
0.9529821705612078
 40
1.19315882991255
 40
1.433310795839917
 40
1.675484054885253
 40
1.917493731644054
 40
1.917493731644054
 40
1.917493731644054
 40
1.917493731644054
 10
26.0850551666
 20
321.4525688669
 30
0.0
 10
26.15687577926627
 20
321.3107707040691
 30
0.0
 10
26.30050881853288
 20
321.027190540468
 30
0.0
 10
26.43493291246497
 20
320.6515765838803
 30
0.0
 10
26.51652761372478
 20
320.3431001247739
 30
0.0
 10
26.56193295907476
 20
320.106426682125
 30
0.0
 10
26.59180869695373
 20
319.8664802315491
 30
0.0
 10
26.59570209004843
 20
319.7050462872434
 30
0.0
 10
26.5976481289
 20
319.6243565855
 30
0.0
 11
26.0850551666
 21
321.4525688669
 31
0.0
 11
26.29144901720021
 21
321.0230677454863
 31
0.0
 11
26.45287920364937
 21
320.5747841631185
 31
0.0
 11
26.51383542317662
 21
320.3424715138759
 31
0.0
 11
26.55922329692286
 21
320.1066476226868
 31
0.0
 11
26.58779345365216
 21
319.8661655369899
 31
0.0
 11
26.5976481289
 21
319.6243565855
 31
0.0
  0
SPLINE
  5
F0
330
1F
100
AcDbEntity
  8
VERERBUNG
  6
Continuous
 62
     7
100
AcDbSpline
210
0.0
220
0.0
230
1.0
 70
     8
 71
     3
 72
    19
 73
    15
 74
    13
 42
0.0000000001
 43
0.0000000001
 44
0.00000001
 40
0.0
 40
0.0
 40
0.0
 40
0.0
 40
0.0835832282533553
 40
0.1672705448672854
 40
0.2499538624498281
 40
0.3326148850807985
 40
0.4138475639469715
 40
0.4950848398311628
 40
0.5749375740464548
 40
0.654798588797883
 40
0.8114954796458504
 40
0.9684466433032541
 40
1.123543258601708
 40
1.278502018137987
 40
1.278502018137987
 40
1.278502018137987
 40
1.278502018137987
 10
25.0976481289
 20
322.1388817489
 30
0.0
 10
25.12544676947286
 20
322.1411546295875
 30
0.0
 10
25.18107866898622
 20
322.1457032214397
 30
0.0
 10
25.26451007250864
 20
322.1403370934024
 30
0.0
 10
25.34641914593289
 20
322.1260329099836
 30
0.0
 10
25.42545561881945
 20
322.1028431187785
 30
0.0
 10
25.50115662682685
 20
322.071738411761
 30
0.0
 10
25.57268626464301
 20
322.033967762729
 30
0.0
 10
25.64022810678294
 20
321.9903324783625
 30
0.0
 10
25.72409755058225
 20
321.926236991604
 30
0.0
 10
25.81968548061089
 20
321.8358137932667
 30
0.0
 10
25.9200597595227
 20
321.7157674530806
 30
0.0
 10
26.0091040708195
 20
321.5877687453028
 30
0.0
 10
26.0597456400337
 20
321.4976221328079
 30
0.0
 10
26.0850551666
 20
321.4525688669
 30
0.0
 11
25.0976481289
 21
322.1388817489
 31
0.0
 11
25.18109420557496
 21
322.1436680139166
 31
0.0
 11
25.26463989451259
 21
322.1388013084625
 31
0.0
 11
25.34608016866109
 21
322.1245180051656
 31
0.0
 11
25.42542500344041
 21
322.1013395268669
 31
0.0
 11
25.50060141091808
 21
322.0705620046384
 31
0.0
 11
25.57248577451266
 21
322.0327184680214
 31
0.0
 11
25.63961700443203
 21
321.9894766233432
 31
0.0
 11
25.7031337584816
 21
321.9410679089197
 31
0.0
 11
25.81737087795673
 21
321.8338121578597
 31
0.0
 11
25.91860459868223
 21
321.7138730001109
 31
0.0
 11
26.00700926968928
 21
321.5864384121014
 31
0.0
 11
26.0850551666
 21
321.4525688669
 31
0.0
  0
SPLINE
  5
F1
330
1F
100
AcDbEntity
  8
VERERBUNG
  6
Continuous
 62
     7
100
AcDbSpline
210
0.0
220
0.0
230
1.0
 70
     8
 71
     3
 72
    13
 73
     9
 74
     7
 42
0.0000000001
 43
0.0000000001
 44
0.00000001
 40
0.0
 40
0.0
 40
0.0
 40
0.0
 40
0.2420096761429072
 40
0.4841829345765085
 40
0.7243349034836769
 40
0.9645115658399501
 40
1.440975492157905
 40
1.917493731764414
 40
1.917493731764414
 40
1.917493731764414
 40
1.917493731764414
 10
26.5976481289
 20
304.7407811484
 30
0.0
 10
26.59570209006269
 20
304.6600914468619
 30
0.0
 10
26.59180869699648
 20
304.4986575029656
 30
0.0
 10
26.56193295915568
 20
304.2587110517984
 30
0.0
 10
26.51652761347311
 20
304.022037607383
 30
0.0
 10
26.43493291165433
 20
303.7135611471633
 30
0.0
 10
26.30050881756431
 20
303.337947191228
 30
0.0
 10
26.15687577894615
 20
303.0543670290349
 30
0.0
 10
26.0850551666
 20
302.9125688669
 30
0.0
 11
26.5976481289
 21
304.7407811484
 31
0.0
 11
26.58779345371899
 21
304.4989721975238
 31
0.0
 11
26.5592232971607
 21
304.2584901124226
 31
0.0
 11
26.5138354228612
 21
304.0226662183055
 31
0.0
 11
26.45287920238858
 21
303.7903535662043
 31
0.0
 11
26.29144901633859
 21
303.3420699861858
 31
0.0
 11
26.0850551666
 21
302.9125688669
 31
0.0
  0
SPLINE
  5
F2
330
1F
100
AcDbEntity
  8
VERERBUNG
  6
Continuous
 62
     7
100
AcDbSpline
210
0.0
220
0.0
230
1.0
 70
     8
 71
     3
 72
    19
 73
    15
 74
    13
 42
0.0000000001
 43
0.0000000001
 44
0.00000001
 40
0.0
 40
0.0
 40
0.0
 40
0.0
 40
0.1549595546697383
 40
0.3100569266234722
 40
0.4670093143044199
 40
0.6237075593365804
 40
0.7035716820087339
 40
0.7834274371357091
 40
0.864668225099315
 40
0.9459045179421897
 40
1.028561641565947
 40
1.11124095597703
 40
1.194923428792044
 40
1.278501866328274
 40
1.278501866328274
 40
1.278501866328274
 40
1.278501866328274
 10
26.0850551666
 20
302.9125688669
 30
0.0
 10
26.0597455167682
 20
302.8675153661142
 30
0.0
 10
26.00910370731354
 20
302.7773682950476
 30
0.0
 10
25.92005878725745
 20
302.6493688704713
 30
0.0
 10
25.81968338782221
 20
302.5293220018451
 30
0.0
 10
25.72409394082533
 20
302.4388976886391
 30
0.0
 10
25.64022264991629
 20
302.3748005014584
 30
0.0
 10
25.57267778498962
 20
302.3311638981563
 30
0.0
 10
25.50114412533767
 20
302.293393527833
 30
0.0
 10
25.42544115449344
 20
302.2622907941373
 30
0.0
 10
25.34640571463478
 20
302.2391027643471
 30
0.0
 10
25.26450072760616
 20
302.224799942839
 30
0.0
 10
25.18107384962138
 20
302.2194347464818
 30
0.0
 10
25.12544516890569
 20
302.2239831818604
 30
0.0
 10
25.0976481289
 20
302.226255985
 30
0.0
 11
26.0850551666
 21
302.9125688669
 31
0.0
 11
26.00700887227733
 21
302.7786986329944
 31
0.0
 11
25.91860365596344
 21
302.6512635023771
 31
0.0
 11
25.81736883714915
 21
302.5313236697176
 31
0.0
 11
25.70313063239441
 21
302.4240670961635
 31
0.0
 11
25.63961143018267
 21
302.3756564667462
 31
0.0
 11
25.57247729864087
 21
302.3324135481464
 31
0.0
 11
25.50058892785981
 21
302.2945700840424
 31
0.0
 11
25.42540828472541
 21
302.2637933692607
 31
0.0
 11
25.34606675977451
 21
302.2406174657353
 31
0.0
 11
25.26463029540217
 21
302.2263356135438
 31
0.0
 11
25.18108940906661
 21
302.2214697563014
 31
0.0
 11
25.0976481289
 21
302.226255985
 31
0.0
  0
SPLINE
  5
F3
330
1F
100
AcDbEntity
  8
VERERBUNG
  6
Continuous
 62
     7
100
AcDbSpline
210
0.0
220
0.0
230
1.0
 70
     8
 71
     3
 72
    23
 73
    19
 74
    17
 42
0.0000000001
 43
0.0000000001
 44
0.00000001
 40
0.0
 40
0.0
 40
0.0
 40
0.0
 40
0.0621269684920146
 40
0.1242824031423068
 40
0.1813135303407397
 40
0.238341140443378
 40
0.2903938963171235
 40
0.3423956884634344
 40
0.3914747075471599
 40
0.4404962288052488
 40
0.4905855735081735
 40
0.5407628276312829
 40
0.5956736074784617
 40
0.6506193813422229
 40
0.7116314426226649
 40
0.7726461253696508
 40
0.8391602987416246
 40
0.905649003217617
 40
0.905649003217617
 40
0.905649003217617
 40
0.905649003217617
 10
21.1743498059
 20
303.0347791867
 30
0.0
 10
21.15554290915459
 20
303.0260899335775
 30
0.0
 10
21.1179204984704
 20
303.0087074459752
 30
0.0
 10
21.06087457390603
 20
302.9884660658487
 30
0.0
 10
21.00400821706735
 20
302.9734584995093
 30
0.0
 10
20.94911737947727
 20
302.9652012746727
 30
0.0
 10
20.89528492582939
 20
302.9639225639175
 30
0.0
 10
20.84440309176848
 20
302.9704275897583
 30
0.0
 10
20.79644550708182
 20
302.9855893233336
 30
0.0
 10
20.75256191257684
 20
303.0089512357474
 30
0.0
 10
20.71405961863481
 20
303.0409886233981
 30
0.0
 10
20.68067200726138
 20
303.0808098861334
 30
0.0
 10
20.65358089810821
 20
303.1270349555983
 30
0.0
 10
20.63195122102998
 20
303.1798739814575
 30
0.0
 10
20.61597690824041
 20
303.236788811545
 30
0.0
 10
20.60508108079761
 20
303.2987522826826
 30
0.0
 10
20.59869402142626
 20
303.363190196444
 30
0.0
 10
20.59799671523272
 20
303.407533392727
 30
0.0
 10
20.5976481289
 20
303.4297007452
 30
0.0
 11
21.1743498059
 21
303.0347791867
 31
0.0
 11
21.11755927346597
 21
303.0095880049122
 31
0.0
 11
21.0590002440897
 21
302.988752023172
 31
0.0
 11
21.0037865314158
 21
302.974469327268
 31
0.0
 11
20.94736175279304
 21
302.9661993410896
 31
0.0
 11
20.89531793064276
 21
302.9652349915459
 31
0.0
 11
20.84377361623237
 21
302.9721175810579
 31
0.0
 11
20.7970009224316
 21
302.9869858435267
 31
0.0
 11
20.75380495471483
 21
303.0101638054618
 31
0.0
 11
20.71515196759753
 21
303.0420211286337
 31
0.0
 11
20.68278953779182
 21
303.0803673144728
 31
0.0
 11
20.65475871310372
 21
303.1275845423746
 31
0.0
 11
20.63366480475655
 21
303.1783199845835
 31
0.0
 11
20.61696777996357
 21
303.2370028695224
 31
0.0
 11
20.60612490399113
 21
303.2970463833383
 31
0.0
 11
20.59961382283294
 21
303.3632411042872
 31
0.0
 11
20.5976481289
 21
303.4297007452
 31
0.0
  0
SPLINE
  5
F4
330
1F
100
AcDbEntity
  8
VERERBUNG
  6
Continuous
 62
     7
100
AcDbSpline
210
0.0
220
0.0
230
1.0
 70
     8
 71
     3
 72
     9
 73
     5
 74
     3
 42
0.0000000001
 43
0.0000000001
 44
0.00000001
 40
0.0
 40
0.0
 40
0.0
 40
0.0
 40
0.0773963057697498
 40
0.154796363216969
 40
0.154796363216969
 40
0.154796363216969
 40
0.154796363216969
 10
21.2693229393
 20
302.9125688669
 30
0.0
 10
21.25298520895209
 20
302.9325410002791
 30
0.0
 10
21.2203089563077
 20
302.9724862351583
 30
0.0
 10
21.1896697702285
 20
303.0140145340232
 30
0.0
 10
21.1743498059
 20
303.0347791867
 30
0.0
 11
21.2693229393
 21
302.9125688669
 31
0.0
 11
21.2208189902125
 21
302.97288101385
 31
0.0
 11
21.1743498059
 21
303.0347791867
 31
0.0
  0
SPLINE
  5
F5
330
1F
100
AcDbEntity
  8
VERERBUNG
  6
Continuous
 62
     7
100
AcDbSpline
210
0.0
220
0.0
230
1.0
 70
     8
 71
     3
 72
    15
 73
    11
 74
     9
 42
0.0000000001
 43
0.0000000001
 44
0.00000001
 40
0.0
 40
0.0
 40
0.0
 40
0.0
 40
0.070589022924879
 40
0.1413178422228512
 40
0.2119756691079414
 40
0.2826066759673099
 40
0.353232094321788
 40
0.4238693692942436
 40
0.4944866364836647
 40
0.565078270124096
 40
0.565078270124096
 40
0.565078270124096
 40
0.565078270124096
 10
21.7376050646
 20
302.6205409356
 30
0.0
 10
21.71433999526138
 20
302.6242829760106
 30
0.0
 10
21.66776378182379
 20
302.6317744676679
 30
0.0
 10
21.60052976939164
 20
302.6544382724694
 30
0.0
 10
21.53634414219628
 20
302.6842663603512
 30
0.0
 10
21.47576751182692
 20
302.720850617556
 30
0.0
 10
21.41881191908788
 20
302.7627671250584
 30
0.0
 10
21.3655145299596
 20
302.8091983729874
 30
0.0
 10
21.31541433101515
 20
302.8590632037728
 30
0.0
 10
21.28468487710659
 20
302.8947358043981
 30
0.0
 10
21.2693229393
 20
302.9125688669
 30
0.0
 11
21.7376050646
 21
302.6205409356
 31
0.0
 11
21.66824731657444
 21
302.6336677381929
 31
0.0
 11
21.60101819846927
 21
302.6556407115485
 31
0.0
 11
21.53693258490693
 21
302.6853991159825
 31
0.0
 11
21.47636846336222
 21
302.72174091439
 31
0.0
 11
21.41942412937316
 21
302.7635176129705
 31
0.0
 11
21.36604118572152
 21
302.8097765141963
 31
0.0
 11
21.31607488669059
 21
302.8596780911899
 31
0.0
 11
21.2693229393
 21
302.9125688669
 31
0.0
  0
SPLINE
  5
F6
330
1F
100
AcDbEntity
  8
VERERBUNG
  6
Continuous
 62
     7
100
AcDbSpline
210
0.0
220
0.0
230
1.0
 70
     8
 71
     3
 72
    15
 73
    11
 74
     9
 42
0.0000000001
 43
0.0000000001
 44
0.00000001
 40
0.0
 40
0.0
 40
0.0
 40
0.0
 40
0.0705917491929385
 40
0.1412091312201908
 40
0.2118461808752685
 40
0.2824713749719379
 40
0.3531025105394543
 40
0.4237604659240647
 40
0.4944892664010792
 40
0.5650782701656464
 40
0.5650782701656464
 40
0.5650782701656464
 40
0.5650782701656464
 10
21.2693229393
 20
321.4525688669
 30
0.0
 10
21.28468490160034
 20
321.4704019591458
 30
0.0
 10
21.31541440434066
 20
321.5060746190782
 30
0.0
 10
21.36551460666031
 20
321.5559394494977
 30
0.0
 10
21.41881192145942
 20
321.6023706126113
 30
0.0
 10
21.47576742775408
 20
321.6442870556142
 30
0.0
 10
21.53634406182321
 20
321.6808713284723
 30
0.0
 10
21.6005297600903
 20
321.7106994530631
 30
0.0
 10
21.66776380079875
 20
321.7333632681823
 30
0.0
 10
21.71434000162361
 20
321.7408547585457
 30
0.0
 10
21.7376050646
 20
321.7445967983
 30
0.0
 11
21.2693229393
 21
321.4525688669
 31
0.0
 11
21.31607496195438
 21
321.5054597303061
 31
0.0
 11
21.36604134629278
 21
321.5553613843922
 31
0.0
 11
21.41942412785231
 21
321.6016201286136
 31
0.0
 11
21.47636828007603
 21
321.6433966958339
 31
0.0
 11
21.53693250645183
 21
321.6797385696857
 31
0.0
 11
21.60101823533718
 21
321.7094970308752
 31
0.0
 11
21.66824733558983
 21
321.7314699982701
 31
0.0
 11
21.7376050646
 21
321.7445967983
 31
0.0
  0
SPLINE
  5
F7
330
1F
100
AcDbEntity
  8
VERERBUNG
  6
Continuous
 62
     7
100
AcDbSpline
210
0.0
220
0.0
230
1.0
 70
     8
 71
     3
 72
     9
 73
     5
 74
     3
 42
0.0000000001
 43
0.0000000001
 44
0.00000001
 40
0.0
 40
0.0
 40
0.0
 40
0.0
 40
0.0774000574372638
 40
0.1547963631387977
 40
0.1547963631387977
 40
0.1547963631387977
 40
0.1547963631387977
 10
21.1743498059
 20
321.3303585472
 30
0.0
 10
21.1896697702254
 20
321.3511231998751
 30
0.0
 10
21.22030895628686
 20
321.3926514987213
 30
0.0
 10
21.25298520894924
 20
321.4325967335525
 30
0.0
 10
21.2693229393
 20
321.4525688669
 30
0.0
 11
21.1743498059
 21
321.3303585472
 31
0.0
 11
21.2208189902125
 21
321.3922567200375
 31
0.0
 11
21.2693229393
 21
321.4525688669
 31
0.0
  0
SPLINE
  5
F8
330
1F
100
AcDbEntity
  8
VERERBUNG
  6
Continuous
 62
     7
100
AcDbSpline
210
0.0
220
0.0
230
1.0
 70
     8
 71
     3
 72
    43
 73
    39
 74
    37
 42
0.0000000001
 43
0.0000000001
 44
0.00000001
 40
0.0
 40
0.0
 40
0.0
 40
0.0
 40
0.4175881290593018
 40
0.8356316531850982
 40
1.253282832064945
 40
1.670787328104482
 40
2.088079154597244
 40
2.505458237211991
 40
2.922766757568895
 40
3.339867556112849
 40
3.548612846039251
 40
3.757291312487589
 40
3.966036487594122
 40
4.174848410761849
 40
4.592416990927523
 40
5.010187344227327
 40
5.428059866941153
 40
5.845880990875115
 40
6.263484877193413
 40
6.681103578781894
 40
7.097989619756227
 40
7.514858051286551
 40
7.930683045180211
 40
8.346557961774861
 40
8.76160845707003
 40
9.176458234636815
 40
9.383846863197542
 40
9.591169424695899
 40
9.798492920888238
 40
10.00588294532309
 40
10.42072923644034
 40
10.8357776365258
 40
11.25173036429045
 40
11.66760664544837
 40
12.0845241759278
 40
12.5015751162274
 40
12.91952009640166
 40
13.33702821013905
 40
13.33702821013905
 40
13.33702821013905
 40
13.33702821013905
 10
39.3482744186
 20
312.1825688669
 30
0.0
 10
39.35219529803686
 20
312.3218241454838
 30
0.0
 10
39.36004133277243
 20
312.6004865656053
 30
0.0
 10
39.4241929328899
 20
313.0143386244
 30
0.0
 10
39.52560338946059
 20
313.4201059364319
 30
0.0
 10
39.6670506824506
 20
313.8136791697232
 30
0.0
 10
39.84643072285817
 20
314.1912873123748
 30
0.0
 10
40.06209801774239
 20
314.5493726520267
 30
0.0
 10
40.31201812559586
 20
314.8843323375697
 30
0.0
 10
40.54668815055537
 20
315.1417498256452
 30
0.0
 10
40.74885653585917
 20
315.3329594063929
 30
0.0
 10
40.90744009195969
 20
315.4688007412985
 30
0.0
 10
41.07252157751159
 20
315.5967028742027
 30
0.0
 10
41.30077211919463
 20
315.7562222432763
 30
0.0
 10
41.60053124722319
 20
315.9342893668316
 30
0.0
 10
41.97938398047597
 20
316.1118310441951
 30
0.0
 10
42.37392649397254
 20
316.2513826788784
 30
0.0
 10
42.78013939603157
 20
316.3517618082423
 30
0.0
 10
43.19413552109999
 20
316.4119317412612
 30
0.0
 10
43.61171106523808
 20
316.4315153203058
 30
0.0
 10
44.02895438280969
 20
316.4102067863752
 30
0.0
 10
44.44155525835372
 20
316.34849353303
 30
0.0
 10
44.84581712160841
 20
316.2468240436189
 30
0.0
 10
45.23768243596844
 20
316.1064366796452
 30
0.0
 10
45.61358778363453
 20
315.9284695066798
 30
0.0
 10
45.91070409388636
 20
315.7504476885398
 30
0.0
 10
46.13684701244792
 20
315.5911555597415
 30
0.0
 10
46.30036265447407
 20
315.4635224628399
 30
0.0
 10
46.45742700439565
 20
315.3280286845219
 30
0.0
 10
46.65775697036307
 20
315.1372878649657
 30
0.0
 10
46.89031786143747
 20
314.8806076111674
 30
0.0
 10
47.13813720353073
 20
314.5465627029802
 30
0.0
 10
47.35203701862555
 20
314.1894065539927
 30
0.0
 10
47.53013739066964
 20
313.8124674680041
 30
0.0
 10
47.67069180119405
 20
313.419505191895
 30
0.0
 10
47.77154123168383
 20
313.0140404734049
 30
0.0
 10
47.83522591863994
 20
312.6003923461033
 30
0.0
 10
47.84309123663006
 20
312.3217947995246
 30
0.0
 10
47.8470218392
 20
312.1825688669
 30
0.0
 11
39.3482744186
 21
312.1825688669
 31
0.0
 11
39.36875937161734
 21
312.599654244528
 31
0.0
 11
39.43043107224809
 21
313.0131236985447
 31
0.0
 11
39.53230207773618
 21
313.4181604937381
 31
0.0
 11
39.67340526750188
 21
313.8110980130095
 31
0.0
 11
39.85246964261296
 21
314.1880176569971
 31
0.0
 11
40.06782653513181
 21
314.545546267669
 31
0.0
 11
40.31734225205149
 21
314.8800433650742
 31
0.0
 11
40.59836756222616
 21
315.1882605793684
 31
0.0
 11
40.75002145119051
 21
315.3317028814569
 31
0.0
 11
40.90850285514848
 21
315.4674612954088
 31
0.0
 11
41.07351660568068
 21
315.5953089010397
 31
0.0
 11
41.24467487442406
 21
315.7149218865295
 31
0.0
 11
41.60365054200216
 21
315.9282291513575
 31
0.0
 11
41.98195469761189
 21
316.1054804812387
 31
0.0
 11
42.37589708911745
 21
316.2448606714169
 31
0.0
 11
42.78152150115543
 21
316.3450770770812
 31
0.0
 11
43.19477903917934
 21
316.4051704472194
 31
0.0
 11
43.61194088374135
 21
316.4246992812364
 31
0.0
 11
44.02828559668944
 21
316.4034613161872
 31
0.0
 11
44.44056175044351
 21
316.3417550583821
 31
0.0
 11
44.84383194259252
 21
316.2403470820156
 31
0.0
 11
45.23532618576073
 21
316.1000466763898
 31
0.0
 11
45.61047064296233
 21
315.9224697919828
 31
0.0
 11
45.96630320971715
 21
315.7092011295313
 31
0.0
 11
46.13585557210887
 21
315.5897773477134
 31
0.0
 11
46.29928725292064
 21
315.4622127357974
 31
0.0
 11
46.45626897928304
 21
315.3267883300882
 31
0.0
 11
46.60646348075512
 21
315.1837770229735
 31
0.0
 11
46.8850290666669
 21
314.8763706801643
 31
0.0
 11
47.13228399836522
 21
314.5430087549773
 31
0.0
 11
47.34603384779516
 21
314.186178720362
 31
0.0
 11
47.52372410236634
 21
313.8101743923814
 31
0.0
 11
47.66402776409844
 21
313.4175739469848
 31
0.0
 11
47.76528048236506
 21
313.0130008709547
 31
0.0
 11
47.8265855688319
 21
312.5995765213741
 31
0.0
 11
47.8470218392
 21
312.1825688669
 31
0.0
  0
SPLINE
  5
F9
330
1F
100
AcDbEntity
  8
VERERBUNG
  6
Continuous
 62
     7
100
AcDbSpline
210
0.0
220
0.0
230
1.0
 70
     8
 71
     3
 72
    43
 73
    39
 74
    37
 42
0.0000000001
 43
0.0000000001
 44
0.00000001
 40
0.0
 40
0.0
 40
0.0
 40
0.0
 40
0.4175035109321484
 40
0.8354555648183617
 40
1.25251118366407
 40
1.669422664416081
 40
2.085295425725529
 40
2.501251326574716
 40
2.91629809408866
 40
3.331138757736091
 40
3.538526232961917
 40
3.745847790915801
 40
3.95317009507591
 40
4.16055834817707
 40
4.57540754439068
 40
4.990456744605593
 40
5.406332394393385
 40
5.822158816031084
 40
6.239027280470438
 40
6.655913113516387
 40
7.073532178508397
 40
7.491136194325031
 40
7.908956414441773
 40
8.326828662524717
 40
8.744600199932044
 40
9.162169349336324
 40
9.37098145838326
 40
9.5797267061741
 40
9.788406630758937
 40
9.997153926524298
 40
10.41425933414734
 40
10.8315689084903
 40
11.24894510860113
 40
11.66624011606046
 40
12.08375102630344
 40
12.5013986193584
 40
12.91943544781716
 40
13.33702799554131
 40
13.33702799554131
 40
13.33702799554131
 40
13.33702799554131
 10
47.8470218392
 20
312.1825688669
 30
0.0
 10
47.84311725967576
 20
312.0433426600007
 30
0.0
 10
47.83530390576041
 20
311.7647406691747
 30
0.0
 10
47.77151431135565
 20
311.3511033860684
 30
0.0
 10
47.67067764655528
 20
310.9456378699344
 30
0.0
 10
47.53015176972885
 20
310.5526656149227
 30
0.0
 10
47.3520397212741
 20
310.1757332967382
 30
0.0
 10
47.1381261905774
 20
309.8185871103037
 30
0.0
 10
46.89032404745568
 20
309.484532249012
 30
0.0
 10
46.6577759770316
 20
309.2278437247095
 30
0.0
 10
46.45744346605733
 20
309.037110221346
 30
0.0
 10
46.30037479929281
 20
308.9016238911605
 30
0.0
 10
46.1368564232752
 20
308.7739957824443
 30
0.0
 10
45.91071215871733
 20
308.6147064109028
 30
0.0
 10
45.61360008107664
 20
308.4366796744401
 30
0.0
 10
45.23769955511686
 20
308.2587027407019
 30
0.0
 10
44.84583394679933
 20
308.1183144750752
 30
0.0
 10
44.44157077894794
 20
308.0166473436671
 30
0.0
 10
44.0289696754156
 20
307.9549334684601
 30
0.0
 10
43.61172642899432
 20
307.9336227692684
 30
0.0
 10
43.19415066667584
 20
307.9532038573539
 30
0.0
 10
42.78015441277327
 20
308.0133726531088
 30
0.0
 10
42.37394233527463
 20
308.1137538848864
 30
0.0
 10
41.97939990600703
 20
308.2533049977881
 30
0.0
 10
41.60054286771393
 20
308.4308382184261
 30
0.0
 10
41.3007799366197
 20
308.608900780519
 30
0.0
 10
41.07253033914204
 20
308.7684221059351
 30
0.0
 10
40.90745117463604
 20
308.8963282560943
 30
0.0
 10
40.74887150191706
 20
309.032175962229
 30
0.0
 10
40.54670559272151
 20
309.2233918613862
 30
0.0
 10
40.31202468873384
 20
309.480801947569
 30
0.0
 10
40.06208972702713
 20
309.8157526702696
 30
0.0
 10
39.84643417236168
 20
310.1738464517575
 30
0.0
 10
39.66706371057687
 20
310.5514606604678
 30
0.0
 10
39.52559104428808
 20
310.9450255543763
 30
0.0
 10
39.42417072514534
 20
311.3507931827701
 30
0.0
 10
39.36011875541833
 20
311.7646557712962
 30
0.0
 10
39.35222113122424
 20
312.0433138866038
 30
0.0
 10
39.3482744186
 20
312.1825688669
 30
0.0
 11
47.8470218392
 21
312.1825688669
 31
0.0
 11
47.82663345662834
 21
311.7655634766509
 31
0.0
 11
47.76527291390175
 21
311.3521402030632
 31
0.0
 11
47.66401505300689
 21
310.9475635912605
 31
0.0
 11
47.52373212236777
 21
310.5549621621315
 31
0.0
 11
47.34603735748037
 21
310.1789638587699
 31
0.0
 11
47.13227715977546
 21
309.8221363243385
 31
0.0
 11
46.88503385149013
 21
309.4887678109304
 31
0.0
 11
46.60648087377457
 21
309.1813576373492
 31
0.0
 11
46.45628530787379
 21
309.0383511449641
 31
0.0
 11
46.29930018738942
 21
308.9029336411512
 31
0.0
 11
46.13586531184865
 21
308.7753735405741
 31
0.0
 11
45.9663120185964
 21
308.6559517323828
 31
0.0
 11
45.61048276497304
 21
308.442678672985
 31
0.0
 11
45.23534317982085
 21
308.2650945232112
 31
0.0
 11
44.84384888892058
 21
308.1247920774773
 31
0.0
 11
44.44057694279265
 21
308.0233852217021
 31
0.0
 11
44.02830080086852
 21
307.9616786625355
 31
0.0
 11
43.6119563951578
 21
307.9404387560431
 31
0.0
 11
43.19479408393523
 21
307.9599653927284
 31
0.0
 11
42.78153630336153
 21
308.0200579947813
 31
0.0
 11
42.37591306219559
 21
308.1202753713406
 31
0.0
 11
41.98197041842479
 21
308.2596540251466
 31
0.0
 11
41.60366198095714
 21
308.4368990070458
 31
0.0
 11
41.24468319418582
 21
308.6502021368457
 31
0.0
 11
41.07352565377714
 21
308.7698164890191
 31
0.0
 11
40.90851463450518
 21
308.8976677385011
 31
0.0
 11
40.75003631976286
 21
309.0334319999293
 31
0.0
 11
40.59838355823043
 21
309.1768784129516
 31
0.0
 11
40.31734754602095
 21
309.4850921065308
 31
0.0
 11
40.06782187912006
 21
309.819583096538
 31
0.0
 11
39.85247381244989
 21
310.1771136583091
 31
0.0
 11
39.67341291203907
 21
310.5540384746778
 31
0.0
 11
39.53229120918854
 21
310.9469761607763
 31
0.0
 11
39.43042682350957
 21
311.3520109233768
 31
0.0
 11
39.36880765088942
 21
311.7654814392706
 31
0.0
 11
39.3482744186
 21
312.1825688669
 31
0.0
  0
SPLINE
  5
FA
330
1F
100
AcDbEntity
  8
0
  6
Continuous
 62
     7
100
AcDbSpline
210
0.0
220
0.0
230
1.0
 70
     8
 71
     3
 72
    17
 73
    13
 74
    11
 42
0.0000000001
 43
0.0000000001
 44
0.00000001
 40
0.0
 40
0.0
 40
0.0
 40
0.0
 40
0.0680277950065789
 40
0.1360632351138819
 40
0.2040812640785214
 40
0.2721696697126244
 40
0.3403702855371731
 40
0.4083585485360408
 40
0.4424627523663353
 40
0.4765773020763621
 40
0.5107086426470475
 40
0.5447868109833723
 40
0.5447868109833723
 40
0.5447868109833723
 40
0.5447868109833723
 10
69.3067612384
 20
320.2000688669
 30
0.0
 10
69.31916986092158
 20
320.1810835000605
 30
0.0
 10
69.34398850047076
 20
320.1431106327677
 30
0.0
 10
69.38493004521764
 20
320.0887181014973
 30
0.0
 10
69.42914858186064
 20
320.0369231789941
 30
0.0
 10
69.47772868087769
 20
319.9890487755426
 30
0.0
 10
69.53106148209255
 20
319.9464683104775
 30
0.0
 10
69.58021656631561
 20
319.9175280782972
 30
0.0
 10
69.62218180406596
 20
319.9000089314266
 30
0.0
 10
69.65490620570687
 20
319.8901909603754
 30
0.0
 10
69.68853367018312
 20
319.8838099320722
 30
0.0
 10
69.7112825539042
 20
319.8829823402429
 30
0.0
 10
69.7226481289
 20
319.8825688669
 30
0.0
 11
69.3067612384
 21
320.2000688669
 31
0.0
 11
69.3446064216102
 21
320.1435399097077
 31
0.0
 11
69.38547765174826
 21
320.0891490680375
 31
0.0
 11
69.42985303682622
 21
320.0376002808217
 31
0.0
 11
69.47849459624722
 21
319.9899554523627
 31
0.0
 11
69.53205851717034
 21
319.947738981949
 31
0.0
 11
69.59087778371
 21
319.9136406273063
 31
0.0
 11
69.62237692141916
 21
319.9005677147587
 31
0.0
 11
69.65505272672728
 21
319.8907649473238
 31
0.0
 11
69.68863445430972
 21
319.8846644570377
 31
0.0
 11
69.7226481289
 21
319.8825688669
 31
0.0
  0
SPLINE
  5
FB
330
1F
100
AcDbEntity
  8
0
  6
Continuous
 62
     7
100
AcDbSpline
210
0.0
220
0.0
230
1.0
 70
     8
 71
     3
 72
    17
 73
    13
 74
    11
 42
0.0000000001
 43
0.0000000001
 44
0.00000001
 40
0.0
 40
0.0
 40
0.0
 40
0.0
 40
0.0340790970002625
 40
0.0682097420777857
 40
0.1023154065816105
 40
0.136412875519223
 40
0.204399283929144
 40
0.2725935679884336
 40
0.3406803506913733
 40
0.4086986202683462
 40
0.4767464406816343
 40
0.5447862542984447
 40
0.5447862542984447
 40
0.5447862542984447
 40
0.5447862542984447
 10
69.7226481289
 20
304.4825688669
 30
0.0
 10
69.7112822385034
 20
304.4821575992264
 30
0.0
 10
69.68853326565264
 20
304.4813344417952
 30
0.0
 10
69.6549059018672
 20
304.4749665577388
 30
0.0
 10
69.6221894273801
 20
304.4651385283136
 30
0.0
 10
69.58023846119971
 20
304.4476012940981
 30
0.0
 10
69.53108862135903
 20
304.4186654457524
 30
0.0
 10
69.47774738633552
 20
304.3761005468948
 30
0.0
 10
69.4291634550168
 20
304.3282332678432
 30
0.0
 10
69.38494055090406
 20
304.2764371563966
 30
0.0
 10
69.34399455845715
 20
304.2220376383376
 30
0.0
 10
69.3191718582663
 20
304.1840577125221
 30
0.0
 10
69.3067612384
 20
304.1650688669
 30
0.0
 11
69.7226481289
 21
304.4825688669
 31
0.0
 11
69.68863305876613
 21
304.4804808400465
 31
0.0
 11
69.65505065573345
 21
304.4743879638818
 31
0.0
 11
69.62238583579185
 21
304.4645795037871
 31
0.0
 11
69.59089822122775
 21
304.4514964033513
 31
0.0
 11
69.53208235439841
 21
304.4173958822761
 31
0.0
 11
69.47851531432698
 21
304.3751936003906
 31
0.0
 11
69.42986893764827
 21
304.3275560100352
 31
0.0
 11
69.38549115382449
 21
304.2760089703614
 31
0.0
 11
69.3446125363142
 21
304.2216081937727
 31
0.0
 11
69.3067612384
 21
304.1650688669
 31
0.0
  0
SPLINE
  5
FC
330
1F
100
AcDbEntity
  8
VERERBUNG
  6
Continuous
 62
     7
100
AcDbSpline
210
0.0
220
0.0
230
1.0
 70
     8
 71
     3
 72
    23
 73
    19
 74
    17
 42
0.0000000001
 43
0.0000000001
 44
0.00000001
 40
0.0
 40
0.0
 40
0.0
 40
0.0
 40
0.0664886891160618
 40
0.1330028506213332
 40
0.1940175413411838
 40
0.2550295990678514
 40
0.3099753628884215
 40
0.3648861555134148
 40
0.4150633580547032
 40
0.4651526181375422
 40
0.5141740378977354
 40
0.5632529905338182
 40
0.6152549116032071
 40
0.6673077698272686
 40
0.7243355356283366
 40
0.7813668340245172
 40
0.8435221575834341
 40
0.9056490098324421
 40
0.9056490098324421
 40
0.9056490098324421
 40
0.9056490098324421
 10
20.5976481289
 20
320.9354369887
 30
0.0
 10
20.59799671625455
 20
320.9576043360532
 30
0.0
 10
20.59869402451046
 20
321.0019475232612
 30
0.0
 10
20.60508108361745
 20
321.066385430122
 30
0.0
 10
20.61597688690176
 20
321.1283489025569
 30
0.0
 10
20.63195119450181
 20
321.1852637341608
 30
0.0
 10
20.65358092152635
 20
321.2381027408831
 30
0.0
 10
20.68067203068667
 20
321.2843277841975
 30
0.0
 10
20.71405951320427
 20
321.3241490933621
 30
0.0
 10
20.75256168685753
 20
321.3561865159766
 30
0.0
 10
20.79644525453396
 20
321.3795483171812
 30
0.0
 10
20.84440284342554
 20
321.3947099653037
 30
0.0
 10
20.89528471311452
 20
321.401215092117
 30
0.0
 10
20.94911730261073
 20
321.3999365007904
 30
0.0
 10
21.00400828691044
 20
321.3916792571984
 30
0.0
 10
21.06087470080839
 20
321.3766716252235
 30
0.0
 10
21.11792060163823
 20
321.3564302380561
 30
0.0
 10
21.15554294406373
 20
321.3390477834596
 30
0.0
 10
21.1743498059
 20
321.3303585472
 30
0.0
 11
20.5976481289
 21
320.9354369887
 31
0.0
 11
20.59961382517391
 21
321.0018966141769
 31
0.0
 11
20.60612490145482
 21
321.0680913236816
 31
0.0
 11
20.61696776254612
 21
321.1281348482867
 31
0.0
 11
20.63366478890696
 21
321.1868177290846
 31
0.0
 11
20.65475872655654
 21
321.237553148234
 31
0.0
 11
20.68278955305653
 21
321.28477038992
 31
0.0
 11
20.71515187510138
 21
321.3231165992077
 31
0.0
 11
20.7538047496695
 21
321.3549739258888
 31
0.0
 11
20.79700065288751
 21
321.3781517933594
 31
0.0
 11
20.84377329850658
 21
321.3930199880597
 31
0.0
 11
20.89531773120101
 21
321.3999026658175
 31
0.0
 11
20.94736165747216
 21
321.3989384108841
 31
0.0
 11
21.00378659269346
 21
321.3906684194974
 31
0.0
 11
21.05900046227725
 21
321.3763856465756
 31
0.0
 11
21.11755938008079
 21
321.3555496826576
 31
0.0
 11
21.1743498059
 21
321.3303585472
 31
0.0
  0
SPLINE
  5
FD
330
1F
100
AcDbEntity
  8
0
  6
Continuous
 62
     7
100
AcDbSpline
210
0.0
220
0.0
230
1.0
 70
     8
 71
     3
 72
    17
 73
    13
 74
    11
 42
0.0000000001
 43
0.0000000001
 44
0.00000001
 40
0.0
 40
0.0
 40
0.0
 40
0.0
 40
0.0340781916100334
 40
0.0682095735149087
 40
0.10232438443604
 40
0.1364288245254504
 40
0.2044171801030906
 40
0.2726179463335748
 40
0.3407061060019887
 40
0.4087238602105081
 40
0.4767591626512153
 40
0.5447868280254214
 40
0.5447868280254214
 40
0.5447868280254214
 40
0.5447868280254214
 10
71.4726481289
 20
319.8825688669
 30
0.0
 10
71.48401371159034
 20
319.8829823639502
 30
0.0
 10
71.50676261672382
 20
319.8838100034499
 30
0.0
 10
71.54039015955942
 20
319.8901911818587
 30
0.0
 10
71.5731147635878
 20
319.9000090782114
 30
0.0
 10
71.61508026974215
 20
319.9175281073225
 30
0.0
 10
71.66423545409258
 20
319.9464685281829
 30
0.0
 10
71.71756806267025
 20
319.9890492251708
 30
0.0
 10
71.76614801538165
 20
320.0369235911791
 30
0.0
 10
71.81036642341127
 20
320.0887183351076
 30
0.0
 10
71.85130783993338
 20
320.1431107371546
 30
0.0
 10
71.8761264239245
 20
320.1810835341088
 30
0.0
 10
71.8885350194
 20
320.2000688669
 30
0.0
 11
71.4726481289
 21
319.8825688669
 31
0.0
 11
71.50666182179468
 21
319.8846645384098
 31
0.0
 11
71.5402435763936
 21
319.8907651112348
 31
0.0
 11
71.57291965845215
 21
319.9005678652095
 31
0.0
 11
71.60441906291314
 21
319.9136407513643
 31
0.0
 11
71.66323837722886
 21
319.9477392081853
 31
0.0
 11
71.71680226893791
 21
319.9899559586454
 31
0.0
 11
71.76544358174047
 21
320.0376006873767
 31
0.0
 11
71.80981878435229
 21
320.0891492691295
 31
0.0
 11
71.85068992001827
 21
320.1435400095875
 31
0.0
 11
71.8885350194
 21
320.2000688669
 31
0.0
  0
SPLINE
  5
FE
330
1F
100
AcDbEntity
  8
0
  6
Continuous
 62
     7
100
AcDbSpline
210
0.0
220
0.0
230
1.0
 70
     8
 71
     3
 72
    17
 73
    13
 74
    11
 42
0.0000000001
 43
0.0000000001
 44
0.00000001
 40
0.0
 40
0.0
 40
0.0
 40
0.0
 40
0.0680405843902206
 40
0.1360892264044662
 40
0.2041088007418481
 40
0.2721966989221531
 40
0.3403905143437141
 40
0.4083768377006218
 40
0.4424735707831848
 40
0.4765783280021129
 40
0.5107080466464056
 40
0.5447863433674995
 40
0.5447863433674995
 40
0.5447863433674995
 40
0.5447863433674995
 10
71.8885350194
 20
304.1650688669
 30
0.0
 10
71.87612424722732
 20
304.1840579202614
 30
0.0
 10
71.85130123315132
 20
304.2220382757399
 30
0.0
 10
71.810354641776
 20
304.2764385469873
 30
0.0
 10
71.76613123804003
 20
304.3282356509982
 30
0.0
 10
71.71754657631735
 20
304.376103180274
 30
0.0
 10
71.66420400200127
 20
304.4186667598034
 30
0.0
 10
71.615054281521
 20
304.4476016924923
 30
0.0
 10
71.57310438103751
 20
304.4651398974164
 30
0.0
 10
71.5403888728118
 20
304.4749683540319
 30
0.0
 10
71.50676214973234
 20
304.481334993802
 30
0.0
 10
71.4840137525163
 20
304.4821577826337
 30
0.0
 10
71.4726481289
 20
304.4825688669
 30
0.0
 11
71.8885350194
 21
304.1650688669
 31
0.0
 11
71.85068326068291
 21
304.2216088128337
 31
0.0
 11
71.80980416787007
 21
304.2760102599724
 31
0.0
 11
71.76542562146865
 21
304.3275583648099
 31
0.0
 11
71.71677809524962
 21
304.3751963755931
 31
0.0
 11
71.66321052567253
 21
304.4173972280886
 31
0.0
 11
71.60439452301557
 21
304.4514973453179
 31
0.0
 11
71.57290788093688
 21
304.4645808684486
 31
0.0
 11
71.54024405521076
 21
304.4743894847575
 31
0.0
 11
71.50666243786111
 21
304.4804815017404
 31
0.0
 11
71.4726481289
 21
304.4825688669
 31
0.0
  0
SPLINE
  5
FF
330
1F
100
AcDbEntity
  8
VERERBUNG
  6
Continuous
 62
     7
100
AcDbSpline
210
0.0
220
0.0
230
1.0
 70
     8
 71
     3
 72
    11
 73
     7
 74
     5
 42
0.0000000001
 43
0.0000000001
 44
0.00000001
 40
0.0
 40
0.0
 40
0.0
 40
0.0
 40
0.5427795451555247
 40
1.085508812756431
 40
1.337448492056011
 40
1.589025708905157
 40
1.589025708905157
 40
1.589025708905157
 40
1.589025708905157
 10
21.1743498059
 20
303.0347791867
 30
0.0
 10
21.2520801433861
 20
303.1983995436714
 30
0.0
 10
21.40753361821356
 20
303.525625101495
 30
0.0
 10
21.53145514031548
 20
303.9562379978481
 30
0.0
 10
21.5890095058007
 20
304.3008710239283
 30
0.0
 10
21.59476997011248
 20
304.4687887585494
 30
0.0
 10
21.5976481289
 20
304.5526871871
 30
0.0
 11
21.1743498059
 21
303.0347791867
 31
0.0
 11
21.39382068063754
 21
303.531208607445
 31
0.0
 11
21.54444472377914
 21
304.0526177131751
 31
0.0
 11
21.5835370020866
 21
304.3015060330744
 31
0.0
 11
21.5976481289
 21
304.5526871871
 31
0.0
  0
SPLINE
  5
100
330
1F
100
AcDbEntity
  8
VERERBUNG
  6
Continuous
 62
     7
100
AcDbSpline
210
0.0
220
0.0
230
1.0
 70
     8
 71
     3
 72
    11
 73
     7
 74
     5
 42
0.0000000001
 43
0.0000000001
 44
0.00000001
 40
0.0
 40
0.0
 40
0.0
 40
0.0
 40
0.4891002096562719
 40
0.9783817006614707
 40
1.283670603042036
 40
1.588797103068292
 40
1.588797103068292
 40
1.588797103068292
 40
1.588797103068292
 10
21.5976481289
 20
319.8124505468
 30
0.0
 10
21.58687737127634
 20
319.9756037401022
 30
0.0
 10
21.56533186392795
 20
320.3019705982223
 30
0.0
 10
21.44181833392898
 20
320.7145895007145
 30
0.0
 10
21.30903793049995
 20
321.0563047050933
 30
0.0
 10
21.21923788360029
 20
321.2390234707403
 30
0.0
 10
21.1743498059
 20
321.3303585472
 30
0.0
 11
21.5976481289
 21
319.8124505468
 31
0.0
 11
21.54719422495371
 21
320.2989414703149
 31
0.0
 11
21.41672599133019
 21
320.770507390898
 31
0.0
 11
21.30499197358959
 21
321.0546144538097
 31
0.0
 11
21.1743498059
 21
321.3303585472
 31
0.0
  0
DIMENSION
  5
10B
330
1F
100
AcDbEntity
  8
1
100
AcDbDimension
  2
*D2
 10
243.045427475752
 20
323.1825688669
 30
0.0
 11
239.295427475752
 21
311.720734755765
 31
0.0
 70
    32
  1
<>
 71
     5
 42
-1.0
 53
90.0
  3
ME10_DIM_10
100
AcDbAlignedDimension
 13
230.5976481289
 23
301.1825688669
 33
0.0
 14
230.5976481289
 24
323.1825688669
 34
0.0
 50
90.0
100
AcDbRotatedDimension
  0
DIMENSION
  5
116
330
1F
100
AcDbEntity
  8
1
100
AcDbDimension
  2
*D3
 10
251.454860664055
 20
336.1825688669
 30
0.0
 11
247.704860664055
 21
311.885625602595
 31
0.0
 70
    32
  1
<>
 71
     5
 42
-1.0
 53
90.0
  3
ME10_DIM_11
100
AcDbAlignedDimension
 13
211.5976481289
 23
288.1825688669
 33
0.0
 14
211.5976481289
 24
336.1825688669
 34
0.0
 50
90.0
100
AcDbRotatedDimension
  0
DIMENSION
  5
121
330
1F
100
AcDbEntity
  8
1
100
AcDbDimension
  2
*D4
 10
231.5976481289
 20
346.182921743124
 30
0.0
 11
222.269180775239
 21
349.932921743124
 31
0.0
 70
    32
  1
<>
 71
     5
 42
-1.0
 53
0.00013888888889
  3
ME10_DIM_12
100
AcDbAlignedDimension
 13
212.5976481289
 23
335.1825688669
 33
0.0
 14
231.5976481289
 24
322.1825688669
 34
0.0
100
AcDbRotatedDimension
  0
DIMENSION
  5
12C
330
1F
100
AcDbEntity
  8
1
100
AcDbDimension
  2
*D5
 10
231.5976481289
 20
353.932791544109
 30
0.0
 11
154.169261034668
 21
357.682791544109
 31
0.0
 70
    32
  1
<>
 71
     5
 42
-1.0
 53
0.00013888888889
  3
ME10_DIM_13
100
AcDbAlignedDimension
 13
78.5976481289
 23
343.6825199614
 33
0.0
 14
231.5976481289
 24
322.1825688669
 34
0.0
100
AcDbRotatedDimension
  0
DIMENSION
  5
137
330
1F
100
AcDbEntity
  8
1
100
AcDbDimension
  2
*D6
 10
231.5976481289
 20
361.187988804606
 30
0.0
 11
137.84506719855
 21
364.937988804606
 31
0.0
 70
    32
  1
<>
 71
     5
 42
-1.0
 53
0.00013888888889
  3
ME10_DIM_14
100
AcDbAlignedDimension
 13
52.5976481289
 23
343.6825688669
 33
0.0
 14
231.5976481289
 24
322.1825688669
 34
0.0
100
AcDbRotatedDimension
  0
DIMENSION
  5
142
330
1F
100
AcDbEntity
  8
1
100
AcDbDimension
  2
*D7
 10
231.5976481289
 20
368.608076911932
 30
0.0
 11
129.435634010247
 21
372.358076911932
 31
0.0
 70
    32
  1
<>
 71
     5
 42
-1.0
 53
0.00013888888889
  3
ME10_DIM_15
100
AcDbAlignedDimension
 13
20.5976481289
 23
333.7585960471
 33
0.0
 14
231.5976481289
 24
322.1825688669
 34
0.0
100
AcDbRotatedDimension
  0
DIMENSION
  5
14D
330
1F
100
AcDbEntity
  8
1
100
AcDbDimension
  2
*D8
 10
52.5976481289
 20
271.487368129374
 30
0.0
 11
130.589869938054
 21
275.237368129374
 31
0.0
 70
    32
  1
<>
 71
     5
 42
-1.0
 53
0.00013888888889
  3
ME10_DIM_16
100
AcDbAlignedDimension
 13
212.5976481289
 23
289.1825688669
 33
0.0
 14
52.5976481289
 24
280.6825688669
 34
0.0
100
AcDbRotatedDimension
  0
INSERT
  5
154
330
1F
100
AcDbEntity
  8
1
100
AcDbBlockReference
  2
*D9
 10
0.0
 20
0.0
 30
0.0
  0
ENDSEC
  0
SECTION
  2
OBJECTS
  0
DICTIONARY
  5
C
330
0
100
AcDbDictionary
281
     1
  3
ACAD_GROUP
350
D
  3
ACAD_LAYOUT
350
1A
  3
ACAD_MLEADERSTYLE
350
157
  3
ACAD_MLINESTYLE
350
17
  3
ACAD_PLOTSETTINGS
350
19
  3
ACAD_PLOTSTYLENAME
350
E
  3
ACAD_SCALELIST
350
4A
  3
ACAD_VISUALSTYLE
350
2A
  3
AcDbVariableDictionary
350
155
  0
DICTIONARY
  5
D
102
{ACAD_REACTORS
330
C
102
}
330
C
100
AcDbDictionary
281
     1
  0
DICTIONARY
  5
1A
102
{ACAD_REACTORS
330
C
102
}
330
C
100
AcDbDictionary
281
     1
  3
Layout1
350
1E
  3
Layout2
350
26
  3
Model
350
22
  0
DICTIONARY
  5
157
102
{ACAD_REACTORS
330
C
102
}
330
C
100
AcDbDictionary
281
     1
  0
DICTIONARY
  5
17
102
{ACAD_REACTORS
330
C
102
}
330
C
100
AcDbDictionary
281
     1
  3
Standard
350
18
  0
DICTIONARY
  5
19
102
{ACAD_REACTORS
330
C
102
}
330
C
100
AcDbDictionary
281
     1
  0
ACDBDICTIONARYWDFLT
  5
E
102
{ACAD_REACTORS
330
C
102
}
330
C
100
AcDbDictionary
281
     1
  3
Normal
350
F
100
AcDbDictionaryWithDefault
340
F
  0
DICTIONARY
  5
4A
102
{ACAD_REACTORS
330
C
102
}
330
C
100
AcDbDictionary
281
     1
  3
A0
350
4B
  3
A1
350
4C
  3
A2
350
4D
  3
A3
350
4E
  3
A4
350
4F
  3
A5
350
50
  3
A6
350
51
  3
A7
350
52
  3
A8
350
53
  3
A9
350
54
  3
B0
350
55
  3
B1
350
56
  3
B2
350
57
  3
B3
350
58
  3
B4
350
59
  3
B5
350
5A
  3
B6
350
5B
  3
B7
350
5C
  3
B8
350
5D
  3
B9
350
5E
  3
C0
350
5F
  3
C1
350
60
  3
C2
350
61
  3
C3
350
62
  3
C4
350
63
  3
C5
350
64
  3
C6
350
65
  3
C7
350
66
  3
C8
350
67
  3
C9
350
68
  3
D0
350
69
  3
D1
350
6A
  3
D2
350
6B
  0
DICTIONARY
  5
2A
102
{ACAD_REACTORS
330
C
102
}
330
C
100
AcDbDictionary
281
     1
  3
2dWireframe
350
2F
  3
3D Hidden
350
31
  3
3dWireframe
350
30
  3
Basic
350
32
  3
Brighten
350
36
  3
ColorChange
350
3A
  3
Conceptual
350
34
  3
Dim
350
35
  3
Facepattern
350
39
  3
Flat
350
2B
  3
FlatWithEdges
350
2C
  3
Gouraud
350
2D
  3
GouraudWithEdges
350
2E
  3
Linepattern
350
38
  3
Realistic
350
33
  3
Thicken
350
37
  0
DICTIONARY
  5
155
102
{ACAD_REACTORS
330
C
102
}
330
C
100
AcDbDictionary
281
     1
  3
CANNOSCALE
350
158
  0
LAYOUT
  5
1E
102
{ACAD_REACTORS
330
1A
102
}
330
1A
100
AcDbPlotSettings
  1

  2
none_device
  4

  6

 40
0.0
 41
0.0
 42
0.0
 43
0.0
 44
0.0
 45
0.0
 46
0.0
 47
0.0
 48
0.0
 49
0.0
140
0.0
141
0.0
142
1.0
143
1.0
 70
   688
 72
     0
 73
     0
 74
     5
  7

 75
    16
147
1.0
148
0.0
149
0.0
100
AcDbLayout
  1
Layout1
 70
     1
 71
     1
 10
0.0
 20
0.0
 11
12.0
 21
9.0
 12
0.0
 22
0.0
 32
0.0
 14
1.00000000000000E+20
 24
1.00000000000000E+20
 34
1.00000000000000E+20
 15
-1.00000000000000E+20
 25
-1.00000000000000E+20
 35
-1.00000000000000E+20
146
0.0
 13
0.0
 23
0.0
 33
0.0
 16
1.0
 26
0.0
 36
0.0
 17
0.0
 27
1.0
 37
0.0
 76
     0
330
1B
  0
LAYOUT
  5
26
102
{ACAD_REACTORS
330
1A
102
}
330
1A
100
AcDbPlotSettings
  1

  2
none_device
  4

  6

 40
0.0
 41
0.0
 42
0.0
 43
0.0
 44
0.0
 45
0.0
 46
0.0
 47
0.0
 48
0.0
 49
0.0
140
0.0
141
0.0
142
1.0
143
1.0
 70
   688
 72
     0
 73
     0
 74
     5
  7

 75
    16
147
1.0
148
0.0
149
0.0
100
AcDbLayout
  1
Layout2
 70
     1
 71
     2
 10
0.0
 20
0.0
 11
0.0
 21
0.0
 12
0.0
 22
0.0
 32
0.0
 14
0.0
 24
0.0
 34
0.0
 15
0.0
 25
0.0
 35
0.0
146
0.0
 13
0.0
 23
0.0
 33
0.0
 16
1.0
 26
0.0
 36
0.0
 17
0.0
 27
1.0
 37
0.0
 76
     0
330
23
  0
LAYOUT
  5
22
102
{ACAD_REACTORS
330
1A
102
}
330
1A
100
AcDbPlotSettings
  1

  2
none_device
  4

  6

 40
0.0
 41
0.0
 42
0.0
 43
0.0
 44
0.0
 45
0.0
 46
0.0
 47
0.0
 48
0.0
 49
0.0
140
0.0
141
0.0
142
1.0
143
1.0
 70
  1712
 72
     0
 73
     0
 74
     0
  7

 75
     0
147
1.0
148
0.0
149
0.0
100
AcDbLayout
  1
Model
 70
     1
 71
     0
 10
0.0
 20
0.0
 11
12.0
 21
9.0
 12
0.0
 22
0.0
 32
0.0
 14
-6.58359264356066
 24
265.4896894950568
 34
0.0
 15
253.454860664055
 25
374.259076412363
 35
0.0
146
0.0
 13
0.0
 23
0.0
 33
0.0
 16
1.0
 26
0.0
 36
0.0
 17
0.0
 27
1.0
 37
0.0
 76
     0
330
1F
331
29
  0
MLINESTYLE
  5
18
102
{ACAD_REACTORS
330
17
102
}
330
17
100
AcDbMlineStyle
  2
Standard
 70
     0
  3

 62
   256
 51
90.0
 52
90.0
 71
     2
 49
0.5
 62
   256
  6
BYLAYER
 49
-0.5
 62
   256
  6
BYLAYER
  0
ACDBPLACEHOLDER
  5
F
102
{ACAD_REACTORS
330
E
102
}
330
E
  0
SCALE
  5
4B
102
{ACAD_REACTORS
330
4A
102
}
330
4A
100
AcDbScale
 70
     0
300
1:1
140
1.0
141
1.0
290
     1
  0
SCALE
  5
4C
102
{ACAD_REACTORS
330
4A
102
}
330
4A
100
AcDbScale
 70
     0
300
1:2
140
1.0
141
2.0
290
     0
  0
SCALE
  5
4D
102
{ACAD_REACTORS
330
4A
102
}
330
4A
100
AcDbScale
 70
     0
300
1:4
140
1.0
141
4.0
290
     0
  0
SCALE
  5
4E
102
{ACAD_REACTORS
330
4A
102
}
330
4A
100
AcDbScale
 70
     0
300
1:5
140
1.0
141
5.0
290
     0
  0
SCALE
  5
4F
102
{ACAD_REACTORS
330
4A
102
}
330
4A
100
AcDbScale
 70
     0
300
1:8
140
1.0
141
8.0
290
     0
  0
SCALE
  5
50
102
{ACAD_REACTORS
330
4A
102
}
330
4A
100
AcDbScale
 70
     0
300
1:10
140
1.0
141
10.0
290
     0
  0
SCALE
  5
51
102
{ACAD_REACTORS
330
4A
102
}
330
4A
100
AcDbScale
 70
     0
300
1:16
140
1.0
141
16.0
290
     0
  0
SCALE
  5
52
102
{ACAD_REACTORS
330
4A
102
}
330
4A
100
AcDbScale
 70
     0
300
1:20
140
1.0
141
20.0
290
     0
  0
SCALE
  5
53
102
{ACAD_REACTORS
330
4A
102
}
330
4A
100
AcDbScale
 70
     0
300
1:30
140
1.0
141
30.0
290
     0
  0
SCALE
  5
54
102
{ACAD_REACTORS
330
4A
102
}
330
4A
100
AcDbScale
 70
     0
300
1:40
140
1.0
141
40.0
290
     0
  0
SCALE
  5
55
102
{ACAD_REACTORS
330
4A
102
}
330
4A
100
AcDbScale
 70
     0
300
1:50
140
1.0
141
50.0
290
     0
  0
SCALE
  5
56
102
{ACAD_REACTORS
330
4A
102
}
330
4A
100
AcDbScale
 70
     0
300
1:100
140
1.0
141
100.0
290
     0
  0
SCALE
  5
57
102
{ACAD_REACTORS
330
4A
102
}
330
4A
100
AcDbScale
 70
     0
300
2:1
140
2.0
141
1.0
290
     0
  0
SCALE
  5
58
102
{ACAD_REACTORS
330
4A
102
}
330
4A
100
AcDbScale
 70
     0
300
4:1
140
4.0
141
1.0
290
     0
  0
SCALE
  5
59
102
{ACAD_REACTORS
330
4A
102
}
330
4A
100
AcDbScale
 70
     0
300
8:1
140
8.0
141
1.0
290
     0
  0
SCALE
  5
5A
102
{ACAD_REACTORS
330
4A
102
}
330
4A
100
AcDbScale
 70
     0
300
10:1
140
10.0
141
1.0
290
     0
  0
SCALE
  5
5B
102
{ACAD_REACTORS
330
4A
102
}
330
4A
100
AcDbScale
 70
     0
300
100:1
140
100.0
141
1.0
290
     0
  0
SCALE
  5
5C
102
{ACAD_REACTORS
330
4A
102
}
330
4A
100
AcDbScale
 70
     0
300
1/128" = 1'-0"
140
0.0078125
141
12.0
290
     0
  0
SCALE
  5
5D
102
{ACAD_REACTORS
330
4A
102
}
330
4A
100
AcDbScale
 70
     0
300
1/64" = 1'-0"
140
0.015625
141
12.0
290
     0
  0
SCALE
  5
5E
102
{ACAD_REACTORS
330
4A
102
}
330
4A
100
AcDbScale
 70
     0
300
1/32" = 1'-0"
140
0.03125
141
12.0
290
     0
  0
SCALE
  5
5F
102
{ACAD_REACTORS
330
4A
102
}
330
4A
100
AcDbScale
 70
     0
300
1/16" = 1'-0"
140
0.0625
141
12.0
290
     0
  0
SCALE
  5
60
102
{ACAD_REACTORS
330
4A
102
}
330
4A
100
AcDbScale
 70
     0
300
3/32" = 1'-0"
140
0.09375
141
12.0
290
     0
  0
SCALE
  5
61
102
{ACAD_REACTORS
330
4A
102
}
330
4A
100
AcDbScale
 70
     0
300
1/8" = 1'-0"
140
0.125
141
12.0
290
     0
  0
SCALE
  5
62
102
{ACAD_REACTORS
330
4A
102
}
330
4A
100
AcDbScale
 70
     0
300
3/16" = 1'-0"
140
0.1875
141
12.0
290
     0
  0
SCALE
  5
63
102
{ACAD_REACTORS
330
4A
102
}
330
4A
100
AcDbScale
 70
     0
300
1/4" = 1'-0"
140
0.25
141
12.0
290
     0
  0
SCALE
  5
64
102
{ACAD_REACTORS
330
4A
102
}
330
4A
100
AcDbScale
 70
     0
300
3/8" = 1'-0"
140
0.375
141
12.0
290
     0
  0
SCALE
  5
65
102
{ACAD_REACTORS
330
4A
102
}
330
4A
100
AcDbScale
 70
     0
300
1/2" = 1'-0"
140
0.5
141
12.0
290
     0
  0
SCALE
  5
66
102
{ACAD_REACTORS
330
4A
102
}
330
4A
100
AcDbScale
 70
     0
300
3/4" = 1'-0"
140
0.75
141
12.0
290
     0
  0
SCALE
  5
67
102
{ACAD_REACTORS
330
4A
102
}
330
4A
100
AcDbScale
 70
     0
300
1" = 1'-0"
140
1.0
141
12.0
290
     0
  0
SCALE
  5
68
102
{ACAD_REACTORS
330
4A
102
}
330
4A
100
AcDbScale
 70
     0
300
1-1/2" = 1'-0"
140
1.5
141
12.0
290
     0
  0
SCALE
  5
69
102
{ACAD_REACTORS
330
4A
102
}
330
4A
100
AcDbScale
 70
     0
300
3" = 1'-0"
140
3.0
141
12.0
290
     0
  0
SCALE
  5
6A
102
{ACAD_REACTORS
330
4A
102
}
330
4A
100
AcDbScale
 70
     0
300
6" = 1'-0"
140
6.0
141
12.0
290
     0
  0
SCALE
  5
6B
102
{ACAD_REACTORS
330
4A
102
}
330
4A
100
AcDbScale
 70
     0
300
1'-0" = 1'-0"
140
12.0
141
12.0
290
     0
  0
VISUALSTYLE
  5
2F
102
{ACAD_REACTORS
330
2A
102
}
330
2A
100
AcDbVisualStyle
  2
2dWireframe
 70
     4
 71
     0
 72
     2
 73
     0
 90
        0
 40
-0.6
 41
-30.0
 62
     5
 63
     7
 74
     1
 91
        4
 64
     7
 65
   257
 75
     1
175
     1
 42
1.0
 92
        0
 66
   257
 43
1.0
 76
     1
 77
     6
 78
     2
 67
     7
 79
     5
170
     0
171
     0
290
     0
174
     0
 93
        1
 44
0.0
173
     0
291
     0
 45
0.0
1001
ACAD
1000
AcDbSavedByObjectVersion
1070
     0
  0
VISUALSTYLE
  5
31
102
{ACAD_REACTORS
330
2A
102
}
330
2A
100
AcDbVisualStyle
  2
3D Hidden
 70
     6
 71
     1
 72
     2
 73
     2
 90
        0
 40
-0.6
 41
-30.0
 62
     5
 63
     7
 74
     2
 91
        2
 64
     7
 65
   257
 75
     2
175
     1
 42
40.0
 92
        0
 66
   257
 43
1.0
 76
     1
 77
     6
 78
     2
 67
     7
 79
     3
170
     0
171
     0
290
     0
174
     0
 93
        1
 44
0.0
173
     0
291
     0
 45
0.0
1001
ACAD
1000
AcDbSavedByObjectVersion
1070
     0
  0
VISUALSTYLE
  5
30
102
{ACAD_REACTORS
330
2A
102
}
330
2A
100
AcDbVisualStyle
  2
3dWireframe
 70
     5
 71
     0
 72
     2
 73
     0
 90
        0
 40
-0.6
 41
-30.0
 62
     5
 63
     7
 74
     1
 91
        4
 64
     7
 65
   257
 75
     1
175
     1
 42
1.0
 92
        0
 66
   257
 43
1.0
 76
     1
 77
     6
 78
     2
 67
     7
 79
     5
170
     0
171
     0
290
     0
174
     0
 93
        1
 44
0.0
173
     0
291
     0
 45
0.0
1001
ACAD
1000
AcDbSavedByObjectVersion
1070
     0
  0
VISUALSTYLE
  5
32
102
{ACAD_REACTORS
330
2A
102
}
330
2A
100
AcDbVisualStyle
  2
Basic
 70
     7
 71
     1
 72
     0
 73
     1
 90
        0
 40
-0.6
 41
-30.0
 62
     5
 63
     7
 74
     0
 91
        4
 64
     7
 65
   257
 75
     1
175
     1
 42
1.0
 92
        8
 66
     7
 43
1.0
 76
     1
 77
     6
 78
     2
 67
     7
 79
     5
170
     0
171
     0
290
     0
174
     0
 93
        1
 44
0.0
173
     0
291
     1
 45
0.0
1001
ACAD
1000
AcDbSavedByObjectVersion
1070
     0
  0
VISUALSTYLE
  5
36
102
{ACAD_REACTORS
330
2A
102
}
330
2A
100
AcDbVisualStyle
  2
Brighten
 70
    12
 71
     2
 72
     2
 73
     0
 90
        0
 40
-0.6
 41
-30.0
 62
     5
 63
     7
 74
     1
 91
        4
 64
     7
 65
   257
 75
     1
175
     1
 42
1.0
 92
        8
 66
     7
 43
1.0
 76
     1
 77
     6
 78
     2
 67
     7
 79
     5
170
     0
171
     0
290
     0
174
     0
 93
        1
 44
50.0
173
     0
291
     1
 45
0.0
1001
ACAD
1000
AcDbSavedByObjectVersion
1070
     0
  0
VISUALSTYLE
  5
3A
102
{ACAD_REACTORS
330
2A
102
}
330
2A
100
AcDbVisualStyle
  2
ColorChange
 70
    16
 71
     2
 72
     2
 73
     3
 90
        0
 40
-0.6
 41
-30.0
 62
     5
 63
     8
 74
     1
 91
        4
 64
     7
 65
   257
 75
     1
175
     1
 42
1.0
 92
        8
 66
     8
 43
1.0
 76
     1
 77
     6
 78
     2
 67
     7
 79
     5
170
     0
171
     0
290
     0
174
     0
 93
        1
 44
0.0
173
     0
291
     1
 45
0.0
1001
ACAD
1000
AcDbSavedByObjectVersion
1070
     0
  0
VISUALSTYLE
  5
34
102
{ACAD_REACTORS
330
2A
102
}
330
2A
100
AcDbVisualStyle
  2
Conceptual
 70
     9
 71
     3
 72
     2
 73
     0
 90
        0
 40
-0.6
 41
-30.0
 62
     5
 63
     7
 74
     2
 91
        2
 64
     7
 65
   257
 75
     1
175
     1
 42
40.0
 92
        8
 66
     7
 43
1.0
 76
     1
 77
     6
 78
     2
 67
     7
 79
     3
170
     0
171
     0
290
     0
174
     0
 93
        1
 44
0.0
173
     0
291
     0
 45
0.0
1001
ACAD
1000
AcDbSavedByObjectVersion
1070
     0
  0
VISUALSTYLE
  5
35
102
{ACAD_REACTORS
330
2A
102
}
330
2A
100
AcDbVisualStyle
  2
Dim
 70
    11
 71
     2
 72
     2
 73
     0
 90
        0
 40
-0.6
 41
-30.0
 62
     5
 63
     7
 74
     1
 91
        4
 64
     7
 65
   257
 75
     1
175
     1
 42
1.0
 92
        8
 66
     7
 43
1.0
 76
     1
 77
     6
 78
     2
 67
     7
 79
     5
170
     0
171
     0
290
     0
174
     0
 93
        1
 44
-50.0
173
     0
291
     1
 45
0.0
1001
ACAD
1000
AcDbSavedByObjectVersion
1070
     0
  0
VISUALSTYLE
  5
39
102
{ACAD_REACTORS
330
2A
102
}
330
2A
100
AcDbVisualStyle
  2
Facepattern
 70
    15
 71
     2
 72
     2
 73
     0
 90
        0
 40
-0.6
 41
-30.0
 62
     5
 63
     7
 74
     1
 91
        4
 64
     7
 65
   257
 75
     1
175
     1
 42
1.0
 92
        8
 66
     7
 43
1.0
 76
     1
 77
     6
 78
     2
 67
     7
 79
     5
170
     0
171
     0
290
     0
174
     0
 93
        1
 44
0.0
173
     0
291
     1
 45
0.0
1001
ACAD
1000
AcDbSavedByObjectVersion
1070
     0
  0
VISUALSTYLE
  5
2B
102
{ACAD_REACTORS
330
2A
102
}
330
2A
100
AcDbVisualStyle
  2
Flat
 70
     0
 71
     2
 72
     1
 73
     1
 90
        2
 40
-0.6
 41
30.0
 62
     5
 63
     7
 74
     0
 91
        4
 64
     7
 65
   257
 75
     1
175
     1
 42
1.0
 92
        8
 66
     7
 43
1.0
 76
     1
 77
     6
 78
     2
 67
     7
 79
     5
170
     0
171
     0
290
     0
174
     0
 93
       13
 44
0.0
173
     0
291
     1
 45
0.0
1001
ACAD
1000
AcDbSavedByObjectVersion
1070
     0
  0
VISUALSTYLE
  5
2C
102
{ACAD_REACTORS
330
2A
102
}
330
2A
100
AcDbVisualStyle
  2
FlatWithEdges
 70
     1
 71
     2
 72
     1
 73
     1
 90
        2
 40
-0.6
 41
30.0
 62
     5
 63
     7
 74
     1
 91
        4
 64
     7
 65
   257
 75
     1
175
     1
 42
1.0
 92
        0
 66
   257
 43
1.0
 76
     1
 77
     6
 78
     2
 67
     7
 79
     5
170
     0
171
     0
290
     0
174
     0
 93
       13
 44
0.0
173
     0
291
     1
 45
0.0
1001
ACAD
1000
AcDbSavedByObjectVersion
1070
     0
  0
VISUALSTYLE
  5
2D
102
{ACAD_REACTORS
330
2A
102
}
330
2A
100
AcDbVisualStyle
  2
Gouraud
 70
     2
 71
     2
 72
     2
 73
     1
 90
        2
 40
-0.6
 41
30.0
 62
     5
 63
     7
 74
     0
 91
        4
 64
     7
 65
   257
 75
     1
175
     1
 42
1.0
 92
        0
 66
     7
 43
1.0
 76
     1
 77
     6
 78
     2
 67
     7
 79
     5
170
     0
171
     0
290
     0
174
     0
 93
       13
 44
0.0
173
     0
291
     1
 45
0.0
1001
ACAD
1000
AcDbSavedByObjectVersion
1070
     0
  0
VISUALSTYLE
  5
2E
102
{ACAD_REACTORS
330
2A
102
}
330
2A
100
AcDbVisualStyle
  2
GouraudWithEdges
 70
     3
 71
     2
 72
     2
 73
     1
 90
        2
 40
-0.6
 41
30.0
 62
     5
 63
     7
 74
     1
 91
        4
 64
     7
 65
   257
 75
     1
175
     1
 42
1.0
 92
        0
 66
   257
 43
1.0
 76
     1
 77
     6
 78
     2
 67
     7
 79
     5
170
     0
171
     0
290
     0
174
     0
 93
       13
 44
0.0
173
     0
291
     1
 45
0.0
1001
ACAD
1000
AcDbSavedByObjectVersion
1070
     0
  0
VISUALSTYLE
  5
38
102
{ACAD_REACTORS
330
2A
102
}
330
2A
100
AcDbVisualStyle
  2
Linepattern
 70
    14
 71
     2
 72
     2
 73
     0
 90
        0
 40
-0.6
 41
-30.0
 62
     5
 63
     7
 74
     1
 91
        4
 64
     7
 65
   257
 75
     7
175
     7
 42
1.0
 92
        8
 66
     7
 43
1.0
 76
     1
 77
     6
 78
     2
 67
     7
 79
     5
170
     0
171
     0
290
     0
174
     0
 93
        1
 44
0.0
173
     0
291
     1
 45
0.0
1001
ACAD
1000
AcDbSavedByObjectVersion
1070
     0
  0
VISUALSTYLE
  5
33
102
{ACAD_REACTORS
330
2A
102
}
330
2A
100
AcDbVisualStyle
  2
Realistic
 70
     8
 71
     2
 72
     2
 73
     0
 90
        0
 40
-0.6
 41
-30.0
 62
     5
 63
     7
 74
     1
 91
        0
 64
     7
 65
   257
 75
     1
175
     1
 42
1.0
 92
        8
 66
     8
 43
1.0
 76
     1
 77
     6
 78
     2
 67
     7
 79
     5
170
     0
171
     0
290
     0
174
     0
 93
       13
 44
0.0
173
     0
291
     0
 45
0.0
1001
ACAD
1000
AcDbSavedByObjectVersion
1070
     0
  0
VISUALSTYLE
  5
37
102
{ACAD_REACTORS
330
2A
102
}
330
2A
100
AcDbVisualStyle
  2
Thicken
 70
    13
 71
     2
 72
     2
 73
     0
 90
        0
 40
-0.6
 41
-30.0
 62
     5
 63
     7
 74
     1
 91
        4
 64
     7
 65
   257
 75
     1
175
     1
 42
1.0
 92
       12
 66
     7
 43
1.0
 76
     1
 77
     6
 78
     2
 67
     7
 79
     5
170
     0
171
     0
290
     0
174
     0
 93
        1
 44
0.0
173
     0
291
     1
 45
0.0
1001
ACAD
1000
AcDbSavedByObjectVersion
1070
     0
  0
DICTIONARYVAR
  5
158
102
{ACAD_REACTORS
330
155
102
}
330
155
100
DictionaryVariables
280
     0
  1
1:1
  0
ENDSEC
  0
EOF
