  0
SECTION
  2
HEADER
  9
$ACADVER
  1
AC1015
  9
$ACADMAINTVER
 70
     6
  9
$DWGCODEPAGE
  3
ANSI_1252
  9
$INSBASE
 10
0.0
 20
0.0
 30
0.0
  9
$EXTMIN
 10
54.1901526094321
 20
351.877595985394
 30
0.0
  9
$EXTMAX
 10
332.468522751115
 20
492.445298483748
 30
0.0
  9
$LIMMIN
 10
0.0
 20
0.0
  9
$LIMMAX
 10
12.0
 20
9.0
  9
$ORTHOMODE
 70
     0
  9
$REGENMODE
 70
     1
  9
$FILLMODE
 70
     1
  9
$QTEXTMODE
 70
     0
  9
$MIRRTEXT
 70
     1
  9
$LTSCALE
 40
1.0
  9
$ATTMODE
 70
     1
  9
$TEXTSIZE
 40
0.2
  9
$TRACEWID
 40
0.05
  9
$TEXTSTYLE
  7
Standard
  9
$CLAYER
  8
0
  9
$CELTYPE
  6
ByLayer
  9
$CECOLOR
 62
   256
  9
$CELTSCALE
 40
1.0
  9
$DISPSILH
 70
     0
  9
$DIMSCALE
 40
1.0
  9
$DIMASZ
 40
0.18
  9
$DIMEXO
 40
0.0625
  9
$DIMDLI
 40
0.38
  9
$DIMRND
 40
0.0
  9
$DIMDLE
 40
0.0
  9
$DIMEXE
 40
0.18
  9
$DIMTP
 40
0.0
  9
$DIMTM
 40
0.0
  9
$DIMTXT
 40
0.18
  9
$DIMCEN
 40
0.09
  9
$DIMTSZ
 40
0.0
  9
$DIMTOL
 70
     0
  9
$DIMLIM
 70
     0
  9
$DIMTIH
 70
     1
  9
$DIMTOH
 70
     1
  9
$DIMSE1
 70
     0
  9
$DIMSE2
 70
     0
  9
$DIMTAD
 70
     0
  9
$DIMZIN
 70
     0
  9
$DIMBLK
  1

  9
$DIMASO
 70
     1
  9
$DIMSHO
 70
     1
  9
$DIMPOST
  1

  9
$DIMAPOST
  1

  9
$DIMALT
 70
     0
  9
$DIMALTD
 70
     2
  9
$DIMALTF
 40
25.4
  9
$DIMLFAC
 40
1.0
  9
$DIMTOFL
 70
     0
  9
$DIMTVP
 40
0.0
  9
$DIMTIX
 70
     0
  9
$DIMSOXD
 70
     0
  9
$DIMSAH
 70
     0
  9
$DIMBLK1
  1

  9
$DIMBLK2
  1

  9
$DIMSTYLE
  2
Standard
  9
$DIMCLRD
 70
     0
  9
$DIMCLRE
 70
     0
  9
$DIMCLRT
 70
     0
  9
$DIMTFAC
 40
1.0
  9
$DIMGAP
 40
0.09
  9
$DIMJUST
 70
     0
  9
$DIMSD1
 70
     0
  9
$DIMSD2
 70
     0
  9
$DIMTOLJ
 70
     1
  9
$DIMTZIN
 70
     0
  9
$DIMALTZ
 70
     0
  9
$DIMALTTZ
 70
     0
  9
$DIMUPT
 70
     0
  9
$DIMDEC
 70
     4
  9
$DIMTDEC
 70
     4
  9
$DIMALTU
 70
     2
  9
$DIMALTTD
 70
     2
  9
$DIMTXSTY
  7
Standard
  9
$DIMAUNIT
 70
     0
  9
$DIMADEC
 70
     0
  9
$DIMALTRND
 40
0.0
  9
$DIMAZIN
 70
     0
  9
$DIMDSEP
 70
    46
  9
$DIMATFIT
 70
     3
  9
$DIMFRAC
 70
     0
  9
$DIMLDRBLK
  1

  9
$DIMLUNIT
 70
     2
  9
$DIMLWD
 70
    -2
  9
$DIMLWE
 70
    -2
  9
$DIMTMOVE
 70
     0
  9
$LUNITS
 70
     2
  9
$LUPREC
 70
     4
  9
$SKETCHINC
 40
0.1
  9
$FILLETRAD
 40
0.5
  9
$AUNITS
 70
     0
  9
$AUPREC
 70
     0
  9
$MENU
  1
.
  9
$ELEVATION
 40
0.0
  9
$PELEVATION
 40
0.0
  9
$THICKNESS
 40
0.0
  9
$LIMCHECK
 70
     0
  9
$CHAMFERA
 40
0.5
  9
$CHAMFERB
 40
0.5
  9
$CHAMFERC
 40
1.0
  9
$CHAMFERD
 40
0.0
  9
$SKPOLY
 70
     0
  9
$TDCREATE
 40
2456637.603860093
  9
$TDUCREATE
 40
2456637.562193426
  9
$TDUPDATE
 40
2456637.603860104
  9
$TDUUPDATE
 40
2456637.562193437
  9
$TDINDWG
 40
0.0000000116
  9
$TDUSRTIMER
 40
0.0000000116
  9
$USRTIMER
 70
     1
  9
$ANGBASE
 50
0.0
  9
$ANGDIR
 70
     0
  9
$PDMODE
 70
     0
  9
$PDSIZE
 40
0.0
  9
$PLINEWID
 40
0.0
  9
$SPLFRAME
 70
     0
  9
$SPLINETYPE
 70
     6
  9
$SPLINESEGS
 70
     8
  9
$HANDSEED
  5
159
  9
$SURFTAB1
 70
     6
  9
$SURFTAB2
 70
     6
  9
$SURFTYPE
 70
     6
  9
$SURFU
 70
     6
  9
$SURFV
 70
     6
  9
$UCSBASE
  2

  9
$UCSNAME
  2

  9
$UCSORG
 10
0.0
 20
0.0
 30
0.0
  9
$UCSXDIR
 10
1.0
 20
0.0
 30
0.0
  9
$UCSYDIR
 10
0.0
 20
1.0
 30
0.0
  9
$UCSORTHOREF
  2

  9
$UCSORTHOVIEW
 70
     0
  9
$UCSORGTOP
 10
0.0
 20
0.0
 30
0.0
  9
$UCSORGBOTTOM
 10
0.0
 20
0.0
 30
0.0
  9
$UCSORGLEFT
 10
0.0
 20
0.0
 30
0.0
  9
$UCSORGRIGHT
 10
0.0
 20
0.0
 30
0.0
  9
$UCSORGFRONT
 10
0.0
 20
0.0
 30
0.0
  9
$UCSORGBACK
 10
0.0
 20
0.0
 30
0.0
  9
$PUCSBASE
  2

  9
$PUCSNAME
  2

  9
$PUCSORG
 10
0.0
 20
0.0
 30
0.0
  9
$PUCSXDIR
 10
1.0
 20
0.0
 30
0.0
  9
$PUCSYDIR
 10
0.0
 20
1.0
 30
0.0
  9
$PUCSORTHOREF
  2

  9
$PUCSORTHOVIEW
 70
     0
  9
$PUCSORGTOP
 10
0.0
 20
0.0
 30
0.0
  9
$PUCSORGBOTTOM
 10
0.0
 20
0.0
 30
0.0
  9
$PUCSORGLEFT
 10
0.0
 20
0.0
 30
0.0
  9
$PUCSORGRIGHT
 10
0.0
 20
0.0
 30
0.0
  9
$PUCSORGFRONT
 10
0.0
 20
0.0
 30
0.0
  9
$PUCSORGBACK
 10
0.0
 20
0.0
 30
0.0
  9
$USERI1
 70
     0
  9
$USERI2
 70
     0
  9
$USERI3
 70
     0
  9
$USERI4
 70
     0
  9
$USERI5
 70
     0
  9
$USERR1
 40
16.5
  9
$USERR2
 40
0.0
  9
$USERR3
 40
0.0
  9
$USERR4
 40
0.0
  9
$USERR5
 40
0.0
  9
$WORLDVIEW
 70
     1
  9
$SHADEDGE
 70
     3
  9
$SHADEDIF
 70
    70
  9
$TILEMODE
 70
     1
  9
$MAXACTVP
 70
    64
  9
$PINSBASE
 10
0.0
 20
0.0
 30
0.0
  9
$PLIMCHECK
 70
     0
  9
$PEXTMIN
 10
1.00000000000000E+20
 20
1.00000000000000E+20
 30
1.00000000000000E+20
  9
$PEXTMAX
 10
-1.00000000000000E+20
 20
-1.00000000000000E+20
 30
-1.00000000000000E+20
  9
$PLIMMIN
 10
0.0
 20
0.0
  9
$PLIMMAX
 10
12.0
 20
9.0
  9
$UNITMODE
 70
     0
  9
$VISRETAIN
 70
     1
  9
$PLINEGEN
 70
     0
  9
$PSLTSCALE
 70
     1
  9
$TREEDEPTH
 70
  3020
  9
$CMLSTYLE
  2
Standard
  9
$CMLJUST
 70
     0
  9
$CMLSCALE
 40
1.0
  9
$PROXYGRAPHICS
 70
     1
  9
$MEASUREMENT
 70
     1
  9
$CELWEIGHT
370
    -1
  9
$ENDCAPS
280
     0
  9
$JOINSTYLE
280
     0
  9
$LWDISPLAY
290
     0
  9
$INSUNITS
 70
     1
  9
$HYPERLINKBASE
  1

  9
$STYLESHEET
  1

  9
$XEDIT
290
     1
  9
$CEPSNTYPE
380
     0
  9
$PSTYLEMODE
290
     1
  9
$FINGERPRINTGUID
  2
{610B7CE7-7874-47C3-B818-2BBECE86FEBD}
  9
$VERSIONGUID
  2
{FAEB1C32-E019-11D5-929B-00C0DF256EC4}
  9
$EXTNAMES
290
     1
  9
$PSVPSCALE
 40
0.0
  9
$OLESTARTUP
290
     0
  0
ENDSEC
  0
SECTION
  2
CLASSES
  0
CLASS
  1
ACDBDICTIONARYWDFLT
  2
AcDbDictionaryWithDefault
  3
ObjectDBX Classes
 90
        0
280
     0
281
     0
  0
CLASS
  1
VISUALSTYLE
  2
AcDbVisualStyle
  3
ObjectDBX Classes
 90
     4095
280
     0
281
     0
  0
CLASS
  1
SCALE
  2
AcDbScale
  3
ObjectDBX Classes
 90
     1153
280
     0
281
     0
  0
CLASS
  1

  2
exOdDbPolyline
  3

 90
        0
280
     0
281
     1
  0
CLASS
  1

  2
exOdDbCircle
  3

 90
        0
280
     0
281
     1
  0
CLASS
  1

  2
exOdDbSpline
  3

 90
        0
280
     0
281
     1
  0
CLASS
  1
DICTIONARYVAR
  2
AcDbDictionaryVar
  3
ObjectDBX Classes
 90
        0
280
     0
281
     0
  0
CLASS
  1
ACDBPLACEHOLDER
  2
AcDbPlaceHolder
  3
ObjectDBX Classes
 90
        0
280
     0
281
     0
  0
CLASS
  1
LAYOUT
  2
AcDbLayout
  3
ObjectDBX Classes
 90
        0
280
     0
281
     0
  0
ENDSEC
  0
SECTION
  2
TABLES
  0
TABLE
  2
VPORT
  5
8
330
0
100
AcDbSymbolTable
 70
     1
  0
VPORT
  5
29
330
8
100
AcDbSymbolTableRecord
100
AcDbViewportTableRecord
  2
*Active
 70
     0
 10
0.0
 20
0.0
 11
1.0
 21
1.0
 12
193.3293376802736
 22
422.161447234571
 13
0.0
 23
0.0
 14
0.5
 24
0.5
 15
0.5
 25
0.5
 16
0.0
 26
0.0
 36
1.0
 17
0.0
 27
0.0
 37
0.0
 40
190.9966306487763
 41
1.60267857142857
 42
50.0
 43
0.0
 44
0.0
 50
0.0
 51
0.0
 71
     0
 72
   100
 73
     1
 74
     3
 75
     0
 76
     0
 77
     0
 78
     0
281
     0
 65
     1
110
0.0
120
0.0
130
0.0
111
1.0
121
0.0
131
0.0
112
0.0
122
1.0
132
0.0
 79
     0
146
0.0
  0
ENDTAB
  0
TABLE
  2
LTYPE
  5
5
330
0
100
AcDbSymbolTable
 70
     8
  0
LTYPE
  5
14
330
5
100
AcDbSymbolTableRecord
100
AcDbLinetypeTableRecord
  2
ByBlock
 70
     0
  3

 72
    65
 73
     0
 40
0.0
  0
LTYPE
  5
15
330
5
100
AcDbSymbolTableRecord
100
AcDbLinetypeTableRecord
  2
ByLayer
 70
     0
  3

 72
    65
 73
     0
 40
0.0
  0
LTYPE
  5
16
330
5
100
AcDbSymbolTableRecord
100
AcDbLinetypeTableRecord
  2
Continuous
 70
     0
  3
Solid line
 72
    65
 73
     0
 40
0.0
  0
LTYPE
  5
3B
330
5
100
AcDbSymbolTableRecord
100
AcDbLinetypeTableRecord
  2
DASHED
 70
     0
  3
Dashed
 72
    65
 73
     2
 40
15.0
 49
7.0
 74
     0
 49
-8.0
 74
     0
  0
LTYPE
  5
3C
330
5
100
AcDbSymbolTableRecord
100
AcDbLinetypeTableRecord
  2
DOTTED
 70
     0
  3
Dotted
 72
    65
 73
     2
 40
1.0
 49
0.0
 74
     0
 49
-1.0
 74
     0
  0
LTYPE
  5
3D
330
5
100
AcDbSymbolTableRecord
100
AcDbLinetypeTableRecord
  2
DOT_CENTER
 70
     0
  3
Dot_Center
 72
    65
 73
     4
 40
14.0
 49
12.0
 74
     0
 49
-1.0
 74
     0
 49
0.0
 74
     0
 49
-1.0
 74
     0
  0
LTYPE
  5
3E
330
5
100
AcDbSymbolTableRecord
100
AcDbLinetypeTableRecord
  2
LONG_DASHED
 70
     0
  3
Long_Dashed
 72
    65
 73
     2
 40
15.0
 49
10.0
 74
     0
 49
-5.0
 74
     0
  0
LTYPE
  5
3F
330
5
100
AcDbSymbolTableRecord
100
AcDbLinetypeTableRecord
  2
DASH_CENTER
 70
     0
  3
Dash_Center
 72
    65
 73
     4
 40
14.0
 49
11.0
 74
     0
 49
-1.0
 74
     0
 49
1.0
 74
     0
 49
-1.0
 74
     0
  0
LTYPE
  5
40
330
5
100
AcDbSymbolTableRecord
100
AcDbLinetypeTableRecord
  2
PHANTOM
 70
     0
  3
Phantom
 72
    65
 73
     6
 40
13.0
 49
10.0
 74
     0
 49
-1.0
 74
     0
 49
0.0
 74
     0
 49
-1.0
 74
     0
 49
0.0
 74
     0
 49
-1.0
 74
     0
  0
LTYPE
  5
41
330
5
100
AcDbSymbolTableRecord
100
AcDbLinetypeTableRecord
  2
CENTER_DASH_DASH
 70
     0
  3
Center_Dash_Dash
 72
    65
 73
     6
 40
14.0
 49
9.0
 74
     0
 49
-1.0
 74
     0
 49
1.0
 74
     0
 49
-1.0
 74
     0
 49
1.0
 74
     0
 49
-1.0
 74
     0
  0
ENDTAB
  0
TABLE
  2
LAYER
  5
2
330
0
100
AcDbSymbolTable
 70
     5
  0
LAYER
  5
10
330
2
100
AcDbSymbolTableRecord
100
AcDbLayerTableRecord
  2
0
 70
     0
 62
     7
  6
Continuous
370
    -3
390
F
  0
LAYER
  5
42
330
2
100
AcDbSymbolTableRecord
100
AcDbLayerTableRecord
  2
1
 70
     0
 62
     7
  6
Continuous
370
    -3
390
F
  0
LAYER
  5
43
330
2
100
AcDbSymbolTableRecord
100
AcDbLayerTableRecord
  2
BEZUGSACHSEN
 70
     0
 62
     7
  6
Continuous
370
    -3
390
F
  0
LAYER
  5
44
330
2
100
AcDbSymbolTableRecord
100
AcDbLayerTableRecord
  2
FASEN
 70
     0
 62
     7
  6
Continuous
370
    -3
390
F
  0
LAYER
  5
45
330
2
100
AcDbSymbolTableRecord
100
AcDbLayerTableRecord
  2
RUNDUNGEN
 70
     0
 62
     7
  6
Continuous
370
    -3
390
F
  0
ENDTAB
  0
TABLE
  2
STYLE
  5
3
330
0
100
AcDbSymbolTable
 70
     2
  0
STYLE
  5
11
330
3
100
AcDbSymbolTableRecord
100
AcDbTextStyleTableRecord
  2
Standard
 70
     0
 40
0.0
 41
1.0
 50
0.0
 71
     0
 42
0.2
  3
txt
  4

  0
STYLE
  5
6C
330
3
100
AcDbSymbolTableRecord
100
AcDbTextStyleTableRecord
  2
CONVERTER_11
 70
     0
 40
0.0
 41
0.72
 50
0.0
 71
     0
 42
0.2
  3
txt.shx
  4

  0
ENDTAB
  0
TABLE
  2
VIEW
  5
6
330
0
100
AcDbSymbolTable
 70
     0
  0
ENDTAB
  0
TABLE
  2
UCS
  5
7
330
0
100
AcDbSymbolTable
 70
     0
  0
ENDTAB
  0
TABLE
  2
APPID
  5
9
330
0
100
AcDbSymbolTable
 70
     1
  0
APPID
  5
12
330
9
100
AcDbSymbolTableRecord
100
AcDbRegAppTableRecord
  2
ACAD
 70
     0
  0
ENDTAB
  0
TABLE
  2
DIMSTYLE
  5
A
330
0
100
AcDbSymbolTable
 70
     8
100
AcDbDimStyleTable
  0
DIMSTYLE
105
27
330
A
100
AcDbSymbolTableRecord
100
AcDbDimStyleTableRecord
  2
Standard
 70
     0
340
11
  0
DIMSTYLE
105
10A
102
{ACAD_REACTORS
330
10B
102
}
330
A
100
AcDbSymbolTableRecord
100
AcDbDimStyleTableRecord
  2
ME10_DIM_10
 70
     0
  3
\U+2300<>
 41
3.5
 42
2.0
 44
2.0
 71
     1
 73
     0
 74
     0
 77
     1
 78
     8
140
3.5
146
0.7
147
2.0
172
     1
173
     1
176
     2
177
     2
178
     3
271
     2
272
     0
340
6C
  0
DIMSTYLE
105
115
102
{ACAD_REACTORS
330
116
102
}
330
A
100
AcDbSymbolTableRecord
100
AcDbDimStyleTableRecord
  2
ME10_DIM_11
 70
     0
  3
\U+2300<>
 41
3.5
 42
2.0
 44
2.0
 71
     1
 73
     0
 74
     0
 77
     1
 78
     8
140
3.5
146
0.7
147
2.0
172
     1
173
     1
176
     2
177
     2
178
     3
271
     2
272
     0
340
6C
  0
DIMSTYLE
105
120
102
{ACAD_REACTORS
330
121
102
}
330
A
100
AcDbSymbolTableRecord
100
AcDbDimStyleTableRecord
  2
ME10_DIM_12
 70
     0
  3
<>
 41
3.5
 42
2.0
 44
2.0
 71
     1
 73
     0
 74
     0
 77
     1
 78
     8
140
3.5
146
0.7
147
2.0
172
     1
173
     1
176
     2
177
     2
178
     3
271
     2
272
     0
340
6C
  0
DIMSTYLE
105
12B
102
{ACAD_REACTORS
330
12C
102
}
330
A
100
AcDbSymbolTableRecord
100
AcDbDimStyleTableRecord
  2
ME10_DIM_13
 70
     0
  3
<>
 41
3.5
 42
2.0
 44
2.0
 71
     1
 73
     0
 74
     0
 77
     1
 78
     8
140
3.5
146
0.7
147
2.0
172
     1
173
     1
176
     2
177
     2
178
     3
271
     2
272
     0
340
6C
  0
DIMSTYLE
105
136
102
{ACAD_REACTORS
330
137
102
}
330
A
100
AcDbSymbolTableRecord
100
AcDbDimStyleTableRecord
  2
ME10_DIM_14
 70
     0
  3
<>
 41
3.5
 42
2.0
 44
2.0
 71
     1
 73
     0
 74
     0
 77
     1
 78
     8
140
3.5
146
0.7
147
2.0
172
     1
173
     1
176
     2
177
     2
178
     3
271
     2
272
     0
340
6C
  0
DIMSTYLE
105
141
102
{ACAD_REACTORS
330
142
102
}
330
A
100
AcDbSymbolTableRecord
100
AcDbDimStyleTableRecord
  2
ME10_DIM_15
 70
     0
  3
<>
 41
3.5
 42
2.0
 44
2.0
 71
     1
 73
     0
 74
     0
 77
     1
 78
     8
140
3.5
146
0.7
147
2.0
172
     1
173
     1
176
     2
177
     2
178
     3
271
     2
272
     0
340
6C
  0
DIMSTYLE
105
14C
102
{ACAD_REACTORS
330
14D
102
}
330
A
100
AcDbSymbolTableRecord
100
AcDbDimStyleTableRecord
  2
ME10_DIM_16
 70
     0
  3
<>
 41
3.5
 42
2.0
 44
2.0
 71
     1
 73
     0
 74
     0
 77
     1
 78
     8
140
3.5
146
0.7
147
2.0
172
     1
173
     1
176
     2
177
     2
178
     3
271
     2
272
     0
340
6C
  0
ENDTAB
  0
TABLE
  2
BLOCK_RECORD
  5
1
330
0
100
AcDbSymbolTable
 70
    10
  0
BLOCK_RECORD
  5
1F
330
1
100
AcDbSymbolTableRecord
100
AcDbBlockTableRecord
  2
*Model_Space
340
22
  0
BLOCK_RECORD
  5
1B
330
1
100
AcDbSymbolTableRecord
100
AcDbBlockTableRecord
  2
*Paper_Space
340
1E
  0
BLOCK_RECORD
  5
23
330
1
100
AcDbSymbolTableRecord
100
AcDbBlockTableRecord
  2
*Paper_Space0
340
26
  0
BLOCK_RECORD
  5
46
330
1
100
AcDbSymbolTableRecord
100
AcDbBlockTableRecord
  2
Urheberrecht_DE-EN
340
0
102
{BLKREFS
331
6B
102
}
  0
BLOCK_RECORD
  5
101
330
1
100
AcDbSymbolTableRecord
100
AcDbBlockTableRecord
  2
*D2
340
0
  0
BLOCK_RECORD
  5
10C
330
1
100
AcDbSymbolTableRecord
100
AcDbBlockTableRecord
  2
*D3
340
0
  0
BLOCK_RECORD
  5
117
330
1
100
AcDbSymbolTableRecord
100
AcDbBlockTableRecord
  2
*D4
340
0
  0
BLOCK_RECORD
  5
122
330
1
100
AcDbSymbolTableRecord
100
AcDbBlockTableRecord
  2
*D5
340
0
  0
BLOCK_RECORD
  5
12D
330
1
100
AcDbSymbolTableRecord
100
AcDbBlockTableRecord
  2
*D6
340
0
  0
BLOCK_RECORD
  5
138
330
1
100
AcDbSymbolTableRecord
100
AcDbBlockTableRecord
  2
*D7
340
0
  0
BLOCK_RECORD
  5
143
330
1
100
AcDbSymbolTableRecord
100
AcDbBlockTableRecord
  2
*D8
340
0
  0
BLOCK_RECORD
  5
14E
330
1
100
AcDbSymbolTableRecord
100
AcDbBlockTableRecord
  2
*D9
340
0
102
{BLKREFS
331
154
102
}
  0
ENDTAB
  0
ENDSEC
  0
SECTION
  2
BLOCKS
  0
BLOCK
  5
20
330
1F
100
AcDbEntity
  8
0
100
AcDbBlockBegin
  2
*Model_Space
 70
     0
 10
0.0
 20
0.0
 30
0.0
  3
*Model_Space
  1

  0
ENDBLK
  5
21
330
1F
100
AcDbEntity
  8
0
100
AcDbBlockEnd
  0
BLOCK
  5
1C
330
1B
100
AcDbEntity
 67
     1
  8
0
100
AcDbBlockBegin
  2
*Paper_Space
 70
     0
 10
0.0
 20
0.0
 30
0.0
  3
*Paper_Space
  1

  0
ENDBLK
  5
1D
330
1B
100
AcDbEntity
 67
     1
  8
0
100
AcDbBlockEnd
  0
BLOCK
  5
24
330
23
100
AcDbEntity
  8
0
100
AcDbBlockBegin
  2
*Paper_Space0
 70
     0
 10
0.0
 20
0.0
 30
0.0
  3
*Paper_Space0
  1

  0
ENDBLK
  5
25
330
23
100
AcDbEntity
  8
0
100
AcDbBlockEnd
  0
BLOCK
  5
47
330
46
100
AcDbEntity
  8
0
100
AcDbBlockBegin
  2
Urheberrecht_DE-EN
 70
     0
 10
68.1901526094321
 20
419.832892006317
 30
0.0
  3
Urheberrecht_DE-EN
  1

  0
MTEXT
  5
6D
330
46
100
AcDbEntity
  8
1
 62
     1
100
AcDbMText
 10
68.1901526094321
 20
419.832892006317
 30
0.0
 40
2.0
 41
0.0
 71
     7
 72
     1
  1
We own the copyright of this document. It \Pdetermined and may neither be copied or \Pmade accessible to outsiders without our\Ppermission.
  7
CONVERTER_11
 11
0.0
 21
1.0
 31
0.0
 73
     1
 44
0.90036014405762
  0
MTEXT
  5
6E
330
46
100
AcDbEntity
  8
1
 62
     1
100
AcDbMText
 10
68.1901526094321
 20
363.5435050890108
 30
0.0
 40
2.0
 41
0.0
 71
     7
 72
     1
  1
F\U+00fcr diese Unterlage behalten wir das Ur-\Pheberrecht. Sie darf nur f\U+00fcr den von uns \Pbestimmten Zweck benutzt und ohne unsere \PZustimmung weder vervielf\U+00e4ltigt noch\PDritten zug\U+00e4nglich gemacht werden.
  7
CONVERTER_11
 11
0.0
 21
1.0
 31
0.0
 73
     1
 44
0.90036014405762
  0
ENDBLK
  5
48
330
46
100
AcDbEntity
  8
0
100
AcDbBlockEnd
  0
BLOCK
  5
108
330
101
100
AcDbEntity
  8
0
100
AcDbBlockBegin
  2
*D2
 70
     1
 10
0.0
 20
0.0
 30
0.0
  3
*D2
  1

  0
LINE
  5
102
330
101
100
AcDbEntity
  8
1
  6
Continuous
 62
     2
100
AcDbLine
 10
321.983046070061
 20
423.9919438669
 30
0.0
 11
321.983046070061
 21
401.9919438669
 31
0.0
  0
LINE
  5
103
330
101
100
AcDbEntity
  8
1
  6
Continuous
 62
     2
100
AcDbLine
 10
311.1334459459
 20
423.9919438669
 30
0.0
 11
323.983046070061
 21
423.9919438669
 31
0.0
  0
LINE
  5
104
330
101
100
AcDbEntity
  8
1
  6
Continuous
 62
     2
100
AcDbLine
 10
311.1334459459
 20
401.9919438669
 30
0.0
 11
323.983046070061
 21
401.9919438669
 31
0.0
  0
SOLID
  5
105
330
101
100
AcDbEntity
  8
1
 62
     2
100
AcDbTrace
 10
322.4438298116169
 20
420.4919438669
 30
0.0
 11
321.5222623285051
 21
420.4919438669
 31
0.0
 12
321.983046070061
 22
423.9919438669
 32
0.0
 13
321.983046070061
 23
423.9919438669
 33
0.0
  0
SOLID
  5
106
330
101
100
AcDbEntity
  8
1
 62
     2
100
AcDbTrace
 10
321.5222623285051
 20
405.4919438669
 30
0.0
 11
322.4438298116169
 21
405.4919438669
 31
0.0
 12
321.983046070061
 22
401.9919438669
 32
0.0
 13
321.983046070061
 23
401.9919438669
 33
0.0
  0
MTEXT
  5
107
330
101
100
AcDbEntity
  8
1
 62
     3
100
AcDbMText
 10
319.983046070061
 20
403.263822296268
 30
0.0
 40
3.5
 41
0.0
 71
     7
 72
     1
  1
\C3;%%c\C3;\C3;22\C2;\H2.45;\S^ ;\C3;
  7
CONVERTER_11
 11
0.0
 21
1.0
 31
0.0
 73
     1
 44
0.60024009603842
  0
ENDBLK
  5
109
330
101
100
AcDbEntity
  8
0
100
AcDbBlockEnd
  0
BLOCK
  5
113
330
10C
100
AcDbEntity
  8
0
100
AcDbBlockBegin
  2
*D3
 70
     1
 10
0.0
 20
0.0
 30
0.0
  3
*D3
  1

  0
LINE
  5
10D
330
10C
100
AcDbEntity
  8
1
  6
Continuous
 62
     2
100
AcDbLine
 10
330.468522751115
 20
436.9919438669
 30
0.0
 11
330.468522751115
 21
388.9919438669
 31
0.0
  0
LINE
  5
10E
330
10C
100
AcDbEntity
  8
1
  6
Continuous
 62
     2
100
AcDbLine
 10
292.1334459459
 20
436.9919438669
 30
0.0
 11
332.468522751115
 21
436.9919438669
 31
0.0
  0
LINE
  5
10F
330
10C
100
AcDbEntity
  8
1
  6
Continuous
 62
     2
100
AcDbLine
 10
292.1334459459
 20
388.9919438669
 30
0.0
 11
332.468522751115
 21
388.9919438669
 31
0.0
  0
SOLID
  5
110
330
10C
100
AcDbEntity
  8
1
 62
     2
100
AcDbTrace
 10
330.9293064926709
 20
433.4919438669
 30
0.0
 11
330.0077390095591
 21
433.4919438669
 31
0.0
 12
330.468522751115
 22
436.9919438669
 32
0.0
 13
330.468522751115
 23
436.9919438669
 33
0.0
  0
SOLID
  5
111
330
10C
100
AcDbEntity
  8
1
 62
     2
100
AcDbTrace
 10
330.0077390095591
 20
392.4919438669
 30
0.0
 11
330.9293064926709
 21
392.4919438669
 31
0.0
 12
330.468522751115
 22
388.9919438669
 32
0.0
 13
330.468522751115
 23
388.9919438669
 33
0.0
  0
MTEXT
  5
112
330
10C
100
AcDbEntity
  8
1
 62
     3
100
AcDbMText
 10
328.468522751115
 20
404.420932752775
 30
0.0
 40
3.5
 41
0.0
 71
     7
 72
     1
  1
\C3;%%c\C3;\C3;48\C2;\H2.45;\S^ ;\C3;
  7
CONVERTER_11
 11
0.0
 21
1.0
 31
0.0
 73
     1
 44
0.60024009603842
  0
ENDBLK
  5
114
330
10C
100
AcDbEntity
  8
0
100
AcDbBlockEnd
  0
BLOCK
  5
11E
330
117
100
AcDbEntity
  8
0
100
AcDbBlockBegin
  2
*D4
 70
     1
 10
0.0
 20
0.0
 30
0.0
  3
*D4
  1

  0
LINE
  5
118
330
117
100
AcDbEntity
  8
1
  6
Continuous
 62
     2
100
AcDbLine
 10
310.1334459459
 20
460.717461469579
 30
0.0
 11
291.1334459459
 21
460.717461469579
 31
0.0
  0
LINE
  5
119
330
117
100
AcDbEntity
  8
1
  6
Continuous
 62
     2
100
AcDbLine
 10
310.1334459459
 20
424.9919438669
 30
0.0
 11
310.1334459459
 21
462.717461469579
 31
0.0
  0
LINE
  5
11A
330
117
100
AcDbEntity
  8
1
  6
Continuous
 62
     2
100
AcDbLine
 10
291.1334459459
 20
437.9919438669
 30
0.0
 11
291.1334459459
 21
462.717461469579
 31
0.0
  0
SOLID
  5
11B
330
117
100
AcDbEntity
  8
1
 62
     2
100
AcDbTrace
 10
306.6334459459
 20
460.2566777280231
 30
0.0
 11
306.6334459459
 21
461.1782452111349
 31
0.0
 12
310.1334459459
 22
460.717461469579
 32
0.0
 13
310.1334459459
 23
460.717461469579
 33
0.0
  0
SOLID
  5
11C
330
117
100
AcDbEntity
  8
1
 62
     2
100
AcDbTrace
 10
294.6334459459
 20
461.1782452111349
 30
0.0
 11
294.6334459459
 21
460.2566777280231
 31
0.0
 12
291.1334459459
 22
460.717461469579
 32
0.0
 13
291.1334459459
 23
460.717461469579
 33
0.0
  0
MTEXT
  5
11D
330
117
100
AcDbEntity
  8
1
 62
     3
100
AcDbMText
 10
299.667909595678
 20
462.717461469579
 30
0.0
 40
3.5
 41
0.0
 71
     7
 72
     1
  1
\C3;\C3;\C3;19\C2;\H2.45;\S^ ;\C3;
  7
CONVERTER_11
 11
0.9999999999970619
 21
2.424068405545306E-6
 31
0.0
 73
     1
 44
0.60024009603842
  0
ENDBLK
  5
11F
330
117
100
AcDbEntity
  8
0
100
AcDbBlockEnd
  0
BLOCK
  5
129
330
122
100
AcDbEntity
  8
0
100
AcDbBlockBegin
  2
*D5
 70
     1
 10
0.0
 20
0.0
 30
0.0
  3
*D5
  1

  0
LINE
  5
123
330
122
100
AcDbEntity
  8
1
  6
Continuous
 62
     2
100
AcDbLine
 10
310.1334459459
 20
470.938603835395
 30
0.0
 11
160.1334459459
 21
470.938603835395
 31
0.0
  0
LINE
  5
124
330
122
100
AcDbEntity
  8
1
  6
Continuous
 62
     2
100
AcDbLine
 10
310.1334459459
 20
424.9919438669
 30
0.0
 11
310.1334459459
 21
472.938603835395
 31
0.0
  0
LINE
  5
125
330
122
100
AcDbEntity
  8
1
  6
Continuous
 62
     2
100
AcDbLine
 10
160.1334459459
 20
464.9919069458
 30
0.0
 11
160.1334459459
 21
472.938603835395
 31
0.0
  0
SOLID
  5
126
330
122
100
AcDbEntity
  8
1
 62
     2
100
AcDbTrace
 10
306.6334459459
 20
470.4778200938391
 30
0.0
 11
306.6334459459
 21
471.3993875769509
 31
0.0
 12
310.1334459459
 22
470.938603835395
 32
0.0
 13
310.1334459459
 23
470.938603835395
 33
0.0
  0
SOLID
  5
127
330
122
100
AcDbEntity
  8
1
 62
     2
100
AcDbTrace
 10
163.6334459459
 20
471.3993875769509
 30
0.0
 11
163.6334459459
 21
470.4778200938391
 31
0.0
 12
160.1334459459
 22
470.938603835395
 32
0.0
 13
160.1334459459
 23
470.938603835395
 33
0.0
  0
MTEXT
  5
128
330
122
100
AcDbEntity
  8
1
 62
     3
100
AcDbMText
 10
227.631320005974
 20
472.938603835395
 30
0.0
 40
3.5
 41
0.0
 71
     7
 72
     1
  1
\C3;\C3;\C3;150\C2;\H2.45;\S^ ;\C3;
  7
CONVERTER_11
 11
0.9999999999970619
 21
2.424068405545306E-6
 31
0.0
 73
     1
 44
0.60024009603842
  0
ENDBLK
  5
12A
330
122
100
AcDbEntity
  8
0
100
AcDbBlockEnd
  0
BLOCK
  5
134
330
12D
100
AcDbEntity
  8
0
100
AcDbBlockBegin
  2
*D6
 70
     1
 10
0.0
 20
0.0
 30
0.0
  3
*D6
  1

  0
LINE
  5
12E
330
12D
100
AcDbEntity
  8
1
  6
Continuous
 62
     2
100
AcDbLine
 10
310.1334459459
 20
479.231228773698
 30
0.0
 11
131.1334459459
 21
479.231228773698
 31
0.0
  0
LINE
  5
12F
330
12D
100
AcDbEntity
  8
1
  6
Continuous
 62
     2
100
AcDbLine
 10
310.1334459459
 20
424.9919438669
 30
0.0
 11
310.1334459459
 21
481.231228773698
 31
0.0
  0
LINE
  5
130
330
12D
100
AcDbEntity
  8
1
  6
Continuous
 62
     2
100
AcDbLine
 10
131.1334459459
 20
464.9919438669
 30
0.0
 11
131.1334459459
 21
481.231228773698
 31
0.0
  0
SOLID
  5
131
330
12D
100
AcDbEntity
  8
1
 62
     2
100
AcDbTrace
 10
306.6334459459
 20
478.7704450321421
 30
0.0
 11
306.6334459459
 21
479.6920125152539
 31
0.0
 12
310.1334459459
 22
479.231228773698
 32
0.0
 13
310.1334459459
 23
479.231228773698
 33
0.0
  0
SOLID
  5
132
330
12D
100
AcDbEntity
  8
1
 62
     2
100
AcDbTrace
 10
134.6334459459
 20
479.6920125152539
 30
0.0
 11
134.6334459459
 21
478.7704450321421
 31
0.0
 12
131.1334459459
 22
479.231228773698
 32
0.0
 13
131.1334459459
 23
479.231228773698
 33
0.0
  0
MTEXT
  5
133
330
12D
100
AcDbEntity
  8
1
 62
     3
100
AcDbMText
 10
218.567288096666
 20
481.231228773698
 30
0.0
 40
3.5
 41
0.0
 71
     7
 72
     1
  1
\C3;\C3;\C3;179\C2;\H2.45;\S^ ;\C3;
  7
CONVERTER_11
 11
0.9999999999970619
 21
2.424068405545306E-6
 31
0.0
 73
     1
 44
0.60024009603842
  0
ENDBLK
  5
135
330
12D
100
AcDbEntity
  8
0
100
AcDbBlockEnd
  0
BLOCK
  5
13F
330
138
100
AcDbEntity
  8
0
100
AcDbBlockBegin
  2
*D7
 70
     1
 10
0.0
 20
0.0
 30
0.0
  3
*D7
  1

  0
LINE
  5
139
330
138
100
AcDbEntity
  8
1
  6
Continuous
 62
     2
100
AcDbLine
 10
310.1334459459
 20
486.945298483748
 30
0.0
 11
81.13344594590001
 21
486.945298483748
 31
0.0
  0
LINE
  5
13A
330
138
100
AcDbEntity
  8
1
  6
Continuous
 62
     2
100
AcDbLine
 10
310.1334459459
 20
424.9919438669
 30
0.0
 11
310.1334459459
 21
488.945298483748
 31
0.0
  0
LINE
  5
13B
330
138
100
AcDbEntity
  8
1
  6
Continuous
 62
     2
100
AcDbLine
 10
81.13344594590001
 20
448.5921354295
 30
0.0
 11
81.13344594590001
 21
488.945298483748
 31
0.0
  0
SOLID
  5
13C
330
138
100
AcDbEntity
  8
1
 62
     2
100
AcDbTrace
 10
306.6334459459
 20
486.4845147421921
 30
0.0
 11
306.6334459459
 21
487.4060822253039
 31
0.0
 12
310.1334459459
 22
486.945298483748
 32
0.0
 13
310.1334459459
 23
486.945298483748
 33
0.0
  0
SOLID
  5
13D
330
138
100
AcDbEntity
  8
1
 62
     2
100
AcDbTrace
 10
84.63344594590001
 20
487.4060822253039
 30
0.0
 11
84.63344594590001
 21
486.4845147421921
 31
0.0
 12
81.13344594590001
 22
486.945298483748
 32
0.0
 13
81.13344594590001
 23
486.945298483748
 33
0.0
  0
MTEXT
  5
13E
330
138
100
AcDbEntity
  8
1
 62
     3
100
AcDbMText
 10
200.983482991806
 20
488.945298483748
 30
0.0
 40
3.5
 41
0.0
 71
     7
 72
     1
  1
\C3;\C3;\C3;229\C2;\H2.45;\S^ ;\C3;
  7
CONVERTER_11
 11
0.9999999999970619
 21
2.424068405545306E-6
 31
0.0
 73
     1
 44
0.60024009603842
  0
ENDBLK
  5
140
330
138
100
AcDbEntity
  8
0
100
AcDbBlockEnd
  0
BLOCK
  5
14A
330
143
100
AcDbEntity
  8
0
100
AcDbBlockBegin
  2
*D8
 70
     1
 10
0.0
 20
0.0
 30
0.0
  3
*D8
  1

  0
LINE
  5
144
330
143
100
AcDbEntity
  8
1
  6
Continuous
 62
     2
100
AcDbLine
 10
131.1334459459
 20
353.877595985394
 30
0.0
 11
291.1334459459
 21
353.877595985394
 31
0.0
  0
LINE
  5
145
330
143
100
AcDbEntity
  8
1
  6
Continuous
 62
     2
100
AcDbLine
 10
131.1334459459
 20
360.9919438669
 30
0.0
 11
131.1334459459
 21
351.877595985394
 31
0.0
  0
LINE
  5
146
330
143
100
AcDbEntity
  8
1
  6
Continuous
 62
     2
100
AcDbLine
 10
291.1334459459
 20
387.9919438669
 30
0.0
 11
291.1334459459
 21
351.877595985394
 31
0.0
  0
SOLID
  5
147
330
143
100
AcDbEntity
  8
1
 62
     2
100
AcDbTrace
 10
134.6334459459
 20
354.3383797269499
 30
0.0
 11
134.6334459459
 21
353.4168122438381
 31
0.0
 12
131.1334459459
 22
353.877595985394
 32
0.0
 13
131.1334459459
 23
353.877595985394
 33
0.0
  0
SOLID
  5
148
330
143
100
AcDbEntity
  8
1
 62
     2
100
AcDbTrace
 10
287.6334459459
 20
353.4168122438381
 30
0.0
 11
287.6334459459
 21
354.3383797269499
 31
0.0
 12
291.1334459459
 22
353.877595985394
 32
0.0
 13
291.1334459459
 23
353.877595985394
 33
0.0
  0
MTEXT
  5
149
330
143
100
AcDbEntity
  8
1
 62
     3
100
AcDbMText
 10
209.696107930109
 20
355.877595985394
 30
0.0
 40
3.5
 41
0.0
 71
     7
 72
     1
  1
\C3;\C3;\C3;160\C2;\H2.45;\S^ ;\C3;
  7
CONVERTER_11
 11
0.9999999999970619
 21
2.424068405545306E-6
 31
0.0
 73
     1
 44
0.60024009603842
  0
ENDBLK
  5
14B
330
143
100
AcDbEntity
  8
0
100
AcDbBlockEnd
  0
BLOCK
  5
152
330
14E
100
AcDbEntity
  8
0
100
AcDbBlockBegin
  2
*D9
 70
     1
 10
0.0
 20
0.0
 30
0.0
  3
*D9
  1

  0
LINE
  5
14F
330
14E
100
AcDbEntity
  8
1
  6
Continuous
 62
     2
100
AcDbLine
 10
175.7311493838353
 20
455.0325841205157
 30
0.0
 11
162.4548692172622
 21
446.9763106556364
 31
0.0
  0
SOLID
  5
150
330
14E
100
AcDbEntity
  8
1
 62
     2
100
AcDbTrace
 10
165.2080149671754
 20
449.1859509286712
 30
0.0
 11
165.6861007861283
 21
448.3980927081485
 31
0.0
 12
162.4548692172622
 22
446.9763106556364
 32
0.0
 13
162.4548692172622
 23
446.9763106556364
 33
0.0
  0
MTEXT
  5
151
330
14E
100
AcDbEntity
  8
1
 62
     3
100
AcDbMText
 10
166.9139096335516
 20
452.0215571883847
 30
0.0
 40
3.5
 41
0.0
 71
     7
 72
     1
  1
\C3; R\C3;\C3;16\C2;\H2.45;\S^ ;\C3;
  7
CONVERTER_11
 11
0.8549110455399042
 21
0.5187746179352535
 31
0.0
 73
     1
 44
0.60024009603842
  0
ENDBLK
  5
153
330
14E
100
AcDbEntity
  8
0
100
AcDbBlockEnd
  0
ENDSEC
  0
SECTION
  2
ENTITIES
  0
INSERT
  5
6B
330
1F
100
AcDbEntity
  8
0
100
AcDbBlockReference
  2
Urheberrecht_DE-EN
 10
68.1901526094321
 20
419.832892006317
 30
0.0
  0
LINE
  5
6F
330
1F
100
AcDbEntity
  8
BEZUGSACHSEN
  6
Continuous
 62
     7
100
AcDbLine
 10
81.1334459459
 20
379.391752304
 30
0.0
 11
81.1334459459
 21
400.9819438669
 31
0.0
  0
LINE
  5
70
330
1F
100
AcDbEntity
  8
BEZUGSACHSEN
  6
Continuous
 62
     7
100
AcDbLine
 10
81.1334459459
 20
425.0019438669
 30
0.0
 11
81.1334459459
 21
446.5921354295
 31
0.0
  0
LINE
  5
71
330
1F
100
AcDbEntity
  8
BEZUGSACHSEN
  6
Continuous
 62
     9
100
AcDbLine
 10
83.0333714612
 20
448.5896301353
 30
0.0
 11
83.0333714612
 21
428.6684762532
 31
0.0
  0
LINE
  5
72
330
1F
100
AcDbEntity
  8
BEZUGSACHSEN
  6
Continuous
 62
     9
100
AcDbLine
 10
83.0333714612
 20
397.3154114807
 30
0.0
 11
83.0333714612
 21
377.3942575986
 31
0.0
  0
LINE
  5
73
330
1F
100
AcDbEntity
  8
BEZUGSACHSEN
  6
Continuous
 62
     7
100
AcDbLine
 10
83.1334459459
 20
400.5883039186
 30
0.0
 11
83.1334459459
 21
402.9819438669
 31
0.0
  0
LINE
  5
74
330
1F
100
AcDbEntity
  8
BEZUGSACHSEN
  6
Continuous
 62
     7
100
AcDbLine
 10
83.1334459459
 20
423.0019438669
 30
0.0
 11
83.1334459459
 21
425.3955838153
 31
0.0
  0
LINE
  5
75
330
1F
100
AcDbEntity
  8
BEZUGSACHSEN
  6
Continuous
 62
     9
100
AcDbLine
 10
89.1334459459
 20
396.6332962795
 30
0.0
 11
89.1334459459
 21
402.9819438669
 31
0.0
  0
LINE
  5
76
330
1F
100
AcDbEntity
  8
BEZUGSACHSEN
  6
Continuous
 62
     9
100
AcDbLine
 10
89.1334459459
 20
423.0019438669
 30
0.0
 11
89.1334459459
 21
429.3505914544
 31
0.0
  0
LINE
  5
77
330
1F
100
AcDbEntity
  8
BEZUGSACHSEN
  6
Continuous
 62
     7
100
AcDbLine
 10
91.1334459459
 20
425.8615993927
 30
0.0
 11
91.1334459459
 21
400.1222883412
 31
0.0
  0
LINE
  5
78
330
1F
100
AcDbEntity
  8
BEZUGSACHSEN
  6
Continuous
 62
     7
100
AcDbLine
 10
82.400398873
 20
397.9819438669
 30
0.0
 11
82.2792886215
 21
397.7496078715
 31
0.0
  0
LINE
  5
79
330
1F
100
AcDbEntity
  8
BEZUGSACHSEN
  6
Continuous
 62
     7
100
AcDbLine
 10
82.2792886215
 20
428.2342798624
 30
0.0
 11
82.400398873
 21
428.0019438669
 31
0.0
  0
LWPOLYLINE
  5
7A
330
1F
100
AcDbEntity
  8
BEZUGSACHSEN
  6
DOT_CENTER
 62
     7
100
AcDbPolyline
 90
        2
 70
     0
 43
0.25
 10
116.1334459459
 20
412.9919438669
 10
116.1334459459
 20
403.9919438669
  0
LWPOLYLINE
  5
7B
330
1F
100
AcDbEntity
  8
BEZUGSACHSEN
  6
DOT_CENTER
 62
     7
100
AcDbPolyline
 90
        2
 70
     0
 43
0.25
 10
116.1334459459
 20
412.9919438669
 10
116.1334459459
 20
421.9919438669
  0
LINE
  5
7C
330
1F
100
AcDbEntity
  8
BEZUGSACHSEN
  6
Continuous
 62
     7
100
AcDbLine
 10
128.6334459459
 20
450.8741938669
 30
0.0
 11
128.6334459459
 21
375.1096938669
 31
0.0
  0
LINE
  5
7D
330
1F
100
AcDbEntity
  8
BEZUGSACHSEN
  6
Continuous
 62
     9
100
AcDbLine
 10
129.2526895599
 20
375.2756196932
 30
0.0
 11
129.2526895599
 21
450.7082680407
 31
0.0
  0
LINE
  5
7E
330
1F
100
AcDbEntity
  8
BEZUGSACHSEN
  6
Continuous
 62
     9
100
AcDbLine
 10
129.511508605
 20
375.3096938669
 30
0.0
 11
129.511508605
 21
450.6741938669
 31
0.0
  0
LINE
  5
7F
330
1F
100
AcDbEntity
  8
BEZUGSACHSEN
  6
Continuous
 62
     7
100
AcDbLine
 10
81.1334459459
 20
400.9819438669
 30
0.0
 11
83.1334459459
 21
402.9819438669
 31
0.0
  0
LINE
  5
80
330
1F
100
AcDbEntity
  8
BEZUGSACHSEN
  6
Continuous
 62
     7
100
AcDbLine
 10
83.1334459459
 20
423.0019438669
 30
0.0
 11
81.1334459459
 21
425.0019438669
 31
0.0
  0
LINE
  5
81
330
1F
100
AcDbEntity
  8
BEZUGSACHSEN
  6
Continuous
 62
     9
100
AcDbLine
 10
130.4328746573
 20
375.3096938669
 30
0.0
 11
130.4328746573
 21
450.6741938669
 31
0.0
  0
LINE
  5
82
330
1F
100
AcDbEntity
  8
BEZUGSACHSEN
  6
Continuous
 62
     7
100
AcDbLine
 10
131.1334459459
 20
462.9919438669
 30
0.0
 11
131.1334459459
 21
362.9919438669
 31
0.0
  0
LWPOLYLINE
  5
83
330
1F
100
AcDbEntity
  8
BEZUGSACHSEN
  6
DOT_CENTER
 62
     7
100
AcDbPolyline
 90
        2
 70
     0
 43
0.25
 10
138.1334459459
 20
455.1413157223
 10
138.1334459459
 20
465.9919438669
  0
LINE
  5
84
330
1F
100
AcDbEntity
  8
BEZUGSACHSEN
  6
Continuous
 62
     7
100
AcDbLine
 10
153.0084459459
 20
460.6145391311
 30
0.0
 11
154.3810412101
 21
462.9919438669
 31
0.0
  0
LINE
  5
85
330
1F
100
AcDbEntity
  8
BEZUGSACHSEN
  6
Continuous
 62
     7
100
AcDbLine
 10
153.0084459459
 20
365.3693486028
 30
0.0
 11
154.3810412101
 21
362.9919438669
 31
0.0
  0
LINE
  5
86
330
1F
100
AcDbEntity
  8
FASEN
  6
Continuous
 62
     9
100
AcDbLine
 10
144.1053198678
 20
381.0919438669
 30
0.0
 11
144.1053198678
 21
381.4919438669
 31
0.0
  0
LINE
  5
87
330
1F
100
AcDbEntity
  8
FASEN
  6
Continuous
 62
     9
100
AcDbLine
 10
146.1334459459
 20
403.3919438669
 30
0.0
 11
146.1334459459
 21
402.9919438669
 31
0.0
  0
LINE
  5
88
330
1F
100
AcDbEntity
  8
FASEN
  6
Continuous
 62
     9
100
AcDbLine
 10
146.1334459459
 20
422.5919438669
 30
0.0
 11
146.1334459459
 21
422.9919438669
 31
0.0
  0
LINE
  5
89
330
1F
100
AcDbEntity
  8
BEZUGSACHSEN
  6
Continuous
 62
     7
100
AcDbLine
 10
147.8858506818
 20
362.9919438669
 30
0.0
 11
131.1334459459
 21
362.9919438669
 31
0.0
  0
LINE
  5
8A
330
1F
100
AcDbEntity
  8
BEZUGSACHSEN
  6
Continuous
 62
     7
100
AcDbLine
 10
154.3810412101
 20
362.9919438669
 30
0.0
 11
160.1334459459
 21
362.9919438669
 31
0.0
  0
LINE
  5
8B
330
1F
100
AcDbEntity
  8
0
  6
Continuous
 62
     7
100
AcDbLine
 10
147.8858506818
 20
462.9919438669
 30
0.0
 11
147.8858506818
 21
422.9919438669
 31
0.0
  0
LINE
  5
8C
330
1F
100
AcDbEntity
  8
0
  6
Continuous
 62
     7
100
AcDbLine
 10
147.8858506818
 20
402.9919438669
 30
0.0
 11
147.8858506818
 21
381.4919438669
 31
0.0
  0
LINE
  5
8D
330
1F
100
AcDbEntity
  8
0
  6
Continuous
 62
     7
100
AcDbLine
 10
147.8858506818
 20
374.1621872362
 30
0.0
 11
147.8858506818
 21
362.9919438669
 31
0.0
  0
LINE
  5
8E
330
1F
100
AcDbEntity
  8
0
  6
Continuous
 62
     7
100
AcDbLine
 10
149.2584459459
 20
460.6145057046
 30
0.0
 11
149.2584459459
 21
422.9919438669
 31
0.0
  0
LINE
  5
8F
330
1F
100
AcDbEntity
  8
0
  6
Continuous
 62
     7
100
AcDbLine
 10
149.2584459459
 20
402.9919438669
 30
0.0
 11
149.2584459459
 21
381.4919438669
 31
0.0
  0
LINE
  5
90
330
1F
100
AcDbEntity
  8
0
  6
Continuous
 62
     7
100
AcDbLine
 10
149.2584459459
 20
365.3693861367
 30
0.0
 11
149.2584459459
 21
378.1100001138
 31
0.0
  0
LINE
  5
91
330
1F
100
AcDbEntity
  8
0
  6
Continuous
 62
     9
100
AcDbLine
 10
150.2584459459
 20
366.9919438669
 30
0.0
 11
150.2584459459
 21
379.4695632832
 31
0.0
  0
LINE
  5
92
330
1F
100
AcDbEntity
  8
0
  6
Continuous
 62
     9
100
AcDbLine
 10
150.2584459459
 20
381.4919438669
 30
0.0
 11
150.2584459459
 21
402.9919438669
 31
0.0
  0
LINE
  5
93
330
1F
100
AcDbEntity
  8
0
  6
Continuous
 62
     9
100
AcDbLine
 10
150.2584459459
 20
422.9919438669
 30
0.0
 11
150.2584459459
 21
458.9919438669
 31
0.0
  0
LINE
  5
94
330
1F
100
AcDbEntity
  8
0
  6
Continuous
 62
     9
100
AcDbLine
 10
152.0084459459
 20
366.9919438669
 30
0.0
 11
152.0084459459
 21
379.4695632832
 31
0.0
  0
LINE
  5
95
330
1F
100
AcDbEntity
  8
0
  6
Continuous
 62
     9
100
AcDbLine
 10
152.0084459459
 20
381.4919438669
 30
0.0
 11
152.0084459459
 21
402.9919438669
 31
0.0
  0
LINE
  5
96
330
1F
100
AcDbEntity
  8
0
  6
Continuous
 62
     9
100
AcDbLine
 10
152.0084459459
 20
422.9919438669
 30
0.0
 11
152.0084459459
 21
458.9919438669
 31
0.0
  0
LINE
  5
97
330
1F
100
AcDbEntity
  8
0
  6
Continuous
 62
     7
100
AcDbLine
 10
153.0084459459
 20
365.3693861367
 30
0.0
 11
153.0084459459
 21
378.1100001138
 31
0.0
  0
LINE
  5
98
330
1F
100
AcDbEntity
  8
0
  6
Continuous
 62
     7
100
AcDbLine
 10
153.0084459459
 20
381.4919438669
 30
0.0
 11
153.0084459459
 21
402.9919438669
 31
0.0
  0
LINE
  5
99
330
1F
100
AcDbEntity
  8
0
  6
Continuous
 62
     7
100
AcDbLine
 10
153.0084459459
 20
422.9919438669
 30
0.0
 11
153.0084459459
 21
460.6145057046
 31
0.0
  0
LINE
  5
9A
330
1F
100
AcDbEntity
  8
0
  6
Continuous
 62
     7
100
AcDbLine
 10
154.3810412101
 20
462.9919438669
 30
0.0
 11
154.3810412101
 21
422.9919438669
 31
0.0
  0
LINE
  5
9B
330
1F
100
AcDbEntity
  8
0
  6
Continuous
 62
     7
100
AcDbLine
 10
154.3810412101
 20
402.9919438669
 30
0.0
 11
154.3810412101
 21
381.4919438669
 31
0.0
  0
LINE
  5
9C
330
1F
100
AcDbEntity
  8
0
  6
Continuous
 62
     7
100
AcDbLine
 10
154.3810412101
 20
374.1621872362
 30
0.0
 11
154.3810412101
 21
362.9919438669
 31
0.0
  0
LINE
  5
9D
330
1F
100
AcDbEntity
  8
BEZUGSACHSEN
  6
Continuous
 62
     9
100
AcDbLine
 10
81.1334459459
 20
399.5457598979
 30
0.0
 11
83.1334459459
 21
400.5883039186
 31
0.0
  0
LINE
  5
9E
330
1F
100
AcDbEntity
  8
BEZUGSACHSEN
  6
Continuous
 62
     7
100
AcDbLine
 10
150.2584459459
 20
366.9919438669
 30
0.0
 11
152.0084459459
 21
366.9919438669
 31
0.0
  0
LINE
  5
9F
330
1F
100
AcDbEntity
  8
BEZUGSACHSEN
  6
Continuous
 62
     7
100
AcDbLine
 10
128.6334459459
 20
375.1096938669
 30
0.0
 11
83.0333714612
 21
377.3942575986
 31
0.0
  0
LINE
  5
A0
330
1F
100
AcDbEntity
  8
BEZUGSACHSEN
  6
Continuous
 62
     9
100
AcDbLine
 10
83.1334459459
 20
425.3955838153
 30
0.0
 11
81.1334459459
 21
426.438127836
 31
0.0
  0
LINE
  5
A1
330
1F
100
AcDbEntity
  8
0
  6
Continuous
 62
     7
100
AcDbLine
 10
160.1334459459
 20
462.9919069458
 30
0.0
 11
160.1334459459
 21
422.9919438669
 31
0.0
  0
LINE
  5
A2
330
1F
100
AcDbEntity
  8
0
  6
Continuous
 62
     7
100
AcDbLine
 10
160.1334459459
 20
402.9919438669
 30
0.0
 11
160.1334459459
 21
381.4919438669
 31
0.0
  0
LINE
  5
A3
330
1F
100
AcDbEntity
  8
0
  6
Continuous
 62
     7
100
AcDbLine
 10
160.1334459459
 20
374.1621872362
 30
0.0
 11
160.1334459459
 21
362.9919457347
 31
0.0
  0
LINE
  5
A4
330
1F
100
AcDbEntity
  8
FASEN
  6
Continuous
 62
     7
100
AcDbLine
 10
160.1334459459
 20
374.1621872362
 30
0.0
 11
160.1334459459
 21
381.4919438669
 31
0.0
  0
LINE
  5
A5
330
1F
100
AcDbEntity
  8
FASEN
  6
Continuous
 62
     7
100
AcDbLine
 10
160.1334459459
 20
402.9919438669
 30
0.0
 11
160.1334459459
 21
422.9919438669
 31
0.0
  0
LINE
  5
A6
330
1F
100
AcDbEntity
  8
FASEN
  6
Continuous
 62
     7
100
AcDbLine
 10
136.5349319104
 20
374.1621872362
 30
0.0
 11
147.8858506818
 21
374.1621872362
 31
0.0
  0
LINE
  5
A7
330
1F
100
AcDbEntity
  8
0
  6
Continuous
 62
     7
100
AcDbLine
 10
154.3810412101
 20
374.1621872362
 30
0.0
 11
160.1334459459
 21
374.1621872362
 31
0.0
  0
LINE
  5
A8
330
1F
100
AcDbEntity
  8
BEZUGSACHSEN
  6
Continuous
 62
     7
100
AcDbLine
 10
130.4328746573
 20
375.3096938669
 30
0.0
 11
129.511508605
 21
375.3096938669
 31
0.0
  0
LINE
  5
A9
330
1F
100
AcDbEntity
  8
0
  6
Continuous
 62
     7
100
AcDbLine
 10
150.2584459459
 20
379.4695632832
 30
0.0
 11
152.0084459459
 21
379.4695632832
 31
0.0
  0
LINE
  5
AA
330
1F
100
AcDbEntity
  8
FASEN
  6
Continuous
 62
     7
100
AcDbLine
 10
144.1053198678
 20
381.0919438669
 30
0.0
 11
160.1334459459
 21
381.0919438669
 31
0.0
  0
LINE
  5
AB
330
1F
100
AcDbEntity
  8
0
  6
Continuous
 62
     7
100
AcDbLine
 10
144.1053198678
 20
381.4919438669
 30
0.0
 11
160.1334459459
 21
381.4919438669
 31
0.0
  0
LINE
  5
AC
330
1F
100
AcDbEntity
  8
0
  6
Continuous
 62
     7
100
AcDbLine
 10
215.1334459459
 20
388.9919438669
 30
0.0
 11
290.1334459459
 21
388.9919438669
 31
0.0
  0
LINE
  5
AD
330
1F
100
AcDbEntity
  8
RUNDUNGEN
  6
Continuous
 62
     9
100
AcDbLine
 10
174.2651824729
 20
439.3861541558
 30
0.0
 11
174.2651824729
 21
386.5977335781
 31
0.0
  0
LINE
  5
AE
330
1F
100
AcDbEntity
  8
BEZUGSACHSEN
  6
Continuous
 62
     7
100
AcDbLine
 10
147.8858506818
 20
362.9919438669
 30
0.0
 11
149.2584459459
 21
365.3693486028
 31
0.0
  0
LINE
  5
AF
330
1F
100
AcDbEntity
  8
BEZUGSACHSEN
  6
Continuous
 62
     7
100
AcDbLine
 10
129.2526895599
 20
375.2756196932
 30
0.0
 11
128.6334459459
 21
375.1096938669
 31
0.0
  0
LINE
  5
B0
330
1F
100
AcDbEntity
  8
0
  6
Continuous
 62
     7
100
AcDbLine
 10
291.1334459459
 20
390.9919438669
 30
0.0
 11
296.7334459459
 21
390.9919438669
 31
0.0
  0
LINE
  5
B1
330
1F
100
AcDbEntity
  8
BEZUGSACHSEN
  6
Continuous
 62
     7
100
AcDbLine
 10
147.8858506818
 20
462.9919438669
 30
0.0
 11
149.2584459459
 21
460.6145391311
 31
0.0
  0
LINE
  5
B2
330
1F
100
AcDbEntity
  8
BEZUGSACHSEN
  6
Continuous
 62
     9
100
AcDbLine
 10
90.6872918928
 20
397.9819438669
 30
0.0
 11
82.400398873
 21
397.9819438669
 31
0.0
  0
LINE
  5
B3
330
1F
100
AcDbEntity
  8
0
  6
Continuous
 62
     7
100
AcDbLine
 10
291.1334459459
 20
400.9919438669
 30
0.0
 11
296.7334459459
 21
400.9919438669
 31
0.0
  0
LINE
  5
B4
330
1F
100
AcDbEntity
  8
RUNDUNGEN
  6
Continuous
 62
     7
100
AcDbLine
 10
309.1334459459
 20
401.9919438669
 30
0.0
 11
291.1334459459
 21
401.9919438669
 31
0.0
  0
LINE
  5
B5
330
1F
100
AcDbEntity
  8
0
  6
Continuous
 62
     7
100
AcDbLine
 10
291.1334459459
 20
401.9919438669
 30
0.0
 11
309.1334459459
 21
401.9919438669
 31
0.0
  0
LINE
  5
B6
330
1F
100
AcDbEntity
  8
BEZUGSACHSEN
  6
Continuous
 62
     7
100
AcDbLine
 10
89.1334459459
 20
402.9819438669
 30
0.0
 11
83.1334459459
 21
402.9819438669
 31
0.0
  0
LINE
  5
B7
330
1F
100
AcDbEntity
  8
0
  6
Continuous
 62
     7
100
AcDbLine
 10
146.1334459459
 20
402.9919438669
 30
0.0
 11
160.1334459459
 21
402.9919438669
 31
0.0
  0
LINE
  5
B8
330
1F
100
AcDbEntity
  8
FASEN
  6
Continuous
 62
     7
100
AcDbLine
 10
160.1334459459
 20
403.3919438669
 30
0.0
 11
146.1334459459
 21
403.3919438669
 31
0.0
  0
LWPOLYLINE
  5
B9
330
1F
100
AcDbEntity
  8
BEZUGSACHSEN
  6
DOT_CENTER
 62
     7
100
AcDbPolyline
 90
        2
 70
     0
 43
0.25
 10
313.1334459459
 20
412.9919438669
 10
78.1334459459
 20
412.9919438669
  0
LINE
  5
BA
330
1F
100
AcDbEntity
  8
FASEN
  6
Continuous
 62
     7
100
AcDbLine
 10
146.1334459459
 20
422.5919438669
 30
0.0
 11
160.1334459459
 21
422.5919438669
 31
0.0
  0
LINE
  5
BB
330
1F
100
AcDbEntity
  8
0
  6
Continuous
 62
     7
100
AcDbLine
 10
146.1334459459
 20
422.9919438669
 30
0.0
 11
160.1334459459
 21
422.9919438669
 31
0.0
  0
LINE
  5
BC
330
1F
100
AcDbEntity
  8
BEZUGSACHSEN
  6
Continuous
 62
     7
100
AcDbLine
 10
89.1334459459
 20
423.0019438669
 30
0.0
 11
83.1334459459
 21
423.0019438669
 31
0.0
  0
LINE
  5
BD
330
1F
100
AcDbEntity
  8
RUNDUNGEN
  6
Continuous
 62
     7
100
AcDbLine
 10
309.1334459459
 20
423.9919438669
 30
0.0
 11
291.1334459459
 21
423.9919438669
 31
0.0
  0
LINE
  5
BE
330
1F
100
AcDbEntity
  8
0
  6
Continuous
 62
     7
100
AcDbLine
 10
291.1334459459
 20
423.9919438669
 30
0.0
 11
309.1334459459
 21
423.9919438669
 31
0.0
  0
LINE
  5
BF
330
1F
100
AcDbEntity
  8
0
  6
Continuous
 62
     7
100
AcDbLine
 10
291.1334459459
 20
424.9919438669
 30
0.0
 11
296.7334459459
 21
424.9919438669
 31
0.0
  0
LINE
  5
C0
330
1F
100
AcDbEntity
  8
BEZUGSACHSEN
  6
Continuous
 62
     9
100
AcDbLine
 10
82.400398873
 20
428.0019438669
 30
0.0
 11
90.6872918928
 21
428.0019438669
 31
0.0
  0
LINE
  5
C1
330
1F
100
AcDbEntity
  8
0
  6
Continuous
 62
     9
100
AcDbLine
 10
215.1334459459
 20
436.9919438669
 30
0.0
 11
215.1334459459
 21
388.9919438669
 31
0.0
  0
LINE
  5
C2
330
1F
100
AcDbEntity
  8
0
  6
Continuous
 62
     7
100
AcDbLine
 10
291.1334459459
 20
434.9919438669
 30
0.0
 11
296.7334459459
 21
434.9919438669
 31
0.0
  0
LINE
  5
C3
330
1F
100
AcDbEntity
  8
0
  6
Continuous
 62
     7
100
AcDbLine
 10
290.1334459459
 20
436.9919438669
 30
0.0
 11
215.1334459459
 21
436.9919438669
 31
0.0
  0
LINE
  5
C4
330
1F
100
AcDbEntity
  8
BEZUGSACHSEN
  6
Continuous
 62
     7
100
AcDbLine
 10
129.2526895599
 20
450.7082680407
 30
0.0
 11
128.6334459459
 21
450.8741938669
 31
0.0
  0
LINE
  5
C5
330
1F
100
AcDbEntity
  8
BEZUGSACHSEN
  6
Continuous
 62
     7
100
AcDbLine
 10
128.6334459459
 20
450.8741938669
 30
0.0
 11
83.0333714612
 21
448.5896301353
 31
0.0
  0
LINE
  5
C6
330
1F
100
AcDbEntity
  8
BEZUGSACHSEN
  6
Continuous
 62
     7
100
AcDbLine
 10
130.4328746573
 20
450.6741938669
 30
0.0
 11
129.511508605
 21
450.6741938669
 31
0.0
  0
LINE
  5
C7
330
1F
100
AcDbEntity
  8
BEZUGSACHSEN
  6
Continuous
 62
     7
100
AcDbLine
 10
150.2584459459
 20
458.9919438669
 30
0.0
 11
152.0084459459
 21
458.9919438669
 31
0.0
  0
LINE
  5
C8
330
1F
100
AcDbEntity
  8
BEZUGSACHSEN
  6
Continuous
 62
     7
100
AcDbLine
 10
147.8858506818
 20
462.9919438669
 30
0.0
 11
143.1334459459
 21
462.9919438669
 31
0.0
  0
LINE
  5
C9
330
1F
100
AcDbEntity
  8
BEZUGSACHSEN
  6
Continuous
 62
     7
100
AcDbLine
 10
133.1334459459
 20
462.9919438669
 30
0.0
 11
131.1334459459
 21
462.9919438669
 31
0.0
  0
LINE
  5
CA
330
1F
100
AcDbEntity
  8
BEZUGSACHSEN
  6
Continuous
 62
     7
100
AcDbLine
 10
154.3810412101
 20
462.9919438669
 30
0.0
 11
160.1334459459
 21
462.9919438669
 31
0.0
  0
LINE
  5
CB
330
1F
100
AcDbEntity
  8
RUNDUNGEN
  6
Continuous
 62
     9
100
AcDbLine
 10
290.1334459459
 20
388.9919438669
 30
0.0
 11
290.1334459459
 21
436.9919438669
 31
0.0
  0
LINE
  5
CC
330
1F
100
AcDbEntity
  8
RUNDUNGEN
  6
Continuous
 62
     7
100
AcDbLine
 10
291.1334459459
 20
389.9919438669
 30
0.0
 11
291.1334459459
 21
435.9919438669
 31
0.0
  0
LINE
  5
CD
330
1F
100
AcDbEntity
  8
0
  6
Continuous
 62
     7
100
AcDbLine
 10
296.7334459459
 20
434.9919438669
 30
0.0
 11
296.7334459459
 21
424.9919438669
 31
0.0
  0
LINE
  5
CE
330
1F
100
AcDbEntity
  8
0
  6
Continuous
 62
     7
100
AcDbLine
 10
296.7334459459
 20
400.9919438669
 30
0.0
 11
296.7334459459
 21
390.9919438669
 31
0.0
  0
LINE
  5
CF
330
1F
100
AcDbEntity
  8
RUNDUNGEN
  6
Continuous
 62
     9
100
AcDbLine
 10
309.1334459459
 20
401.9919438669
 30
0.0
 11
309.1334459459
 21
423.9919438669
 31
0.0
  0
LINE
  5
D0
330
1F
100
AcDbEntity
  8
RUNDUNGEN
  6
Continuous
 62
     7
100
AcDbLine
 10
310.1334459459
 20
402.9919438669
 30
0.0
 11
310.1334459459
 21
422.9919438669
 31
0.0
  0
ARC
  5
D1
330
1F
100
AcDbEntity
  8
FASEN
  6
Continuous
 62
     7
100
AcDbCircle
 10
149.0340999691
 20
388.5232071373
 30
0.0
 40
19.03859487349984
100
AcDbArc
 50
227.4837701982991
 51
228.9651953376382
  0
ARC
  5
D2
330
1F
100
AcDbEntity
  8
FASEN
  6
Continuous
 62
     7
100
AcDbCircle
 10
144.1053198678
 20
373.4919438669
 30
0.0
 40
8.0
100
AcDbArc
 50
90.0
 51
172.8323734889967
  0
ARC
  5
D3
330
1F
100
AcDbEntity
  8
FASEN
  6
Continuous
 62
     7
100
AcDbCircle
 10
144.1053198678
 20
373.4919438669
 30
0.0
 40
7.599982194900008
100
AcDbArc
 50
90.0
 51
174.9405171273009
  0
ARC
  5
D4
330
1F
100
AcDbEntity
  8
BEZUGSACHSEN
  6
Continuous
 62
     7
100
AcDbCircle
 10
89.1334459459
 20
404.9819438669
 30
0.0
 40
2.0
100
AcDbArc
 50
270.0
 51
359.9999999999137
  0
ARC
  5
D5
330
1F
100
AcDbEntity
  8
BEZUGSACHSEN
  6
Continuous
 62
     7
100
AcDbCircle
 10
83.1334459459
 20
379.3917523039
 30
0.0
 40
2.0
100
AcDbArc
 50
179.9999999971339
 51
267.1318795137022
  0
ARC
  5
D6
330
1F
100
AcDbEntity
  8
BEZUGSACHSEN
  6
Continuous
 62
     7
100
AcDbCircle
 10
150.2584459459
 20
365.9919438669
 30
0.0
 40
1.0
100
AcDbArc
 50
90.0
 51
180.0
  0
ARC
  5
D7
330
1F
100
AcDbEntity
  8
BEZUGSACHSEN
  6
Continuous
 62
     7
100
AcDbCircle
 10
129.511508605
 20
374.3096938669
 30
0.0
 40
1.0
100
AcDbArc
 50
90.0
 51
104.9999999996973
  0
ARC
  5
D8
330
1F
100
AcDbEntity
  8
BEZUGSACHSEN
  6
Continuous
 62
     7
100
AcDbCircle
 10
130.4328746573
 20
374.3096938669
 30
0.0
 40
0.9999999999996733
100
AcDbArc
 50
45.49026120129501
 51
90.0
  0
ARC
  5
D9
330
1F
100
AcDbEntity
  8
0
  6
Continuous
 62
     7
100
AcDbCircle
 10
-93.4643339378
 20
482.4264114578
 30
0.0
 40
264.52042239158
100
AcDbArc
 50
335.8400764706154
 51
336.5770705491001
  0
ARC
  5
DA
330
1F
100
AcDbEntity
  8
BEZUGSACHSEN
  6
Continuous
 62
     7
100
AcDbCircle
 10
138.1486539571
 20
513.0447136337
 30
0.0
 40
50.30340021036245
100
AcDbArc
 50
264.2781515100766
 51
269.9826780126003
  0
ARC
  5
DB
330
1F
100
AcDbEntity
  8
BEZUGSACHSEN
  6
Continuous
 62
     7
100
AcDbCircle
 10
138.1182379449
 20
513.044713433
 30
0.0
 40
50.30340000969736
100
AcDbArc
 50
270.0173219760583
 51
275.7218485011545
  0
ARC
  5
DC
330
1F
100
AcDbEntity
  8
0
  6
Continuous
 62
     7
100
AcDbCircle
 10
146.1334459459
 20
412.9919438669
 30
0.0
 40
10.0
100
AcDbArc
 50
90.0
 51
270.0
  0
ARC
  5
DD
330
1F
100
AcDbEntity
  8
FASEN
  6
Continuous
 62
     7
100
AcDbCircle
 10
146.1334459459
 20
412.9919438669
 30
0.0
 40
9.599999195900011
100
AcDbArc
 50
90.0
 51
270.0
  0
ARC
  5
DE
330
1F
100
AcDbEntity
  8
BEZUGSACHSEN
  6
Continuous
 62
     7
100
AcDbCircle
 10
89.1334459459
 20
421.0019438669
 30
0.0
 40
2.0
100
AcDbArc
 50
0.0
 51
90.0
  0
ARC
  5
DF
330
1F
100
AcDbEntity
  8
BEZUGSACHSEN
  6
Continuous
 62
     7
100
AcDbCircle
 10
83.1334459459
 20
446.59213543
 30
0.0
 40
2.000000000047403
100
AcDbArc
 50
92.86812048629778
 51
180.0000000143238
  0
ARC
  5
E0
330
1F
100
AcDbEntity
  8
BEZUGSACHSEN
  6
Continuous
 62
     7
100
AcDbCircle
 10
150.2584459459
 20
459.9919438669
 30
0.0
 40
1.0
100
AcDbArc
 50
180.0
 51
270.0
  0
ARC
  5
E1
330
1F
100
AcDbEntity
  8
BEZUGSACHSEN
  6
Continuous
 62
     7
100
AcDbCircle
 10
129.511508605
 20
451.6741938669
 30
0.0
 40
0.9999999999133299
100
AcDbArc
 50
254.9999999988199
 51
270.0
  0
ARC
  5
E2
330
1F
100
AcDbEntity
  8
BEZUGSACHSEN
  6
Continuous
 62
     7
100
AcDbCircle
 10
130.4328746573
 20
451.6741938669
 30
0.0
 40
1.0
100
AcDbArc
 50
270.0
 51
314.509738798705
  0
ARC
  5
E3
330
1F
100
AcDbEntity
  8
BEZUGSACHSEN
  6
Continuous
 62
     7
100
AcDbCircle
 10
267.4634925477
 20
-1193.0508154547
 30
0.0
 40
1632.1727637299
100
AcDbArc
 50
96.2726189838
 51
96.48809068979999
  0
ARC
  5
E4
330
1F
100
AcDbEntity
  8
0
  6
Continuous
 62
     7
100
AcDbCircle
 10
215.1334459459
 20
38.9919438669
 30
0.0
 40
350.0
100
AcDbArc
 50
90.0
 51
96.70552267035848
  0
ARC
  5
E5
330
1F
100
AcDbEntity
  8
RUNDUNGEN
  6
Continuous
 62
     7
100
AcDbCircle
 10
215.1334459459
 20
38.9919438669
 30
0.0
 40
350.0
100
AcDbArc
 50
90.0
 51
96.70552267035848
  0
ARC
  5
E6
330
1F
100
AcDbEntity
  8
RUNDUNGEN
  6
Continuous
 62
     7
100
AcDbCircle
 10
176.1334459459
 20
370.7071831913
 30
0.0
 40
15.99999999999928
100
AcDbArc
 50
96.70552267017464
 51
180.0
  0
ARC
  5
E7
330
1F
100
AcDbEntity
  8
RUNDUNGEN
  6
Continuous
 62
     7
100
AcDbCircle
 10
290.1334459459
 20
389.9919438669
 30
0.0
 40
1.0
100
AcDbArc
 50
270.0
 51
0.0
  0
ARC
  5
E8
330
1F
100
AcDbEntity
  8
BEZUGSACHSEN
  6
Continuous
 62
     7
100
AcDbCircle
 10
152.0084459459
 20
365.9919438669
 30
0.0
 40
1.0
100
AcDbArc
 50
0.0
 51
90.0
  0
ARC
  5
E9
330
1F
100
AcDbEntity
  8
RUNDUNGEN
  6
Continuous
 62
     7
100
AcDbCircle
 10
309.1334459459
 20
402.9919438669
 30
0.0
 40
1.0
100
AcDbArc
 50
270.0
 51
0.0
  0
ARC
  5
EA
330
1F
100
AcDbEntity
  8
BEZUGSACHSEN
  6
Continuous
 62
     7
100
AcDbCircle
 10
267.4634925478
 20
2019.0347031891
 30
0.0
 40
1632.172763730299
100
AcDbArc
 50
263.5119093102
 51
263.7273810162
  0
ARC
  5
EB
330
1F
100
AcDbEntity
  8
0
  6
Continuous
 62
     7
100
AcDbCircle
 10
215.1334459459
 20
786.9919438669
 30
0.0
 40
349.9999999999657
100
AcDbArc
 50
263.2944773296396
 51
270.0
  0
ARC
  5
EC
330
1F
100
AcDbEntity
  8
RUNDUNGEN
  6
Continuous
 62
     7
100
AcDbCircle
 10
215.1334459459
 20
786.9919438669
 30
0.0
 40
349.9999999999657
100
AcDbArc
 50
263.2944773296396
 51
270.0
  0
ARC
  5
ED
330
1F
100
AcDbEntity
  8
0
  6
Continuous
 62
     7
100
AcDbCircle
 10
395.7312258306
 20
482.4264114583
 30
0.0
 40
264.5204223925998
100
AcDbArc
 50
203.4229294508999
 51
204.1599235294036
  0
ARC
  5
EE
330
1F
100
AcDbEntity
  8
RUNDUNGEN
  6
Continuous
 62
     7
100
AcDbCircle
 10
176.1334459459
 20
455.2767045426
 30
0.0
 40
16.0
100
AcDbArc
 50
180.0
 51
263.2944773298253
  0
ARC
  5
EF
330
1F
100
AcDbEntity
  8
BEZUGSACHSEN
  6
Continuous
 62
     7
100
AcDbCircle
 10
152.0084459459
 20
459.9919438669
 30
0.0
 40
1.0
100
AcDbArc
 50
270.0
 51
0.0
  0
ARC
  5
F0
330
1F
100
AcDbEntity
  8
RUNDUNGEN
  6
Continuous
 62
     7
100
AcDbCircle
 10
309.1334459459
 20
422.9919438669
 30
0.0
 40
1.0
100
AcDbArc
 50
0.0
 51
90.0
  0
ARC
  5
F1
330
1F
100
AcDbEntity
  8
RUNDUNGEN
  6
Continuous
 62
     7
100
AcDbCircle
 10
290.1334459459
 20
435.9919438669
 30
0.0
 40
1.0
100
AcDbArc
 50
0.0
 51
90.0
  0
CIRCLE
  5
F2
330
1F
100
AcDbEntity
  8
BEZUGSACHSEN
  6
Continuous
 62
     7
100
AcDbCircle
 10
116.1334459459
 20
412.9919438669
 30
0.0
 40
6.0
  0
SPLINE
  5
F3
330
1F
100
AcDbEntity
  8
BEZUGSACHSEN
  6
Continuous
 62
     7
100
AcDbSpline
210
0.0
220
0.0
230
1.0
 70
     8
 71
     3
 72
    25
 73
    21
 74
    19
 42
0.0000000001
 43
0.0000000001
 44
0.00000001
 40
0.0
 40
0.0
 40
0.0
 40
0.0
 40
0.1260972117440813
 40
0.2522465168477253
 40
0.3668860202924678
 40
0.4815824549258905
 40
0.5839608877638505
 40
0.6859495705554155
 40
0.7334575974148458
 40
0.7809568594904092
 40
0.8273952985080885
 40
0.8738444052775808
 40
0.9681767766391536
 40
1.062842148740709
 40
1.165393123142963
 40
1.267959701393025
 40
1.380685115527107
 40
1.493411946595726
 40
1.615426835529607
 40
1.737397957163142
 40
1.737397957163142
 40
1.737397957163142
 40
1.737397957163142
 10
81.1334459459
 20
427.6261763531
 30
0.0
 10
81.13417438943212
 20
427.6682193571751
 30
0.0
 10
81.13563157743138
 20
427.7523227341575
 30
0.0
 10
81.14907600316903
 20
427.8740698616586
 30
0.0
 10
81.17203352967161
 20
427.9904870916351
 30
0.0
 10
81.20599910704316
 20
428.0960627707956
 30
0.0
 10
81.25221808237943
 20
428.1922244582424
 30
0.0
 10
81.30076332571761
 20
428.261394133113
 30
0.0
 10
81.34621268341968
 20
428.3089217669384
 30
0.0
 10
81.38211334724119
 20
428.3396178568492
 30
0.0
 10
81.42074391135813
 20
428.3661820587362
 30
0.0
 10
81.4756926813986
 20
428.3959948348049
 30
0.0
 10
81.55042628686164
 20
428.4218573472997
 30
0.0
 10
81.64699941836174
 20
428.4362629414747
 30
0.0
 10
81.74734589350246
 20
428.4341481008422
 30
0.0
 10
81.85215306069819
 20
428.4170461471443
 30
0.0
 10
81.95767449785953
 20
428.3876226352344
 30
0.0
 10
82.06585962322517
 20
428.3459348152395
 30
0.0
 10
82.17352156759117
 20
428.2951332168585
 30
0.0
 10
82.24403715333062
 20
428.2545618879307
 30
0.0
 10
82.2792886215
 20
428.2342798624
 30
0.0
 11
81.1334459459
 21
427.6261763531
 31
0.0
 11
81.13757704964418
 21
427.7522058765915
 31
0.0
 11
81.15134406467303
 21
427.8776017157383
 31
0.0
 11
81.17419676014443
 21
427.9899403558393
 31
0.0
 11
81.20983383009893
 21
428.0989599474854
 31
0.0
 11
81.2547300079072
 21
428.1909690596893
 31
0.0
 11
81.3139060239103
 21
428.2740346394896
 31
0.0
 11
81.34676347794937
 21
428.3083479070424
 31
0.0
 11
81.38289561891139
 21
428.3391804918712
 31
0.0
 11
81.42116644717565
 21
428.3654839578475
 31
0.0
 11
81.4620054918033
 21
428.3876129423155
 31
0.0
 11
81.55097174966198
 21
428.4189753601004
 31
0.0
 11
81.6445459004625
 21
428.4333075259203
 31
0.0
 11
81.74708506432235
 21
428.4317511757747
 31
0.0
 11
81.84840979161486
 21
428.4158388342429
 31
0.0
 11
81.95709127288836
 21
428.3859163574086
 31
0.0
 11
82.06245150040198
 21
428.3458344300466
 31
0.0
 11
82.17275362158367
 21
428.2936705039639
 31
0.0
 11
82.2792886215
 21
428.2342798624
 31
0.0
  0
SPLINE
  5
F4
330
1F
100
AcDbEntity
  8
BEZUGSACHSEN
  6
Continuous
 62
     7
100
AcDbSpline
210
0.0
220
0.0
230
1.0
 70
     8
 71
     3
 72
    15
 73
    11
 74
     9
 42
0.0000000001
 43
0.0000000001
 44
0.00000001
 40
0.0
 40
0.0
 40
0.0
 40
0.0
 40
0.1110944831353589
 40
0.2222295181604899
 40
0.3333620402237785
 40
0.4444752610525428
 40
0.5555842178313015
 40
0.6667300354115623
 40
0.7779450182000567
 40
0.8889820871512691
 40
0.8889820871512691
 40
0.8889820871512691
 40
0.8889820871512691
 10
82.2792886215
 20
428.2342798624
 30
0.0
 10
82.30467398107731
 20
428.261256228075
 30
0.0
 10
82.35545396643741
 20
428.3152188063821
 30
0.0
 10
82.43770673570162
 20
428.390100769786
 30
0.0
 10
82.52470338764921
 20
428.4593874787157
 30
0.0
 10
82.6170082280678
 20
428.5214826418116
 30
0.0
 10
82.71445825005102
 20
428.5752621339232
 30
0.0
 10
82.81687116392432
 20
428.6188523794983
 30
0.0
 10
82.92338766249466
 20
428.6518709353297
 30
0.0
 10
82.99672976520031
 20
428.662944101951
 30
0.0
 10
83.0333714612
 20
428.6684762532
 30
0.0
 11
82.2792886215
 21
428.2342798624
 31
0.0
 11
82.35645739861441
 21
428.3141983460054
 31
0.0
 11
82.43849729887826
 21
428.3891680117025
 31
0.0
 11
82.52559444748934
 21
428.4581935443985
 31
0.0
 11
82.6178662690619
 21
428.5200971693862
 31
0.0
 11
82.71526917712717
 21
428.5735562544597
 31
0.0
 11
82.81753740051602
 21
428.6170832949113
 31
0.0
 11
82.92402926864045
 21
428.6491497013207
 31
0.0
 11
83.0333714612
 21
428.6684762532
 31
0.0
  0
SPLINE
  5
F5
330
1F
100
AcDbEntity
  8
0
  6
Continuous
 62
     7
100
AcDbSpline
210
0.0
220
0.0
230
1.0
 70
     8
 71
     3
 72
    19
 73
    15
 74
    13
 42
0.0000000001
 43
0.0000000001
 44
0.00000001
 40
0.0
 40
0.0
 40
0.0
 40
0.0
 40
0.1162460235104266
 40
0.2327881717570611
 40
0.3491890045619203
 40
0.4655468550268893
 40
0.5819071369413551
 40
0.6982738488575421
 40
0.8146206072038177
 40
0.9309998277450675
 40
1.163276323388404
 40
1.396138921739045
 40
1.62901317804018
 40
1.861351539700181
 40
1.861351539700181
 40
1.861351539700181
 40
1.861351539700181
 10
150.2584459459
 20
379.4695632832
 30
0.0
 10
150.2196618750799
 20
379.46772233631
 30
0.0
 10
150.1419949350259
 20
379.4640357529079
 30
0.0
 10
150.0283848499622
 20
379.4356302679732
 30
0.0
 10
149.9201971619929
 20
379.3917763537756
 30
0.0
 10
149.8192212960253
 20
379.3331796655491
 30
0.0
 10
149.7264528393017
 20
379.2624948042218
 30
0.0
 10
149.6423654603183
 20
379.1817371991357
 30
0.0
 10
149.5670618169435
 20
379.0927695603939
 30
0.0
 10
149.4784105727754
 20
378.9654101126424
 30
0.0
 10
149.38841382704
 20
378.7926247345511
 30
0.0
 10
149.3135203078761
 20
378.5716997443635
 30
0.0
 10
149.2669833825336
 20
378.3426798247743
 30
0.0
 10
149.2612895718115
 20
378.1875004319397
 30
0.0
 10
149.2584459459
 20
378.1100001138
 30
0.0
 11
150.2584459459
 21
379.4695632832
 31
0.0
 11
150.142574594409
 21
379.4602376258171
 31
0.0
 11
150.0292500696866
 21
379.4330415890767
 31
0.0
 11
149.9213769370555
 21
379.3893089795727
 31
0.0
 11
149.8205881975422
 21
379.3311645099118
 31
0.0
 11
149.7279008924947
 21
379.2608169535204
 31
0.0
 11
149.6438255268692
 21
379.1803648277739
 31
0.0
 11
149.5685267689375
 21
379.0916706045594
 31
0.0
 11
149.5019000396222
 21
378.9962504708635
 31
0.0
 11
149.3940102535137
 21
378.7905512621101
 31
0.0
 11
149.3182521166619
 21
378.5703565882159
 31
0.0
 11
149.2732921028453
 21
378.3418636640247
 31
0.0
 11
149.2584459459
 21
378.1100001138
 31
0.0
  0
SPLINE
  5
F6
330
1F
100
AcDbEntity
  8
0
  6
Continuous
 62
     7
100
AcDbSpline
210
0.0
220
0.0
230
1.0
 70
     8
 71
     3
 72
    19
 73
    15
 74
    13
 42
0.0000000001
 43
0.0000000001
 44
0.00000001
 40
0.0
 40
0.0
 40
0.0
 40
0.0
 40
0.2323383481142227
 40
0.4652125956936556
 40
0.6980761132640765
 40
0.9303535187232086
 40
1.046733461791933
 40
1.163080940862406
 40
1.279447997430485
 40
1.395808629538809
 40
1.512165904519649
 40
1.628566140344748
 40
1.74510692050399
 40
1.861351602826206
 40
1.861351602826206
 40
1.861351602826206
 40
1.861351602826206
 10
153.0084459459
 20
378.1100001138
 30
0.0
 10
153.0056023203019
 20
378.1875004274584
 30
0.0
 10
152.9999085101477
 20
378.3426798129394
 30
0.0
 10
152.9533715343515
 20
378.5717000269629
 30
0.0
 10
152.8784777885648
 20
378.7926255888505
 30
0.0
 10
152.7884804843096
 20
378.9654116530618
 30
0.0
 10
152.6998285465348
 20
379.0927715788056
 30
0.0
 10
152.6245242821906
 20
379.1817394777288
 30
0.0
 10
152.5404363083428
 20
379.2624971476622
 30
0.0
 10
152.4476675744801
 20
379.3331817140036
 30
0.0
 10
152.346691762231
 20
379.3917779381598
 30
0.0
 10
152.238504712738
 20
379.43563118932
 30
0.0
 10
152.1248956033833
 20
379.4640359487806
 30
0.0
 10
152.0472295685819
 20
379.4677224014216
 30
0.0
 10
152.0084459459
 20
379.4695632832
 30
0.0
 11
153.0084459459
 21
378.1100001138
 31
0.0
 11
152.9935997918079
 21
378.3418636506339
 31
0.0
 11
152.9486397902486
 21
378.570356568348
 31
0.0
 11
152.8728813115531
 21
378.7905520967336
 31
0.0
 11
152.7649909003736
 21
378.9962520050037
 31
0.0
 11
152.6983635765501
 21
379.0916726048173
 31
0.0
 11
152.6230641199934
 21
379.1803671803467
 31
0.0
 11
152.5389882536406
 21
379.2608192813219
 31
0.0
 11
152.4463004276394
 21
379.3311667305709
 31
0.0
 11
152.3455119927234
 21
379.3893105765749
 31
0.0
 11
152.2376392639516
 21
379.4330425933072
 31
0.0
 11
152.1243159754321
 21
379.460237918627
 31
0.0
 11
152.0084459459
 21
379.4695632832
 31
0.0
  0
SPLINE
  5
F7
330
1F
100
AcDbEntity
  8
BEZUGSACHSEN
  6
Continuous
 62
     7
100
AcDbSpline
210
0.0
220
0.0
230
1.0
 70
     8
 71
     3
 72
    11
 73
     7
 74
     5
 42
0.0000000001
 43
0.0000000001
 44
0.00000001
 40
0.0
 40
0.0
 40
0.0
 40
0.0
 40
0.5462907431041437
 40
1.093000863589365
 40
1.646070107119356
 40
2.198197048716618
 40
2.198197048716618
 40
2.198197048716618
 40
2.198197048716618
 10
90.6872918928
 20
428.0019438669
 30
0.0
 10
90.75036269466548
 20
427.8310122376747
 30
0.0
 10
90.87655271669391
 20
427.4890177581483
 30
0.0
 10
91.01619002971981
 20
426.9577436289431
 30
0.0
 10
91.11367839373244
 20
426.4143192239824
 30
0.0
 10
91.12686050824746
 20
426.0457345834091
 30
0.0
 10
91.1334459459
 20
425.8615993927
 30
0.0
 11
90.6872918928
 21
428.0019438669
 31
0.0
 11
90.8681432254292
 21
427.4864573282906
 31
0.0
 11
91.0086347101275
 21
426.9581069724014
 31
0.0
 11
91.10070136335793
 21
426.4127544996814
 31
0.0
 11
91.1334459459
 21
425.8615993927
 31
0.0
  0
SPLINE
  5
F8
330
1F
100
AcDbEntity
  8
BEZUGSACHSEN
  6
Continuous
 62
     7
100
AcDbSpline
210
0.0
220
0.0
230
1.0
 70
     8
 71
     3
 72
    19
 73
    15
 74
    13
 42
0.0000000001
 43
0.0000000001
 44
0.00000001
 40
0.0
 40
0.0
 40
0.0
 40
0.0
 40
0.1462385988599965
 40
0.2927479275616234
 40
0.4364790706692031
 40
0.5801659236668351
 40
0.7203799972998506
 40
0.8606059382929019
 40
0.9980411884272389
 40
1.135484020475591
 40
1.405415631135643
 40
1.675815514123568
 40
1.943997429548942
 40
2.211934834845189
 40
2.211934834845189
 40
2.211934834845189
 40
2.211934834845189
 10
89.1334459459
 20
429.3505914544
 30
0.0
 10
89.18216075126719
 20
429.3538995317117
 30
0.0
 10
89.27968054716229
 20
429.3605218105406
 30
0.0
 10
89.42501680748987
 20
429.3441624977919
 30
0.0
 10
89.56567374459738
 20
429.3089907317193
 30
0.0
 10
89.69852587803234
 20
429.2561850451036
 30
0.0
 10
89.82298034110147
 20
429.1885132573927
 30
0.0
 10
89.93778289828361
 20
429.1092130560195
 30
0.0
 10
90.04389283607345
 20
429.020128416443
 30
0.0
 10
90.1729953012554
 20
428.8921808808719
 30
0.0
 10
90.31603515115373
 20
428.7163785919661
 30
0.0
 10
90.46094275283689
 20
428.4886931260799
 30
0.0
 10
90.58557950124045
 20
428.2500305065701
 30
0.0
 10
90.65339807237774
 20
428.084614266103
 30
0.0
 10
90.6872918928
 20
428.0019438669
 30
0.0
 11
89.1334459459
 21
429.3505914544
 31
0.0
 11
89.2795798078044
 21
429.3561251874474
 31
0.0
 11
89.42528916864853
 21
429.3408357937709
 31
0.0
 11
89.5647192501743
 21
429.3059374576397
 31
0.0
 11
89.69835158708509
 21
429.2531330046444
 31
0.0
 11
89.82166537790405
 21
429.1863969915884
 31
0.0
 11
89.93719648924305
 21
429.1069245004977
 31
0.0
 11
90.04260903903163
 21
429.0187392277671
 31
0.0
 11
90.14039754272783
 21
428.9221579634022
 31
0.0
 11
90.31164593861453
 21
428.7135025984106
 31
0.0
 11
90.45798835912716
 21
428.4861262744928
 31
0.0
 11
90.58185598488713
 21
428.2482642324394
 31
0.0
 11
90.6872918928
 21
428.0019438669
 31
0.0
  0
SPLINE
  5
F9
330
1F
100
AcDbEntity
  8
BEZUGSACHSEN
  6
Continuous
 62
     7
100
AcDbSpline
210
0.0
220
0.0
230
1.0
 70
     8
 71
     3
 72
    11
 73
     7
 74
     5
 42
0.0000000001
 43
0.0000000001
 44
0.00000001
 40
0.0
 40
0.0
 40
0.0
 40
0.0
 40
0.5521269407052727
 40
1.105196183359003
 40
1.651906304769617
 40
2.19819704882562
 40
2.19819704882562
 40
2.19819704882562
 40
2.19819704882562
 10
91.1334459459
 20
400.1222883412
 30
0.0
 10
91.1268605082794
 20
399.9381531507885
 30
0.0
 10
91.11367839382814
 20
399.5695685108054
 30
0.0
 10
91.0161900300688
 20
399.0261441060882
 30
0.0
 10
90.87655271700191
 20
398.4948699765432
 30
0.0
 10
90.75036269476918
 20
398.1528754964253
 30
0.0
 10
90.6872918928
 20
397.9819438669
 30
0.0
 11
91.1334459459
 21
400.1222883412
 31
0.0
 11
91.10070136349829
 21
399.5711332351038
 31
0.0
 11
91.00863471057981
 21
399.0257807632198
 31
0.0
 11
90.86814322572131
 21
398.4974304064157
 31
0.0
 11
90.6872918928
 21
397.9819438669
 31
0.0
  0
SPLINE
  5
FA
330
1F
100
AcDbEntity
  8
BEZUGSACHSEN
  6
Continuous
 62
     7
100
AcDbSpline
210
0.0
220
0.0
230
1.0
 70
     8
 71
     3
 72
    19
 73
    15
 74
    13
 42
0.0000000001
 43
0.0000000001
 44
0.00000001
 40
0.0
 40
0.0
 40
0.0
 40
0.0
 40
0.2679411643010136
 40
0.5361267936528469
 40
0.8065304773314371
 40
1.076465993182521
 40
1.213913376080432
 40
1.351353104797107
 40
1.491586366983017
 40
1.631807897482119
 40
1.775491562693733
 40
1.919219204672127
 40
2.065713007316865
 40
2.211936409327952
 40
2.211936409327952
 40
2.211936409327952
 40
2.211936409327952
 10
90.6872918928
 20
397.9819438669
 30
0.0
 10
90.65339764903536
 20
397.899272287194
 30
0.0
 10
90.58557823696317
 20
397.7338536996109
 30
0.0
 10
90.4609397306715
 20
397.4951877259569
 30
0.0
 10
90.31602893133844
 20
397.2674997299549
 30
0.0
 10
90.17298529981583
 20
397.0916952386472
 30
0.0
 10
90.04387891291206
 20
396.9637455195369
 30
0.0
 10
89.93776381384853
 20
396.8746584987341
 30
0.0
 10
89.82295438621
 20
396.7953568583955
 30
0.0
 10
89.69849477398017
 20
396.7276863909431
 30
0.0
 10
89.56564121883511
 20
396.6748837042815
 30
0.0
 10
89.42499041995407
 20
396.6397174403126
 30
0.0
 10
89.27966503683405
 20
396.623365238383
 30
0.0
 10
89.18215561775673
 20
396.6299879717345
 30
0.0
 10
89.1334459459
 20
396.6332962795
 30
0.0
 11
90.6872918928
 21
397.9819438669
 31
0.0
 11
90.58185463316856
 21
397.7356199910609
 31
0.0
 11
90.45798511760444
 21
397.4977547457964
 31
0.0
 11
90.31163963129116
 21
397.2703758752242
 31
0.0
 11
90.14038744016267
 21
397.0617185730479
 31
0.0
 11
90.04259500148335
 21
396.965134816636
 31
0.0
 11
89.93717801222866
 21
396.876947870855
 31
0.0
 11
89.82163936851524
 21
396.7974734118624
 31
0.0
 11
89.69831735862186
 21
396.7307369189116
 31
0.0
 11
89.564686670422
 21
396.6779369679658
 31
0.0
 11
89.42525896921421
 21
396.6430435415852
 31
0.0
 11
89.27956453068354
 21
396.6277607147999
 31
0.0
 11
89.1334459459
 21
396.6332962795
 31
0.0
  0
SPLINE
  5
FB
330
1F
100
AcDbEntity
  8
BEZUGSACHSEN
  6
Continuous
 62
     7
100
AcDbSpline
210
0.0
220
0.0
230
1.0
 70
     8
 71
     3
 72
    45
 73
    41
 74
    39
 42
0.0000000001
 43
0.0000000001
 44
0.00000001
 40
0.0
 40
0.0
 40
0.0
 40
0.0
 40
0.6364670303018325
 40
1.273598337605682
 40
1.912117284215207
 40
2.550437794495593
 40
3.189503997420144
 40
3.828695837023668
 40
4.467923976855246
 40
5.10683456404224
 40
5.425791606682454
 40
5.744646257960106
 40
6.062968974606282
 40
6.381393088382424
 40
7.016672453354756
 40
7.652252256722246
 40
8.287145050503051
 40
8.921960850402824
 40
9.558839665918056
 40
10.19574726483037
 40
10.83413075884792
 40
11.47248980455968
 40
12.11195777942365
 40
12.75150879663816
 40
13.39315591151259
 40
14.03449247887201
 40
14.35576496309386
 40
14.6769339825893
 40
14.99802173035594
 40
15.31920894691819
 40
15.95972411599238
 40
16.60060882664179
 40
17.23770398640139
 40
17.87443845745473
 40
18.19166960889304
 40
18.50878489669388
 40
18.82532375216634
 40
19.14202872437652
 40
19.77300265578295
 40
20.40360221305056
 40
20.40360221305056
 40
20.40360221305056
 40
20.40360221305056
 10
109.6340303517
 20
412.9919438475
 30
0.0
 10
109.640040160728
 20
413.2041850594436
 30
0.0
 10
109.6520660511875
 20
413.6288889982707
 30
0.0
 10
109.7493067422143
 20
414.2603753344978
 30
0.0
 10
109.9036847649042
 20
414.880225661274
 30
0.0
 10
110.1195341011932
 20
415.4824683846979
 30
0.0
 10
110.3934804973763
 20
416.0607240184282
 30
0.0
 10
110.7231704018754
 20
416.609525006344
 30
0.0
 10
111.1053748036774
 20
417.1230145102274
 30
0.0
 10
111.4642155805095
 20
417.5175337297721
 30
0.0
 10
111.7731742347426
 20
417.8104139639452
 30
0.0
 10
112.0150710472533
 20
418.0181335744504
 30
0.0
 10
112.2667138401246
 20
418.2136421725838
 30
0.0
 10
112.6140073974286
 20
418.4571383736346
 30
0.0
 10
113.0697478621619
 20
418.7290207657879
 30
0.0
 10
113.6452275711895
 20
419.0003492395004
 30
0.0
 10
114.2443382290051
 20
419.2141327546559
 30
0.0
 10
114.8617885820325
 20
419.3688226927754
 30
0.0
 10
115.4920591700659
 20
419.4626296997146
 30
0.0
 10
116.1296531072814
 20
419.4947563630678
 30
0.0
 10
116.7678317452833
 20
419.4643267855113
 30
0.0
 10
117.400844169238
 20
419.3716555472514
 30
0.0
 10
118.0220778555241
 20
419.2171635867886
 30
0.0
 10
118.6262136063518
 20
419.0021264497256
 30
0.0
 10
119.2066926795528
 20
418.7282030839007
 30
0.0
 10
119.6663217037677
 20
418.453036206954
 30
0.0
 10
120.0162206922415
 20
418.2064265083036
 30
0.0
 10
120.2693523214324
 20
418.0085223158096
 30
0.0
 10
120.512350960873
 20
417.7983437863391
 30
0.0
 10
120.8215953044604
 20
417.5028244461465
 30
0.0
 10
121.1799154952904
 20
417.1053534633612
 30
0.0
 10
121.5598659135988
 20
416.5896867018312
 30
0.0
 10
121.8863389431199
 20
416.0400905454346
 30
0.0
 10
122.1117100830623
 20
415.5589850037883
 30
0.0
 10
122.2628010662269
 20
415.1629948161512
 30
0.0
 10
122.3612139838179
 20
414.8615684652237
 30
0.0
 10
122.4448807620319
 20
414.5558730971161
 30
0.0
 10
122.5357001194688
 20
414.1443210793377
 30
0.0
 10
122.6152150951103
 20
413.6228958628897
 30
0.0
 10
122.6269873797188
 20
413.2022195738886
 30
0.0
 10
122.6328717753
 20
412.9919438476
 30
0.0
 11
109.6340303517
 21
412.9919438475
 31
0.0
 11
109.6652317603531
 21
413.6276456272358
 31
0.0
 11
109.7587202249518
 21
414.2578806704806
 31
0.0
 11
109.9139197057864
 21
414.8772509687093
 31
0.0
 11
110.1291064994267
 21
415.4782066390274
 31
0.0
 11
110.4027292011855
 21
416.0557325941174
 31
0.0
 11
110.7319219061455
 21
416.603636208649
 31
0.0
 11
111.11353957736
 21
417.1164525186172
 31
0.0
 11
111.5434807991446
 21
417.5890594210531
 31
0.0
 11
111.7749537084645
 21
417.8084993611296
 31
0.0
 11
112.0168554600624
 21
418.0162295496319
 31
0.0
 11
112.2682290793984
 21
418.2115258768758
 31
0.0
 11
112.528958545214
 21
418.3943210132708
 31
0.0
 11
113.0744923125777
 21
418.7198556200725
 31
0.0
 11
113.6494020105135
 21
418.9908547449198
 31
0.0
 11
114.2473481657485
 21
419.2042774593494
 31
0.0
 11
114.8631407312703
 21
419.3585195290012
 31
0.0
 11
115.4930730210285
 21
419.4523275029272
 31
0.0
 11
116.1291761328341
 21
419.4843293888628
 31
0.0
 11
116.7668370897073
 21
419.4539651086376
 31
0.0
 11
117.3984546251711
 21
419.3614364096481
 31
0.0
 11
118.0190274989046
 21
419.2071360555888
 31
0.0
 11
118.6215283063579
 21
418.9926173369691
 31
0.0
 11
119.2018355016366
 21
418.7188389975512
 31
0.0
 11
119.752060489168
 21
418.3893468796965
 31
0.0
 11
120.0146677934191
 21
418.2042701040815
 31
0.0
 11
120.2676882508635
 21
418.006456587864
 31
0.0
 11
120.5105365523495
 21
417.7964041081567
 31
0.0
 11
120.7427389878201
 21
417.5744958905429
 31
0.0
 11
121.1716550455779
 21
417.0987956727463
 31
0.0
 11
121.551765704248
 21
416.5828023593115
 31
0.0
 11
121.877204849863
 21
416.0350984200427
 31
0.0
 11
122.1472857078953
 21
415.4584814616101
 31
0.0
 11
122.2603761531167
 21
415.1620929418552
 31
0.0
 11
122.3588202564924
 21
414.8606449956562
 31
0.0
 11
122.4423030619141
 21
414.5553132609434
 31
0.0
 11
122.5108524853956
 21
414.2461158871463
 31
0.0
 11
122.6022795632558
 21
413.6218009093119
 31
0.0
 11
122.6328717753
 21
412.9919438476
 31
0.0
  0
SPLINE
  5
FC
330
1F
100
AcDbEntity
  8
BEZUGSACHSEN
  6
Continuous
 62
     7
100
AcDbSpline
210
0.0
220
0.0
230
1.0
 70
     8
 71
     3
 72
    45
 73
    41
 74
    39
 42
0.0000000001
 43
0.0000000001
 44
0.00000001
 40
0.0
 40
0.0
 40
0.0
 40
0.0
 40
0.6301082910394754
 40
1.260858006123087
 40
1.894426080932231
 40
2.52780488468686
 40
3.164625291786047
 40
3.801575673252442
 40
4.442448340023189
 40
5.083004443740522
 40
5.404152925651983
 40
5.725197105435452
 40
6.046293316004917
 40
6.367494265290281
 40
7.008713866664941
 40
7.650243046184642
 40
8.28995354833512
 40
8.929582032301584
 40
9.56827029341214
 40
10.20698250161726
 40
10.84408032855367
 40
11.48114953682411
 40
12.11605789323557
 40
12.75104292638986
 40
13.38654235844996
 40
14.02174065654462
 40
14.34012776283791
 40
14.65841480958434
 40
14.97723913978724
 40
15.29616101999627
 40
15.9350002119135
 40
16.57421021185793
 40
17.21348602112856
 40
17.8524018619969
 40
18.17182187216786
 40
18.49112351219549
 40
18.81029483734705
 40
19.12963779475686
 40
19.76681954115971
 40
20.40361295392299
 40
20.40361295392299
 40
20.40361295392299
 40
20.40361295392299
 10
122.6328595838
 20
412.9919438857
 30
0.0
 10
122.6269859006135
 20
412.7818252730918
 30
0.0
 10
122.6152325550753
 20
412.3613741558634
 30
0.0
 10
122.520125657488
 20
411.7355818391007
 30
0.0
 10
122.3688990515691
 20
411.120561289182
 30
0.0
 10
122.1567872375913
 20
410.5213133607816
 30
0.0
 10
121.8868548706262
 20
409.9446550650786
 30
0.0
 10
121.5604036632911
 20
409.3950349218608
 30
0.0
 10
121.1805588475396
 20
408.8793525300931
 30
0.0
 10
120.8223181839777
 20
408.481810961646
 30
0.0
 10
120.5131322074035
 20
408.1862506840851
 30
0.0
 10
120.2702055486177
 20
407.9760679703381
 30
0.0
 10
120.0171571043461
 20
407.7781593075932
 30
0.0
 10
119.6673751478149
 20
407.5315349595371
 30
0.0
 10
119.2078897795563
 20
407.2563280260374
 30
0.0
 10
118.6274937870914
 20
406.9822885589961
 30
0.0
 10
118.0233395876692
 20
406.7671001977258
 30
0.0
 10
117.4019244898965
 20
406.6124381521572
 30
0.0
 10
116.7686552519095
 20
406.5196277559854
 30
0.0
 10
116.1301957842856
 20
406.4891170671178
 30
0.0
 10
115.492362776167
 20
406.5212188140844
 30
0.0
 10
114.8619327866664
 20
406.6150318598509
 30
0.0
 10
114.2443591163483
 20
406.7697456751587
 30
0.0
 10
113.6452157067035
 20
406.9835422512896
 30
0.0
 10
113.0697584853554
 20
407.2548636198634
 30
0.0
 10
112.6140730916871
 20
407.5267085028709
 30
0.0
 10
112.2668171937717
 20
407.7701690555687
 30
0.0
 10
112.0151976125853
 20
407.9656515819612
 30
0.0
 10
111.7733225625532
 20
408.1733446404871
 30
0.0
 10
111.4643862790244
 20
408.4661821884096
 30
0.0
 10
111.105543522095
 20
408.8606398373539
 30
0.0
 10
110.723316616719
 20
409.3741245034857
 30
0.0
 10
110.3936921713862
 20
409.9228922822961
 30
0.0
 10
110.1652047254451
 20
410.4049556988348
 30
0.0
 10
110.0117032254521
 20
410.802365258069
 30
0.0
 10
109.9114464225622
 20
411.1056476212738
 30
0.0
 10
109.8261299297365
 20
411.4134714927276
 30
0.0
 10
109.7333674744305
 20
411.828512359673
 30
0.0
 10
109.6520751074737
 20
412.3547851587944
 30
0.0
 10
109.640035307899
 20
412.7796008086926
 30
0.0
 10
109.6340172431
 20
412.9919438874
 30
0.0
 11
122.6328595838
 21
412.9919438857
 31
0.0
 11
122.6023650944084
 21
412.3625739272865
 31
0.0
 11
122.5109887294582
 21
411.7384781309486
 31
0.0
 11
122.3588317580593
 21
411.1234523091557
 31
0.0
 11
122.1476577907572
 21
410.5263139126516
 31
0.0
 11
121.8776513676781
 21
409.9495672070745
 31
0.0
 11
121.5523410326697
 21
409.401955141478
 31
0.0
 11
121.1723110521156
 21
408.8859173629249
 31
0.0
 11
120.7434540396046
 21
408.4101088039123
 31
0.0
 11
120.5113162592853
 21
408.1881890022216
 31
0.0
 11
120.2685344126257
 21
407.9781262965706
 31
0.0
 11
120.0156049921198
 21
407.780314556058
 31
0.0
 11
119.7530904093073
 21
407.5952304032178
 31
0.0
 11
119.2030321041261
 21
407.26568763196
 31
0.0
 11
118.622891393917
 21
406.9918328446488
 31
0.0
 11
118.0202861170927
 21
406.7771321066314
 31
0.0
 11
117.3995868148701
 21
406.6226750779098
 31
0.0
 11
116.7676579922638
 21
406.5300000648811
 31
0.0
 11
116.1296718738406
 21
406.499553429442
 31
0.0
 11
115.49337688732
 21
406.5315273440584
 31
0.0
 11
114.8632536101889
 21
406.6253454219747
 31
0.0
 11
114.2473697020897
 21
406.7796037533074
 31
0.0
 11
113.6493372335882
 21
406.9930590389011
 31
0.0
 11
113.0745014848921
 21
407.2640265464915
 31
0.0
 11
112.5290347968942
 21
407.5895153637908
 31
0.0
 11
112.2683325039551
 21
407.7722847920608
 31
0.0
 11
112.0169832520071
 21
407.9675543433783
 31
0.0
 11
111.7750999541115
 21
408.1752594798783
 31
0.0
 11
111.543644123198
 21
408.3946663257427
 31
0.0
 11
111.1137210920485
 21
408.8671932566331
 31
0.0
 11
110.7320999524167
 21
409.3799843737706
 31
0.0
 11
110.4028684782166
 21
409.9279626550141
 31
0.0
 11
110.1292541710531
 21
410.5053261996097
 31
0.0
 11
110.0141619185611
 21
410.8032908221976
 31
0.0
 11
109.9139222301169
 21
411.1064500908749
 31
0.0
 11
109.8287551500401
 21
411.414048698268
 31
0.0
 11
109.7587921226703
 21
411.7256335169747
 31
0.0
 11
109.665303225624
 21
412.3559194870534
 31
0.0
 11
109.6340172431
 21
412.9919438874
 31
0.0
  0
SPLINE
  5
FD
330
1F
100
AcDbEntity
  8
BEZUGSACHSEN
  6
Continuous
 62
     7
100
AcDbSpline
210
0.0
220
0.0
230
1.0
 70
     8
 71
     3
 72
    25
 73
    21
 74
    19
 42
0.0000000001
 43
0.0000000001
 44
0.00000001
 40
0.0
 40
0.0
 40
0.0
 40
0.0
 40
0.1219713323381753
 40
0.2439864322668857
 40
0.3567132655458716
 40
0.4694386817931984
 40
0.5720051573069206
 40
0.6745560275768043
 40
0.7692213692789206
 40
0.8635537124535981
 40
0.9100028107804929
 40
0.9564412416969441
 40
1.003940503858869
 40
1.05144852967766
 40
1.153437184952426
 40
1.255815595019947
 40
1.370511997292397
 40
1.485151465040377
 40
1.611300758641291
 40
1.737397959972191
 40
1.737397959972191
 40
1.737397959972191
 40
1.737397959972191
 10
82.2792886215
 20
397.7496078715
 30
0.0
 10
82.24403709135436
 20
397.7293258126768
 30
0.0
 10
82.1735213815781
 20
397.6887544171165
 30
0.0
 10
82.06585929598305
 20
397.6379527850015
 30
0.0
 10
81.9576740909931
 20
397.5962649720102
 30
0.0
 10
81.8521526745793
 20
397.5668415065863
 30
0.0
 10
81.74734556811053
 20
397.5497396059986
 30
0.0
 10
81.64699917117153
 20
397.547624809194
 30
0.0
 10
81.55042610077074
 20
397.5620304481031
 30
0.0
 10
81.47569253041755
 20
397.5878929897359
 30
0.0
 10
81.42074378253253
 20
397.6177057746738
 30
0.0
 10
81.38211322671185
 20
397.644269978291
 30
0.0
 10
81.34621256255258
 20
397.6749660627841
 30
0.0
 10
81.3007632072256
 20
397.7224936862898
 30
0.0
 10
81.25221799227282
 20
397.7916633625316
 30
0.0
 10
81.20599906783194
 20
397.8878250429675
 30
0.0
 10
81.17203351690348
 20
397.9934006975316
 30
0.0
 10
81.14907599921821
 20
398.1098179020066
 30
0.0
 10
81.13563157714408
 20
398.2315650105382
 30
0.0
 10
81.13417438933845
 20
398.3156683802025
 30
0.0
 10
81.1334459459
 20
398.3577113808
 30
0.0
 11
82.2792886215
 21
397.7496078715
 31
0.0
 11
82.1727534325757
 21
397.6902171362527
 31
0.0
 11
82.06245110832201
 21
397.6380531460406
 31
0.0
 11
81.95709086614642
 21
397.597971251003
 31
0.0
 11
81.8484093718911
 21
397.5680488133589
 31
0.0
 11
81.74708473961118
 21
397.5521365290274
 31
0.0
 11
81.64454567920376
 21
397.5505802244707
 31
0.0
 11
81.55097156570933
 21
397.5649124330691
 31
0.0
 11
81.46200534872649
 21
397.5962748820263
 31
0.0
 11
81.42116631787525
 21
397.6184038741974
 31
0.0
 11
81.38289549943337
 21
397.6447073401624
 31
0.0
 11
81.34676335674096
 21
397.6755399230964
 31
0.0
 11
81.31390590198392
 21
397.7098531885209
 31
0.0
 11
81.25472992044361
 21
397.7929187590871
 31
0.0
 11
81.20983378420942
 21
397.8849278662407
 31
0.0
 11
81.17419674408661
 21
397.9939474335923
 31
0.0
 11
81.15134406118091
 21
398.1062860398216
 31
0.0
 11
81.13757704896092
 21
398.2316818677049
 31
0.0
 11
81.1334459459
 21
398.3577113808
 31
0.0
  0
SPLINE
  5
FE
330
1F
100
AcDbEntity
  8
BEZUGSACHSEN
  6
Continuous
 62
     7
100
AcDbSpline
210
0.0
220
0.0
230
1.0
 70
     8
 71
     3
 72
    15
 73
    11
 74
     9
 42
0.0000000001
 43
0.0000000001
 44
0.00000001
 40
0.0
 40
0.0
 40
0.0
 40
0.0
 40
0.1110371613045432
 40
0.2222522336839926
 40
0.3333980191333
 40
0.4445069474378884
 40
0.5556201065076206
 40
0.6667525642268053
 40
0.7778876033508435
 40
0.8889820915793123
 40
0.8889820915793123
 40
0.8889820915793123
 40
0.8889820915793123
 10
83.0333714612
 20
397.3154114807
 30
0.0
 10
82.99672973434016
 20
397.3209436335145
 30
0.0
 10
82.92338757082517
 20
397.3320168031241
 30
0.0
 10
82.81687102082712
 20
397.3650353666457
 30
0.0
 10
82.71445811308679
 20
397.4086256541342
 30
0.0
 10
82.61700814747452
 20
397.4624051619918
 30
0.0
 10
82.52470335173159
 20
397.5245002973594
 30
0.0
 10
82.43770672357698
 20
397.5937869709857
 30
0.0
 10
82.35545396808138
 20
397.6686689225668
 30
0.0
 10
82.3046739817011
 20
397.7226315040942
 30
0.0
 10
82.2792886215
 20
397.7496078715
 30
0.0
 11
83.0333714612
 21
397.3154114807
 31
0.0
 11
82.92402917615124
 21
397.3347380399097
 31
0.0
 11
82.81753722256315
 21
397.3668044732217
 31
0.0
 11
82.71526904196534
 21
397.4103315321663
 31
0.0
 11
82.61786617552644
 21
397.4637906339028
 31
0.0
 11
82.52559440872108
 21
397.5256942296713
 31
0.0
 11
82.43849730528105
 21
397.5947197157693
 31
0.0
 11
82.35645740077992
 21
397.6696893829057
 31
0.0
 11
82.2792886215
 21
397.7496078715
 31
0.0
  0
SPLINE
  5
FF
330
1F
100
AcDbEntity
  8
BEZUGSACHSEN
  6
Continuous
 62
     7
100
AcDbSpline
210
0.0
220
0.0
230
1.0
 70
     8
 71
     3
 72
    11
 73
     7
 74
     5
 42
0.0000000001
 43
0.0000000001
 44
0.00000001
 40
0.0
 40
0.0
 40
0.0
 40
0.0
 40
0.9140556660002959
 40
1.828030949185898
 40
2.27980697488342
 40
2.730944124862195
 40
2.730944124862195
 40
2.730944124862195
 40
2.730944124862195
 10
82.4003988727854
 20
397.981943867085
 30
0.0
 10
82.53305357974867
 20
398.2566604647516
 30
0.0
 10
82.79835132791007
 20
398.806069501279
 30
0.0
 10
83.01370654122533
 20
399.5387804223875
 30
0.0
 10
83.11740075488976
 20
400.136725628527
 30
0.0
 10
83.12810007240765
 20
400.4378488439872
 30
0.0
 10
83.1334459459
 20
400.5883039186
 30
0.0
 11
82.4003988727854
 21
397.981943867085
 31
0.0
 11
82.7752064025609
 21
398.8156207086554
 31
0.0
 11
83.03449776295878
 21
399.692044583671
 31
0.0
 11
83.10721473645738
 21
400.1379300164452
 31
0.0
 11
83.1334459459
 21
400.5883039186
 31
0.0
  0
SPLINE
  5
100
330
1F
100
AcDbEntity
  8
BEZUGSACHSEN
  6
Continuous
 62
     7
100
AcDbSpline
210
0.0
220
0.0
230
1.0
 70
     8
 71
     3
 72
    11
 73
     7
 74
     5
 42
0.0000000001
 43
0.0000000001
 44
0.00000001
 40
0.0
 40
0.0
 40
0.0
 40
0.0
 40
0.8249192366724748
 40
1.650116891931046
 40
2.190492152293481
 40
2.730585915378248
 40
2.730585915378248
 40
2.730585915378248
 40
2.730585915378248
 10
83.1334459459
 20
425.3955838153
 30
0.0
 10
83.11571264156181
 20
425.6707741072769
 30
0.0
 10
83.08024004771588
 20
426.2212475707378
 30
0.0
 10
82.87180523108043
 20
426.9259811558904
 30
0.0
 10
82.64157880010077
 20
427.5181948809708
 30
0.0
 10
82.48077821729885
 20
427.840722214416
 30
0.0
 10
82.4003988727854
 20
428.001943866715
 30
0.0
 11
83.1334459459
 21
425.3955838153
 31
0.0
 11
83.04987049178426
 21
426.2162584709959
 31
0.0
 11
82.83190904967248
 21
427.0121504108953
 31
0.0
 11
82.6339739711133
 21
427.5149695898131
 31
0.0
 11
82.4003988727854
 21
428.001943866715
 31
0.0
  0
DIMENSION
  5
10B
330
1F
100
AcDbEntity
  8
1
100
AcDbDimension
  2
*D2
 10
321.983046070061
 20
423.9919438669
 30
0.0
 11
318.233046070061
 21
412.118822296268
 31
0.0
 70
    32
  1
<>
 71
     5
 42
-1.0
 53
90.0
  3
ME10_DIM_10
100
AcDbAlignedDimension
 13
309.1334459459
 23
401.9919438669
 33
0.0
 14
309.1334459459
 24
423.9919438669
 34
0.0
 50
90.0
100
AcDbRotatedDimension
  0
DIMENSION
  5
116
330
1F
100
AcDbEntity
  8
1
100
AcDbDimension
  2
*D3
 10
330.468522751115
 20
436.9919438669
 30
0.0
 11
326.718522751115
 21
413.275932752775
 31
0.0
 70
    32
  1
<>
 71
     5
 42
-1.0
 53
90.0
  3
ME10_DIM_11
100
AcDbAlignedDimension
 13
290.1334459459
 23
388.9919438669
 33
0.0
 14
290.1334459459
 24
436.9919438669
 34
0.0
 50
90.0
100
AcDbRotatedDimension
  0
DIMENSION
  5
121
330
1F
100
AcDbEntity
  8
1
100
AcDbDimension
  2
*D4
 10
310.1334459459
 20
460.717461469579
 30
0.0
 11
301.347909595678
 21
464.467461469579
 31
0.0
 70
    32
  1
<>
 71
     5
 42
-1.0
 53
0.00013888888889
  3
ME10_DIM_12
100
AcDbAlignedDimension
 13
291.1334459459
 23
435.9919438669
 33
0.0
 14
310.1334459459
 24
422.9919438669
 34
0.0
100
AcDbRotatedDimension
  0
DIMENSION
  5
12C
330
1F
100
AcDbEntity
  8
1
100
AcDbDimension
  2
*D5
 10
310.1334459459
 20
470.938603835395
 30
0.0
 11
230.571320005974
 21
474.688603835395
 31
0.0
 70
    32
  1
<>
 71
     5
 42
-1.0
 53
0.00013888888889
  3
ME10_DIM_13
100
AcDbAlignedDimension
 13
160.1334459459
 23
462.9919069458
 33
0.0
 14
310.1334459459
 24
422.9919438669
 34
0.0
100
AcDbRotatedDimension
  0
DIMENSION
  5
137
330
1F
100
AcDbEntity
  8
1
100
AcDbDimension
  2
*D6
 10
310.1334459459
 20
479.231228773698
 30
0.0
 11
221.507288096666
 21
482.981228773698
 31
0.0
 70
    32
  1
<>
 71
     5
 42
-1.0
 53
0.00013888888889
  3
ME10_DIM_14
100
AcDbAlignedDimension
 13
131.1334459459
 23
462.9919438669
 33
0.0
 14
310.1334459459
 24
422.9919438669
 34
0.0
100
AcDbRotatedDimension
  0
DIMENSION
  5
142
330
1F
100
AcDbEntity
  8
1
100
AcDbDimension
  2
*D7
 10
310.1334459459
 20
486.945298483748
 30
0.0
 11
204.343482991806
 21
490.695298483748
 31
0.0
 70
    32
  1
<>
 71
     5
 42
-1.0
 53
0.00013888888889
  3
ME10_DIM_15
100
AcDbAlignedDimension
 13
81.1334459459
 23
446.5921354295
 33
0.0
 14
310.1334459459
 24
422.9919438669
 34
0.0
100
AcDbRotatedDimension
  0
DIMENSION
  5
14D
330
1F
100
AcDbEntity
  8
1
100
AcDbDimension
  2
*D8
 10
131.1334459459
 20
353.877595985394
 30
0.0
 11
212.636107930109
 21
357.627595985394
 31
0.0
 70
    32
  1
<>
 71
     5
 42
-1.0
 53
0.00013888888889
  3
ME10_DIM_16
100
AcDbAlignedDimension
 13
291.1334459459
 23
389.9919438669
 33
0.0
 14
131.1334459459
 24
362.9919438669
 34
0.0
100
AcDbRotatedDimension
  0
INSERT
  5
154
330
1F
100
AcDbEntity
  8
1
100
AcDbBlockReference
  2
*D9
 10
0.0
 20
0.0
 30
0.0
  0
ENDSEC
  0
SECTION
  2
OBJECTS
  0
DICTIONARY
  5
C
330
0
100
AcDbDictionary
281
     1
  3
ACAD_GROUP
350
D
  3
ACAD_LAYOUT
350
1A
  3
ACAD_MLEADERSTYLE
350
157
  3
ACAD_MLINESTYLE
350
17
  3
ACAD_PLOTSETTINGS
350
19
  3
ACAD_PLOTSTYLENAME
350
E
  3
ACAD_SCALELIST
350
49
  3
ACAD_VISUALSTYLE
350
2A
  3
AcDbVariableDictionary
350
155
  0
DICTIONARY
  5
D
102
{ACAD_REACTORS
330
C
102
}
330
C
100
AcDbDictionary
281
     1
  0
DICTIONARY
  5
1A
102
{ACAD_REACTORS
330
C
102
}
330
C
100
AcDbDictionary
281
     1
  3
Layout1
350
1E
  3
Layout2
350
26
  3
Model
350
22
  0
DICTIONARY
  5
157
102
{ACAD_REACTORS
330
C
102
}
330
C
100
AcDbDictionary
281
     1
  0
DICTIONARY
  5
17
102
{ACAD_REACTORS
330
C
102
}
330
C
100
AcDbDictionary
281
     1
  3
Standard
350
18
  0
DICTIONARY
  5
19
102
{ACAD_REACTORS
330
C
102
}
330
C
100
AcDbDictionary
281
     1
  0
ACDBDICTIONARYWDFLT
  5
E
102
{ACAD_REACTORS
330
C
102
}
330
C
100
AcDbDictionary
281
     1
  3
Normal
350
F
100
AcDbDictionaryWithDefault
340
F
  0
DICTIONARY
  5
49
102
{ACAD_REACTORS
330
C
102
}
330
C
100
AcDbDictionary
281
     1
  3
A0
350
4A
  3
A1
350
4B
  3
A2
350
4C
  3
A3
350
4D
  3
A4
350
4E
  3
A5
350
4F
  3
A6
350
50
  3
A7
350
51
  3
A8
350
52
  3
A9
350
53
  3
B0
350
54
  3
B1
350
55
  3
B2
350
56
  3
B3
350
57
  3
B4
350
58
  3
B5
350
59
  3
B6
350
5A
  3
B7
350
5B
  3
B8
350
5C
  3
B9
350
5D
  3
C0
350
5E
  3
C1
350
5F
  3
C2
350
60
  3
C3
350
61
  3
C4
350
62
  3
C5
350
63
  3
C6
350
64
  3
C7
350
65
  3
C8
350
66
  3
C9
350
67
  3
D0
350
68
  3
D1
350
69
  3
D2
350
6A
  0
DICTIONARY
  5
2A
102
{ACAD_REACTORS
330
C
102
}
330
C
100
AcDbDictionary
281
     1
  3
2dWireframe
350
2F
  3
3D Hidden
350
31
  3
3dWireframe
350
30
  3
Basic
350
32
  3
Brighten
350
36
  3
ColorChange
350
3A
  3
Conceptual
350
34
  3
Dim
350
35
  3
Facepattern
350
39
  3
Flat
350
2B
  3
FlatWithEdges
350
2C
  3
Gouraud
350
2D
  3
GouraudWithEdges
350
2E
  3
Linepattern
350
38
  3
Realistic
350
33
  3
Thicken
350
37
  0
DICTIONARY
  5
155
102
{ACAD_REACTORS
330
C
102
}
330
C
100
AcDbDictionary
281
     1
  3
CANNOSCALE
350
158
  0
LAYOUT
  5
1E
102
{ACAD_REACTORS
330
1A
102
}
330
1A
100
AcDbPlotSettings
  1

  2
none_device
  4

  6

 40
0.0
 41
0.0
 42
0.0
 43
0.0
 44
0.0
 45
0.0
 46
0.0
 47
0.0
 48
0.0
 49
0.0
140
0.0
141
0.0
142
1.0
143
1.0
 70
   688
 72
     0
 73
     0
 74
     5
  7

 75
    16
147
1.0
148
0.0
149
0.0
100
AcDbLayout
  1
Layout1
 70
     1
 71
     1
 10
0.0
 20
0.0
 11
12.0
 21
9.0
 12
0.0
 22
0.0
 32
0.0
 14
1.00000000000000E+20
 24
1.00000000000000E+20
 34
1.00000000000000E+20
 15
-1.00000000000000E+20
 25
-1.00000000000000E+20
 35
-1.00000000000000E+20
146
0.0
 13
0.0
 23
0.0
 33
0.0
 16
1.0
 26
0.0
 36
0.0
 17
0.0
 27
1.0
 37
0.0
 76
     0
330
1B
  0
LAYOUT
  5
26
102
{ACAD_REACTORS
330
1A
102
}
330
1A
100
AcDbPlotSettings
  1

  2
none_device
  4

  6

 40
0.0
 41
0.0
 42
0.0
 43
0.0
 44
0.0
 45
0.0
 46
0.0
 47
0.0
 48
0.0
 49
0.0
140
0.0
141
0.0
142
1.0
143
1.0
 70
   688
 72
     0
 73
     0
 74
     5
  7

 75
    16
147
1.0
148
0.0
149
0.0
100
AcDbLayout
  1
Layout2
 70
     1
 71
     2
 10
0.0
 20
0.0
 11
0.0
 21
0.0
 12
0.0
 22
0.0
 32
0.0
 14
0.0
 24
0.0
 34
0.0
 15
0.0
 25
0.0
 35
0.0
146
0.0
 13
0.0
 23
0.0
 33
0.0
 16
1.0
 26
0.0
 36
0.0
 17
0.0
 27
1.0
 37
0.0
 76
     0
330
23
  0
LAYOUT
  5
22
102
{ACAD_REACTORS
330
1A
102
}
330
1A
100
AcDbPlotSettings
  1

  2
none_device
  4

  6

 40
0.0
 41
0.0
 42
0.0
 43
0.0
 44
0.0
 45
0.0
 46
0.0
 47
0.0
 48
0.0
 49
0.0
140
0.0
141
0.0
142
1.0
143
1.0
 70
  1712
 72
     0
 73
     0
 74
     0
  7

 75
     0
147
1.0
148
0.0
149
0.0
100
AcDbLayout
  1
Model
 70
     1
 71
     0
 10
0.0
 20
0.0
 11
12.0
 21
9.0
 12
0.0
 22
0.0
 32
0.0
 14
54.1901526094321
 24
351.877595985394
 34
0.0
 15
332.468522751115
 25
492.445298483748
 35
0.0
146
0.0
 13
0.0
 23
0.0
 33
0.0
 16
1.0
 26
0.0
 36
0.0
 17
0.0
 27
1.0
 37
0.0
 76
     0
330
1F
331
29
  0
MLINESTYLE
  5
18
102
{ACAD_REACTORS
330
17
102
}
330
17
100
AcDbMlineStyle
  2
Standard
 70
     0
  3

 62
   256
 51
90.0
 52
90.0
 71
     2
 49
0.5
 62
   256
  6
BYLAYER
 49
-0.5
 62
   256
  6
BYLAYER
  0
ACDBPLACEHOLDER
  5
F
102
{ACAD_REACTORS
330
E
102
}
330
E
  0
SCALE
  5
4A
102
{ACAD_REACTORS
330
49
102
}
330
49
100
AcDbScale
 70
     0
300
1:1
140
1.0
141
1.0
290
     1
  0
SCALE
  5
4B
102
{ACAD_REACTORS
330
49
102
}
330
49
100
AcDbScale
 70
     0
300
1:2
140
1.0
141
2.0
290
     0
  0
SCALE
  5
4C
102
{ACAD_REACTORS
330
49
102
}
330
49
100
AcDbScale
 70
     0
300
1:4
140
1.0
141
4.0
290
     0
  0
SCALE
  5
4D
102
{ACAD_REACTORS
330
49
102
}
330
49
100
AcDbScale
 70
     0
300
1:5
140
1.0
141
5.0
290
     0
  0
SCALE
  5
4E
102
{ACAD_REACTORS
330
49
102
}
330
49
100
AcDbScale
 70
     0
300
1:8
140
1.0
141
8.0
290
     0
  0
SCALE
  5
4F
102
{ACAD_REACTORS
330
49
102
}
330
49
100
AcDbScale
 70
     0
300
1:10
140
1.0
141
10.0
290
     0
  0
SCALE
  5
50
102
{ACAD_REACTORS
330
49
102
}
330
49
100
AcDbScale
 70
     0
300
1:16
140
1.0
141
16.0
290
     0
  0
SCALE
  5
51
102
{ACAD_REACTORS
330
49
102
}
330
49
100
AcDbScale
 70
     0
300
1:20
140
1.0
141
20.0
290
     0
  0
SCALE
  5
52
102
{ACAD_REACTORS
330
49
102
}
330
49
100
AcDbScale
 70
     0
300
1:30
140
1.0
141
30.0
290
     0
  0
SCALE
  5
53
102
{ACAD_REACTORS
330
49
102
}
330
49
100
AcDbScale
 70
     0
300
1:40
140
1.0
141
40.0
290
     0
  0
SCALE
  5
54
102
{ACAD_REACTORS
330
49
102
}
330
49
100
AcDbScale
 70
     0
300
1:50
140
1.0
141
50.0
290
     0
  0
SCALE
  5
55
102
{ACAD_REACTORS
330
49
102
}
330
49
100
AcDbScale
 70
     0
300
1:100
140
1.0
141
100.0
290
     0
  0
SCALE
  5
56
102
{ACAD_REACTORS
330
49
102
}
330
49
100
AcDbScale
 70
     0
300
2:1
140
2.0
141
1.0
290
     0
  0
SCALE
  5
57
102
{ACAD_REACTORS
330
49
102
}
330
49
100
AcDbScale
 70
     0
300
4:1
140
4.0
141
1.0
290
     0
  0
SCALE
  5
58
102
{ACAD_REACTORS
330
49
102
}
330
49
100
AcDbScale
 70
     0
300
8:1
140
8.0
141
1.0
290
     0
  0
SCALE
  5
59
102
{ACAD_REACTORS
330
49
102
}
330
49
100
AcDbScale
 70
     0
300
10:1
140
10.0
141
1.0
290
     0
  0
SCALE
  5
5A
102
{ACAD_REACTORS
330
49
102
}
330
49
100
AcDbScale
 70
     0
300
100:1
140
100.0
141
1.0
290
     0
  0
SCALE
  5
5B
102
{ACAD_REACTORS
330
49
102
}
330
49
100
AcDbScale
 70
     0
300
1/128" = 1'-0"
140
0.0078125
141
12.0
290
     0
  0
SCALE
  5
5C
102
{ACAD_REACTORS
330
49
102
}
330
49
100
AcDbScale
 70
     0
300
1/64" = 1'-0"
140
0.015625
141
12.0
290
     0
  0
SCALE
  5
5D
102
{ACAD_REACTORS
330
49
102
}
330
49
100
AcDbScale
 70
     0
300
1/32" = 1'-0"
140
0.03125
141
12.0
290
     0
  0
SCALE
  5
5E
102
{ACAD_REACTORS
330
49
102
}
330
49
100
AcDbScale
 70
     0
300
1/16" = 1'-0"
140
0.0625
141
12.0
290
     0
  0
SCALE
  5
5F
102
{ACAD_REACTORS
330
49
102
}
330
49
100
AcDbScale
 70
     0
300
3/32" = 1'-0"
140
0.09375
141
12.0
290
     0
  0
SCALE
  5
60
102
{ACAD_REACTORS
330
49
102
}
330
49
100
AcDbScale
 70
     0
300
1/8" = 1'-0"
140
0.125
141
12.0
290
     0
  0
SCALE
  5
61
102
{ACAD_REACTORS
330
49
102
}
330
49
100
AcDbScale
 70
     0
300
3/16" = 1'-0"
140
0.1875
141
12.0
290
     0
  0
SCALE
  5
62
102
{ACAD_REACTORS
330
49
102
}
330
49
100
AcDbScale
 70
     0
300
1/4" = 1'-0"
140
0.25
141
12.0
290
     0
  0
SCALE
  5
63
102
{ACAD_REACTORS
330
49
102
}
330
49
100
AcDbScale
 70
     0
300
3/8" = 1'-0"
140
0.375
141
12.0
290
     0
  0
SCALE
  5
64
102
{ACAD_REACTORS
330
49
102
}
330
49
100
AcDbScale
 70
     0
300
1/2" = 1'-0"
140
0.5
141
12.0
290
     0
  0
SCALE
  5
65
102
{ACAD_REACTORS
330
49
102
}
330
49
100
AcDbScale
 70
     0
300
3/4" = 1'-0"
140
0.75
141
12.0
290
     0
  0
SCALE
  5
66
102
{ACAD_REACTORS
330
49
102
}
330
49
100
AcDbScale
 70
     0
300
1" = 1'-0"
140
1.0
141
12.0
290
     0
  0
SCALE
  5
67
102
{ACAD_REACTORS
330
49
102
}
330
49
100
AcDbScale
 70
     0
300
1-1/2" = 1'-0"
140
1.5
141
12.0
290
     0
  0
SCALE
  5
68
102
{ACAD_REACTORS
330
49
102
}
330
49
100
AcDbScale
 70
     0
300
3" = 1'-0"
140
3.0
141
12.0
290
     0
  0
SCALE
  5
69
102
{ACAD_REACTORS
330
49
102
}
330
49
100
AcDbScale
 70
     0
300
6" = 1'-0"
140
6.0
141
12.0
290
     0
  0
SCALE
  5
6A
102
{ACAD_REACTORS
330
49
102
}
330
49
100
AcDbScale
 70
     0
300
1'-0" = 1'-0"
140
12.0
141
12.0
290
     0
  0
VISUALSTYLE
  5
2F
102
{ACAD_REACTORS
330
2A
102
}
330
2A
100
AcDbVisualStyle
  2
2dWireframe
 70
     4
 71
     0
 72
     2
 73
     0
 90
        0
 40
-0.6
 41
-30.0
 62
     5
 63
     7
 74
     1
 91
        4
 64
     7
 65
   257
 75
     1
175
     1
 42
1.0
 92
        0
 66
   257
 43
1.0
 76
     1
 77
     6
 78
     2
 67
     7
 79
     5
170
     0
171
     0
290
     0
174
     0
 93
        1
 44
0.0
173
     0
291
     0
 45
0.0
1001
ACAD
1000
AcDbSavedByObjectVersion
1070
     0
  0
VISUALSTYLE
  5
31
102
{ACAD_REACTORS
330
2A
102
}
330
2A
100
AcDbVisualStyle
  2
3D Hidden
 70
     6
 71
     1
 72
     2
 73
     2
 90
        0
 40
-0.6
 41
-30.0
 62
     5
 63
     7
 74
     2
 91
        2
 64
     7
 65
   257
 75
     2
175
     1
 42
40.0
 92
        0
 66
   257
 43
1.0
 76
     1
 77
     6
 78
     2
 67
     7
 79
     3
170
     0
171
     0
290
     0
174
     0
 93
        1
 44
0.0
173
     0
291
     0
 45
0.0
1001
ACAD
1000
AcDbSavedByObjectVersion
1070
     0
  0
VISUALSTYLE
  5
30
102
{ACAD_REACTORS
330
2A
102
}
330
2A
100
AcDbVisualStyle
  2
3dWireframe
 70
     5
 71
     0
 72
     2
 73
     0
 90
        0
 40
-0.6
 41
-30.0
 62
     5
 63
     7
 74
     1
 91
        4
 64
     7
 65
   257
 75
     1
175
     1
 42
1.0
 92
        0
 66
   257
 43
1.0
 76
     1
 77
     6
 78
     2
 67
     7
 79
     5
170
     0
171
     0
290
     0
174
     0
 93
        1
 44
0.0
173
     0
291
     0
 45
0.0
1001
ACAD
1000
AcDbSavedByObjectVersion
1070
     0
  0
VISUALSTYLE
  5
32
102
{ACAD_REACTORS
330
2A
102
}
330
2A
100
AcDbVisualStyle
  2
Basic
 70
     7
 71
     1
 72
     0
 73
     1
 90
        0
 40
-0.6
 41
-30.0
 62
     5
 63
     7
 74
     0
 91
        4
 64
     7
 65
   257
 75
     1
175
     1
 42
1.0
 92
        8
 66
     7
 43
1.0
 76
     1
 77
     6
 78
     2
 67
     7
 79
     5
170
     0
171
     0
290
     0
174
     0
 93
        1
 44
0.0
173
     0
291
     1
 45
0.0
1001
ACAD
1000
AcDbSavedByObjectVersion
1070
     0
  0
VISUALSTYLE
  5
36
102
{ACAD_REACTORS
330
2A
102
}
330
2A
100
AcDbVisualStyle
  2
Brighten
 70
    12
 71
     2
 72
     2
 73
     0
 90
        0
 40
-0.6
 41
-30.0
 62
     5
 63
     7
 74
     1
 91
        4
 64
     7
 65
   257
 75
     1
175
     1
 42
1.0
 92
        8
 66
     7
 43
1.0
 76
     1
 77
     6
 78
     2
 67
     7
 79
     5
170
     0
171
     0
290
     0
174
     0
 93
        1
 44
50.0
173
     0
291
     1
 45
0.0
1001
ACAD
1000
AcDbSavedByObjectVersion
1070
     0
  0
VISUALSTYLE
  5
3A
102
{ACAD_REACTORS
330
2A
102
}
330
2A
100
AcDbVisualStyle
  2
ColorChange
 70
    16
 71
     2
 72
     2
 73
     3
 90
        0
 40
-0.6
 41
-30.0
 62
     5
 63
     8
 74
     1
 91
        4
 64
     7
 65
   257
 75
     1
175
     1
 42
1.0
 92
        8
 66
     8
 43
1.0
 76
     1
 77
     6
 78
     2
 67
     7
 79
     5
170
     0
171
     0
290
     0
174
     0
 93
        1
 44
0.0
173
     0
291
     1
 45
0.0
1001
ACAD
1000
AcDbSavedByObjectVersion
1070
     0
  0
VISUALSTYLE
  5
34
102
{ACAD_REACTORS
330
2A
102
}
330
2A
100
AcDbVisualStyle
  2
Conceptual
 70
     9
 71
     3
 72
     2
 73
     0
 90
        0
 40
-0.6
 41
-30.0
 62
     5
 63
     7
 74
     2
 91
        2
 64
     7
 65
   257
 75
     1
175
     1
 42
40.0
 92
        8
 66
     7
 43
1.0
 76
     1
 77
     6
 78
     2
 67
     7
 79
     3
170
     0
171
     0
290
     0
174
     0
 93
        1
 44
0.0
173
     0
291
     0
 45
0.0
1001
ACAD
1000
AcDbSavedByObjectVersion
1070
     0
  0
VISUALSTYLE
  5
35
102
{ACAD_REACTORS
330
2A
102
}
330
2A
100
AcDbVisualStyle
  2
Dim
 70
    11
 71
     2
 72
     2
 73
     0
 90
        0
 40
-0.6
 41
-30.0
 62
     5
 63
     7
 74
     1
 91
        4
 64
     7
 65
   257
 75
     1
175
     1
 42
1.0
 92
        8
 66
     7
 43
1.0
 76
     1
 77
     6
 78
     2
 67
     7
 79
     5
170
     0
171
     0
290
     0
174
     0
 93
        1
 44
-50.0
173
     0
291
     1
 45
0.0
1001
ACAD
1000
AcDbSavedByObjectVersion
1070
     0
  0
VISUALSTYLE
  5
39
102
{ACAD_REACTORS
330
2A
102
}
330
2A
100
AcDbVisualStyle
  2
Facepattern
 70
    15
 71
     2
 72
     2
 73
     0
 90
        0
 40
-0.6
 41
-30.0
 62
     5
 63
     7
 74
     1
 91
        4
 64
     7
 65
   257
 75
     1
175
     1
 42
1.0
 92
        8
 66
     7
 43
1.0
 76
     1
 77
     6
 78
     2
 67
     7
 79
     5
170
     0
171
     0
290
     0
174
     0
 93
        1
 44
0.0
173
     0
291
     1
 45
0.0
1001
ACAD
1000
AcDbSavedByObjectVersion
1070
     0
  0
VISUALSTYLE
  5
2B
102
{ACAD_REACTORS
330
2A
102
}
330
2A
100
AcDbVisualStyle
  2
Flat
 70
     0
 71
     2
 72
     1
 73
     1
 90
        2
 40
-0.6
 41
30.0
 62
     5
 63
     7
 74
     0
 91
        4
 64
     7
 65
   257
 75
     1
175
     1
 42
1.0
 92
        8
 66
     7
 43
1.0
 76
     1
 77
     6
 78
     2
 67
     7
 79
     5
170
     0
171
     0
290
     0
174
     0
 93
       13
 44
0.0
173
     0
291
     1
 45
0.0
1001
ACAD
1000
AcDbSavedByObjectVersion
1070
     0
  0
VISUALSTYLE
  5
2C
102
{ACAD_REACTORS
330
2A
102
}
330
2A
100
AcDbVisualStyle
  2
FlatWithEdges
 70
     1
 71
     2
 72
     1
 73
     1
 90
        2
 40
-0.6
 41
30.0
 62
     5
 63
     7
 74
     1
 91
        4
 64
     7
 65
   257
 75
     1
175
     1
 42
1.0
 92
        0
 66
   257
 43
1.0
 76
     1
 77
     6
 78
     2
 67
     7
 79
     5
170
     0
171
     0
290
     0
174
     0
 93
       13
 44
0.0
173
     0
291
     1
 45
0.0
1001
ACAD
1000
AcDbSavedByObjectVersion
1070
     0
  0
VISUALSTYLE
  5
2D
102
{ACAD_REACTORS
330
2A
102
}
330
2A
100
AcDbVisualStyle
  2
Gouraud
 70
     2
 71
     2
 72
     2
 73
     1
 90
        2
 40
-0.6
 41
30.0
 62
     5
 63
     7
 74
     0
 91
        4
 64
     7
 65
   257
 75
     1
175
     1
 42
1.0
 92
        0
 66
     7
 43
1.0
 76
     1
 77
     6
 78
     2
 67
     7
 79
     5
170
     0
171
     0
290
     0
174
     0
 93
       13
 44
0.0
173
     0
291
     1
 45
0.0
1001
ACAD
1000
AcDbSavedByObjectVersion
1070
     0
  0
VISUALSTYLE
  5
2E
102
{ACAD_REACTORS
330
2A
102
}
330
2A
100
AcDbVisualStyle
  2
GouraudWithEdges
 70
     3
 71
     2
 72
     2
 73
     1
 90
        2
 40
-0.6
 41
30.0
 62
     5
 63
     7
 74
     1
 91
        4
 64
     7
 65
   257
 75
     1
175
     1
 42
1.0
 92
        0
 66
   257
 43
1.0
 76
     1
 77
     6
 78
     2
 67
     7
 79
     5
170
     0
171
     0
290
     0
174
     0
 93
       13
 44
0.0
173
     0
291
     1
 45
0.0
1001
ACAD
1000
AcDbSavedByObjectVersion
1070
     0
  0
VISUALSTYLE
  5
38
102
{ACAD_REACTORS
330
2A
102
}
330
2A
100
AcDbVisualStyle
  2
Linepattern
 70
    14
 71
     2
 72
     2
 73
     0
 90
        0
 40
-0.6
 41
-30.0
 62
     5
 63
     7
 74
     1
 91
        4
 64
     7
 65
   257
 75
     7
175
     7
 42
1.0
 92
        8
 66
     7
 43
1.0
 76
     1
 77
     6
 78
     2
 67
     7
 79
     5
170
     0
171
     0
290
     0
174
     0
 93
        1
 44
0.0
173
     0
291
     1
 45
0.0
1001
ACAD
1000
AcDbSavedByObjectVersion
1070
     0
  0
VISUALSTYLE
  5
33
102
{ACAD_REACTORS
330
2A
102
}
330
2A
100
AcDbVisualStyle
  2
Realistic
 70
     8
 71
     2
 72
     2
 73
     0
 90
        0
 40
-0.6
 41
-30.0
 62
     5
 63
     7
 74
     1
 91
        0
 64
     7
 65
   257
 75
     1
175
     1
 42
1.0
 92
        8
 66
     8
 43
1.0
 76
     1
 77
     6
 78
     2
 67
     7
 79
     5
170
     0
171
     0
290
     0
174
     0
 93
       13
 44
0.0
173
     0
291
     0
 45
0.0
1001
ACAD
1000
AcDbSavedByObjectVersion
1070
     0
  0
VISUALSTYLE
  5
37
102
{ACAD_REACTORS
330
2A
102
}
330
2A
100
AcDbVisualStyle
  2
Thicken
 70
    13
 71
     2
 72
     2
 73
     0
 90
        0
 40
-0.6
 41
-30.0
 62
     5
 63
     7
 74
     1
 91
        4
 64
     7
 65
   257
 75
     1
175
     1
 42
1.0
 92
       12
 66
     7
 43
1.0
 76
     1
 77
     6
 78
     2
 67
     7
 79
     5
170
     0
171
     0
290
     0
174
     0
 93
        1
 44
0.0
173
     0
291
     1
 45
0.0
1001
ACAD
1000
AcDbSavedByObjectVersion
1070
     0
  0
DICTIONARYVAR
  5
158
102
{ACAD_REACTORS
330
155
102
}
330
155
100
DictionaryVariables
280
     0
  1
1:1
  0
ENDSEC
  0
EOF
