  0
SECTION
  2
HEADER
  9
$ACADVER
  1
AC1015
  9
$ACADMAINTVER
 70
     6
  9
$DWGCODEPAGE
  3
ANSI_1252
  9
$INSBASE
 10
0.0
 20
0.0
 30
0.0
  9
$EXTMIN
 10
52.18455777114301
 20
270.5993496607818
 30
0.0
  9
$EXTMAX
 10
247.573014872794
 20
379.368736578088
 30
0.0
  9
$LIMMIN
 10
0.0
 20
0.0
  9
$LIMMAX
 10
12.0
 20
9.0
  9
$ORTHOMODE
 70
     0
  9
$REGENMODE
 70
     1
  9
$FILLMODE
 70
     1
  9
$QTEXTMODE
 70
     0
  9
$MIRRTEXT
 70
     1
  9
$LTSCALE
 40
1.0
  9
$ATTMODE
 70
     1
  9
$TEXTSIZE
 40
0.2
  9
$TRACEWID
 40
0.05
  9
$TEXTSTYLE
  7
Standard
  9
$CLAYER
  8
0
  9
$CELTYPE
  6
ByLayer
  9
$CECOLOR
 62
   256
  9
$CELTSCALE
 40
1.0
  9
$DISPSILH
 70
     0
  9
$DIMSCALE
 40
1.0
  9
$DIMASZ
 40
0.18
  9
$DIMEXO
 40
0.0625
  9
$DIMDLI
 40
0.38
  9
$DIMRND
 40
0.0
  9
$DIMDLE
 40
0.0
  9
$DIMEXE
 40
0.18
  9
$DIMTP
 40
0.0
  9
$DIMTM
 40
0.0
  9
$DIMTXT
 40
0.18
  9
$DIMCEN
 40
0.09
  9
$DIMTSZ
 40
0.0
  9
$DIMTOL
 70
     0
  9
$DIMLIM
 70
     0
  9
$DIMTIH
 70
     1
  9
$DIMTOH
 70
     1
  9
$DIMSE1
 70
     0
  9
$DIMSE2
 70
     0
  9
$DIMTAD
 70
     0
  9
$DIMZIN
 70
     0
  9
$DIMBLK
  1

  9
$DIMASO
 70
     1
  9
$DIMSHO
 70
     1
  9
$DIMPOST
  1

  9
$DIMAPOST
  1

  9
$DIMALT
 70
     0
  9
$DIMALTD
 70
     2
  9
$DIMALTF
 40
25.4
  9
$DIMLFAC
 40
1.0
  9
$DIMTOFL
 70
     0
  9
$DIMTVP
 40
0.0
  9
$DIMTIX
 70
     0
  9
$DIMSOXD
 70
     0
  9
$DIMSAH
 70
     0
  9
$DIMBLK1
  1

  9
$DIMBLK2
  1

  9
$DIMSTYLE
  2
Standard
  9
$DIMCLRD
 70
     0
  9
$DIMCLRE
 70
     0
  9
$DIMCLRT
 70
     0
  9
$DIMTFAC
 40
1.0
  9
$DIMGAP
 40
0.09
  9
$DIMJUST
 70
     0
  9
$DIMSD1
 70
     0
  9
$DIMSD2
 70
     0
  9
$DIMTOLJ
 70
     1
  9
$DIMTZIN
 70
     0
  9
$DIMALTZ
 70
     0
  9
$DIMALTTZ
 70
     0
  9
$DIMUPT
 70
     0
  9
$DIMDEC
 70
     4
  9
$DIMTDEC
 70
     4
  9
$DIMALTU
 70
     2
  9
$DIMALTTD
 70
     2
  9
$DIMTXSTY
  7
Standard
  9
$DIMAUNIT
 70
     0
  9
$DIMADEC
 70
     0
  9
$DIMALTRND
 40
0.0
  9
$DIMAZIN
 70
     0
  9
$DIMDSEP
 70
    46
  9
$DIMATFIT
 70
     3
  9
$DIMFRAC
 70
     0
  9
$DIMLDRBLK
  1

  9
$DIMLUNIT
 70
     2
  9
$DIMLWD
 70
    -2
  9
$DIMLWE
 70
    -2
  9
$DIMTMOVE
 70
     0
  9
$LUNITS
 70
     2
  9
$LUPREC
 70
     4
  9
$SKETCHINC
 40
0.1
  9
$FILLETRAD
 40
0.5
  9
$AUNITS
 70
     0
  9
$AUPREC
 70
     0
  9
$MENU
  1
.
  9
$ELEVATION
 40
0.0
  9
$PELEVATION
 40
0.0
  9
$THICKNESS
 40
0.0
  9
$LIMCHECK
 70
     0
  9
$CHAMFERA
 40
0.5
  9
$CHAMFERB
 40
0.5
  9
$CHAMFERC
 40
1.0
  9
$CHAMFERD
 40
0.0
  9
$SKPOLY
 70
     0
  9
$TDCREATE
 40
2456637.603155347
  9
$TDUCREATE
 40
2456637.561488681
  9
$TDUPDATE
 40
2456637.603155359
  9
$TDUUPDATE
 40
2456637.561488692
  9
$TDINDWG
 40
0.0000000116
  9
$TDUSRTIMER
 40
0.0000000116
  9
$USRTIMER
 70
     1
  9
$ANGBASE
 50
0.0
  9
$ANGDIR
 70
     0
  9
$PDMODE
 70
     0
  9
$PDSIZE
 40
0.0
  9
$PLINEWID
 40
0.0
  9
$SPLFRAME
 70
     0
  9
$SPLINETYPE
 70
     6
  9
$SPLINESEGS
 70
     8
  9
$HANDSEED
  5
159
  9
$SURFTAB1
 70
     6
  9
$SURFTAB2
 70
     6
  9
$SURFTYPE
 70
     6
  9
$SURFU
 70
     6
  9
$SURFV
 70
     6
  9
$UCSBASE
  2

  9
$UCSNAME
  2

  9
$UCSORG
 10
0.0
 20
0.0
 30
0.0
  9
$UCSXDIR
 10
1.0
 20
0.0
 30
0.0
  9
$UCSYDIR
 10
0.0
 20
1.0
 30
0.0
  9
$UCSORTHOREF
  2

  9
$UCSORTHOVIEW
 70
     0
  9
$UCSORGTOP
 10
0.0
 20
0.0
 30
0.0
  9
$UCSORGBOTTOM
 10
0.0
 20
0.0
 30
0.0
  9
$UCSORGLEFT
 10
0.0
 20
0.0
 30
0.0
  9
$UCSORGRIGHT
 10
0.0
 20
0.0
 30
0.0
  9
$UCSORGFRONT
 10
0.0
 20
0.0
 30
0.0
  9
$UCSORGBACK
 10
0.0
 20
0.0
 30
0.0
  9
$PUCSBASE
  2

  9
$PUCSNAME
  2

  9
$PUCSORG
 10
0.0
 20
0.0
 30
0.0
  9
$PUCSXDIR
 10
1.0
 20
0.0
 30
0.0
  9
$PUCSYDIR
 10
0.0
 20
1.0
 30
0.0
  9
$PUCSORTHOREF
  2

  9
$PUCSORTHOVIEW
 70
     0
  9
$PUCSORGTOP
 10
0.0
 20
0.0
 30
0.0
  9
$PUCSORGBOTTOM
 10
0.0
 20
0.0
 30
0.0
  9
$PUCSORGLEFT
 10
0.0
 20
0.0
 30
0.0
  9
$PUCSORGRIGHT
 10
0.0
 20
0.0
 30
0.0
  9
$PUCSORGFRONT
 10
0.0
 20
0.0
 30
0.0
  9
$PUCSORGBACK
 10
0.0
 20
0.0
 30
0.0
  9
$USERI1
 70
     0
  9
$USERI2
 70
     0
  9
$USERI3
 70
     0
  9
$USERI4
 70
     0
  9
$USERI5
 70
     0
  9
$USERR1
 40
16.5
  9
$USERR2
 40
0.0
  9
$USERR3
 40
0.0
  9
$USERR4
 40
0.0
  9
$USERR5
 40
0.0
  9
$WORLDVIEW
 70
     1
  9
$SHADEDGE
 70
     3
  9
$SHADEDIF
 70
    70
  9
$TILEMODE
 70
     1
  9
$MAXACTVP
 70
    64
  9
$PINSBASE
 10
0.0
 20
0.0
 30
0.0
  9
$PLIMCHECK
 70
     0
  9
$PEXTMIN
 10
1.00000000000000E+20
 20
1.00000000000000E+20
 30
1.00000000000000E+20
  9
$PEXTMAX
 10
-1.00000000000000E+20
 20
-1.00000000000000E+20
 30
-1.00000000000000E+20
  9
$PLIMMIN
 10
0.0
 20
0.0
  9
$PLIMMAX
 10
12.0
 20
9.0
  9
$UNITMODE
 70
     0
  9
$VISRETAIN
 70
     1
  9
$PLINEGEN
 70
     0
  9
$PSLTSCALE
 70
     1
  9
$TREEDEPTH
 70
  3020
  9
$CMLSTYLE
  2
Standard
  9
$CMLJUST
 70
     0
  9
$CMLSCALE
 40
1.0
  9
$PROXYGRAPHICS
 70
     1
  9
$MEASUREMENT
 70
     1
  9
$CELWEIGHT
370
    -1
  9
$ENDCAPS
280
     0
  9
$JOINSTYLE
280
     0
  9
$LWDISPLAY
290
     0
  9
$INSUNITS
 70
     1
  9
$HYPERLINKBASE
  1

  9
$STYLESHEET
  1

  9
$XEDIT
290
     1
  9
$CEPSNTYPE
380
     0
  9
$PSTYLEMODE
290
     1
  9
$FINGERPRINTGUID
  2
{8A4EA0E4-96EA-4351-A99D-EB060B9FDF88}
  9
$VERSIONGUID
  2
{FAEB1C32-E019-11D5-929B-00C0DF256EC4}
  9
$EXTNAMES
290
     1
  9
$PSVPSCALE
 40
0.0
  9
$OLESTARTUP
290
     0
  0
ENDSEC
  0
SECTION
  2
CLASSES
  0
CLASS
  1
ACDBDICTIONARYWDFLT
  2
AcDbDictionaryWithDefault
  3
ObjectDBX Classes
 90
        0
280
     0
281
     0
  0
CLASS
  1
VISUALSTYLE
  2
AcDbVisualStyle
  3
ObjectDBX Classes
 90
     4095
280
     0
281
     0
  0
CLASS
  1
SCALE
  2
AcDbScale
  3
ObjectDBX Classes
 90
     1153
280
     0
281
     0
  0
CLASS
  1

  2
exOdDbPolyline
  3

 90
        0
280
     0
281
     1
  0
CLASS
  1

  2
exOdDbCircle
  3

 90
        0
280
     0
281
     1
  0
CLASS
  1

  2
exOdDbSpline
  3

 90
        0
280
     0
281
     1
  0
CLASS
  1
DICTIONARYVAR
  2
AcDbDictionaryVar
  3
ObjectDBX Classes
 90
        0
280
     0
281
     0
  0
CLASS
  1
ACDBPLACEHOLDER
  2
AcDbPlaceHolder
  3
ObjectDBX Classes
 90
        0
280
     0
281
     0
  0
CLASS
  1
LAYOUT
  2
AcDbLayout
  3
ObjectDBX Classes
 90
        0
280
     0
281
     0
  0
ENDSEC
  0
SECTION
  2
TABLES
  0
TABLE
  2
VPORT
  5
8
330
0
100
AcDbSymbolTable
 70
     1
  0
VPORT
  5
29
330
8
100
AcDbSymbolTableRecord
100
AcDbViewportTableRecord
  2
*Active
 70
     0
 10
0.0
 20
0.0
 11
1.0
 21
1.0
 12
149.8787863219685
 22
324.9840431194349
 13
0.0
 23
0.0
 14
0.5
 24
0.5
 15
0.5
 25
0.5
 16
0.0
 26
0.0
 36
1.0
 17
0.0
 27
0.0
 37
0.0
 40
134.1050580218574
 41
1.60267857142857
 42
50.0
 43
0.0
 44
0.0
 50
0.0
 51
0.0
 71
     0
 72
   100
 73
     1
 74
     3
 75
     0
 76
     0
 77
     0
 78
     0
281
     0
 65
     1
110
0.0
120
0.0
130
0.0
111
1.0
121
0.0
131
0.0
112
0.0
122
1.0
132
0.0
 79
     0
146
0.0
  0
ENDTAB
  0
TABLE
  2
LTYPE
  5
5
330
0
100
AcDbSymbolTable
 70
     8
  0
LTYPE
  5
14
330
5
100
AcDbSymbolTableRecord
100
AcDbLinetypeTableRecord
  2
ByBlock
 70
     0
  3

 72
    65
 73
     0
 40
0.0
  0
LTYPE
  5
15
330
5
100
AcDbSymbolTableRecord
100
AcDbLinetypeTableRecord
  2
ByLayer
 70
     0
  3

 72
    65
 73
     0
 40
0.0
  0
LTYPE
  5
16
330
5
100
AcDbSymbolTableRecord
100
AcDbLinetypeTableRecord
  2
Continuous
 70
     0
  3
Solid line
 72
    65
 73
     0
 40
0.0
  0
LTYPE
  5
3B
330
5
100
AcDbSymbolTableRecord
100
AcDbLinetypeTableRecord
  2
DASHED
 70
     0
  3
Dashed
 72
    65
 73
     2
 40
15.0
 49
7.0
 74
     0
 49
-8.0
 74
     0
  0
LTYPE
  5
3C
330
5
100
AcDbSymbolTableRecord
100
AcDbLinetypeTableRecord
  2
DOTTED
 70
     0
  3
Dotted
 72
    65
 73
     2
 40
1.0
 49
0.0
 74
     0
 49
-1.0
 74
     0
  0
LTYPE
  5
3D
330
5
100
AcDbSymbolTableRecord
100
AcDbLinetypeTableRecord
  2
DOT_CENTER
 70
     0
  3
Dot_Center
 72
    65
 73
     4
 40
14.0
 49
12.0
 74
     0
 49
-1.0
 74
     0
 49
0.0
 74
     0
 49
-1.0
 74
     0
  0
LTYPE
  5
3E
330
5
100
AcDbSymbolTableRecord
100
AcDbLinetypeTableRecord
  2
LONG_DASHED
 70
     0
  3
Long_Dashed
 72
    65
 73
     2
 40
15.0
 49
10.0
 74
     0
 49
-5.0
 74
     0
  0
LTYPE
  5
3F
330
5
100
AcDbSymbolTableRecord
100
AcDbLinetypeTableRecord
  2
DASH_CENTER
 70
     0
  3
Dash_Center
 72
    65
 73
     4
 40
14.0
 49
11.0
 74
     0
 49
-1.0
 74
     0
 49
1.0
 74
     0
 49
-1.0
 74
     0
  0
LTYPE
  5
40
330
5
100
AcDbSymbolTableRecord
100
AcDbLinetypeTableRecord
  2
PHANTOM
 70
     0
  3
Phantom
 72
    65
 73
     6
 40
13.0
 49
10.0
 74
     0
 49
-1.0
 74
     0
 49
0.0
 74
     0
 49
-1.0
 74
     0
 49
0.0
 74
     0
 49
-1.0
 74
     0
  0
LTYPE
  5
41
330
5
100
AcDbSymbolTableRecord
100
AcDbLinetypeTableRecord
  2
CENTER_DASH_DASH
 70
     0
  3
Center_Dash_Dash
 72
    65
 73
     6
 40
14.0
 49
9.0
 74
     0
 49
-1.0
 74
     0
 49
1.0
 74
     0
 49
-1.0
 74
     0
 49
1.0
 74
     0
 49
-1.0
 74
     0
  0
ENDTAB
  0
TABLE
  2
LAYER
  5
2
330
0
100
AcDbSymbolTable
 70
     6
  0
LAYER
  5
10
330
2
100
AcDbSymbolTableRecord
100
AcDbLayerTableRecord
  2
0
 70
     0
 62
     7
  6
Continuous
370
    -3
390
F
  0
LAYER
  5
42
330
2
100
AcDbSymbolTableRecord
100
AcDbLayerTableRecord
  2
1
 70
     0
 62
     7
  6
Continuous
370
    -3
390
F
  0
LAYER
  5
43
330
2
100
AcDbSymbolTableRecord
100
AcDbLayerTableRecord
  2
BEZUGSACHSEN
 70
     0
 62
     7
  6
Continuous
370
    -3
390
F
  0
LAYER
  5
44
330
2
100
AcDbSymbolTableRecord
100
AcDbLayerTableRecord
  2
FASEN
 70
     0
 62
     7
  6
Continuous
370
    -3
390
F
  0
LAYER
  5
45
330
2
100
AcDbSymbolTableRecord
100
AcDbLayerTableRecord
  2
RUNDUNGEN
 70
     0
 62
     7
  6
Continuous
370
    -3
390
F
  0
LAYER
  5
46
330
2
100
AcDbSymbolTableRecord
100
AcDbLayerTableRecord
  2
VERERBUNG
 70
     0
 62
     7
  6
Continuous
370
    -3
390
F
  0
ENDTAB
  0
TABLE
  2
STYLE
  5
3
330
0
100
AcDbSymbolTable
 70
     2
  0
STYLE
  5
11
330
3
100
AcDbSymbolTableRecord
100
AcDbTextStyleTableRecord
  2
Standard
 70
     0
 40
0.0
 41
1.0
 50
0.0
 71
     0
 42
0.2
  3
txt
  4

  0
STYLE
  5
6D
330
3
100
AcDbSymbolTableRecord
100
AcDbTextStyleTableRecord
  2
CONVERTER_11
 70
     0
 40
0.0
 41
0.72
 50
0.0
 71
     0
 42
0.2
  3
txt.shx
  4

  0
ENDTAB
  0
TABLE
  2
VIEW
  5
6
330
0
100
AcDbSymbolTable
 70
     0
  0
ENDTAB
  0
TABLE
  2
UCS
  5
7
330
0
100
AcDbSymbolTable
 70
     0
  0
ENDTAB
  0
TABLE
  2
APPID
  5
9
330
0
100
AcDbSymbolTable
 70
     1
  0
APPID
  5
12
330
9
100
AcDbSymbolTableRecord
100
AcDbRegAppTableRecord
  2
ACAD
 70
     0
  0
ENDTAB
  0
TABLE
  2
DIMSTYLE
  5
A
330
0
100
AcDbSymbolTable
 70
     8
100
AcDbDimStyleTable
  0
DIMSTYLE
105
27
330
A
100
AcDbSymbolTableRecord
100
AcDbDimStyleTableRecord
  2
Standard
 70
     0
340
11
  0
DIMSTYLE
105
10A
102
{ACAD_REACTORS
330
10B
102
}
330
A
100
AcDbSymbolTableRecord
100
AcDbDimStyleTableRecord
  2
ME10_DIM_10
 70
     0
  3
<>
 41
3.5
 42
2.0
 44
2.0
 71
     1
 73
     0
 74
     0
 77
     1
 78
     8
140
3.5
146
0.7
147
2.0
172
     1
173
     1
176
     2
177
     2
178
     3
271
     2
272
     0
340
6D
  0
DIMSTYLE
105
115
102
{ACAD_REACTORS
330
116
102
}
330
A
100
AcDbSymbolTableRecord
100
AcDbDimStyleTableRecord
  2
ME10_DIM_11
 70
     0
  3
<>
 41
3.5
 42
2.0
 44
2.0
 71
     1
 73
     0
 74
     0
 77
     1
 78
     8
140
3.5
146
0.7
147
2.0
172
     1
173
     1
176
     2
177
     2
178
     3
271
     2
272
     0
340
6D
  0
DIMSTYLE
105
120
102
{ACAD_REACTORS
330
121
102
}
330
A
100
AcDbSymbolTableRecord
100
AcDbDimStyleTableRecord
  2
ME10_DIM_12
 70
     0
  3
<>
 41
3.5
 42
2.0
 44
2.0
 71
     1
 73
     0
 74
     0
 77
     1
 78
     8
140
3.5
146
0.7
147
2.0
172
     1
173
     1
176
     2
177
     2
178
     3
271
     2
272
     0
340
6D
  0
DIMSTYLE
105
12B
102
{ACAD_REACTORS
330
12C
102
}
330
A
100
AcDbSymbolTableRecord
100
AcDbDimStyleTableRecord
  2
ME10_DIM_13
 70
     0
  3
<>
 41
3.5
 42
2.0
 44
2.0
 71
     1
 73
     0
 74
     0
 77
     1
 78
     8
140
3.5
146
0.7
147
2.0
172
     1
173
     1
176
     2
177
     2
178
     3
271
     2
272
     0
340
6D
  0
DIMSTYLE
105
136
102
{ACAD_REACTORS
330
137
102
}
330
A
100
AcDbSymbolTableRecord
100
AcDbDimStyleTableRecord
  2
ME10_DIM_14
 70
     0
  3
\U+2300<>
 41
3.5
 42
2.0
 44
2.0
 71
     1
 73
     0
 74
     0
 77
     1
 78
     8
140
3.5
146
0.7
147
2.0
172
     1
173
     1
176
     2
177
     2
178
     3
271
     2
272
     0
340
6D
  0
DIMSTYLE
105
141
102
{ACAD_REACTORS
330
142
102
}
330
A
100
AcDbSymbolTableRecord
100
AcDbDimStyleTableRecord
  2
ME10_DIM_15
 70
     0
  3
\U+2300<>
 41
3.5
 42
2.0
 44
2.0
 71
     1
 73
     0
 74
     0
 77
     1
 78
     8
140
3.5
146
0.7
147
2.0
172
     1
173
     1
176
     2
177
     2
178
     3
271
     2
272
     0
340
6D
  0
DIMSTYLE
105
14C
102
{ACAD_REACTORS
330
14D
102
}
330
A
100
AcDbSymbolTableRecord
100
AcDbDimStyleTableRecord
  2
ME10_DIM_16
 70
     0
  3
<>
 41
3.5
 42
2.0
 44
2.0
 71
     1
 73
     0
 74
     0
 77
     1
 78
     8
140
3.5
146
0.7
147
2.0
172
     1
173
     1
176
     2
177
     2
178
     3
271
     2
272
     0
340
6D
  0
ENDTAB
  0
TABLE
  2
BLOCK_RECORD
  5
1
330
0
100
AcDbSymbolTable
 70
    10
  0
BLOCK_RECORD
  5
1F
330
1
100
AcDbSymbolTableRecord
100
AcDbBlockTableRecord
  2
*Model_Space
340
22
  0
BLOCK_RECORD
  5
1B
330
1
100
AcDbSymbolTableRecord
100
AcDbBlockTableRecord
  2
*Paper_Space
340
1E
  0
BLOCK_RECORD
  5
23
330
1
100
AcDbSymbolTableRecord
100
AcDbBlockTableRecord
  2
*Paper_Space0
340
26
  0
BLOCK_RECORD
  5
47
330
1
100
AcDbSymbolTableRecord
100
AcDbBlockTableRecord
  2
Urheberrecht_DE-EN
340
0
102
{BLKREFS
331
6C
102
}
  0
BLOCK_RECORD
  5
101
330
1
100
AcDbSymbolTableRecord
100
AcDbBlockTableRecord
  2
*D2
340
0
  0
BLOCK_RECORD
  5
10C
330
1
100
AcDbSymbolTableRecord
100
AcDbBlockTableRecord
  2
*D3
340
0
  0
BLOCK_RECORD
  5
117
330
1
100
AcDbSymbolTableRecord
100
AcDbBlockTableRecord
  2
*D4
340
0
  0
BLOCK_RECORD
  5
122
330
1
100
AcDbSymbolTableRecord
100
AcDbBlockTableRecord
  2
*D5
340
0
  0
BLOCK_RECORD
  5
12D
330
1
100
AcDbSymbolTableRecord
100
AcDbBlockTableRecord
  2
*D6
340
0
  0
BLOCK_RECORD
  5
138
330
1
100
AcDbSymbolTableRecord
100
AcDbBlockTableRecord
  2
*D7
340
0
  0
BLOCK_RECORD
  5
143
330
1
100
AcDbSymbolTableRecord
100
AcDbBlockTableRecord
  2
*D8
340
0
  0
BLOCK_RECORD
  5
14E
330
1
100
AcDbSymbolTableRecord
100
AcDbBlockTableRecord
  2
*D9
340
0
102
{BLKREFS
331
154
102
}
  0
ENDTAB
  0
ENDSEC
  0
SECTION
  2
BLOCKS
  0
BLOCK
  5
20
330
1F
100
AcDbEntity
  8
0
100
AcDbBlockBegin
  2
*Model_Space
 70
     0
 10
0.0
 20
0.0
 30
0.0
  3
*Model_Space
  1

  0
ENDBLK
  5
21
330
1F
100
AcDbEntity
  8
0
100
AcDbBlockEnd
  0
BLOCK
  5
1C
330
1B
100
AcDbEntity
 67
     1
  8
0
100
AcDbBlockBegin
  2
*Paper_Space
 70
     0
 10
0.0
 20
0.0
 30
0.0
  3
*Paper_Space
  1

  0
ENDBLK
  5
1D
330
1B
100
AcDbEntity
 67
     1
  8
0
100
AcDbBlockEnd
  0
BLOCK
  5
24
330
23
100
AcDbEntity
  8
0
100
AcDbBlockBegin
  2
*Paper_Space0
 70
     0
 10
0.0
 20
0.0
 30
0.0
  3
*Paper_Space0
  1

  0
ENDBLK
  5
25
330
23
100
AcDbEntity
  8
0
100
AcDbBlockEnd
  0
BLOCK
  5
48
330
47
100
AcDbEntity
  8
0
100
AcDbBlockBegin
  2
Urheberrecht_DE-EN
 70
     0
 10
66.184557771143
 20
326.888736578088
 30
0.0
  3
Urheberrecht_DE-EN
  1

  0
MTEXT
  5
6E
330
47
100
AcDbEntity
  8
1
 62
     1
100
AcDbMText
 10
66.184557771143
 20
270.5993496607818
 30
0.0
 40
2.0
 41
0.0
 71
     7
 72
     1
  1
F\U+00fcr diese Unterlage behalten wir das Ur-\Pheberrecht. Sie darf nur f\U+00fcr den von uns \Pbestimmten Zweck benutzt und ohne unsere \PZustimmung weder vervielf\U+00e4ltigt noch\PDritten zug\U+00e4nglich gemacht werden.
  7
CONVERTER_11
 11
0.0
 21
1.0
 31
0.0
 73
     1
 44
0.90036014405762
  0
MTEXT
  5
6F
330
47
100
AcDbEntity
  8
1
 62
     1
100
AcDbMText
 10
66.184557771143
 20
326.888736578088
 30
0.0
 40
2.0
 41
0.0
 71
     7
 72
     1
  1
We own the copyright of this document. It \Pdetermined and may neither be copied or \Pmade accessible to outsiders without our\Ppermission.
  7
CONVERTER_11
 11
0.0
 21
1.0
 31
0.0
 73
     1
 44
0.90036014405762
  0
ENDBLK
  5
49
330
47
100
AcDbEntity
  8
0
100
AcDbBlockEnd
  0
BLOCK
  5
108
330
101
100
AcDbEntity
  8
0
100
AcDbBlockBegin
  2
*D2
 70
     1
 10
0.0
 20
0.0
 30
0.0
  3
*D2
  1

  0
LINE
  5
102
330
101
100
AcDbEntity
  8
1
  6
Continuous
 62
     2
100
AcDbLine
 10
106.8234472453
 20
274.956381226219
 30
0.0
 11
206.8234472453
 21
274.956381226219
 31
0.0
  0
LINE
  5
103
330
101
100
AcDbEntity
  8
1
  6
Continuous
 62
     2
100
AcDbLine
 10
206.8234472453
 20
290.3084784304
 30
0.0
 11
206.8234472453
 21
272.956381226219
 31
0.0
  0
LINE
  5
104
330
101
100
AcDbEntity
  8
1
  6
Continuous
 62
     2
100
AcDbLine
 10
106.8234472453
 20
281.8084784304
 30
0.0
 11
106.8234472453
 21
272.956381226219
 31
0.0
  0
SOLID
  5
105
330
101
100
AcDbEntity
  8
1
 62
     2
100
AcDbTrace
 10
110.3234472453
 20
275.4171649677749
 30
0.0
 11
110.3234472453
 21
274.4955974846631
 31
0.0
 12
106.8234472453
 22
274.956381226219
 32
0.0
 13
106.8234472453
 23
274.956381226219
 33
0.0
  0
SOLID
  5
106
330
101
100
AcDbEntity
  8
1
 62
     2
100
AcDbTrace
 10
203.3234472453
 20
274.4955974846631
 30
0.0
 11
203.3234472453
 21
275.4171649677749
 31
0.0
 12
206.8234472453
 22
274.956381226219
 32
0.0
 13
206.8234472453
 23
274.956381226219
 33
0.0
  0
MTEXT
  5
107
330
101
100
AcDbEntity
  8
1
 62
     3
100
AcDbMText
 10
153.280256001578
 20
276.956381226219
 30
0.0
 40
3.5
 41
0.0
 71
     7
 72
     1
  1
\C3;\C3;\C3;100\C2;\H2.45;\S^ ;\C3;
  7
CONVERTER_11
 11
0.9999999999970619
 21
2.424068405545306E-6
 31
0.0
 73
     1
 44
0.60024009603842
  0
ENDBLK
  5
109
330
101
100
AcDbEntity
  8
0
100
AcDbBlockEnd
  0
BLOCK
  5
113
330
10C
100
AcDbEntity
  8
0
100
AcDbBlockBegin
  2
*D3
 70
     1
 10
0.0
 20
0.0
 30
0.0
  3
*D3
  1

  0
LINE
  5
10D
330
10C
100
AcDbEntity
  8
1
  6
Continuous
 62
     2
100
AcDbLine
 10
225.8234472453
 20
371.612351385363
 30
0.0
 11
74.8234472453
 21
371.612351385363
 31
0.0
  0
LINE
  5
10E
330
10C
100
AcDbEntity
  8
1
  6
Continuous
 62
     2
100
AcDbLine
 10
74.8234472453
 20
338.8845056105
 30
0.0
 11
74.8234472453
 21
373.612351385363
 31
0.0
  0
LINE
  5
10F
330
10C
100
AcDbEntity
  8
1
  6
Continuous
 62
     2
100
AcDbLine
 10
225.8234472453
 20
327.3084784304
 30
0.0
 11
225.8234472453
 21
373.612351385363
 31
0.0
  0
SOLID
  5
110
330
10C
100
AcDbEntity
  8
1
 62
     2
100
AcDbTrace
 10
222.3234472453
 20
371.1515676438071
 30
0.0
 11
222.3234472453
 21
372.0731351269189
 31
0.0
 12
225.8234472453
 22
371.612351385363
 32
0.0
 13
225.8234472453
 23
371.612351385363
 33
0.0
  0
SOLID
  5
111
330
10C
100
AcDbEntity
  8
1
 62
     2
100
AcDbTrace
 10
78.3234472453
 20
372.0731351269189
 30
0.0
 11
78.3234472453
 21
371.1515676438071
 31
0.0
 12
74.8234472453
 22
371.612351385363
 32
0.0
 13
74.8234472453
 23
371.612351385363
 33
0.0
  0
MTEXT
  5
112
330
10C
100
AcDbEntity
  8
1
 62
     3
100
AcDbMText
 10
149.433858536411
 20
373.612351385363
 30
0.0
 40
3.5
 41
0.0
 71
     7
 72
     1
  1
\C3;\C3;\C3;151\C2;\H2.45;\S^ ;\C3;
  7
CONVERTER_11
 11
0.9999999999970619
 21
2.424068405545306E-6
 31
0.0
 73
     1
 44
0.60024009603842
  0
ENDBLK
  5
114
330
10C
100
AcDbEntity
  8
0
100
AcDbBlockEnd
  0
BLOCK
  5
11E
330
117
100
AcDbEntity
  8
0
100
AcDbBlockBegin
  2
*D4
 70
     1
 10
0.0
 20
0.0
 30
0.0
  3
*D4
  1

  0
LINE
  5
118
330
117
100
AcDbEntity
  8
1
  6
Continuous
 62
     2
100
AcDbLine
 10
225.8234472453
 20
364.256493686798
 30
0.0
 11
106.8234472453
 21
364.256493686798
 31
0.0
  0
LINE
  5
119
330
117
100
AcDbEntity
  8
1
  6
Continuous
 62
     2
100
AcDbLine
 10
106.8234472453
 20
348.8084784304
 30
0.0
 11
106.8234472453
 21
366.256493686798
 31
0.0
  0
LINE
  5
11A
330
117
100
AcDbEntity
  8
1
  6
Continuous
 62
     2
100
AcDbLine
 10
225.8234472453
 20
327.3084784304
 30
0.0
 11
225.8234472453
 21
366.256493686798
 31
0.0
  0
SOLID
  5
11B
330
117
100
AcDbEntity
  8
1
 62
     2
100
AcDbTrace
 10
222.3234472453
 20
363.7957099452422
 30
0.0
 11
222.3234472453
 21
364.7172774283539
 31
0.0
 12
225.8234472453
 22
364.256493686798
 32
0.0
 13
225.8234472453
 23
364.256493686798
 33
0.0
  0
SOLID
  5
11C
330
117
100
AcDbEntity
  8
1
 62
     2
100
AcDbTrace
 10
110.3234472453
 20
364.7172774283539
 30
0.0
 11
110.3234472453
 21
363.7957099452422
 31
0.0
 12
106.8234472453
 22
364.256493686798
 32
0.0
 13
106.8234472453
 23
364.256493686798
 33
0.0
  0
MTEXT
  5
11D
330
117
100
AcDbEntity
  8
1
 62
     3
100
AcDbMText
 10
162.380168085885
 20
366.256493686798
 30
0.0
 40
3.5
 41
0.0
 71
     7
 72
     1
  1
\C3;\C3;\C3;119\C2;\H2.45;\S^ ;\C3;
  7
CONVERTER_11
 11
0.9999999999970619
 21
2.424068405545306E-6
 31
0.0
 73
     1
 44
0.60024009603842
  0
ENDBLK
  5
11F
330
117
100
AcDbEntity
  8
0
100
AcDbBlockEnd
  0
BLOCK
  5
129
330
122
100
AcDbEntity
  8
0
100
AcDbBlockBegin
  2
*D5
 70
     1
 10
0.0
 20
0.0
 30
0.0
  3
*D5
  1

  0
LINE
  5
123
330
122
100
AcDbEntity
  8
1
  6
Continuous
 62
     2
100
AcDbLine
 10
225.8234472453
 20
348.499154705344
 30
0.0
 11
206.8234472453
 21
348.499154705344
 31
0.0
  0
LINE
  5
124
330
122
100
AcDbEntity
  8
1
  6
Continuous
 62
     2
100
AcDbLine
 10
206.8234472453
 20
340.3084784304
 30
0.0
 11
206.8234472453
 21
350.499154705344
 31
0.0
  0
LINE
  5
125
330
122
100
AcDbEntity
  8
1
  6
Continuous
 62
     2
100
AcDbLine
 10
225.8234472453
 20
327.3084784304
 30
0.0
 11
225.8234472453
 21
350.499154705344
 31
0.0
  0
SOLID
  5
126
330
122
100
AcDbEntity
  8
1
 62
     2
100
AcDbTrace
 10
222.3234472453
 20
348.0383709637881
 30
0.0
 11
222.3234472453
 21
348.9599384468999
 31
0.0
 12
225.8234472453
 22
348.499154705344
 32
0.0
 13
225.8234472453
 23
348.499154705344
 33
0.0
  0
SOLID
  5
127
330
122
100
AcDbEntity
  8
1
 62
     2
100
AcDbTrace
 10
210.3234472453
 20
348.9599384468999
 30
0.0
 11
210.3234472453
 21
348.0383709637881
 31
0.0
 12
206.8234472453
 22
348.499154705344
 32
0.0
 13
206.8234472453
 23
348.499154705344
 33
0.0
  0
MTEXT
  5
128
330
122
100
AcDbEntity
  8
1
 62
     3
100
AcDbMText
 10
214.51034303244
 20
350.499154705344
 30
0.0
 40
3.5
 41
0.0
 71
     7
 72
     1
  1
\C3;\C3;\C3;19\C2;\H2.45;\S^ ;\C3;
  7
CONVERTER_11
 11
0.9999999999970619
 21
2.424068405545306E-6
 31
0.0
 73
     1
 44
0.60024009603842
  0
ENDBLK
  5
12A
330
122
100
AcDbEntity
  8
0
100
AcDbBlockEnd
  0
BLOCK
  5
134
330
12D
100
AcDbEntity
  8
0
100
AcDbBlockBegin
  2
*D6
 70
     1
 10
0.0
 20
0.0
 30
0.0
  3
*D6
  1

  0
LINE
  5
12E
330
12D
100
AcDbEntity
  8
1
  6
Continuous
 62
     2
100
AcDbLine
 10
245.573014872794
 20
339.3084784304
 30
0.0
 11
245.573014872794
 21
291.3084784304
 31
0.0
  0
LINE
  5
12F
330
12D
100
AcDbEntity
  8
1
  6
Continuous
 62
     2
100
AcDbLine
 10
207.8234472453
 20
291.3084784304
 30
0.0
 11
247.573014872794
 21
291.3084784304
 31
0.0
  0
LINE
  5
130
330
12D
100
AcDbEntity
  8
1
  6
Continuous
 62
     2
100
AcDbLine
 10
207.8234472453
 20
339.3084784304
 30
0.0
 11
247.573014872794
 21
339.3084784304
 31
0.0
  0
SOLID
  5
131
330
12D
100
AcDbEntity
  8
1
 62
     2
100
AcDbTrace
 10
246.0337986143499
 20
335.8084784304
 30
0.0
 11
245.1122311312381
 21
335.8084784304
 31
0.0
 12
245.573014872794
 22
339.3084784304
 32
0.0
 13
245.573014872794
 23
339.3084784304
 33
0.0
  0
SOLID
  5
132
330
12D
100
AcDbEntity
  8
1
 62
     2
100
AcDbTrace
 10
245.1122311312381
 20
294.8084784304
 30
0.0
 11
246.0337986143499
 21
294.8084784304
 31
0.0
 12
245.573014872794
 22
291.3084784304
 32
0.0
 13
245.573014872794
 23
291.3084784304
 33
0.0
  0
MTEXT
  5
133
330
12D
100
AcDbEntity
  8
1
 62
     3
100
AcDbMText
 10
243.573014872794
 20
306.621937410444
 30
0.0
 40
3.5
 41
0.0
 71
     7
 72
     1
  1
\C3;%%c\C3;\C3;48\C2;\H2.45;\S^ ;\C3;
  7
CONVERTER_11
 11
0.0
 21
1.0
 31
0.0
 73
     1
 44
0.60024009603842
  0
ENDBLK
  5
135
330
12D
100
AcDbEntity
  8
0
100
AcDbBlockEnd
  0
BLOCK
  5
13F
330
138
100
AcDbEntity
  8
0
100
AcDbBlockBegin
  2
*D7
 70
     1
 10
0.0
 20
0.0
 30
0.0
  3
*D7
  1

  0
LINE
  5
139
330
138
100
AcDbEntity
  8
1
  6
Continuous
 62
     2
100
AcDbLine
 10
237.317460549069
 20
326.3084784304
 30
0.0
 11
237.317460549069
 21
304.3084784304
 31
0.0
  0
LINE
  5
13A
330
138
100
AcDbEntity
  8
1
  6
Continuous
 62
     2
100
AcDbLine
 10
226.8234472453
 20
304.3084784304
 30
0.0
 11
239.317460549069
 21
304.3084784304
 31
0.0
  0
LINE
  5
13B
330
138
100
AcDbEntity
  8
1
  6
Continuous
 62
     2
100
AcDbLine
 10
226.8234472453
 20
326.3084784304
 30
0.0
 11
239.317460549069
 21
326.3084784304
 31
0.0
  0
SOLID
  5
13C
330
138
100
AcDbEntity
  8
1
 62
     2
100
AcDbTrace
 10
237.7782442906249
 20
322.8084784304
 30
0.0
 11
236.8566768075131
 21
322.8084784304
 31
0.0
 12
237.317460549069
 22
326.3084784304
 32
0.0
 13
237.317460549069
 23
326.3084784304
 33
0.0
  0
SOLID
  5
13D
330
138
100
AcDbEntity
  8
1
 62
     2
100
AcDbTrace
 10
236.8566768075131
 20
307.8084784304
 30
0.0
 11
237.7782442906249
 21
307.8084784304
 31
0.0
 12
237.317460549069
 22
304.3084784304
 32
0.0
 13
237.317460549069
 23
304.3084784304
 33
0.0
  0
MTEXT
  5
13E
330
138
100
AcDbEntity
  8
1
 62
     3
100
AcDbMText
 10
235.317460549069
 20
306.355629206453
 30
0.0
 40
3.5
 41
0.0
 71
     7
 72
     1
  1
\C3;%%c\C3;\C3;22\C2;\H2.45;\S^ ;\C3;
  7
CONVERTER_11
 11
0.0
 21
1.0
 31
0.0
 73
     1
 44
0.60024009603842
  0
ENDBLK
  5
140
330
138
100
AcDbEntity
  8
0
100
AcDbBlockEnd
  0
BLOCK
  5
14A
330
143
100
AcDbEntity
  8
0
100
AcDbBlockBegin
  2
*D8
 70
     1
 10
0.0
 20
0.0
 30
0.0
  3
*D8
  1

  0
LINE
  5
144
330
143
100
AcDbEntity
  8
1
  6
Continuous
 62
     2
100
AcDbLine
 10
225.8234472453
 20
356.606401680291
 30
0.0
 11
132.8234472453
 21
356.606401680291
 31
0.0
  0
LINE
  5
145
330
143
100
AcDbEntity
  8
1
  6
Continuous
 62
     2
100
AcDbLine
 10
132.8234472453
 20
348.8084295248
 30
0.0
 11
132.8234472453
 21
358.606401680291
 31
0.0
  0
LINE
  5
146
330
143
100
AcDbEntity
  8
1
  6
Continuous
 62
     2
100
AcDbLine
 10
225.8234472453
 20
327.3084784304
 30
0.0
 11
225.8234472453
 21
358.606401680291
 31
0.0
  0
SOLID
  5
147
330
143
100
AcDbEntity
  8
1
 62
     2
100
AcDbTrace
 10
222.3234472453
 20
356.1456179387351
 30
0.0
 11
222.3234472453
 21
357.0671854218469
 31
0.0
 12
225.8234472453
 22
356.606401680291
 32
0.0
 13
225.8234472453
 23
356.606401680291
 33
0.0
  0
SOLID
  5
148
330
143
100
AcDbEntity
  8
1
 62
     2
100
AcDbTrace
 10
136.3234472453
 20
357.0671854218469
 30
0.0
 11
136.3234472453
 21
356.1456179387351
 31
0.0
 12
132.8234472453
 22
356.606401680291
 32
0.0
 13
132.8234472453
 23
356.606401680291
 33
0.0
  0
MTEXT
  5
149
330
143
100
AcDbEntity
  8
1
 62
     3
100
AcDbMText
 10
175.010891865503
 20
358.606401680291
 30
0.0
 40
3.5
 41
0.0
 71
     7
 72
     1
  1
\C3;\C3;\C3;93\C2;\H2.45;\S^ ;\C3;
  7
CONVERTER_11
 11
0.9999999999970619
 21
2.424068405545306E-6
 31
0.0
 73
     1
 44
0.60024009603842
  0
ENDBLK
  5
14B
330
143
100
AcDbEntity
  8
0
100
AcDbBlockEnd
  0
BLOCK
  5
152
330
14E
100
AcDbEntity
  8
0
100
AcDbBlockBegin
  2
*D9
 70
     1
 10
0.0
 20
0.0
 30
0.0
  3
*D9
  1

  0
LINE
  5
14F
330
14E
100
AcDbEntity
  8
1
  6
Continuous
 62
     2
100
AcDbLine
 10
142.5381587896355
 20
348.4707445212053
 30
0.0
 11
133.3577281490502
 21
339.9477185210521
 31
0.0
  0
SOLID
  5
150
330
14E
100
AcDbEntity
  8
1
 62
     2
100
AcDbTrace
 10
135.6092285462931
 20
342.666738127031
 30
0.0
 11
136.2362445886817
 21
341.9913585977911
 31
0.0
 12
133.3577281490502
 22
339.9477185210521
 32
0.0
 13
133.3577281490502
 23
339.9477185210521
 33
0.0
  0
MTEXT
  5
151
330
14E
100
AcDbEntity
  8
1
 62
     3
100
AcDbMText
 10
135.7395810332008
 20
344.8880443537741
 30
0.0
 40
3.5
 41
0.0
 71
     7
 72
     1
  1
\C3; R\C3;\C3;2\C2;\H2.45;\S^ ;\C3;
  7
CONVERTER_11
 11
0.7328595481248958
 21
0.6803799546739849
 31
0.0
 73
     1
 44
0.60024009603842
  0
ENDBLK
  5
153
330
14E
100
AcDbEntity
  8
0
100
AcDbBlockEnd
  0
ENDSEC
  0
SECTION
  2
ENTITIES
  0
INSERT
  5
6C
330
1F
100
AcDbEntity
  8
0
100
AcDbBlockReference
  2
Urheberrecht_DE-EN
 10
66.184557771143
 20
326.888736578088
 30
0.0
  0
LINE
  5
70
330
1F
100
AcDbEntity
  8
RUNDUNGEN
  6
Continuous
 62
     7
100
AcDbLine
 10
225.8234472453
 20
305.3084784304
 30
0.0
 11
225.8234472453
 21
325.3084784304
 31
0.0
  0
LINE
  5
71
330
1F
100
AcDbEntity
  8
RUNDUNGEN
  6
Continuous
 62
     9
100
AcDbLine
 10
224.8234472453
 20
304.3084784304
 30
0.0
 11
224.8234472453
 21
326.3084784304
 31
0.0
  0
LINE
  5
72
330
1F
100
AcDbEntity
  8
0
  6
Continuous
 62
     7
100
AcDbLine
 10
212.4234472453
 20
303.3084784304
 30
0.0
 11
212.4234472453
 21
293.3084784304
 31
0.0
  0
LINE
  5
73
330
1F
100
AcDbEntity
  8
0
  6
Continuous
 62
     7
100
AcDbLine
 10
212.4234472453
 20
337.3084784304
 30
0.0
 11
212.4234472453
 21
327.3084784304
 31
0.0
  0
LINE
  5
74
330
1F
100
AcDbEntity
  8
RUNDUNGEN
  6
Continuous
 62
     7
100
AcDbLine
 10
206.8234472453
 20
292.3084784304
 30
0.0
 11
206.8234472453
 21
338.3084784304
 31
0.0
  0
LINE
  5
75
330
1F
100
AcDbEntity
  8
RUNDUNGEN
  6
Continuous
 62
     9
100
AcDbLine
 10
205.8234472453
 20
291.3084784304
 30
0.0
 11
205.8234472453
 21
339.3084784304
 31
0.0
  0
LINE
  5
76
330
1F
100
AcDbEntity
  8
VERERBUNG
  6
Continuous
 62
     7
100
AcDbLine
 10
128.2009463201
 20
346.8084784304
 30
0.0
 11
132.8234472453
 21
346.8084784304
 31
0.0
  0
LINE
  5
77
330
1F
100
AcDbEntity
  8
VERERBUNG
  6
Continuous
 62
     7
100
AcDbLine
 10
118.8234472453
 20
346.8084784304
 30
0.0
 11
121.4459481706
 21
346.8084784304
 31
0.0
  0
LINE
  5
78
330
1F
100
AcDbEntity
  8
VERERBUNG
  6
Continuous
 62
     7
100
AcDbLine
 10
106.8234472453
 20
346.8084784304
 30
0.0
 11
108.8234472453
 21
346.8084784304
 31
0.0
  0
LINE
  5
79
330
1F
100
AcDbEntity
  8
VERERBUNG
  6
Continuous
 62
     7
100
AcDbLine
 10
123.9484472453
 20
342.8084784304
 30
0.0
 11
125.6984472453
 21
342.8084784304
 31
0.0
  0
LINE
  5
7A
330
1F
100
AcDbEntity
  8
VERERBUNG
  6
Continuous
 62
     7
100
AcDbLine
 10
75.963404181
 20
338.0830536879
 30
0.0
 11
104.8234472453
 21
339.52890258
 31
0.0
  0
LINE
  5
7B
330
1F
100
AcDbEntity
  8
VERERBUNG
  6
Continuous
 62
     7
100
AcDbLine
 10
106.5212776148
 20
339.32890258
 30
0.0
 11
105.6488489054
 21
339.32890258
 31
0.0
  0
LINE
  5
7C
330
1F
100
AcDbEntity
  8
0
  6
Continuous
 62
     7
100
AcDbLine
 10
134.8234472453
 20
339.3084784304
 30
0.0
 11
205.8234472453
 21
339.3084784304
 31
0.0
  0
LINE
  5
7D
330
1F
100
AcDbEntity
  8
0
  6
Continuous
 62
     7
100
AcDbLine
 10
206.8234472453
 20
337.3084784304
 30
0.0
 11
212.4234472453
 21
337.3084784304
 31
0.0
  0
LINE
  5
7E
330
1F
100
AcDbEntity
  8
VERERBUNG
  6
Continuous
 62
     7
100
AcDbLine
 10
105.4935574783
 20
339.3493470842
 30
0.0
 11
104.8234472453
 21
339.52890258
 31
0.0
  0
LINE
  5
7F
330
1F
100
AcDbEntity
  8
0
  6
Continuous
 62
     7
100
AcDbLine
 10
206.8234472453
 20
327.3084784304
 30
0.0
 11
212.4234472453
 21
327.3084784304
 31
0.0
  0
LINE
  5
80
330
1F
100
AcDbEntity
  8
0
  6
Continuous
 62
     7
100
AcDbLine
 10
206.8234472453
 20
326.3084784304
 30
0.0
 11
224.8234472453
 21
326.3084784304
 31
0.0
  0
LINE
  5
81
330
1F
100
AcDbEntity
  8
VERERBUNG
  6
Continuous
 62
     9
100
AcDbLine
 10
75.4951220557
 20
324.5784784304
 30
0.0
 11
80.3108542831
 21
324.5784784304
 31
0.0
  0
LINE
  5
82
330
1F
100
AcDbEntity
  8
0
  6
Continuous
 62
     7
100
AcDbLine
 10
126.1143341359
 20
323.3259784304
 30
0.0
 11
132.8234472453
 21
323.3259784304
 31
0.0
  0
LINE
  5
83
330
1F
100
AcDbEntity
  8
0
  6
Continuous
 62
     7
100
AcDbLine
 10
119.7909472453
 20
323.3259784304
 30
0.0
 11
123.5325603548
 21
323.3259784304
 31
0.0
  0
LINE
  5
84
330
1F
100
AcDbEntity
  8
0
  6
Continuous
 62
     7
100
AcDbLine
 10
123.9484472453
 20
323.0084784304
 30
0.0
 11
125.6984472453
 21
323.0084784304
 31
0.0
  0
LINE
  5
85
330
1F
100
AcDbEntity
  8
VERERBUNG
  6
Continuous
 62
     7
100
AcDbLine
 10
79.3234472453
 20
321.5784784304
 30
0.0
 11
75.8234472453
 21
321.5784784304
 31
0.0
  0
LINE
  5
86
330
1F
100
AcDbEntity
  8
VERERBUNG
  6
Continuous
 62
     9
100
AcDbLine
 10
93.5740105353
 20
315.3084783653
 30
0.0
 11
94.0733968668
 21
315.3084783826
 31
0.0
  0
LINE
  5
87
330
1F
100
AcDbEntity
  8
VERERBUNG
  6
Continuous
 62
     9
100
AcDbLine
 10
102.0728805405
 20
315.3084784816
 30
0.0
 11
101.5734910603
 21
315.3084784626
 31
0.0
  0
LWPOLYLINE
  5
88
330
1F
100
AcDbEntity
  8
BEZUGSACHSEN
  6
DOT_CENTER
 62
     7
100
AcDbPolyline
 90
        2
 70
     0
 43
0.25
 10
228.8234472453
 20
315.3084784304
 10
71.8234472453
 20
315.3084784304
  0
LINE
  5
89
330
1F
100
AcDbEntity
  8
VERERBUNG
  6
Continuous
 62
     7
100
AcDbLine
 10
79.3234472453
 20
309.0384784304
 30
0.0
 11
75.8234472453
 21
309.0384784304
 31
0.0
  0
LINE
  5
8A
330
1F
100
AcDbEntity
  8
VERERBUNG
  6
Continuous
 62
     7
100
AcDbLine
 10
121.4459481706
 20
346.8084784304
 30
0.0
 11
122.9484472453
 21
344.2060736945
 31
0.0
  0
LINE
  5
8B
330
1F
100
AcDbEntity
  8
0
  6
Continuous
 62
     7
100
AcDbLine
 10
123.9484472453
 20
307.6084784304
 30
0.0
 11
125.6984472453
 21
307.6084784304
 31
0.0
  0
LINE
  5
8C
330
1F
100
AcDbEntity
  8
0
  6
Continuous
 62
     7
100
AcDbLine
 10
119.7909472453
 20
307.2909784304
 30
0.0
 11
123.5325603548
 21
307.2909784304
 31
0.0
  0
LINE
  5
8D
330
1F
100
AcDbEntity
  8
0
  6
Continuous
 62
     7
100
AcDbLine
 10
132.8234472453
 20
307.2909784304
 30
0.0
 11
126.1143341359
 21
307.2909784304
 31
0.0
  0
LINE
  5
8E
330
1F
100
AcDbEntity
  8
VERERBUNG
  6
Continuous
 62
     9
100
AcDbLine
 10
80.3108542831
 20
306.0384784304
 30
0.0
 11
75.4951220557
 21
306.0384784304
 31
0.0
  0
LINE
  5
8F
330
1F
100
AcDbEntity
  8
0
  6
Continuous
 62
     7
100
AcDbLine
 10
206.8234472453
 20
304.3084784304
 30
0.0
 11
224.8234472453
 21
304.3084784304
 31
0.0
  0
LINE
  5
90
330
1F
100
AcDbEntity
  8
0
  6
Continuous
 62
     7
100
AcDbLine
 10
206.8234472453
 20
303.3084784304
 30
0.0
 11
212.4234472453
 21
303.3084784304
 31
0.0
  0
LINE
  5
91
330
1F
100
AcDbEntity
  8
VERERBUNG
  6
Continuous
 62
     7
100
AcDbLine
 10
105.4935574783
 20
291.2676097765
 30
0.0
 11
104.8234472453
 21
291.0880542807
 31
0.0
  0
LINE
  5
92
330
1F
100
AcDbEntity
  8
VERERBUNG
  6
Continuous
 62
     7
100
AcDbLine
 10
121.4459481706
 20
283.8084784304
 30
0.0
 11
122.9484472453
 21
286.4108831662
 31
0.0
  0
LINE
  5
93
330
1F
100
AcDbEntity
  8
0
  6
Continuous
 62
     7
100
AcDbLine
 10
126.6984472453
 20
295.4584784304
 30
0.0
 11
132.8234472453
 21
295.4584784304
 31
0.0
  0
LINE
  5
94
330
1F
100
AcDbEntity
  8
FASEN
  6
Continuous
 62
     7
100
AcDbLine
 10
126.68808198
 20
295.4584784304
 30
0.0
 11
126.6984472453
 21
295.4584784304
 31
0.0
  0
LINE
  5
95
330
1F
100
AcDbEntity
  8
FASEN
  6
Continuous
 62
     7
100
AcDbLine
 10
122.9484472453
 20
295.4584784304
 30
0.0
 11
122.9588125106
 21
295.4584784304
 31
0.0
  0
LINE
  5
96
330
1F
100
AcDbEntity
  8
0
  6
Continuous
 62
     7
100
AcDbLine
 10
118.9604576484
 20
295.4584784304
 30
0.0
 11
122.9484472453
 21
295.4584784304
 31
0.0
  0
LINE
  5
97
330
1F
100
AcDbEntity
  8
FASEN
  6
Continuous
 62
     7
100
AcDbLine
 10
126.68808198
 20
295.0584784304
 30
0.0
 11
132.8234472453
 21
295.0584784304
 31
0.0
  0
LINE
  5
98
330
1F
100
AcDbEntity
  8
FASEN
  6
Continuous
 62
     7
100
AcDbLine
 10
118.9604576484
 20
295.0584784304
 30
0.0
 11
122.9588125106
 21
295.0584784304
 31
0.0
  0
LINE
  5
99
330
1F
100
AcDbEntity
  8
0
  6
Continuous
 62
     7
100
AcDbLine
 10
206.8234472453
 20
293.3084784304
 30
0.0
 11
212.4234472453
 21
293.3084784304
 31
0.0
  0
LINE
  5
9A
330
1F
100
AcDbEntity
  8
RUNDUNGEN
  6
Continuous
 62
     9
100
AcDbLine
 10
134.8234472453
 20
339.3084784304
 30
0.0
 11
134.8234472453
 21
291.3084784304
 31
0.0
  0
LINE
  5
9B
330
1F
100
AcDbEntity
  8
0
  6
Continuous
 62
     7
100
AcDbLine
 10
132.8234472453
 20
289.3084784304
 30
0.0
 11
132.8234472453
 21
283.8085174921
 31
0.0
  0
LINE
  5
9C
330
1F
100
AcDbEntity
  8
VERERBUNG
  6
Continuous
 62
     7
100
AcDbLine
 10
75.963404181
 20
292.5339031729
 30
0.0
 11
104.8234472453
 21
291.0880542807
 31
0.0
  0
LINE
  5
9D
330
1F
100
AcDbEntity
  8
0
  6
Continuous
 62
     7
100
AcDbLine
 10
134.8234472453
 20
291.3084784304
 30
0.0
 11
205.8234472453
 21
291.3084784304
 31
0.0
  0
LINE
  5
9E
330
1F
100
AcDbEntity
  8
VERERBUNG
  6
Continuous
 62
     7
100
AcDbLine
 10
106.5212776148
 20
291.2880542807
 30
0.0
 11
105.6488489054
 21
291.2880542807
 31
0.0
  0
LINE
  5
9F
330
1F
100
AcDbEntity
  8
0
  6
Continuous
 62
     7
100
AcDbLine
 10
128.2009463201
 20
290.849788768
 30
0.0
 11
132.8234472453
 21
290.849788768
 31
0.0
  0
LINE
  5
A0
330
1F
100
AcDbEntity
  8
FASEN
  6
Continuous
 62
     7
100
AcDbLine
 10
112.1590596896
 20
290.849788768
 30
0.0
 11
121.4459481706
 21
290.849788768
 31
0.0
  0
LINE
  5
A1
330
1F
100
AcDbEntity
  8
VERERBUNG
  6
Continuous
 62
     7
100
AcDbLine
 10
123.9484472453
 20
287.8084784304
 30
0.0
 11
125.6984472453
 21
287.8084784304
 31
0.0
  0
LINE
  5
A2
330
1F
100
AcDbEntity
  8
0
  6
Continuous
 62
     7
100
AcDbLine
 10
128.2009463201
 20
290.849788768
 30
0.0
 11
128.2009463201
 21
283.8084784304
 31
0.0
  0
LINE
  5
A3
330
1F
100
AcDbEntity
  8
0
  6
Continuous
 62
     7
100
AcDbLine
 10
128.2009463201
 20
307.2909784304
 30
0.0
 11
128.2009463201
 21
295.4584784304
 31
0.0
  0
LINE
  5
A4
330
1F
100
AcDbEntity
  8
0
  6
Continuous
 62
     7
100
AcDbLine
 10
128.2009463201
 20
346.8084784304
 30
0.0
 11
128.2009463201
 21
323.3259784304
 31
0.0
  0
LINE
  5
A5
330
1F
100
AcDbEntity
  8
0
  6
Continuous
 62
     7
100
AcDbLine
 10
126.6984472453
 20
323.3259784304
 30
0.0
 11
126.6984472453
 21
344.206051158
 31
0.0
  0
LINE
  5
A6
330
1F
100
AcDbEntity
  8
0
  6
Continuous
 62
     7
100
AcDbLine
 10
126.6984472453
 20
295.4584784304
 30
0.0
 11
126.6984472453
 21
307.2909784304
 31
0.0
  0
LINE
  5
A7
330
1F
100
AcDbEntity
  8
0
  6
Continuous
 62
     7
100
AcDbLine
 10
126.6984472453
 20
286.4108894789
 30
0.0
 11
126.6984472453
 21
294.8578671925
 31
0.0
  0
LINE
  5
A8
330
1F
100
AcDbEntity
  8
0
  6
Continuous
 62
     9
100
AcDbLine
 10
125.6984472453
 20
323.0084784304
 30
0.0
 11
125.6984472453
 21
342.8084784304
 31
0.0
  0
LINE
  5
A9
330
1F
100
AcDbEntity
  8
0
  6
Continuous
 62
     9
100
AcDbLine
 10
125.6984472453
 20
287.8084784304
 30
0.0
 11
125.6984472453
 21
307.6084784304
 31
0.0
  0
LINE
  5
AA
330
1F
100
AcDbEntity
  8
0
  6
Continuous
 62
     9
100
AcDbLine
 10
123.9484472453
 20
323.0084784304
 30
0.0
 11
123.9484472453
 21
342.8084784304
 31
0.0
  0
LINE
  5
AB
330
1F
100
AcDbEntity
  8
0
  6
Continuous
 62
     9
100
AcDbLine
 10
123.9484472453
 20
287.8084784304
 30
0.0
 11
123.9484472453
 21
307.6084784304
 31
0.0
  0
LINE
  5
AC
330
1F
100
AcDbEntity
  8
VERERBUNG
  6
Continuous
 62
     9
100
AcDbLine
 10
75.8234472453
 20
322.9383601102
 30
0.0
 11
74.8234472453
 21
323.4850662169
 31
0.0
  0
LINE
  5
AD
330
1F
100
AcDbEntity
  8
VERERBUNG
  6
Continuous
 62
     7
100
AcDbLine
 10
128.2009463201
 20
283.8084784304
 30
0.0
 11
132.8234472453
 21
283.8084784304
 31
0.0
  0
LINE
  5
AE
330
1F
100
AcDbEntity
  8
VERERBUNG
  6
Continuous
 62
     7
100
AcDbLine
 10
106.8234472453
 20
283.8084784304
 30
0.0
 11
121.4459481706
 21
283.8084784304
 31
0.0
  0
LINE
  5
AF
330
1F
100
AcDbEntity
  8
VERERBUNG
  6
Continuous
 62
     9
100
AcDbLine
 10
74.8234472453
 20
307.1318906438
 30
0.0
 11
75.8234472453
 21
307.6785967505
 31
0.0
  0
LINE
  5
B0
330
1F
100
AcDbEntity
  8
0
  6
Continuous
 62
     7
100
AcDbLine
 10
122.9484472453
 20
286.4108894789
 30
0.0
 11
122.9484472453
 21
294.8578671925
 31
0.0
  0
LINE
  5
B1
330
1F
100
AcDbEntity
  8
0
  6
Continuous
 62
     7
100
AcDbLine
 10
122.9484472453
 20
307.2909784304
 30
0.0
 11
122.9484472453
 21
295.4584784304
 31
0.0
  0
LINE
  5
B2
330
1F
100
AcDbEntity
  8
0
  6
Continuous
 62
     7
100
AcDbLine
 10
122.9484472453
 20
344.206051158
 30
0.0
 11
122.9484472453
 21
323.3259784304
 31
0.0
  0
LINE
  5
B3
330
1F
100
AcDbEntity
  8
0
  6
Continuous
 62
     7
100
AcDbLine
 10
121.4459481706
 20
290.849788768
 30
0.0
 11
121.4459481706
 21
283.8084784304
 31
0.0
  0
LINE
  5
B4
330
1F
100
AcDbEntity
  8
0
  6
Continuous
 62
     7
100
AcDbLine
 10
121.4459481706
 20
307.2909784304
 30
0.0
 11
121.4459481706
 21
295.4584784304
 31
0.0
  0
LINE
  5
B5
330
1F
100
AcDbEntity
  8
0
  6
Continuous
 62
     7
100
AcDbLine
 10
121.4459481706
 20
346.8084784304
 30
0.0
 11
121.4459481706
 21
323.3259784304
 31
0.0
  0
LINE
  5
B6
330
1F
100
AcDbEntity
  8
FASEN
  6
Continuous
 62
     9
100
AcDbLine
 10
118.9604576484
 20
295.0584784304
 30
0.0
 11
118.9604576484
 21
295.4584784304
 31
0.0
  0
LINE
  5
B7
330
1F
100
AcDbEntity
  8
VERERBUNG
  6
Continuous
 62
     7
100
AcDbLine
 10
126.6984472453
 20
286.4108831662
 30
0.0
 11
128.2009463201
 21
283.8084784304
 31
0.0
  0
LINE
  5
B8
330
1F
100
AcDbEntity
  8
VERERBUNG
  6
Continuous
 62
     7
100
AcDbLine
 10
126.6984472453
 20
344.2060736945
 30
0.0
 11
128.2009463201
 21
346.8084784304
 31
0.0
  0
LWPOLYLINE
  5
B9
330
1F
100
AcDbEntity
  8
BEZUGSACHSEN
  6
DOT_CENTER
 62
     7
100
AcDbPolyline
 90
        2
 70
     0
 43
0.25
 10
113.8234472453
 20
338.8091215105
 10
113.8234472453
 20
349.8084784304
  0
LINE
  5
BA
330
1F
100
AcDbEntity
  8
VERERBUNG
  6
Continuous
 62
     7
100
AcDbLine
 10
75.8234472453
 20
321.5784784304
 30
0.0
 11
74.8234472453
 21
322.5784784304
 31
0.0
  0
LINE
  5
BB
330
1F
100
AcDbEntity
  8
VERERBUNG
  6
Continuous
 62
     7
100
AcDbLine
 10
106.8234472453
 20
346.8084784304
 30
0.0
 11
106.8234472453
 21
283.8084784304
 31
0.0
  0
LINE
  5
BC
330
1F
100
AcDbEntity
  8
VERERBUNG
  6
Continuous
 62
     9
100
AcDbLine
 10
106.5212776148
 20
291.2880542807
 30
0.0
 11
106.5212776148
 21
339.32890258
 31
0.0
  0
LINE
  5
BD
330
1F
100
AcDbEntity
  8
VERERBUNG
  6
Continuous
 62
     9
100
AcDbLine
 10
105.6488489054
 20
291.2880542807
 30
0.0
 11
105.6488489054
 21
339.32890258
 31
0.0
  0
LINE
  5
BE
330
1F
100
AcDbEntity
  8
VERERBUNG
  6
Continuous
 62
     9
100
AcDbLine
 10
105.4935574783
 20
291.2676097765
 30
0.0
 11
105.4935574783
 21
339.3493470842
 31
0.0
  0
LINE
  5
BF
330
1F
100
AcDbEntity
  8
VERERBUNG
  6
Continuous
 62
     7
100
AcDbLine
 10
104.8234472453
 20
339.52890258
 30
0.0
 11
104.8234472453
 21
291.0880542807
 31
0.0
  0
LINE
  5
C0
330
1F
100
AcDbEntity
  8
VERERBUNG
  6
Continuous
 62
     7
100
AcDbLine
 10
74.8234472453
 20
308.0384784304
 30
0.0
 11
75.8234472453
 21
309.0384784304
 31
0.0
  0
LWPOLYLINE
  5
C1
330
1F
100
AcDbEntity
  8
BEZUGSACHSEN
  6
DOT_CENTER
 62
     7
100
AcDbPolyline
 90
        2
 70
     0
 43
0.25
 10
97.8234472453
 20
315.3084784304
 10
97.8234472453
 20
322.0584784304
  0
LWPOLYLINE
  5
C2
330
1F
100
AcDbEntity
  8
BEZUGSACHSEN
  6
DOT_CENTER
 62
     7
100
AcDbPolyline
 90
        2
 70
     0
 43
0.25
 10
97.8234472453
 20
315.3084784304
 10
97.8234472453
 20
308.5584784304
  0
LINE
  5
C3
330
1F
100
AcDbEntity
  8
VERERBUNG
  6
Continuous
 62
     7
100
AcDbLine
 10
80.8234472453
 20
322.7502661489
 30
0.0
 11
80.8234472453
 21
307.8666907118
 31
0.0
  0
LINE
  5
C4
330
1F
100
AcDbEntity
  8
VERERBUNG
  6
Continuous
 62
     9
100
AcDbLine
 10
79.3234472453
 20
321.5784784304
 30
0.0
 11
79.3234472453
 21
325.2647913123
 31
0.0
  0
LINE
  5
C5
330
1F
100
AcDbEntity
  8
VERERBUNG
  6
Continuous
 62
     9
100
AcDbLine
 10
79.3234472453
 20
305.3521655484
 30
0.0
 11
79.3234472453
 21
309.0384784304
 31
0.0
  0
LINE
  5
C6
330
1F
100
AcDbEntity
  8
VERERBUNG
  6
Continuous
 62
     9
100
AcDbLine
 10
75.963404181
 20
305.746450499
 30
0.0
 11
75.963404181
 21
292.5339031729
 31
0.0
  0
LINE
  5
C7
330
1F
100
AcDbEntity
  8
VERERBUNG
  6
Continuous
 62
     9
100
AcDbLine
 10
75.963404181
 20
338.0830536879
 30
0.0
 11
75.963404181
 21
324.8705063617
 31
0.0
  0
LINE
  5
C8
330
1F
100
AcDbEntity
  8
VERERBUNG
  6
Continuous
 62
     7
100
AcDbLine
 10
75.8234472453
 20
321.5784784304
 30
0.0
 11
75.8234472453
 21
322.9383601102
 31
0.0
  0
LINE
  5
C9
330
1F
100
AcDbEntity
  8
VERERBUNG
  6
Continuous
 62
     7
100
AcDbLine
 10
75.8234472453
 20
307.6785967505
 30
0.0
 11
75.8234472453
 21
309.0384784304
 31
0.0
  0
LINE
  5
CA
330
1F
100
AcDbEntity
  8
VERERBUNG
  6
Continuous
 62
     7
100
AcDbLine
 10
74.8234472453
 20
322.5784784304
 30
0.0
 11
74.8234472453
 21
336.8845056105
 31
0.0
  0
LINE
  5
CB
330
1F
100
AcDbEntity
  8
VERERBUNG
  6
Continuous
 62
     7
100
AcDbLine
 10
74.8234472453
 20
293.7324511535
 30
0.0
 11
74.8234472453
 21
308.0384784304
 31
0.0
  0
LINE
  5
CC
330
1F
100
AcDbEntity
  8
0
  6
Continuous
 62
     7
100
AcDbLine
 10
132.8234472453
 20
341.3084784304
 30
0.0
 11
132.8234472453
 21
346.8084295248
 31
0.0
  0
LWPOLYLINE
  5
CD
330
1F
100
AcDbEntity
  8
1
  6
Continuous
 62
     7
100
AcDbPolyline
 90
        2
 70
     0
 43
0.5
 10
132.8234472453
 20
289.3084784304
 10
132.8234472453
 20
341.3084784304
  0
ARC
  5
CE
330
1F
100
AcDbEntity
  8
VERERBUNG
  6
Continuous
 62
     7
100
AcDbCircle
 10
125.6984472453
 20
343.8084784304
 30
0.0
 40
1.0
100
AcDbArc
 50
270.0
 51
0.0
  0
ARC
  5
CF
330
1F
100
AcDbEntity
  8
RUNDUNGEN
  6
Continuous
 62
     7
100
AcDbCircle
 10
224.8234472453
 20
325.3084784304
 30
0.0
 40
1.0
100
AcDbArc
 50
0.0
 51
90.0
  0
ARC
  5
D0
330
1F
100
AcDbEntity
  8
RUNDUNGEN
  6
Continuous
 62
     7
100
AcDbCircle
 10
205.8234472453
 20
338.3084784304
 30
0.0
 40
1.0
100
AcDbArc
 50
0.0
 51
90.0
  0
ARC
  5
D1
330
1F
100
AcDbEntity
  8
0
  6
Continuous
 62
     7
100
AcDbCircle
 10
270.5719887181
 20
354.7734820347
 30
0.0
 40
156.0632957307998
100
AcDbArc
 50
202.7956985943999
 51
204.1797772478128
  0
ARC
  5
D2
330
1F
100
AcDbEntity
  8
VERERBUNG
  6
Continuous
 62
     7
100
AcDbCircle
 10
180.7070446519
 20
1183.8435403474
 30
0.0
 40
884.3221864338998
100
AcDbArc
 50
263.1976259303
 51
263.4168190487979
  0
ARC
  5
D3
330
1F
100
AcDbEntity
  8
VERERBUNG
  6
Continuous
 62
     7
100
AcDbCircle
 10
125.6984472453
 20
286.8084784304
 30
0.0
 40
1.0
100
AcDbArc
 50
0.0
 51
90.0
  0
ARC
  5
D4
330
1F
100
AcDbEntity
  8
RUNDUNGEN
  6
Continuous
 62
     7
100
AcDbCircle
 10
224.8234472453
 20
305.3084784304
 30
0.0
 40
1.0
100
AcDbArc
 50
270.0
 51
0.0
  0
ARC
  5
D5
330
1F
100
AcDbEntity
  8
RUNDUNGEN
  6
Continuous
 62
     7
100
AcDbCircle
 10
205.8234472453
 20
292.3084784304
 30
0.0
 40
1.0
100
AcDbArc
 50
270.0
 51
0.0
  0
ARC
  5
D6
330
1F
100
AcDbEntity
  8
FASEN
  6
Continuous
 62
     7
100
AcDbCircle
 10
124.8959927084
 20
294.8578139969
 30
0.0
 40
1.947545463813446
100
AcDbArc
 50
174.0860607386696
 51
179.9984350129813
  0
ARC
  5
D7
330
1F
100
AcDbEntity
  8
FASEN
  6
Continuous
 62
     7
100
AcDbCircle
 10
224.3936877259
 20
295.2584784304
 30
0.0
 40
97.70581044223137
100
AcDbArc
 50
179.882717682263
 51
180.117282317737
  0
ARC
  5
D8
330
1F
100
AcDbEntity
  8
VERERBUNG
  6
Continuous
 62
     7
100
AcDbCircle
 10
180.7070446519
 20
-553.2265834867
 30
0.0
 40
884.3221864339606
100
AcDbArc
 50
96.58318095120204
 51
96.8023740697
  0
ARC
  5
D9
330
1F
100
AcDbEntity
  8
VERERBUNG
  6
Continuous
 62
     7
100
AcDbCircle
 10
106.5212776148
 20
339.92890258
 30
0.0
 40
0.6000000000000227
100
AcDbArc
 50
270.0
 51
300.2584790725995
  0
ARC
  5
DA
330
1F
100
AcDbEntity
  8
VERERBUNG
  6
Continuous
 62
     7
100
AcDbCircle
 10
105.6488489054
 20
339.92890258
 30
0.0
 40
0.6000000000355948
100
AcDbArc
 50
254.9999999971062
 51
270.0
  0
ARC
  5
DB
330
1F
100
AcDbEntity
  8
VERERBUNG
  6
Continuous
 62
     7
100
AcDbCircle
 10
123.9484472453
 20
343.8084784304
 30
0.0
 40
1.0
100
AcDbArc
 50
180.0
 51
270.0
  0
ARC
  5
DC
330
1F
100
AcDbEntity
  8
VERERBUNG
  6
Continuous
 62
     7
100
AcDbCircle
 10
76.0234472453
 20
336.8845567832
 30
0.0
 40
1.200000000060833
100
AcDbArc
 50
92.8680427282107
 51
180.0
  0
ARC
  5
DD
330
1F
100
AcDbEntity
  8
VERERBUNG
  6
Continuous
 62
     7
100
AcDbCircle
 10
79.3234472453
 20
320.0784784304
 30
0.0
 40
1.500000000000026
100
AcDbArc
 50
5.3329627698127
 51
90.0
  0
ARC
  5
DE
330
1F
100
AcDbEntity
  8
0
  6
Continuous
 62
     7
100
AcDbCircle
 10
119.7909472453
 20
315.3084784304
 30
0.0
 40
8.017500000000041
100
AcDbArc
 50
90.0
 51
270.0
  0
ARC
  5
DF
330
1F
100
AcDbEntity
  8
VERERBUNG
  6
Continuous
 62
     7
100
AcDbCircle
 10
113.8048810672
 20
378.1230262902
 30
0.0
 40
31.71385608949986
100
AcDbArc
 50
270.0335424960991
 51
279.1049739606
  0
ARC
  5
E0
330
1F
100
AcDbEntity
  8
0
  6
Continuous
 62
     7
100
AcDbCircle
 10
-20.9250942272
 20
354.7734820346
 30
0.0
 40
156.0632957305418
100
AcDbArc
 50
335.8202227521907
 51
337.2043014055999
  0
ARC
  5
E1
330
1F
100
AcDbEntity
  8
VERERBUNG
  6
Continuous
 62
     7
100
AcDbCircle
 10
106.5212776148
 20
290.6880542807
 30
0.0
 40
0.600000000000486
100
AcDbArc
 50
59.74152092740056
 51
90.0
  0
ARC
  5
E2
330
1F
100
AcDbEntity
  8
VERERBUNG
  6
Continuous
 62
     7
100
AcDbCircle
 10
105.6488489054
 20
290.6880542807
 30
0.0
 40
0.6000000000000227
100
AcDbArc
 50
90.0
 51
105.0000000028924
  0
ARC
  5
E3
330
1F
100
AcDbEntity
  8
VERERBUNG
  6
Continuous
 62
     7
100
AcDbCircle
 10
123.9484472453
 20
286.8084784304
 30
0.0
 40
1.0
100
AcDbArc
 50
90.0
 51
180.0
  0
ARC
  5
E4
330
1F
100
AcDbEntity
  8
VERERBUNG
  6
Continuous
 62
     7
100
AcDbCircle
 10
76.0234472453
 20
293.7324000775
 30
0.0
 40
1.200000000000003
100
AcDbArc
 50
180.0
 51
267.1319572715504
  0
ARC
  5
E5
330
1F
100
AcDbEntity
  8
VERERBUNG
  6
Continuous
 62
     7
100
AcDbCircle
 10
79.3234472453
 20
310.5384784304
 30
0.0
 40
1.5
100
AcDbArc
 50
270.0
 51
354.6670371750962
  0
ARC
  5
E6
330
1F
100
AcDbEntity
  8
FASEN
  6
Continuous
 62
     7
100
AcDbCircle
 10
124.7509017822
 20
294.8578139969
 30
0.0
 40
1.947545463826496
100
AcDbArc
 50
0.00156498701871
 51
5.91393926133042
  0
ARC
  5
E7
330
1F
100
AcDbEntity
  8
FASEN
  6
Continuous
 62
     7
100
AcDbCircle
 10
118.9604576484
 20
287.4584784304
 30
0.0
 40
7.599996372099952
100
AcDbArc
 50
90.0
 51
153.498256574603
  0
ARC
  5
E8
330
1F
100
AcDbEntity
  8
FASEN
  6
Continuous
 62
     7
100
AcDbCircle
 10
118.9604576484
 20
287.4584784304
 30
0.0
 40
8.0
100
AcDbArc
 50
90.0
 51
152.2781454969007
  0
ARC
  5
E9
330
1F
100
AcDbEntity
  8
FASEN
  6
Continuous
 62
     7
100
AcDbCircle
 10
121.8674531611
 20
299.3778755872
 30
0.0
 40
12.92211935379971
100
AcDbArc
 50
219.3764519581998
 51
221.2968513340548
  0
ARC
  5
EA
330
1F
100
AcDbEntity
  8
FASEN
  6
Continuous
 62
     7
100
AcDbCircle
 10
25.2532067648
 20
295.2584784304
 30
0.0
 40
97.70581044213137
100
AcDbArc
 50
359.8827176822629
 51
0.11728231773715
  0
CIRCLE
  5
EB
330
1F
100
AcDbEntity
  8
VERERBUNG
  6
Continuous
 62
     7
100
AcDbCircle
 10
97.8234472453
 20
315.3084784304
 30
0.0
 40
3.75
  0
SPLINE
  5
EC
330
1F
100
AcDbEntity
  8
VERERBUNG
  6
Continuous
 62
     7
100
AcDbSpline
210
0.0
220
0.0
230
1.0
 70
     8
 71
     3
 72
    11
 73
     7
 74
     5
 42
0.0000000001
 43
0.0000000001
 44
0.00000001
 40
0.0
 40
0.0
 40
0.0
 40
0.0
 40
0.4891002097433955
 40
0.9783817007602165
 40
1.2836706031289
 40
1.588797103076646
 40
1.588797103076646
 40
1.588797103076646
 40
1.588797103076646
 10
75.8234472453
 20
322.9383601102
 30
0.0
 10
75.81267648767846
 20
323.1015133035318
 30
0.0
 10
75.79113098033594
 20
323.4278801616857
 30
0.0
 10
75.66761745033052
 20
323.8404990642059
 30
0.0
 10
75.53483704691567
 20
324.1822142685631
 30
0.0
 10
75.44503700000224
 20
324.3649330341702
 30
0.0
 10
75.4001489223
 20
324.4562681106
 30
0.0
 11
75.8234472453
 21
322.9383601102
 31
0.0
 11
75.77299334135375
 21
323.4248510338025
 31
0.0
 11
75.64252510773021
 21
323.8964169543977
 31
0.0
 11
75.53079108998955
 21
324.1805240172965
 31
0.0
 11
75.4001489223
 21
324.4562681106
 31
0.0
  0
SPLINE
  5
ED
330
1F
100
AcDbEntity
  8
VERERBUNG
  6
Continuous
 62
     7
100
AcDbSpline
210
0.0
220
0.0
230
1.0
 70
     8
 71
     3
 72
    11
 73
     7
 74
     5
 42
0.0000000001
 43
0.0000000001
 44
0.00000001
 40
0.0
 40
0.0
 40
0.0
 40
0.0
 40
0.5427795452359392
 40
1.08550881284815
 40
1.33744849213498
 40
1.589025708897466
 40
1.589025708897466
 40
1.589025708897466
 40
1.589025708897466
 10
75.4001489223
 20
306.1606887501
 30
0.0
 10
75.47787925978457
 20
306.3243091071015
 30
0.0
 10
75.63333273459904
 20
306.6515346649645
 30
0.0
 10
75.75725425671311
 20
307.0821475613401
 30
0.0
 10
75.81480862219638
 20
307.4267805873907
 30
0.0
 10
75.82056908651131
 20
307.5946983219783
 30
0.0
 10
75.8234472453
 20
307.6785967505
 30
0.0
 11
75.4001489223
 21
306.1606887501
 31
0.0
 11
75.61961979703752
 21
306.6571181709329
 31
0.0
 11
75.77024384017912
 21
307.1785272766748
 31
0.0
 11
75.80933611848656
 21
307.4274155965612
 31
0.0
 11
75.8234472453
 21
307.6785967505
 31
0.0
  0
SPLINE
  5
EE
330
1F
100
AcDbEntity
  8
0
  6
Continuous
 62
     7
100
AcDbSpline
210
0.0
220
0.0
230
1.0
 70
     8
 71
     3
 72
    17
 73
    13
 74
    11
 42
0.0000000001
 43
0.0000000001
 44
0.00000001
 40
0.0
 40
0.0
 40
0.0
 40
0.0
 40
0.0680405843661925
 40
0.1360892263779531
 40
0.2041088007153443
 40
0.2721966988956493
 40
0.3403905143139156
 40
0.4083768376456737
 40
0.4424735707029322
 40
0.4765783279037155
 40
0.5107080465578928
 40
0.5447863433664785
 40
0.5447863433664785
 40
0.5447863433664785
 40
0.5447863433664785
 10
126.1143341359
 20
307.2909784304
 30
0.0
 10
126.1019233636906
 20
307.3099674837273
 30
0.0
 10
126.0771003495373
 20
307.3479478391437
 30
0.0
 10
126.0361537581776
 20
307.4023481103889
 30
0.0
 10
125.9919303544395
 20
307.4541452143981
 30
0.0
 10
125.9433456927182
 20
307.5020127436733
 30
0.0
 10
125.8900031184098
 20
307.5445763231967
 30
0.0
 10
125.8408533979524
 20
307.5735112558875
 30
0.0
 10
125.7989034974965
 20
307.5910494608179
 30
0.0
 10
125.7661879892899
 20
307.6008779174537
 30
0.0
 10
125.7325612661944
 20
307.607244557285
 30
0.0
 10
125.7098128689456
 20
307.6080673461278
 30
0.0
 10
125.6984472453
 20
307.6084784304
 30
0.0
 11
126.1143341359
 21
307.2909784304
 31
0.0
 11
126.0764823770954
 21
307.3475183762462
 31
0.0
 11
126.0356032842701
 21
307.4019198233724
 31
0.0
 11
125.9912247378686
 21
307.4534679282099
 31
0.0
 11
125.9425772116496
 21
307.5011059389931
 31
0.0
 11
125.8890096420767
 21
307.5433067914886
 31
0.0
 11
125.8301936394488
 21
307.5774069087179
 31
0.0
 11
125.7987069973988
 21
307.5904904318517
 31
0.0
 11
125.7660431716982
 21
307.6002990481826
 31
0.0
 11
125.732461554347
 21
307.6063910652123
 31
0.0
 11
125.6984472453
 21
307.6084784304
 31
0.0
  0
SPLINE
  5
EF
330
1F
100
AcDbEntity
  8
VERERBUNG
  6
Continuous
 62
     7
100
AcDbSpline
210
0.0
220
0.0
230
1.0
 70
     8
 71
     3
 72
    23
 73
    19
 74
    17
 42
0.0000000001
 43
0.0000000001
 44
0.00000001
 40
0.0
 40
0.0
 40
0.0
 40
0.0
 40
0.066488689118448
 40
0.1330028506402383
 40
0.1940175413912474
 40
0.2550295991330604
 40
0.3099753629360942
 40
0.3648861555487284
 40
0.4150633581041739
 40
0.4651526181971691
 40
0.5141740379484788
 40
0.5632529905751423
 40
0.6152549116424885
 40
0.6673077698666007
 40
0.7243355356676652
 40
0.7813668340638776
 40
0.8435221576228045
 40
0.9056490098717797
 40
0.9056490098717797
 40
0.9056490098717797
 40
0.9056490098717797
 10
74.8234472453
 20
324.0613465521
 30
0.0
 10
74.82379583265458
 20
324.083513899454
 30
0.0
 10
74.82449314091068
 20
324.1278570866683
 30
0.0
 10
74.83088020001897
 20
324.1922949935458
 30
0.0
 10
74.84177600330045
 20
324.2542584660021
 30
0.0
 10
74.85775031089554
 20
324.3111732976179
 30
0.0
 10
74.87938003792684
 20
324.3640123043326
 30
0.0
 10
74.90647114709591
 20
324.410237347635
 30
0.0
 10
74.93985862960294
 20
324.4500586568116
 30
0.0
 10
74.97836080324828
 20
324.4820960794461
 30
0.0
 10
75.02224437093413
 20
324.5054578806326
 30
0.0
 10
75.07020195982983
 20
324.5206195287176
 30
0.0
 10
75.12108382951527
 20
324.5271246555169
 30
0.0
 10
75.17491641901066
 20
324.5258460641905
 30
0.0
 10
75.22980740331047
 20
324.5175888205984
 30
0.0
 10
75.2866738172084
 20
324.5025811886235
 30
0.0
 10
75.34371971803822
 20
324.482339801456
 30
0.0
 10
75.38134206046372
 20
324.4649573468594
 30
0.0
 10
75.4001489223
 20
324.4562681106
 30
0.0
 11
74.8234472453
 21
324.0613465521
 31
0.0
 11
74.8254129415739
 21
324.1278061775793
 31
0.0
 11
74.83192401785482
 21
324.1940008871006
 31
0.0
 11
74.84276687894612
 21
324.2540444117373
 31
0.0
 11
74.85946390530697
 21
324.312727292551
 31
0.0
 11
74.88055784295653
 21
324.3634627116814
 31
0.0
 11
74.90858866945653
 21
324.410679953353
 31
0.0
 11
74.94095099150138
 21
324.4490261626592
 31
0.0
 11
74.9796038660695
 21
324.4808834893563
 31
0.0
 11
75.02279976928752
 21
324.5040613568081
 31
0.0
 11
75.06957241490657
 21
324.5189295514774
 31
0.0
 11
75.121116847601
 21
324.5258122292197
 31
0.0
 11
75.17316077387217
 21
324.5248479742841
 31
0.0
 11
75.22958570909346
 21
324.5165779828975
 31
0.0
 11
75.28479957867725
 21
324.5022952099755
 31
0.0
 11
75.3433584964808
 21
324.4814592460575
 31
0.0
 11
75.4001489223
 21
324.4562681106
 31
0.0
  0
SPLINE
  5
F0
330
1F
100
AcDbEntity
  8
0
  6
Continuous
 62
     7
100
AcDbSpline
210
0.0
220
0.0
230
1.0
 70
     8
 71
     3
 72
    17
 73
    13
 74
    11
 42
0.0000000001
 43
0.0000000001
 44
0.00000001
 40
0.0
 40
0.0
 40
0.0
 40
0.0
 40
0.0340781916347987
 40
0.0682095735666487
 40
0.1023243844779796
 40
0.1364288245425791
 40
0.20441718009686
 40
0.2726179463355141
 40
0.3407061060255112
 40
0.4087238602415218
 40
0.476759162680326
 40
0.5447868281614746
 40
0.5447868281614746
 40
0.5447868281614746
 40
0.5447868281614746
 10
125.6984472453
 20
323.0084784304
 30
0.0
 10
125.7098128279985
 20
323.0088919274433
 30
0.0
 10
125.732561733149
 20
323.0097195669289
 30
0.0
 10
125.766189276011
 20
323.0161007452715
 30
0.0
 10
125.7989138800437
 20
323.0259186416089
 30
0.0
 10
125.8408793861742
 20
323.0434376707274
 30
0.0
 10
125.8900345705052
 20
323.0723780915921
 30
0.0
 10
125.943367179088
 20
323.1149587885759
 30
0.0
 10
125.991947131826
 20
323.1628331545742
 30
0.0
 10
126.0361655398758
 20
323.2146278984991
 30
0.0
 10
126.077106956386
 20
323.2690203006017
 30
0.0
 10
126.1019255404021
 20
323.306993097581
 30
0.0
 10
126.1143341359
 20
323.3259784304
 30
0.0
 11
125.6984472453
 21
323.0084784304
 31
0.0
 11
125.7324609382212
 21
323.0105741018816
 31
0.0
 11
125.7660426928561
 21
323.0166746746598
 31
0.0
 11
125.798718774911
 21
323.0264774286126
 31
0.0
 11
125.8302181793464
 21
323.0395503147643
 31
0.0
 11
125.8890374936351
 21
323.0736487715853
 31
0.0
 11
125.9426013853545
 21
323.1158655220454
 31
0.0
 11
125.9912426981873
 21
323.1635102507767
 31
0.0
 11
126.0356179008106
 21
323.2150588325295
 31
0.0
 11
126.0764890364568
 21
323.269449573
 31
0.0
 11
126.1143341359
 21
323.3259784304
 31
0.0
  0
SPLINE
  5
F1
330
1F
100
AcDbEntity
  8
0
  6
Continuous
 62
     7
100
AcDbSpline
210
0.0
220
0.0
230
1.0
 70
     8
 71
     3
 72
    17
 73
    13
 74
    11
 42
0.0000000001
 43
0.0000000001
 44
0.00000001
 40
0.0
 40
0.0
 40
0.0
 40
0.0
 40
0.034079097000412
 40
0.0682097420755403
 40
0.1023154065619468
 40
0.1364128754797224
 40
0.2043992838939915
 40
0.2725935679808119
 40
0.3406803506939471
 40
0.408698620258292
 40
0.476746440641014
 40
0.5447862542181197
 40
0.5447862542181197
 40
0.5447862542181197
 40
0.5447862542181197
 10
123.9484472453
 20
307.6084784304
 30
0.0
 10
123.9370813549033
 20
307.6080671627191
 30
0.0
 10
123.9143323820533
 20
307.6072440052734
 30
0.0
 10
123.8807050182851
 20
307.6008761211585
 30
0.0
 10
123.8479885438188
 20
307.5910480917145
 30
0.0
 10
123.8060375776545
 20
307.5735108574898
 30
0.0
 10
123.7568877378104
 20
307.5445750091454
 30
0.0
 10
123.703546502758
 20
307.5020101103012
 30
0.0
 10
123.6549625714253
 20
307.4541428312514
 30
0.0
 10
123.6107396673257
 20
307.4023467198057
 30
0.0
 10
123.5697936749448
 20
307.3479472017345
 30
0.0
 10
123.5449709746949
 20
307.3099672759869
 30
0.0
 10
123.5325603548
 20
307.2909784304
 30
0.0
 11
123.9484472453
 21
307.6084784304
 31
0.0
 11
123.9144321751677
 21
307.6063904035184
 31
0.0
 11
123.880849772146
 21
307.6002975273068
 31
0.0
 11
123.8481849522291
 21
307.5904890671902
 31
0.0
 11
123.8166973376878
 21
307.5774059667513
 31
0.0
 11
123.7578814708534
 21
307.5433054456762
 31
0.0
 11
123.704314430747
 21
307.5011031637906
 31
0.0
 11
123.6556680540539
 21
307.4534655734353
 31
0.0
 11
123.6112902702495
 21
307.4019185337614
 31
0.0
 11
123.5704116527736
 21
307.3475177571852
 31
0.0
 11
123.5325603548
 21
307.2909784304
 31
0.0
  0
SPLINE
  5
F2
330
1F
100
AcDbEntity
  8
0
  6
Continuous
 62
     7
100
AcDbSpline
210
0.0
220
0.0
230
1.0
 70
     8
 71
     3
 72
    17
 73
    13
 74
    11
 42
0.0000000001
 43
0.0000000001
 44
0.00000001
 40
0.0
 40
0.0
 40
0.0
 40
0.0
 40
0.0680277950787748
 40
0.1360632351931184
 40
0.2040812641546226
 40
0.2721696697888875
 40
0.3403702856093745
 40
0.408358548596532
 40
0.4424627524224648
 40
0.476577302125645
 40
0.5107086426879625
 40
0.5447868110225604
 40
0.5447868110225604
 40
0.5447868110225604
 40
0.5447868110225604
 10
123.5325603548
 20
323.3259784304
 30
0.0
 10
123.5449689773182
 20
323.3069930635294
 30
0.0
 10
123.5697876168488
 20
323.2690201961925
 30
0.0
 10
123.6107291616285
 20
323.2146276649129
 30
0.0
 10
123.654947698312
 20
323.1628327424423
 30
0.0
 10
123.7035277973487
 20
323.1149583390167
 30
0.0
 10
123.7568605985286
 20
323.0723778739202
 30
0.0
 10
123.806015682724
 20
323.0434376417029
 30
0.0
 10
123.8479809204647
 20
323.0259184948274
 30
0.0
 10
123.8807053221056
 20
323.0161005237935
 30
0.0
 10
123.9143327865872
 20
323.00971949555
 30
0.0
 10
123.9370816703048
 20
323.0088919037356
 30
0.0
 10
123.9484472453
 20
323.0084784304
 30
0.0
 11
123.5325603548
 21
323.3259784304
 31
0.0
 11
123.5704055380123
 21
323.2694494731223
 31
0.0
 11
123.6112767681649
 21
323.2150586314542
 31
0.0
 11
123.6556521532737
 21
323.1635098442691
 31
0.0
 11
123.7042937127106
 21
323.115865015826
 31
0.0
 11
123.7578576336091
 21
323.0736485453878
 31
0.0
 11
123.8166769001167
 21
323.039550190713
 31
0.0
 11
123.84817603782
 21
323.0264772781627
 31
0.0
 11
123.8808518431273
 21
323.0166745107488
 31
0.0
 11
123.9144335707097
 21
323.0105740205096
 31
0.0
 11
123.9484472453
 21
323.0084784304
 31
0.0
  0
SPLINE
  5
F3
330
1F
100
AcDbEntity
  8
VERERBUNG
  6
Continuous
 62
     7
100
AcDbSpline
210
0.0
220
0.0
230
1.0
 70
     8
 71
     3
 72
    43
 73
    39
 74
    37
 42
0.0000000001
 43
0.0000000001
 44
0.00000001
 40
0.0
 40
0.0
 40
0.0
 40
0.0
 40
0.4175035109935785
 40
0.8354555648601122
 40
1.252511183716961
 40
1.669422664497556
 40
2.085295425818987
 40
2.501251326660966
 40
2.916298094151583
 40
3.331138757776062
 40
3.538526232997771
 40
3.745847790952134
 40
3.953170095117184
 40
4.160558348228619
 40
4.575407544468761
 40
4.990456744696186
 40
5.406332394479331
 40
5.822158816113065
 40
6.239027280555187
 40
6.65591311360273
 40
7.073532178594046
 40
7.491136194410407
 40
7.908956414527129
 40
8.326828662610087
 40
8.744600200017395
 40
9.162169349421658
 40
9.370981458467336
 40
9.57972670624956
 40
9.788406630815613
 40
9.99715392656435
 40
10.41425933419083
 40
10.83156890855476
 40
11.24894510867349
 40
11.66624011612765
 40
12.08375102636036
 40
12.50139861941263
 40
12.91943544788662
 40
13.33702799569512
 40
13.33702799569512
 40
13.33702799569512
 40
13.33702799569512
 10
102.0728209556
 20
315.3084784304
 30
0.0
 10
102.0689163760771
 20
315.1692522234802
 30
0.0
 10
102.0611030221652
 20
314.89065023264
 30
0.0
 10
101.9973134277524
 20
314.4770129495167
 30
0.0
 10
101.8964767629521
 20
314.0715474333766
 30
0.0
 10
101.7559508861324
 20
313.678575178344
 30
0.0
 10
101.5778388376785
 20
313.3016428601465
 30
0.0
 10
101.3639253069973
 20
312.9444966737109
 30
0.0
 10
101.116123163916
 20
312.610441812412
 30
0.0
 10
100.8835750935206
 20
312.3537532881053
 30
0.0
 10
100.6832425825557
 20
312.1630197847444
 30
0.0
 10
100.5261739157818
 20
312.0275334545684
 30
0.0
 10
100.3626555397355
 20
311.8999053458801
 30
0.0
 10
100.1365112751361
 20
311.7406159743741
 30
0.0
 10
99.83939919748349
 20
311.562589237904
 30
0.0
 10
99.4634986715256
 20
311.3846123041329
 30
0.0
 10
99.07163306319858
 20
311.2442240385249
 30
0.0
 10
98.6673698953441
 20
311.1425569071414
 30
0.0
 10
98.25476879181656
 20
311.0808430319103
 30
0.0
 10
97.8375255453956
 20
311.059532332681
 30
0.0
 10
97.41994978307548
 20
311.0791134207538
 30
0.0
 10
97.00595352917315
 20
311.1392822165088
 30
0.0
 10
96.59974145167466
 20
311.2396634482865
 30
0.0
 10
96.20519902240703
 20
311.3792145611881
 30
0.0
 10
95.82634198411398
 20
311.5567477818262
 30
0.0
 10
95.52657905302003
 20
311.7348103439185
 30
0.0
 10
95.29832945554506
 20
311.8943316693328
 30
0.0
 10
95.13325029104988
 20
312.0222378194908
 30
0.0
 10
94.97467061835366
 20
312.1580855256297
 30
0.0
 10
94.77250470918278
 20
312.3493014247971
 30
0.0
 10
94.53782380518894
 20
312.6067115109757
 30
0.0
 10
94.28788884344654
 20
312.9416622336632
 30
0.0
 10
94.07223328876465
 20
313.2997560151518
 30
0.0
 10
93.89286282699048
 20
313.677370223865
 30
0.0
 10
93.7513901607361
 20
314.0709351177804
 30
0.0
 10
93.64996984161486
 20
314.4767027461774
 30
0.0
 10
93.58591787182988
 20
314.8905653347299
 30
0.0
 10
93.578020247695
 20
315.169223450074
 30
0.0
 10
93.5740735351
 20
315.3084784304
 30
0.0
 11
102.0728209556
 21
315.3084784304
 31
0.0
 11
102.0524325730284
 21
314.8914730400894
 31
0.0
 11
101.9910720303018
 21
314.4780497665216
 31
0.0
 11
101.8898141694069
 21
314.0734731547074
 31
0.0
 11
101.7495312387678
 21
313.680871725548
 31
0.0
 11
101.5718364738829
 21
313.304873422172
 31
0.0
 11
101.3580762761955
 21
312.9480458877385
 31
0.0
 11
101.1108329679493
 21
312.6146773743304
 31
0.0
 11
100.8322799902679
 21
312.3072672007493
 31
0.0
 11
100.6820844243714
 21
312.1642607083656
 31
0.0
 11
100.5250993038769
 21
312.0288432045637
 31
0.0
 11
100.3616644283106
 21
311.9012831040113
 31
0.0
 11
100.1921111350297
 21
311.7818612958429
 31
0.0
 11
99.8362818813772
 21
311.5685882364421
 31
0.0
 11
99.46114229622086
 21
311.3910040866478
 31
0.0
 11
99.06964800532059
 21
311.2507016409277
 31
0.0
 11
98.66637605919264
 21
311.1492947851688
 31
0.0
 11
98.25409991726852
 21
311.0875882259835
 31
0.0
 11
97.8377555115578
 21
311.0663483194598
 31
0.0
 11
97.42059320033523
 21
311.0858749561305
 31
0.0
 11
97.00733541976152
 21
311.1459675581813
 31
0.0
 11
96.60171217859559
 21
311.2461849347406
 31
0.0
 11
96.20776953482478
 21
311.3855635885466
 31
0.0
 11
95.82946109735715
 21
311.5628085704458
 31
0.0
 11
95.47048231058582
 21
311.7761117002456
 31
0.0
 11
95.29932477017871
 21
311.8957260524191
 31
0.0
 11
95.1343137509177
 21
312.0235773019011
 31
0.0
 11
94.97583543620006
 21
312.1593415633293
 31
0.0
 11
94.82418267469046
 21
312.3027879763515
 31
0.0
 11
94.54314666247593
 21
312.6110016699308
 31
0.0
 11
94.29362099554007
 21
312.9454926599381
 31
0.0
 11
94.07827292885447
 21
313.3030232217091
 31
0.0
 11
93.89921202845572
 21
313.6799480380778
 31
0.0
 11
93.75809032563538
 21
314.0728857241763
 31
0.0
 11
93.65622593996791
 21
314.4779204867769
 31
0.0
 11
93.59460676732796
 21
314.8913910026831
 31
0.0
 11
93.5740735351
 21
315.3084784304
 31
0.0
  0
SPLINE
  5
F4
330
1F
100
AcDbEntity
  8
VERERBUNG
  6
Continuous
 62
     7
100
AcDbSpline
210
0.0
220
0.0
230
1.0
 70
     8
 71
     3
 72
    43
 73
    39
 74
    37
 42
0.0000000001
 43
0.0000000001
 44
0.00000001
 40
0.0
 40
0.0
 40
0.0
 40
0.0
 40
0.4175881289676783
 40
0.8356316530814725
 40
1.253282831968943
 40
1.670787328014805
 40
2.088079154499575
 40
2.505458237098187
 40
2.922766757446332
 40
3.339867555988898
 40
3.548612845916349
 40
3.757291312371808
 40
3.966036487494054
 40
4.1748484106781
 40
4.592416990857636
 40
5.010187344153045
 40
5.428059866857692
 40
5.845880990797833
 40
6.263484877144976
 40
6.681103578752055
 40
7.097989619709693
 40
7.514858051223595
 40
7.930683045133069
 40
8.346557961740595
 40
8.76160845701352
 40
9.176458234552811
 40
9.383846863108802
 40
9.591169424606473
 40
9.798492920799484
 40
10.00588294523852
 40
10.42072923637578
 40
10.83577763646418
 40
11.25173036419501
 40
11.66760664532895
 40
12.08452417583123
 40
12.50157511616345
 40
12.91952009633506
 40
13.3370282099859
 40
13.3370282099859
 40
13.3370282099859
 40
13.3370282099859
 10
93.5740735351
 20
315.3084784304
 30
0.0
 10
93.57799441450234
 20
315.4477337089547
 30
0.0
 10
93.58584044916962
 20
315.7263961290449
 30
0.0
 10
93.64999204930648
 20
316.1402481878077
 30
0.0
 10
93.7514025059101
 20
316.5460154998316
 30
0.0
 10
93.89284979892274
 20
316.9395887331157
 30
0.0
 10
94.07222983930583
 20
317.3171968757711
 30
0.0
 10
94.28789713415723
 20
317.6752822154305
 30
0.0
 10
94.53781724199834
 20
318.0102419009726
 30
0.0
 10
94.77248726695595
 20
318.2676593890458
 30
0.0
 10
94.97465565226145
 20
318.458868969795
 30
0.0
 10
95.13323920836334
 20
318.5947103047108
 30
0.0
 10
95.29832069391179
 20
318.7226124376406
 30
0.0
 10
95.526571235588
 20
318.8821318067507
 30
0.0
 10
95.82633036361511
 20
319.0601989303277
 30
0.0
 10
96.20518309687337
 20
319.2377406076816
 30
0.0
 10
96.59972561038005
 20
319.377292242331
 30
0.0
 10
97.0059385124569
 20
319.477671371657
 30
0.0
 10
97.41993463754486
 20
319.5378413046602
 30
0.0
 10
97.83751018169289
 20
319.5574248837061
 30
0.0
 10
98.25475349925989
 20
319.5361163497759
 30
0.0
 10
98.6673543747973
 20
319.4744030964262
 30
0.0
 10
99.07161623805673
 20
319.3727336070187
 30
0.0
 10
99.46348155242225
 20
319.2323462430529
 30
0.0
 10
99.83938690007261
 20
319.0543790700815
 30
0.0
 10
100.1365032102995
 20
318.8763572519355
 30
0.0
 10
100.3626461288495
 20
318.7170651231402
 30
0.0
 10
100.5261617708744
 20
318.5894320262395
 30
0.0
 10
100.683226120797
 20
318.4539382479206
 30
0.0
 10
100.8835560867734
 20
318.2631974283619
 30
0.0
 10
101.1161169778714
 20
318.0065171745738
 30
0.0
 10
101.3639363199917
 20
317.6724722664104
 30
0.0
 10
101.5778361350788
 20
317.3153161174386
 30
0.0
 10
101.7559365071048
 20
316.9383770314545
 30
0.0
 10
101.8964909176446
 20
316.5454147553409
 30
0.0
 10
101.9973403481493
 20
316.1399500368344
 30
0.0
 10
102.0610250350578
 20
315.7263019095445
 30
0.0
 10
102.0688903530363
 20
315.4477043629956
 30
0.0
 10
102.0728209556
 20
315.3084784304
 30
0.0
 11
93.5740735351
 21
315.3084784304
 31
0.0
 11
93.59455848803192
 21
315.7255638079405
 31
0.0
 11
93.65623018866478
 21
316.1390332619447
 31
0.0
 11
93.75810119418412
 21
316.5440700571381
 31
0.0
 11
93.89920438396854
 21
316.9370075764095
 31
0.0
 11
94.07826875906088
 21
317.3139272203972
 31
0.0
 11
94.29362565154845
 21
317.6714558310691
 31
0.0
 11
94.54314136845356
 21
318.0059529284742
 31
0.0
 11
94.82416667862617
 21
318.3141701427684
 31
0.0
 11
94.97582056759052
 21
318.4576124448584
 31
0.0
 11
95.13430197154847
 21
318.5933708588213
 31
0.0
 11
95.29931572208068
 21
318.7212184644778
 31
0.0
 11
95.47047399082406
 21
318.8408314499961
 31
0.0
 11
95.82944965840214
 21
319.0541387148513
 31
0.0
 11
96.2077538140119
 21
319.2313900447221
 31
0.0
 11
96.60169620551954
 21
319.3707702348668
 31
0.0
 11
97.00732061757212
 21
319.4709866404979
 31
0.0
 11
97.42057815562728
 21
319.5310800106216
 31
0.0
 11
97.83774000020802
 21
319.5506088446365
 31
0.0
 11
98.25408471313938
 21
319.5293708795872
 31
0.0
 11
98.66636086687684
 21
319.4676646217821
 31
0.0
 11
99.06963105904217
 21
319.3662566454156
 31
0.0
 11
99.46112530222405
 21
319.2259562397898
 31
0.0
 11
99.83626975940103
 21
319.0483793553828
 31
0.0
 11
100.1921023261238
 21
318.8351106929313
 31
0.0
 11
100.3616546885097
 21
318.7156869111133
 31
0.0
 11
100.5250863693206
 21
318.5881222991974
 31
0.0
 11
100.6820680956839
 21
318.4526978934881
 31
0.0
 11
100.8322625971618
 21
318.3096865863735
 31
0.0
 11
101.1108281831056
 21
318.0022802435663
 31
0.0
 11
101.3580831148286
 21
317.6689183183939
 31
0.0
 11
101.5718329642448
 21
317.3120882838099
 31
0.0
 11
101.7495232187997
 21
316.9360839558481
 31
0.0
 11
101.8898268805473
 21
316.5434835104327
 31
0.0
 11
101.9910795988234
 21
316.1389104343714
 31
0.0
 11
102.052384685258
 21
315.7254860847887
 31
0.0
 11
102.0728209556
 21
315.3084784304
 31
0.0
  0
SPLINE
  5
F5
330
1F
100
AcDbEntity
  8
VERERBUNG
  6
Continuous
 62
     7
100
AcDbSpline
210
0.0
220
0.0
230
1.0
 70
     8
 71
     3
 72
     9
 73
     5
 74
     3
 42
0.0000000001
 43
0.0000000001
 44
0.00000001
 40
0.0
 40
0.0
 40
0.0
 40
0.0
 40
0.0774000574472669
 40
0.1547963632170077
 40
0.1547963632170077
 40
0.1547963632170077
 40
0.1547963632170077
 10
75.4001489223
 20
324.4562681106
 30
0.0
 10
75.4154688866285
 20
324.4770327632768
 30
0.0
 10
75.4461080727077
 20
324.5185610621418
 30
0.0
 10
75.47878432535208
 20
324.5585062970209
 30
0.0
 10
75.4951220557
 20
324.5784784304
 30
0.0
 11
75.4001489223
 21
324.4562681106
 31
0.0
 11
75.4466181066125
 21
324.51816628345
 31
0.0
 11
75.4951220557
 21
324.5784784304
 31
0.0
  0
SPLINE
  5
F6
330
1F
100
AcDbEntity
  8
VERERBUNG
  6
Continuous
 62
     7
100
AcDbSpline
210
0.0
220
0.0
230
1.0
 70
     8
 71
     3
 72
    15
 73
    11
 74
     9
 42
0.0000000001
 43
0.0000000001
 44
0.00000001
 40
0.0
 40
0.0
 40
0.0
 40
0.0
 40
0.0705917491273903
 40
0.1412091311457277
 40
0.2118461808008453
 40
0.2824713748975176
 40
0.3531025104650077
 40
0.4237604658496564
 40
0.4944892663266742
 40
0.5650782700912343
 40
0.5650782700912343
 40
0.5650782700912343
 40
0.5650782700912343
 10
75.4951220557
 20
324.5784784304
 30
0.0
 10
75.51048401800378
 20
324.5963115226136
 30
0.0
 10
75.5412135207633
 20
324.631984182496
 30
0.0
 10
75.59131372306177
 20
324.6818490129002
 30
0.0
 10
75.64461103785962
 20
324.7282801760111
 30
0.0
 10
75.70156654415399
 20
324.7701966190142
 30
0.0
 10
75.76214317822331
 20
324.8067808918724
 30
0.0
 10
75.82632887649027
 20
324.8366090164632
 30
0.0
 10
75.89356291719874
 20
324.8592728315823
 30
0.0
 10
75.94013911802361
 20
324.8667643219458
 30
0.0
 10
75.963404181
 20
324.8705063617
 30
0.0
 11
75.4951220557
 21
324.5784784304
 31
0.0
 11
75.54187407835437
 21
324.6313692937186
 31
0.0
 11
75.59184046269277
 21
324.6812709477921
 31
0.0
 11
75.6452232442523
 21
324.7275296920136
 31
0.0
 11
75.70216739647603
 21
324.7693062592339
 31
0.0
 11
75.76273162285183
 21
324.8056481330856
 31
0.0
 11
75.82681735173718
 21
324.8354065942752
 31
0.0
 11
75.89404645198982
 21
324.8573795616701
 31
0.0
 11
75.963404181
 21
324.8705063617
 31
0.0
  0
SPLINE
  5
F7
330
1F
100
AcDbEntity
  8
VERERBUNG
  6
Continuous
 62
     7
100
AcDbSpline
210
0.0
220
0.0
230
1.0
 70
     8
 71
     3
 72
    15
 73
    11
 74
     9
 42
0.0000000001
 43
0.0000000001
 44
0.00000001
 40
0.0
 40
0.0
 40
0.0
 40
0.0
 40
0.0705890228665487
 40
0.1413178421971892
 40
0.2119756691021253
 40
0.2826066759641654
 40
0.3532320943186378
 40
0.4238693692911096
 40
0.4944866364893501
 40
0.5650782701953391
 40
0.5650782701953391
 40
0.5650782701953391
 40
0.5650782701953391
 10
75.963404181
 20
305.746450499
 30
0.0
 10
75.94013911168182
 20
305.7501925394134
 30
0.0
 10
75.89356289825515
 20
305.7576840310811
 30
0.0
 10
75.82632888582052
 20
305.7803478358662
 30
0.0
 10
75.76214325860354
 20
305.8101759237468
 30
0.0
 10
75.7015666282277
 20
305.8467601809555
 30
0.0
 10
75.64461103548766
 20
305.8886766884583
 30
0.0
 10
75.5913136463582
 20
305.9351079363898
 30
0.0
 10
75.54121344739244
 20
305.9849727671907
 30
0.0
 10
75.51048399350312
 20
306.0206453678659
 30
0.0
 10
75.4951220557
 20
306.0384784304
 30
0.0
 11
75.963404181
 21
305.746450499
 31
0.0
 11
75.89404643303381
 21
305.7595773015929
 31
0.0
 11
75.82681731489427
 21
305.7815502749485
 31
0.0
 11
75.76273170131005
 21
305.8113086793825
 31
0.0
 11
75.70216757976222
 21
305.84765047779
 31
0.0
 11
75.64522324577317
 21
305.8894271763705
 31
0.0
 11
75.59184030212151
 21
305.9356860775963
 31
0.0
 11
75.5418740030906
 21
305.9855876546025
 31
0.0
 11
75.4951220557
 21
306.0384784304
 31
0.0
  0
SPLINE
  5
F8
330
1F
100
AcDbEntity
  8
VERERBUNG
  6
Continuous
 62
     7
100
AcDbSpline
210
0.0
220
0.0
230
1.0
 70
     8
 71
     3
 72
     9
 73
     5
 74
     3
 42
0.0000000001
 43
0.0000000001
 44
0.00000001
 40
0.0
 40
0.0
 40
0.0
 40
0.0
 40
0.0773963057015693
 40
0.1547963631387898
 40
0.1547963631387898
 40
0.1547963631387898
 40
0.1547963631387898
 10
75.4951220557
 20
306.0384784304
 30
0.0
 10
75.47878432534927
 20
306.0584505637476
 30
0.0
 10
75.44610807268691
 20
306.0983957985789
 30
0.0
 10
75.4154688866254
 20
306.1399240974249
 30
0.0
 10
75.4001489223
 20
306.1606887501
 30
0.0
 11
75.4951220557
 21
306.0384784304
 31
0.0
 11
75.4466181066125
 21
306.0987905772625
 31
0.0
 11
75.4001489223
 21
306.1606887501
 31
0.0
  0
SPLINE
  5
F9
330
1F
100
AcDbEntity
  8
VERERBUNG
  6
Continuous
 62
     7
100
AcDbSpline
210
0.0
220
0.0
230
1.0
 70
     8
 71
     3
 72
    23
 73
    19
 74
    17
 42
0.0000000001
 43
0.0000000001
 44
0.00000001
 40
0.0
 40
0.0
 40
0.0
 40
0.0
 40
0.0621269684789564
 40
0.1242824031031415
 40
0.181313530274563
 40
0.238341140365507
 40
0.2903938962581217
 40
0.3423956884192884
 40
0.3914747074841991
 40
0.440496228715184
 40
0.490585573408187
 40
0.5407628275381017
 40
0.5956736074018711
 40
0.650619381278588
 40
0.711631442563566
 40
0.7726461253110385
 40
0.8391602986830109
 40
0.9056490031590032
 40
0.9056490031590032
 40
0.9056490031590032
 40
0.9056490031590032
 10
75.4001489223
 20
306.1606887501
 30
0.0
 10
75.38134202555557
 20
306.1519994969853
 30
0.0
 10
75.34371961487732
 20
306.1346170094007
 30
0.0
 10
75.28667369032152
 20
306.1143756293185
 30
0.0
 10
75.22980733351349
 20
306.0993680629542
 30
0.0
 10
75.17491649593453
 20
306.0911108380825
 30
0.0
 10
75.12108404227878
 20
306.0898321273185
 30
0.0
 10
75.07020220821195
 20
306.0963371531542
 30
0.0
 10
75.0222446235358
 20
306.1114988867312
 30
0.0
 10
74.97836102905599
 20
306.1348607991527
 30
0.0
 10
74.939858735129
 20
306.1668981868041
 30
0.0
 10
74.9064711237478
 20
306.2067194495373
 30
0.0
 10
74.87938001456266
 20
306.2529445189966
 30
0.0
 10
74.8577503374457
 20
306.3057835448528
 30
0.0
 10
74.84177602464065
 20
306.362698374943
 30
0.0
 10
74.83088019719762
 20
306.4246618460824
 30
0.0
 10
74.82449313782627
 20
306.489099759844
 30
0.0
 10
74.82379583163271
 20
306.533442956127
 30
0.0
 10
74.8234472453
 20
306.5556103086
 30
0.0
 11
75.4001489223
 21
306.1606887501
 31
0.0
 11
75.34335838986836
 21
306.135497568339
 31
0.0
 11
75.28479936050866
 21
306.1146615866302
 31
0.0
 11
75.22958564786623
 21
306.1003788907123
 31
0.0
 11
75.17316086925966
 21
306.0921089045041
 31
0.0
 11
75.12111704709075
 21
306.0911445549477
 31
0.0
 11
75.06957273266512
 21
306.0980271444579
 31
0.0
 11
75.0228000388841
 21
306.1128954069267
 31
0.0
 11
74.97960407119808
 21
306.1360733688618
 31
0.0
 11
74.94095108409364
 21
306.1679306920337
 31
0.0
 11
74.90858865427745
 21
306.2062768778729
 31
0.0
 11
74.88055782955685
 21
306.2534941057747
 31
0.0
 11
74.85946392117593
 21
306.3042295479835
 31
0.0
 11
74.84276689636597
 21
306.3629124329223
 31
0.0
 11
74.83192402039111
 21
306.4229559467383
 31
0.0
 11
74.82541293923293
 21
306.4891506676872
 31
0.0
 11
74.8234472453
 21
306.5556103086
 31
0.0
  0
SPLINE
  5
FA
330
1F
100
AcDbEntity
  8
VERERBUNG
  6
Continuous
 62
     7
100
AcDbSpline
210
0.0
220
0.0
230
1.0
 70
     8
 71
     3
 72
    19
 73
    15
 74
    13
 42
0.0000000001
 43
0.0000000001
 44
0.00000001
 40
0.0
 40
0.0
 40
0.0
 40
0.0
 40
0.154959554789435
 40
0.3100569267605295
 40
0.4670093144414339
 40
0.6237075594736281
 40
0.7035716821457443
 40
0.7834274372727443
 40
0.8646682252363269
 40
0.9459045180792166
 40
1.028561641702974
 40
1.111240956114068
 40
1.194923428929085
 40
1.278501866465304
 40
1.278501866465304
 40
1.278501866465304
 40
1.278501866465304
 10
80.3108542831
 20
306.0384784304
 30
0.0
 10
80.28554463323763
 20
305.9934249295858
 30
0.0
 10
80.2349028237386
 20
305.9032778584921
 30
0.0
 10
80.14585790366232
 20
305.7752784338753
 30
0.0
 10
80.04548250422181
 20
305.6552315652452
 30
0.0
 10
79.94989305722541
 20
305.5648072520391
 30
0.0
 10
79.86602176631627
 20
305.5007100648584
 30
0.0
 10
79.79847690138965
 20
305.4570734615562
 30
0.0
 10
79.72694324173764
 20
305.419303091233
 30
0.0
 10
79.65124027089347
 20
305.3882003575373
 30
0.0
 10
79.57220483103477
 20
305.3650123277471
 30
0.0
 10
79.49029984400616
 20
305.350709506239
 30
0.0
 10
79.40687296602137
 20
305.3453443098818
 30
0.0
 10
79.35124428530567
 20
305.3498927452604
 30
0.0
 10
79.3234472453
 20
305.3521655484
 30
0.0
 11
80.3108542831
 21
306.0384784304
 31
0.0
 11
80.23280798868983
 21
305.9046081964069
 31
0.0
 11
80.14440277236342
 21
305.7771730657771
 31
0.0
 11
80.04316795354913
 21
305.6572332331177
 31
0.0
 11
79.9289297487944
 21
305.5499766595635
 31
0.0
 11
79.86541054658267
 21
305.5015660301463
 31
0.0
 11
79.79827641504087
 21
305.4583231115464
 31
0.0
 11
79.7263880442598
 21
305.4204796474424
 31
0.0
 11
79.65120740112542
 21
305.3897029326607
 31
0.0
 11
79.57186587617451
 21
305.3665270291353
 31
0.0
 11
79.49042941180217
 21
305.3522451769438
 31
0.0
 11
79.4068885254666
 21
305.3473793197014
 31
0.0
 11
79.3234472453
 21
305.3521655484
 31
0.0
  0
SPLINE
  5
FB
330
1F
100
AcDbEntity
  8
VERERBUNG
  6
Continuous
 62
     7
100
AcDbSpline
210
0.0
220
0.0
230
1.0
 70
     8
 71
     3
 72
    13
 73
     9
 74
     7
 42
0.0000000001
 43
0.0000000001
 44
0.00000001
 40
0.0
 40
0.0
 40
0.0
 40
0.0
 40
0.2420096761412598
 40
0.4841829345639105
 40
0.7243349034473
 40
0.96451156578532
 40
1.440975492109684
 40
1.917493731628238
 40
1.917493731628238
 40
1.917493731628238
 40
1.917493731628238
 10
80.8234472453
 20
307.8666907118
 30
0.0
 10
80.82150120646274
 20
307.7860010102625
 30
0.0
 10
80.81760781339672
 20
307.6245670663704
 30
0.0
 10
80.78773207555693
 20
307.3846206152152
 30
0.0
 10
80.74232672987276
 20
307.147947170818
 30
0.0
 10
80.66073202804823
 20
306.8394707106121
 30
0.0
 10
80.52630793398123
 20
306.4638567547059
 30
0.0
 10
80.38267489541371
 20
306.1802765925183
 30
0.0
 10
80.3108542831
 20
306.0384784304
 30
0.0
 11
80.8234472453
 21
307.8666907118
 31
0.0
 11
80.813592570119
 21
307.6248817609254
 31
0.0
 11
80.78502241356071
 21
307.3843996758353
 31
0.0
 11
80.7396345392612
 21
307.1485757817424
 31
0.0
 11
80.67867831878858
 21
306.9162631296601
 31
0.0
 11
80.51724813275109
 21
306.4679795496303
 31
0.0
 11
80.3108542831
 21
306.0384784304
 31
0.0
  0
SPLINE
  5
FC
330
1F
100
AcDbEntity
  8
VERERBUNG
  6
Continuous
 62
     7
100
AcDbSpline
210
0.0
220
0.0
230
1.0
 70
     8
 71
     3
 72
    19
 73
    15
 74
    13
 42
0.0000000001
 43
0.0000000001
 44
0.00000001
 40
0.0
 40
0.0
 40
0.0
 40
0.0
 40
0.083583228312489
 40
0.1672705448919662
 40
0.2499538624528529
 40
0.3326148850766577
 40
0.4138475639307568
 40
0.495084839804713
 40
0.5749375740263124
 40
0.654798588793826
 40
0.8114954796614136
 40
0.9684466433218968
 40
1.123543258617203
 40
1.27850201812192
 40
1.27850201812192
 40
1.27850201812192
 40
1.27850201812192
 10
79.3234472453
 20
325.2647913123
 30
0.0
 10
79.3512458858926
 20
325.2670641929882
 30
0.0
 10
79.40687778541432
 20
325.2716127848392
 30
0.0
 10
79.49030918893769
 20
325.2662466568025
 30
0.0
 10
79.57221826234004
 20
325.2519424733812
 30
0.0
 10
79.65125473521604
 20
325.2287526821924
 30
0.0
 10
79.72695574322748
 20
325.1976479752116
 30
0.0
 10
79.798485381051
 20
325.1598773262026
 30
0.0
 10
79.86602722318698
 20
325.116242041821
 30
0.0
 10
79.94989666697762
 20
325.0521465550283
 30
0.0
 10
80.04548459700449
 20
324.9617233566728
 30
0.0
 10
80.1458588759238
 20
324.8416770164831
 30
0.0
 10
80.23490318720388
 20
324.7136783087103
 30
0.0
 10
80.28554475649673
 20
324.6235316962744
 30
0.0
 10
80.3108542831
 20
324.5784784304
 30
0.0
 11
79.3234472453
 21
325.2647913123
 31
0.0
 11
79.4068933220342
 21
325.2695775773166
 31
0.0
 11
79.49043901093731
 21
325.2647108718625
 31
0.0
 11
79.5718792850642
 21
325.2504275685677
 31
0.0
 11
79.65122411984042
 21
325.227249090284
 31
0.0
 11
79.72640052731808
 21
325.1964715680873
 31
0.0
 11
79.79828489091267
 21
325.1586280314922
 31
0.0
 11
79.86541612083204
 21
325.1153861868024
 31
0.0
 11
79.9289328748816
 21
325.0669774723524
 31
0.0
 11
80.04316999435675
 21
324.9597217212637
 31
0.0
 11
80.14440371508223
 21
324.8397825635109
 31
0.0
 11
80.2328083861018
 21
324.7123479755139
 31
0.0
 11
80.3108542831
 21
324.5784784304
 31
0.0
  0
SPLINE
  5
FD
330
1F
100
AcDbEntity
  8
VERERBUNG
  6
Continuous
 62
     7
100
AcDbSpline
210
0.0
220
0.0
230
1.0
 70
     8
 71
     3
 72
    13
 73
     9
 74
     7
 42
0.0000000001
 43
0.0000000001
 44
0.00000001
 40
0.0
 40
0.0
 40
0.0
 40
0.0
 40
0.4765182419404118
 40
0.9529821706213213
 40
1.193158829979211
 40
1.433310795907261
 40
1.675484054948364
 40
1.917493731706081
 40
1.917493731706081
 40
1.917493731706081
 40
1.917493731706081
 10
80.3108542831
 20
324.5784784304
 30
0.0
 10
80.38267489572989
 20
324.4366802675356
 30
0.0
 10
80.52630793491988
 20
324.1531001038751
 30
0.0
 10
80.6607320288866
 20
323.7774861472817
 30
0.0
 10
80.74232673018582
 20
323.4690096881768
 30
0.0
 10
80.7877320755472
 20
323.232336245528
 30
0.0
 10
80.81760781337566
 20
322.9923897949469
 30
0.0
 10
80.82150120645574
 20
322.8309558506431
 30
0.0
 10
80.8234472453
 20
322.7502661489
 30
0.0
 11
80.3108542831
 21
324.5784784304
 31
0.0
 11
80.51724813361683
 21
324.1489773088988
 31
0.0
 11
80.6786783200824
 21
323.7006937265185
 31
0.0
 11
80.73963453963523
 21
323.4683810772758
 31
0.0
 11
80.78502241338538
 21
323.2325571860868
 31
0.0
 11
80.81359257007881
 21
322.9920751003899
 31
0.0
 11
80.8234472453
 21
322.7502661489
 31
0.0
  0
SPLINE
  5
FE
330
1F
100
AcDbEntity
  8
VERERBUNG
  6
Continuous
 62
     7
100
AcDbSpline
210
0.0
220
0.0
230
1.0
 70
     8
 71
     3
 72
    13
 73
     9
 74
     7
 42
0.0000000001
 43
0.0000000001
 44
0.00000001
 40
0.0
 40
0.0
 40
0.0
 40
0.0
 40
0.9581451161710167
 40
1.916374757545803
 40
2.729668920808243
 40
3.542928077724798
 40
4.28195173705026
 40
5.020980281045345
 40
5.020980281045345
 40
5.020980281045345
 40
5.020980281045345
 10
113.8234472453
 20
346.4091215105
 30
0.0
 10
113.5040530789746
 20
346.4119650482098
 30
0.0
 10
112.8652365701565
 20
346.4176523744794
 30
0.0
 10
111.9561724489375
 20
346.4612600931674
 30
0.0
 10
111.0968543417081
 20
346.5248164793269
 30
0.0
 10
110.3122157987912
 20
346.6038134952984
 30
0.0
 10
109.5540842712992
 20
346.6972245558065
 30
0.0
 10
109.0669934572126
 20
346.7713937238307
 30
0.0
 10
108.8234472453
 20
346.8084784304
 30
0.0
 11
113.8234472453
 21
346.4091215105
 31
0.0
 11
112.8654158534562
 21
346.423883484762
 31
0.0
 11
111.9082041415625
 21
346.4680398458304
 31
0.0
 11
111.0971528112306
 21
346.5283982384839
 31
0.0
 11
110.2879410631397
 21
346.6094340519263
 31
0.0
 11
109.5545748246762
 21
346.7007024984159
 31
0.0
 11
108.8234472453
 21
346.8084784304
 31
0.0
  0
ARC
  5
FF
330
1F
100
AcDbEntity
  8
1
  6
Continuous
 62
     7
100
AcDbCircle
 10
134.8234472453
 20
341.3084784304
 30
0.0
 40
2.0
100
AcDbArc
 50
180.0
 51
270.0
  0
ARC
  5
100
330
1F
100
AcDbEntity
  8
1
  6
Continuous
 62
     7
100
AcDbCircle
 10
134.8234472453
 20
289.3084784304
 30
0.0
 40
2.0
100
AcDbArc
 50
90.0
 51
180.0
  0
DIMENSION
  5
10B
330
1F
100
AcDbEntity
  8
1
100
AcDbDimension
  2
*D2
 10
106.8234472453
 20
274.956381226219
 30
0.0
 11
156.220256001578
 21
278.706381226219
 31
0.0
 70
    32
  1
<>
 71
     5
 42
-1.0
 53
0.00013888888889
  3
ME10_DIM_10
100
AcDbAlignedDimension
 13
206.8234472453
 23
292.3084784304
 33
0.0
 14
106.8234472453
 24
283.8084784304
 34
0.0
100
AcDbRotatedDimension
  0
DIMENSION
  5
116
330
1F
100
AcDbEntity
  8
1
100
AcDbDimension
  2
*D3
 10
225.8234472453
 20
371.612351385363
 30
0.0
 11
151.953858536411
 21
375.362351385363
 31
0.0
 70
    32
  1
<>
 71
     5
 42
-1.0
 53
0.00013888888889
  3
ME10_DIM_11
100
AcDbAlignedDimension
 13
74.8234472453
 23
336.8845056105
 33
0.0
 14
225.8234472453
 24
325.3084784304
 34
0.0
100
AcDbRotatedDimension
  0
DIMENSION
  5
121
330
1F
100
AcDbEntity
  8
1
100
AcDbDimension
  2
*D4
 10
225.8234472453
 20
364.256493686798
 30
0.0
 11
164.900168085885
 21
368.006493686798
 31
0.0
 70
    32
  1
<>
 71
     5
 42
-1.0
 53
0.00013888888889
  3
ME10_DIM_12
100
AcDbAlignedDimension
 13
106.8234472453
 23
346.8084784304
 33
0.0
 14
225.8234472453
 24
325.3084784304
 34
0.0
100
AcDbRotatedDimension
  0
DIMENSION
  5
12C
330
1F
100
AcDbEntity
  8
1
100
AcDbDimension
  2
*D5
 10
225.8234472453
 20
348.499154705344
 30
0.0
 11
216.19034303244
 21
352.249154705344
 31
0.0
 70
    32
  1
<>
 71
     5
 42
-1.0
 53
0.00013888888889
  3
ME10_DIM_13
100
AcDbAlignedDimension
 13
206.8234472453
 23
338.3084784304
 33
0.0
 14
225.8234472453
 24
325.3084784304
 34
0.0
100
AcDbRotatedDimension
  0
DIMENSION
  5
137
330
1F
100
AcDbEntity
  8
1
100
AcDbDimension
  2
*D6
 10
245.573014872794
 20
339.3084784304
 30
0.0
 11
241.823014872794
 21
315.476937410444
 31
0.0
 70
    32
  1
<>
 71
     5
 42
-1.0
 53
90.0
  3
ME10_DIM_14
100
AcDbAlignedDimension
 13
205.8234472453
 23
291.3084784304
 33
0.0
 14
205.8234472453
 24
339.3084784304
 34
0.0
 50
90.0
100
AcDbRotatedDimension
  0
DIMENSION
  5
142
330
1F
100
AcDbEntity
  8
1
100
AcDbDimension
  2
*D7
 10
237.317460549069
 20
326.3084784304
 30
0.0
 11
233.567460549069
 21
315.210629206453
 31
0.0
 70
    32
  1
<>
 71
     5
 42
-1.0
 53
90.0
  3
ME10_DIM_15
100
AcDbAlignedDimension
 13
224.8234472453
 23
304.3084784304
 33
0.0
 14
224.8234472453
 24
326.3084784304
 34
0.0
 50
90.0
100
AcDbRotatedDimension
  0
DIMENSION
  5
14D
330
1F
100
AcDbEntity
  8
1
100
AcDbDimension
  2
*D8
 10
225.8234472453
 20
356.606401680291
 30
0.0
 11
177.110891865503
 21
360.356401680291
 31
0.0
 70
    32
  1
<>
 71
     5
 42
-1.0
 53
0.00013888888889
  3
ME10_DIM_16
100
AcDbAlignedDimension
 13
132.8234472453
 23
346.8084295248
 33
0.0
 14
225.8234472453
 24
325.3084784304
 34
0.0
100
AcDbRotatedDimension
  0
INSERT
  5
154
330
1F
100
AcDbEntity
  8
1
100
AcDbBlockReference
  2
*D9
 10
0.0
 20
0.0
 30
0.0
  0
ENDSEC
  0
SECTION
  2
OBJECTS
  0
DICTIONARY
  5
C
330
0
100
AcDbDictionary
281
     1
  3
ACAD_GROUP
350
D
  3
ACAD_LAYOUT
350
1A
  3
ACAD_MLEADERSTYLE
350
157
  3
ACAD_MLINESTYLE
350
17
  3
ACAD_PLOTSETTINGS
350
19
  3
ACAD_PLOTSTYLENAME
350
E
  3
ACAD_SCALELIST
350
4A
  3
ACAD_VISUALSTYLE
350
2A
  3
AcDbVariableDictionary
350
155
  0
DICTIONARY
  5
D
102
{ACAD_REACTORS
330
C
102
}
330
C
100
AcDbDictionary
281
     1
  0
DICTIONARY
  5
1A
102
{ACAD_REACTORS
330
C
102
}
330
C
100
AcDbDictionary
281
     1
  3
Layout1
350
1E
  3
Layout2
350
26
  3
Model
350
22
  0
DICTIONARY
  5
157
102
{ACAD_REACTORS
330
C
102
}
330
C
100
AcDbDictionary
281
     1
  0
DICTIONARY
  5
17
102
{ACAD_REACTORS
330
C
102
}
330
C
100
AcDbDictionary
281
     1
  3
Standard
350
18
  0
DICTIONARY
  5
19
102
{ACAD_REACTORS
330
C
102
}
330
C
100
AcDbDictionary
281
     1
  0
ACDBDICTIONARYWDFLT
  5
E
102
{ACAD_REACTORS
330
C
102
}
330
C
100
AcDbDictionary
281
     1
  3
Normal
350
F
100
AcDbDictionaryWithDefault
340
F
  0
DICTIONARY
  5
4A
102
{ACAD_REACTORS
330
C
102
}
330
C
100
AcDbDictionary
281
     1
  3
A0
350
4B
  3
A1
350
4C
  3
A2
350
4D
  3
A3
350
4E
  3
A4
350
4F
  3
A5
350
50
  3
A6
350
51
  3
A7
350
52
  3
A8
350
53
  3
A9
350
54
  3
B0
350
55
  3
B1
350
56
  3
B2
350
57
  3
B3
350
58
  3
B4
350
59
  3
B5
350
5A
  3
B6
350
5B
  3
B7
350
5C
  3
B8
350
5D
  3
B9
350
5E
  3
C0
350
5F
  3
C1
350
60
  3
C2
350
61
  3
C3
350
62
  3
C4
350
63
  3
C5
350
64
  3
C6
350
65
  3
C7
350
66
  3
C8
350
67
  3
C9
350
68
  3
D0
350
69
  3
D1
350
6A
  3
D2
350
6B
  0
DICTIONARY
  5
2A
102
{ACAD_REACTORS
330
C
102
}
330
C
100
AcDbDictionary
281
     1
  3
2dWireframe
350
2F
  3
3D Hidden
350
31
  3
3dWireframe
350
30
  3
Basic
350
32
  3
Brighten
350
36
  3
ColorChange
350
3A
  3
Conceptual
350
34
  3
Dim
350
35
  3
Facepattern
350
39
  3
Flat
350
2B
  3
FlatWithEdges
350
2C
  3
Gouraud
350
2D
  3
GouraudWithEdges
350
2E
  3
Linepattern
350
38
  3
Realistic
350
33
  3
Thicken
350
37
  0
DICTIONARY
  5
155
102
{ACAD_REACTORS
330
C
102
}
330
C
100
AcDbDictionary
281
     1
  3
CANNOSCALE
350
158
  0
LAYOUT
  5
1E
102
{ACAD_REACTORS
330
1A
102
}
330
1A
100
AcDbPlotSettings
  1

  2
none_device
  4

  6

 40
0.0
 41
0.0
 42
0.0
 43
0.0
 44
0.0
 45
0.0
 46
0.0
 47
0.0
 48
0.0
 49
0.0
140
0.0
141
0.0
142
1.0
143
1.0
 70
   688
 72
     0
 73
     0
 74
     5
  7

 75
    16
147
1.0
148
0.0
149
0.0
100
AcDbLayout
  1
Layout1
 70
     1
 71
     1
 10
0.0
 20
0.0
 11
12.0
 21
9.0
 12
0.0
 22
0.0
 32
0.0
 14
1.00000000000000E+20
 24
1.00000000000000E+20
 34
1.00000000000000E+20
 15
-1.00000000000000E+20
 25
-1.00000000000000E+20
 35
-1.00000000000000E+20
146
0.0
 13
0.0
 23
0.0
 33
0.0
 16
1.0
 26
0.0
 36
0.0
 17
0.0
 27
1.0
 37
0.0
 76
     0
330
1B
  0
LAYOUT
  5
26
102
{ACAD_REACTORS
330
1A
102
}
330
1A
100
AcDbPlotSettings
  1

  2
none_device
  4

  6

 40
0.0
 41
0.0
 42
0.0
 43
0.0
 44
0.0
 45
0.0
 46
0.0
 47
0.0
 48
0.0
 49
0.0
140
0.0
141
0.0
142
1.0
143
1.0
 70
   688
 72
     0
 73
     0
 74
     5
  7

 75
    16
147
1.0
148
0.0
149
0.0
100
AcDbLayout
  1
Layout2
 70
     1
 71
     2
 10
0.0
 20
0.0
 11
0.0
 21
0.0
 12
0.0
 22
0.0
 32
0.0
 14
0.0
 24
0.0
 34
0.0
 15
0.0
 25
0.0
 35
0.0
146
0.0
 13
0.0
 23
0.0
 33
0.0
 16
1.0
 26
0.0
 36
0.0
 17
0.0
 27
1.0
 37
0.0
 76
     0
330
23
  0
LAYOUT
  5
22
102
{ACAD_REACTORS
330
1A
102
}
330
1A
100
AcDbPlotSettings
  1

  2
none_device
  4

  6

 40
0.0
 41
0.0
 42
0.0
 43
0.0
 44
0.0
 45
0.0
 46
0.0
 47
0.0
 48
0.0
 49
0.0
140
0.0
141
0.0
142
1.0
143
1.0
 70
  1712
 72
     0
 73
     0
 74
     0
  7

 75
     0
147
1.0
148
0.0
149
0.0
100
AcDbLayout
  1
Model
 70
     1
 71
     0
 10
0.0
 20
0.0
 11
12.0
 21
9.0
 12
0.0
 22
0.0
 32
0.0
 14
52.18455777114301
 24
270.5993496607818
 34
0.0
 15
247.573014872794
 25
379.368736578088
 35
0.0
146
0.0
 13
0.0
 23
0.0
 33
0.0
 16
1.0
 26
0.0
 36
0.0
 17
0.0
 27
1.0
 37
0.0
 76
     0
330
1F
331
29
  0
MLINESTYLE
  5
18
102
{ACAD_REACTORS
330
17
102
}
330
17
100
AcDbMlineStyle
  2
Standard
 70
     0
  3

 62
   256
 51
90.0
 52
90.0
 71
     2
 49
0.5
 62
   256
  6
BYLAYER
 49
-0.5
 62
   256
  6
BYLAYER
  0
ACDBPLACEHOLDER
  5
F
102
{ACAD_REACTORS
330
E
102
}
330
E
  0
SCALE
  5
4B
102
{ACAD_REACTORS
330
4A
102
}
330
4A
100
AcDbScale
 70
     0
300
1:1
140
1.0
141
1.0
290
     1
  0
SCALE
  5
4C
102
{ACAD_REACTORS
330
4A
102
}
330
4A
100
AcDbScale
 70
     0
300
1:2
140
1.0
141
2.0
290
     0
  0
SCALE
  5
4D
102
{ACAD_REACTORS
330
4A
102
}
330
4A
100
AcDbScale
 70
     0
300
1:4
140
1.0
141
4.0
290
     0
  0
SCALE
  5
4E
102
{ACAD_REACTORS
330
4A
102
}
330
4A
100
AcDbScale
 70
     0
300
1:5
140
1.0
141
5.0
290
     0
  0
SCALE
  5
4F
102
{ACAD_REACTORS
330
4A
102
}
330
4A
100
AcDbScale
 70
     0
300
1:8
140
1.0
141
8.0
290
     0
  0
SCALE
  5
50
102
{ACAD_REACTORS
330
4A
102
}
330
4A
100
AcDbScale
 70
     0
300
1:10
140
1.0
141
10.0
290
     0
  0
SCALE
  5
51
102
{ACAD_REACTORS
330
4A
102
}
330
4A
100
AcDbScale
 70
     0
300
1:16
140
1.0
141
16.0
290
     0
  0
SCALE
  5
52
102
{ACAD_REACTORS
330
4A
102
}
330
4A
100
AcDbScale
 70
     0
300
1:20
140
1.0
141
20.0
290
     0
  0
SCALE
  5
53
102
{ACAD_REACTORS
330
4A
102
}
330
4A
100
AcDbScale
 70
     0
300
1:30
140
1.0
141
30.0
290
     0
  0
SCALE
  5
54
102
{ACAD_REACTORS
330
4A
102
}
330
4A
100
AcDbScale
 70
     0
300
1:40
140
1.0
141
40.0
290
     0
  0
SCALE
  5
55
102
{ACAD_REACTORS
330
4A
102
}
330
4A
100
AcDbScale
 70
     0
300
1:50
140
1.0
141
50.0
290
     0
  0
SCALE
  5
56
102
{ACAD_REACTORS
330
4A
102
}
330
4A
100
AcDbScale
 70
     0
300
1:100
140
1.0
141
100.0
290
     0
  0
SCALE
  5
57
102
{ACAD_REACTORS
330
4A
102
}
330
4A
100
AcDbScale
 70
     0
300
2:1
140
2.0
141
1.0
290
     0
  0
SCALE
  5
58
102
{ACAD_REACTORS
330
4A
102
}
330
4A
100
AcDbScale
 70
     0
300
4:1
140
4.0
141
1.0
290
     0
  0
SCALE
  5
59
102
{ACAD_REACTORS
330
4A
102
}
330
4A
100
AcDbScale
 70
     0
300
8:1
140
8.0
141
1.0
290
     0
  0
SCALE
  5
5A
102
{ACAD_REACTORS
330
4A
102
}
330
4A
100
AcDbScale
 70
     0
300
10:1
140
10.0
141
1.0
290
     0
  0
SCALE
  5
5B
102
{ACAD_REACTORS
330
4A
102
}
330
4A
100
AcDbScale
 70
     0
300
100:1
140
100.0
141
1.0
290
     0
  0
SCALE
  5
5C
102
{ACAD_REACTORS
330
4A
102
}
330
4A
100
AcDbScale
 70
     0
300
1/128" = 1'-0"
140
0.0078125
141
12.0
290
     0
  0
SCALE
  5
5D
102
{ACAD_REACTORS
330
4A
102
}
330
4A
100
AcDbScale
 70
     0
300
1/64" = 1'-0"
140
0.015625
141
12.0
290
     0
  0
SCALE
  5
5E
102
{ACAD_REACTORS
330
4A
102
}
330
4A
100
AcDbScale
 70
     0
300
1/32" = 1'-0"
140
0.03125
141
12.0
290
     0
  0
SCALE
  5
5F
102
{ACAD_REACTORS
330
4A
102
}
330
4A
100
AcDbScale
 70
     0
300
1/16" = 1'-0"
140
0.0625
141
12.0
290
     0
  0
SCALE
  5
60
102
{ACAD_REACTORS
330
4A
102
}
330
4A
100
AcDbScale
 70
     0
300
3/32" = 1'-0"
140
0.09375
141
12.0
290
     0
  0
SCALE
  5
61
102
{ACAD_REACTORS
330
4A
102
}
330
4A
100
AcDbScale
 70
     0
300
1/8" = 1'-0"
140
0.125
141
12.0
290
     0
  0
SCALE
  5
62
102
{ACAD_REACTORS
330
4A
102
}
330
4A
100
AcDbScale
 70
     0
300
3/16" = 1'-0"
140
0.1875
141
12.0
290
     0
  0
SCALE
  5
63
102
{ACAD_REACTORS
330
4A
102
}
330
4A
100
AcDbScale
 70
     0
300
1/4" = 1'-0"
140
0.25
141
12.0
290
     0
  0
SCALE
  5
64
102
{ACAD_REACTORS
330
4A
102
}
330
4A
100
AcDbScale
 70
     0
300
3/8" = 1'-0"
140
0.375
141
12.0
290
     0
  0
SCALE
  5
65
102
{ACAD_REACTORS
330
4A
102
}
330
4A
100
AcDbScale
 70
     0
300
1/2" = 1'-0"
140
0.5
141
12.0
290
     0
  0
SCALE
  5
66
102
{ACAD_REACTORS
330
4A
102
}
330
4A
100
AcDbScale
 70
     0
300
3/4" = 1'-0"
140
0.75
141
12.0
290
     0
  0
SCALE
  5
67
102
{ACAD_REACTORS
330
4A
102
}
330
4A
100
AcDbScale
 70
     0
300
1" = 1'-0"
140
1.0
141
12.0
290
     0
  0
SCALE
  5
68
102
{ACAD_REACTORS
330
4A
102
}
330
4A
100
AcDbScale
 70
     0
300
1-1/2" = 1'-0"
140
1.5
141
12.0
290
     0
  0
SCALE
  5
69
102
{ACAD_REACTORS
330
4A
102
}
330
4A
100
AcDbScale
 70
     0
300
3" = 1'-0"
140
3.0
141
12.0
290
     0
  0
SCALE
  5
6A
102
{ACAD_REACTORS
330
4A
102
}
330
4A
100
AcDbScale
 70
     0
300
6" = 1'-0"
140
6.0
141
12.0
290
     0
  0
SCALE
  5
6B
102
{ACAD_REACTORS
330
4A
102
}
330
4A
100
AcDbScale
 70
     0
300
1'-0" = 1'-0"
140
12.0
141
12.0
290
     0
  0
VISUALSTYLE
  5
2F
102
{ACAD_REACTORS
330
2A
102
}
330
2A
100
AcDbVisualStyle
  2
2dWireframe
 70
     4
 71
     0
 72
     2
 73
     0
 90
        0
 40
-0.6
 41
-30.0
 62
     5
 63
     7
 74
     1
 91
        4
 64
     7
 65
   257
 75
     1
175
     1
 42
1.0
 92
        0
 66
   257
 43
1.0
 76
     1
 77
     6
 78
     2
 67
     7
 79
     5
170
     0
171
     0
290
     0
174
     0
 93
        1
 44
0.0
173
     0
291
     0
 45
0.0
1001
ACAD
1000
AcDbSavedByObjectVersion
1070
     0
  0
VISUALSTYLE
  5
31
102
{ACAD_REACTORS
330
2A
102
}
330
2A
100
AcDbVisualStyle
  2
3D Hidden
 70
     6
 71
     1
 72
     2
 73
     2
 90
        0
 40
-0.6
 41
-30.0
 62
     5
 63
     7
 74
     2
 91
        2
 64
     7
 65
   257
 75
     2
175
     1
 42
40.0
 92
        0
 66
   257
 43
1.0
 76
     1
 77
     6
 78
     2
 67
     7
 79
     3
170
     0
171
     0
290
     0
174
     0
 93
        1
 44
0.0
173
     0
291
     0
 45
0.0
1001
ACAD
1000
AcDbSavedByObjectVersion
1070
     0
  0
VISUALSTYLE
  5
30
102
{ACAD_REACTORS
330
2A
102
}
330
2A
100
AcDbVisualStyle
  2
3dWireframe
 70
     5
 71
     0
 72
     2
 73
     0
 90
        0
 40
-0.6
 41
-30.0
 62
     5
 63
     7
 74
     1
 91
        4
 64
     7
 65
   257
 75
     1
175
     1
 42
1.0
 92
        0
 66
   257
 43
1.0
 76
     1
 77
     6
 78
     2
 67
     7
 79
     5
170
     0
171
     0
290
     0
174
     0
 93
        1
 44
0.0
173
     0
291
     0
 45
0.0
1001
ACAD
1000
AcDbSavedByObjectVersion
1070
     0
  0
VISUALSTYLE
  5
32
102
{ACAD_REACTORS
330
2A
102
}
330
2A
100
AcDbVisualStyle
  2
Basic
 70
     7
 71
     1
 72
     0
 73
     1
 90
        0
 40
-0.6
 41
-30.0
 62
     5
 63
     7
 74
     0
 91
        4
 64
     7
 65
   257
 75
     1
175
     1
 42
1.0
 92
        8
 66
     7
 43
1.0
 76
     1
 77
     6
 78
     2
 67
     7
 79
     5
170
     0
171
     0
290
     0
174
     0
 93
        1
 44
0.0
173
     0
291
     1
 45
0.0
1001
ACAD
1000
AcDbSavedByObjectVersion
1070
     0
  0
VISUALSTYLE
  5
36
102
{ACAD_REACTORS
330
2A
102
}
330
2A
100
AcDbVisualStyle
  2
Brighten
 70
    12
 71
     2
 72
     2
 73
     0
 90
        0
 40
-0.6
 41
-30.0
 62
     5
 63
     7
 74
     1
 91
        4
 64
     7
 65
   257
 75
     1
175
     1
 42
1.0
 92
        8
 66
     7
 43
1.0
 76
     1
 77
     6
 78
     2
 67
     7
 79
     5
170
     0
171
     0
290
     0
174
     0
 93
        1
 44
50.0
173
     0
291
     1
 45
0.0
1001
ACAD
1000
AcDbSavedByObjectVersion
1070
     0
  0
VISUALSTYLE
  5
3A
102
{ACAD_REACTORS
330
2A
102
}
330
2A
100
AcDbVisualStyle
  2
ColorChange
 70
    16
 71
     2
 72
     2
 73
     3
 90
        0
 40
-0.6
 41
-30.0
 62
     5
 63
     8
 74
     1
 91
        4
 64
     7
 65
   257
 75
     1
175
     1
 42
1.0
 92
        8
 66
     8
 43
1.0
 76
     1
 77
     6
 78
     2
 67
     7
 79
     5
170
     0
171
     0
290
     0
174
     0
 93
        1
 44
0.0
173
     0
291
     1
 45
0.0
1001
ACAD
1000
AcDbSavedByObjectVersion
1070
     0
  0
VISUALSTYLE
  5
34
102
{ACAD_REACTORS
330
2A
102
}
330
2A
100
AcDbVisualStyle
  2
Conceptual
 70
     9
 71
     3
 72
     2
 73
     0
 90
        0
 40
-0.6
 41
-30.0
 62
     5
 63
     7
 74
     2
 91
        2
 64
     7
 65
   257
 75
     1
175
     1
 42
40.0
 92
        8
 66
     7
 43
1.0
 76
     1
 77
     6
 78
     2
 67
     7
 79
     3
170
     0
171
     0
290
     0
174
     0
 93
        1
 44
0.0
173
     0
291
     0
 45
0.0
1001
ACAD
1000
AcDbSavedByObjectVersion
1070
     0
  0
VISUALSTYLE
  5
35
102
{ACAD_REACTORS
330
2A
102
}
330
2A
100
AcDbVisualStyle
  2
Dim
 70
    11
 71
     2
 72
     2
 73
     0
 90
        0
 40
-0.6
 41
-30.0
 62
     5
 63
     7
 74
     1
 91
        4
 64
     7
 65
   257
 75
     1
175
     1
 42
1.0
 92
        8
 66
     7
 43
1.0
 76
     1
 77
     6
 78
     2
 67
     7
 79
     5
170
     0
171
     0
290
     0
174
     0
 93
        1
 44
-50.0
173
     0
291
     1
 45
0.0
1001
ACAD
1000
AcDbSavedByObjectVersion
1070
     0
  0
VISUALSTYLE
  5
39
102
{ACAD_REACTORS
330
2A
102
}
330
2A
100
AcDbVisualStyle
  2
Facepattern
 70
    15
 71
     2
 72
     2
 73
     0
 90
        0
 40
-0.6
 41
-30.0
 62
     5
 63
     7
 74
     1
 91
        4
 64
     7
 65
   257
 75
     1
175
     1
 42
1.0
 92
        8
 66
     7
 43
1.0
 76
     1
 77
     6
 78
     2
 67
     7
 79
     5
170
     0
171
     0
290
     0
174
     0
 93
        1
 44
0.0
173
     0
291
     1
 45
0.0
1001
ACAD
1000
AcDbSavedByObjectVersion
1070
     0
  0
VISUALSTYLE
  5
2B
102
{ACAD_REACTORS
330
2A
102
}
330
2A
100
AcDbVisualStyle
  2
Flat
 70
     0
 71
     2
 72
     1
 73
     1
 90
        2
 40
-0.6
 41
30.0
 62
     5
 63
     7
 74
     0
 91
        4
 64
     7
 65
   257
 75
     1
175
     1
 42
1.0
 92
        8
 66
     7
 43
1.0
 76
     1
 77
     6
 78
     2
 67
     7
 79
     5
170
     0
171
     0
290
     0
174
     0
 93
       13
 44
0.0
173
     0
291
     1
 45
0.0
1001
ACAD
1000
AcDbSavedByObjectVersion
1070
     0
  0
VISUALSTYLE
  5
2C
102
{ACAD_REACTORS
330
2A
102
}
330
2A
100
AcDbVisualStyle
  2
FlatWithEdges
 70
     1
 71
     2
 72
     1
 73
     1
 90
        2
 40
-0.6
 41
30.0
 62
     5
 63
     7
 74
     1
 91
        4
 64
     7
 65
   257
 75
     1
175
     1
 42
1.0
 92
        0
 66
   257
 43
1.0
 76
     1
 77
     6
 78
     2
 67
     7
 79
     5
170
     0
171
     0
290
     0
174
     0
 93
       13
 44
0.0
173
     0
291
     1
 45
0.0
1001
ACAD
1000
AcDbSavedByObjectVersion
1070
     0
  0
VISUALSTYLE
  5
2D
102
{ACAD_REACTORS
330
2A
102
}
330
2A
100
AcDbVisualStyle
  2
Gouraud
 70
     2
 71
     2
 72
     2
 73
     1
 90
        2
 40
-0.6
 41
30.0
 62
     5
 63
     7
 74
     0
 91
        4
 64
     7
 65
   257
 75
     1
175
     1
 42
1.0
 92
        0
 66
     7
 43
1.0
 76
     1
 77
     6
 78
     2
 67
     7
 79
     5
170
     0
171
     0
290
     0
174
     0
 93
       13
 44
0.0
173
     0
291
     1
 45
0.0
1001
ACAD
1000
AcDbSavedByObjectVersion
1070
     0
  0
VISUALSTYLE
  5
2E
102
{ACAD_REACTORS
330
2A
102
}
330
2A
100
AcDbVisualStyle
  2
GouraudWithEdges
 70
     3
 71
     2
 72
     2
 73
     1
 90
        2
 40
-0.6
 41
30.0
 62
     5
 63
     7
 74
     1
 91
        4
 64
     7
 65
   257
 75
     1
175
     1
 42
1.0
 92
        0
 66
   257
 43
1.0
 76
     1
 77
     6
 78
     2
 67
     7
 79
     5
170
     0
171
     0
290
     0
174
     0
 93
       13
 44
0.0
173
     0
291
     1
 45
0.0
1001
ACAD
1000
AcDbSavedByObjectVersion
1070
     0
  0
VISUALSTYLE
  5
38
102
{ACAD_REACTORS
330
2A
102
}
330
2A
100
AcDbVisualStyle
  2
Linepattern
 70
    14
 71
     2
 72
     2
 73
     0
 90
        0
 40
-0.6
 41
-30.0
 62
     5
 63
     7
 74
     1
 91
        4
 64
     7
 65
   257
 75
     7
175
     7
 42
1.0
 92
        8
 66
     7
 43
1.0
 76
     1
 77
     6
 78
     2
 67
     7
 79
     5
170
     0
171
     0
290
     0
174
     0
 93
        1
 44
0.0
173
     0
291
     1
 45
0.0
1001
ACAD
1000
AcDbSavedByObjectVersion
1070
     0
  0
VISUALSTYLE
  5
33
102
{ACAD_REACTORS
330
2A
102
}
330
2A
100
AcDbVisualStyle
  2
Realistic
 70
     8
 71
     2
 72
     2
 73
     0
 90
        0
 40
-0.6
 41
-30.0
 62
     5
 63
     7
 74
     1
 91
        0
 64
     7
 65
   257
 75
     1
175
     1
 42
1.0
 92
        8
 66
     8
 43
1.0
 76
     1
 77
     6
 78
     2
 67
     7
 79
     5
170
     0
171
     0
290
     0
174
     0
 93
       13
 44
0.0
173
     0
291
     0
 45
0.0
1001
ACAD
1000
AcDbSavedByObjectVersion
1070
     0
  0
VISUALSTYLE
  5
37
102
{ACAD_REACTORS
330
2A
102
}
330
2A
100
AcDbVisualStyle
  2
Thicken
 70
    13
 71
     2
 72
     2
 73
     0
 90
        0
 40
-0.6
 41
-30.0
 62
     5
 63
     7
 74
     1
 91
        4
 64
     7
 65
   257
 75
     1
175
     1
 42
1.0
 92
       12
 66
     7
 43
1.0
 76
     1
 77
     6
 78
     2
 67
     7
 79
     5
170
     0
171
     0
290
     0
174
     0
 93
        1
 44
0.0
173
     0
291
     1
 45
0.0
1001
ACAD
1000
AcDbSavedByObjectVersion
1070
     0
  0
DICTIONARYVAR
  5
158
102
{ACAD_REACTORS
330
155
102
}
330
155
100
DictionaryVariables
280
     0
  1
1:1
  0
ENDSEC
  0
EOF
