  0
SECTION
  2
HEADER
  9
$ACADVER
  1
AC1015
  9
$ACADMAINTVER
 70
     6
  9
$DWGCODEPAGE
  3
ANSI_1252
  9
$INSBASE
 10
0.0
 20
0.0
 30
0.0
  9
$EXTMIN
 10
34.4341877621835
 20
247.360894268674
 30
0.0
  9
$EXTMAX
 10
251.360258152449
 20
390.532068211381
 30
0.0
  9
$LIMMIN
 10
0.0
 20
0.0
  9
$LIMMAX
 10
12.0
 20
9.0
  9
$ORTHOMODE
 70
     0
  9
$REGENMODE
 70
     1
  9
$FILLMODE
 70
     1
  9
$QTEXTMODE
 70
     0
  9
$MIRRTEXT
 70
     1
  9
$LTSCALE
 40
1.0
  9
$ATTMODE
 70
     1
  9
$TEXTSIZE
 40
0.2
  9
$TRACEWID
 40
0.05
  9
$TEXTSTYLE
  7
Standard
  9
$CLAYER
  8
0
  9
$CELTYPE
  6
ByLayer
  9
$CECOLOR
 62
   256
  9
$CELTSCALE
 40
1.0
  9
$DISPSILH
 70
     0
  9
$DIMSCALE
 40
1.0
  9
$DIMASZ
 40
0.18
  9
$DIMEXO
 40
0.0625
  9
$DIMDLI
 40
0.38
  9
$DIMRND
 40
0.0
  9
$DIMDLE
 40
0.0
  9
$DIMEXE
 40
0.18
  9
$DIMTP
 40
0.0
  9
$DIMTM
 40
0.0
  9
$DIMTXT
 40
0.18
  9
$DIMCEN
 40
0.09
  9
$DIMTSZ
 40
0.0
  9
$DIMTOL
 70
     0
  9
$DIMLIM
 70
     0
  9
$DIMTIH
 70
     1
  9
$DIMTOH
 70
     1
  9
$DIMSE1
 70
     0
  9
$DIMSE2
 70
     0
  9
$DIMTAD
 70
     0
  9
$DIMZIN
 70
     0
  9
$DIMBLK
  1

  9
$DIMASO
 70
     1
  9
$DIMSHO
 70
     1
  9
$DIMPOST
  1

  9
$DIMAPOST
  1

  9
$DIMALT
 70
     0
  9
$DIMALTD
 70
     2
  9
$DIMALTF
 40
25.4
  9
$DIMLFAC
 40
1.0
  9
$DIMTOFL
 70
     0
  9
$DIMTVP
 40
0.0
  9
$DIMTIX
 70
     0
  9
$DIMSOXD
 70
     0
  9
$DIMSAH
 70
     0
  9
$DIMBLK1
  1

  9
$DIMBLK2
  1

  9
$DIMSTYLE
  2
Standard
  9
$DIMCLRD
 70
     0
  9
$DIMCLRE
 70
     0
  9
$DIMCLRT
 70
     0
  9
$DIMTFAC
 40
1.0
  9
$DIMGAP
 40
0.09
  9
$DIMJUST
 70
     0
  9
$DIMSD1
 70
     0
  9
$DIMSD2
 70
     0
  9
$DIMTOLJ
 70
     1
  9
$DIMTZIN
 70
     0
  9
$DIMALTZ
 70
     0
  9
$DIMALTTZ
 70
     0
  9
$DIMUPT
 70
     0
  9
$DIMDEC
 70
     4
  9
$DIMTDEC
 70
     4
  9
$DIMALTU
 70
     2
  9
$DIMALTTD
 70
     2
  9
$DIMTXSTY
  7
Standard
  9
$DIMAUNIT
 70
     0
  9
$DIMADEC
 70
     0
  9
$DIMALTRND
 40
0.0
  9
$DIMAZIN
 70
     0
  9
$DIMDSEP
 70
    46
  9
$DIMATFIT
 70
     3
  9
$DIMFRAC
 70
     0
  9
$DIMLDRBLK
  1

  9
$DIMLUNIT
 70
     2
  9
$DIMLWD
 70
    -2
  9
$DIMLWE
 70
    -2
  9
$DIMTMOVE
 70
     0
  9
$LUNITS
 70
     2
  9
$LUPREC
 70
     4
  9
$SKETCHINC
 40
0.1
  9
$FILLETRAD
 40
0.5
  9
$AUNITS
 70
     0
  9
$AUPREC
 70
     0
  9
$MENU
  1
.
  9
$ELEVATION
 40
0.0
  9
$PELEVATION
 40
0.0
  9
$THICKNESS
 40
0.0
  9
$LIMCHECK
 70
     0
  9
$CHAMFERA
 40
0.5
  9
$CHAMFERB
 40
0.5
  9
$CHAMFERC
 40
1.0
  9
$CHAMFERD
 40
0.0
  9
$SKPOLY
 70
     0
  9
$TDCREATE
 40
2456637.603772384
  9
$TDUCREATE
 40
2456637.562105718
  9
$TDUPDATE
 40
2456637.603772396
  9
$TDUUPDATE
 40
2456637.562105729
  9
$TDINDWG
 40
0.0000000116
  9
$TDUSRTIMER
 40
0.0000000116
  9
$USRTIMER
 70
     1
  9
$ANGBASE
 50
0.0
  9
$ANGDIR
 70
     0
  9
$PDMODE
 70
     0
  9
$PDSIZE
 40
0.0
  9
$PLINEWID
 40
0.0
  9
$SPLFRAME
 70
     0
  9
$SPLINETYPE
 70
     6
  9
$SPLINESEGS
 70
     8
  9
$HANDSEED
  5
155
  9
$SURFTAB1
 70
     6
  9
$SURFTAB2
 70
     6
  9
$SURFTYPE
 70
     6
  9
$SURFU
 70
     6
  9
$SURFV
 70
     6
  9
$UCSBASE
  2

  9
$UCSNAME
  2

  9
$UCSORG
 10
0.0
 20
0.0
 30
0.0
  9
$UCSXDIR
 10
1.0
 20
0.0
 30
0.0
  9
$UCSYDIR
 10
0.0
 20
1.0
 30
0.0
  9
$UCSORTHOREF
  2

  9
$UCSORTHOVIEW
 70
     0
  9
$UCSORGTOP
 10
0.0
 20
0.0
 30
0.0
  9
$UCSORGBOTTOM
 10
0.0
 20
0.0
 30
0.0
  9
$UCSORGLEFT
 10
0.0
 20
0.0
 30
0.0
  9
$UCSORGRIGHT
 10
0.0
 20
0.0
 30
0.0
  9
$UCSORGFRONT
 10
0.0
 20
0.0
 30
0.0
  9
$UCSORGBACK
 10
0.0
 20
0.0
 30
0.0
  9
$PUCSBASE
  2

  9
$PUCSNAME
  2

  9
$PUCSORG
 10
0.0
 20
0.0
 30
0.0
  9
$PUCSXDIR
 10
1.0
 20
0.0
 30
0.0
  9
$PUCSYDIR
 10
0.0
 20
1.0
 30
0.0
  9
$PUCSORTHOREF
  2

  9
$PUCSORTHOVIEW
 70
     0
  9
$PUCSORGTOP
 10
0.0
 20
0.0
 30
0.0
  9
$PUCSORGBOTTOM
 10
0.0
 20
0.0
 30
0.0
  9
$PUCSORGLEFT
 10
0.0
 20
0.0
 30
0.0
  9
$PUCSORGRIGHT
 10
0.0
 20
0.0
 30
0.0
  9
$PUCSORGFRONT
 10
0.0
 20
0.0
 30
0.0
  9
$PUCSORGBACK
 10
0.0
 20
0.0
 30
0.0
  9
$USERI1
 70
     0
  9
$USERI2
 70
     0
  9
$USERI3
 70
     0
  9
$USERI4
 70
     0
  9
$USERI5
 70
     0
  9
$USERR1
 40
16.5
  9
$USERR2
 40
0.0
  9
$USERR3
 40
0.0
  9
$USERR4
 40
0.0
  9
$USERR5
 40
0.0
  9
$WORLDVIEW
 70
     1
  9
$SHADEDGE
 70
     3
  9
$SHADEDIF
 70
    70
  9
$TILEMODE
 70
     1
  9
$MAXACTVP
 70
    64
  9
$PINSBASE
 10
0.0
 20
0.0
 30
0.0
  9
$PLIMCHECK
 70
     0
  9
$PEXTMIN
 10
1.00000000000000E+20
 20
1.00000000000000E+20
 30
1.00000000000000E+20
  9
$PEXTMAX
 10
-1.00000000000000E+20
 20
-1.00000000000000E+20
 30
-1.00000000000000E+20
  9
$PLIMMIN
 10
0.0
 20
0.0
  9
$PLIMMAX
 10
12.0
 20
9.0
  9
$UNITMODE
 70
     0
  9
$VISRETAIN
 70
     1
  9
$PLINEGEN
 70
     0
  9
$PSLTSCALE
 70
     1
  9
$TREEDEPTH
 70
  3020
  9
$CMLSTYLE
  2
Standard
  9
$CMLJUST
 70
     0
  9
$CMLSCALE
 40
1.0
  9
$PROXYGRAPHICS
 70
     1
  9
$MEASUREMENT
 70
     1
  9
$CELWEIGHT
370
    -1
  9
$ENDCAPS
280
     0
  9
$JOINSTYLE
280
     0
  9
$LWDISPLAY
290
     0
  9
$INSUNITS
 70
     1
  9
$HYPERLINKBASE
  1

  9
$STYLESHEET
  1

  9
$XEDIT
290
     1
  9
$CEPSNTYPE
380
     0
  9
$PSTYLEMODE
290
     1
  9
$FINGERPRINTGUID
  2
{729B8477-DE46-463B-A697-3B64962280DC}
  9
$VERSIONGUID
  2
{FAEB1C32-E019-11D5-929B-00C0DF256EC4}
  9
$EXTNAMES
290
     1
  9
$PSVPSCALE
 40
0.0
  9
$OLESTARTUP
290
     0
  0
ENDSEC
  0
SECTION
  2
CLASSES
  0
CLASS
  1
ACDBDICTIONARYWDFLT
  2
AcDbDictionaryWithDefault
  3
ObjectDBX Classes
 90
        0
280
     0
281
     0
  0
CLASS
  1
VISUALSTYLE
  2
AcDbVisualStyle
  3
ObjectDBX Classes
 90
     4095
280
     0
281
     0
  0
CLASS
  1
SCALE
  2
AcDbScale
  3
ObjectDBX Classes
 90
     1153
280
     0
281
     0
  0
CLASS
  1

  2
exOdDbPolyline
  3

 90
        0
280
     0
281
     1
  0
CLASS
  1

  2
exOdDbCircle
  3

 90
        0
280
     0
281
     1
  0
CLASS
  1

  2
exOdDbSpline
  3

 90
        0
280
     0
281
     1
  0
CLASS
  1
DICTIONARYVAR
  2
AcDbDictionaryVar
  3
ObjectDBX Classes
 90
        0
280
     0
281
     0
  0
CLASS
  1
ACDBPLACEHOLDER
  2
AcDbPlaceHolder
  3
ObjectDBX Classes
 90
        0
280
     0
281
     0
  0
CLASS
  1
LAYOUT
  2
AcDbLayout
  3
ObjectDBX Classes
 90
        0
280
     0
281
     0
  0
ENDSEC
  0
SECTION
  2
TABLES
  0
TABLE
  2
VPORT
  5
8
330
0
100
AcDbSymbolTable
 70
     1
  0
VPORT
  5
29
330
8
100
AcDbSymbolTableRecord
100
AcDbViewportTableRecord
  2
*Active
 70
     0
 10
0.0
 20
0.0
 11
1.0
 21
1.0
 12
142.8972229573162
 22
318.9464812400275
 13
0.0
 23
0.0
 14
0.5
 24
0.5
 15
0.5
 25
0.5
 16
0.0
 26
0.0
 36
1.0
 17
0.0
 27
0.0
 37
0.0
 40
157.4882913369777
 41
1.60267857142857
 42
50.0
 43
0.0
 44
0.0
 50
0.0
 51
0.0
 71
     0
 72
   100
 73
     1
 74
     3
 75
     0
 76
     0
 77
     0
 78
     0
281
     0
 65
     1
110
0.0
120
0.0
130
0.0
111
1.0
121
0.0
131
0.0
112
0.0
122
1.0
132
0.0
 79
     0
146
0.0
  0
ENDTAB
  0
TABLE
  2
LTYPE
  5
5
330
0
100
AcDbSymbolTable
 70
     8
  0
LTYPE
  5
14
330
5
100
AcDbSymbolTableRecord
100
AcDbLinetypeTableRecord
  2
ByBlock
 70
     0
  3

 72
    65
 73
     0
 40
0.0
  0
LTYPE
  5
15
330
5
100
AcDbSymbolTableRecord
100
AcDbLinetypeTableRecord
  2
ByLayer
 70
     0
  3

 72
    65
 73
     0
 40
0.0
  0
LTYPE
  5
16
330
5
100
AcDbSymbolTableRecord
100
AcDbLinetypeTableRecord
  2
Continuous
 70
     0
  3
Solid line
 72
    65
 73
     0
 40
0.0
  0
LTYPE
  5
3B
330
5
100
AcDbSymbolTableRecord
100
AcDbLinetypeTableRecord
  2
DASHED
 70
     0
  3
Dashed
 72
    65
 73
     2
 40
15.0
 49
7.0
 74
     0
 49
-8.0
 74
     0
  0
LTYPE
  5
3C
330
5
100
AcDbSymbolTableRecord
100
AcDbLinetypeTableRecord
  2
DOTTED
 70
     0
  3
Dotted
 72
    65
 73
     2
 40
1.0
 49
0.0
 74
     0
 49
-1.0
 74
     0
  0
LTYPE
  5
3D
330
5
100
AcDbSymbolTableRecord
100
AcDbLinetypeTableRecord
  2
DOT_CENTER
 70
     0
  3
Dot_Center
 72
    65
 73
     4
 40
14.0
 49
12.0
 74
     0
 49
-1.0
 74
     0
 49
0.0
 74
     0
 49
-1.0
 74
     0
  0
LTYPE
  5
3E
330
5
100
AcDbSymbolTableRecord
100
AcDbLinetypeTableRecord
  2
LONG_DASHED
 70
     0
  3
Long_Dashed
 72
    65
 73
     2
 40
15.0
 49
10.0
 74
     0
 49
-5.0
 74
     0
  0
LTYPE
  5
3F
330
5
100
AcDbSymbolTableRecord
100
AcDbLinetypeTableRecord
  2
DASH_CENTER
 70
     0
  3
Dash_Center
 72
    65
 73
     4
 40
14.0
 49
11.0
 74
     0
 49
-1.0
 74
     0
 49
1.0
 74
     0
 49
-1.0
 74
     0
  0
LTYPE
  5
40
330
5
100
AcDbSymbolTableRecord
100
AcDbLinetypeTableRecord
  2
PHANTOM
 70
     0
  3
Phantom
 72
    65
 73
     6
 40
13.0
 49
10.0
 74
     0
 49
-1.0
 74
     0
 49
0.0
 74
     0
 49
-1.0
 74
     0
 49
0.0
 74
     0
 49
-1.0
 74
     0
  0
LTYPE
  5
41
330
5
100
AcDbSymbolTableRecord
100
AcDbLinetypeTableRecord
  2
CENTER_DASH_DASH
 70
     0
  3
Center_Dash_Dash
 72
    65
 73
     6
 40
14.0
 49
9.0
 74
     0
 49
-1.0
 74
     0
 49
1.0
 74
     0
 49
-1.0
 74
     0
 49
1.0
 74
     0
 49
-1.0
 74
     0
  0
ENDTAB
  0
TABLE
  2
LAYER
  5
2
330
0
100
AcDbSymbolTable
 70
     5
  0
LAYER
  5
10
330
2
100
AcDbSymbolTableRecord
100
AcDbLayerTableRecord
  2
0
 70
     0
 62
     7
  6
Continuous
370
    -3
390
F
  0
LAYER
  5
42
330
2
100
AcDbSymbolTableRecord
100
AcDbLayerTableRecord
  2
1
 70
     0
 62
     7
  6
Continuous
370
    -3
390
F
  0
LAYER
  5
43
330
2
100
AcDbSymbolTableRecord
100
AcDbLayerTableRecord
  2
BEZUGSACHSEN
 70
     0
 62
     7
  6
Continuous
370
    -3
390
F
  0
LAYER
  5
44
330
2
100
AcDbSymbolTableRecord
100
AcDbLayerTableRecord
  2
FASEN
 70
     0
 62
     7
  6
Continuous
370
    -3
390
F
  0
LAYER
  5
45
330
2
100
AcDbSymbolTableRecord
100
AcDbLayerTableRecord
  2
RUNDUNGEN
 70
     0
 62
     7
  6
Continuous
370
    -3
390
F
  0
ENDTAB
  0
TABLE
  2
STYLE
  5
3
330
0
100
AcDbSymbolTable
 70
     2
  0
STYLE
  5
11
330
3
100
AcDbSymbolTableRecord
100
AcDbTextStyleTableRecord
  2
Standard
 70
     0
 40
0.0
 41
1.0
 50
0.0
 71
     0
 42
0.2
  3
txt
  4

  0
STYLE
  5
6C
330
3
100
AcDbSymbolTableRecord
100
AcDbTextStyleTableRecord
  2
CONVERTER_11
 70
     0
 40
0.0
 41
0.72
 50
0.0
 71
     0
 42
0.2
  3
txt.shx
  4

  0
ENDTAB
  0
TABLE
  2
VIEW
  5
6
330
0
100
AcDbSymbolTable
 70
     0
  0
ENDTAB
  0
TABLE
  2
UCS
  5
7
330
0
100
AcDbSymbolTable
 70
     0
  0
ENDTAB
  0
TABLE
  2
APPID
  5
9
330
0
100
AcDbSymbolTable
 70
     1
  0
APPID
  5
12
330
9
100
AcDbSymbolTableRecord
100
AcDbRegAppTableRecord
  2
ACAD
 70
     0
  0
ENDTAB
  0
TABLE
  2
DIMSTYLE
  5
A
330
0
100
AcDbSymbolTable
 70
     8
100
AcDbDimStyleTable
  0
DIMSTYLE
105
27
330
A
100
AcDbSymbolTableRecord
100
AcDbDimStyleTableRecord
  2
Standard
 70
     0
340
11
  0
DIMSTYLE
105
106
102
{ACAD_REACTORS
330
107
102
}
330
A
100
AcDbSymbolTableRecord
100
AcDbDimStyleTableRecord
  2
ME10_DIM_10
 70
     0
  3
<>
 41
3.5
 42
2.0
 44
2.0
 71
     1
 73
     0
 74
     0
 77
     1
 78
     8
140
3.5
146
0.7
147
2.0
172
     1
173
     1
176
     2
177
     2
178
     3
271
     2
272
     0
340
6C
  0
DIMSTYLE
105
111
102
{ACAD_REACTORS
330
112
102
}
330
A
100
AcDbSymbolTableRecord
100
AcDbDimStyleTableRecord
  2
ME10_DIM_11
 70
     0
  3
\U+2300<>
 41
3.5
 42
2.0
 44
2.0
 71
     1
 73
     0
 74
     0
 77
     1
 78
     8
140
3.5
146
0.7
147
2.0
172
     1
173
     1
176
     2
177
     2
178
     3
271
     2
272
     0
340
6C
  0
DIMSTYLE
105
11C
102
{ACAD_REACTORS
330
11D
102
}
330
A
100
AcDbSymbolTableRecord
100
AcDbDimStyleTableRecord
  2
ME10_DIM_12
 70
     0
  3
\U+2300<>
 41
3.5
 42
2.0
 44
2.0
 71
     1
 73
     0
 74
     0
 77
     1
 78
     8
140
3.5
146
0.7
147
2.0
172
     1
173
     1
176
     2
177
     2
178
     3
271
     2
272
     0
340
6C
  0
DIMSTYLE
105
127
102
{ACAD_REACTORS
330
128
102
}
330
A
100
AcDbSymbolTableRecord
100
AcDbDimStyleTableRecord
  2
ME10_DIM_13
 70
     0
  3
<>
 41
3.5
 42
2.0
 44
2.0
 71
     1
 73
     0
 74
     0
 77
     1
 78
     8
140
3.5
146
0.7
147
2.0
172
     1
173
     1
176
     2
177
     2
178
     3
271
     2
272
     0
340
6C
  0
DIMSTYLE
105
132
102
{ACAD_REACTORS
330
133
102
}
330
A
100
AcDbSymbolTableRecord
100
AcDbDimStyleTableRecord
  2
ME10_DIM_14
 70
     0
  3
<>
 41
3.5
 42
2.0
 44
2.0
 71
     1
 73
     0
 74
     0
 77
     1
 78
     8
140
3.5
146
0.7
147
2.0
172
     1
173
     1
176
     2
177
     2
178
     3
271
     2
272
     0
340
6C
  0
DIMSTYLE
105
13D
102
{ACAD_REACTORS
330
13E
102
}
330
A
100
AcDbSymbolTableRecord
100
AcDbDimStyleTableRecord
  2
ME10_DIM_15
 70
     0
  3
<>
 41
3.5
 42
2.0
 44
2.0
 71
     1
 73
     0
 74
     0
 77
     1
 78
     8
140
3.5
146
0.7
147
2.0
172
     1
173
     1
176
     2
177
     2
178
     3
271
     2
272
     0
340
6C
  0
DIMSTYLE
105
148
102
{ACAD_REACTORS
330
149
102
}
330
A
100
AcDbSymbolTableRecord
100
AcDbDimStyleTableRecord
  2
ME10_DIM_16
 70
     0
  3
<>
 41
3.5
 42
2.0
 44
2.0
 71
     1
 73
     0
 74
     0
 77
     1
 78
     8
140
3.5
146
0.7
147
2.0
172
     1
173
     1
176
     2
177
     2
178
     3
271
     2
272
     0
340
6C
  0
ENDTAB
  0
TABLE
  2
BLOCK_RECORD
  5
1
330
0
100
AcDbSymbolTable
 70
    10
  0
BLOCK_RECORD
  5
1F
330
1
100
AcDbSymbolTableRecord
100
AcDbBlockTableRecord
  2
*Model_Space
340
22
  0
BLOCK_RECORD
  5
1B
330
1
100
AcDbSymbolTableRecord
100
AcDbBlockTableRecord
  2
*Paper_Space
340
1E
  0
BLOCK_RECORD
  5
23
330
1
100
AcDbSymbolTableRecord
100
AcDbBlockTableRecord
  2
*Paper_Space0
340
26
  0
BLOCK_RECORD
  5
46
330
1
100
AcDbSymbolTableRecord
100
AcDbBlockTableRecord
  2
Urheberrecht_DE-EN
340
0
102
{BLKREFS
331
6B
102
}
  0
BLOCK_RECORD
  5
FD
330
1
100
AcDbSymbolTableRecord
100
AcDbBlockTableRecord
  2
*D2
340
0
  0
BLOCK_RECORD
  5
108
330
1
100
AcDbSymbolTableRecord
100
AcDbBlockTableRecord
  2
*D3
340
0
  0
BLOCK_RECORD
  5
113
330
1
100
AcDbSymbolTableRecord
100
AcDbBlockTableRecord
  2
*D4
340
0
  0
BLOCK_RECORD
  5
11E
330
1
100
AcDbSymbolTableRecord
100
AcDbBlockTableRecord
  2
*D5
340
0
  0
BLOCK_RECORD
  5
129
330
1
100
AcDbSymbolTableRecord
100
AcDbBlockTableRecord
  2
*D6
340
0
  0
BLOCK_RECORD
  5
134
330
1
100
AcDbSymbolTableRecord
100
AcDbBlockTableRecord
  2
*D7
340
0
  0
BLOCK_RECORD
  5
13F
330
1
100
AcDbSymbolTableRecord
100
AcDbBlockTableRecord
  2
*D8
340
0
  0
BLOCK_RECORD
  5
14A
330
1
100
AcDbSymbolTableRecord
100
AcDbBlockTableRecord
  2
*D9
340
0
102
{BLKREFS
331
150
102
}
  0
ENDTAB
  0
ENDSEC
  0
SECTION
  2
BLOCKS
  0
BLOCK
  5
20
330
1F
100
AcDbEntity
  8
0
100
AcDbBlockBegin
  2
*Model_Space
 70
     0
 10
0.0
 20
0.0
 30
0.0
  3
*Model_Space
  1

  0
ENDBLK
  5
21
330
1F
100
AcDbEntity
  8
0
100
AcDbBlockEnd
  0
BLOCK
  5
1C
330
1B
100
AcDbEntity
 67
     1
  8
0
100
AcDbBlockBegin
  2
*Paper_Space
 70
     0
 10
0.0
 20
0.0
 30
0.0
  3
*Paper_Space
  1

  0
ENDBLK
  5
1D
330
1B
100
AcDbEntity
 67
     1
  8
0
100
AcDbBlockEnd
  0
BLOCK
  5
24
330
23
100
AcDbEntity
  8
0
100
AcDbBlockBegin
  2
*Paper_Space0
 70
     0
 10
0.0
 20
0.0
 30
0.0
  3
*Paper_Space0
  1

  0
ENDBLK
  5
25
330
23
100
AcDbEntity
  8
0
100
AcDbBlockEnd
  0
BLOCK
  5
47
330
46
100
AcDbEntity
  8
0
100
AcDbBlockBegin
  2
Urheberrecht_DE-EN
 70
     0
 10
48.4341877621835
 20
319.742828673729
 30
0.0
  3
Urheberrecht_DE-EN
  1

  0
MTEXT
  5
6D
330
46
100
AcDbEntity
  8
1
 62
     1
100
AcDbMText
 10
48.4341877621835
 20
263.4534417564228
 30
0.0
 40
2.0
 41
0.0
 71
     7
 72
     1
  1
F\U+00fcr diese Unterlage behalten wir das Ur-\Pheberrecht. Sie darf nur f\U+00fcr den von uns \Pbestimmten Zweck benutzt und ohne unsere \PZustimmung weder vervielf\U+00e4ltigt noch\PDritten zug\U+00e4nglich gemacht werden.
  7
CONVERTER_11
 11
0.0
 21
1.0
 31
0.0
 73
     1
 44
0.90036014405762
  0
MTEXT
  5
6E
330
46
100
AcDbEntity
  8
1
 62
     1
100
AcDbMText
 10
48.4341877621835
 20
319.742828673729
 30
0.0
 40
2.0
 41
0.0
 71
     7
 72
     1
  1
We own the copyright of this document. It \Pdetermined and may neither be copied or \Pmade accessible to outsiders without our\Ppermission.
  7
CONVERTER_11
 11
0.0
 21
1.0
 31
0.0
 73
     1
 44
0.90036014405762
  0
ENDBLK
  5
48
330
46
100
AcDbEntity
  8
0
100
AcDbBlockEnd
  0
BLOCK
  5
104
330
FD
100
AcDbEntity
  8
0
100
AcDbBlockBegin
  2
*D2
 70
     1
 10
0.0
 20
0.0
 30
0.0
  3
*D2
  1

  0
LINE
  5
FE
330
FD
100
AcDbEntity
  8
1
  6
Continuous
 62
     2
100
AcDbLine
 10
210.0926130457
 20
249.360894268674
 30
0.0
 11
110.0926130457
 21
249.360894268674
 31
0.0
  0
LINE
  5
FF
330
FD
100
AcDbEntity
  8
1
  6
Continuous
 62
     2
100
AcDbLine
 10
110.0926130457
 20
256.9655990125
 30
0.0
 11
110.0926130457
 21
247.360894268674
 31
0.0
  0
LINE
  5
100
330
FD
100
AcDbEntity
  8
1
  6
Continuous
 62
     2
100
AcDbLine
 10
210.0926130457
 20
283.9655990125
 30
0.0
 11
210.0926130457
 21
247.360894268674
 31
0.0
  0
SOLID
  5
101
330
FD
100
AcDbEntity
  8
1
 62
     2
100
AcDbTrace
 10
206.5926130457
 20
248.9001105271181
 30
0.0
 11
206.5926130457
 21
249.8216780102299
 31
0.0
 12
210.0926130457
 22
249.360894268674
 32
0.0
 13
210.0926130457
 23
249.360894268674
 33
0.0
  0
SOLID
  5
102
330
FD
100
AcDbEntity
  8
1
 62
     2
100
AcDbTrace
 10
113.5926130457
 20
249.8216780102299
 30
0.0
 11
113.5926130457
 21
248.9001105271181
 31
0.0
 12
110.0926130457
 22
249.360894268674
 32
0.0
 13
110.0926130457
 23
249.360894268674
 33
0.0
  0
MTEXT
  5
103
330
FD
100
AcDbEntity
  8
1
 62
     3
100
AcDbMText
 10
159.913789176038
 20
251.360894268674
 30
0.0
 40
3.5
 41
0.0
 71
     7
 72
     1
  1
\C3;\C3;\C3;100\C2;\H2.45;\S^ ;\C3;
  7
CONVERTER_11
 11
0.9999999999970619
 21
2.424068405545306E-6
 31
0.0
 73
     1
 44
0.60024009603842
  0
ENDBLK
  5
105
330
FD
100
AcDbEntity
  8
0
100
AcDbBlockEnd
  0
BLOCK
  5
10F
330
108
100
AcDbEntity
  8
0
100
AcDbBlockBegin
  2
*D3
 70
     1
 10
0.0
 20
0.0
 30
0.0
  3
*D3
  1

  0
LINE
  5
109
330
108
100
AcDbEntity
  8
1
  6
Continuous
 62
     2
100
AcDbLine
 10
249.360258152449
 20
332.9655990125
 30
0.0
 11
249.360258152449
 21
284.9655990125
 31
0.0
  0
LINE
  5
10A
330
108
100
AcDbEntity
  8
1
  6
Continuous
 62
     2
100
AcDbLine
 10
211.0926130457
 20
284.9655990125
 30
0.0
 11
251.360258152449
 21
284.9655990125
 31
0.0
  0
LINE
  5
10B
330
108
100
AcDbEntity
  8
1
  6
Continuous
 62
     2
100
AcDbLine
 10
211.0926130457
 20
332.9655990125
 30
0.0
 11
251.360258152449
 21
332.9655990125
 31
0.0
  0
SOLID
  5
10C
330
108
100
AcDbEntity
  8
1
 62
     2
100
AcDbTrace
 10
249.8210418940049
 20
329.4655990125
 30
0.0
 11
248.8994744108931
 21
329.4655990125
 31
0.0
 12
249.360258152449
 22
332.9655990125
 32
0.0
 13
249.360258152449
 23
332.9655990125
 33
0.0
  0
SOLID
  5
10D
330
108
100
AcDbEntity
  8
1
 62
     2
100
AcDbTrace
 10
248.8994744108931
 20
288.4655990125
 30
0.0
 11
249.8210418940049
 21
288.4655990125
 31
0.0
 12
249.360258152449
 22
284.9655990125
 32
0.0
 13
249.360258152449
 23
284.9655990125
 33
0.0
  0
MTEXT
  5
10E
330
108
100
AcDbEntity
  8
1
 62
     3
100
AcDbMText
 10
247.360258152449
 20
299.620599049578
 30
0.0
 40
3.5
 41
0.0
 71
     7
 72
     1
  1
\C3;%%c\C3;\C3;48\C2;\H2.45;\S^ ;\C3;
  7
CONVERTER_11
 11
0.0
 21
1.0
 31
0.0
 73
     1
 44
0.60024009603842
  0
ENDBLK
  5
110
330
108
100
AcDbEntity
  8
0
100
AcDbBlockEnd
  0
BLOCK
  5
11A
330
113
100
AcDbEntity
  8
0
100
AcDbBlockBegin
  2
*D4
 70
     1
 10
0.0
 20
0.0
 30
0.0
  3
*D4
  1

  0
LINE
  5
114
330
113
100
AcDbEntity
  8
1
  6
Continuous
 62
     2
100
AcDbLine
 10
240.814964194021
 20
319.9655990125
 30
0.0
 11
240.814964194021
 21
297.9655990125
 31
0.0
  0
LINE
  5
115
330
113
100
AcDbEntity
  8
1
  6
Continuous
 62
     2
100
AcDbLine
 10
230.0926130457
 20
297.9655990125
 30
0.0
 11
242.814964194021
 21
297.9655990125
 31
0.0
  0
LINE
  5
116
330
113
100
AcDbEntity
  8
1
  6
Continuous
 62
     2
100
AcDbLine
 10
230.0926130457
 20
319.9655990125
 30
0.0
 11
242.814964194021
 21
319.9655990125
 31
0.0
  0
SOLID
  5
117
330
113
100
AcDbEntity
  8
1
 62
     2
100
AcDbTrace
 10
241.2757479355769
 20
316.4655990125
 30
0.0
 11
240.3541804524651
 21
316.4655990125
 31
0.0
 12
240.814964194021
 22
319.9655990125
 32
0.0
 13
240.814964194021
 23
319.9655990125
 33
0.0
  0
SOLID
  5
118
330
113
100
AcDbEntity
  8
1
 62
     2
100
AcDbTrace
 10
240.3541804524651
 20
301.4655990125
 30
0.0
 11
241.2757479355769
 21
301.4655990125
 31
0.0
 12
240.814964194021
 22
297.9655990125
 32
0.0
 13
240.814964194021
 23
297.9655990125
 33
0.0
  0
MTEXT
  5
119
330
113
100
AcDbEntity
  8
1
 62
     3
100
AcDbMText
 10
238.814964194021
 20
299.737657870926
 30
0.0
 40
3.5
 41
0.0
 71
     7
 72
     1
  1
\C3;%%c\C3;\C3;22\C2;\H2.45;\S^ ;\C3;
  7
CONVERTER_11
 11
0.0
 21
1.0
 31
0.0
 73
     1
 44
0.60024009603842
  0
ENDBLK
  5
11B
330
113
100
AcDbEntity
  8
0
100
AcDbBlockEnd
  0
BLOCK
  5
125
330
11E
100
AcDbEntity
  8
0
100
AcDbBlockBegin
  2
*D5
 70
     1
 10
0.0
 20
0.0
 30
0.0
  3
*D5
  1

  0
LINE
  5
11F
330
11E
100
AcDbEntity
  8
1
  6
Continuous
 62
     2
100
AcDbLine
 10
229.0926130457
 20
385.032068211381
 30
0.0
 11
60.09261304570001
 21
385.032068211381
 31
0.0
  0
LINE
  5
120
330
11E
100
AcDbEntity
  8
1
  6
Continuous
 62
     2
100
AcDbLine
 10
60.09261304570001
 20
344.565790575
 30
0.0
 11
60.09261304570001
 21
387.032068211381
 31
0.0
  0
LINE
  5
121
330
11E
100
AcDbEntity
  8
1
  6
Continuous
 62
     2
100
AcDbLine
 10
229.0926130457
 20
320.9655990125
 30
0.0
 11
229.0926130457
 21
387.032068211381
 31
0.0
  0
SOLID
  5
122
330
11E
100
AcDbEntity
  8
1
 62
     2
100
AcDbTrace
 10
225.5926130457
 20
384.5712844698251
 30
0.0
 11
225.5926130457
 21
385.4928519529369
 31
0.0
 12
229.0926130457
 22
385.032068211381
 32
0.0
 13
229.0926130457
 23
385.032068211381
 33
0.0
  0
SOLID
  5
123
330
11E
100
AcDbEntity
  8
1
 62
     2
100
AcDbTrace
 10
63.59261304570001
 20
385.4928519529369
 30
0.0
 11
63.59261304570001
 21
384.5712844698251
 31
0.0
 12
60.09261304570001
 22
385.032068211381
 32
0.0
 13
60.09261304570001
 23
385.032068211381
 33
0.0
  0
MTEXT
  5
124
330
11E
100
AcDbEntity
  8
1
 62
     3
100
AcDbMText
 10
150.080848182779
 20
387.032068211381
 30
0.0
 40
3.5
 41
0.0
 71
     7
 72
     1
  1
\C3;\C3;\C3;169\C2;\H2.45;\S^ ;\C3;
  7
CONVERTER_11
 11
0.9999999999970619
 21
2.424068405545306E-6
 31
0.0
 73
     1
 44
0.60024009603842
  0
ENDBLK
  5
126
330
11E
100
AcDbEntity
  8
0
100
AcDbBlockEnd
  0
BLOCK
  5
130
330
129
100
AcDbEntity
  8
0
100
AcDbBlockBegin
  2
*D6
 70
     1
 10
0.0
 20
0.0
 30
0.0
  3
*D6
  1

  0
LINE
  5
12A
330
129
100
AcDbEntity
  8
1
  6
Continuous
 62
     2
100
AcDbLine
 10
229.0926130457
 20
377.306186002392
 30
0.0
 11
110.0926130457
 21
377.306186002392
 31
0.0
  0
LINE
  5
12B
330
129
100
AcDbEntity
  8
1
  6
Continuous
 62
     2
100
AcDbLine
 10
110.0926130457
 20
360.9655990125
 30
0.0
 11
110.0926130457
 21
379.306186002392
 31
0.0
  0
LINE
  5
12C
330
129
100
AcDbEntity
  8
1
  6
Continuous
 62
     2
100
AcDbLine
 10
229.0926130457
 20
320.9655990125
 30
0.0
 11
229.0926130457
 21
379.306186002392
 31
0.0
  0
SOLID
  5
12D
330
129
100
AcDbEntity
  8
1
 62
     2
100
AcDbTrace
 10
225.5926130457
 20
376.8454022608361
 30
0.0
 11
225.5926130457
 21
377.7669697439479
 31
0.0
 12
229.0926130457
 22
377.306186002392
 32
0.0
 13
229.0926130457
 23
377.306186002392
 33
0.0
  0
SOLID
  5
12E
330
129
100
AcDbEntity
  8
1
 62
     2
100
AcDbTrace
 10
113.5926130457
 20
377.7669697439479
 30
0.0
 11
113.5926130457
 21
376.8454022608361
 31
0.0
 12
110.0926130457
 22
377.306186002392
 32
0.0
 13
110.0926130457
 23
377.306186002392
 33
0.0
  0
MTEXT
  5
12F
330
129
100
AcDbEntity
  8
1
 62
     3
100
AcDbMText
 10
167.357318456938
 20
379.306186002392
 30
0.0
 40
3.5
 41
0.0
 71
     7
 72
     1
  1
\C3;\C3;\C3;119\C2;\H2.45;\S^ ;\C3;
  7
CONVERTER_11
 11
0.9999999999970619
 21
2.424068405545306E-6
 31
0.0
 73
     1
 44
0.60024009603842
  0
ENDBLK
  5
131
330
129
100
AcDbEntity
  8
0
100
AcDbBlockEnd
  0
BLOCK
  5
13B
330
134
100
AcDbEntity
  8
0
100
AcDbBlockBegin
  2
*D7
 70
     1
 10
0.0
 20
0.0
 30
0.0
  3
*D7
  1

  0
LINE
  5
135
330
134
100
AcDbEntity
  8
1
  6
Continuous
 62
     2
100
AcDbLine
 10
229.0926130457
 20
369.346186150706
 30
0.0
 11
139.0926130457
 21
369.346186150706
 31
0.0
  0
LINE
  5
136
330
134
100
AcDbEntity
  8
1
  6
Continuous
 62
     2
100
AcDbLine
 10
139.0926130457
 20
360.9655620913
 30
0.0
 11
139.0926130457
 21
371.346186150706
 31
0.0
  0
LINE
  5
137
330
134
100
AcDbEntity
  8
1
  6
Continuous
 62
     2
100
AcDbLine
 10
229.0926130457
 20
320.9655990125
 30
0.0
 11
229.0926130457
 21
371.346186150706
 31
0.0
  0
SOLID
  5
138
330
134
100
AcDbEntity
  8
1
 62
     2
100
AcDbTrace
 10
225.5926130457
 20
368.8854024091501
 30
0.0
 11
225.5926130457
 21
369.8069698922619
 31
0.0
 12
229.0926130457
 22
369.346186150706
 32
0.0
 13
229.0926130457
 23
369.346186150706
 33
0.0
  0
SOLID
  5
139
330
134
100
AcDbEntity
  8
1
 62
     2
100
AcDbTrace
 10
142.5926130457
 20
369.8069698922619
 30
0.0
 11
142.5926130457
 21
368.8854024091501
 31
0.0
 12
139.0926130457
 22
369.346186150706
 32
0.0
 13
139.0926130457
 23
369.346186150706
 33
0.0
  0
MTEXT
  5
13A
330
134
100
AcDbEntity
  8
1
 62
     3
100
AcDbMText
 10
180.88790644795
 20
371.346186150706
 30
0.0
 40
3.5
 41
0.0
 71
     7
 72
     1
  1
\C3;\C3;\C3;90\C2;\H2.45;\S^ ;\C3;
  7
CONVERTER_11
 11
0.9999999999970619
 21
2.424068405545306E-6
 31
0.0
 73
     1
 44
0.60024009603842
  0
ENDBLK
  5
13C
330
134
100
AcDbEntity
  8
0
100
AcDbBlockEnd
  0
BLOCK
  5
146
330
13F
100
AcDbEntity
  8
0
100
AcDbBlockBegin
  2
*D8
 70
     1
 10
0.0
 20
0.0
 30
0.0
  3
*D8
  1

  0
LINE
  5
140
330
13F
100
AcDbEntity
  8
1
  6
Continuous
 62
     2
100
AcDbLine
 10
229.0926130457
 20
361.152068656324
 30
0.0
 11
210.0926130457
 21
361.152068656324
 31
0.0
  0
LINE
  5
141
330
13F
100
AcDbEntity
  8
1
  6
Continuous
 62
     2
100
AcDbLine
 10
210.0926130457
 20
333.9655990125
 30
0.0
 11
210.0926130457
 21
363.152068656324
 31
0.0
  0
LINE
  5
142
330
13F
100
AcDbEntity
  8
1
  6
Continuous
 62
     2
100
AcDbLine
 10
229.0926130457
 20
320.9655990125
 30
0.0
 11
229.0926130457
 21
363.152068656324
 31
0.0
  0
SOLID
  5
143
330
13F
100
AcDbEntity
  8
1
 62
     2
100
AcDbTrace
 10
225.5926130457
 20
360.6912849147681
 30
0.0
 11
225.5926130457
 21
361.6128523978799
 31
0.0
 12
229.0926130457
 22
361.152068656324
 32
0.0
 13
229.0926130457
 23
361.152068656324
 33
0.0
  0
SOLID
  5
144
330
13F
100
AcDbEntity
  8
1
 62
     2
100
AcDbTrace
 10
213.5926130457
 20
361.6128523978799
 30
0.0
 11
213.5926130457
 21
360.6912849147681
 31
0.0
 12
210.0926130457
 22
361.152068656324
 32
0.0
 13
210.0926130457
 23
361.152068656324
 33
0.0
  0
MTEXT
  5
145
330
13F
100
AcDbEntity
  8
1
 62
     3
100
AcDbMText
 10
217.479082244582
 20
363.152068656324
 30
0.0
 40
3.5
 41
0.0
 71
     7
 72
     1
  1
\C3;\C3;\C3;19\C2;\H2.45;\S^ ;\C3;
  7
CONVERTER_11
 11
0.9999999999970619
 21
2.424068405545306E-6
 31
0.0
 73
     1
 44
0.60024009603842
  0
ENDBLK
  5
147
330
13F
100
AcDbEntity
  8
0
100
AcDbBlockEnd
  0
BLOCK
  5
14E
330
14A
100
AcDbEntity
  8
0
100
AcDbBlockBegin
  2
*D9
 70
     1
 10
0.0
 20
0.0
 30
0.0
  3
*D9
  1

  0
LINE
  5
14B
330
14A
100
AcDbEntity
  8
1
  6
Continuous
 62
     2
100
AcDbLine
 10
156.103555240777
 20
349.8116626045878
 30
0.0
 11
145.2144002811253
 21
337.7167863817701
 31
0.0
  0
SOLID
  5
14C
330
14A
100
AcDbEntity
  8
1
 62
     2
100
AcDbTrace
 10
147.2137794892373
 20
340.6262200790128
 30
0.0
 11
147.8986691460956
 21
340.0096061123711
 31
0.0
 12
145.2144002811253
 22
337.7167863817701
 32
0.0
 13
145.2144002811253
 23
337.7167863817701
 33
0.0
  0
MTEXT
  5
14D
330
14A
100
AcDbEntity
  8
1
 62
     3
100
AcDbMText
 10
146.2334670677185
 20
341.8378141324853
 30
0.0
 40
3.5
 41
0.0
 71
     7
 72
     1
  1
\C3; R\C3;\C3;18.5\C2;\H2.45;\S^ ;\C3;
  7
CONVERTER_11
 11
0.6690925818689062
 21
0.7431790611205358
 31
0.0
 73
     1
 44
0.60024009603842
  0
ENDBLK
  5
14F
330
14A
100
AcDbEntity
  8
0
100
AcDbBlockEnd
  0
ENDSEC
  0
SECTION
  2
ENTITIES
  0
INSERT
  5
6B
330
1F
100
AcDbEntity
  8
0
100
AcDbBlockReference
  2
Urheberrecht_DE-EN
 10
48.4341877621835
 20
319.742828673729
 30
0.0
  0
LINE
  5
6F
330
1F
100
AcDbEntity
  8
RUNDUNGEN
  6
Continuous
 62
     7
100
AcDbLine
 10
229.0926130457
 20
318.9655990125
 30
0.0
 11
229.0926130457
 21
298.9655990125
 31
0.0
  0
LINE
  5
70
330
1F
100
AcDbEntity
  8
RUNDUNGEN
  6
Continuous
 62
     9
100
AcDbLine
 10
228.0926130457
 20
297.9655990125
 30
0.0
 11
228.0926130457
 21
319.9655990125
 31
0.0
  0
LINE
  5
71
330
1F
100
AcDbEntity
  8
0
  6
Continuous
 62
     7
100
AcDbLine
 10
215.6926130457
 20
296.9655990125
 30
0.0
 11
215.6926130457
 21
286.9655990125
 31
0.0
  0
LINE
  5
72
330
1F
100
AcDbEntity
  8
0
  6
Continuous
 62
     7
100
AcDbLine
 10
215.6926130457
 20
330.9655990125
 30
0.0
 11
215.6926130457
 21
320.9655990125
 31
0.0
  0
LINE
  5
73
330
1F
100
AcDbEntity
  8
RUNDUNGEN
  6
Continuous
 62
     7
100
AcDbLine
 10
210.0926130457
 20
285.9655990125
 30
0.0
 11
210.0926130457
 21
331.9655990125
 31
0.0
  0
LINE
  5
74
330
1F
100
AcDbEntity
  8
RUNDUNGEN
  6
Continuous
 62
     9
100
AcDbLine
 10
209.0926130457
 20
284.9655990125
 30
0.0
 11
209.0926130457
 21
332.9655990125
 31
0.0
  0
LINE
  5
75
330
1F
100
AcDbEntity
  8
BEZUGSACHSEN
  6
Continuous
 62
     7
100
AcDbLine
 10
133.3402083099
 20
358.9655990125
 30
0.0
 11
139.0926130457
 21
358.9655990125
 31
0.0
  0
LINE
  5
76
330
1F
100
AcDbEntity
  8
BEZUGSACHSEN
  6
Continuous
 62
     7
100
AcDbLine
 10
112.0926130457
 20
358.9655990125
 30
0.0
 11
110.0926130457
 21
358.9655990125
 31
0.0
  0
LINE
  5
77
330
1F
100
AcDbEntity
  8
BEZUGSACHSEN
  6
Continuous
 62
     7
100
AcDbLine
 10
126.8450177815
 20
358.9655990125
 30
0.0
 11
122.0926130457
 21
358.9655990125
 31
0.0
  0
LINE
  5
78
330
1F
100
AcDbEntity
  8
BEZUGSACHSEN
  6
Continuous
 62
     7
100
AcDbLine
 10
129.2176130457
 20
354.9655990125
 30
0.0
 11
130.9676130457
 21
354.9655990125
 31
0.0
  0
LINE
  5
79
330
1F
100
AcDbEntity
  8
BEZUGSACHSEN
  6
Continuous
 62
     7
100
AcDbLine
 10
109.3920417571
 20
346.6478490125
 30
0.0
 11
108.4706757048
 21
346.6478490125
 31
0.0
  0
LINE
  5
7A
330
1F
100
AcDbEntity
  8
BEZUGSACHSEN
  6
Continuous
 62
     7
100
AcDbLine
 10
107.5926130457
 20
346.8478490125
 30
0.0
 11
61.992538561
 21
344.5632852808
 31
0.0
  0
LINE
  5
7B
330
1F
100
AcDbEntity
  8
BEZUGSACHSEN
  6
Continuous
 62
     7
100
AcDbLine
 10
108.2118566597
 20
346.6819231862
 30
0.0
 11
107.5926130457
 21
346.8478490125
 31
0.0
  0
LINE
  5
7C
330
1F
100
AcDbEntity
  8
0
  6
Continuous
 62
     7
100
AcDbLine
 10
157.5926130457
 20
332.9655990125
 30
0.0
 11
209.0926130457
 21
332.9655990125
 31
0.0
  0
LINE
  5
7D
330
1F
100
AcDbEntity
  8
RUNDUNGEN
  6
Continuous
 62
     7
100
AcDbLine
 10
209.0926130457
 20
332.9655990125
 30
0.0
 11
157.5926130457
 21
332.9655990125
 31
0.0
  0
LINE
  5
7E
330
1F
100
AcDbEntity
  8
0
  6
Continuous
 62
     7
100
AcDbLine
 10
210.0926130457
 20
330.9655990125
 30
0.0
 11
215.6926130457
 21
330.9655990125
 31
0.0
  0
LINE
  5
7F
330
1F
100
AcDbEntity
  8
BEZUGSACHSEN
  6
Continuous
 62
     9
100
AcDbLine
 10
61.3595659727
 20
323.9755990125
 30
0.0
 11
69.6464589926
 21
323.9755990125
 31
0.0
  0
LINE
  5
80
330
1F
100
AcDbEntity
  8
BEZUGSACHSEN
  6
Continuous
 62
     7
100
AcDbLine
 10
126.8450177815
 20
358.9655990125
 30
0.0
 11
128.2176130457
 21
356.5881942767
 31
0.0
  0
LINE
  5
81
330
1F
100
AcDbEntity
  8
0
  6
Continuous
 62
     7
100
AcDbLine
 10
210.0926130457
 20
320.9655990125
 30
0.0
 11
215.6926130457
 21
320.9655990125
 31
0.0
  0
LINE
  5
82
330
1F
100
AcDbEntity
  8
0
  6
Continuous
 62
     7
100
AcDbLine
 10
210.0926130457
 20
319.9655990125
 30
0.0
 11
228.0926130457
 21
319.9655990125
 31
0.0
  0
LINE
  5
83
330
1F
100
AcDbEntity
  8
RUNDUNGEN
  6
Continuous
 62
     7
100
AcDbLine
 10
228.0926130457
 20
319.9655990125
 30
0.0
 11
210.0926130457
 21
319.9655990125
 31
0.0
  0
LINE
  5
84
330
1F
100
AcDbEntity
  8
BEZUGSACHSEN
  6
Continuous
 62
     7
100
AcDbLine
 10
68.0926130457
 20
318.9755990125
 30
0.0
 11
62.0926130457
 21
318.9755990125
 31
0.0
  0
LINE
  5
85
330
1F
100
AcDbEntity
  8
0
  6
Continuous
 62
     7
100
AcDbLine
 10
125.0926130457
 20
318.9655990125
 30
0.0
 11
139.0926130457
 21
318.9655990125
 31
0.0
  0
LINE
  5
86
330
1F
100
AcDbEntity
  8
FASEN
  6
Continuous
 62
     7
100
AcDbLine
 10
125.0926130457
 20
318.5655990125
 30
0.0
 11
139.0926130457
 21
318.5655990125
 31
0.0
  0
LINE
  5
87
330
1F
100
AcDbEntity
  8
BEZUGSACHSEN
  6
Continuous
 62
     7
100
AcDbLine
 10
126.8450177815
 20
258.9655990125
 30
0.0
 11
128.2176130457
 21
261.3430037483
 31
0.0
  0
LINE
  5
88
330
1F
100
AcDbEntity
  8
RUNDUNGEN
  6
Continuous
 62
     9
100
AcDbLine
 10
157.5926130457
 20
332.9655990125
 30
0.0
 11
157.5926130457
 21
284.9655990125
 31
0.0
  0
LWPOLYLINE
  5
89
330
1F
100
AcDbEntity
  8
BEZUGSACHSEN
  6
DOT_CENTER
 62
     7
100
AcDbPolyline
 90
        2
 70
     0
 43
0.25
 10
232.0926130457
 20
308.9655990125
 10
57.0926130457
 20
308.9655990125
  0
LINE
  5
8A
330
1F
100
AcDbEntity
  8
FASEN
  6
Continuous
 62
     7
100
AcDbLine
 10
139.0926130457
 20
298.9655990125
 30
0.0
 11
139.0926130457
 21
318.9655990125
 31
0.0
  0
LINE
  5
8B
330
1F
100
AcDbEntity
  8
FASEN
  6
Continuous
 62
     7
100
AcDbLine
 10
139.0926130457
 20
270.1358423818
 30
0.0
 11
139.0926130457
 21
277.4655990125
 31
0.0
  0
LINE
  5
8C
330
1F
100
AcDbEntity
  8
0
  6
Continuous
 62
     7
100
AcDbLine
 10
139.0926130457
 20
270.1358423818
 30
0.0
 11
139.0926130457
 21
258.9656008802
 31
0.0
  0
LINE
  5
8D
330
1F
100
AcDbEntity
  8
0
  6
Continuous
 62
     7
100
AcDbLine
 10
139.0926130457
 20
298.9655990125
 30
0.0
 11
139.0926130457
 21
277.4655990125
 31
0.0
  0
LINE
  5
8E
330
1F
100
AcDbEntity
  8
0
  6
Continuous
 62
     7
100
AcDbLine
 10
139.0926130457
 20
358.9655620913
 30
0.0
 11
139.0926130457
 21
318.9655990125
 31
0.0
  0
LINE
  5
8F
330
1F
100
AcDbEntity
  8
FASEN
  6
Continuous
 62
     7
100
AcDbLine
 10
139.0926130457
 20
299.3655990125
 30
0.0
 11
125.0926130457
 21
299.3655990125
 31
0.0
  0
LINE
  5
90
330
1F
100
AcDbEntity
  8
0
  6
Continuous
 62
     7
100
AcDbLine
 10
125.0926130457
 20
298.9655990125
 30
0.0
 11
139.0926130457
 21
298.9655990125
 31
0.0
  0
LINE
  5
91
330
1F
100
AcDbEntity
  8
BEZUGSACHSEN
  6
Continuous
 62
     7
100
AcDbLine
 10
68.0926130457
 20
298.9555990125
 30
0.0
 11
62.0926130457
 21
298.9555990125
 31
0.0
  0
LINE
  5
92
330
1F
100
AcDbEntity
  8
0
  6
Continuous
 62
     7
100
AcDbLine
 10
210.0926130457
 20
297.9655990125
 30
0.0
 11
228.0926130457
 21
297.9655990125
 31
0.0
  0
LINE
  5
93
330
1F
100
AcDbEntity
  8
RUNDUNGEN
  6
Continuous
 62
     7
100
AcDbLine
 10
228.0926130457
 20
297.9655990125
 30
0.0
 11
210.0926130457
 21
297.9655990125
 31
0.0
  0
LINE
  5
94
330
1F
100
AcDbEntity
  8
0
  6
Continuous
 62
     7
100
AcDbLine
 10
210.0926130457
 20
296.9655990125
 30
0.0
 11
215.6926130457
 21
296.9655990125
 31
0.0
  0
LINE
  5
95
330
1F
100
AcDbEntity
  8
0
  6
Continuous
 62
     7
100
AcDbLine
 10
133.3402083099
 20
270.1358423818
 30
0.0
 11
133.3402083099
 21
258.9655990125
 31
0.0
  0
LINE
  5
96
330
1F
100
AcDbEntity
  8
0
  6
Continuous
 62
     7
100
AcDbLine
 10
133.3402083099
 20
298.9655990125
 30
0.0
 11
133.3402083099
 21
277.4655990125
 31
0.0
  0
LINE
  5
97
330
1F
100
AcDbEntity
  8
0
  6
Continuous
 62
     7
100
AcDbLine
 10
133.3402083099
 20
358.9655990125
 30
0.0
 11
133.3402083099
 21
318.9655990125
 31
0.0
  0
LINE
  5
98
330
1F
100
AcDbEntity
  8
BEZUGSACHSEN
  6
Continuous
 62
     9
100
AcDbLine
 10
69.6464589926
 20
293.9555990125
 30
0.0
 11
61.3595659727
 21
293.9555990125
 31
0.0
  0
LINE
  5
99
330
1F
100
AcDbEntity
  8
0
  6
Continuous
 62
     7
100
AcDbLine
 10
131.9676130457
 20
318.9655990125
 30
0.0
 11
131.9676130457
 21
356.5881608501
 31
0.0
  0
LINE
  5
9A
330
1F
100
AcDbEntity
  8
0
  6
Continuous
 62
     7
100
AcDbLine
 10
131.9676130457
 20
277.4655990125
 30
0.0
 11
131.9676130457
 21
298.9655990125
 31
0.0
  0
LINE
  5
9B
330
1F
100
AcDbEntity
  8
0
  6
Continuous
 62
     7
100
AcDbLine
 10
131.9676130457
 20
261.3430412822
 30
0.0
 11
131.9676130457
 21
274.0836552593
 31
0.0
  0
LINE
  5
9C
330
1F
100
AcDbEntity
  8
0
  6
Continuous
 62
     9
100
AcDbLine
 10
130.9676130457
 20
318.9655990125
 30
0.0
 11
130.9676130457
 21
354.9655990125
 31
0.0
  0
LINE
  5
9D
330
1F
100
AcDbEntity
  8
0
  6
Continuous
 62
     9
100
AcDbLine
 10
130.9676130457
 20
277.4655990125
 30
0.0
 11
130.9676130457
 21
298.9655990125
 31
0.0
  0
LINE
  5
9E
330
1F
100
AcDbEntity
  8
0
  6
Continuous
 62
     9
100
AcDbLine
 10
130.9676130457
 20
262.9655990125
 30
0.0
 11
130.9676130457
 21
275.4432184288
 31
0.0
  0
LINE
  5
9F
330
1F
100
AcDbEntity
  8
0
  6
Continuous
 62
     9
100
AcDbLine
 10
129.2176130457
 20
318.9655990125
 30
0.0
 11
129.2176130457
 21
354.9655990125
 31
0.0
  0
LINE
  5
A0
330
1F
100
AcDbEntity
  8
0
  6
Continuous
 62
     9
100
AcDbLine
 10
129.2176130457
 20
277.4655990125
 30
0.0
 11
129.2176130457
 21
298.9655990125
 31
0.0
  0
LINE
  5
A1
330
1F
100
AcDbEntity
  8
0
  6
Continuous
 62
     9
100
AcDbLine
 10
129.2176130457
 20
262.9655990125
 30
0.0
 11
129.2176130457
 21
275.4432184288
 31
0.0
  0
LINE
  5
A2
330
1F
100
AcDbEntity
  8
0
  6
Continuous
 62
     7
100
AcDbLine
 10
128.2176130457
 20
261.3430412822
 30
0.0
 11
128.2176130457
 21
274.0836552593
 31
0.0
  0
LINE
  5
A3
330
1F
100
AcDbEntity
  8
0
  6
Continuous
 62
     7
100
AcDbLine
 10
128.2176130457
 20
298.9655990125
 30
0.0
 11
128.2176130457
 21
277.4655990125
 31
0.0
  0
LINE
  5
A4
330
1F
100
AcDbEntity
  8
0
  6
Continuous
 62
     7
100
AcDbLine
 10
128.2176130457
 20
356.5881608501
 30
0.0
 11
128.2176130457
 21
318.9655990125
 31
0.0
  0
LINE
  5
A5
330
1F
100
AcDbEntity
  8
0
  6
Continuous
 62
     7
100
AcDbLine
 10
126.8450177815
 20
270.1358423818
 30
0.0
 11
126.8450177815
 21
258.9655990125
 31
0.0
  0
LINE
  5
A6
330
1F
100
AcDbEntity
  8
0
  6
Continuous
 62
     7
100
AcDbLine
 10
126.8450177815
 20
298.9655990125
 30
0.0
 11
126.8450177815
 21
277.4655990125
 31
0.0
  0
LINE
  5
A7
330
1F
100
AcDbEntity
  8
0
  6
Continuous
 62
     7
100
AcDbLine
 10
126.8450177815
 20
358.9655990125
 30
0.0
 11
126.8450177815
 21
318.9655990125
 31
0.0
  0
LINE
  5
A8
330
1F
100
AcDbEntity
  8
0
  6
Continuous
 62
     7
100
AcDbLine
 10
210.0926130457
 20
286.9655990125
 30
0.0
 11
215.6926130457
 21
286.9655990125
 31
0.0
  0
LINE
  5
A9
330
1F
100
AcDbEntity
  8
0
  6
Continuous
 62
     7
100
AcDbLine
 10
157.5926130457
 20
284.9655990125
 30
0.0
 11
209.0926130457
 21
284.9655990125
 31
0.0
  0
LINE
  5
AA
330
1F
100
AcDbEntity
  8
FASEN
  6
Continuous
 62
     9
100
AcDbLine
 10
125.0926130457
 20
318.5655990125
 30
0.0
 11
125.0926130457
 21
318.9655990125
 31
0.0
  0
LINE
  5
AB
330
1F
100
AcDbEntity
  8
FASEN
  6
Continuous
 62
     9
100
AcDbLine
 10
125.0926130457
 20
299.3655990125
 30
0.0
 11
125.0926130457
 21
298.9655990125
 31
0.0
  0
LINE
  5
AC
330
1F
100
AcDbEntity
  8
FASEN
  6
Continuous
 62
     9
100
AcDbLine
 10
123.0644869676
 20
277.0655990125
 30
0.0
 11
123.0644869676
 21
277.4655990125
 31
0.0
  0
LINE
  5
AD
330
1F
100
AcDbEntity
  8
BEZUGSACHSEN
  6
Continuous
 62
     9
100
AcDbLine
 10
62.0926130457
 20
321.3692389609
 30
0.0
 11
60.0926130457
 21
322.4117829815
 31
0.0
  0
LINE
  5
AE
330
1F
100
AcDbEntity
  8
0
  6
Continuous
 62
     7
100
AcDbLine
 10
123.0644869676
 20
277.4655990125
 30
0.0
 11
139.0926130457
 21
277.4655990125
 31
0.0
  0
LINE
  5
AF
330
1F
100
AcDbEntity
  8
BEZUGSACHSEN
  6
Continuous
 62
     7
100
AcDbLine
 10
108.2118566597
 20
271.2492748388
 30
0.0
 11
107.5926130457
 21
271.0833490125
 31
0.0
  0
LINE
  5
B0
330
1F
100
AcDbEntity
  8
BEZUGSACHSEN
  6
Continuous
 62
     9
100
AcDbLine
 10
60.0926130457
 20
295.5194150434
 30
0.0
 11
62.0926130457
 21
296.5619590641
 31
0.0
  0
LWPOLYLINE
  5
B1
330
1F
100
AcDbEntity
  8
BEZUGSACHSEN
  6
DOT_CENTER
 62
     7
100
AcDbPolyline
 90
        2
 70
     0
 43
0.25
 10
117.0926130457
 20
351.1149708678
 10
117.0926130457
 20
361.9655990125
  0
LINE
  5
B2
330
1F
100
AcDbEntity
  8
BEZUGSACHSEN
  6
Continuous
 62
     7
100
AcDbLine
 10
131.9676130457
 20
261.3430037483
 30
0.0
 11
133.3402083099
 21
258.9655990125
 31
0.0
  0
LINE
  5
B3
330
1F
100
AcDbEntity
  8
FASEN
  6
Continuous
 62
     7
100
AcDbLine
 10
123.0644869676
 20
277.0655990125
 30
0.0
 11
139.0926130457
 21
277.0655990125
 31
0.0
  0
LINE
  5
B4
330
1F
100
AcDbEntity
  8
0
  6
Continuous
 62
     7
100
AcDbLine
 10
129.2176130457
 20
275.4432184288
 30
0.0
 11
130.9676130457
 21
275.4432184288
 31
0.0
  0
LINE
  5
B5
330
1F
100
AcDbEntity
  8
BEZUGSACHSEN
  6
Continuous
 62
     7
100
AcDbLine
 10
109.3920417571
 20
271.2833490125
 30
0.0
 11
108.4706757048
 21
271.2833490125
 31
0.0
  0
LINE
  5
B6
330
1F
100
AcDbEntity
  8
BEZUGSACHSEN
  6
Continuous
 62
     7
100
AcDbLine
 10
131.9676130457
 20
356.5881942767
 30
0.0
 11
133.3402083099
 21
358.9655990125
 31
0.0
  0
LINE
  5
B7
330
1F
100
AcDbEntity
  8
BEZUGSACHSEN
  6
Continuous
 62
     7
100
AcDbLine
 10
110.0926130457
 20
358.9655990125
 30
0.0
 11
110.0926130457
 21
258.9655990125
 31
0.0
  0
LINE
  5
B8
330
1F
100
AcDbEntity
  8
BEZUGSACHSEN
  6
Continuous
 62
     9
100
AcDbLine
 10
109.3920417571
 20
271.2833490125
 30
0.0
 11
109.3920417571
 21
346.6478490125
 31
0.0
  0
LINE
  5
B9
330
1F
100
AcDbEntity
  8
BEZUGSACHSEN
  6
Continuous
 62
     9
100
AcDbLine
 10
108.4706757048
 20
271.2833490125
 30
0.0
 11
108.4706757048
 21
346.6478490125
 31
0.0
  0
LINE
  5
BA
330
1F
100
AcDbEntity
  8
BEZUGSACHSEN
  6
Continuous
 62
     9
100
AcDbLine
 10
108.2118566597
 20
271.2492748388
 30
0.0
 11
108.2118566597
 21
346.6819231862
 31
0.0
  0
LINE
  5
BB
330
1F
100
AcDbEntity
  8
BEZUGSACHSEN
  6
Continuous
 62
     7
100
AcDbLine
 10
107.5926130457
 20
346.8478490125
 30
0.0
 11
107.5926130457
 21
271.0833490125
 31
0.0
  0
LINE
  5
BC
330
1F
100
AcDbEntity
  8
BEZUGSACHSEN
  6
Continuous
 62
     7
100
AcDbLine
 10
107.5926130457
 20
271.0833490125
 30
0.0
 11
61.992538561
 21
273.3679127442
 31
0.0
  0
LINE
  5
BD
330
1F
100
AcDbEntity
  8
0
  6
Continuous
 62
     7
100
AcDbLine
 10
133.3402083099
 20
270.1358423818
 30
0.0
 11
139.0926130457
 21
270.1358423818
 31
0.0
  0
LINE
  5
BE
330
1F
100
AcDbEntity
  8
FASEN
  6
Continuous
 62
     7
100
AcDbLine
 10
115.4940990102
 20
270.1358423818
 30
0.0
 11
126.8450177815
 21
270.1358423818
 31
0.0
  0
LINE
  5
BF
330
1F
100
AcDbEntity
  8
BEZUGSACHSEN
  6
Continuous
 62
     7
100
AcDbLine
 10
62.0926130457
 20
318.9755990125
 30
0.0
 11
60.0926130457
 21
320.9755990125
 31
0.0
  0
LINE
  5
C0
330
1F
100
AcDbEntity
  8
BEZUGSACHSEN
  6
Continuous
 62
     7
100
AcDbLine
 10
129.2176130457
 20
262.9655990125
 30
0.0
 11
130.9676130457
 21
262.9655990125
 31
0.0
  0
LINE
  5
C1
330
1F
100
AcDbEntity
  8
BEZUGSACHSEN
  6
Continuous
 62
     7
100
AcDbLine
 10
133.3402083099
 20
258.9655990125
 30
0.0
 11
139.0926130457
 21
258.9655990125
 31
0.0
  0
LINE
  5
C2
330
1F
100
AcDbEntity
  8
BEZUGSACHSEN
  6
Continuous
 62
     7
100
AcDbLine
 10
126.8450177815
 20
258.9655990125
 30
0.0
 11
110.0926130457
 21
258.9655990125
 31
0.0
  0
LINE
  5
C3
330
1F
100
AcDbEntity
  8
BEZUGSACHSEN
  6
Continuous
 62
     7
100
AcDbLine
 10
60.0926130457
 20
296.9555990125
 30
0.0
 11
62.0926130457
 21
298.9555990125
 31
0.0
  0
LWPOLYLINE
  5
C4
330
1F
100
AcDbEntity
  8
BEZUGSACHSEN
  6
DOT_CENTER
 62
     7
100
AcDbPolyline
 90
        2
 70
     0
 43
0.25
 10
95.0926130457
 20
308.9655990125
 10
95.0926130457
 20
317.9655990125
  0
LWPOLYLINE
  5
C5
330
1F
100
AcDbEntity
  8
BEZUGSACHSEN
  6
DOT_CENTER
 62
     7
100
AcDbPolyline
 90
        2
 70
     0
 43
0.25
 10
95.0926130457
 20
308.9655990125
 10
95.0926130457
 20
299.9655990125
  0
LINE
  5
C6
330
1F
100
AcDbEntity
  8
BEZUGSACHSEN
  6
Continuous
 62
     7
100
AcDbLine
 10
61.2384557213
 20
324.2079350079
 30
0.0
 11
61.3595659727
 21
323.9755990125
 31
0.0
  0
LINE
  5
C7
330
1F
100
AcDbEntity
  8
BEZUGSACHSEN
  6
Continuous
 62
     7
100
AcDbLine
 10
61.3595659727
 20
293.9555990125
 30
0.0
 11
61.2384557213
 21
293.723263017
 31
0.0
  0
LINE
  5
C8
330
1F
100
AcDbEntity
  8
BEZUGSACHSEN
  6
Continuous
 62
     7
100
AcDbLine
 10
70.0926130457
 20
321.8352545383
 30
0.0
 11
70.0926130457
 21
296.0959434867
 31
0.0
  0
LINE
  5
C9
330
1F
100
AcDbEntity
  8
BEZUGSACHSEN
  6
Continuous
 62
     9
100
AcDbLine
 10
68.0926130457
 20
318.9755990125
 30
0.0
 11
68.0926130457
 21
325.3242465999
 31
0.0
  0
LINE
  5
CA
330
1F
100
AcDbEntity
  8
BEZUGSACHSEN
  6
Continuous
 62
     9
100
AcDbLine
 10
68.0926130457
 20
292.606951425
 30
0.0
 11
68.0926130457
 21
298.9555990125
 31
0.0
  0
LINE
  5
CB
330
1F
100
AcDbEntity
  8
BEZUGSACHSEN
  6
Continuous
 62
     7
100
AcDbLine
 10
62.0926130457
 20
318.9755990125
 30
0.0
 11
62.0926130457
 21
321.3692389609
 31
0.0
  0
LINE
  5
CC
330
1F
100
AcDbEntity
  8
BEZUGSACHSEN
  6
Continuous
 62
     7
100
AcDbLine
 10
62.0926130457
 20
296.5619590641
 30
0.0
 11
62.0926130457
 21
298.9555990125
 31
0.0
  0
LINE
  5
CD
330
1F
100
AcDbEntity
  8
BEZUGSACHSEN
  6
Continuous
 62
     9
100
AcDbLine
 10
61.992538561
 20
293.2890666262
 30
0.0
 11
61.992538561
 21
273.3679127442
 31
0.0
  0
LINE
  5
CE
330
1F
100
AcDbEntity
  8
BEZUGSACHSEN
  6
Continuous
 62
     9
100
AcDbLine
 10
61.992538561
 20
344.5632852808
 30
0.0
 11
61.992538561
 21
324.6421313987
 31
0.0
  0
LINE
  5
CF
330
1F
100
AcDbEntity
  8
BEZUGSACHSEN
  6
Continuous
 62
     7
100
AcDbLine
 10
60.0926130457
 20
320.9755990125
 30
0.0
 11
60.0926130457
 21
342.565790575
 31
0.0
  0
LINE
  5
D0
330
1F
100
AcDbEntity
  8
BEZUGSACHSEN
  6
Continuous
 62
     7
100
AcDbLine
 10
60.0926130457
 20
275.3654074495
 30
0.0
 11
60.0926130457
 21
296.9555990125
 31
0.0
  0
ARC
  5
D1
330
1F
100
AcDbEntity
  8
RUNDUNGEN
  6
Continuous
 62
     7
100
AcDbCircle
 10
228.0926130457
 20
318.9655990125
 30
0.0
 40
1.0
100
AcDbArc
 50
0.0
 51
90.0
  0
ARC
  5
D2
330
1F
100
AcDbEntity
  8
BEZUGSACHSEN
  6
Continuous
 62
     7
100
AcDbCircle
 10
130.9676130457
 20
355.9655990125
 30
0.0
 40
1.0
100
AcDbArc
 50
270.0
 51
0.0
  0
ARC
  5
D3
330
1F
100
AcDbEntity
  8
RUNDUNGEN
  6
Continuous
 62
     7
100
AcDbCircle
 10
209.0926130457
 20
331.9655990125
 30
0.0
 40
1.0
100
AcDbArc
 50
0.0
 51
90.0
  0
ARC
  5
D4
330
1F
100
AcDbEntity
  8
RUNDUNGEN
  6
Continuous
 62
     7
100
AcDbCircle
 10
157.5926130457
 20
351.4655990125
 30
0.0
 40
18.5
100
AcDbArc
 50
180.0
 51
270.0
  0
ARC
  5
D5
330
1F
100
AcDbEntity
  8
0
  6
Continuous
 62
     7
100
AcDbCircle
 10
374.6903929282
 20
378.4000666028
 30
0.0
 40
264.5204223902001
100
AcDbArc
 50
203.4229294508999
 51
204.1599235293812
  0
ARC
  5
D6
330
1F
100
AcDbEntity
  8
BEZUGSACHSEN
  6
Continuous
 62
     7
100
AcDbCircle
 10
246.4226596439
 20
1915.0083583022
 30
0.0
 40
1632.1727636978
100
AcDbArc
 50
263.5119093102
 51
263.7273810162
  0
ARC
  5
D7
330
1F
100
AcDbEntity
  8
RUNDUNGEN
  6
Continuous
 62
     7
100
AcDbCircle
 10
228.0926130457
 20
298.9655990125
 30
0.0
 40
1.0
100
AcDbArc
 50
270.0
 51
0.0
  0
ARC
  5
D8
330
1F
100
AcDbEntity
  8
BEZUGSACHSEN
  6
Continuous
 62
     7
100
AcDbCircle
 10
130.9676130457
 20
261.9655990125
 30
0.0
 40
1.0
100
AcDbArc
 50
0.0
 51
90.0
  0
ARC
  5
D9
330
1F
100
AcDbEntity
  8
RUNDUNGEN
  6
Continuous
 62
     7
100
AcDbCircle
 10
209.0926130457
 20
285.9655990125
 30
0.0
 40
1.0
100
AcDbArc
 50
270.0
 51
0.0
  0
ARC
  5
DA
330
1F
100
AcDbEntity
  8
RUNDUNGEN
  6
Continuous
 62
     7
100
AcDbCircle
 10
157.5926130457
 20
266.4655990125
 30
0.0
 40
18.5
100
AcDbArc
 50
90.0
 51
180.0
  0
ARC
  5
DB
330
1F
100
AcDbEntity
  8
BEZUGSACHSEN
  6
Continuous
 62
     7
100
AcDbCircle
 10
246.422659644
 20
-1297.0771602775
 30
0.0
 40
1632.172763697999
100
AcDbArc
 50
96.2726189838
 51
96.48809068979999
  0
ARC
  5
DC
330
1F
100
AcDbEntity
  8
BEZUGSACHSEN
  6
Continuous
 62
     7
100
AcDbCircle
 10
109.3920417571
 20
347.6478490125
 30
0.0
 40
1.0
100
AcDbArc
 50
270.0
 51
314.478357087316
  0
ARC
  5
DD
330
1F
100
AcDbEntity
  8
BEZUGSACHSEN
  6
Continuous
 62
     7
100
AcDbCircle
 10
108.4706757048
 20
347.6478490125
 30
0.0
 40
1.000000000009914
100
AcDbArc
 50
255.0000000003019
 51
270.0
  0
ARC
  5
DE
330
1F
100
AcDbEntity
  8
BEZUGSACHSEN
  6
Continuous
 62
     7
100
AcDbCircle
 10
129.2176130457
 20
355.9655990125
 30
0.0
 40
1.0
100
AcDbArc
 50
180.0
 51
270.0
  0
ARC
  5
DF
330
1F
100
AcDbEntity
  8
BEZUGSACHSEN
  6
Continuous
 62
     7
100
AcDbCircle
 10
62.0926130457
 20
342.5657905755
 30
0.0
 40
2.000000000047403
100
AcDbArc
 50
92.86812048629798
 51
180.0000000143238
  0
ARC
  5
E0
330
1F
100
AcDbEntity
  8
BEZUGSACHSEN
  6
Continuous
 62
     7
100
AcDbCircle
 10
68.0926130457
 20
316.9755990125
 30
0.0
 40
1.999999999999973
100
AcDbArc
 50
4.76446378498719
 51
90.0
  0
ARC
  5
E1
330
1F
100
AcDbEntity
  8
FASEN
  6
Continuous
 62
     7
100
AcDbCircle
 10
125.0926130457
 20
308.9655990125
 30
0.0
 40
9.599999195900011
100
AcDbArc
 50
90.0
 51
270.0
  0
ARC
  5
E2
330
1F
100
AcDbEntity
  8
0
  6
Continuous
 62
     7
100
AcDbCircle
 10
125.0926130457
 20
308.9655990125
 30
0.0
 40
10.0
100
AcDbArc
 50
90.0
 51
270.0
  0
ARC
  5
E3
330
1F
100
AcDbEntity
  8
BEZUGSACHSEN
  6
Continuous
 62
     7
100
AcDbCircle
 10
117.0774050447
 20
409.0183685786
 30
0.0
 40
50.30340000969741
100
AcDbArc
 50
270.0173219760583
 51
275.7218485011545
  0
ARC
  5
E4
330
1F
100
AcDbEntity
  8
BEZUGSACHSEN
  6
Continuous
 62
     7
100
AcDbCircle
 10
117.1078210569
 20
409.0183687792
 30
0.0
 40
50.30340021026295
100
AcDbArc
 50
264.2781515100652
 51
269.9826780126002
  0
ARC
  5
E5
330
1F
100
AcDbEntity
  8
0
  6
Continuous
 62
     7
100
AcDbCircle
 10
-114.5051668368
 20
378.4000666028
 30
0.0
 40
264.5204223901483
100
AcDbArc
 50
335.8400764706188
 51
336.5770705490999
  0
ARC
  5
E6
330
1F
100
AcDbEntity
  8
BEZUGSACHSEN
  6
Continuous
 62
     7
100
AcDbCircle
 10
109.3920417571
 20
270.2833490125
 30
0.0
 40
1.000000000000385
100
AcDbArc
 50
45.52164291268168
 51
90.0
  0
ARC
  5
E7
330
1F
100
AcDbEntity
  8
BEZUGSACHSEN
  6
Continuous
 62
     7
100
AcDbCircle
 10
108.4706757048
 20
270.2833490125
 30
0.0
 40
1.0
100
AcDbArc
 50
90.0
 51
104.999999999699
  0
ARC
  5
E8
330
1F
100
AcDbEntity
  8
BEZUGSACHSEN
  6
Continuous
 62
     7
100
AcDbCircle
 10
129.2176130457
 20
261.9655990125
 30
0.0
 40
1.0
100
AcDbArc
 50
90.0
 51
180.0
  0
ARC
  5
E9
330
1F
100
AcDbEntity
  8
BEZUGSACHSEN
  6
Continuous
 62
     7
100
AcDbCircle
 10
62.0926130457
 20
275.3654074494
 30
0.0
 40
2.0
100
AcDbArc
 50
179.9999999971339
 51
267.1318795135586
  0
ARC
  5
EA
330
1F
100
AcDbEntity
  8
BEZUGSACHSEN
  6
Continuous
 62
     7
100
AcDbCircle
 10
68.0926130457
 20
300.9555990125
 30
0.0
 40
2.0
100
AcDbArc
 50
270.0
 51
355.2355361864949
  0
ARC
  5
EB
330
1F
100
AcDbEntity
  8
FASEN
  6
Continuous
 62
     7
100
AcDbCircle
 10
123.0644869676
 20
269.4655990125
 30
0.0
 40
7.599982194900008
100
AcDbArc
 50
90.0
 51
174.9405171273009
  0
ARC
  5
EC
330
1F
100
AcDbEntity
  8
FASEN
  6
Continuous
 62
     7
100
AcDbCircle
 10
123.0644869676
 20
269.4655990125
 30
0.0
 40
8.0
100
AcDbArc
 50
90.0
 51
172.8323734889967
  0
ARC
  5
ED
330
1F
100
AcDbEntity
  8
FASEN
  6
Continuous
 62
     7
100
AcDbCircle
 10
127.9932670686
 20
284.4968622824
 30
0.0
 40
19.03859487300018
100
AcDbArc
 50
227.4837701983004
 51
228.9651953373314
  0
CIRCLE
  5
EE
330
1F
100
AcDbEntity
  8
BEZUGSACHSEN
  6
Continuous
 62
     7
100
AcDbCircle
 10
95.0926130457
 20
308.9655990125
 30
0.0
 40
6.0
  0
SPLINE
  5
EF
330
1F
100
AcDbEntity
  8
BEZUGSACHSEN
  6
Continuous
 62
     7
100
AcDbSpline
210
0.0
220
0.0
230
1.0
 70
     8
 71
     3
 72
    11
 73
     7
 74
     5
 42
0.0000000001
 43
0.0000000001
 44
0.00000001
 40
0.0
 40
0.0
 40
0.0
 40
0.0
 40
0.8249192366724761
 40
1.650116891930987
 40
2.190492152293428
 40
2.730585915378194
 40
2.730585915378194
 40
2.730585915378194
 40
2.730585915378194
 10
62.0926130457
 20
321.3692389609
 30
0.0
 10
62.07487974136181
 20
321.6444292528769
 30
0.0
 10
62.03940714751586
 20
322.1949027163378
 30
0.0
 10
61.83097233088044
 20
322.8996363014905
 30
0.0
 10
61.60074589990079
 20
323.4918500265708
 30
0.0
 10
61.4399453170988
 20
323.814377360016
 30
0.0
 10
61.3595659725854
 20
323.975599012315
 30
0.0
 11
62.0926130457
 21
321.3692389609
 31
0.0
 11
62.00903759158425
 21
322.189913616596
 31
0.0
 11
61.79107614947249
 21
322.9858055564953
 31
0.0
 11
61.5931410709133
 21
323.4886247354131
 31
0.0
 11
61.3595659725854
 21
323.975599012315
 31
0.0
  0
SPLINE
  5
F0
330
1F
100
AcDbEntity
  8
BEZUGSACHSEN
  6
Continuous
 62
     7
100
AcDbSpline
210
0.0
220
0.0
230
1.0
 70
     8
 71
     3
 72
    11
 73
     7
 74
     5
 42
0.0000000001
 43
0.0000000001
 44
0.00000001
 40
0.0
 40
0.0
 40
0.0
 40
0.0
 40
0.9140556660002813
 40
1.828030949185879
 40
2.279806974871063
 40
2.730944124762505
 40
2.730944124762505
 40
2.730944124762505
 40
2.730944124762505
 10
61.3595659725854
 20
293.955599012685
 30
0.0
 10
61.49222067954877
 20
294.2303156103516
 30
0.0
 10
61.75751842771037
 20
294.7797246468788
 30
0.0
 10
61.97287364102297
 20
295.5124355679836
 30
0.0
 10
62.07656785468536
 20
296.1103807740897
 30
0.0
 10
62.08726717220648
 20
296.4115039895165
 30
0.0
 10
62.0926130457
 20
296.5619590641
 30
0.0
 11
61.3595659725854
 21
293.955599012685
 31
0.0
 11
61.73437350236086
 21
294.7892758542554
 31
0.0
 11
61.99366486275873
 21
295.665699729271
 31
0.0
 11
62.06638183625735
 21
296.1115851620327
 31
0.0
 11
62.0926130457
 21
296.5619590641
 31
0.0
  0
SPLINE
  5
F1
330
1F
100
AcDbEntity
  8
BEZUGSACHSEN
  6
Continuous
 62
     7
100
AcDbSpline
210
0.0
220
0.0
230
1.0
 70
     8
 71
     3
 72
    15
 73
    11
 74
     9
 42
0.0000000001
 43
0.0000000001
 44
0.00000001
 40
0.0
 40
0.0
 40
0.0
 40
0.0
 40
0.1110371613090676
 40
0.2222522336978263
 40
0.3333980191426658
 40
0.4445069474327041
 40
0.5556201064960392
 40
0.6667525642275753
 40
0.7778876033747795
 40
0.8889820915605164
 40
0.8889820915605164
 40
0.8889820915605164
 40
0.8889820915605164
 10
61.992538561
 20
293.2890666262
 30
0.0
 10
61.95589683413952
 20
293.294598779022
 30
0.0
 10
61.88255467062166
 20
293.3056719486467
 30
0.0
 10
61.77603812063474
 20
293.3386905122128
 30
0.0
 10
61.67362521289164
 20
293.3822807996813
 30
0.0
 10
61.57617524727051
 20
293.4360603075065
 30
0.0
 10
61.4838704515243
 20
293.498155442865
 30
0.0
 10
61.39687382336972
 20
293.5674421165092
 30
0.0
 10
61.3146210679099
 20
293.6423240681235
 30
0.0
 10
61.2638410815056
 20
293.6962866496185
 30
0.0
 10
61.2384557213
 20
293.723263017
 30
0.0
 11
61.992538561
 21
293.2890666262
 31
0.0
 11
61.88319627595124
 21
293.3083931854357
 31
0.0
 11
61.77670432236315
 21
293.3404596187801
 31
0.0
 11
61.67443614176534
 21
293.3839866777132
 31
0.0
 11
61.57703327532644
 21
293.4374457794195
 31
0.0
 11
61.48476150852107
 21
293.4993493751765
 31
0.0
 11
61.39766440508105
 21
293.5683748612944
 31
0.0
 11
61.31562450057991
 21
293.6433445284651
 31
0.0
 11
61.2384557213
 21
293.723263017
 31
0.0
  0
SPLINE
  5
F2
330
1F
100
AcDbEntity
  8
BEZUGSACHSEN
  6
Continuous
 62
     7
100
AcDbSpline
210
0.0
220
0.0
230
1.0
 70
     8
 71
     3
 72
    27
 73
    23
 74
    21
 42
0.0000000001
 43
0.0000000001
 44
0.00000001
 40
0.0
 40
0.0
 40
0.0
 40
0.0
 40
0.1219765139516464
 40
0.2439857714748938
 40
0.3566831398307391
 40
0.4694418149413795
 40
0.5721317672392621
 40
0.6745445880580996
 40
0.7225206520855174
 40
0.770488879742936
 40
0.8171412935565847
 40
0.8637898733630015
 40
0.9102318000352663
 40
0.9566751323919158
 40
1.004175175738679
 40
1.051683100130096
 40
1.153672388731269
 40
1.256049376668892
 40
1.370745138094004
 40
1.485385401881142
 40
1.611534903918688
 40
1.737631875963578
 40
1.737631875963578
 40
1.737631875963578
 40
1.737631875963578
 10
61.2384557213
 20
293.723263017
 30
0.0
 10
61.20320070369661
 20
293.7029834917352
 30
0.0
 10
61.13268120457622
 20
293.6624189973371
 30
0.0
 10
61.0250288013911
 20
293.6116231364456
 30
0.0
 10
60.9168707855267
 20
293.5698715005791
 30
0.0
 10
60.81129156457803
 20
293.5404569154371
 30
0.0
 10
60.70646001945124
 20
293.523542328044
 30
0.0
 10
60.62173234960679
 20
293.5216771048201
 30
0.0
 10
60.55590841319377
 20
293.5286324128377
 30
0.0
 10
60.50920120997553
 20
293.5378295399875
 30
0.0
 10
60.46402059268185
 20
293.5513629849791
 30
0.0
 10
60.42088098204064
 20
293.5691562437927
 30
0.0
 10
60.37992650545063
 20
293.5913846014914
 30
0.0
 10
60.3412790789526
 20
293.6179196331855
 30
0.0
 10
60.3053730003044
 20
293.6486149107174
 30
0.0
 10
60.25993367877059
 20
293.6961523838382
 30
0.0
 10
60.21139053870992
 20
293.7653217509485
 30
0.0
 10
60.16516482977685
 20
293.8614798056773
 30
0.0
 10
60.13119895597865
 20
293.9670552386672
 30
0.0
 10
60.10824353176169
 20
294.0834729295726
 30
0.0
 10
60.09479897339754
 20
294.20522023823
 30
0.0
 10
60.0933415870996
 20
294.2893236017479
 30
0.0
 10
60.0926130457
 20
294.3313665263
 30
0.0
 11
61.2384557213
 21
293.723263017
 31
0.0
 11
61.13191109723945
 21
293.6638785658399
 31
0.0
 11
61.02161820807078
 21
293.6117082915431
 31
0.0
 11
60.91630020022117
 21
293.5715982671487
 31
0.0
 11
60.80757647169776
 21
293.5417039588497
 31
0.0
 11
60.70611231961104
 21
293.5258845990565
 31
0.0
 11
60.60371277902855
 21
293.5242353699745
 31
0.0
 11
60.55600892279507
 21
293.52933878256
 31
0.0
 11
60.50895815252468
 21
293.5386755850939
 31
0.0
 11
60.46427858511223
 21
293.5520988473828
 31
0.0
 11
60.42117244853336
 21
293.5699300275793
 31
0.0
 11
60.38034985571779
 21
293.5920742924993
 31
0.0
 11
60.34206259914049
 21
293.6183624857459
 31
0.0
 11
60.3059255021157
 21
293.6491904655138
 31
0.0
 11
60.27307300174668
 21
293.6835083340298
 31
0.0
 11
60.21390060752371
 21
293.7665772376658
 31
0.0
 11
60.16900088394911
 21
293.8585830118439
 31
0.0
 11
60.13336272436903
 21
293.9676015390337
 31
0.0
 11
60.11051116097164
 21
294.0799411853367
 31
0.0
 11
60.0967444046322
 21
294.2053372510015
 31
0.0
 11
60.0926130457
 21
294.3313665263
 31
0.0
  0
SPLINE
  5
F3
330
1F
100
AcDbEntity
  8
BEZUGSACHSEN
  6
Continuous
 62
     7
100
AcDbSpline
210
0.0
220
0.0
230
1.0
 70
     8
 71
     3
 72
    47
 73
    43
 74
    41
 42
0.0000000001
 43
0.0000000001
 44
0.00000001
 40
0.0
 40
0.0
 40
0.0
 40
0.0
 40
0.6302393214806755
 40
1.260854867359765
 40
1.577476088434156
 40
1.893930800251734
 40
2.210999113891373
 40
2.528183472226343
 40
3.164887038252478
 40
3.801951183391769
 40
4.442851001626126
 40
5.083381259808049
 40
5.4045272923307
 40
5.725573838773387
 40
6.046670710044097
 40
6.367871027166125
 40
7.009090242548134
 40
7.650619763947868
 40
8.290330346479553
 40
8.929958764470278
 40
9.568647011356827
 40
10.2073592301598
 40
10.84445705817747
 40
11.48152626496326
 40
12.11643462222203
 40
12.7514196557892
 40
13.38691908737638
 40
14.0221173853239
 40
14.34050449145038
 40
14.65879153794656
 40
14.97761586871163
 40
15.29653774947689
 40
15.93537694104988
 40
16.57458694072297
 40
17.21386274996044
 40
17.85277859076577
 40
18.17219860083484
 40
18.49150024076407
 40
18.81067156636151
 40
19.13001452423657
 40
19.76719627028317
 40
20.40398968278849
 40
20.40398968278849
 40
20.40398968278849
 40
20.40398968278849
 10
101.5920266836
 20
308.9655990312
 30
0.0
 10
101.5861574818296
 20
308.7554430093046
 30
0.0
 10
101.5744155746405
 20
308.3350055118644
 30
0.0
 10
101.4949688321303
 20
307.8138420695927
 30
0.0
 10
101.4042373270334
 20
307.4024506021726
 30
0.0
 10
101.3206319447117
 20
307.0968127618906
 30
0.0
 10
101.2222800033366
 20
306.7954289157074
 30
0.0
 10
101.0712611924831
 20
306.3994557361207
 30
0.0
 10
100.8459786048763
 20
305.9183489274501
 30
0.0
 10
100.519600570123
 20
305.3687147024573
 30
0.0
 10
100.1397335081002
 20
304.8529868397765
 30
0.0
 10
99.78147906882856
 20
304.4554614375461
 30
0.0
 10
99.47229833115907
 20
304.1599080826006
 30
0.0
 10
99.22937337512846
 20
303.9497231741659
 30
0.0
 10
98.97632447180166
 20
303.7518137098506
 30
0.0
 10
98.62654196333773
 20
303.5051903583914
 30
0.0
 10
98.16705672558545
 20
303.229983749118
 30
0.0
 10
97.58666101862936
 20
302.9559436424061
 30
0.0
 10
96.98250671079956
 20
302.7407551650491
 30
0.0
 10
96.3610915633939
 20
302.5860933260088
 30
0.0
 10
95.72782235195129
 20
302.4932829529772
 30
0.0
 10
95.08936288751018
 20
302.4627722031694
 30
0.0
 10
94.45152987395532
 20
302.4948739455511
 30
0.0
 10
93.82109988696212
 20
302.5886870079274
 30
0.0
 10
93.203526217465
 20
302.7434008242168
 30
0.0
 10
92.60438280603208
 20
302.9571973962902
 30
0.0
 10
92.02892558456591
 20
303.2285187647467
 30
0.0
 10
91.57324019161078
 20
303.5003636483955
 30
0.0
 10
91.22598429386018
 20
303.743824200987
 30
0.0
 10
90.97436471255534
 20
303.9393067273068
 30
0.0
 10
90.73248966227993
 20
304.1469997859965
 30
0.0
 10
90.42355337859404
 20
304.4398373341295
 30
0.0
 10
90.06471062170611
 20
304.8342949830819
 30
0.0
 10
89.6824837164698
 20
305.3477796490473
 30
0.0
 10
89.3528592712092
 20
305.8965474277575
 30
0.0
 10
89.12437182528492
 20
306.3786108442307
 30
0.0
 10
88.97087032531883
 20
306.7760204033812
 30
0.0
 10
88.87061352240254
 20
307.0793027666637
 30
0.0
 10
88.7852970295078
 20
307.3871266383798
 30
0.0
 10
88.6925345741835
 20
307.802167505511
 30
0.0
 10
88.61124220725617
 20
308.3284403045848
 30
0.0
 10
88.59920240769347
 20
308.7532559542786
 30
0.0
 10
88.5931843429
 20
308.9655990329
 30
0.0
 11
101.5920266836
 21
308.9655990312
 31
0.0
 11
101.5614871048232
 21
308.3361000745141
 31
0.0
 11
101.4701558293076
 21
307.7121332766658
 31
0.0
 11
101.4016610906022
 21
307.403009566148
 31
0.0
 11
101.3182422657412
 21
307.097747573279
 31
0.0
 11
101.2198555218912
 21
306.7963303140703
 31
0.0
 11
101.1068248907871
 21
306.4999690588351
 31
0.0
 11
100.8368447542747
 21
305.9233390588532
 31
0.0
 11
100.5115081324214
 21
305.3756102870116
 31
0.0
 11
100.1314716376294
 21
304.859543586246
 31
0.0
 11
99.70262113996873
 21
304.3837639499617
 31
0.0
 11
99.47048400559869
 21
304.1618470171884
 31
0.0
 11
99.22770151226237
 21
303.9517814419216
 31
0.0
 11
98.97477190396403
 21
303.7539688690505
 31
0.0
 11
98.71225750812968
 21
303.5688855480867
 31
0.0
 11
98.16219932653087
 21
303.2393433216098
 31
0.0
 11
97.58205849487987
 21
302.96548799068
 31
0.0
 11
96.97945318458832
 21
302.7507871070967
 31
0.0
 11
96.35875391426704
 21
302.5963302233914
 31
0.0
 11
95.72682510034466
 21
302.5036552491769
 31
0.0
 11
95.08883897316348
 21
302.473208574932
 31
0.0
 11
94.4525439850386
 21
302.5051824791664
 31
0.0
 11
93.82242071093093
 21
302.5990005673078
 31
0.0
 11
93.20653680268948
 21
302.7532589015601
 31
0.0
 11
92.60850433287052
 21
302.9667141846911
 31
0.0
 11
92.0336685843238
 21
303.2376816914891
 31
0.0
 11
91.48820189678241
 21
303.5631705092664
 31
0.0
 11
91.22749960400552
 21
303.7459399374771
 31
0.0
 11
90.97615035219718
 21
303.9412094885665
 31
0.0
 11
90.73426705384762
 21
304.1489146254007
 31
0.0
 11
90.50281122254744
 21
304.3683214716658
 31
0.0
 11
90.0728881916672
 21
304.8408484023358
 31
0.0
 11
89.69126705220941
 21
305.3536395192645
 31
0.0
 11
89.36203557803036
 21
305.901617800482
 31
0.0
 11
89.08842127088633
 21
306.4789813450171
 31
0.0
 11
88.97332901842793
 21
306.7769459675087
 31
0.0
 11
88.87308933001201
 21
307.0801052360917
 31
0.0
 11
88.78792224981892
 21
307.3877038439153
 31
0.0
 11
88.71795922236416
 21
307.6992886630798
 31
0.0
 11
88.62447032540027
 21
308.3295746328105
 31
0.0
 11
88.5931843429
 21
308.9655990329
 31
0.0
  0
SPLINE
  5
F4
330
1F
100
AcDbEntity
  8
BEZUGSACHSEN
  6
Continuous
 62
     7
100
AcDbSpline
210
0.0
220
0.0
230
1.0
 70
     8
 71
     3
 72
    47
 73
    43
 74
    41
 42
0.0000000001
 43
0.0000000001
 44
0.00000001
 40
0.0
 40
0.0
 40
0.0
 40
0.0
 40
0.636602243183684
 40
1.273595002176273
 40
1.592921746399727
 40
1.912076344878854
 40
2.231392290404818
 40
2.550826842706422
 40
3.189774321136663
 40
3.829081696986745
 40
4.468337152512374
 40
5.10722174479222
 40
5.426176341283279
 40
5.74503335683004
 40
6.063356731608858
 40
6.381780214921924
 40
7.017059195714936
 40
7.652639341031069
 40
8.287532214270712
 40
8.922347946532664
 40
9.55922674861702
 40
10.19613435941575
 40
10.83451785507821
 40
11.4728768997887
 40
12.11234487370774
 40
12.75189588953973
 40
13.39354300523793
 40
14.03487957360072
 40
14.35615205777594
 40
14.67732107719391
 40
14.99840882480342
 40
15.31959604129506
 40
15.96011121034989
 40
16.60099592097377
 40
17.23809108087085
 40
17.8748255520969
 40
18.19205670342512
 40
18.50917199109354
 40
18.82571084635656
 40
19.14241581832406
 40
19.77338975000286
 40
20.40398930747095
 40
20.40398930747095
 40
20.40398930747095
 40
20.40398930747095
 10
88.5931974514
 20
308.965598993
 30
0.0
 10
88.5992030952964
 20
309.1778788026957
 30
0.0
 10
88.61121806717749
 20
309.602568642523
 30
0.0
 10
88.69248341242414
 20
310.1287114036315
 30
0.0
 10
88.78520300899467
 20
310.5436857797596
 30
0.0
 10
88.87049597311153
 20
310.8515097554524
 30
0.0
 10
88.97073458654215
 20
311.1548024322274
 30
0.0
 10
89.12422013569696
 20
311.5522397947635
 30
0.0
 10
89.35269208246973
 20
312.0343393716519
 30
0.0
 10
89.6823070430191
 20
312.583155244509
 30
0.0
 10
90.06453426011224
 20
313.0966907838708
 30
0.0
 10
90.42338895724117
 20
313.4911935459597
 30
0.0
 10
90.73234231080838
 20
313.7840668440065
 30
0.0
 10
90.97423741978353
 20
313.9917886651215
 30
0.0
 10
91.22588067326917
 20
314.1872980622542
 30
0.0
 10
91.57317478042602
 20
314.4307932649289
 30
0.0
 10
92.02891511518646
 20
314.7026753349734
 30
0.0
 10
92.60439453987622
 20
314.9740044474892
 30
0.0
 10
93.20350530503887
 20
315.1877880783031
 30
0.0
 10
93.82095570750172
 20
315.3424778096751
 30
0.0
 10
94.45122626920119
 20
315.4362847933264
 30
0.0
 10
95.08882020393159
 20
315.4684115181324
 30
0.0
 10
95.72699884816427
 20
315.4379819451829
 30
0.0
 10
96.36001126935739
 20
315.3453106900187
 30
0.0
 10
96.98124495379058
 20
315.1908187287924
 30
0.0
 10
97.58538070575453
 20
314.9757815962536
 30
0.0
 10
98.16585977931084
 20
314.7018582305137
 30
0.0
 10
98.62548880352617
 20
314.4266913524499
 30
0.0
 10
98.97538779220989
 20
314.1800816536021
 30
0.0
 10
99.22851942138227
 20
313.9821774612356
 30
0.0
 10
99.47151806074804
 20
313.7719989318322
 30
0.0
 10
99.78076240425517
 20
313.4764795916752
 30
0.0
 10
100.13908259505
 20
313.0790086089114
 30
0.0
 10
100.5190330133782
 20
312.5633418473576
 30
0.0
 10
100.8455060429493
 20
312.0137456908801
 30
0.0
 10
101.0708771829111
 20
311.5326401491682
 30
0.0
 10
101.221968166062
 20
311.1366499615514
 30
0.0
 10
101.320381083611
 20
310.8352236107687
 30
0.0
 10
101.4040478617831
 20
310.5295282428519
 30
0.0
 10
101.4948672192264
 20
310.1179762251363
 30
0.0
 10
101.5743821948997
 20
309.5965510086143
 30
0.0
 10
101.5861544795155
 20
309.1758747194554
 30
0.0
 10
101.5920388751
 20
308.9655989931
 30
0.0
 11
88.5931974514
 21
308.965598993
 31
0.0
 11
88.62444612247172
 21
309.6014338273578
 31
0.0
 11
88.71788732486903
 21
310.2315358164861
 31
0.0
 11
88.78782783188454
 21
310.5431090744124
 31
0.0
 11
88.87296917083651
 21
310.8506974521704
 31
0.0
 11
88.9731937089635
 21
311.1538767968237
 31
0.0
 11
89.088273598714
 21
311.4518617833232
 31
0.0
 11
89.3618694929583
 21
312.0292690631916
 31
0.0
 11
89.69108900663645
 21
312.5772913552837
 31
0.0
 11
90.07271326198382
 21
313.0901368146083
 31
0.0
 11
90.50264789811264
 21
313.5627145657872
 31
0.0
 11
90.73412015917377
 21
313.7821516341737
 31
0.0
 11
90.97602256020102
 21
313.9898846954341
 31
0.0
 11
91.22739636735551
 21
314.1851818536501
 31
0.0
 11
91.48812564564743
 21
314.3679761592687
 31
0.0
 11
92.03365928985725
 21
314.6935102227284
 31
0.0
 11
92.60856910997597
 21
314.9645098903502
 31
0.0
 11
93.20651529772285
 21
315.1779327500665
 31
0.0
 11
93.82230782994633
 21
315.3321746742799
 31
0.0
 11
94.452240111924
 21
315.4259826092684
 31
0.0
 11
95.08834323366165
 21
315.4579845343507
 31
0.0
 11
95.72600419268036
 21
315.4276202645991
 31
0.0
 11
96.35762172559093
 21
315.3350915550886
 31
0.0
 11
96.97819459771333
 21
315.180791198466
 31
0.0
 11
97.58069540484972
 21
314.9662724830779
 31
0.0
 11
98.16100260119585
 21
314.6924941439919
 31
0.0
 11
98.71122758923877
 21
314.3630020250383
 31
0.0
 11
98.97383489340903
 21
314.1779252493895
 31
0.0
 11
99.2268553508256
 21
313.9801117332623
 31
0.0
 11
99.46970365220086
 21
313.7700592536671
 31
0.0
 11
99.70190608760946
 21
313.5481510360906
 31
0.0
 11
100.1308221453412
 21
313.0724508182967
 31
0.0
 11
100.5109328039967
 21
312.5564575048827
 31
0.0
 11
100.8363719496827
 21
312.0087535654962
 31
0.0
 11
101.1064528077783
 21
311.4321366069025
 31
0.0
 11
101.2195432529567
 21
311.1357480872491
 31
0.0
 11
101.317987356295
 21
310.8343001411772
 31
0.0
 11
101.4014701616706
 21
310.5289684066689
 31
0.0
 11
101.4700195851147
 21
310.2197710331121
 31
0.0
 11
101.5614466630392
 21
309.5954560550118
 31
0.0
 11
101.5920388751
 21
308.9655989931
 31
0.0
  0
SPLINE
  5
F5
330
1F
100
AcDbEntity
  8
BEZUGSACHSEN
  6
Continuous
 62
     7
100
AcDbSpline
210
0.0
220
0.0
230
1.0
 70
     8
 71
     3
 72
    19
 73
    15
 74
    13
 42
0.0000000001
 43
0.0000000001
 44
0.00000001
 40
0.0
 40
0.0
 40
0.0
 40
0.0
 40
0.2679411643245294
 40
0.5361267937025224
 40
0.8065304773701744
 40
1.076465993219281
 40
1.213913376131722
 40
1.351353104855264
 40
1.491586367029975
 40
1.631807897520624
 40
1.775491562738922
 40
1.919219204724879
 40
2.065713007371202
 40
2.21193640938221
 40
2.21193640938221
 40
2.21193640938221
 40
2.21193640938221
 10
69.6464589926
 20
293.9555990125
 30
0.0
 10
69.61256474883479
 20
293.8729274327858
 30
0.0
 10
69.54474533676112
 20
293.7075088451857
 30
0.0
 10
69.42010683048296
 20
293.4688428715098
 30
0.0
 10
69.27519603113613
 20
293.2411548755099
 30
0.0
 10
69.13215239960589
 20
293.0653503842095
 30
0.0
 10
69.00304601271495
 20
292.9374006650781
 30
0.0
 10
68.89693091365677
 20
292.8483136442621
 30
0.0
 10
68.78212148600863
 20
292.7690120039435
 30
0.0
 10
68.65766187377224
 20
292.7013415365144
 30
0.0
 10
68.52480831863505
 20
292.6485388498323
 30
0.0
 10
68.38415751975752
 20
292.613372585826
 30
0.0
 10
68.23883213663468
 20
292.597020383883
 30
0.0
 10
68.14132271755676
 20
292.6036431172344
 30
0.0
 10
68.0926130457
 20
292.606951425
 30
0.0
 11
69.6464589926
 21
293.9555990125
 31
0.0
 11
69.54102173296856
 21
293.7092751366353
 31
0.0
 11
69.41715221740445
 21
293.4714098913413
 31
0.0
 11
69.27080673109116
 21
293.2440310207821
 31
0.0
 11
69.09955453996267
 21
293.0353737186084
 31
0.0
 11
69.00176210128336
 21
292.9387899621758
 31
0.0
 11
68.89634511202865
 21
292.8506030163841
 31
0.0
 11
68.78080646831522
 21
292.7711285574113
 31
0.0
 11
68.65748445842186
 21
292.7043920644782
 31
0.0
 11
68.523853770222
 21
292.6515921135143
 31
0.0
 11
68.38442606901424
 21
292.6166986871024
 31
0.0
 11
68.23873163048356
 21
292.601415860302
 31
0.0
 11
68.0926130457
 21
292.606951425
 31
0.0
  0
SPLINE
  5
F6
330
1F
100
AcDbEntity
  8
BEZUGSACHSEN
  6
Continuous
 62
     7
100
AcDbSpline
210
0.0
220
0.0
230
1.0
 70
     8
 71
     3
 72
    11
 73
     7
 74
     5
 42
0.0000000001
 43
0.0000000001
 44
0.00000001
 40
0.0
 40
0.0
 40
0.0
 40
0.0
 40
0.5521269407036401
 40
1.105196183339658
 40
1.651906304698615
 40
2.198197048720035
 40
2.198197048720035
 40
2.198197048720035
 40
2.198197048720035
 10
70.0926130457
 20
296.0959434867
 30
0.0
 10
70.08602760807226
 20
295.9118082962891
 30
0.0
 10
70.07284549360683
 20
295.5432236563125
 30
0.0
 10
69.97535712980951
 20
294.9997992516269
 30
0.0
 10
69.83571981677706
 20
294.46852512211
 30
0.0
 10
69.70952979456155
 20
294.126530642016
 30
0.0
 10
69.6464589926
 20
293.9555990125
 30
0.0
 11
70.0926130457
 21
296.0959434867
 31
0.0
 11
70.0598684632732
 21
295.5447883806069
 31
0.0
 11
69.96780181032982
 21
294.9994359087451
 31
0.0
 11
69.8273103254964
 21
294.4710855519878
 31
0.0
 11
69.6464589926
 21
293.9555990125
 31
0.0
  0
SPLINE
  5
F7
330
1F
100
AcDbEntity
  8
BEZUGSACHSEN
  6
Continuous
 62
     7
100
AcDbSpline
210
0.0
220
0.0
230
1.0
 70
     8
 71
     3
 72
    19
 73
    15
 74
    13
 42
0.0000000001
 43
0.0000000001
 44
0.00000001
 40
0.0
 40
0.0
 40
0.0
 40
0.0
 40
0.1462385988632272
 40
0.2927479275651151
 40
0.4364790706808378
 40
0.5801659236906562
 40
0.720379997330423
 40
0.8606059383245169
 40
0.998041188458262
 40
1.135484020502347
 40
1.405415631142612
 40
1.675815514121347
 40
1.943997429549249
 40
2.21193483477508
 40
2.21193483477508
 40
2.21193483477508
 40
2.21193483477508
 10
68.0926130457
 20
325.3242465999
 30
0.0
 10
68.14132785106678
 20
325.3275546772473
 30
0.0
 10
68.23884764696002
 20
325.3341769561475
 30
0.0
 10
68.38418390729458
 20
325.3178176433767
 30
0.0
 10
68.52484084439944
 20
325.2826458772684
 30
0.0
 10
68.65769297782961
 20
325.2298401906168
 30
0.0
 10
68.7821474408989
 20
325.1621684028942
 30
0.0
 10
68.89694999808326
 20
325.0828682015202
 30
0.0
 10
69.00305993587196
 20
324.9937835619441
 30
0.0
 10
69.13216240104524
 20
324.8658360263755
 30
0.0
 10
69.27520225091723
 20
324.6900337374618
 30
0.0
 10
69.42010985257457
 20
324.4623482715713
 30
0.0
 10
69.54474660100016
 20
324.2236856521037
 30
0.0
 10
69.61256517216744
 20
324.0582694116736
 30
0.0
 10
69.6464589926
 20
323.9755990125
 30
0.0
 11
68.0926130457
 21
325.3242465999
 31
0.0
 11
68.23874690760441
 21
325.3297803330328
 31
0.0
 11
68.38445626844855
 21
325.3144909393538
 31
0.0
 11
68.52388634997432
 21
325.279592603189
 31
0.0
 11
68.65751868688508
 21
325.2267881501606
 31
0.0
 11
68.78083247770404
 21
325.1600521370903
 31
0.0
 11
68.89636358904305
 21
325.0805796459978
 31
0.0
 11
69.00177613883076
 21
324.9923943732671
 31
0.0
 11
69.09956464252096
 21
324.8958131089022
 31
0.0
 11
69.27081303837655
 21
324.6871577439107
 31
0.0
 11
69.4171554588721
 21
324.4597814199928
 31
0.0
 11
69.54102308466156
 21
324.2219193779519
 31
0.0
 11
69.6464589926
 21
323.9755990125
 31
0.0
  0
SPLINE
  5
F8
330
1F
100
AcDbEntity
  8
BEZUGSACHSEN
  6
Continuous
 62
     7
100
AcDbSpline
210
0.0
220
0.0
230
1.0
 70
     8
 71
     3
 72
    11
 73
     7
 74
     5
 42
0.0000000001
 43
0.0000000001
 44
0.00000001
 40
0.0
 40
0.0
 40
0.0
 40
0.0
 40
0.5462907431867464
 40
1.093000863684057
 40
1.646070107201771
 40
2.198197048711649
 40
2.198197048711649
 40
2.198197048711649
 40
2.198197048711649
 10
69.6464589926
 20
323.9755990125
 30
0.0
 10
69.709529794464
 20
323.804667383245
 30
0.0
 10
69.83571981648133
 20
323.462672903681
 30
0.0
 10
69.9753571295185
 20
322.9313987744516
 30
0.0
 10
70.07284549352775
 20
322.3879743695195
 30
0.0
 10
70.0860276080462
 20
322.0193897289798
 30
0.0
 10
70.0926130457
 20
321.8352545383
 30
0.0
 11
69.6464589926
 21
323.9755990125
 31
0.0
 11
69.82731032522919
 21
323.4601124738031
 31
0.0
 11
69.96780180992751
 21
322.9317621179014
 31
0.0
 11
70.05986846315793
 21
322.3864096451939
 31
0.0
 11
70.0926130457
 21
321.8352545383
 31
0.0
  0
SPLINE
  5
F9
330
1F
100
AcDbEntity
  8
0
  6
Continuous
 62
     7
100
AcDbSpline
210
0.0
220
0.0
230
1.0
 70
     8
 71
     3
 72
    19
 73
    15
 74
    13
 42
0.0000000001
 43
0.0000000001
 44
0.00000001
 40
0.0
 40
0.0
 40
0.0
 40
0.0
 40
0.2323383481142776
 40
0.4652125956937215
 40
0.6980761132641331
 40
0.9303535187232652
 40
1.046733461791989
 40
1.163080940862462
 40
1.279447997430442
 40
1.395808629538857
 40
1.512165904523968
 40
1.62856614037755
 40
1.745106920581176
 40
1.86135160284644
 40
1.86135160284644
 40
1.86135160284644
 40
1.86135160284644
 10
131.9676130457
 20
274.0836552593
 30
0.0
 10
131.9647694201019
 20
274.1611555729583
 30
0.0
 10
131.9590756099478
 20
274.3163349584394
 30
0.0
 10
131.9125386341515
 20
274.5453551724628
 30
0.0
 10
131.8376448883647
 20
274.7662807343505
 30
0.0
 10
131.7476475841096
 20
274.9390667985618
 30
0.0
 10
131.6589956463348
 20
275.0664267243056
 30
0.0
 10
131.5836913819907
 20
275.1553946232289
 30
0.0
 10
131.4996034081427
 20
275.236152293162
 30
0.0
 10
131.4068346742791
 20
275.3068368595044
 30
0.0
 10
131.3058588620202
 20
275.3654330836661
 30
0.0
 10
131.1976718125068
 20
275.4092863348401
 30
0.0
 10
131.0840627031591
 20
275.4376910943498
 30
0.0
 10
131.0063966683626
 20
275.4413775470119
 30
0.0
 10
130.9676130457
 20
275.4432184288
 30
0.0
 11
131.9676130457
 21
274.0836552593
 31
0.0
 11
131.9527668916079
 21
274.3155187961339
 31
0.0
 11
131.9078068900486
 21
274.544011713848
 31
0.0
 11
131.8320484113531
 21
274.7642072422336
 31
0.0
 11
131.7241580001736
 21
274.9699071505037
 31
0.0
 11
131.6575306763501
 21
275.0653277503174
 31
0.0
 11
131.5822312197934
 21
275.1540223258467
 31
0.0
 11
131.4981553534406
 21
275.2344744268218
 31
0.0
 11
131.4054675274394
 21
275.3048218760709
 31
0.0
 11
131.3046790925203
 21
275.3629657220781
 31
0.0
 11
131.1968063637266
 21
275.4066977388321
 31
0.0
 11
131.0834830751727
 21
275.4338930641989
 31
0.0
 11
130.9676130457
 21
275.4432184288
 31
0.0
  0
SPLINE
  5
FA
330
1F
100
AcDbEntity
  8
BEZUGSACHSEN
  6
Continuous
 62
     7
100
AcDbSpline
210
0.0
220
0.0
230
1.0
 70
     8
 71
     3
 72
    15
 73
    11
 74
     9
 42
0.0000000001
 43
0.0000000001
 44
0.00000001
 40
0.0
 40
0.0
 40
0.0
 40
0.0
 40
0.1110944831967782
 40
0.2222295182205723
 40
0.3333620402631065
 40
0.4444752610732872
 40
0.5555842178422912
 40
0.6667300354015785
 40
0.777945018157184
 40
0.8889820871668561
 40
0.8889820871668561
 40
0.8889820871668561
 40
0.8889820871668561
 10
61.2384557213
 20
324.2079350079
 30
0.0
 10
61.26384108087352
 20
324.2349113736071
 30
0.0
 10
61.31462106621165
 20
324.288873951963
 30
0.0
 10
61.39687383549551
 20
324.3637559153674
 30
0.0
 10
61.48387048744993
 20
324.4330426242666
 30
0.0
 10
61.57617532787262
 20
324.4951377873269
 30
0.0
 10
61.67362534984616
 20
324.5489172794203
 30
0.0
 10
61.77603826369563
 20
324.5925075249953
 30
0.0
 10
61.88255476226376
 20
324.625526080842
 30
0.0
 10
61.95589686497995
 20
324.6365992474535
 30
0.0
 10
61.992538561
 20
324.6421313987
 30
0.0
 11
61.2384557213
 21
324.2079350079
 31
0.0
 11
61.31562449841441
 21
324.2878534915907
 31
0.0
 11
61.39766439867827
 21
324.3628231572858
 31
0.0
 11
61.48476154728935
 21
324.4318486899484
 31
0.0
 11
61.57703336886193
 21
324.4937523149028
 31
0.0
 11
61.67443627692405
 21
324.5472113999617
 31
0.0
 11
61.776704500291
 21
324.5907384404112
 31
0.0
 11
61.88319636838109
 21
324.6228048468206
 31
0.0
 11
61.992538561
 21
324.6421313987
 31
0.0
  0
SPLINE
  5
FB
330
1F
100
AcDbEntity
  8
0
  6
Continuous
 62
     7
100
AcDbSpline
210
0.0
220
0.0
230
1.0
 70
     8
 71
     3
 72
    19
 73
    15
 74
    13
 42
0.0000000001
 43
0.0000000001
 44
0.00000001
 40
0.0
 40
0.0
 40
0.0
 40
0.0
 40
0.1162460235126839
 40
0.2327881717702486
 40
0.3491890045833513
 40
0.4655468550498543
 40
0.5819071369643201
 40
0.6982738488805276
 40
0.8146206072267231
 40
0.9309998277680359
 40
1.163276323411373
 40
1.396138921762077
 40
1.629013178063201
 40
1.861351539723204
 40
1.861351539723204
 40
1.861351539723204
 40
1.861351539723204
 10
129.2176130457
 20
275.4432184288
 30
0.0
 10
129.1788289748791
 20
275.4413774819025
 30
0.0
 10
129.1011620348207
 20
275.4376908984854
 30
0.0
 10
128.9875519497639
 20
275.4092854134914
 30
0.0
 10
128.8793642617962
 20
275.3654314992774
 30
0.0
 10
128.7783883958257
 20
275.3068348110494
 30
0.0
 10
128.6856199391017
 20
275.2361499497217
 30
0.0
 10
128.6015325601183
 20
275.1553923446358
 30
0.0
 10
128.5262289167435
 20
275.0664247058939
 30
0.0
 10
128.4375776725754
 20
274.9390652581423
 30
0.0
 10
128.3475809268401
 20
274.7662798800513
 30
0.0
 10
128.272687407676
 20
274.5453548898633
 30
0.0
 10
128.2261504823337
 20
274.3163349702743
 30
0.0
 10
128.2204566716115
 20
274.1611555774397
 30
0.0
 10
128.2176130457
 20
274.0836552593
 30
0.0
 11
129.2176130457
 21
275.4432184288
 31
0.0
 11
129.101741694209
 21
275.4338927713889
 31
0.0
 11
128.9884171694866
 21
275.4066967346017
 31
0.0
 11
128.8805440368555
 21
275.3629641250757
 31
0.0
 11
128.7797552973422
 21
275.3048196554118
 31
0.0
 11
128.6870679922947
 21
275.2344720990204
 31
0.0
 11
128.6029926266692
 21
275.1540199732739
 31
0.0
 11
128.5276938687375
 21
275.0653257500595
 31
0.0
 11
128.4610671394222
 21
274.9699056163635
 31
0.0
 11
128.3531773533137
 21
274.7642064076101
 31
0.0
 11
128.2774192164619
 21
274.5440117337158
 31
0.0
 11
128.2324592026453
 21
274.3155188095247
 31
0.0
 11
128.2176130457
 21
274.0836552593
 31
0.0
  0
SPLINE
  5
FC
330
1F
100
AcDbEntity
  8
BEZUGSACHSEN
  6
Continuous
 62
     7
100
AcDbSpline
210
0.0
220
0.0
230
1.0
 70
     8
 71
     3
 72
    27
 73
    23
 74
    21
 42
0.0000000001
 43
0.0000000001
 44
0.00000001
 40
0.0
 40
0.0
 40
0.0
 40
0.0
 40
0.1260969826140012
 40
0.2522464959676997
 40
0.3668867953136734
 40
0.481582589468816
 40
0.583959600741067
 40
0.685948916189601
 40
0.7334568411117722
 40
0.7809568849563424
 40
0.8274002265049941
 40
0.8738421607809265
 40
0.9204907319624266
 40
0.9671431399967162
 40
1.015111401893609
 40
1.063087497214366
 40
1.165500418815302
 40
1.268190479015577
 40
1.380949153940455
 40
1.493646517818985
 40
1.615655563791823
 40
1.737631867654719
 40
1.737631867654719
 40
1.737631867654719
 40
1.737631867654719
 10
60.0926130457
 20
323.5998314986
 30
0.0
 10
60.09334158718293
 20
323.6418744266816
 30
0.0
 10
60.0947989736519
 20
323.7259777975075
 30
0.0
 10
60.10824353566655
 20
323.847725125084
 30
0.0
 10
60.13119896896642
 20
323.9641428414619
 30
0.0
 10
60.16516486929466
 20
324.0697182992595
 30
0.0
 10
60.21139062815381
 20
324.1658763615144
 30
0.0
 10
60.25993379671074
 20
324.2350457271768
 30
0.0
 10
60.30537312226848
 20
324.2825832087943
 30
0.0
 10
60.34127920035952
 20
324.3132784922764
 30
0.0
 10
60.37992663145232
 20
324.3398135279886
 30
0.0
 10
60.42088111865782
 20
324.3620418738837
 30
0.0
 10
60.46402074483335
 20
324.3798350907612
 30
0.0
 10
60.50920137944678
 20
324.3933684978223
 30
0.0
 10
60.5559086024364
 20
324.402565623156
 30
0.0
 10
60.62173259363989
 20
324.4095209435368
 30
0.0
 10
60.70646034563687
 20
324.4076556869031
 30
0.0
 10
60.81129194912607
 20
324.3907410259619
 30
0.0
 10
60.91687119147225
 20
324.3613263931027
 30
0.0
 10
61.0250291295659
 20
324.319574755636
 30
0.0
 10
61.13268139081963
 20
324.2687789284618
 30
0.0
 10
61.20320076563682
 20
324.2282145002119
 30
0.0
 10
61.2384557213
 20
324.2079350079
 30
0.0
 11
60.0926130457
 21
323.5998314986
 31
0.0
 11
60.09674440529398
 21
323.7258607844516
 31
0.0
 11
60.110511164463
 21
323.8512568611899
 31
0.0
 11
60.13336274056497
 21
323.9635965411956
 31
0.0
 11
60.16900092993866
 21
324.0726150930803
 31
0.0
 11
60.2139006947388
 21
324.1646208731049
 31
0.0
 11
60.27307312369294
 21
324.2476897849633
 31
0.0
 11
60.30592562385448
 21
324.2820076544127
 31
0.0
 11
60.34206271878129
 21
324.3128356374068
 31
0.0
 11
60.38034998364272
 21
324.3391238348276
 31
0.0
 11
60.42117259157998
 21
324.3612680878177
 31
0.0
 11
60.46427873519803
 21
324.3790992284334
 31
0.0
 11
60.50895830724237
 21
324.3925224552188
 31
0.0
 11
60.55600911299751
 21
324.4018592548418
 31
0.0
 11
60.60371300027159
 21
324.406962671459
 31
0.0
 11
60.70611264112932
 21
324.4053134100951
 31
0.0
 11
60.80757689143002
 21
324.3894939798002
 31
0.0
 11
60.91630060786721
 21
324.3595996282451
 31
0.0
 11
61.02161860016172
 21
324.3194895755872
 31
0.0
 11
61.13191128606713
 21
324.2673193663201
 31
0.0
 11
61.2384557213
 21
324.2079350079
 31
0.0
  0
DIMENSION
  5
107
330
1F
100
AcDbEntity
  8
1
100
AcDbDimension
  2
*D2
 10
210.0926130457
 20
249.360894268674
 30
0.0
 11
162.853789176038
 21
253.110894268674
 31
0.0
 70
    32
  1
<>
 71
     5
 42
-1.0
 53
0.00013888888889
  3
ME10_DIM_10
100
AcDbAlignedDimension
 13
110.0926130457
 23
258.9655990125
 33
0.0
 14
210.0926130457
 24
285.9655990125
 34
0.0
100
AcDbRotatedDimension
  0
DIMENSION
  5
112
330
1F
100
AcDbEntity
  8
1
100
AcDbDimension
  2
*D3
 10
249.360258152449
 20
332.9655990125
 30
0.0
 11
245.610258152449
 21
308.475599049578
 31
0.0
 70
    32
  1
<>
 71
     5
 42
-1.0
 53
90.0
  3
ME10_DIM_11
100
AcDbAlignedDimension
 13
209.0926130457
 23
284.9655990125
 33
0.0
 14
209.0926130457
 24
332.9655990125
 34
0.0
 50
90.0
100
AcDbRotatedDimension
  0
DIMENSION
  5
11D
330
1F
100
AcDbEntity
  8
1
100
AcDbDimension
  2
*D4
 10
240.814964194021
 20
319.9655990125
 30
0.0
 11
237.064964194021
 21
308.592657870926
 31
0.0
 70
    32
  1
<>
 71
     5
 42
-1.0
 53
90.0
  3
ME10_DIM_12
100
AcDbAlignedDimension
 13
228.0926130457
 23
297.9655990125
 33
0.0
 14
228.0926130457
 24
319.9655990125
 34
0.0
 50
90.0
100
AcDbRotatedDimension
  0
DIMENSION
  5
128
330
1F
100
AcDbEntity
  8
1
100
AcDbDimension
  2
*D5
 10
229.0926130457
 20
385.032068211381
 30
0.0
 11
153.020848182779
 21
388.782068211381
 31
0.0
 70
    32
  1
<>
 71
     5
 42
-1.0
 53
0.00013888888889
  3
ME10_DIM_13
100
AcDbAlignedDimension
 13
60.0926130457
 23
342.565790575
 33
0.0
 14
229.0926130457
 24
318.9655990125
 34
0.0
100
AcDbRotatedDimension
  0
DIMENSION
  5
133
330
1F
100
AcDbEntity
  8
1
100
AcDbDimension
  2
*D6
 10
229.0926130457
 20
377.306186002392
 30
0.0
 11
169.877318456938
 21
381.056186002392
 31
0.0
 70
    32
  1
<>
 71
     5
 42
-1.0
 53
0.00013888888889
  3
ME10_DIM_14
100
AcDbAlignedDimension
 13
110.0926130457
 23
358.9655990125
 33
0.0
 14
229.0926130457
 24
318.9655990125
 34
0.0
100
AcDbRotatedDimension
  0
DIMENSION
  5
13E
330
1F
100
AcDbEntity
  8
1
100
AcDbDimension
  2
*D7
 10
229.0926130457
 20
369.346186150706
 30
0.0
 11
182.98790644795
 21
373.096186150706
 31
0.0
 70
    32
  1
<>
 71
     5
 42
-1.0
 53
0.00013888888889
  3
ME10_DIM_15
100
AcDbAlignedDimension
 13
139.0926130457
 23
358.9655620913
 33
0.0
 14
229.0926130457
 24
318.9655990125
 34
0.0
100
AcDbRotatedDimension
  0
DIMENSION
  5
149
330
1F
100
AcDbEntity
  8
1
100
AcDbDimension
  2
*D8
 10
229.0926130457
 20
361.152068656324
 30
0.0
 11
219.159082244582
 21
364.902068656324
 31
0.0
 70
    32
  1
<>
 71
     5
 42
-1.0
 53
0.00013888888889
  3
ME10_DIM_16
100
AcDbAlignedDimension
 13
210.0926130457
 23
331.9655990125
 33
0.0
 14
229.0926130457
 24
318.9655990125
 34
0.0
100
AcDbRotatedDimension
  0
INSERT
  5
150
330
1F
100
AcDbEntity
  8
1
100
AcDbBlockReference
  2
*D9
 10
0.0
 20
0.0
 30
0.0
  0
ENDSEC
  0
SECTION
  2
OBJECTS
  0
DICTIONARY
  5
C
330
0
100
AcDbDictionary
281
     1
  3
ACAD_GROUP
350
D
  3
ACAD_LAYOUT
350
1A
  3
ACAD_MLEADERSTYLE
350
153
  3
ACAD_MLINESTYLE
350
17
  3
ACAD_PLOTSETTINGS
350
19
  3
ACAD_PLOTSTYLENAME
350
E
  3
ACAD_SCALELIST
350
49
  3
ACAD_VISUALSTYLE
350
2A
  3
AcDbVariableDictionary
350
151
  0
DICTIONARY
  5
D
102
{ACAD_REACTORS
330
C
102
}
330
C
100
AcDbDictionary
281
     1
  0
DICTIONARY
  5
1A
102
{ACAD_REACTORS
330
C
102
}
330
C
100
AcDbDictionary
281
     1
  3
Layout1
350
1E
  3
Layout2
350
26
  3
Model
350
22
  0
DICTIONARY
  5
153
102
{ACAD_REACTORS
330
C
102
}
330
C
100
AcDbDictionary
281
     1
  0
DICTIONARY
  5
17
102
{ACAD_REACTORS
330
C
102
}
330
C
100
AcDbDictionary
281
     1
  3
Standard
350
18
  0
DICTIONARY
  5
19
102
{ACAD_REACTORS
330
C
102
}
330
C
100
AcDbDictionary
281
     1
  0
ACDBDICTIONARYWDFLT
  5
E
102
{ACAD_REACTORS
330
C
102
}
330
C
100
AcDbDictionary
281
     1
  3
Normal
350
F
100
AcDbDictionaryWithDefault
340
F
  0
DICTIONARY
  5
49
102
{ACAD_REACTORS
330
C
102
}
330
C
100
AcDbDictionary
281
     1
  3
A0
350
4A
  3
A1
350
4B
  3
A2
350
4C
  3
A3
350
4D
  3
A4
350
4E
  3
A5
350
4F
  3
A6
350
50
  3
A7
350
51
  3
A8
350
52
  3
A9
350
53
  3
B0
350
54
  3
B1
350
55
  3
B2
350
56
  3
B3
350
57
  3
B4
350
58
  3
B5
350
59
  3
B6
350
5A
  3
B7
350
5B
  3
B8
350
5C
  3
B9
350
5D
  3
C0
350
5E
  3
C1
350
5F
  3
C2
350
60
  3
C3
350
61
  3
C4
350
62
  3
C5
350
63
  3
C6
350
64
  3
C7
350
65
  3
C8
350
66
  3
C9
350
67
  3
D0
350
68
  3
D1
350
69
  3
D2
350
6A
  0
DICTIONARY
  5
2A
102
{ACAD_REACTORS
330
C
102
}
330
C
100
AcDbDictionary
281
     1
  3
2dWireframe
350
2F
  3
3D Hidden
350
31
  3
3dWireframe
350
30
  3
Basic
350
32
  3
Brighten
350
36
  3
ColorChange
350
3A
  3
Conceptual
350
34
  3
Dim
350
35
  3
Facepattern
350
39
  3
Flat
350
2B
  3
FlatWithEdges
350
2C
  3
Gouraud
350
2D
  3
GouraudWithEdges
350
2E
  3
Linepattern
350
38
  3
Realistic
350
33
  3
Thicken
350
37
  0
DICTIONARY
  5
151
102
{ACAD_REACTORS
330
C
102
}
330
C
100
AcDbDictionary
281
     1
  3
CANNOSCALE
350
154
  0
LAYOUT
  5
1E
102
{ACAD_REACTORS
330
1A
102
}
330
1A
100
AcDbPlotSettings
  1

  2
none_device
  4

  6

 40
0.0
 41
0.0
 42
0.0
 43
0.0
 44
0.0
 45
0.0
 46
0.0
 47
0.0
 48
0.0
 49
0.0
140
0.0
141
0.0
142
1.0
143
1.0
 70
   688
 72
     0
 73
     0
 74
     5
  7

 75
    16
147
1.0
148
0.0
149
0.0
100
AcDbLayout
  1
Layout1
 70
     1
 71
     1
 10
0.0
 20
0.0
 11
12.0
 21
9.0
 12
0.0
 22
0.0
 32
0.0
 14
1.00000000000000E+20
 24
1.00000000000000E+20
 34
1.00000000000000E+20
 15
-1.00000000000000E+20
 25
-1.00000000000000E+20
 35
-1.00000000000000E+20
146
0.0
 13
0.0
 23
0.0
 33
0.0
 16
1.0
 26
0.0
 36
0.0
 17
0.0
 27
1.0
 37
0.0
 76
     0
330
1B
  0
LAYOUT
  5
26
102
{ACAD_REACTORS
330
1A
102
}
330
1A
100
AcDbPlotSettings
  1

  2
none_device
  4

  6

 40
0.0
 41
0.0
 42
0.0
 43
0.0
 44
0.0
 45
0.0
 46
0.0
 47
0.0
 48
0.0
 49
0.0
140
0.0
141
0.0
142
1.0
143
1.0
 70
   688
 72
     0
 73
     0
 74
     5
  7

 75
    16
147
1.0
148
0.0
149
0.0
100
AcDbLayout
  1
Layout2
 70
     1
 71
     2
 10
0.0
 20
0.0
 11
0.0
 21
0.0
 12
0.0
 22
0.0
 32
0.0
 14
0.0
 24
0.0
 34
0.0
 15
0.0
 25
0.0
 35
0.0
146
0.0
 13
0.0
 23
0.0
 33
0.0
 16
1.0
 26
0.0
 36
0.0
 17
0.0
 27
1.0
 37
0.0
 76
     0
330
23
  0
LAYOUT
  5
22
102
{ACAD_REACTORS
330
1A
102
}
330
1A
100
AcDbPlotSettings
  1

  2
none_device
  4

  6

 40
0.0
 41
0.0
 42
0.0
 43
0.0
 44
0.0
 45
0.0
 46
0.0
 47
0.0
 48
0.0
 49
0.0
140
0.0
141
0.0
142
1.0
143
1.0
 70
  1712
 72
     0
 73
     0
 74
     0
  7

 75
     0
147
1.0
148
0.0
149
0.0
100
AcDbLayout
  1
Model
 70
     1
 71
     0
 10
0.0
 20
0.0
 11
12.0
 21
9.0
 12
0.0
 22
0.0
 32
0.0
 14
34.4341877621835
 24
247.360894268674
 34
0.0
 15
251.360258152449
 25
390.532068211381
 35
0.0
146
0.0
 13
0.0
 23
0.0
 33
0.0
 16
1.0
 26
0.0
 36
0.0
 17
0.0
 27
1.0
 37
0.0
 76
     0
330
1F
331
29
  0
MLINESTYLE
  5
18
102
{ACAD_REACTORS
330
17
102
}
330
17
100
AcDbMlineStyle
  2
Standard
 70
     0
  3

 62
   256
 51
90.0
 52
90.0
 71
     2
 49
0.5
 62
   256
  6
BYLAYER
 49
-0.5
 62
   256
  6
BYLAYER
  0
ACDBPLACEHOLDER
  5
F
102
{ACAD_REACTORS
330
E
102
}
330
E
  0
SCALE
  5
4A
102
{ACAD_REACTORS
330
49
102
}
330
49
100
AcDbScale
 70
     0
300
1:1
140
1.0
141
1.0
290
     1
  0
SCALE
  5
4B
102
{ACAD_REACTORS
330
49
102
}
330
49
100
AcDbScale
 70
     0
300
1:2
140
1.0
141
2.0
290
     0
  0
SCALE
  5
4C
102
{ACAD_REACTORS
330
49
102
}
330
49
100
AcDbScale
 70
     0
300
1:4
140
1.0
141
4.0
290
     0
  0
SCALE
  5
4D
102
{ACAD_REACTORS
330
49
102
}
330
49
100
AcDbScale
 70
     0
300
1:5
140
1.0
141
5.0
290
     0
  0
SCALE
  5
4E
102
{ACAD_REACTORS
330
49
102
}
330
49
100
AcDbScale
 70
     0
300
1:8
140
1.0
141
8.0
290
     0
  0
SCALE
  5
4F
102
{ACAD_REACTORS
330
49
102
}
330
49
100
AcDbScale
 70
     0
300
1:10
140
1.0
141
10.0
290
     0
  0
SCALE
  5
50
102
{ACAD_REACTORS
330
49
102
}
330
49
100
AcDbScale
 70
     0
300
1:16
140
1.0
141
16.0
290
     0
  0
SCALE
  5
51
102
{ACAD_REACTORS
330
49
102
}
330
49
100
AcDbScale
 70
     0
300
1:20
140
1.0
141
20.0
290
     0
  0
SCALE
  5
52
102
{ACAD_REACTORS
330
49
102
}
330
49
100
AcDbScale
 70
     0
300
1:30
140
1.0
141
30.0
290
     0
  0
SCALE
  5
53
102
{ACAD_REACTORS
330
49
102
}
330
49
100
AcDbScale
 70
     0
300
1:40
140
1.0
141
40.0
290
     0
  0
SCALE
  5
54
102
{ACAD_REACTORS
330
49
102
}
330
49
100
AcDbScale
 70
     0
300
1:50
140
1.0
141
50.0
290
     0
  0
SCALE
  5
55
102
{ACAD_REACTORS
330
49
102
}
330
49
100
AcDbScale
 70
     0
300
1:100
140
1.0
141
100.0
290
     0
  0
SCALE
  5
56
102
{ACAD_REACTORS
330
49
102
}
330
49
100
AcDbScale
 70
     0
300
2:1
140
2.0
141
1.0
290
     0
  0
SCALE
  5
57
102
{ACAD_REACTORS
330
49
102
}
330
49
100
AcDbScale
 70
     0
300
4:1
140
4.0
141
1.0
290
     0
  0
SCALE
  5
58
102
{ACAD_REACTORS
330
49
102
}
330
49
100
AcDbScale
 70
     0
300
8:1
140
8.0
141
1.0
290
     0
  0
SCALE
  5
59
102
{ACAD_REACTORS
330
49
102
}
330
49
100
AcDbScale
 70
     0
300
10:1
140
10.0
141
1.0
290
     0
  0
SCALE
  5
5A
102
{ACAD_REACTORS
330
49
102
}
330
49
100
AcDbScale
 70
     0
300
100:1
140
100.0
141
1.0
290
     0
  0
SCALE
  5
5B
102
{ACAD_REACTORS
330
49
102
}
330
49
100
AcDbScale
 70
     0
300
1/128" = 1'-0"
140
0.0078125
141
12.0
290
     0
  0
SCALE
  5
5C
102
{ACAD_REACTORS
330
49
102
}
330
49
100
AcDbScale
 70
     0
300
1/64" = 1'-0"
140
0.015625
141
12.0
290
     0
  0
SCALE
  5
5D
102
{ACAD_REACTORS
330
49
102
}
330
49
100
AcDbScale
 70
     0
300
1/32" = 1'-0"
140
0.03125
141
12.0
290
     0
  0
SCALE
  5
5E
102
{ACAD_REACTORS
330
49
102
}
330
49
100
AcDbScale
 70
     0
300
1/16" = 1'-0"
140
0.0625
141
12.0
290
     0
  0
SCALE
  5
5F
102
{ACAD_REACTORS
330
49
102
}
330
49
100
AcDbScale
 70
     0
300
3/32" = 1'-0"
140
0.09375
141
12.0
290
     0
  0
SCALE
  5
60
102
{ACAD_REACTORS
330
49
102
}
330
49
100
AcDbScale
 70
     0
300
1/8" = 1'-0"
140
0.125
141
12.0
290
     0
  0
SCALE
  5
61
102
{ACAD_REACTORS
330
49
102
}
330
49
100
AcDbScale
 70
     0
300
3/16" = 1'-0"
140
0.1875
141
12.0
290
     0
  0
SCALE
  5
62
102
{ACAD_REACTORS
330
49
102
}
330
49
100
AcDbScale
 70
     0
300
1/4" = 1'-0"
140
0.25
141
12.0
290
     0
  0
SCALE
  5
63
102
{ACAD_REACTORS
330
49
102
}
330
49
100
AcDbScale
 70
     0
300
3/8" = 1'-0"
140
0.375
141
12.0
290
     0
  0
SCALE
  5
64
102
{ACAD_REACTORS
330
49
102
}
330
49
100
AcDbScale
 70
     0
300
1/2" = 1'-0"
140
0.5
141
12.0
290
     0
  0
SCALE
  5
65
102
{ACAD_REACTORS
330
49
102
}
330
49
100
AcDbScale
 70
     0
300
3/4" = 1'-0"
140
0.75
141
12.0
290
     0
  0
SCALE
  5
66
102
{ACAD_REACTORS
330
49
102
}
330
49
100
AcDbScale
 70
     0
300
1" = 1'-0"
140
1.0
141
12.0
290
     0
  0
SCALE
  5
67
102
{ACAD_REACTORS
330
49
102
}
330
49
100
AcDbScale
 70
     0
300
1-1/2" = 1'-0"
140
1.5
141
12.0
290
     0
  0
SCALE
  5
68
102
{ACAD_REACTORS
330
49
102
}
330
49
100
AcDbScale
 70
     0
300
3" = 1'-0"
140
3.0
141
12.0
290
     0
  0
SCALE
  5
69
102
{ACAD_REACTORS
330
49
102
}
330
49
100
AcDbScale
 70
     0
300
6" = 1'-0"
140
6.0
141
12.0
290
     0
  0
SCALE
  5
6A
102
{ACAD_REACTORS
330
49
102
}
330
49
100
AcDbScale
 70
     0
300
1'-0" = 1'-0"
140
12.0
141
12.0
290
     0
  0
VISUALSTYLE
  5
2F
102
{ACAD_REACTORS
330
2A
102
}
330
2A
100
AcDbVisualStyle
  2
2dWireframe
 70
     4
 71
     0
 72
     2
 73
     0
 90
        0
 40
-0.6
 41
-30.0
 62
     5
 63
     7
 74
     1
 91
        4
 64
     7
 65
   257
 75
     1
175
     1
 42
1.0
 92
        0
 66
   257
 43
1.0
 76
     1
 77
     6
 78
     2
 67
     7
 79
     5
170
     0
171
     0
290
     0
174
     0
 93
        1
 44
0.0
173
     0
291
     0
 45
0.0
1001
ACAD
1000
AcDbSavedByObjectVersion
1070
     0
  0
VISUALSTYLE
  5
31
102
{ACAD_REACTORS
330
2A
102
}
330
2A
100
AcDbVisualStyle
  2
3D Hidden
 70
     6
 71
     1
 72
     2
 73
     2
 90
        0
 40
-0.6
 41
-30.0
 62
     5
 63
     7
 74
     2
 91
        2
 64
     7
 65
   257
 75
     2
175
     1
 42
40.0
 92
        0
 66
   257
 43
1.0
 76
     1
 77
     6
 78
     2
 67
     7
 79
     3
170
     0
171
     0
290
     0
174
     0
 93
        1
 44
0.0
173
     0
291
     0
 45
0.0
1001
ACAD
1000
AcDbSavedByObjectVersion
1070
     0
  0
VISUALSTYLE
  5
30
102
{ACAD_REACTORS
330
2A
102
}
330
2A
100
AcDbVisualStyle
  2
3dWireframe
 70
     5
 71
     0
 72
     2
 73
     0
 90
        0
 40
-0.6
 41
-30.0
 62
     5
 63
     7
 74
     1
 91
        4
 64
     7
 65
   257
 75
     1
175
     1
 42
1.0
 92
        0
 66
   257
 43
1.0
 76
     1
 77
     6
 78
     2
 67
     7
 79
     5
170
     0
171
     0
290
     0
174
     0
 93
        1
 44
0.0
173
     0
291
     0
 45
0.0
1001
ACAD
1000
AcDbSavedByObjectVersion
1070
     0
  0
VISUALSTYLE
  5
32
102
{ACAD_REACTORS
330
2A
102
}
330
2A
100
AcDbVisualStyle
  2
Basic
 70
     7
 71
     1
 72
     0
 73
     1
 90
        0
 40
-0.6
 41
-30.0
 62
     5
 63
     7
 74
     0
 91
        4
 64
     7
 65
   257
 75
     1
175
     1
 42
1.0
 92
        8
 66
     7
 43
1.0
 76
     1
 77
     6
 78
     2
 67
     7
 79
     5
170
     0
171
     0
290
     0
174
     0
 93
        1
 44
0.0
173
     0
291
     1
 45
0.0
1001
ACAD
1000
AcDbSavedByObjectVersion
1070
     0
  0
VISUALSTYLE
  5
36
102
{ACAD_REACTORS
330
2A
102
}
330
2A
100
AcDbVisualStyle
  2
Brighten
 70
    12
 71
     2
 72
     2
 73
     0
 90
        0
 40
-0.6
 41
-30.0
 62
     5
 63
     7
 74
     1
 91
        4
 64
     7
 65
   257
 75
     1
175
     1
 42
1.0
 92
        8
 66
     7
 43
1.0
 76
     1
 77
     6
 78
     2
 67
     7
 79
     5
170
     0
171
     0
290
     0
174
     0
 93
        1
 44
50.0
173
     0
291
     1
 45
0.0
1001
ACAD
1000
AcDbSavedByObjectVersion
1070
     0
  0
VISUALSTYLE
  5
3A
102
{ACAD_REACTORS
330
2A
102
}
330
2A
100
AcDbVisualStyle
  2
ColorChange
 70
    16
 71
     2
 72
     2
 73
     3
 90
        0
 40
-0.6
 41
-30.0
 62
     5
 63
     8
 74
     1
 91
        4
 64
     7
 65
   257
 75
     1
175
     1
 42
1.0
 92
        8
 66
     8
 43
1.0
 76
     1
 77
     6
 78
     2
 67
     7
 79
     5
170
     0
171
     0
290
     0
174
     0
 93
        1
 44
0.0
173
     0
291
     1
 45
0.0
1001
ACAD
1000
AcDbSavedByObjectVersion
1070
     0
  0
VISUALSTYLE
  5
34
102
{ACAD_REACTORS
330
2A
102
}
330
2A
100
AcDbVisualStyle
  2
Conceptual
 70
     9
 71
     3
 72
     2
 73
     0
 90
        0
 40
-0.6
 41
-30.0
 62
     5
 63
     7
 74
     2
 91
        2
 64
     7
 65
   257
 75
     1
175
     1
 42
40.0
 92
        8
 66
     7
 43
1.0
 76
     1
 77
     6
 78
     2
 67
     7
 79
     3
170
     0
171
     0
290
     0
174
     0
 93
        1
 44
0.0
173
     0
291
     0
 45
0.0
1001
ACAD
1000
AcDbSavedByObjectVersion
1070
     0
  0
VISUALSTYLE
  5
35
102
{ACAD_REACTORS
330
2A
102
}
330
2A
100
AcDbVisualStyle
  2
Dim
 70
    11
 71
     2
 72
     2
 73
     0
 90
        0
 40
-0.6
 41
-30.0
 62
     5
 63
     7
 74
     1
 91
        4
 64
     7
 65
   257
 75
     1
175
     1
 42
1.0
 92
        8
 66
     7
 43
1.0
 76
     1
 77
     6
 78
     2
 67
     7
 79
     5
170
     0
171
     0
290
     0
174
     0
 93
        1
 44
-50.0
173
     0
291
     1
 45
0.0
1001
ACAD
1000
AcDbSavedByObjectVersion
1070
     0
  0
VISUALSTYLE
  5
39
102
{ACAD_REACTORS
330
2A
102
}
330
2A
100
AcDbVisualStyle
  2
Facepattern
 70
    15
 71
     2
 72
     2
 73
     0
 90
        0
 40
-0.6
 41
-30.0
 62
     5
 63
     7
 74
     1
 91
        4
 64
     7
 65
   257
 75
     1
175
     1
 42
1.0
 92
        8
 66
     7
 43
1.0
 76
     1
 77
     6
 78
     2
 67
     7
 79
     5
170
     0
171
     0
290
     0
174
     0
 93
        1
 44
0.0
173
     0
291
     1
 45
0.0
1001
ACAD
1000
AcDbSavedByObjectVersion
1070
     0
  0
VISUALSTYLE
  5
2B
102
{ACAD_REACTORS
330
2A
102
}
330
2A
100
AcDbVisualStyle
  2
Flat
 70
     0
 71
     2
 72
     1
 73
     1
 90
        2
 40
-0.6
 41
30.0
 62
     5
 63
     7
 74
     0
 91
        4
 64
     7
 65
   257
 75
     1
175
     1
 42
1.0
 92
        8
 66
     7
 43
1.0
 76
     1
 77
     6
 78
     2
 67
     7
 79
     5
170
     0
171
     0
290
     0
174
     0
 93
       13
 44
0.0
173
     0
291
     1
 45
0.0
1001
ACAD
1000
AcDbSavedByObjectVersion
1070
     0
  0
VISUALSTYLE
  5
2C
102
{ACAD_REACTORS
330
2A
102
}
330
2A
100
AcDbVisualStyle
  2
FlatWithEdges
 70
     1
 71
     2
 72
     1
 73
     1
 90
        2
 40
-0.6
 41
30.0
 62
     5
 63
     7
 74
     1
 91
        4
 64
     7
 65
   257
 75
     1
175
     1
 42
1.0
 92
        0
 66
   257
 43
1.0
 76
     1
 77
     6
 78
     2
 67
     7
 79
     5
170
     0
171
     0
290
     0
174
     0
 93
       13
 44
0.0
173
     0
291
     1
 45
0.0
1001
ACAD
1000
AcDbSavedByObjectVersion
1070
     0
  0
VISUALSTYLE
  5
2D
102
{ACAD_REACTORS
330
2A
102
}
330
2A
100
AcDbVisualStyle
  2
Gouraud
 70
     2
 71
     2
 72
     2
 73
     1
 90
        2
 40
-0.6
 41
30.0
 62
     5
 63
     7
 74
     0
 91
        4
 64
     7
 65
   257
 75
     1
175
     1
 42
1.0
 92
        0
 66
     7
 43
1.0
 76
     1
 77
     6
 78
     2
 67
     7
 79
     5
170
     0
171
     0
290
     0
174
     0
 93
       13
 44
0.0
173
     0
291
     1
 45
0.0
1001
ACAD
1000
AcDbSavedByObjectVersion
1070
     0
  0
VISUALSTYLE
  5
2E
102
{ACAD_REACTORS
330
2A
102
}
330
2A
100
AcDbVisualStyle
  2
GouraudWithEdges
 70
     3
 71
     2
 72
     2
 73
     1
 90
        2
 40
-0.6
 41
30.0
 62
     5
 63
     7
 74
     1
 91
        4
 64
     7
 65
   257
 75
     1
175
     1
 42
1.0
 92
        0
 66
   257
 43
1.0
 76
     1
 77
     6
 78
     2
 67
     7
 79
     5
170
     0
171
     0
290
     0
174
     0
 93
       13
 44
0.0
173
     0
291
     1
 45
0.0
1001
ACAD
1000
AcDbSavedByObjectVersion
1070
     0
  0
VISUALSTYLE
  5
38
102
{ACAD_REACTORS
330
2A
102
}
330
2A
100
AcDbVisualStyle
  2
Linepattern
 70
    14
 71
     2
 72
     2
 73
     0
 90
        0
 40
-0.6
 41
-30.0
 62
     5
 63
     7
 74
     1
 91
        4
 64
     7
 65
   257
 75
     7
175
     7
 42
1.0
 92
        8
 66
     7
 43
1.0
 76
     1
 77
     6
 78
     2
 67
     7
 79
     5
170
     0
171
     0
290
     0
174
     0
 93
        1
 44
0.0
173
     0
291
     1
 45
0.0
1001
ACAD
1000
AcDbSavedByObjectVersion
1070
     0
  0
VISUALSTYLE
  5
33
102
{ACAD_REACTORS
330
2A
102
}
330
2A
100
AcDbVisualStyle
  2
Realistic
 70
     8
 71
     2
 72
     2
 73
     0
 90
        0
 40
-0.6
 41
-30.0
 62
     5
 63
     7
 74
     1
 91
        0
 64
     7
 65
   257
 75
     1
175
     1
 42
1.0
 92
        8
 66
     8
 43
1.0
 76
     1
 77
     6
 78
     2
 67
     7
 79
     5
170
     0
171
     0
290
     0
174
     0
 93
       13
 44
0.0
173
     0
291
     0
 45
0.0
1001
ACAD
1000
AcDbSavedByObjectVersion
1070
     0
  0
VISUALSTYLE
  5
37
102
{ACAD_REACTORS
330
2A
102
}
330
2A
100
AcDbVisualStyle
  2
Thicken
 70
    13
 71
     2
 72
     2
 73
     0
 90
        0
 40
-0.6
 41
-30.0
 62
     5
 63
     7
 74
     1
 91
        4
 64
     7
 65
   257
 75
     1
175
     1
 42
1.0
 92
       12
 66
     7
 43
1.0
 76
     1
 77
     6
 78
     2
 67
     7
 79
     5
170
     0
171
     0
290
     0
174
     0
 93
        1
 44
0.0
173
     0
291
     1
 45
0.0
1001
ACAD
1000
AcDbSavedByObjectVersion
1070
     0
  0
DICTIONARYVAR
  5
154
102
{ACAD_REACTORS
330
151
102
}
330
151
100
DictionaryVariables
280
     0
  1
1:1
  0
ENDSEC
  0
EOF
