  0
SECTION
  2
HEADER
  9
$ACADVER
  1
AC1015
  9
$ACADMAINTVER
 70
     6
  9
$DWGCODEPAGE
  3
ANSI_1252
  9
$INSBASE
 10
0.0
 20
0.0
 30
0.0
  9
$EXTMIN
 10
60.0909019094976
 20
255.028087606121
 30
0.0
  9
$EXTMAX
 10
205.516295454789
 20
364.228310397335
 30
0.0
  9
$LIMMIN
 10
0.0
 20
0.0
  9
$LIMMAX
 10
12.0
 20
9.0
  9
$ORTHOMODE
 70
     0
  9
$REGENMODE
 70
     1
  9
$FILLMODE
 70
     1
  9
$QTEXTMODE
 70
     0
  9
$MIRRTEXT
 70
     1
  9
$LTSCALE
 40
1.0
  9
$ATTMODE
 70
     1
  9
$TEXTSIZE
 40
0.2
  9
$TRACEWID
 40
0.05
  9
$TEXTSTYLE
  7
Standard
  9
$CLAYER
  8
0
  9
$CELTYPE
  6
ByLayer
  9
$CECOLOR
 62
   256
  9
$CELTSCALE
 40
1.0
  9
$DISPSILH
 70
     0
  9
$DIMSCALE
 40
1.0
  9
$DIMASZ
 40
0.18
  9
$DIMEXO
 40
0.0625
  9
$DIMDLI
 40
0.38
  9
$DIMRND
 40
0.0
  9
$DIMDLE
 40
0.0
  9
$DIMEXE
 40
0.18
  9
$DIMTP
 40
0.0
  9
$DIMTM
 40
0.0
  9
$DIMTXT
 40
0.18
  9
$DIMCEN
 40
0.09
  9
$DIMTSZ
 40
0.0
  9
$DIMTOL
 70
     0
  9
$DIMLIM
 70
     0
  9
$DIMTIH
 70
     1
  9
$DIMTOH
 70
     1
  9
$DIMSE1
 70
     0
  9
$DIMSE2
 70
     0
  9
$DIMTAD
 70
     0
  9
$DIMZIN
 70
     0
  9
$DIMBLK
  1

  9
$DIMASO
 70
     1
  9
$DIMSHO
 70
     1
  9
$DIMPOST
  1

  9
$DIMAPOST
  1

  9
$DIMALT
 70
     0
  9
$DIMALTD
 70
     2
  9
$DIMALTF
 40
25.4
  9
$DIMLFAC
 40
1.0
  9
$DIMTOFL
 70
     0
  9
$DIMTVP
 40
0.0
  9
$DIMTIX
 70
     0
  9
$DIMSOXD
 70
     0
  9
$DIMSAH
 70
     0
  9
$DIMBLK1
  1

  9
$DIMBLK2
  1

  9
$DIMSTYLE
  2
Standard
  9
$DIMCLRD
 70
     0
  9
$DIMCLRE
 70
     0
  9
$DIMCLRT
 70
     0
  9
$DIMTFAC
 40
1.0
  9
$DIMGAP
 40
0.09
  9
$DIMJUST
 70
     0
  9
$DIMSD1
 70
     0
  9
$DIMSD2
 70
     0
  9
$DIMTOLJ
 70
     1
  9
$DIMTZIN
 70
     0
  9
$DIMALTZ
 70
     0
  9
$DIMALTTZ
 70
     0
  9
$DIMUPT
 70
     0
  9
$DIMDEC
 70
     4
  9
$DIMTDEC
 70
     4
  9
$DIMALTU
 70
     2
  9
$DIMALTTD
 70
     2
  9
$DIMTXSTY
  7
Standard
  9
$DIMAUNIT
 70
     0
  9
$DIMADEC
 70
     0
  9
$DIMALTRND
 40
0.0
  9
$DIMAZIN
 70
     0
  9
$DIMDSEP
 70
    46
  9
$DIMATFIT
 70
     3
  9
$DIMFRAC
 70
     0
  9
$DIMLDRBLK
  1

  9
$DIMLUNIT
 70
     2
  9
$DIMLWD
 70
    -2
  9
$DIMLWE
 70
    -2
  9
$DIMTMOVE
 70
     0
  9
$LUNITS
 70
     2
  9
$LUPREC
 70
     4
  9
$SKETCHINC
 40
0.1
  9
$FILLETRAD
 40
0.5
  9
$AUNITS
 70
     0
  9
$AUPREC
 70
     0
  9
$MENU
  1
.
  9
$ELEVATION
 40
0.0
  9
$PELEVATION
 40
0.0
  9
$THICKNESS
 40
0.0
  9
$LIMCHECK
 70
     0
  9
$CHAMFERA
 40
0.5
  9
$CHAMFERB
 40
0.5
  9
$CHAMFERC
 40
1.0
  9
$CHAMFERD
 40
0.0
  9
$SKPOLY
 70
     0
  9
$TDCREATE
 40
2456637.603226782
  9
$TDUCREATE
 40
2456637.561560116
  9
$TDUPDATE
 40
2456637.603226794
  9
$TDUUPDATE
 40
2456637.561560127
  9
$TDINDWG
 40
0.0000000116
  9
$TDUSRTIMER
 40
0.0000000116
  9
$USRTIMER
 70
     1
  9
$ANGBASE
 50
0.0
  9
$ANGDIR
 70
     0
  9
$PDMODE
 70
     0
  9
$PDSIZE
 40
0.0
  9
$PLINEWID
 40
0.0
  9
$SPLFRAME
 70
     0
  9
$SPLINETYPE
 70
     6
  9
$SPLINESEGS
 70
     8
  9
$HANDSEED
  5
159
  9
$SURFTAB1
 70
     6
  9
$SURFTAB2
 70
     6
  9
$SURFTYPE
 70
     6
  9
$SURFU
 70
     6
  9
$SURFV
 70
     6
  9
$UCSBASE
  2

  9
$UCSNAME
  2

  9
$UCSORG
 10
0.0
 20
0.0
 30
0.0
  9
$UCSXDIR
 10
1.0
 20
0.0
 30
0.0
  9
$UCSYDIR
 10
0.0
 20
1.0
 30
0.0
  9
$UCSORTHOREF
  2

  9
$UCSORTHOVIEW
 70
     0
  9
$UCSORGTOP
 10
0.0
 20
0.0
 30
0.0
  9
$UCSORGBOTTOM
 10
0.0
 20
0.0
 30
0.0
  9
$UCSORGLEFT
 10
0.0
 20
0.0
 30
0.0
  9
$UCSORGRIGHT
 10
0.0
 20
0.0
 30
0.0
  9
$UCSORGFRONT
 10
0.0
 20
0.0
 30
0.0
  9
$UCSORGBACK
 10
0.0
 20
0.0
 30
0.0
  9
$PUCSBASE
  2

  9
$PUCSNAME
  2

  9
$PUCSORG
 10
0.0
 20
0.0
 30
0.0
  9
$PUCSXDIR
 10
1.0
 20
0.0
 30
0.0
  9
$PUCSYDIR
 10
0.0
 20
1.0
 30
0.0
  9
$PUCSORTHOREF
  2

  9
$PUCSORTHOVIEW
 70
     0
  9
$PUCSORGTOP
 10
0.0
 20
0.0
 30
0.0
  9
$PUCSORGBOTTOM
 10
0.0
 20
0.0
 30
0.0
  9
$PUCSORGLEFT
 10
0.0
 20
0.0
 30
0.0
  9
$PUCSORGRIGHT
 10
0.0
 20
0.0
 30
0.0
  9
$PUCSORGFRONT
 10
0.0
 20
0.0
 30
0.0
  9
$PUCSORGBACK
 10
0.0
 20
0.0
 30
0.0
  9
$USERI1
 70
     0
  9
$USERI2
 70
     0
  9
$USERI3
 70
     0
  9
$USERI4
 70
     0
  9
$USERI5
 70
     0
  9
$USERR1
 40
16.5
  9
$USERR2
 40
0.0
  9
$USERR3
 40
0.0
  9
$USERR4
 40
0.0
  9
$USERR5
 40
0.0
  9
$WORLDVIEW
 70
     1
  9
$SHADEDGE
 70
     3
  9
$SHADEDIF
 70
    70
  9
$TILEMODE
 70
     1
  9
$MAXACTVP
 70
    64
  9
$PINSBASE
 10
0.0
 20
0.0
 30
0.0
  9
$PLIMCHECK
 70
     0
  9
$PEXTMIN
 10
1.00000000000000E+20
 20
1.00000000000000E+20
 30
1.00000000000000E+20
  9
$PEXTMAX
 10
-1.00000000000000E+20
 20
-1.00000000000000E+20
 30
-1.00000000000000E+20
  9
$PLIMMIN
 10
0.0
 20
0.0
  9
$PLIMMAX
 10
12.0
 20
9.0
  9
$UNITMODE
 70
     0
  9
$VISRETAIN
 70
     1
  9
$PLINEGEN
 70
     0
  9
$PSLTSCALE
 70
     1
  9
$TREEDEPTH
 70
  3020
  9
$CMLSTYLE
  2
Standard
  9
$CMLJUST
 70
     0
  9
$CMLSCALE
 40
1.0
  9
$PROXYGRAPHICS
 70
     1
  9
$MEASUREMENT
 70
     1
  9
$CELWEIGHT
370
    -1
  9
$ENDCAPS
280
     0
  9
$JOINSTYLE
280
     0
  9
$LWDISPLAY
290
     0
  9
$INSUNITS
 70
     1
  9
$HYPERLINKBASE
  1

  9
$STYLESHEET
  1

  9
$XEDIT
290
     1
  9
$CEPSNTYPE
380
     0
  9
$PSTYLEMODE
290
     1
  9
$FINGERPRINTGUID
  2
{63E5E06E-3645-4059-B8AC-D740ED0F166B}
  9
$VERSIONGUID
  2
{FAEB1C32-E019-11D5-929B-00C0DF256EC4}
  9
$EXTNAMES
290
     1
  9
$PSVPSCALE
 40
0.0
  9
$OLESTARTUP
290
     0
  0
ENDSEC
  0
SECTION
  2
CLASSES
  0
CLASS
  1
ACDBDICTIONARYWDFLT
  2
AcDbDictionaryWithDefault
  3
ObjectDBX Classes
 90
        0
280
     0
281
     0
  0
CLASS
  1
VISUALSTYLE
  2
AcDbVisualStyle
  3
ObjectDBX Classes
 90
     4095
280
     0
281
     0
  0
CLASS
  1
SCALE
  2
AcDbScale
  3
ObjectDBX Classes
 90
     1153
280
     0
281
     0
  0
CLASS
  1

  2
exOdDbPolyline
  3

 90
        0
280
     0
281
     1
  0
CLASS
  1

  2
exOdDbCircle
  3

 90
        0
280
     0
281
     1
  0
CLASS
  1

  2
exOdDbSpline
  3

 90
        0
280
     0
281
     1
  0
CLASS
  1
DICTIONARYVAR
  2
AcDbDictionaryVar
  3
ObjectDBX Classes
 90
        0
280
     0
281
     0
  0
CLASS
  1
ACDBPLACEHOLDER
  2
AcDbPlaceHolder
  3
ObjectDBX Classes
 90
        0
280
     0
281
     0
  0
CLASS
  1
LAYOUT
  2
AcDbLayout
  3
ObjectDBX Classes
 90
        0
280
     0
281
     0
  0
ENDSEC
  0
SECTION
  2
TABLES
  0
TABLE
  2
VPORT
  5
8
330
0
100
AcDbSymbolTable
 70
     1
  0
VPORT
  5
29
330
8
100
AcDbSymbolTableRecord
100
AcDbViewportTableRecord
  2
*Active
 70
     0
 10
0.0
 20
0.0
 11
1.0
 21
1.0
 12
132.8035986821433
 22
309.628199001728
 13
0.0
 23
0.0
 14
0.5
 24
0.5
 15
0.5
 25
0.5
 16
0.0
 26
0.0
 36
1.0
 17
0.0
 27
0.0
 37
0.0
 40
120.1202450703354
 41
1.60267857142857
 42
50.0
 43
0.0
 44
0.0
 50
0.0
 51
0.0
 71
     0
 72
   100
 73
     1
 74
     3
 75
     0
 76
     0
 77
     0
 78
     0
281
     0
 65
     1
110
0.0
120
0.0
130
0.0
111
1.0
121
0.0
131
0.0
112
0.0
122
1.0
132
0.0
 79
     0
146
0.0
  0
ENDTAB
  0
TABLE
  2
LTYPE
  5
5
330
0
100
AcDbSymbolTable
 70
     8
  0
LTYPE
  5
14
330
5
100
AcDbSymbolTableRecord
100
AcDbLinetypeTableRecord
  2
ByBlock
 70
     0
  3

 72
    65
 73
     0
 40
0.0
  0
LTYPE
  5
15
330
5
100
AcDbSymbolTableRecord
100
AcDbLinetypeTableRecord
  2
ByLayer
 70
     0
  3

 72
    65
 73
     0
 40
0.0
  0
LTYPE
  5
16
330
5
100
AcDbSymbolTableRecord
100
AcDbLinetypeTableRecord
  2
Continuous
 70
     0
  3
Solid line
 72
    65
 73
     0
 40
0.0
  0
LTYPE
  5
3B
330
5
100
AcDbSymbolTableRecord
100
AcDbLinetypeTableRecord
  2
DASHED
 70
     0
  3
Dashed
 72
    65
 73
     2
 40
15.0
 49
7.0
 74
     0
 49
-8.0
 74
     0
  0
LTYPE
  5
3C
330
5
100
AcDbSymbolTableRecord
100
AcDbLinetypeTableRecord
  2
DOTTED
 70
     0
  3
Dotted
 72
    65
 73
     2
 40
1.0
 49
0.0
 74
     0
 49
-1.0
 74
     0
  0
LTYPE
  5
3D
330
5
100
AcDbSymbolTableRecord
100
AcDbLinetypeTableRecord
  2
DOT_CENTER
 70
     0
  3
Dot_Center
 72
    65
 73
     4
 40
14.0
 49
12.0
 74
     0
 49
-1.0
 74
     0
 49
0.0
 74
     0
 49
-1.0
 74
     0
  0
LTYPE
  5
3E
330
5
100
AcDbSymbolTableRecord
100
AcDbLinetypeTableRecord
  2
LONG_DASHED
 70
     0
  3
Long_Dashed
 72
    65
 73
     2
 40
15.0
 49
10.0
 74
     0
 49
-5.0
 74
     0
  0
LTYPE
  5
3F
330
5
100
AcDbSymbolTableRecord
100
AcDbLinetypeTableRecord
  2
DASH_CENTER
 70
     0
  3
Dash_Center
 72
    65
 73
     4
 40
14.0
 49
11.0
 74
     0
 49
-1.0
 74
     0
 49
1.0
 74
     0
 49
-1.0
 74
     0
  0
LTYPE
  5
40
330
5
100
AcDbSymbolTableRecord
100
AcDbLinetypeTableRecord
  2
PHANTOM
 70
     0
  3
Phantom
 72
    65
 73
     6
 40
13.0
 49
10.0
 74
     0
 49
-1.0
 74
     0
 49
0.0
 74
     0
 49
-1.0
 74
     0
 49
0.0
 74
     0
 49
-1.0
 74
     0
  0
LTYPE
  5
41
330
5
100
AcDbSymbolTableRecord
100
AcDbLinetypeTableRecord
  2
CENTER_DASH_DASH
 70
     0
  3
Center_Dash_Dash
 72
    65
 73
     6
 40
14.0
 49
9.0
 74
     0
 49
-1.0
 74
     0
 49
1.0
 74
     0
 49
-1.0
 74
     0
 49
1.0
 74
     0
 49
-1.0
 74
     0
  0
ENDTAB
  0
TABLE
  2
LAYER
  5
2
330
0
100
AcDbSymbolTable
 70
     6
  0
LAYER
  5
10
330
2
100
AcDbSymbolTableRecord
100
AcDbLayerTableRecord
  2
0
 70
     0
 62
     7
  6
Continuous
370
    -3
390
F
  0
LAYER
  5
42
330
2
100
AcDbSymbolTableRecord
100
AcDbLayerTableRecord
  2
1
 70
     0
 62
     7
  6
Continuous
370
    -3
390
F
  0
LAYER
  5
43
330
2
100
AcDbSymbolTableRecord
100
AcDbLayerTableRecord
  2
BEZUGSACHSEN
 70
     0
 62
     7
  6
Continuous
370
    -3
390
F
  0
LAYER
  5
44
330
2
100
AcDbSymbolTableRecord
100
AcDbLayerTableRecord
  2
FASEN
 70
     0
 62
     7
  6
Continuous
370
    -3
390
F
  0
LAYER
  5
45
330
2
100
AcDbSymbolTableRecord
100
AcDbLayerTableRecord
  2
RUNDUNGEN
 70
     0
 62
     7
  6
Continuous
370
    -3
390
F
  0
LAYER
  5
46
330
2
100
AcDbSymbolTableRecord
100
AcDbLayerTableRecord
  2
VERERBUNG
 70
     0
 62
     7
  6
Continuous
370
    -3
390
F
  0
ENDTAB
  0
TABLE
  2
STYLE
  5
3
330
0
100
AcDbSymbolTable
 70
     2
  0
STYLE
  5
11
330
3
100
AcDbSymbolTableRecord
100
AcDbTextStyleTableRecord
  2
Standard
 70
     0
 40
0.0
 41
1.0
 50
0.0
 71
     0
 42
0.2
  3
txt
  4

  0
STYLE
  5
6D
330
3
100
AcDbSymbolTableRecord
100
AcDbTextStyleTableRecord
  2
CONVERTER_11
 70
     0
 40
0.0
 41
0.72
 50
0.0
 71
     0
 42
0.2
  3
txt.shx
  4

  0
ENDTAB
  0
TABLE
  2
VIEW
  5
6
330
0
100
AcDbSymbolTable
 70
     0
  0
ENDTAB
  0
TABLE
  2
UCS
  5
7
330
0
100
AcDbSymbolTable
 70
     0
  0
ENDTAB
  0
TABLE
  2
APPID
  5
9
330
0
100
AcDbSymbolTable
 70
     1
  0
APPID
  5
12
330
9
100
AcDbSymbolTableRecord
100
AcDbRegAppTableRecord
  2
ACAD
 70
     0
  0
ENDTAB
  0
TABLE
  2
DIMSTYLE
  5
A
330
0
100
AcDbSymbolTable
 70
     8
100
AcDbDimStyleTable
  0
DIMSTYLE
105
27
330
A
100
AcDbSymbolTableRecord
100
AcDbDimStyleTableRecord
  2
Standard
 70
     0
340
11
  0
DIMSTYLE
105
10A
102
{ACAD_REACTORS
330
10B
102
}
330
A
100
AcDbSymbolTableRecord
100
AcDbDimStyleTableRecord
  2
ME10_DIM_10
 70
     0
  3
\U+2300<>
 41
3.5
 42
2.0
 44
2.0
 71
     1
 73
     0
 74
     0
 77
     1
 78
     8
140
3.5
146
0.7
147
2.0
172
     1
173
     1
176
     2
177
     2
178
     3
271
     2
272
     0
340
6D
  0
DIMSTYLE
105
115
102
{ACAD_REACTORS
330
116
102
}
330
A
100
AcDbSymbolTableRecord
100
AcDbDimStyleTableRecord
  2
ME10_DIM_11
 70
     0
  3
\U+2300<>
 41
3.5
 42
2.0
 44
2.0
 71
     1
 73
     0
 74
     0
 77
     1
 78
     8
140
3.5
146
0.7
147
2.0
172
     1
173
     1
176
     2
177
     2
178
     3
271
     2
272
     0
340
6D
  0
DIMSTYLE
105
120
102
{ACAD_REACTORS
330
121
102
}
330
A
100
AcDbSymbolTableRecord
100
AcDbDimStyleTableRecord
  2
ME10_DIM_12
 70
     0
  3
<>
 41
3.5
 42
2.0
 44
2.0
 71
     1
 73
     0
 74
     0
 77
     1
 78
     8
140
3.5
146
0.7
147
2.0
172
     1
173
     1
176
     2
177
     2
178
     3
271
     2
272
     0
340
6D
  0
DIMSTYLE
105
12B
102
{ACAD_REACTORS
330
12C
102
}
330
A
100
AcDbSymbolTableRecord
100
AcDbDimStyleTableRecord
  2
ME10_DIM_13
 70
     0
  3
<>
 41
3.5
 42
2.0
 44
2.0
 71
     1
 73
     0
 74
     0
 77
     1
 78
     8
140
3.5
146
0.7
147
2.0
172
     1
173
     1
176
     2
177
     2
178
     3
271
     2
272
     0
340
6D
  0
DIMSTYLE
105
136
102
{ACAD_REACTORS
330
137
102
}
330
A
100
AcDbSymbolTableRecord
100
AcDbDimStyleTableRecord
  2
ME10_DIM_14
 70
     0
  3
<>
 41
3.5
 42
2.0
 44
2.0
 71
     1
 73
     0
 74
     0
 77
     1
 78
     8
140
3.5
146
0.7
147
2.0
172
     1
173
     1
176
     2
177
     2
178
     3
271
     2
272
     0
340
6D
  0
DIMSTYLE
105
141
102
{ACAD_REACTORS
330
142
102
}
330
A
100
AcDbSymbolTableRecord
100
AcDbDimStyleTableRecord
  2
ME10_DIM_15
 70
     0
  3
<>
 41
3.5
 42
2.0
 44
2.0
 71
     1
 73
     0
 74
     0
 77
     1
 78
     8
140
3.5
146
0.7
147
2.0
172
     1
173
     1
176
     2
177
     2
178
     3
271
     2
272
     0
340
6D
  0
DIMSTYLE
105
14C
102
{ACAD_REACTORS
330
14D
102
}
330
A
100
AcDbSymbolTableRecord
100
AcDbDimStyleTableRecord
  2
ME10_DIM_16
 70
     0
  3
<>
 41
3.5
 42
2.0
 44
2.0
 71
     1
 73
     0
 74
     0
 77
     1
 78
     8
140
3.5
146
0.7
147
2.0
172
     1
173
     1
176
     2
177
     2
178
     3
271
     2
272
     0
340
6D
  0
ENDTAB
  0
TABLE
  2
BLOCK_RECORD
  5
1
330
0
100
AcDbSymbolTable
 70
    10
  0
BLOCK_RECORD
  5
1F
330
1
100
AcDbSymbolTableRecord
100
AcDbBlockTableRecord
  2
*Model_Space
340
22
  0
BLOCK_RECORD
  5
1B
330
1
100
AcDbSymbolTableRecord
100
AcDbBlockTableRecord
  2
*Paper_Space
340
1E
  0
BLOCK_RECORD
  5
23
330
1
100
AcDbSymbolTableRecord
100
AcDbBlockTableRecord
  2
*Paper_Space0
340
26
  0
BLOCK_RECORD
  5
47
330
1
100
AcDbSymbolTableRecord
100
AcDbBlockTableRecord
  2
Urheberrecht_DE-EN
340
0
102
{BLKREFS
331
6C
102
}
  0
BLOCK_RECORD
  5
101
330
1
100
AcDbSymbolTableRecord
100
AcDbBlockTableRecord
  2
*D2
340
0
  0
BLOCK_RECORD
  5
10C
330
1
100
AcDbSymbolTableRecord
100
AcDbBlockTableRecord
  2
*D3
340
0
  0
BLOCK_RECORD
  5
117
330
1
100
AcDbSymbolTableRecord
100
AcDbBlockTableRecord
  2
*D4
340
0
  0
BLOCK_RECORD
  5
122
330
1
100
AcDbSymbolTableRecord
100
AcDbBlockTableRecord
  2
*D5
340
0
  0
BLOCK_RECORD
  5
12D
330
1
100
AcDbSymbolTableRecord
100
AcDbBlockTableRecord
  2
*D6
340
0
  0
BLOCK_RECORD
  5
138
330
1
100
AcDbSymbolTableRecord
100
AcDbBlockTableRecord
  2
*D7
340
0
  0
BLOCK_RECORD
  5
143
330
1
100
AcDbSymbolTableRecord
100
AcDbBlockTableRecord
  2
*D8
340
0
  0
BLOCK_RECORD
  5
14E
330
1
100
AcDbSymbolTableRecord
100
AcDbBlockTableRecord
  2
*D9
340
0
102
{BLKREFS
331
154
102
}
  0
ENDTAB
  0
ENDSEC
  0
SECTION
  2
BLOCKS
  0
BLOCK
  5
20
330
1F
100
AcDbEntity
  8
0
100
AcDbBlockBegin
  2
*Model_Space
 70
     0
 10
0.0
 20
0.0
 30
0.0
  3
*Model_Space
  1

  0
ENDBLK
  5
21
330
1F
100
AcDbEntity
  8
0
100
AcDbBlockEnd
  0
BLOCK
  5
1C
330
1B
100
AcDbEntity
 67
     1
  8
0
100
AcDbBlockBegin
  2
*Paper_Space
 70
     0
 10
0.0
 20
0.0
 30
0.0
  3
*Paper_Space
  1

  0
ENDBLK
  5
1D
330
1B
100
AcDbEntity
 67
     1
  8
0
100
AcDbBlockEnd
  0
BLOCK
  5
24
330
23
100
AcDbEntity
  8
0
100
AcDbBlockBegin
  2
*Paper_Space0
 70
     0
 10
0.0
 20
0.0
 30
0.0
  3
*Paper_Space0
  1

  0
ENDBLK
  5
25
330
23
100
AcDbEntity
  8
0
100
AcDbBlockEnd
  0
BLOCK
  5
48
330
47
100
AcDbEntity
  8
0
100
AcDbBlockBegin
  2
Urheberrecht_DE-EN
 70
     0
 10
74.0909019094976
 20
311.748310397335
 30
0.0
  3
Urheberrecht_DE-EN
  1

  0
MTEXT
  5
6E
330
47
100
AcDbEntity
  8
1
 62
     1
100
AcDbMText
 10
74.0909019094976
 20
311.748310397335
 30
0.0
 40
2.0
 41
0.0
 71
     7
 72
     1
  1
We own the copyright of this document. It \Pdetermined and may neither be copied or \Pmade accessible to outsiders without our\Ppermission.
  7
CONVERTER_11
 11
0.0
 21
1.0
 31
0.0
 73
     1
 44
0.90036014405762
  0
MTEXT
  5
6F
330
47
100
AcDbEntity
  8
1
 62
     1
100
AcDbMText
 10
74.0909019094976
 20
255.4589234800288
 30
0.0
 40
2.0
 41
0.0
 71
     7
 72
     1
  1
F\U+00fcr diese Unterlage behalten wir das Ur-\Pheberrecht. Sie darf nur f\U+00fcr den von uns \Pbestimmten Zweck benutzt und ohne unsere \PZustimmung weder vervielf\U+00e4ltigt noch\PDritten zug\U+00e4nglich gemacht werden.
  7
CONVERTER_11
 11
0.0
 21
1.0
 31
0.0
 73
     1
 44
0.90036014405762
  0
ENDBLK
  5
49
330
47
100
AcDbEntity
  8
0
100
AcDbBlockEnd
  0
BLOCK
  5
108
330
101
100
AcDbEntity
  8
0
100
AcDbBlockBegin
  2
*D2
 70
     1
 10
0.0
 20
0.0
 30
0.0
  3
*D2
  1

  0
LINE
  5
102
330
101
100
AcDbEntity
  8
1
  6
Continuous
 62
     2
100
AcDbLine
 10
196.090447506343
 20
308.5949909044
 30
0.0
 11
196.090447506343
 21
286.5949909044
 31
0.0
  0
LINE
  5
103
330
101
100
AcDbEntity
  8
1
  6
Continuous
 62
     2
100
AcDbLine
 10
185.9334069647
 20
308.5949909044
 30
0.0
 11
198.090447506343
 21
308.5949909044
 31
0.0
  0
LINE
  5
104
330
101
100
AcDbEntity
  8
1
  6
Continuous
 62
     2
100
AcDbLine
 10
185.9334069647
 20
286.5949909044
 30
0.0
 11
198.090447506343
 21
286.5949909044
 31
0.0
  0
SOLID
  5
105
330
101
100
AcDbEntity
  8
1
 62
     2
100
AcDbTrace
 10
196.5512312478989
 20
305.0949909044
 30
0.0
 11
195.6296637647871
 21
305.0949909044
 31
0.0
 12
196.090447506343
 22
308.5949909044
 32
0.0
 13
196.090447506343
 23
308.5949909044
 33
0.0
  0
SOLID
  5
106
330
101
100
AcDbEntity
  8
1
 62
     2
100
AcDbTrace
 10
195.6296637647871
 20
290.0949909044
 30
0.0
 11
196.5512312478989
 21
290.0949909044
 31
0.0
 12
196.090447506343
 22
286.5949909044
 32
0.0
 13
196.090447506343
 23
286.5949909044
 33
0.0
  0
MTEXT
  5
107
330
101
100
AcDbEntity
  8
1
 62
     3
100
AcDbMText
 10
194.090447506343
 20
288.364776776005
 30
0.0
 40
3.5
 41
0.0
 71
     7
 72
     1
  1
\C3;%%c\C3;\C3;22\C2;\H2.45;\S^ ;\C3;
  7
CONVERTER_11
 11
0.0
 21
1.0
 31
0.0
 73
     1
 44
0.60024009603842
  0
ENDBLK
  5
109
330
101
100
AcDbEntity
  8
0
100
AcDbBlockEnd
  0
BLOCK
  5
113
330
10C
100
AcDbEntity
  8
0
100
AcDbBlockBegin
  2
*D3
 70
     1
 10
0.0
 20
0.0
 30
0.0
  3
*D3
  1

  0
LINE
  5
10D
330
10C
100
AcDbEntity
  8
1
  6
Continuous
 62
     2
100
AcDbLine
 10
203.516295454789
 20
321.5949909044
 30
0.0
 11
203.516295454789
 21
273.5949909044
 31
0.0
  0
LINE
  5
10E
330
10C
100
AcDbEntity
  8
1
  6
Continuous
 62
     2
100
AcDbLine
 10
166.9334069647
 20
321.5949909044
 30
0.0
 11
205.516295454789
 21
321.5949909044
 31
0.0
  0
LINE
  5
10F
330
10C
100
AcDbEntity
  8
1
  6
Continuous
 62
     2
100
AcDbLine
 10
166.9334069647
 20
273.5949909044
 30
0.0
 11
205.516295454789
 21
273.5949909044
 31
0.0
  0
SOLID
  5
110
330
10C
100
AcDbEntity
  8
1
 62
     2
100
AcDbTrace
 10
203.9770791963449
 20
318.0949909044
 30
0.0
 11
203.0555117132331
 21
318.0949909044
 31
0.0
 12
203.516295454789
 22
321.5949909044
 32
0.0
 13
203.516295454789
 23
321.5949909044
 33
0.0
  0
SOLID
  5
111
330
10C
100
AcDbEntity
  8
1
 62
     2
100
AcDbTrace
 10
203.0555117132331
 20
277.0949909044
 30
0.0
 11
203.9770791963449
 21
277.0949909044
 31
0.0
 12
203.516295454789
 22
273.5949909044
 32
0.0
 13
203.516295454789
 23
273.5949909044
 33
0.0
  0
MTEXT
  5
112
330
10C
100
AcDbEntity
  8
1
 62
     3
100
AcDbMText
 10
201.516295454789
 20
289.114862427363
 30
0.0
 40
3.5
 41
0.0
 71
     7
 72
     1
  1
\C3;%%c\C3;\C3;48\C2;\H2.45;\S^ ;\C3;
  7
CONVERTER_11
 11
0.0
 21
1.0
 31
0.0
 73
     1
 44
0.60024009603842
  0
ENDBLK
  5
114
330
10C
100
AcDbEntity
  8
0
100
AcDbBlockEnd
  0
BLOCK
  5
11E
330
117
100
AcDbEntity
  8
0
100
AcDbBlockBegin
  2
*D4
 70
     1
 10
0.0
 20
0.0
 30
0.0
  3
*D4
  1

  0
LINE
  5
118
330
117
100
AcDbEntity
  8
1
  6
Continuous
 62
     2
100
AcDbLine
 10
184.9334069647
 20
331.723716738481
 30
0.0
 11
165.9334069647
 21
331.723716738481
 31
0.0
  0
LINE
  5
119
330
117
100
AcDbEntity
  8
1
  6
Continuous
 62
     2
100
AcDbLine
 10
184.9334069647
 20
309.5949909044
 30
0.0
 11
184.9334069647
 21
333.723716738481
 31
0.0
  0
LINE
  5
11A
330
117
100
AcDbEntity
  8
1
  6
Continuous
 62
     2
100
AcDbLine
 10
165.9334069647
 20
322.5949909044
 30
0.0
 11
165.9334069647
 21
333.723716738481
 31
0.0
  0
SOLID
  5
11B
330
117
100
AcDbEntity
  8
1
 62
     2
100
AcDbTrace
 10
181.4334069647
 20
331.2629329969251
 30
0.0
 11
181.4334069647
 21
332.1845004800369
 31
0.0
 12
184.9334069647
 22
331.723716738481
 32
0.0
 13
184.9334069647
 23
331.723716738481
 33
0.0
  0
SOLID
  5
11C
330
117
100
AcDbEntity
  8
1
 62
     2
100
AcDbTrace
 10
169.4334069647
 20
332.1845004800369
 30
0.0
 11
169.4334069647
 21
331.2629329969251
 31
0.0
 12
165.9334069647
 22
331.723716738481
 32
0.0
 13
165.9334069647
 23
331.723716738481
 33
0.0
  0
MTEXT
  5
11D
330
117
100
AcDbEntity
  8
1
 62
     3
100
AcDbMText
 10
173.408049268314
 20
333.723716738481
 30
0.0
 40
3.5
 41
0.0
 71
     7
 72
     1
  1
\C3;\C3;\C3;19\C2;\H2.45;\S^ ;\C3;
  7
CONVERTER_11
 11
0.9999999999970619
 21
2.424068405545306E-6
 31
0.0
 73
     1
 44
0.60024009603842
  0
ENDBLK
  5
11F
330
117
100
AcDbEntity
  8
0
100
AcDbBlockEnd
  0
BLOCK
  5
129
330
122
100
AcDbEntity
  8
0
100
AcDbBlockBegin
  2
*D5
 70
     1
 10
0.0
 20
0.0
 30
0.0
  3
*D5
  1

  0
LINE
  5
123
330
122
100
AcDbEntity
  8
1
  6
Continuous
 62
     2
100
AcDbLine
 10
184.9334069647
 20
339.299581817199
 30
0.0
 11
141.9334069647
 21
339.299581817199
 31
0.0
  0
LINE
  5
124
330
122
100
AcDbEntity
  8
1
  6
Continuous
 62
     2
100
AcDbLine
 10
184.9334069647
 20
309.5949909044
 30
0.0
 11
184.9334069647
 21
341.299581817199
 31
0.0
  0
LINE
  5
125
330
122
100
AcDbEntity
  8
1
  6
Continuous
 62
     2
100
AcDbLine
 10
141.9334069647
 20
331.0949419988
 30
0.0
 11
141.9334069647
 21
341.299581817199
 31
0.0
  0
SOLID
  5
126
330
122
100
AcDbEntity
  8
1
 62
     2
100
AcDbTrace
 10
181.4334069647
 20
338.8387980756431
 30
0.0
 11
181.4334069647
 21
339.7603655587549
 31
0.0
 12
184.9334069647
 22
339.299581817199
 32
0.0
 13
184.9334069647
 23
339.299581817199
 33
0.0
  0
SOLID
  5
127
330
122
100
AcDbEntity
  8
1
 62
     2
100
AcDbTrace
 10
145.4334069647
 20
339.7603655587549
 30
0.0
 11
145.4334069647
 21
338.8387980756431
 31
0.0
 12
141.9334069647
 22
339.299581817199
 32
0.0
 13
141.9334069647
 23
339.299581817199
 33
0.0
  0
MTEXT
  5
128
330
122
100
AcDbEntity
  8
1
 62
     3
100
AcDbMText
 10
160.911670281447
 20
341.299581817199
 30
0.0
 40
3.5
 41
0.0
 71
     7
 72
     1
  1
\C3;\C3;\C3;43\C2;\H2.45;\S^ ;\C3;
  7
CONVERTER_11
 11
0.9999999999970619
 21
2.424068405545306E-6
 31
0.0
 73
     1
 44
0.60024009603842
  0
ENDBLK
  5
12A
330
122
100
AcDbEntity
  8
0
100
AcDbBlockEnd
  0
BLOCK
  5
134
330
12D
100
AcDbEntity
  8
0
100
AcDbBlockBegin
  2
*D6
 70
     1
 10
0.0
 20
0.0
 30
0.0
  3
*D6
  1

  0
LINE
  5
12E
330
12D
100
AcDbEntity
  8
1
  6
Continuous
 62
     2
100
AcDbLine
 10
184.9334069647
 20
347.415207206045
 30
0.0
 11
115.9334069647
 21
347.415207206045
 31
0.0
  0
LINE
  5
12F
330
12D
100
AcDbEntity
  8
1
  6
Continuous
 62
     2
100
AcDbLine
 10
184.9334069647
 20
309.5949909044
 30
0.0
 11
184.9334069647
 21
349.415207206045
 31
0.0
  0
LINE
  5
130
330
12D
100
AcDbEntity
  8
1
  6
Continuous
 62
     2
100
AcDbLine
 10
115.9334069647
 20
331.0949909044
 30
0.0
 11
115.9334069647
 21
349.415207206045
 31
0.0
  0
SOLID
  5
131
330
12D
100
AcDbEntity
  8
1
 62
     2
100
AcDbTrace
 10
181.4334069647
 20
346.9544234644891
 30
0.0
 11
181.4334069647
 21
347.8759909476009
 31
0.0
 12
184.9334069647
 22
347.415207206045
 32
0.0
 13
184.9334069647
 23
347.415207206045
 33
0.0
  0
SOLID
  5
132
330
12D
100
AcDbEntity
  8
1
 62
     2
100
AcDbTrace
 10
119.4334069647
 20
347.8759909476009
 30
0.0
 11
119.4334069647
 21
346.9544234644891
 31
0.0
 12
115.9334069647
 22
347.415207206045
 32
0.0
 13
115.9334069647
 23
347.415207206045
 33
0.0
  0
MTEXT
  5
133
330
12D
100
AcDbEntity
  8
1
 62
     3
100
AcDbMText
 10
148.90127874131
 20
349.415207206045
 30
0.0
 40
3.5
 41
0.0
 71
     7
 72
     1
  1
\C3;\C3;\C3;69\C2;\H2.45;\S^ ;\C3;
  7
CONVERTER_11
 11
0.9999999999970619
 21
2.424068405545306E-6
 31
0.0
 73
     1
 44
0.60024009603842
  0
ENDBLK
  5
135
330
12D
100
AcDbEntity
  8
0
100
AcDbBlockEnd
  0
BLOCK
  5
13F
330
138
100
AcDbEntity
  8
0
100
AcDbBlockBegin
  2
*D7
 70
     1
 10
0.0
 20
0.0
 30
0.0
  3
*D7
  1

  0
LINE
  5
139
330
138
100
AcDbEntity
  8
1
  6
Continuous
 62
     2
100
AcDbLine
 10
184.9334069647
 20
355.1991879428
 30
0.0
 11
83.9334069647
 21
355.1991879428
 31
0.0
  0
LINE
  5
13A
330
138
100
AcDbEntity
  8
1
  6
Continuous
 62
     2
100
AcDbLine
 10
184.9334069647
 20
309.5949909044
 30
0.0
 11
184.9334069647
 21
357.1991879428
 31
0.0
  0
LINE
  5
13B
330
138
100
AcDbEntity
  8
1
  6
Continuous
 62
     2
100
AcDbLine
 10
83.9334069647
 20
321.1710180845
 30
0.0
 11
83.9334069647
 21
357.1991879428
 31
0.0
  0
SOLID
  5
13C
330
138
100
AcDbEntity
  8
1
 62
     2
100
AcDbTrace
 10
181.4334069647
 20
354.7384042012441
 30
0.0
 11
181.4334069647
 21
355.6599716843559
 31
0.0
 12
184.9334069647
 22
355.1991879428
 32
0.0
 13
184.9334069647
 23
355.1991879428
 33
0.0
  0
SOLID
  5
13D
330
138
100
AcDbEntity
  8
1
 62
     2
100
AcDbTrace
 10
87.4334069647
 20
355.6599716843559
 30
0.0
 11
87.4334069647
 21
354.7384042012441
 31
0.0
 12
83.9334069647
 22
355.1991879428
 32
0.0
 13
83.9334069647
 23
355.1991879428
 33
0.0
  0
MTEXT
  5
13E
330
138
100
AcDbEntity
  8
1
 62
     3
100
AcDbMText
 10
136.398681776795
 20
357.1991879428
 30
0.0
 40
3.5
 41
0.0
 71
     7
 72
     1
  1
\C3;\C3;\C3;101\C2;\H2.45;\S^ ;\C3;
  7
CONVERTER_11
 11
0.9999999999970619
 21
2.424068405545306E-6
 31
0.0
 73
     1
 44
0.60024009603842
  0
ENDBLK
  5
140
330
138
100
AcDbEntity
  8
0
100
AcDbBlockEnd
  0
BLOCK
  5
14A
330
143
100
AcDbEntity
  8
0
100
AcDbBlockBegin
  2
*D8
 70
     1
 10
0.0
 20
0.0
 30
0.0
  3
*D8
  1

  0
LINE
  5
144
330
143
100
AcDbEntity
  8
1
  6
Continuous
 62
     2
100
AcDbLine
 10
115.9334069647
 20
257.028087606121
 30
0.0
 11
165.9334069647
 21
257.028087606121
 31
0.0
  0
LINE
  5
145
330
143
100
AcDbEntity
  8
1
  6
Continuous
 62
     2
100
AcDbLine
 10
115.9334069647
 20
264.0949909044
 30
0.0
 11
115.9334069647
 21
255.028087606121
 31
0.0
  0
LINE
  5
146
330
143
100
AcDbEntity
  8
1
  6
Continuous
 62
     2
100
AcDbLine
 10
165.9334069647
 20
272.5949909044
 30
0.0
 11
165.9334069647
 21
255.028087606121
 31
0.0
  0
SOLID
  5
147
330
143
100
AcDbEntity
  8
1
 62
     2
100
AcDbTrace
 10
119.4334069647
 20
257.4888713476769
 30
0.0
 11
119.4334069647
 21
256.5673038645651
 31
0.0
 12
115.9334069647
 22
257.028087606121
 32
0.0
 13
115.9334069647
 23
257.028087606121
 33
0.0
  0
SOLID
  5
148
330
143
100
AcDbEntity
  8
1
 62
     2
100
AcDbTrace
 10
162.4334069647
 20
256.5673038645651
 30
0.0
 11
162.4334069647
 21
257.4888713476769
 31
0.0
 12
165.9334069647
 22
257.028087606121
 32
0.0
 13
165.9334069647
 23
257.028087606121
 33
0.0
  0
MTEXT
  5
149
330
143
100
AcDbEntity
  8
1
 62
     3
100
AcDbMText
 10
139.142258116125
 20
259.028087606121
 30
0.0
 40
3.5
 41
0.0
 71
     7
 72
     1
  1
\C3;\C3;\C3;50\C2;\H2.45;\S^ ;\C3;
  7
CONVERTER_11
 11
0.9999999999970619
 21
2.424068405545306E-6
 31
0.0
 73
     1
 44
0.60024009603842
  0
ENDBLK
  5
14B
330
143
100
AcDbEntity
  8
0
100
AcDbBlockEnd
  0
BLOCK
  5
152
330
14E
100
AcDbEntity
  8
0
100
AcDbBlockBegin
  2
*D9
 70
     1
 10
0.0
 20
0.0
 30
0.0
  3
*D9
  1

  0
LINE
  5
14F
330
14E
100
AcDbEntity
  8
1
  6
Continuous
 62
     2
100
AcDbLine
 10
150.2356043862706
 20
329.4833831896142
 30
0.0
 11
142.4720301218479
 21
322.2295687267657
 31
0.0
  0
SOLID
  5
150
330
14E
100
AcDbEntity
  8
1
 62
     2
100
AcDbTrace
 10
144.7148574269324
 20
324.9557468823618
 30
0.0
 11
145.3440217667461
 21
324.2823681928892
 31
0.0
 12
142.4720301218479
 22
322.2295687267657
 32
0.0
 13
142.4720301218479
 23
322.2295687267657
 33
0.0
  0
MTEXT
  5
151
330
14E
100
AcDbEntity
  8
1
 62
     3
100
AcDbMText
 10
143.4484741216548
 20
325.8790437534434
 30
0.0
 40
3.5
 41
0.0
 71
     7
 72
     1
  1
\C3; R\C3;\C3;2\C2;\H2.45;\S^ ;\C3;
  7
CONVERTER_11
 11
0.730688421426096
 21
0.6827110888171071
 31
0.0
 73
     1
 44
0.60024009603842
  0
ENDBLK
  5
153
330
14E
100
AcDbEntity
  8
0
100
AcDbBlockEnd
  0
ENDSEC
  0
SECTION
  2
ENTITIES
  0
INSERT
  5
6C
330
1F
100
AcDbEntity
  8
0
100
AcDbBlockReference
  2
Urheberrecht_DE-EN
 10
74.0909019094976
 20
311.748310397335
 30
0.0
  0
LINE
  5
70
330
1F
100
AcDbEntity
  8
VERERBUNG
  6
Continuous
 62
     7
100
AcDbLine
 10
83.9334069647
 20
276.0189636275
 30
0.0
 11
83.9334069647
 21
290.3249909044
 31
0.0
  0
LINE
  5
71
330
1F
100
AcDbEntity
  8
VERERBUNG
  6
Continuous
 62
     7
100
AcDbLine
 10
83.9334069647
 20
304.8649909044
 30
0.0
 11
83.9334069647
 21
319.1710180845
 31
0.0
  0
LINE
  5
72
330
1F
100
AcDbEntity
  8
VERERBUNG
  6
Continuous
 62
     7
100
AcDbLine
 10
84.9334069647
 20
289.9651092245
 30
0.0
 11
84.9334069647
 21
291.3249909044
 31
0.0
  0
LINE
  5
73
330
1F
100
AcDbEntity
  8
VERERBUNG
  6
Continuous
 62
     7
100
AcDbLine
 10
84.9334069647
 20
303.8649909044
 30
0.0
 11
84.9334069647
 21
305.2248725842
 31
0.0
  0
LINE
  5
74
330
1F
100
AcDbEntity
  8
VERERBUNG
  6
Continuous
 62
     9
100
AcDbLine
 10
85.0733639003
 20
320.3695661619
 30
0.0
 11
85.0733639003
 21
307.1570188357
 31
0.0
  0
LINE
  5
75
330
1F
100
AcDbEntity
  8
VERERBUNG
  6
Continuous
 62
     9
100
AcDbLine
 10
85.0733639003
 20
288.032962973
 30
0.0
 11
85.0733639003
 21
274.8204156469
 31
0.0
  0
LINE
  5
76
330
1F
100
AcDbEntity
  8
VERERBUNG
  6
Continuous
 62
     9
100
AcDbLine
 10
88.4334069647
 20
287.6386780224
 30
0.0
 11
88.4334069647
 21
291.3249909044
 31
0.0
  0
LINE
  5
77
330
1F
100
AcDbEntity
  8
VERERBUNG
  6
Continuous
 62
     9
100
AcDbLine
 10
88.4334069647
 20
303.8649909044
 30
0.0
 11
88.4334069647
 21
307.5513037863
 31
0.0
  0
LINE
  5
78
330
1F
100
AcDbEntity
  8
VERERBUNG
  6
Continuous
 62
     7
100
AcDbLine
 10
89.9334069647
 20
305.0367786229
 30
0.0
 11
89.9334069647
 21
290.1532031858
 31
0.0
  0
LINE
  5
79
330
1F
100
AcDbEntity
  8
VERERBUNG
  6
Continuous
 62
     7
100
AcDbLine
 10
83.9334069647
 20
290.3249909044
 30
0.0
 11
84.9334069647
 21
291.3249909044
 31
0.0
  0
LINE
  5
7A
330
1F
100
AcDbEntity
  8
VERERBUNG
  6
Continuous
 62
     7
100
AcDbLine
 10
115.9334069647
 20
266.0949909044
 30
0.0
 11
130.5559078899
 21
266.0949909044
 31
0.0
  0
LINE
  5
7B
330
1F
100
AcDbEntity
  8
VERERBUNG
  6
Continuous
 62
     7
100
AcDbLine
 10
137.3109060394
 20
266.0949909044
 30
0.0
 11
141.9334069647
 21
266.0949909044
 31
0.0
  0
LINE
  5
7C
330
1F
100
AcDbEntity
  8
VERERBUNG
  6
Continuous
 62
     7
100
AcDbLine
 10
84.9334069647
 20
303.8649909044
 30
0.0
 11
83.9334069647
 21
304.8649909044
 31
0.0
  0
LWPOLYLINE
  5
7D
330
1F
100
AcDbEntity
  8
BEZUGSACHSEN
  6
DOT_CENTER
 62
     7
100
AcDbPolyline
 90
        2
 70
     0
 43
0.25
 10
106.9334069647
 20
297.5949909044
 10
106.9334069647
 20
290.8449909044
  0
LWPOLYLINE
  5
7E
330
1F
100
AcDbEntity
  8
BEZUGSACHSEN
  6
DOT_CENTER
 62
     7
100
AcDbPolyline
 90
        2
 70
     0
 43
0.25
 10
106.9334069647
 20
297.5949909044
 10
106.9334069647
 20
304.3449909044
  0
LINE
  5
7F
330
1F
100
AcDbEntity
  8
VERERBUNG
  6
Continuous
 62
     7
100
AcDbLine
 10
133.0584069647
 20
270.0949909044
 30
0.0
 11
134.8084069647
 21
270.0949909044
 31
0.0
  0
LINE
  5
80
330
1F
100
AcDbEntity
  8
VERERBUNG
  6
Continuous
 62
     7
100
AcDbLine
 10
113.9334069647
 20
321.815415054
 30
0.0
 11
113.9334069647
 21
273.3745667547
 31
0.0
  0
LINE
  5
81
330
1F
100
AcDbEntity
  8
VERERBUNG
  6
Continuous
 62
     9
100
AcDbLine
 10
114.6035171977
 20
273.5541222505
 30
0.0
 11
114.6035171977
 21
321.6358595583
 31
0.0
  0
LINE
  5
82
330
1F
100
AcDbEntity
  8
FASEN
  6
Continuous
 62
     7
100
AcDbLine
 10
121.2690194089
 20
273.136301242
 30
0.0
 11
130.5559078899
 21
273.136301242
 31
0.0
  0
LINE
  5
83
330
1F
100
AcDbEntity
  8
0
  6
Continuous
 62
     7
100
AcDbLine
 10
137.3109060394
 20
273.136301242
 30
0.0
 11
141.9334069647
 21
273.136301242
 31
0.0
  0
LINE
  5
84
330
1F
100
AcDbEntity
  8
VERERBUNG
  6
Continuous
 62
     7
100
AcDbLine
 10
115.6312373341
 20
273.5745667547
 30
0.0
 11
114.7588086247
 21
273.5745667547
 31
0.0
  0
LINE
  5
85
330
1F
100
AcDbEntity
  8
0
  6
Continuous
 62
     7
100
AcDbLine
 10
143.9334069647
 20
273.5949909044
 30
0.0
 11
164.9334069647
 21
273.5949909044
 31
0.0
  0
LINE
  5
86
330
1F
100
AcDbEntity
  8
0
  6
Continuous
 62
     7
100
AcDbLine
 10
165.9334069647
 20
275.5949909044
 30
0.0
 11
171.5334069647
 21
275.5949909044
 31
0.0
  0
LINE
  5
87
330
1F
100
AcDbEntity
  8
VERERBUNG
  6
Continuous
 62
     7
100
AcDbLine
 10
85.0733639003
 20
274.8204156469
 30
0.0
 11
113.9334069647
 21
273.3745667547
 31
0.0
  0
LINE
  5
88
330
1F
100
AcDbEntity
  8
VERERBUNG
  6
Continuous
 62
     9
100
AcDbLine
 10
114.7588086247
 20
273.5745667547
 30
0.0
 11
114.7588086247
 21
321.615415054
 31
0.0
  0
LINE
  5
89
330
1F
100
AcDbEntity
  8
VERERBUNG
  6
Continuous
 62
     9
100
AcDbLine
 10
115.6312373341
 20
273.5745667547
 30
0.0
 11
115.6312373341
 21
321.615415054
 31
0.0
  0
LINE
  5
8A
330
1F
100
AcDbEntity
  8
VERERBUNG
  6
Continuous
 62
     7
100
AcDbLine
 10
115.9334069647
 20
329.0949909044
 30
0.0
 11
115.9334069647
 21
266.0949909044
 31
0.0
  0
LINE
  5
8B
330
1F
100
AcDbEntity
  8
VERERBUNG
  6
Continuous
 62
     9
100
AcDbLine
 10
83.9334069647
 20
289.4184031178
 30
0.0
 11
84.9334069647
 21
289.9651092245
 31
0.0
  0
LINE
  5
8C
330
1F
100
AcDbEntity
  8
VERERBUNG
  6
Continuous
 62
     7
100
AcDbLine
 10
114.6035171977
 20
273.5541222505
 30
0.0
 11
113.9334069647
 21
273.3745667547
 31
0.0
  0
LINE
  5
8D
330
1F
100
AcDbEntity
  8
FASEN
  6
Continuous
 62
     7
100
AcDbLine
 10
128.0704173677
 20
277.3449909044
 30
0.0
 11
132.0687722299
 21
277.3449909044
 31
0.0
  0
LINE
  5
8E
330
1F
100
AcDbEntity
  8
FASEN
  6
Continuous
 62
     7
100
AcDbLine
 10
135.7980416994
 20
277.3449909044
 30
0.0
 11
141.9334069647
 21
277.3449909044
 31
0.0
  0
LINE
  5
8F
330
1F
100
AcDbEntity
  8
0
  6
Continuous
 62
     7
100
AcDbLine
 10
128.0704173677
 20
277.7449909044
 30
0.0
 11
132.0584069647
 21
277.7449909044
 31
0.0
  0
LINE
  5
90
330
1F
100
AcDbEntity
  8
FASEN
  6
Continuous
 62
     7
100
AcDbLine
 10
132.0584069647
 20
277.7449909044
 30
0.0
 11
132.0687722299
 21
277.7449909044
 31
0.0
  0
LINE
  5
91
330
1F
100
AcDbEntity
  8
FASEN
  6
Continuous
 62
     7
100
AcDbLine
 10
135.7980416994
 20
277.7449909044
 30
0.0
 11
135.8084069647
 21
277.7449909044
 31
0.0
  0
LINE
  5
92
330
1F
100
AcDbEntity
  8
0
  6
Continuous
 62
     7
100
AcDbLine
 10
135.8084069647
 20
277.7449909044
 30
0.0
 11
141.9334069647
 21
277.7449909044
 31
0.0
  0
LINE
  5
93
330
1F
100
AcDbEntity
  8
VERERBUNG
  6
Continuous
 62
     7
100
AcDbLine
 10
135.8084069647
 20
326.4925861686
 30
0.0
 11
137.3109060394
 21
329.0949909044
 31
0.0
  0
LINE
  5
94
330
1F
100
AcDbEntity
  8
VERERBUNG
  6
Continuous
 62
     9
100
AcDbLine
 10
84.9334069647
 20
305.2248725842
 30
0.0
 11
83.9334069647
 21
305.7715786909
 31
0.0
  0
LINE
  5
95
330
1F
100
AcDbEntity
  8
VERERBUNG
  6
Continuous
 62
     7
100
AcDbLine
 10
135.8084069647
 20
268.6973956402
 30
0.0
 11
137.3109060394
 21
266.0949909044
 31
0.0
  0
LWPOLYLINE
  5
96
330
1F
100
AcDbEntity
  8
BEZUGSACHSEN
  6
DOT_CENTER
 62
     7
100
AcDbPolyline
 90
        2
 70
     0
 43
0.25
 10
122.9334069647
 20
321.0956339845
 10
122.9334069647
 20
332.0949909044
  0
LINE
  5
97
330
1F
100
AcDbEntity
  8
0
  6
Continuous
 62
     7
100
AcDbLine
 10
165.9334069647
 20
285.5949909044
 30
0.0
 11
171.5334069647
 21
285.5949909044
 31
0.0
  0
LINE
  5
98
330
1F
100
AcDbEntity
  8
0
  6
Continuous
 62
     7
100
AcDbLine
 10
165.9334069647
 20
286.5949909044
 30
0.0
 11
183.9334069647
 21
286.5949909044
 31
0.0
  0
LINE
  5
99
330
1F
100
AcDbEntity
  8
FASEN
  6
Continuous
 62
     9
100
AcDbLine
 10
128.0704173677
 20
277.3449909044
 30
0.0
 11
128.0704173677
 21
277.7449909044
 31
0.0
  0
LINE
  5
9A
330
1F
100
AcDbEntity
  8
0
  6
Continuous
 62
     7
100
AcDbLine
 10
130.5559078899
 20
329.0949909044
 30
0.0
 11
130.5559078899
 21
305.6124909044
 31
0.0
  0
LINE
  5
9B
330
1F
100
AcDbEntity
  8
0
  6
Continuous
 62
     7
100
AcDbLine
 10
130.5559078899
 20
289.5774909044
 30
0.0
 11
130.5559078899
 21
277.7449909044
 31
0.0
  0
LINE
  5
9C
330
1F
100
AcDbEntity
  8
0
  6
Continuous
 62
     7
100
AcDbLine
 10
130.5559078899
 20
273.136301242
 30
0.0
 11
130.5559078899
 21
266.0949909044
 31
0.0
  0
LINE
  5
9D
330
1F
100
AcDbEntity
  8
VERERBUNG
  6
Continuous
 62
     9
100
AcDbLine
 10
89.4208140024
 20
288.3249909044
 30
0.0
 11
84.6050817751
 21
288.3249909044
 31
0.0
  0
LINE
  5
9E
330
1F
100
AcDbEntity
  8
0
  6
Continuous
 62
     7
100
AcDbLine
 10
141.9334069647
 20
289.5774909044
 30
0.0
 11
135.2242938552
 21
289.5774909044
 31
0.0
  0
LINE
  5
9F
330
1F
100
AcDbEntity
  8
0
  6
Continuous
 62
     7
100
AcDbLine
 10
128.9009069647
 20
289.5774909044
 30
0.0
 11
132.6425200741
 21
289.5774909044
 31
0.0
  0
LINE
  5
A0
330
1F
100
AcDbEntity
  8
0
  6
Continuous
 62
     7
100
AcDbLine
 10
133.0584069647
 20
289.8949909044
 30
0.0
 11
134.8084069647
 21
289.8949909044
 31
0.0
  0
LINE
  5
A1
330
1F
100
AcDbEntity
  8
VERERBUNG
  6
Continuous
 62
     7
100
AcDbLine
 10
88.4334069647
 20
291.3249909044
 30
0.0
 11
84.9334069647
 21
291.3249909044
 31
0.0
  0
LINE
  5
A2
330
1F
100
AcDbEntity
  8
0
  6
Continuous
 62
     7
100
AcDbLine
 10
132.0584069647
 20
326.4925636321
 30
0.0
 11
132.0584069647
 21
305.6124909044
 31
0.0
  0
LINE
  5
A3
330
1F
100
AcDbEntity
  8
0
  6
Continuous
 62
     7
100
AcDbLine
 10
132.0584069647
 20
289.5774909044
 30
0.0
 11
132.0584069647
 21
277.7449909044
 31
0.0
  0
LINE
  5
A4
330
1F
100
AcDbEntity
  8
0
  6
Continuous
 62
     7
100
AcDbLine
 10
132.0584069647
 20
268.6974019529
 30
0.0
 11
132.0584069647
 21
277.1443796666
 31
0.0
  0
LINE
  5
A5
330
1F
100
AcDbEntity
  8
0
  6
Continuous
 62
     9
100
AcDbLine
 10
133.0584069647
 20
270.0949909044
 30
0.0
 11
133.0584069647
 21
289.8949909044
 31
0.0
  0
LINE
  5
A6
330
1F
100
AcDbEntity
  8
0
  6
Continuous
 62
     9
100
AcDbLine
 10
133.0584069647
 20
305.2949909044
 30
0.0
 11
133.0584069647
 21
325.0949909044
 31
0.0
  0
LINE
  5
A7
330
1F
100
AcDbEntity
  8
0
  6
Continuous
 62
     9
100
AcDbLine
 10
134.8084069647
 20
270.0949909044
 30
0.0
 11
134.8084069647
 21
289.8949909044
 31
0.0
  0
LINE
  5
A8
330
1F
100
AcDbEntity
  8
0
  6
Continuous
 62
     9
100
AcDbLine
 10
134.8084069647
 20
305.2949909044
 30
0.0
 11
134.8084069647
 21
325.0949909044
 31
0.0
  0
LINE
  5
A9
330
1F
100
AcDbEntity
  8
0
  6
Continuous
 62
     7
100
AcDbLine
 10
135.8084069647
 20
268.6974019529
 30
0.0
 11
135.8084069647
 21
277.1443796666
 31
0.0
  0
LINE
  5
AA
330
1F
100
AcDbEntity
  8
0
  6
Continuous
 62
     7
100
AcDbLine
 10
135.8084069647
 20
277.7449909044
 30
0.0
 11
135.8084069647
 21
289.5774909044
 31
0.0
  0
LINE
  5
AB
330
1F
100
AcDbEntity
  8
0
  6
Continuous
 62
     7
100
AcDbLine
 10
135.8084069647
 20
305.6124909044
 30
0.0
 11
135.8084069647
 21
326.4925636321
 31
0.0
  0
LINE
  5
AC
330
1F
100
AcDbEntity
  8
0
  6
Continuous
 62
     7
100
AcDbLine
 10
137.3109060394
 20
329.0949909044
 30
0.0
 11
137.3109060394
 21
305.6124909044
 31
0.0
  0
LINE
  5
AD
330
1F
100
AcDbEntity
  8
0
  6
Continuous
 62
     7
100
AcDbLine
 10
137.3109060394
 20
289.5774909044
 30
0.0
 11
137.3109060394
 21
277.7449909044
 31
0.0
  0
LINE
  5
AE
330
1F
100
AcDbEntity
  8
0
  6
Continuous
 62
     7
100
AcDbLine
 10
137.3109060394
 20
273.136301242
 30
0.0
 11
137.3109060394
 21
266.0949909044
 31
0.0
  0
LWPOLYLINE
  5
AF
330
1F
100
AcDbEntity
  8
BEZUGSACHSEN
  6
DOT_CENTER
 62
     7
100
AcDbPolyline
 90
        2
 70
     0
 43
0.25
 10
187.9334069647
 20
297.5949909044
 10
80.9334069647
 20
297.5949909044
  0
LINE
  5
B0
330
1F
100
AcDbEntity
  8
VERERBUNG
  6
Continuous
 62
     9
100
AcDbLine
 10
111.1828402598
 20
297.5949909557
 30
0.0
 11
110.6834507797
 21
297.5949909366
 31
0.0
  0
LINE
  5
B1
330
1F
100
AcDbEntity
  8
VERERBUNG
  6
Continuous
 62
     9
100
AcDbLine
 10
102.6839702546
 20
297.5949908393
 30
0.0
 11
103.1833565862
 21
297.5949908567
 31
0.0
  0
LINE
  5
B2
330
1F
100
AcDbEntity
  8
0
  6
Continuous
 62
     7
100
AcDbLine
 10
141.9334069647
 20
271.5949909044
 30
0.0
 11
141.9334069647
 21
266.0950299661
 31
0.0
  0
LINE
  5
B3
330
1F
100
AcDbEntity
  8
0
  6
Continuous
 62
     7
100
AcDbLine
 10
141.9334069647
 20
323.5949909044
 30
0.0
 11
141.9334069647
 21
329.0949419988
 31
0.0
  0
LINE
  5
B4
330
1F
100
AcDbEntity
  8
VERERBUNG
  6
Continuous
 62
     7
100
AcDbLine
 10
88.4334069647
 20
303.8649909044
 30
0.0
 11
84.9334069647
 21
303.8649909044
 31
0.0
  0
LINE
  5
B5
330
1F
100
AcDbEntity
  8
VERERBUNG
  6
Continuous
 62
     7
100
AcDbLine
 10
130.5559078899
 20
266.0949909044
 30
0.0
 11
132.0584069647
 21
268.6973956402
 31
0.0
  0
LINE
  5
B6
330
1F
100
AcDbEntity
  8
0
  6
Continuous
 62
     7
100
AcDbLine
 10
133.0584069647
 20
305.2949909044
 30
0.0
 11
134.8084069647
 21
305.2949909044
 31
0.0
  0
LINE
  5
B7
330
1F
100
AcDbEntity
  8
0
  6
Continuous
 62
     7
100
AcDbLine
 10
128.9009069647
 20
305.6124909044
 30
0.0
 11
132.6425200741
 21
305.6124909044
 31
0.0
  0
LINE
  5
B8
330
1F
100
AcDbEntity
  8
0
  6
Continuous
 62
     7
100
AcDbLine
 10
135.2242938552
 20
305.6124909044
 30
0.0
 11
141.9334069647
 21
305.6124909044
 31
0.0
  0
LINE
  5
B9
330
1F
100
AcDbEntity
  8
VERERBUNG
  6
Continuous
 62
     9
100
AcDbLine
 10
84.6050817751
 20
306.8649909044
 30
0.0
 11
89.4208140024
 21
306.8649909044
 31
0.0
  0
LINE
  5
BA
330
1F
100
AcDbEntity
  8
0
  6
Continuous
 62
     7
100
AcDbLine
 10
165.9334069647
 20
308.5949909044
 30
0.0
 11
183.9334069647
 21
308.5949909044
 31
0.0
  0
LINE
  5
BB
330
1F
100
AcDbEntity
  8
0
  6
Continuous
 62
     7
100
AcDbLine
 10
165.9334069647
 20
309.5949909044
 30
0.0
 11
171.5334069647
 21
309.5949909044
 31
0.0
  0
LINE
  5
BC
330
1F
100
AcDbEntity
  8
VERERBUNG
  6
Continuous
 62
     7
100
AcDbLine
 10
130.5559078899
 20
329.0949909044
 30
0.0
 11
132.0584069647
 21
326.4925861686
 31
0.0
  0
LINE
  5
BD
330
1F
100
AcDbEntity
  8
VERERBUNG
  6
Continuous
 62
     7
100
AcDbLine
 10
114.6035171977
 20
321.6358595583
 30
0.0
 11
113.9334069647
 21
321.815415054
 31
0.0
  0
LINE
  5
BE
330
1F
100
AcDbEntity
  8
0
  6
Continuous
 62
     7
100
AcDbLine
 10
165.9334069647
 20
319.5949909044
 30
0.0
 11
171.5334069647
 21
319.5949909044
 31
0.0
  0
LINE
  5
BF
330
1F
100
AcDbEntity
  8
VERERBUNG
  6
Continuous
 62
     7
100
AcDbLine
 10
85.0733639003
 20
320.3695661619
 30
0.0
 11
113.9334069647
 21
321.815415054
 31
0.0
  0
LINE
  5
C0
330
1F
100
AcDbEntity
  8
0
  6
Continuous
 62
     7
100
AcDbLine
 10
143.9334069647
 20
321.5949909044
 30
0.0
 11
164.9334069647
 21
321.5949909044
 31
0.0
  0
LINE
  5
C1
330
1F
100
AcDbEntity
  8
VERERBUNG
  6
Continuous
 62
     7
100
AcDbLine
 10
115.6312373341
 20
321.615415054
 30
0.0
 11
114.7588086247
 21
321.615415054
 31
0.0
  0
LINE
  5
C2
330
1F
100
AcDbEntity
  8
RUNDUNGEN
  6
Continuous
 62
     9
100
AcDbLine
 10
164.9334069647
 20
273.5949909044
 30
0.0
 11
164.9334069647
 21
321.5949909044
 31
0.0
  0
LINE
  5
C3
330
1F
100
AcDbEntity
  8
RUNDUNGEN
  6
Continuous
 62
     7
100
AcDbLine
 10
165.9334069647
 20
274.5949909044
 30
0.0
 11
165.9334069647
 21
320.5949909044
 31
0.0
  0
LINE
  5
C4
330
1F
100
AcDbEntity
  8
VERERBUNG
  6
Continuous
 62
     7
100
AcDbLine
 10
133.0584069647
 20
325.0949909044
 30
0.0
 11
134.8084069647
 21
325.0949909044
 31
0.0
  0
LINE
  5
C5
330
1F
100
AcDbEntity
  8
VERERBUNG
  6
Continuous
 62
     7
100
AcDbLine
 10
115.9334069647
 20
329.0949909044
 30
0.0
 11
117.9334069647
 21
329.0949909044
 31
0.0
  0
LINE
  5
C6
330
1F
100
AcDbEntity
  8
VERERBUNG
  6
Continuous
 62
     7
100
AcDbLine
 10
127.9334069647
 20
329.0949909044
 30
0.0
 11
130.5559078899
 21
329.0949909044
 31
0.0
  0
LINE
  5
C7
330
1F
100
AcDbEntity
  8
VERERBUNG
  6
Continuous
 62
     7
100
AcDbLine
 10
137.3109060394
 20
329.0949909044
 30
0.0
 11
141.9334069647
 21
329.0949909044
 31
0.0
  0
LINE
  5
C8
330
1F
100
AcDbEntity
  8
0
  6
Continuous
 62
     7
100
AcDbLine
 10
171.5334069647
 20
319.5949909044
 30
0.0
 11
171.5334069647
 21
309.5949909044
 31
0.0
  0
LINE
  5
C9
330
1F
100
AcDbEntity
  8
0
  6
Continuous
 62
     7
100
AcDbLine
 10
171.5334069647
 20
285.5949909044
 30
0.0
 11
171.5334069647
 21
275.5949909044
 31
0.0
  0
LINE
  5
CA
330
1F
100
AcDbEntity
  8
RUNDUNGEN
  6
Continuous
 62
     9
100
AcDbLine
 10
183.9334069647
 20
286.5949909044
 30
0.0
 11
183.9334069647
 21
308.5949909044
 31
0.0
  0
LINE
  5
CB
330
1F
100
AcDbEntity
  8
RUNDUNGEN
  6
Continuous
 62
     7
100
AcDbLine
 10
184.9334069647
 20
287.5949909044
 30
0.0
 11
184.9334069647
 21
307.5949909044
 31
0.0
  0
LINE
  5
CC
330
1F
100
AcDbEntity
  8
RUNDUNGEN
  6
Continuous
 62
     9
100
AcDbLine
 10
143.9334069647
 20
321.5949909044
 30
0.0
 11
143.9334069647
 21
273.5949909044
 31
0.0
  0
LWPOLYLINE
  5
CD
330
1F
100
AcDbEntity
  8
1
  6
Continuous
 62
     7
100
AcDbPolyline
 90
        2
 70
     0
 43
0.5
 10
141.9334069647
 20
323.5949909044
 10
141.9334069647
 20
271.5949909044
  0
ARC
  5
CE
330
1F
100
AcDbEntity
  8
FASEN
  6
Continuous
 62
     7
100
AcDbCircle
 10
34.3631664841
 20
277.5449909044
 30
0.0
 40
97.70581044213137
100
AcDbArc
 50
359.8827176822629
 51
0.11728231773715
  0
ARC
  5
CF
330
1F
100
AcDbEntity
  8
FASEN
  6
Continuous
 62
     7
100
AcDbCircle
 10
130.9774128805
 20
281.6643880613
 30
0.0
 40
12.92211935389983
100
AcDbArc
 50
219.3764519582026
 51
221.2968513340953
  0
ARC
  5
D0
330
1F
100
AcDbEntity
  8
FASEN
  6
Continuous
 62
     7
100
AcDbCircle
 10
128.0704173677
 20
269.7449909044
 30
0.0
 40
8.0
100
AcDbArc
 50
90.0
 51
152.2781454969008
  0
ARC
  5
D1
330
1F
100
AcDbEntity
  8
FASEN
  6
Continuous
 62
     7
100
AcDbCircle
 10
128.0704173677
 20
269.7449909044
 30
0.0
 40
7.599996372099952
100
AcDbArc
 50
90.0
 51
153.498256574603
  0
ARC
  5
D2
330
1F
100
AcDbEntity
  8
FASEN
  6
Continuous
 62
     7
100
AcDbCircle
 10
133.8608615016
 20
277.1443264709
 30
0.0
 40
1.947545463826499
100
AcDbArc
 50
0.00156498996029
 51
5.91393926133046
  0
ARC
  5
D3
330
1F
100
AcDbEntity
  8
VERERBUNG
  6
Continuous
 62
     7
100
AcDbCircle
 10
88.4334069647
 20
292.8249909044
 30
0.0
 40
1.5
100
AcDbArc
 50
270.0
 51
354.3750000000127
  0
ARC
  5
D4
330
1F
100
AcDbEntity
  8
VERERBUNG
  6
Continuous
 62
     7
100
AcDbCircle
 10
85.1334069647
 20
276.0189125515
 30
0.0
 40
1.200000000000003
100
AcDbArc
 50
180.0
 51
267.1319572667817
  0
ARC
  5
D5
330
1F
100
AcDbEntity
  8
VERERBUNG
  6
Continuous
 62
     7
100
AcDbCircle
 10
133.0584069647
 20
269.0949909044
 30
0.0
 40
1.0
100
AcDbArc
 50
90.0
 51
180.0
  0
ARC
  5
D6
330
1F
100
AcDbEntity
  8
VERERBUNG
  6
Continuous
 62
     7
100
AcDbCircle
 10
114.7588086247
 20
272.9745667547
 30
0.0
 40
0.6000000000000227
100
AcDbArc
 50
90.0
 51
104.9999999936697
  0
ARC
  5
D7
330
1F
100
AcDbEntity
  8
VERERBUNG
  6
Continuous
 62
     7
100
AcDbCircle
 10
115.6312373341
 20
272.9745667547
 30
0.0
 40
0.5999999999998873
100
AcDbArc
 50
59.70317838175942
 51
90.0
  0
ARC
  5
D8
330
1F
100
AcDbEntity
  8
0
  6
Continuous
 62
     7
100
AcDbCircle
 10
-11.8151345079
 20
337.0599945086
 30
0.0
 40
156.0632957305418
100
AcDbArc
 50
335.8202227521907
 51
337.2043014055999
  0
ARC
  5
D9
330
1F
100
AcDbEntity
  8
VERERBUNG
  6
Continuous
 62
     7
100
AcDbCircle
 10
122.9148407797
 20
360.4095387636
 30
0.0
 40
31.71385608949984
100
AcDbArc
 50
270.0335425084999
 51
279.1049739731006
  0
ARC
  5
DA
330
1F
100
AcDbEntity
  8
0
  6
Continuous
 62
     7
100
AcDbCircle
 10
128.9009069647
 20
297.5949909044
 30
0.0
 40
8.017499999999984
100
AcDbArc
 50
90.0
 51
270.0
  0
ARC
  5
DB
330
1F
100
AcDbEntity
  8
VERERBUNG
  6
Continuous
 62
     7
100
AcDbCircle
 10
88.4334069647
 20
302.3649909044
 30
0.0
 40
1.5
100
AcDbArc
 50
0.0
 51
90.0
  0
ARC
  5
DC
330
1F
100
AcDbEntity
  8
VERERBUNG
  6
Continuous
 62
     7
100
AcDbCircle
 10
85.1334069647
 20
319.1710692572
 30
0.0
 40
1.200000000065894
100
AcDbArc
 50
92.8680427329793
 51
180.0
  0
ARC
  5
DD
330
1F
100
AcDbEntity
  8
VERERBUNG
  6
Continuous
 62
     7
100
AcDbCircle
 10
133.0584069647
 20
326.0949909044
 30
0.0
 40
1.0
100
AcDbArc
 50
180.0
 51
270.0
  0
ARC
  5
DE
330
1F
100
AcDbEntity
  8
VERERBUNG
  6
Continuous
 62
     7
100
AcDbCircle
 10
114.7588086247
 20
322.215415054
 30
0.0
 40
0.5999999999131319
100
AcDbArc
 50
255.000000003859
 51
270.0
  0
ARC
  5
DF
330
1F
100
AcDbEntity
  8
VERERBUNG
  6
Continuous
 62
     7
100
AcDbCircle
 10
115.6312373341
 20
322.215415054
 30
0.0
 40
0.6000000000000227
100
AcDbArc
 50
270.0
 51
300.2968216182405
  0
ARC
  5
E0
330
1F
100
AcDbEntity
  8
VERERBUNG
  6
Continuous
 62
     7
100
AcDbCircle
 10
189.8170043713
 20
-570.9400710127
 30
0.0
 40
884.3221864339606
100
AcDbArc
 50
96.58318095120204
 51
96.8023740697
  0
ARC
  5
E1
330
1F
100
AcDbEntity
  8
FASEN
  6
Continuous
 62
     7
100
AcDbCircle
 10
233.5036474452
 20
277.5449909044
 30
0.0
 40
97.70581044213137
100
AcDbArc
 50
179.8827176822629
 51
180.1172823177371
  0
ARC
  5
E2
330
1F
100
AcDbEntity
  8
FASEN
  6
Continuous
 62
     7
100
AcDbCircle
 10
134.0059524278
 20
277.1443264709
 30
0.0
 40
1.947545463912915
100
AcDbArc
 50
174.0860607389727
 51
179.9984350100397
  0
ARC
  5
E3
330
1F
100
AcDbEntity
  8
RUNDUNGEN
  6
Continuous
 62
     7
100
AcDbCircle
 10
164.9334069647
 20
274.5949909044
 30
0.0
 40
1.0
100
AcDbArc
 50
270.0
 51
0.0
  0
ARC
  5
E4
330
1F
100
AcDbEntity
  8
RUNDUNGEN
  6
Continuous
 62
     7
100
AcDbCircle
 10
183.9334069647
 20
287.5949909044
 30
0.0
 40
1.0
100
AcDbArc
 50
270.0
 51
0.0
  0
ARC
  5
E5
330
1F
100
AcDbEntity
  8
VERERBUNG
  6
Continuous
 62
     7
100
AcDbCircle
 10
134.8084069647
 20
269.0949909044
 30
0.0
 40
1.0
100
AcDbArc
 50
0.0
 51
90.0
  0
ARC
  5
E6
330
1F
100
AcDbEntity
  8
VERERBUNG
  6
Continuous
 62
     7
100
AcDbCircle
 10
189.8170043713
 20
1166.1300528214
 30
0.0
 40
884.3221864338999
100
AcDbArc
 50
263.1976259303
 51
263.4168190487979
  0
ARC
  5
E7
330
1F
100
AcDbEntity
  8
0
  6
Continuous
 62
     7
100
AcDbCircle
 10
279.6819484374
 20
337.0599945087
 30
0.0
 40
156.0632957307998
100
AcDbArc
 50
202.7956985943999
 51
204.1797772478128
  0
ARC
  5
E8
330
1F
100
AcDbEntity
  8
RUNDUNGEN
  6
Continuous
 62
     7
100
AcDbCircle
 10
164.9334069647
 20
320.5949909044
 30
0.0
 40
1.0
100
AcDbArc
 50
0.0
 51
90.0
  0
ARC
  5
E9
330
1F
100
AcDbEntity
  8
RUNDUNGEN
  6
Continuous
 62
     7
100
AcDbCircle
 10
183.9334069647
 20
307.5949909044
 30
0.0
 40
1.0
100
AcDbArc
 50
0.0
 51
90.0
  0
ARC
  5
EA
330
1F
100
AcDbEntity
  8
VERERBUNG
  6
Continuous
 62
     7
100
AcDbCircle
 10
134.8084069647
 20
326.0949909044
 30
0.0
 40
1.0
100
AcDbArc
 50
270.0
 51
0.0
  0
CIRCLE
  5
EB
330
1F
100
AcDbEntity
  8
VERERBUNG
  6
Continuous
 62
     7
100
AcDbCircle
 10
106.9334069647
 20
297.5949909044
 30
0.0
 40
3.75
  0
SPLINE
  5
EC
330
1F
100
AcDbEntity
  8
VERERBUNG
  6
Continuous
 62
     7
100
AcDbSpline
210
0.0
220
0.0
230
1.0
 70
     8
 71
     3
 72
    13
 73
     9
 74
     7
 42
0.0000000001
 43
0.0000000001
 44
0.00000001
 40
0.0
 40
0.0
 40
0.0
 40
0.0
 40
0.9581451161985675
 40
1.91637475760405
 40
2.729668920851492
 40
3.542928077738947
 40
4.281951737052246
 40
5.02098028104561
 40
5.02098028104561
 40
5.02098028104561
 40
5.02098028104561
 10
122.9334069647
 20
328.6956339845
 30
0.0
 10
122.6140127983654
 20
328.6984775222099
 30
0.0
 10
121.9751962895279
 20
328.7041648484796
 30
0.0
 10
121.0661321682944
 20
328.747772567166
 30
0.0
 10
120.2068140610695
 20
328.811328953326
 30
0.0
 10
119.4221755181716
 20
328.8903259692993
 30
0.0
 10
118.6640439906941
 20
328.9837370298072
 30
0.0
 10
118.176953176612
 20
329.0579061978308
 30
0.0
 10
117.9334069647
 20
329.0949909044
 30
0.0
 11
122.9334069647
 21
328.6956339845
 31
0.0
 11
121.9753755728286
 21
328.710395958762
 31
0.0
 11
121.0181638609042
 21
328.7545523198305
 31
0.0
 11
120.2071125305874
 21
328.8149107124839
 31
0.0
 11
119.3979007825257
 21
328.8959465259263
 31
0.0
 11
118.6645345440744
 21
328.9872149724158
 31
0.0
 11
117.9334069647
 21
329.0949909044
 31
0.0
  0
SPLINE
  5
ED
330
1F
100
AcDbEntity
  8
VERERBUNG
  6
Continuous
 62
     7
100
AcDbSpline
210
0.0
220
0.0
230
1.0
 70
     8
 71
     3
 72
    13
 73
     9
 74
     7
 42
0.0000000001
 43
0.0000000001
 44
0.00000001
 40
0.0
 40
0.0
 40
0.0
 40
0.0
 40
0.4765182419162419
 40
0.9529821706213857
 40
1.193158829987019
 40
1.433310795920355
 40
1.675484054967002
 40
1.917493731725867
 40
1.917493731725867
 40
1.917493731725867
 40
1.917493731725867
 10
89.4208140024
 20
306.8649909044
 30
0.0
 10
89.49263461505748
 20
306.7231927415573
 30
0.0
 10
89.63626765430996
 20
306.4396125779257
 30
0.0
 10
89.7706917481944
 20
306.0639986212965
 30
0.0
 10
89.8522864494862
 20
305.7555221621782
 30
0.0
 10
89.89769179486488
 20
305.5188487195273
 30
0.0
 10
89.92756753275376
 20
305.2789022689497
 30
0.0
 10
89.93146092584843
 20
305.1174683246435
 30
0.0
 10
89.9334069647
 20
305.0367786229
 30
0.0
 11
89.4208140024
 21
306.8649909044
 31
0.0
 11
89.62720785296831
 21
306.4354897829503
 31
0.0
 11
89.78863803939365
 21
305.9872062005297
 31
0.0
 11
89.84959425893973
 21
305.7548935512773
 31
0.0
 11
89.89498213271017
 21
305.5190696600868
 31
0.0
 11
89.92355228945058
 21
305.2785875743899
 31
0.0
 11
89.9334069647
 21
305.0367786229
 31
0.0
  0
SPLINE
  5
EE
330
1F
100
AcDbEntity
  8
VERERBUNG
  6
Continuous
 62
     7
100
AcDbSpline
210
0.0
220
0.0
230
1.0
 70
     8
 71
     3
 72
    19
 73
    15
 74
    13
 42
0.0000000001
 43
0.0000000001
 44
0.00000001
 40
0.0
 40
0.0
 40
0.0
 40
0.0
 40
0.0835832282512414
 40
0.1672705448503389
 40
0.2499538624016754
 40
0.3326148850108572
 40
0.4138475638827239
 40
0.495084839784269
 40
0.5749375740177657
 40
0.65479858878693
 40
0.8114954796521968
 40
0.9684466432984269
 40
1.123543258567147
 40
1.278502018057764
 40
1.278502018057764
 40
1.278502018057764
 40
1.278502018057764
 10
88.4334069647
 20
307.5513037863
 30
0.0
 10
88.46120560527214
 20
307.5535766669876
 30
0.0
 10
88.51683750477982
 20
307.5581252588394
 30
0.0
 10
88.60026890828634
 20
307.5527591308036
 30
0.0
 10
88.68217798168742
 20
307.5384549473828
 30
0.0
 10
88.76121445455877
 20
307.5152651561862
 30
0.0
 10
88.83691546258216
 20
307.484160449209
 30
0.0
 10
88.90844510043098
 20
307.4463898002069
 30
0.0
 10
88.97598694258296
 20
307.4027545158243
 30
0.0
 10
89.05985638637655
 20
307.338659029029
 30
0.0
 10
89.15544431639998
 20
307.2482358306773
 30
0.0
 10
89.25581859530125
 20
307.1281894904894
 30
0.0
 10
89.34486290652981
 20
307.0001907827034
 30
0.0
 10
89.39550447580469
 20
306.9100441702732
 30
0.0
 10
89.4208140024
 20
306.8649909044
 30
0.0
 11
88.4334069647
 21
307.5513037863
 31
0.0
 11
88.51685304137284
 21
307.5560900513166
 31
0.0
 11
88.60039873029561
 21
307.5512233458625
 31
0.0
 11
88.6818390044128
 21
307.5369400425676
 31
0.0
 11
88.76118383917378
 21
307.5137615642839
 31
0.0
 11
88.83636024667064
 21
307.4829840420873
 31
0.0
 11
88.9082446102964
 21
307.4451405054922
 31
0.0
 11
88.97537584023
 21
307.4018986608025
 31
0.0
 11
89.03889259428159
 21
307.3534899463524
 31
0.0
 11
89.15312971375356
 21
307.2462341952638
 31
0.0
 11
89.25436343445695
 21
307.1262950375109
 31
0.0
 11
89.34276810542978
 21
306.9988604495138
 31
0.0
 11
89.4208140024
 21
306.8649909044
 31
0.0
  0
SPLINE
  5
EF
330
1F
100
AcDbEntity
  8
VERERBUNG
  6
Continuous
 62
     7
100
AcDbSpline
210
0.0
220
0.0
230
1.0
 70
     8
 71
     3
 72
    13
 73
     9
 74
     7
 42
0.0000000001
 43
0.0000000001
 44
0.00000001
 40
0.0
 40
0.0
 40
0.0
 40
0.0
 40
0.2420096760832268
 40
0.4841829345456283
 40
0.7243349034544445
 40
0.9645115657962162
 40
1.440975492120575
 40
1.917493731639135
 40
1.917493731639135
 40
1.917493731639135
 40
1.917493731639135
 10
89.9334069647
 20
290.1532031858
 30
0.0
 10
89.93146092585432
 20
290.0725134842819
 30
0.0
 10
89.92756753277068
 20
289.9110795403961
 30
0.0
 10
89.89769179487567
 20
289.6711330892451
 30
0.0
 10
89.85228644917572
 20
289.4344596448286
 30
0.0
 10
89.77069174734854
 20
289.1259831846133
 30
0.0
 10
89.63626765328127
 20
288.7503692287059
 30
0.0
 10
89.49263461471371
 20
288.4667890665182
 30
0.0
 10
89.4208140024
 20
288.3249909044
 30
0.0
 11
89.9334069647
 21
290.1532031858
 31
0.0
 11
89.92355228949079
 21
289.9113942349846
 31
0.0
 11
89.8949821328855
 21
289.6709121498601
 31
0.0
 11
89.84959425856428
 21
289.4350882557455
 31
0.0
 11
89.78863803808858
 21
289.2027756036601
 31
0.0
 11
89.6272078520511
 21
288.7544920236303
 31
0.0
 11
89.4208140024
 21
288.3249909044
 31
0.0
  0
SPLINE
  5
F0
330
1F
100
AcDbEntity
  8
VERERBUNG
  6
Continuous
 62
     7
100
AcDbSpline
210
0.0
220
0.0
230
1.0
 70
     8
 71
     3
 72
    19
 73
    15
 74
    13
 42
0.0000000001
 43
0.0000000001
 44
0.00000001
 40
0.0
 40
0.0
 40
0.0
 40
0.0
 40
0.1549595547544821
 40
0.3100569266844965
 40
0.4670093143867735
 40
0.6237075594421646
 40
0.7035716820999175
 40
0.7834274372064413
 40
0.86466822516185
 40
0.9459045180164314
 40
1.028561641669175
 40
1.111240956091911
 40
1.194923428874834
 40
1.278501866384959
 40
1.278501866384959
 40
1.278501866384959
 40
1.278501866384959
 10
89.4208140024
 20
288.3249909044
 30
0.0
 10
89.395504352546
 20
288.2799374035945
 30
0.0
 10
89.34486254306464
 20
288.18979033252
 30
0.0
 10
89.25581762300689
 20
288.061790907912
 30
0.0
 10
89.15544222356024
 20
287.9417440392859
 30
0.0
 10
89.05985277657012
 20
287.8513197260603
 30
0.0
 10
88.97598148568082
 20
287.7872225388599
 30
0.0
 10
88.90843662077424
 20
287.7435859355527
 30
0.0
 10
88.83690296112867
 20
287.7058155652287
 30
0.0
 10
88.76119999027193
 20
287.6747128315342
 30
0.0
 10
88.68216455039345
 20
287.6515248017497
 30
0.0
 10
88.60025956336239
 20
287.6372219802417
 30
0.0
 10
88.51683268539328
 20
287.6318567838814
 30
0.0
 10
88.46120400469697
 20
287.6364052192602
 30
0.0
 10
88.4334069647
 20
287.6386780224
 30
0.0
 11
89.4208140024
 21
288.3249909044
 31
0.0
 11
89.34276770801534
 21
288.1911206704324
 31
0.0
 11
89.25436249171848
 21
288.0636855398322
 31
0.0
 11
89.15312767289126
 21
287.9437457071557
 31
0.0
 11
89.03888946813396
 21
287.8364891335704
 31
0.0
 11
88.97537026594492
 21
287.7880785041471
 31
0.0
 11
88.908236134428
 21
287.7448355855464
 31
0.0
 11
88.83634776365616
 21
287.7069921214425
 31
0.0
 11
88.76116712050914
 21
287.6762154066607
 31
0.0
 11
88.68182559552804
 21
287.6530395031353
 31
0.0
 11
88.60038913114388
 21
287.6387576509438
 31
0.0
 11
88.51684824484046
 21
287.6338917937014
 31
0.0
 11
88.4334069647
 21
287.6386780224
 31
0.0
  0
SPLINE
  5
F1
330
1F
100
AcDbEntity
  8
VERERBUNG
  6
Continuous
 62
     7
100
AcDbSpline
210
0.0
220
0.0
230
1.0
 70
     8
 71
     3
 72
    43
 73
    39
 74
    37
 42
0.0000000001
 43
0.0000000001
 44
0.00000001
 40
0.0
 40
0.0
 40
0.0
 40
0.0
 40
0.4175035109906812
 40
0.8354555648622637
 40
1.252511183724416
 40
1.669422664506058
 40
2.08529542582754
 40
2.50125132666947
 40
2.916298094160088
 40
3.331138757784609
 40
3.538526233005185
 40
3.745847790951226
 40
3.953170095096782
 40
4.160558348189591
 40
4.575407544434011
 40
4.990456744693046
 40
5.406332394492035
 40
5.822158816124619
 40
6.239027280559768
 40
6.655913113591077
 40
7.073532178549709
 40
7.491136194331243
 40
7.908956414428234
 40
8.326828662514584
 40
8.744600199951197
 40
9.162169349383813
 40
9.370981458434246
 40
9.579726706217087
 40
9.78840663078253
 40
9.997153926527025
 40
10.41425933413185
 40
10.83156890848109
 40
11.24894510860988
 40
11.66624011609036
 40
12.08375102635646
 40
12.50139861942033
 40
12.91943544786238
 40
13.33702799564488
 40
13.33702799564488
 40
13.33702799564488
 40
13.33702799564488
 10
111.1827806749
 20
297.5949909044
 30
0.0
 10
111.1788760954053
 20
297.4557646974795
 30
0.0
 10
111.1710627415498
 20
297.1771627066354
 30
0.0
 10
111.1072731470683
 20
296.7635254235169
 30
0.0
 10
111.0064364822536
 20
296.3580599073789
 30
0.0
 10
110.8659106054323
 20
295.9650876523443
 30
0.0
 10
110.6877985569786
 20
295.5881553341465
 30
0.0
 10
110.4738850262972
 20
295.2310091477109
 30
0.0
 10
110.226082883216
 20
294.8969542864119
 30
0.0
 10
109.9935348128208
 20
294.6402657621056
 30
0.0
 10
109.7932023018582
 20
294.4495322587468
 30
0.0
 10
109.636133635096
 20
294.3140459285725
 30
0.0
 10
109.4726152590727
 20
294.1864178198798
 30
0.0
 10
109.2464709944938
 20
294.0271284483641
 30
0.0
 10
108.9493589168308
 20
293.8491017118979
 30
0.0
 10
108.5734583908495
 20
293.6711247781369
 30
0.0
 10
108.1815927825069
 20
293.530736512527
 30
0.0
 10
107.7773296146464
 20
293.4290693811543
 30
0.0
 10
107.3647285111209
 20
293.3673555059607
 30
0.0
 10
106.9474852647172
 20
293.3460448067683
 30
0.0
 10
106.5299095024265
 20
293.3656258948535
 30
0.0
 10
106.1159132485527
 20
293.4257946905976
 30
0.0
 10
105.7097011710637
 20
293.5261759223396
 30
0.0
 10
105.3151587417789
 20
293.665727035206
 30
0.0
 10
104.9363017034546
 20
293.8432602558263
 30
0.0
 10
104.6365387723334
 20
294.0213228179143
 30
0.0
 10
104.4082891748467
 20
294.1808441433317
 30
0.0
 10
104.2432100103501
 20
294.3087502934903
 30
0.0
 10
104.0846303376551
 20
294.4445979996286
 30
0.0
 10
103.8824644284935
 20
294.6358138987931
 30
0.0
 10
103.6477835245262
 20
294.8932239849785
 30
0.0
 10
103.3978485628115
 20
295.2281747076744
 30
0.0
 10
103.1821930081111
 20
295.5862684891587
 30
0.0
 10
103.0028225463015
 20
295.9638826978816
 30
0.0
 10
102.8613498800397
 20
296.3574475918203
 30
0.0
 10
102.7599295609196
 20
296.7632152202218
 30
0.0
 10
102.6958775911289
 20
297.1770778087575
 30
0.0
 10
102.6879799669947
 20
297.4557359240825
 30
0.0
 10
102.6840332544
 20
297.5949909044
 30
0.0
 11
111.1827806749
 21
297.5949909044
 31
0.0
 11
111.1623922923877
 21
297.1779855140894
 31
0.0
 11
111.1010317496267
 21
296.7645622405216
 31
0.0
 11
110.99977388871
 21
296.3599856287074
 31
0.0
 11
110.8594909580678
 21
295.967384199548
 31
0.0
 11
110.6817961931829
 21
295.591385896172
 31
0.0
 11
110.4680359954955
 21
295.2345583617385
 31
0.0
 11
110.2207926872493
 21
294.9011898483304
 31
0.0
 11
109.9422397095679
 21
294.5937796747492
 31
0.0
 11
109.792044143673
 21
294.4507731823656
 31
0.0
 11
109.6350590231894
 21
294.3153556785637
 31
0.0
 11
109.4716241476478
 21
294.1877955780113
 31
0.0
 11
109.3020708543897
 21
294.0683737698429
 31
0.0
 11
108.9462416007322
 21
293.8551007104421
 31
0.0
 11
108.5711020155409
 21
293.6775165606478
 31
0.0
 11
108.1796077246231
 21
293.5372141149297
 31
0.0
 11
107.7763357784927
 21
293.4358072591854
 31
0.0
 11
107.3640596365706
 21
293.3741007000334
 31
0.0
 11
106.9477152308744
 21
293.3528607935431
 31
0.0
 11
106.5305529196852
 21
293.3723874302263
 31
0.0
 11
106.1172951391448
 21
293.4324800322646
 31
0.0
 11
105.711671897991
 21
293.5326974087906
 31
0.0
 11
105.3177292542048
 21
293.6720760625632
 31
0.0
 11
104.939420816698
 21
293.8493210444479
 31
0.0
 11
104.5804420298925
 21
294.0626241742457
 31
0.0
 11
104.4092844894795
 21
294.1822385264192
 31
0.0
 11
104.2442734702177
 21
294.3100897759011
 31
0.0
 11
104.0857951555009
 21
294.4458540373294
 31
0.0
 11
103.9341423939971
 21
294.5893004503515
 31
0.0
 11
103.6531063818147
 21
294.8975141439308
 31
0.0
 11
103.4035807149034
 21
295.232005133938
 31
0.0
 11
103.188232648202
 21
295.5895356957113
 31
0.0
 11
103.0091717477724
 21
295.9664605120944
 31
0.0
 11
102.8680500449375
 21
296.3593981982232
 31
0.0
 11
102.7661856592679
 21
296.7644329608352
 31
0.0
 11
102.704566486628
 21
297.1779034767092
 31
0.0
 11
102.6840332544
 21
297.5949909044
 31
0.0
  0
SPLINE
  5
F2
330
1F
100
AcDbEntity
  8
VERERBUNG
  6
Continuous
 62
     7
100
AcDbSpline
210
0.0
220
0.0
230
1.0
 70
     8
 71
     3
 72
    23
 73
    19
 74
    17
 42
0.0000000001
 43
0.0000000001
 44
0.00000001
 40
0.0
 40
0.0
 40
0.0
 40
0.0
 40
0.0621269685589271
 40
0.1242824031948997
 40
0.1813135303657097
 40
0.238341140454263
 40
0.2903938963463128
 40
0.3423956885097298
 40
0.3914747075692814
 40
0.4404962287922428
 40
0.4905855734953938
 40
0.5407628276394175
 40
0.5956736074883642
 40
0.6506193813312708
 40
0.7116314425910389
 40
0.7726461253300678
 40
0.8391602987004664
 40
0.9056490031762753
 40
0.9056490031762753
 40
0.9056490031762753
 40
0.9056490031762753
 10
84.5101086417
 20
288.4472012241
 30
0.0
 10
84.49130174492547
 20
288.4385119709873
 30
0.0
 10
84.45367933420766
 20
288.4211294834162
 30
0.0
 10
84.39663340962608
 20
288.4008881033187
 30
0.0
 10
84.33976705281447
 20
288.3858805369547
 30
0.0
 10
84.2848762152338
 20
288.377623312096
 30
0.0
 10
84.23104376157666
 20
288.3763446013712
 30
0.0
 10
84.18016192751637
 20
288.382849627229
 30
0.0
 10
84.13220434283765
 20
288.3980113607792
 30
0.0
 10
84.08832074834694
 20
288.4213732731829
 30
0.0
 10
84.04981845442767
 20
288.4534106608547
 30
0.0
 10
84.01643084305763
 20
288.4932319235994
 30
0.0
 10
83.98933973386647
 20
288.5394569930406
 30
0.0
 10
83.9677100567541
 20
288.5922960188735
 30
0.0
 10
83.95173574398572
 20
288.6492108489517
 30
0.0
 10
83.94083991658336
 20
288.7111743200858
 30
0.0
 10
83.93445285722626
 20
288.7756122338446
 30
0.0
 10
83.93375555103273
 20
288.819955430127
 30
0.0
 10
83.9334069647
 20
288.8421227826
 30
0.0
 11
84.5101086417
 21
288.4472012241
 31
0.0
 11
84.45331810918084
 21
288.4220100423391
 31
0.0
 11
84.39475907980865
 21
288.4011740606302
 31
0.0
 11
84.33954536716624
 21
288.3868913647147
 31
0.0
 11
84.28312058855967
 21
288.378621378523
 31
0.0
 11
84.23107676639074
 21
288.3776570289979
 31
0.0
 11
84.17953245196513
 21
288.3845396185251
 31
0.0
 11
84.1327597581841
 21
288.3994078809762
 31
0.0
 11
84.08956379049806
 21
288.4225858428944
 31
0.0
 11
84.05091080339363
 21
288.4544431660822
 31
0.0
 11
84.01854837357746
 21
288.4927893519398
 31
0.0
 11
83.9905175488586
 21
288.5400065798254
 31
0.0
 11
83.96942364049015
 21
288.5907420220029
 31
0.0
 11
83.95272661571298
 21
288.6494249069248
 31
0.0
 11
83.9418837397721
 21
288.7094684207383
 31
0.0
 11
83.93537265863057
 21
288.7756631416873
 31
0.0
 11
83.9334069647
 21
288.8421227826
 31
0.0
  0
SPLINE
  5
F3
330
1F
100
AcDbEntity
  8
VERERBUNG
  6
Continuous
 62
     7
100
AcDbSpline
210
0.0
220
0.0
230
1.0
 70
     8
 71
     3
 72
     9
 73
     5
 74
     3
 42
0.0000000001
 43
0.0000000001
 44
0.00000001
 40
0.0
 40
0.0
 40
0.0
 40
0.0
 40
0.0773963057015339
 40
0.1547963631387999
 40
0.1547963631387999
 40
0.1547963631387999
 40
0.1547963631387999
 10
84.6050817751
 20
288.3249909044
 30
0.0
 10
84.58874404474923
 20
288.3449630377475
 30
0.0
 10
84.55606779208684
 20
288.3849082725788
 30
0.0
 10
84.52542860602539
 20
288.4264365714249
 30
0.0
 10
84.5101086417
 20
288.4472012241
 30
0.0
 11
84.6050817751
 21
288.3249909044
 31
0.0
 11
84.5565778260125
 21
288.3853030512625
 31
0.0
 11
84.5101086417
 21
288.4472012241
 31
0.0
  0
SPLINE
  5
F4
330
1F
100
AcDbEntity
  8
VERERBUNG
  6
Continuous
 62
     7
100
AcDbSpline
210
0.0
220
0.0
230
1.0
 70
     8
 71
     3
 72
    15
 73
    11
 74
     9
 42
0.0000000001
 43
0.0000000001
 44
0.00000001
 40
0.0
 40
0.0
 40
0.0
 40
0.0
 40
0.0705890228644961
 40
0.1413178421812778
 40
0.2119756690578948
 40
0.2826066759038331
 40
0.3532320942734187
 40
0.4238693692694961
 40
0.4944866364692247
 40
0.5650782701186308
 40
0.5650782701186308
 40
0.5650782701186308
 40
0.5650782701186308
 10
85.0733639003
 20
288.032962973
 30
0.0
 10
85.05009883098246
 20
288.0367050134132
 30
0.0
 10
85.003522617561
 20
288.0441965050799
 30
0.0
 10
84.93628860514087
 20
288.0668603098628
 30
0.0
 10
84.8721029779477
 20
288.0966883977494
 30
0.0
 10
84.81152634758837
 20
288.1332726549653
 30
0.0
 10
84.75457075483436
 20
288.1751891624609
 30
0.0
 10
84.70127336567991
 20
288.2216204103835
 30
0.0
 10
84.65117316670828
 20
288.2714852411663
 30
0.0
 10
84.62044371287087
 20
288.3071578418626
 30
0.0
 10
84.6050817751
 20
288.3249909044
 30
0.0
 11
85.0733639003
 21
288.032962973
 31
0.0
 11
85.00400615233589
 21
288.0460897755929
 31
0.0
 11
84.93677703421093
 21
288.0680627489485
 31
0.0
 11
84.87269142065796
 21
288.0978211533826
 31
0.0
 11
84.81212729912887
 21
288.13416295179
 31
0.0
 11
84.75518296512108
 21
288.1759396503705
 31
0.0
 11
84.70180002143819
 21
288.2221985515963
 31
0.0
 11
84.65183372240517
 21
288.2721001286025
 31
0.0
 11
84.6050817751
 21
288.3249909044
 31
0.0
  0
SPLINE
  5
F5
330
1F
100
AcDbEntity
  8
VERERBUNG
  6
Continuous
 62
     7
100
AcDbSpline
210
0.0
220
0.0
230
1.0
 70
     8
 71
     3
 72
    15
 73
    11
 74
     9
 42
0.0000000001
 43
0.0000000001
 44
0.00000001
 40
0.0
 40
0.0
 40
0.0
 40
0.0
 40
0.0705917490694946
 40
0.1412091310789835
 40
0.2118461807341384
 40
0.2824713748307656
 40
0.3531025103983021
 40
0.4237604657829028
 40
0.4944892662599342
 40
0.5650782700244803
 40
0.5650782700244803
 40
0.5650782700244803
 40
0.5650782700244803
 10
84.6050817751
 20
306.8649909044
 30
0.0
 10
84.6204437373712
 20
306.8828239966165
 30
0.0
 10
84.65117324007619
 20
306.9184966565172
 30
0.0
 10
84.70127344236533
 20
306.9683614869011
 30
0.0
 10
84.75457075715923
 20
307.0147926500114
 30
0.0
 10
84.81152626345416
 20
307.0567090930142
 30
0.0
 10
84.87210289752318
 20
307.0932933658724
 30
0.0
 10
84.93628859579032
 20
307.1231214904632
 30
0.0
 10
85.00352263649873
 20
307.1457853055824
 30
0.0
 10
85.05009883732362
 20
307.1532767959457
 30
0.0
 10
85.0733639003
 20
307.1570188357
 30
0.0
 11
84.6050817751
 21
306.8649909044
 31
0.0
 11
84.6518337976669
 21
306.9178817677187
 31
0.0
 11
84.7018001819928
 21
306.9677834217921
 31
0.0
 11
84.75518296355233
 21
307.0140421660137
 31
0.0
 11
84.81212711577604
 21
307.0558187332339
 31
0.0
 11
84.87269134215182
 21
307.0921606070858
 31
0.0
 11
84.93677707103717
 21
307.1219190682752
 31
0.0
 11
85.00400617128983
 21
307.1438920356701
 31
0.0
 11
85.0733639003
 21
307.1570188357
 31
0.0
  0
SPLINE
  5
F6
330
1F
100
AcDbEntity
  8
VERERBUNG
  6
Continuous
 62
     7
100
AcDbSpline
210
0.0
220
0.0
230
1.0
 70
     8
 71
     3
 72
     9
 73
     5
 74
     3
 42
0.0000000001
 43
0.0000000001
 44
0.00000001
 40
0.0
 40
0.0
 40
0.0
 40
0.0
 40
0.0774000574472669
 40
0.1547963632169723
 40
0.1547963632169723
 40
0.1547963632169723
 40
0.1547963632169723
 10
84.5101086417
 20
306.7427805846
 30
0.0
 10
84.5254286060285
 20
306.7635452372768
 30
0.0
 10
84.55606779210768
 20
306.8050735361418
 30
0.0
 10
84.5887440447521
 20
306.8450187710209
 30
0.0
 10
84.6050817751
 20
306.8649909044
 30
0.0
 11
84.5101086417
 21
306.7427805846
 31
0.0
 11
84.5565778260125
 21
306.80467875745
 31
0.0
 11
84.6050817751
 21
306.8649909044
 31
0.0
  0
SPLINE
  5
F7
330
1F
100
AcDbEntity
  8
0
  6
Continuous
 62
     7
100
AcDbSpline
210
0.0
220
0.0
230
1.0
 70
     8
 71
     3
 72
    17
 73
    13
 74
    11
 42
0.0000000001
 43
0.0000000001
 44
0.00000001
 40
0.0
 40
0.0
 40
0.0
 40
0.0
 40
0.068027795104584
 40
0.1360632351919346
 40
0.2040812641403383
 40
0.2721696697719279
 40
0.3403702855932416
 40
0.4083585486048255
 40
0.4424627524572802
 40
0.4765773021849202
 40
0.5107086427579938
 40
0.5447868110941521
 40
0.5447868110941521
 40
0.5447868110941521
 40
0.5447868110941521
 10
132.6425200741
 20
305.6124909044
 30
0.0
 10
132.6549286966508
 20
305.5935055375406
 30
0.0
 10
132.6797473362369
 20
305.555532670241
 30
0.0
 10
132.720688881021
 20
305.5011401389731
 30
0.0
 10
132.7649074176657
 20
305.449345216489
 30
0.0
 10
132.8134875166616
 20
305.4014708130286
 30
0.0
 10
132.866820317838
 20
305.358890347913
 30
0.0
 10
132.9159754020561
 20
305.3299501156978
 30
0.0
 10
132.9579406398263
 20
305.3124309688279
 30
0.0
 10
132.9906650414889
 20
305.3026129977951
 30
0.0
 10
133.0242925059825
 20
305.2962319695505
 30
0.0
 10
133.0470413897043
 20
305.2954043777357
 30
0.0
 10
133.0584069647
 20
305.2949909044
 30
0.0
 11
132.6425200741
 21
305.6124909044
 31
0.0
 11
132.6803652573977
 21
305.5559619471484
 31
0.0
 11
132.7212364875483
 21
305.5015711055125
 31
0.0
 11
132.7656118726237
 21
305.450022318316
 31
0.0
 11
132.8142534320272
 21
305.4023774898427
 31
0.0
 11
132.8678173529154
 21
305.3601610193899
 31
0.0
 11
132.9266366194499
 21
305.326062664713
 31
0.0
 11
132.9581357571819
 21
305.3129897521627
 31
0.0
 11
132.9908115625148
 21
305.3031869847487
 31
0.0
 11
133.0243932901082
 21
305.2970864945096
 31
0.0
 11
133.0584069647
 21
305.2949909044
 31
0.0
  0
SPLINE
  5
F8
330
1F
100
AcDbEntity
  8
VERERBUNG
  6
Continuous
 62
     7
100
AcDbSpline
210
0.0
220
0.0
230
1.0
 70
     8
 71
     3
 72
    43
 73
    39
 74
    37
 42
0.0000000001
 43
0.0000000001
 44
0.00000001
 40
0.0
 40
0.0
 40
0.0
 40
0.0
 40
0.4175881289739686
 40
0.8356316531019036
 40
1.253282832011503
 40
1.670787328063704
 40
2.088079154526405
 40
2.505458237106192
 40
2.922766757465999
 40
3.339867556030102
 40
3.548612845960682
 40
3.757291312408457
 40
3.966036487510457
 40
4.174848410671118
 40
4.592416990825539
 40
5.010187344117176
 40
5.428059866821823
 40
5.845880990761978
 40
6.263484877109127
 40
6.681103578716191
 40
7.097989619673843
 40
7.514858051187717
 40
7.93068304509963
 40
8.34655796172371
 40
8.76160845702643
 40
9.176458234555039
 40
9.383846863076736
 40
9.591169424546019
 40
9.798492920740287
 40
10.00588294519684
 40
10.42072923635711
 40
10.83577763645749
 40
11.25173036420262
 40
11.66760664533145
 40
12.08452417579896
 40
12.50157511611245
 40
12.91952009631385
 40
13.33702820999059
 40
13.33702820999059
 40
13.33702820999059
 40
13.33702820999059
 10
102.6840332544
 20
297.5949909044
 30
0.0
 10
102.687954133838
 20
297.7342461829552
 30
0.0
 10
102.6958001685766
 20
298.0129086030489
 30
0.0
 10
102.7599517686933
 20
298.4267606618253
 30
0.0
 10
102.8613622252585
 20
298.8325279738736
 30
0.0
 10
103.0028095182288
 20
299.2261012071758
 30
0.0
 10
103.1821895586063
 20
299.603709349823
 30
0.0
 10
103.3978568534818
 20
299.9617946894573
 30
0.0
 10
103.647776961362
 20
300.2967543749761
 30
0.0
 10
103.882446986345
 20
300.5541718630416
 30
0.0
 10
104.0846153716574
 20
300.7453814437912
 30
0.0
 10
104.2431989277488
 20
300.8812227787067
 30
0.0
 10
104.4082804132729
 20
301.0091249116393
 30
0.0
 10
104.6365309549167
 20
301.1686442807564
 30
0.0
 10
104.9362900829249
 20
301.3467114043324
 30
0.0
 10
105.3151428161746
 20
301.5242530816821
 30
0.0
 10
105.70968532968
 20
301.6638047163308
 30
0.0
 10
106.1158982317569
 20
301.7641838456572
 30
0.0
 10
106.5298943568449
 20
301.8243537786602
 30
0.0
 10
106.9474699009929
 20
301.8439373577061
 30
0.0
 10
107.3647132185599
 20
301.8226288237759
 30
0.0
 10
107.7773140940981
 20
301.7609155704262
 30
0.0
 10
108.1815759573636
 20
301.659246081017
 30
0.0
 10
108.5734412717454
 20
301.5188587170491
 30
0.0
 10
108.9493466194144
 20
301.3408915440905
 30
0.0
 10
109.2464629296508
 20
301.1628697259705
 30
0.0
 10
109.4726058481895
 20
301.0035775972013
 30
0.0
 10
109.6361214901964
 20
300.8759445003104
 30
0.0
 10
109.793185840103
 20
300.7404507219775
 30
0.0
 10
109.9935158060685
 20
300.5497099023873
 30
0.0
 10
110.2260766971681
 20
300.2930296485785
 30
0.0
 10
110.4738960393056
 20
299.9589847404081
 30
0.0
 10
110.6877958544236
 20
299.6018285914471
 30
0.0
 10
110.8658962264734
 20
299.2248895054829
 30
0.0
 10
111.0064506369977
 20
298.8319272293829
 30
0.0
 10
111.1073000674671
 20
298.4264625108759
 30
0.0
 10
111.1709847543569
 20
298.0128143835714
 30
0.0
 10
111.178850072336
 20
297.7342168370042
 30
0.0
 10
111.1827806749
 20
297.5949909044
 30
0.0
 11
102.6840332544
 21
297.5949909044
 31
0.0
 11
102.7045182074173
 21
298.0120762819426
 31
0.0
 11
102.7661899080481
 21
298.4255457359614
 31
0.0
 11
102.8680609135341
 21
298.8305825311861
 31
0.0
 11
103.0091641032852
 21
299.2235200504762
 31
0.0
 11
103.1882284783655
 21
299.6004396944451
 31
0.0
 11
103.4035853708685
 21
299.9579683050857
 31
0.0
 11
103.6531010878127
 21
300.2924654024762
 31
0.0
 11
103.9341263980195
 21
300.6006826167684
 31
0.0
 11
104.0857802869881
 21
300.7441249188584
 31
0.0
 11
104.244261690936
 21
300.8798833328213
 31
0.0
 11
104.4092754414427
 21
301.0077309384777
 31
0.0
 11
104.5804337101574
 21
301.1273439239961
 31
0.0
 11
104.9394093777063
 21
301.3406511888513
 31
0.0
 11
105.3177135333119
 21
301.5179025187221
 31
0.0
 11
105.7116559248195
 21
301.6572827088668
 31
0.0
 11
106.1172803368721
 21
301.7574991144979
 31
0.0
 11
106.5305378749273
 21
301.8175924846216
 31
0.0
 11
106.947699719508
 21
301.8371213186365
 31
0.0
 11
107.3640444324394
 21
301.8158833535872
 31
0.0
 11
107.7763205861768
 21
301.7541770957822
 31
0.0
 11
108.1795907783447
 21
301.6527691194157
 31
0.0
 11
108.5710850215441
 21
301.5124687137898
 31
0.0
 11
108.9462294787561
 21
301.3348918293871
 31
0.0
 11
109.3020620454838
 21
301.1216231669646
 31
0.0
 11
109.4716144078469
 21
301.0021993851738
 31
0.0
 11
109.6350460886331
 21
300.8746347732724
 31
0.0
 11
109.7920278149854
 21
300.7392103675485
 31
0.0
 11
109.9422223164618
 21
300.5961990604068
 31
0.0
 11
110.2207879024077
 21
300.2887927175705
 31
0.0
 11
110.4680428341452
 21
299.9554307923939
 31
0.0
 11
110.6817926835926
 21
299.5986007578119
 31
0.0
 11
110.8594829381663
 21
299.2225964298647
 31
0.0
 11
110.9997865998953
 21
298.8299959844796
 31
0.0
 11
111.1010393181401
 21
298.4254229084298
 31
0.0
 11
111.16234440456
 21
298.0119985588148
 31
0.0
 11
111.1827806749
 21
297.5949909044
 31
0.0
  0
SPLINE
  5
F9
330
1F
100
AcDbEntity
  8
0
  6
Continuous
 62
     7
100
AcDbSpline
210
0.0
220
0.0
230
1.0
 70
     8
 71
     3
 72
    17
 73
    13
 74
    11
 42
0.0000000001
 43
0.0000000001
 44
0.00000001
 40
0.0
 40
0.0
 40
0.0
 40
0.0
 40
0.034079097028486
 40
0.0682097421496806
 40
0.1023154066560425
 40
0.1364128755690389
 40
0.20439928393948
 40
0.272593567991768
 40
0.3406803507273601
 40
0.4086986203351638
 40
0.4767464407383408
 40
0.5447862543183012
 40
0.5447862543183012
 40
0.5447862543183012
 40
0.5447862543183012
 10
133.0584069647
 20
289.8949909044
 30
0.0
 10
133.047041074294
 20
289.8945796367186
 30
0.0
 10
133.0242921014194
 20
289.8937564792717
 30
0.0
 10
132.9906647376185
 20
289.8873885951618
 30
0.0
 10
132.9579482631304
 20
289.8775605657189
 30
0.0
 10
132.915997296973
 20
289.8600233315024
 30
0.0
 10
132.8668474571461
 20
289.8310874831838
 30
0.0
 10
132.8135062221065
 20
289.7885225843524
 30
0.0
 10
132.7649222907687
 20
289.740655305293
 30
0.0
 10
132.7206993866469
 20
289.6888591938288
 30
0.0
 10
132.6797533942497
 20
289.6344596757418
 30
0.0
 10
132.6549306939955
 20
289.5964797499876
 30
0.0
 10
132.6425200741
 20
289.5774909044
 30
0.0
 11
133.0584069647
 21
289.8949909044
 31
0.0
 11
133.0243918945396
 21
289.8929028775183
 31
0.0
 11
132.990809491471
 21
289.8868100013069
 31
0.0
 11
132.9581446715331
 21
289.8770015411911
 31
0.0
 11
132.9266570569945
 21
289.863918440758
 31
0.0
 11
132.8678411901922
 21
289.829817919715
 31
0.0
 11
132.8142741501104
 21
289.7876156378539
 31
0.0
 11
132.7656277734014
 21
289.7399780474827
 31
0.0
 11
132.7212499895662
 21
289.6884310077781
 31
0.0
 11
132.6803713720757
 21
289.6340302311872
 31
0.0
 11
132.6425200741
 21
289.5774909044
 31
0.0
  0
SPLINE
  5
FA
330
1F
100
AcDbEntity
  8
0
  6
Continuous
 62
     7
100
AcDbSpline
210
0.0
220
0.0
230
1.0
 70
     8
 71
     3
 72
    17
 73
    13
 74
    11
 42
0.0000000001
 43
0.0000000001
 44
0.00000001
 40
0.0
 40
0.0
 40
0.0
 40
0.0
 40
0.034078191547468
 40
0.0682095734670278
 40
0.1023243843793334
 40
0.1364288244516678
 40
0.2044171800498006
 40
0.2726179463229191
 40
0.3407061059905592
 40
0.408723860163025
 40
0.4767591625814823
 40
0.544786828059658
 40
0.544786828059658
 40
0.544786828059658
 40
0.544786828059658
 10
134.8084069647
 20
305.2949909044
 30
0.0
 10
134.8197725473692
 20
305.2954044014446
 30
0.0
 10
134.8425214524863
 20
305.2962320409335
 30
0.0
 10
134.8761489953151
 20
305.3026132192734
 30
0.0
 10
134.9088735993469
 20
305.3124311156096
 30
0.0
 10
134.9508391054919
 20
305.3299501447396
 30
0.0
 10
134.9999942898409
 20
305.3588905656305
 30
0.0
 10
135.0533268984366
 20
305.4014712626271
 30
0.0
 10
135.1019068511693
 20
305.449345628616
 30
0.0
 10
135.146125259197
 20
305.5011403725221
 30
0.0
 10
135.1870666756909
 20
305.555532774609
 30
0.0
 10
135.2118852597027
 20
305.5935055715818
 30
0.0
 10
135.2242938552
 20
305.6124909044
 30
0.0
 11
134.8084069647
 21
305.2949909044
 31
0.0
 11
134.8424206575337
 21
305.2970865758816
 31
0.0
 11
134.8760024121561
 21
305.3031871486598
 31
0.0
 11
134.9086784942118
 21
305.3129899026134
 31
0.0
 11
134.9401778986531
 21
305.326062788771
 31
0.0
 11
134.9989972129739
 21
305.3601612456241
 31
0.0
 11
135.0525611047179
 21
305.4023779961087
 31
0.0
 11
135.1012024175348
 21
305.4500227248242
 31
0.0
 11
135.1455776201273
 21
305.5015713065461
 31
0.0
 11
135.1864487557589
 21
305.5559620470021
 31
0.0
 11
135.2242938552
 21
305.6124909044
 31
0.0
  0
SPLINE
  5
FB
330
1F
100
AcDbEntity
  8
VERERBUNG
  6
Continuous
 62
     7
100
AcDbSpline
210
0.0
220
0.0
230
1.0
 70
     8
 71
     3
 72
    23
 73
    19
 74
    17
 42
0.0000000001
 43
0.0000000001
 44
0.00000001
 40
0.0
 40
0.0
 40
0.0
 40
0.0
 40
0.0664886891183912
 40
0.133002850640238
 40
0.1940175413907618
 40
0.2550295991279899
 40
0.3099753629181245
 40
0.3648861555141119
 40
0.4150633580614025
 40
0.4651526181530631
 40
0.5141740379043084
 40
0.5632529905310162
 40
0.6152549115983699
 40
0.6673077698224689
 40
0.7243355356263819
 40
0.7813668340419514
 40
0.8435221576460112
 40
0.9056490099216943
 40
0.9056490099216943
 40
0.9056490099216943
 40
0.9056490099216943
 10
83.9334069647
 20
306.3478590261
 30
0.0
 10
83.93375555205459
 20
306.370026373454
 30
0.0
 10
83.93445286031069
 20
306.4143695606683
 30
0.0
 10
83.94083991941892
 20
306.4788074675456
 30
0.0
 10
83.95173572270014
 20
306.5407709400002
 30
0.0
 10
83.96771003027985
 20
306.597685771613
 30
0.0
 10
83.98933975727239
 20
306.6505247783309
 30
0.0
 10
84.01643086640931
 20
306.6967498216385
 30
0.0
 10
84.04981834890559
 20
306.736571130814
 30
0.0
 10
84.08832052254871
 20
306.7686085534464
 30
0.0
 10
84.13220409023415
 20
306.7919703546326
 30
0.0
 10
84.1801616791298
 20
306.8071320027175
 30
0.0
 10
84.23104354881526
 20
306.813637129517
 30
0.0
 10
84.28487613831165
 20
306.8123585381906
 30
0.0
 10
84.33976712261874
 20
306.804101294597
 30
0.0
 10
84.39663353653862
 20
306.7890936626189
 30
0.0
 10
84.45367943740396
 20
306.7688522754606
 30
0.0
 10
84.49130177985417
 20
306.7514698208602
 30
0.0
 10
84.5101086417
 20
306.7427805846
 30
0.0
 11
83.9334069647
 21
306.3478590261
 31
0.0
 11
83.9353726609739
 21
306.4143186515793
 31
0.0
 11
83.94188373725481
 21
306.4805133611006
 31
0.0
 11
83.9527265983437
 21
306.5405568857373
 31
0.0
 11
83.9694236246876
 21
306.599239766551
 31
0.0
 11
83.99051756230342
 21
306.6499751856815
 31
0.0
 11
84.01854838877091
 21
306.697192427353
 31
0.0
 11
84.05091071080318
 21
306.7355386366592
 31
0.0
 11
84.08956358536952
 21
306.7673959633563
 31
0.0
 11
84.1327594885875
 21
306.7905738308081
 31
0.0
 11
84.17953213420658
 21
306.8054420254774
 31
0.0
 11
84.23107656690101
 21
306.8123247032198
 31
0.0
 11
84.28312049317216
 21
306.8113604482841
 31
0.0
 11
84.33954542839632
 21
306.8030904568975
 31
0.0
 11
84.39475929800012
 21
306.7888076839755
 31
0.0
 11
84.45331821585158
 21
306.7679717200575
 31
0.0
 11
84.5101086417
 21
306.7427805846
 31
0.0
  0
SPLINE
  5
FC
330
1F
100
AcDbEntity
  8
0
  6
Continuous
 62
     7
100
AcDbSpline
210
0.0
220
0.0
230
1.0
 70
     8
 71
     3
 72
    17
 73
    13
 74
    11
 42
0.0000000001
 43
0.0000000001
 44
0.00000001
 40
0.0
 40
0.0
 40
0.0
 40
0.0
 40
0.0680405843186874
 40
0.1360892263316944
 40
0.2041088006891959
 40
0.272196698880822
 40
0.3403905142830137
 40
0.4083768376122391
 40
0.4424735706905601
 40
0.4765783279149848
 40
0.5107080465676659
 40
0.5447863432904798
 40
0.5447863432904798
 40
0.5447863432904798
 40
0.5447863432904798
 10
135.2242938552
 20
289.5774909044
 30
0.0
 10
135.2118830830239
 20
289.5964799577305
 30
0.0
 10
135.1870600689281
 20
289.6344603131666
 30
0.0
 10
135.1461134775579
 20
289.6888605843953
 30
0.0
 10
135.1018900737924
 20
289.7406576883949
 30
0.0
 10
135.0533054120576
 20
289.7885252176625
 30
0.0
 10
134.9999628377655
 20
289.8310887972012
 30
0.0
 10
134.9508131173073
 20
289.8600237298957
 30
0.0
 10
134.9088632168326
 20
289.8775619348182
 30
0.0
 10
134.8761477086102
 20
289.8873903914501
 30
0.0
 10
134.8425209855364
 20
289.89375703128
 30
0.0
 10
134.8197725883169
 20
289.8945798201264
 30
0.0
 10
134.8084069647
 20
289.8949909044
 30
0.0
 11
135.2242938552
 21
289.5774909044
 31
0.0
 11
135.1864420964808
 21
289.6340308502462
 31
0.0
 11
135.1455630036534
 21
289.6884322973724
 31
0.0
 11
135.1011844572211
 21
289.7399804022099
 31
0.0
 11
135.0525369309863
 21
289.7876184129931
 31
0.0
 11
134.9989693614338
 21
289.8298192654886
 31
0.0
 11
134.9401533588089
 21
289.8639193827179
 31
0.0
 11
134.908666716736
 21
289.8770029058517
 31
0.0
 11
134.8760028910108
 21
289.8868115221826
 31
0.0
 11
134.8424212736611
 21
289.8929035392123
 31
0.0
 11
134.8084069647
 21
289.8949909044
 31
0.0
  0
SPLINE
  5
FD
330
1F
100
AcDbEntity
  8
VERERBUNG
  6
Continuous
 62
     7
100
AcDbSpline
210
0.0
220
0.0
230
1.0
 70
     8
 71
     3
 72
    11
 73
     7
 74
     5
 42
0.0000000001
 43
0.0000000001
 44
0.00000001
 40
0.0
 40
0.0
 40
0.0
 40
0.0
 40
0.5427795452355348
 40
1.085508812848518
 40
1.337448492135678
 40
1.589025708897482
 40
1.589025708897482
 40
1.589025708897482
 40
1.589025708897482
 10
84.5101086417
 20
288.4472012241
 30
0.0
 10
84.5878389791846
 20
288.6108215811013
 30
0.0
 10
84.74329245399932
 20
288.9380471389645
 30
0.0
 10
84.86721397611318
 20
289.3686600353402
 30
0.0
 10
84.92476834159632
 20
289.7132930613911
 30
0.0
 10
84.93052880591131
 20
289.8812107959786
 30
0.0
 10
84.9334069647
 20
289.9651092245
 30
0.0
 11
84.5101086417
 21
288.4472012241
 31
0.0
 11
84.72957951643754
 21
288.9436306449325
 31
0.0
 11
84.88020355957917
 21
289.4650397506751
 31
0.0
 11
84.91929583788657
 21
289.7139280705619
 31
0.0
 11
84.9334069647
 21
289.9651092245
 31
0.0
  0
SPLINE
  5
FE
330
1F
100
AcDbEntity
  8
VERERBUNG
  6
Continuous
 62
     7
100
AcDbSpline
210
0.0
220
0.0
230
1.0
 70
     8
 71
     3
 72
    11
 73
     7
 74
     5
 42
0.0000000001
 43
0.0000000001
 44
0.00000001
 40
0.0
 40
0.0
 40
0.0
 40
0.0
 40
0.4891002097433405
 40
0.9783817007601614
 40
1.283670603128893
 40
1.588797103076638
 40
1.588797103076638
 40
1.588797103076638
 40
1.588797103076638
 10
84.9334069647
 20
305.2248725842
 30
0.0
 10
84.92263620707845
 20
305.3880257775318
 30
0.0
 10
84.90109069973595
 20
305.7143926356857
 30
0.0
 10
84.77757716973048
 20
306.1270115382058
 30
0.0
 10
84.64479676631564
 20
306.4687267425631
 30
0.0
 10
84.55499671940225
 20
306.6514455081702
 30
0.0
 10
84.5101086417
 20
306.7427805846
 30
0.0
 11
84.9334069647
 21
305.2248725842
 31
0.0
 11
84.88295306075374
 21
305.7113635078024
 31
0.0
 11
84.75248482713019
 21
306.1829294283976
 31
0.0
 11
84.64075080938954
 21
306.4670364912965
 31
0.0
 11
84.5101086417
 21
306.7427805846
 31
0.0
  0
ARC
  5
FF
330
1F
100
AcDbEntity
  8
1
  6
Continuous
 62
     7
100
AcDbCircle
 10
143.9334069647
 20
323.5949909044
 30
0.0
 40
2.0
100
AcDbArc
 50
180.0
 51
270.0
  0
ARC
  5
100
330
1F
100
AcDbEntity
  8
1
  6
Continuous
 62
     7
100
AcDbCircle
 10
143.9334069647
 20
271.5949909044
 30
0.0
 40
2.0
100
AcDbArc
 50
90.0
 51
180.0
  0
DIMENSION
  5
10B
330
1F
100
AcDbEntity
  8
1
100
AcDbDimension
  2
*D2
 10
196.090447506343
 20
308.5949909044
 30
0.0
 11
192.340447506343
 21
297.219776776005
 31
0.0
 70
    32
  1
<>
 71
     5
 42
-1.0
 53
90.0
  3
ME10_DIM_10
100
AcDbAlignedDimension
 13
183.9334069647
 23
286.5949909044
 33
0.0
 14
183.9334069647
 24
308.5949909044
 34
0.0
 50
90.0
100
AcDbRotatedDimension
  0
DIMENSION
  5
116
330
1F
100
AcDbEntity
  8
1
100
AcDbDimension
  2
*D3
 10
203.516295454789
 20
321.5949909044
 30
0.0
 11
199.766295454789
 21
297.969862427363
 31
0.0
 70
    32
  1
<>
 71
     5
 42
-1.0
 53
90.0
  3
ME10_DIM_11
100
AcDbAlignedDimension
 13
164.9334069647
 23
273.5949909044
 33
0.0
 14
164.9334069647
 24
321.5949909044
 34
0.0
 50
90.0
100
AcDbRotatedDimension
  0
DIMENSION
  5
121
330
1F
100
AcDbEntity
  8
1
100
AcDbDimension
  2
*D4
 10
184.9334069647
 20
331.723716738481
 30
0.0
 11
175.088049268314
 21
335.473716738481
 31
0.0
 70
    32
  1
<>
 71
     5
 42
-1.0
 53
0.00013888888889
  3
ME10_DIM_12
100
AcDbAlignedDimension
 13
165.9334069647
 23
320.5949909044
 33
0.0
 14
184.9334069647
 24
307.5949909044
 34
0.0
100
AcDbRotatedDimension
  0
DIMENSION
  5
12C
330
1F
100
AcDbEntity
  8
1
100
AcDbDimension
  2
*D5
 10
184.9334069647
 20
339.299581817199
 30
0.0
 11
163.011670281447
 21
343.049581817199
 31
0.0
 70
    32
  1
<>
 71
     5
 42
-1.0
 53
0.00013888888889
  3
ME10_DIM_13
100
AcDbAlignedDimension
 13
141.9334069647
 23
329.0949419988
 33
0.0
 14
184.9334069647
 24
307.5949909044
 34
0.0
100
AcDbRotatedDimension
  0
DIMENSION
  5
137
330
1F
100
AcDbEntity
  8
1
100
AcDbDimension
  2
*D6
 10
184.9334069647
 20
347.415207206045
 30
0.0
 11
151.00127874131
 21
351.165207206045
 31
0.0
 70
    32
  1
<>
 71
     5
 42
-1.0
 53
0.00013888888889
  3
ME10_DIM_14
100
AcDbAlignedDimension
 13
115.9334069647
 23
329.0949909044
 33
0.0
 14
184.9334069647
 24
307.5949909044
 34
0.0
100
AcDbRotatedDimension
  0
DIMENSION
  5
142
330
1F
100
AcDbEntity
  8
1
100
AcDbDimension
  2
*D7
 10
184.9334069647
 20
355.1991879428
 30
0.0
 11
138.918681776795
 21
358.9491879428
 31
0.0
 70
    32
  1
<>
 71
     5
 42
-1.0
 53
0.00013888888889
  3
ME10_DIM_15
100
AcDbAlignedDimension
 13
83.9334069647
 23
319.1710180845
 33
0.0
 14
184.9334069647
 24
307.5949909044
 34
0.0
100
AcDbRotatedDimension
  0
DIMENSION
  5
14D
330
1F
100
AcDbEntity
  8
1
100
AcDbDimension
  2
*D8
 10
115.9334069647
 20
257.028087606121
 30
0.0
 11
141.242258116125
 21
260.778087606121
 31
0.0
 70
    32
  1
<>
 71
     5
 42
-1.0
 53
0.00013888888889
  3
ME10_DIM_16
100
AcDbAlignedDimension
 13
165.9334069647
 23
274.5949909044
 33
0.0
 14
115.9334069647
 24
266.0949909044
 34
0.0
100
AcDbRotatedDimension
  0
INSERT
  5
154
330
1F
100
AcDbEntity
  8
1
100
AcDbBlockReference
  2
*D9
 10
0.0
 20
0.0
 30
0.0
  0
ENDSEC
  0
SECTION
  2
OBJECTS
  0
DICTIONARY
  5
C
330
0
100
AcDbDictionary
281
     1
  3
ACAD_GROUP
350
D
  3
ACAD_LAYOUT
350
1A
  3
ACAD_MLEADERSTYLE
350
157
  3
ACAD_MLINESTYLE
350
17
  3
ACAD_PLOTSETTINGS
350
19
  3
ACAD_PLOTSTYLENAME
350
E
  3
ACAD_SCALELIST
350
4A
  3
ACAD_VISUALSTYLE
350
2A
  3
AcDbVariableDictionary
350
155
  0
DICTIONARY
  5
D
102
{ACAD_REACTORS
330
C
102
}
330
C
100
AcDbDictionary
281
     1
  0
DICTIONARY
  5
1A
102
{ACAD_REACTORS
330
C
102
}
330
C
100
AcDbDictionary
281
     1
  3
Layout1
350
1E
  3
Layout2
350
26
  3
Model
350
22
  0
DICTIONARY
  5
157
102
{ACAD_REACTORS
330
C
102
}
330
C
100
AcDbDictionary
281
     1
  0
DICTIONARY
  5
17
102
{ACAD_REACTORS
330
C
102
}
330
C
100
AcDbDictionary
281
     1
  3
Standard
350
18
  0
DICTIONARY
  5
19
102
{ACAD_REACTORS
330
C
102
}
330
C
100
AcDbDictionary
281
     1
  0
ACDBDICTIONARYWDFLT
  5
E
102
{ACAD_REACTORS
330
C
102
}
330
C
100
AcDbDictionary
281
     1
  3
Normal
350
F
100
AcDbDictionaryWithDefault
340
F
  0
DICTIONARY
  5
4A
102
{ACAD_REACTORS
330
C
102
}
330
C
100
AcDbDictionary
281
     1
  3
A0
350
4B
  3
A1
350
4C
  3
A2
350
4D
  3
A3
350
4E
  3
A4
350
4F
  3
A5
350
50
  3
A6
350
51
  3
A7
350
52
  3
A8
350
53
  3
A9
350
54
  3
B0
350
55
  3
B1
350
56
  3
B2
350
57
  3
B3
350
58
  3
B4
350
59
  3
B5
350
5A
  3
B6
350
5B
  3
B7
350
5C
  3
B8
350
5D
  3
B9
350
5E
  3
C0
350
5F
  3
C1
350
60
  3
C2
350
61
  3
C3
350
62
  3
C4
350
63
  3
C5
350
64
  3
C6
350
65
  3
C7
350
66
  3
C8
350
67
  3
C9
350
68
  3
D0
350
69
  3
D1
350
6A
  3
D2
350
6B
  0
DICTIONARY
  5
2A
102
{ACAD_REACTORS
330
C
102
}
330
C
100
AcDbDictionary
281
     1
  3
2dWireframe
350
2F
  3
3D Hidden
350
31
  3
3dWireframe
350
30
  3
Basic
350
32
  3
Brighten
350
36
  3
ColorChange
350
3A
  3
Conceptual
350
34
  3
Dim
350
35
  3
Facepattern
350
39
  3
Flat
350
2B
  3
FlatWithEdges
350
2C
  3
Gouraud
350
2D
  3
GouraudWithEdges
350
2E
  3
Linepattern
350
38
  3
Realistic
350
33
  3
Thicken
350
37
  0
DICTIONARY
  5
155
102
{ACAD_REACTORS
330
C
102
}
330
C
100
AcDbDictionary
281
     1
  3
CANNOSCALE
350
158
  0
LAYOUT
  5
1E
102
{ACAD_REACTORS
330
1A
102
}
330
1A
100
AcDbPlotSettings
  1

  2
none_device
  4

  6

 40
0.0
 41
0.0
 42
0.0
 43
0.0
 44
0.0
 45
0.0
 46
0.0
 47
0.0
 48
0.0
 49
0.0
140
0.0
141
0.0
142
1.0
143
1.0
 70
   688
 72
     0
 73
     0
 74
     5
  7

 75
    16
147
1.0
148
0.0
149
0.0
100
AcDbLayout
  1
Layout1
 70
     1
 71
     1
 10
0.0
 20
0.0
 11
12.0
 21
9.0
 12
0.0
 22
0.0
 32
0.0
 14
1.00000000000000E+20
 24
1.00000000000000E+20
 34
1.00000000000000E+20
 15
-1.00000000000000E+20
 25
-1.00000000000000E+20
 35
-1.00000000000000E+20
146
0.0
 13
0.0
 23
0.0
 33
0.0
 16
1.0
 26
0.0
 36
0.0
 17
0.0
 27
1.0
 37
0.0
 76
     0
330
1B
  0
LAYOUT
  5
26
102
{ACAD_REACTORS
330
1A
102
}
330
1A
100
AcDbPlotSettings
  1

  2
none_device
  4

  6

 40
0.0
 41
0.0
 42
0.0
 43
0.0
 44
0.0
 45
0.0
 46
0.0
 47
0.0
 48
0.0
 49
0.0
140
0.0
141
0.0
142
1.0
143
1.0
 70
   688
 72
     0
 73
     0
 74
     5
  7

 75
    16
147
1.0
148
0.0
149
0.0
100
AcDbLayout
  1
Layout2
 70
     1
 71
     2
 10
0.0
 20
0.0
 11
0.0
 21
0.0
 12
0.0
 22
0.0
 32
0.0
 14
0.0
 24
0.0
 34
0.0
 15
0.0
 25
0.0
 35
0.0
146
0.0
 13
0.0
 23
0.0
 33
0.0
 16
1.0
 26
0.0
 36
0.0
 17
0.0
 27
1.0
 37
0.0
 76
     0
330
23
  0
LAYOUT
  5
22
102
{ACAD_REACTORS
330
1A
102
}
330
1A
100
AcDbPlotSettings
  1

  2
none_device
  4

  6

 40
0.0
 41
0.0
 42
0.0
 43
0.0
 44
0.0
 45
0.0
 46
0.0
 47
0.0
 48
0.0
 49
0.0
140
0.0
141
0.0
142
1.0
143
1.0
 70
  1712
 72
     0
 73
     0
 74
     0
  7

 75
     0
147
1.0
148
0.0
149
0.0
100
AcDbLayout
  1
Model
 70
     1
 71
     0
 10
0.0
 20
0.0
 11
12.0
 21
9.0
 12
0.0
 22
0.0
 32
0.0
 14
60.0909019094976
 24
255.028087606121
 34
0.0
 15
205.516295454789
 25
364.228310397335
 35
0.0
146
0.0
 13
0.0
 23
0.0
 33
0.0
 16
1.0
 26
0.0
 36
0.0
 17
0.0
 27
1.0
 37
0.0
 76
     0
330
1F
331
29
  0
MLINESTYLE
  5
18
102
{ACAD_REACTORS
330
17
102
}
330
17
100
AcDbMlineStyle
  2
Standard
 70
     0
  3

 62
   256
 51
90.0
 52
90.0
 71
     2
 49
0.5
 62
   256
  6
BYLAYER
 49
-0.5
 62
   256
  6
BYLAYER
  0
ACDBPLACEHOLDER
  5
F
102
{ACAD_REACTORS
330
E
102
}
330
E
  0
SCALE
  5
4B
102
{ACAD_REACTORS
330
4A
102
}
330
4A
100
AcDbScale
 70
     0
300
1:1
140
1.0
141
1.0
290
     1
  0
SCALE
  5
4C
102
{ACAD_REACTORS
330
4A
102
}
330
4A
100
AcDbScale
 70
     0
300
1:2
140
1.0
141
2.0
290
     0
  0
SCALE
  5
4D
102
{ACAD_REACTORS
330
4A
102
}
330
4A
100
AcDbScale
 70
     0
300
1:4
140
1.0
141
4.0
290
     0
  0
SCALE
  5
4E
102
{ACAD_REACTORS
330
4A
102
}
330
4A
100
AcDbScale
 70
     0
300
1:5
140
1.0
141
5.0
290
     0
  0
SCALE
  5
4F
102
{ACAD_REACTORS
330
4A
102
}
330
4A
100
AcDbScale
 70
     0
300
1:8
140
1.0
141
8.0
290
     0
  0
SCALE
  5
50
102
{ACAD_REACTORS
330
4A
102
}
330
4A
100
AcDbScale
 70
     0
300
1:10
140
1.0
141
10.0
290
     0
  0
SCALE
  5
51
102
{ACAD_REACTORS
330
4A
102
}
330
4A
100
AcDbScale
 70
     0
300
1:16
140
1.0
141
16.0
290
     0
  0
SCALE
  5
52
102
{ACAD_REACTORS
330
4A
102
}
330
4A
100
AcDbScale
 70
     0
300
1:20
140
1.0
141
20.0
290
     0
  0
SCALE
  5
53
102
{ACAD_REACTORS
330
4A
102
}
330
4A
100
AcDbScale
 70
     0
300
1:30
140
1.0
141
30.0
290
     0
  0
SCALE
  5
54
102
{ACAD_REACTORS
330
4A
102
}
330
4A
100
AcDbScale
 70
     0
300
1:40
140
1.0
141
40.0
290
     0
  0
SCALE
  5
55
102
{ACAD_REACTORS
330
4A
102
}
330
4A
100
AcDbScale
 70
     0
300
1:50
140
1.0
141
50.0
290
     0
  0
SCALE
  5
56
102
{ACAD_REACTORS
330
4A
102
}
330
4A
100
AcDbScale
 70
     0
300
1:100
140
1.0
141
100.0
290
     0
  0
SCALE
  5
57
102
{ACAD_REACTORS
330
4A
102
}
330
4A
100
AcDbScale
 70
     0
300
2:1
140
2.0
141
1.0
290
     0
  0
SCALE
  5
58
102
{ACAD_REACTORS
330
4A
102
}
330
4A
100
AcDbScale
 70
     0
300
4:1
140
4.0
141
1.0
290
     0
  0
SCALE
  5
59
102
{ACAD_REACTORS
330
4A
102
}
330
4A
100
AcDbScale
 70
     0
300
8:1
140
8.0
141
1.0
290
     0
  0
SCALE
  5
5A
102
{ACAD_REACTORS
330
4A
102
}
330
4A
100
AcDbScale
 70
     0
300
10:1
140
10.0
141
1.0
290
     0
  0
SCALE
  5
5B
102
{ACAD_REACTORS
330
4A
102
}
330
4A
100
AcDbScale
 70
     0
300
100:1
140
100.0
141
1.0
290
     0
  0
SCALE
  5
5C
102
{ACAD_REACTORS
330
4A
102
}
330
4A
100
AcDbScale
 70
     0
300
1/128" = 1'-0"
140
0.0078125
141
12.0
290
     0
  0
SCALE
  5
5D
102
{ACAD_REACTORS
330
4A
102
}
330
4A
100
AcDbScale
 70
     0
300
1/64" = 1'-0"
140
0.015625
141
12.0
290
     0
  0
SCALE
  5
5E
102
{ACAD_REACTORS
330
4A
102
}
330
4A
100
AcDbScale
 70
     0
300
1/32" = 1'-0"
140
0.03125
141
12.0
290
     0
  0
SCALE
  5
5F
102
{ACAD_REACTORS
330
4A
102
}
330
4A
100
AcDbScale
 70
     0
300
1/16" = 1'-0"
140
0.0625
141
12.0
290
     0
  0
SCALE
  5
60
102
{ACAD_REACTORS
330
4A
102
}
330
4A
100
AcDbScale
 70
     0
300
3/32" = 1'-0"
140
0.09375
141
12.0
290
     0
  0
SCALE
  5
61
102
{ACAD_REACTORS
330
4A
102
}
330
4A
100
AcDbScale
 70
     0
300
1/8" = 1'-0"
140
0.125
141
12.0
290
     0
  0
SCALE
  5
62
102
{ACAD_REACTORS
330
4A
102
}
330
4A
100
AcDbScale
 70
     0
300
3/16" = 1'-0"
140
0.1875
141
12.0
290
     0
  0
SCALE
  5
63
102
{ACAD_REACTORS
330
4A
102
}
330
4A
100
AcDbScale
 70
     0
300
1/4" = 1'-0"
140
0.25
141
12.0
290
     0
  0
SCALE
  5
64
102
{ACAD_REACTORS
330
4A
102
}
330
4A
100
AcDbScale
 70
     0
300
3/8" = 1'-0"
140
0.375
141
12.0
290
     0
  0
SCALE
  5
65
102
{ACAD_REACTORS
330
4A
102
}
330
4A
100
AcDbScale
 70
     0
300
1/2" = 1'-0"
140
0.5
141
12.0
290
     0
  0
SCALE
  5
66
102
{ACAD_REACTORS
330
4A
102
}
330
4A
100
AcDbScale
 70
     0
300
3/4" = 1'-0"
140
0.75
141
12.0
290
     0
  0
SCALE
  5
67
102
{ACAD_REACTORS
330
4A
102
}
330
4A
100
AcDbScale
 70
     0
300
1" = 1'-0"
140
1.0
141
12.0
290
     0
  0
SCALE
  5
68
102
{ACAD_REACTORS
330
4A
102
}
330
4A
100
AcDbScale
 70
     0
300
1-1/2" = 1'-0"
140
1.5
141
12.0
290
     0
  0
SCALE
  5
69
102
{ACAD_REACTORS
330
4A
102
}
330
4A
100
AcDbScale
 70
     0
300
3" = 1'-0"
140
3.0
141
12.0
290
     0
  0
SCALE
  5
6A
102
{ACAD_REACTORS
330
4A
102
}
330
4A
100
AcDbScale
 70
     0
300
6" = 1'-0"
140
6.0
141
12.0
290
     0
  0
SCALE
  5
6B
102
{ACAD_REACTORS
330
4A
102
}
330
4A
100
AcDbScale
 70
     0
300
1'-0" = 1'-0"
140
12.0
141
12.0
290
     0
  0
VISUALSTYLE
  5
2F
102
{ACAD_REACTORS
330
2A
102
}
330
2A
100
AcDbVisualStyle
  2
2dWireframe
 70
     4
 71
     0
 72
     2
 73
     0
 90
        0
 40
-0.6
 41
-30.0
 62
     5
 63
     7
 74
     1
 91
        4
 64
     7
 65
   257
 75
     1
175
     1
 42
1.0
 92
        0
 66
   257
 43
1.0
 76
     1
 77
     6
 78
     2
 67
     7
 79
     5
170
     0
171
     0
290
     0
174
     0
 93
        1
 44
0.0
173
     0
291
     0
 45
0.0
1001
ACAD
1000
AcDbSavedByObjectVersion
1070
     0
  0
VISUALSTYLE
  5
31
102
{ACAD_REACTORS
330
2A
102
}
330
2A
100
AcDbVisualStyle
  2
3D Hidden
 70
     6
 71
     1
 72
     2
 73
     2
 90
        0
 40
-0.6
 41
-30.0
 62
     5
 63
     7
 74
     2
 91
        2
 64
     7
 65
   257
 75
     2
175
     1
 42
40.0
 92
        0
 66
   257
 43
1.0
 76
     1
 77
     6
 78
     2
 67
     7
 79
     3
170
     0
171
     0
290
     0
174
     0
 93
        1
 44
0.0
173
     0
291
     0
 45
0.0
1001
ACAD
1000
AcDbSavedByObjectVersion
1070
     0
  0
VISUALSTYLE
  5
30
102
{ACAD_REACTORS
330
2A
102
}
330
2A
100
AcDbVisualStyle
  2
3dWireframe
 70
     5
 71
     0
 72
     2
 73
     0
 90
        0
 40
-0.6
 41
-30.0
 62
     5
 63
     7
 74
     1
 91
        4
 64
     7
 65
   257
 75
     1
175
     1
 42
1.0
 92
        0
 66
   257
 43
1.0
 76
     1
 77
     6
 78
     2
 67
     7
 79
     5
170
     0
171
     0
290
     0
174
     0
 93
        1
 44
0.0
173
     0
291
     0
 45
0.0
1001
ACAD
1000
AcDbSavedByObjectVersion
1070
     0
  0
VISUALSTYLE
  5
32
102
{ACAD_REACTORS
330
2A
102
}
330
2A
100
AcDbVisualStyle
  2
Basic
 70
     7
 71
     1
 72
     0
 73
     1
 90
        0
 40
-0.6
 41
-30.0
 62
     5
 63
     7
 74
     0
 91
        4
 64
     7
 65
   257
 75
     1
175
     1
 42
1.0
 92
        8
 66
     7
 43
1.0
 76
     1
 77
     6
 78
     2
 67
     7
 79
     5
170
     0
171
     0
290
     0
174
     0
 93
        1
 44
0.0
173
     0
291
     1
 45
0.0
1001
ACAD
1000
AcDbSavedByObjectVersion
1070
     0
  0
VISUALSTYLE
  5
36
102
{ACAD_REACTORS
330
2A
102
}
330
2A
100
AcDbVisualStyle
  2
Brighten
 70
    12
 71
     2
 72
     2
 73
     0
 90
        0
 40
-0.6
 41
-30.0
 62
     5
 63
     7
 74
     1
 91
        4
 64
     7
 65
   257
 75
     1
175
     1
 42
1.0
 92
        8
 66
     7
 43
1.0
 76
     1
 77
     6
 78
     2
 67
     7
 79
     5
170
     0
171
     0
290
     0
174
     0
 93
        1
 44
50.0
173
     0
291
     1
 45
0.0
1001
ACAD
1000
AcDbSavedByObjectVersion
1070
     0
  0
VISUALSTYLE
  5
3A
102
{ACAD_REACTORS
330
2A
102
}
330
2A
100
AcDbVisualStyle
  2
ColorChange
 70
    16
 71
     2
 72
     2
 73
     3
 90
        0
 40
-0.6
 41
-30.0
 62
     5
 63
     8
 74
     1
 91
        4
 64
     7
 65
   257
 75
     1
175
     1
 42
1.0
 92
        8
 66
     8
 43
1.0
 76
     1
 77
     6
 78
     2
 67
     7
 79
     5
170
     0
171
     0
290
     0
174
     0
 93
        1
 44
0.0
173
     0
291
     1
 45
0.0
1001
ACAD
1000
AcDbSavedByObjectVersion
1070
     0
  0
VISUALSTYLE
  5
34
102
{ACAD_REACTORS
330
2A
102
}
330
2A
100
AcDbVisualStyle
  2
Conceptual
 70
     9
 71
     3
 72
     2
 73
     0
 90
        0
 40
-0.6
 41
-30.0
 62
     5
 63
     7
 74
     2
 91
        2
 64
     7
 65
   257
 75
     1
175
     1
 42
40.0
 92
        8
 66
     7
 43
1.0
 76
     1
 77
     6
 78
     2
 67
     7
 79
     3
170
     0
171
     0
290
     0
174
     0
 93
        1
 44
0.0
173
     0
291
     0
 45
0.0
1001
ACAD
1000
AcDbSavedByObjectVersion
1070
     0
  0
VISUALSTYLE
  5
35
102
{ACAD_REACTORS
330
2A
102
}
330
2A
100
AcDbVisualStyle
  2
Dim
 70
    11
 71
     2
 72
     2
 73
     0
 90
        0
 40
-0.6
 41
-30.0
 62
     5
 63
     7
 74
     1
 91
        4
 64
     7
 65
   257
 75
     1
175
     1
 42
1.0
 92
        8
 66
     7
 43
1.0
 76
     1
 77
     6
 78
     2
 67
     7
 79
     5
170
     0
171
     0
290
     0
174
     0
 93
        1
 44
-50.0
173
     0
291
     1
 45
0.0
1001
ACAD
1000
AcDbSavedByObjectVersion
1070
     0
  0
VISUALSTYLE
  5
39
102
{ACAD_REACTORS
330
2A
102
}
330
2A
100
AcDbVisualStyle
  2
Facepattern
 70
    15
 71
     2
 72
     2
 73
     0
 90
        0
 40
-0.6
 41
-30.0
 62
     5
 63
     7
 74
     1
 91
        4
 64
     7
 65
   257
 75
     1
175
     1
 42
1.0
 92
        8
 66
     7
 43
1.0
 76
     1
 77
     6
 78
     2
 67
     7
 79
     5
170
     0
171
     0
290
     0
174
     0
 93
        1
 44
0.0
173
     0
291
     1
 45
0.0
1001
ACAD
1000
AcDbSavedByObjectVersion
1070
     0
  0
VISUALSTYLE
  5
2B
102
{ACAD_REACTORS
330
2A
102
}
330
2A
100
AcDbVisualStyle
  2
Flat
 70
     0
 71
     2
 72
     1
 73
     1
 90
        2
 40
-0.6
 41
30.0
 62
     5
 63
     7
 74
     0
 91
        4
 64
     7
 65
   257
 75
     1
175
     1
 42
1.0
 92
        8
 66
     7
 43
1.0
 76
     1
 77
     6
 78
     2
 67
     7
 79
     5
170
     0
171
     0
290
     0
174
     0
 93
       13
 44
0.0
173
     0
291
     1
 45
0.0
1001
ACAD
1000
AcDbSavedByObjectVersion
1070
     0
  0
VISUALSTYLE
  5
2C
102
{ACAD_REACTORS
330
2A
102
}
330
2A
100
AcDbVisualStyle
  2
FlatWithEdges
 70
     1
 71
     2
 72
     1
 73
     1
 90
        2
 40
-0.6
 41
30.0
 62
     5
 63
     7
 74
     1
 91
        4
 64
     7
 65
   257
 75
     1
175
     1
 42
1.0
 92
        0
 66
   257
 43
1.0
 76
     1
 77
     6
 78
     2
 67
     7
 79
     5
170
     0
171
     0
290
     0
174
     0
 93
       13
 44
0.0
173
     0
291
     1
 45
0.0
1001
ACAD
1000
AcDbSavedByObjectVersion
1070
     0
  0
VISUALSTYLE
  5
2D
102
{ACAD_REACTORS
330
2A
102
}
330
2A
100
AcDbVisualStyle
  2
Gouraud
 70
     2
 71
     2
 72
     2
 73
     1
 90
        2
 40
-0.6
 41
30.0
 62
     5
 63
     7
 74
     0
 91
        4
 64
     7
 65
   257
 75
     1
175
     1
 42
1.0
 92
        0
 66
     7
 43
1.0
 76
     1
 77
     6
 78
     2
 67
     7
 79
     5
170
     0
171
     0
290
     0
174
     0
 93
       13
 44
0.0
173
     0
291
     1
 45
0.0
1001
ACAD
1000
AcDbSavedByObjectVersion
1070
     0
  0
VISUALSTYLE
  5
2E
102
{ACAD_REACTORS
330
2A
102
}
330
2A
100
AcDbVisualStyle
  2
GouraudWithEdges
 70
     3
 71
     2
 72
     2
 73
     1
 90
        2
 40
-0.6
 41
30.0
 62
     5
 63
     7
 74
     1
 91
        4
 64
     7
 65
   257
 75
     1
175
     1
 42
1.0
 92
        0
 66
   257
 43
1.0
 76
     1
 77
     6
 78
     2
 67
     7
 79
     5
170
     0
171
     0
290
     0
174
     0
 93
       13
 44
0.0
173
     0
291
     1
 45
0.0
1001
ACAD
1000
AcDbSavedByObjectVersion
1070
     0
  0
VISUALSTYLE
  5
38
102
{ACAD_REACTORS
330
2A
102
}
330
2A
100
AcDbVisualStyle
  2
Linepattern
 70
    14
 71
     2
 72
     2
 73
     0
 90
        0
 40
-0.6
 41
-30.0
 62
     5
 63
     7
 74
     1
 91
        4
 64
     7
 65
   257
 75
     7
175
     7
 42
1.0
 92
        8
 66
     7
 43
1.0
 76
     1
 77
     6
 78
     2
 67
     7
 79
     5
170
     0
171
     0
290
     0
174
     0
 93
        1
 44
0.0
173
     0
291
     1
 45
0.0
1001
ACAD
1000
AcDbSavedByObjectVersion
1070
     0
  0
VISUALSTYLE
  5
33
102
{ACAD_REACTORS
330
2A
102
}
330
2A
100
AcDbVisualStyle
  2
Realistic
 70
     8
 71
     2
 72
     2
 73
     0
 90
        0
 40
-0.6
 41
-30.0
 62
     5
 63
     7
 74
     1
 91
        0
 64
     7
 65
   257
 75
     1
175
     1
 42
1.0
 92
        8
 66
     8
 43
1.0
 76
     1
 77
     6
 78
     2
 67
     7
 79
     5
170
     0
171
     0
290
     0
174
     0
 93
       13
 44
0.0
173
     0
291
     0
 45
0.0
1001
ACAD
1000
AcDbSavedByObjectVersion
1070
     0
  0
VISUALSTYLE
  5
37
102
{ACAD_REACTORS
330
2A
102
}
330
2A
100
AcDbVisualStyle
  2
Thicken
 70
    13
 71
     2
 72
     2
 73
     0
 90
        0
 40
-0.6
 41
-30.0
 62
     5
 63
     7
 74
     1
 91
        4
 64
     7
 65
   257
 75
     1
175
     1
 42
1.0
 92
       12
 66
     7
 43
1.0
 76
     1
 77
     6
 78
     2
 67
     7
 79
     5
170
     0
171
     0
290
     0
174
     0
 93
        1
 44
0.0
173
     0
291
     1
 45
0.0
1001
ACAD
1000
AcDbSavedByObjectVersion
1070
     0
  0
DICTIONARYVAR
  5
158
102
{ACAD_REACTORS
330
155
102
}
330
155
100
DictionaryVariables
280
     0
  1
1:1
  0
ENDSEC
  0
EOF
