  0
SECTION
  2
HEADER
  9
$ACADVER
  1
AC1015
  9
$ACADMAINTVER
 70
     6
  9
$DWGCODEPAGE
  3
ANSI_1252
  9
$INSBASE
 10
0.0
 20
0.0
 30
0.0
  9
$EXTMIN
 10
85.3007023046904
 20
257.9781345954878
 30
0.0
  9
$EXTMAX
 10
233.239640576766
 20
366.747521512794
 30
0.0
  9
$LIMMIN
 10
0.0
 20
0.0
  9
$LIMMAX
 10
12.0
 20
9.0
  9
$ORTHOMODE
 70
     0
  9
$REGENMODE
 70
     1
  9
$FILLMODE
 70
     1
  9
$QTEXTMODE
 70
     0
  9
$MIRRTEXT
 70
     1
  9
$LTSCALE
 40
1.0
  9
$ATTMODE
 70
     1
  9
$TEXTSIZE
 40
0.2
  9
$TRACEWID
 40
0.05
  9
$TEXTSTYLE
  7
Standard
  9
$CLAYER
  8
0
  9
$CELTYPE
  6
ByLayer
  9
$CECOLOR
 62
   256
  9
$CELTSCALE
 40
1.0
  9
$DISPSILH
 70
     0
  9
$DIMSCALE
 40
1.0
  9
$DIMASZ
 40
0.18
  9
$DIMEXO
 40
0.0625
  9
$DIMDLI
 40
0.38
  9
$DIMRND
 40
0.0
  9
$DIMDLE
 40
0.0
  9
$DIMEXE
 40
0.18
  9
$DIMTP
 40
0.0
  9
$DIMTM
 40
0.0
  9
$DIMTXT
 40
0.18
  9
$DIMCEN
 40
0.09
  9
$DIMTSZ
 40
0.0
  9
$DIMTOL
 70
     0
  9
$DIMLIM
 70
     0
  9
$DIMTIH
 70
     1
  9
$DIMTOH
 70
     1
  9
$DIMSE1
 70
     0
  9
$DIMSE2
 70
     0
  9
$DIMTAD
 70
     0
  9
$DIMZIN
 70
     0
  9
$DIMBLK
  1

  9
$DIMASO
 70
     1
  9
$DIMSHO
 70
     1
  9
$DIMPOST
  1

  9
$DIMAPOST
  1

  9
$DIMALT
 70
     0
  9
$DIMALTD
 70
     2
  9
$DIMALTF
 40
25.4
  9
$DIMLFAC
 40
1.0
  9
$DIMTOFL
 70
     0
  9
$DIMTVP
 40
0.0
  9
$DIMTIX
 70
     0
  9
$DIMSOXD
 70
     0
  9
$DIMSAH
 70
     0
  9
$DIMBLK1
  1

  9
$DIMBLK2
  1

  9
$DIMSTYLE
  2
Standard
  9
$DIMCLRD
 70
     0
  9
$DIMCLRE
 70
     0
  9
$DIMCLRT
 70
     0
  9
$DIMTFAC
 40
1.0
  9
$DIMGAP
 40
0.09
  9
$DIMJUST
 70
     0
  9
$DIMSD1
 70
     0
  9
$DIMSD2
 70
     0
  9
$DIMTOLJ
 70
     1
  9
$DIMTZIN
 70
     0
  9
$DIMALTZ
 70
     0
  9
$DIMALTTZ
 70
     0
  9
$DIMUPT
 70
     0
  9
$DIMDEC
 70
     4
  9
$DIMTDEC
 70
     4
  9
$DIMALTU
 70
     2
  9
$DIMALTTD
 70
     2
  9
$DIMTXSTY
  7
Standard
  9
$DIMAUNIT
 70
     0
  9
$DIMADEC
 70
     0
  9
$DIMALTRND
 40
0.0
  9
$DIMAZIN
 70
     0
  9
$DIMDSEP
 70
    46
  9
$DIMATFIT
 70
     3
  9
$DIMFRAC
 70
     0
  9
$DIMLDRBLK
  1

  9
$DIMLUNIT
 70
     2
  9
$DIMLWD
 70
    -2
  9
$DIMLWE
 70
    -2
  9
$DIMTMOVE
 70
     0
  9
$LUNITS
 70
     2
  9
$LUPREC
 70
     4
  9
$SKETCHINC
 40
0.1
  9
$FILLETRAD
 40
0.5
  9
$AUNITS
 70
     0
  9
$AUPREC
 70
     0
  9
$MENU
  1
.
  9
$ELEVATION
 40
0.0
  9
$PELEVATION
 40
0.0
  9
$THICKNESS
 40
0.0
  9
$LIMCHECK
 70
     0
  9
$CHAMFERA
 40
0.5
  9
$CHAMFERB
 40
0.5
  9
$CHAMFERC
 40
1.0
  9
$CHAMFERD
 40
0.0
  9
$SKPOLY
 70
     0
  9
$TDCREATE
 40
2456637.603576354
  9
$TDUCREATE
 40
2456637.561909688
  9
$TDUPDATE
 40
2456637.603576366
  9
$TDUUPDATE
 40
2456637.561909699
  9
$TDINDWG
 40
0.0000000116
  9
$TDUSRTIMER
 40
0.0000000116
  9
$USRTIMER
 70
     1
  9
$ANGBASE
 50
0.0
  9
$ANGDIR
 70
     0
  9
$PDMODE
 70
     0
  9
$PDSIZE
 40
0.0
  9
$PLINEWID
 40
0.0
  9
$SPLFRAME
 70
     0
  9
$SPLINETYPE
 70
     6
  9
$SPLINESEGS
 70
     8
  9
$HANDSEED
  5
173
  9
$SURFTAB1
 70
     6
  9
$SURFTAB2
 70
     6
  9
$SURFTYPE
 70
     6
  9
$SURFU
 70
     6
  9
$SURFV
 70
     6
  9
$UCSBASE
  2

  9
$UCSNAME
  2

  9
$UCSORG
 10
0.0
 20
0.0
 30
0.0
  9
$UCSXDIR
 10
1.0
 20
0.0
 30
0.0
  9
$UCSYDIR
 10
0.0
 20
1.0
 30
0.0
  9
$UCSORTHOREF
  2

  9
$UCSORTHOVIEW
 70
     0
  9
$UCSORGTOP
 10
0.0
 20
0.0
 30
0.0
  9
$UCSORGBOTTOM
 10
0.0
 20
0.0
 30
0.0
  9
$UCSORGLEFT
 10
0.0
 20
0.0
 30
0.0
  9
$UCSORGRIGHT
 10
0.0
 20
0.0
 30
0.0
  9
$UCSORGFRONT
 10
0.0
 20
0.0
 30
0.0
  9
$UCSORGBACK
 10
0.0
 20
0.0
 30
0.0
  9
$PUCSBASE
  2

  9
$PUCSNAME
  2

  9
$PUCSORG
 10
0.0
 20
0.0
 30
0.0
  9
$PUCSXDIR
 10
1.0
 20
0.0
 30
0.0
  9
$PUCSYDIR
 10
0.0
 20
1.0
 30
0.0
  9
$PUCSORTHOREF
  2

  9
$PUCSORTHOVIEW
 70
     0
  9
$PUCSORGTOP
 10
0.0
 20
0.0
 30
0.0
  9
$PUCSORGBOTTOM
 10
0.0
 20
0.0
 30
0.0
  9
$PUCSORGLEFT
 10
0.0
 20
0.0
 30
0.0
  9
$PUCSORGRIGHT
 10
0.0
 20
0.0
 30
0.0
  9
$PUCSORGFRONT
 10
0.0
 20
0.0
 30
0.0
  9
$PUCSORGBACK
 10
0.0
 20
0.0
 30
0.0
  9
$USERI1
 70
     0
  9
$USERI2
 70
     0
  9
$USERI3
 70
     0
  9
$USERI4
 70
     0
  9
$USERI5
 70
     0
  9
$USERR1
 40
16.5
  9
$USERR2
 40
0.0
  9
$USERR3
 40
0.0
  9
$USERR4
 40
0.0
  9
$USERR5
 40
0.0
  9
$WORLDVIEW
 70
     1
  9
$SHADEDGE
 70
     3
  9
$SHADEDIF
 70
    70
  9
$TILEMODE
 70
     1
  9
$MAXACTVP
 70
    64
  9
$PINSBASE
 10
0.0
 20
0.0
 30
0.0
  9
$PLIMCHECK
 70
     0
  9
$PEXTMIN
 10
1.00000000000000E+20
 20
1.00000000000000E+20
 30
1.00000000000000E+20
  9
$PEXTMAX
 10
-1.00000000000000E+20
 20
-1.00000000000000E+20
 30
-1.00000000000000E+20
  9
$PLIMMIN
 10
0.0
 20
0.0
  9
$PLIMMAX
 10
12.0
 20
9.0
  9
$UNITMODE
 70
     0
  9
$VISRETAIN
 70
     1
  9
$PLINEGEN
 70
     0
  9
$PSLTSCALE
 70
     1
  9
$TREEDEPTH
 70
  3020
  9
$CMLSTYLE
  2
Standard
  9
$CMLJUST
 70
     0
  9
$CMLSCALE
 40
1.0
  9
$PROXYGRAPHICS
 70
     1
  9
$MEASUREMENT
 70
     1
  9
$CELWEIGHT
370
    -1
  9
$ENDCAPS
280
     0
  9
$JOINSTYLE
280
     0
  9
$LWDISPLAY
290
     0
  9
$INSUNITS
 70
     1
  9
$HYPERLINKBASE
  1

  9
$STYLESHEET
  1

  9
$XEDIT
290
     1
  9
$CEPSNTYPE
380
     0
  9
$PSTYLEMODE
290
     1
  9
$FINGERPRINTGUID
  2
{E125D1D0-0E40-445D-A231-E88BF39A067D}
  9
$VERSIONGUID
  2
{FAEB1C32-E019-11D5-929B-00C0DF256EC4}
  9
$EXTNAMES
290
     1
  9
$PSVPSCALE
 40
0.0
  9
$OLESTARTUP
290
     0
  0
ENDSEC
  0
SECTION
  2
CLASSES
  0
CLASS
  1
ACDBDICTIONARYWDFLT
  2
AcDbDictionaryWithDefault
  3
ObjectDBX Classes
 90
        0
280
     0
281
     0
  0
CLASS
  1
VISUALSTYLE
  2
AcDbVisualStyle
  3
ObjectDBX Classes
 90
     4095
280
     0
281
     0
  0
CLASS
  1
SCALE
  2
AcDbScale
  3
ObjectDBX Classes
 90
     1153
280
     0
281
     0
  0
CLASS
  1

  2
exOdDbPolyline
  3

 90
        0
280
     0
281
     1
  0
CLASS
  1

  2
exOdDbCircle
  3

 90
        0
280
     0
281
     1
  0
CLASS
  1

  2
exOdDbSpline
  3

 90
        0
280
     0
281
     1
  0
CLASS
  1
DICTIONARYVAR
  2
AcDbDictionaryVar
  3
ObjectDBX Classes
 90
        0
280
     0
281
     0
  0
CLASS
  1
ACDBPLACEHOLDER
  2
AcDbPlaceHolder
  3
ObjectDBX Classes
 90
        0
280
     0
281
     0
  0
CLASS
  1
LAYOUT
  2
AcDbLayout
  3
ObjectDBX Classes
 90
        0
280
     0
281
     0
  0
ENDSEC
  0
SECTION
  2
TABLES
  0
TABLE
  2
VPORT
  5
8
330
0
100
AcDbSymbolTable
 70
     1
  0
VPORT
  5
29
330
8
100
AcDbSymbolTableRecord
100
AcDbViewportTableRecord
  2
*Active
 70
     0
 10
0.0
 20
0.0
 11
1.0
 21
1.0
 12
159.2701714407282
 22
312.3628280541409
 13
0.0
 23
0.0
 14
0.5
 24
0.5
 15
0.5
 25
0.5
 16
0.0
 26
0.0
 36
1.0
 17
0.0
 27
0.0
 37
0.0
 40
119.6463256090368
 41
1.60267857142857
 42
50.0
 43
0.0
 44
0.0
 50
0.0
 51
0.0
 71
     0
 72
   100
 73
     1
 74
     3
 75
     0
 76
     0
 77
     0
 78
     0
281
     0
 65
     1
110
0.0
120
0.0
130
0.0
111
1.0
121
0.0
131
0.0
112
0.0
122
1.0
132
0.0
 79
     0
146
0.0
  0
ENDTAB
  0
TABLE
  2
LTYPE
  5
5
330
0
100
AcDbSymbolTable
 70
     9
  0
LTYPE
  5
14
330
5
100
AcDbSymbolTableRecord
100
AcDbLinetypeTableRecord
  2
ByBlock
 70
     0
  3

 72
    65
 73
     0
 40
0.0
  0
LTYPE
  5
15
330
5
100
AcDbSymbolTableRecord
100
AcDbLinetypeTableRecord
  2
ByLayer
 70
     0
  3

 72
    65
 73
     0
 40
0.0
  0
LTYPE
  5
16
330
5
100
AcDbSymbolTableRecord
100
AcDbLinetypeTableRecord
  2
Continuous
 70
     0
  3
Solid line
 72
    65
 73
     0
 40
0.0
  0
LTYPE
  5
3B
330
5
100
AcDbSymbolTableRecord
100
AcDbLinetypeTableRecord
  2
DASHED
 70
     0
  3
Dashed
 72
    65
 73
     2
 40
15.0
 49
7.0
 74
     0
 49
-8.0
 74
     0
  0
LTYPE
  5
3C
330
5
100
AcDbSymbolTableRecord
100
AcDbLinetypeTableRecord
  2
DOTTED
 70
     0
  3
Dotted
 72
    65
 73
     2
 40
1.0
 49
0.0
 74
     0
 49
-1.0
 74
     0
  0
LTYPE
  5
3D
330
5
100
AcDbSymbolTableRecord
100
AcDbLinetypeTableRecord
  2
DOT_CENTER
 70
     0
  3
Dot_Center
 72
    65
 73
     4
 40
14.0
 49
12.0
 74
     0
 49
-1.0
 74
     0
 49
0.0
 74
     0
 49
-1.0
 74
     0
  0
LTYPE
  5
3E
330
5
100
AcDbSymbolTableRecord
100
AcDbLinetypeTableRecord
  2
LONG_DASHED
 70
     0
  3
Long_Dashed
 72
    65
 73
     2
 40
15.0
 49
10.0
 74
     0
 49
-5.0
 74
     0
  0
LTYPE
  5
3F
330
5
100
AcDbSymbolTableRecord
100
AcDbLinetypeTableRecord
  2
DASH_CENTER
 70
     0
  3
Dash_Center
 72
    65
 73
     4
 40
14.0
 49
11.0
 74
     0
 49
-1.0
 74
     0
 49
1.0
 74
     0
 49
-1.0
 74
     0
  0
LTYPE
  5
40
330
5
100
AcDbSymbolTableRecord
100
AcDbLinetypeTableRecord
  2
PHANTOM
 70
     0
  3
Phantom
 72
    65
 73
     6
 40
13.0
 49
10.0
 74
     0
 49
-1.0
 74
     0
 49
0.0
 74
     0
 49
-1.0
 74
     0
 49
0.0
 74
     0
 49
-1.0
 74
     0
  0
LTYPE
  5
41
330
5
100
AcDbSymbolTableRecord
100
AcDbLinetypeTableRecord
  2
CENTER_DASH_DASH
 70
     0
  3
Center_Dash_Dash
 72
    65
 73
     6
 40
14.0
 49
9.0
 74
     0
 49
-1.0
 74
     0
 49
1.0
 74
     0
 49
-1.0
 74
     0
 49
1.0
 74
     0
 49
-1.0
 74
     0
  0
LTYPE
  5
42
330
5
100
AcDbSymbolTableRecord
100
AcDbLinetypeTableRecord
  2
CENTER
 70
     0
  3
CENTER
 72
    65
 73
     4
 40
13.0
 49
7.0
 74
     0
 49
-2.0
 74
     0
 49
2.0
 74
     0
 49
-2.0
 74
     0
  0
ENDTAB
  0
TABLE
  2
LAYER
  5
2
330
0
100
AcDbSymbolTable
 70
     6
  0
LAYER
  5
10
330
2
100
AcDbSymbolTableRecord
100
AcDbLayerTableRecord
  2
0
 70
     0
 62
     7
  6
Continuous
370
    -3
390
F
  0
LAYER
  5
43
330
2
100
AcDbSymbolTableRecord
100
AcDbLayerTableRecord
  2
1
 70
     0
 62
     7
  6
Continuous
370
    -3
390
F
  0
LAYER
  5
44
330
2
100
AcDbSymbolTableRecord
100
AcDbLayerTableRecord
  2
BEZUGSACHSEN
 70
     0
 62
     7
  6
Continuous
370
    -3
390
F
  0
LAYER
  5
45
330
2
100
AcDbSymbolTableRecord
100
AcDbLayerTableRecord
  2
FASEN
 70
     0
 62
     7
  6
Continuous
370
    -3
390
F
  0
LAYER
  5
46
330
2
100
AcDbSymbolTableRecord
100
AcDbLayerTableRecord
  2
RUNDUNGEN
 70
     0
 62
     7
  6
Continuous
370
    -3
390
F
  0
LAYER
  5
47
330
2
100
AcDbSymbolTableRecord
100
AcDbLayerTableRecord
  2
TEIL_STARTBEZUEGE
 70
     0
 62
     7
  6
Continuous
370
    -3
390
F
  0
ENDTAB
  0
TABLE
  2
STYLE
  5
3
330
0
100
AcDbSymbolTable
 70
     2
  0
STYLE
  5
11
330
3
100
AcDbSymbolTableRecord
100
AcDbTextStyleTableRecord
  2
Standard
 70
     0
 40
0.0
 41
1.0
 50
0.0
 71
     0
 42
0.2
  3
txt
  4

  0
STYLE
  5
6E
330
3
100
AcDbSymbolTableRecord
100
AcDbTextStyleTableRecord
  2
CONVERTER_11
 70
     0
 40
0.0
 41
0.72
 50
0.0
 71
     0
 42
0.2
  3
txt.shx
  4

  0
ENDTAB
  0
TABLE
  2
VIEW
  5
6
330
0
100
AcDbSymbolTable
 70
     0
  0
ENDTAB
  0
TABLE
  2
UCS
  5
7
330
0
100
AcDbSymbolTable
 70
     0
  0
ENDTAB
  0
TABLE
  2
APPID
  5
9
330
0
100
AcDbSymbolTable
 70
     1
  0
APPID
  5
12
330
9
100
AcDbSymbolTableRecord
100
AcDbRegAppTableRecord
  2
ACAD
 70
     0
  0
ENDTAB
  0
TABLE
  2
DIMSTYLE
  5
A
330
0
100
AcDbSymbolTable
 70
     8
100
AcDbDimStyleTable
  0
DIMSTYLE
105
27
330
A
100
AcDbSymbolTableRecord
100
AcDbDimStyleTableRecord
  2
Standard
 70
     0
340
11
  0
DIMSTYLE
105
12B
102
{ACAD_REACTORS
330
12C
102
}
330
A
100
AcDbSymbolTableRecord
100
AcDbDimStyleTableRecord
  2
ME10_DIM_10
 70
     0
  3
\U+2300<>
 41
3.5
 42
2.0
 44
2.0
 71
     1
 73
     0
 74
     0
 77
     1
 78
     8
140
3.5
146
0.7
147
2.0
172
     1
173
     1
176
     2
177
     2
178
     3
271
     2
272
     0
340
6E
  0
DIMSTYLE
105
136
102
{ACAD_REACTORS
330
137
102
}
330
A
100
AcDbSymbolTableRecord
100
AcDbDimStyleTableRecord
  2
ME10_DIM_11
 70
     0
  3
\U+2300<>
 41
3.5
 42
2.0
 44
2.0
 71
     1
 73
     0
 74
     0
 77
     1
 78
     8
140
3.5
146
0.7
147
2.0
172
     1
173
     1
176
     2
177
     2
178
     3
271
     2
272
     0
340
6E
  0
DIMSTYLE
105
141
102
{ACAD_REACTORS
330
142
102
}
330
A
100
AcDbSymbolTableRecord
100
AcDbDimStyleTableRecord
  2
ME10_DIM_12
 70
     0
  3
<>
 41
3.5
 42
2.0
 44
2.0
 71
     1
 73
     0
 74
     0
 77
     1
 78
     8
140
3.5
146
0.7
147
2.0
172
     1
173
     1
176
     2
177
     2
178
     3
271
     2
272
     0
340
6E
  0
DIMSTYLE
105
14C
102
{ACAD_REACTORS
330
14D
102
}
330
A
100
AcDbSymbolTableRecord
100
AcDbDimStyleTableRecord
  2
ME10_DIM_13
 70
     0
  3
<>
 41
3.5
 42
2.0
 44
2.0
 71
     1
 73
     0
 74
     0
 77
     1
 78
     8
140
3.5
146
0.7
147
2.0
172
     1
173
     1
176
     2
177
     2
178
     3
271
     0
272
     0
340
6E
  0
DIMSTYLE
105
157
102
{ACAD_REACTORS
330
158
102
}
330
A
100
AcDbSymbolTableRecord
100
AcDbDimStyleTableRecord
  2
ME10_DIM_14
 70
     0
  3
<>
 41
3.5
 42
2.0
 44
2.0
 71
     1
 73
     0
 74
     0
 77
     1
 78
     8
140
3.5
146
0.7
147
2.0
172
     1
173
     1
176
     2
177
     2
178
     3
271
     2
272
     0
340
6E
  0
DIMSTYLE
105
162
102
{ACAD_REACTORS
330
163
102
}
330
A
100
AcDbSymbolTableRecord
100
AcDbDimStyleTableRecord
  2
ME10_DIM_15
 70
     0
  3
<>
 41
3.5
 42
2.0
 44
2.0
 71
     1
 73
     0
 74
     0
 77
     1
 78
     8
140
3.5
146
0.7
147
2.0
172
     1
173
     1
176
     2
177
     2
178
     3
271
     0
272
     0
340
6E
  0
DIMSTYLE
105
16D
102
{ACAD_REACTORS
330
16E
102
}
330
A
100
AcDbSymbolTableRecord
100
AcDbDimStyleTableRecord
  2
ME10_DIM_16
 70
     0
  3
<>
 41
3.5
 42
2.0
 44
2.0
 71
     1
 73
     0
 74
     0
 77
     1
 78
     8
140
3.5
146
0.7
147
2.0
172
     1
173
     1
176
     2
177
     2
178
     3
271
     2
272
     0
340
6E
  0
ENDTAB
  0
TABLE
  2
BLOCK_RECORD
  5
1
330
0
100
AcDbSymbolTable
 70
     9
  0
BLOCK_RECORD
  5
1F
330
1
100
AcDbSymbolTableRecord
100
AcDbBlockTableRecord
  2
*Model_Space
340
22
  0
BLOCK_RECORD
  5
1B
330
1
100
AcDbSymbolTableRecord
100
AcDbBlockTableRecord
  2
*Paper_Space
340
1E
  0
BLOCK_RECORD
  5
23
330
1
100
AcDbSymbolTableRecord
100
AcDbBlockTableRecord
  2
*Paper_Space0
340
26
  0
BLOCK_RECORD
  5
48
330
1
100
AcDbSymbolTableRecord
100
AcDbBlockTableRecord
  2
Urheberrecht_DE-EN
340
0
102
{BLKREFS
331
6D
102
}
  0
BLOCK_RECORD
  5
122
330
1
100
AcDbSymbolTableRecord
100
AcDbBlockTableRecord
  2
*D2
340
0
  0
BLOCK_RECORD
  5
12D
330
1
100
AcDbSymbolTableRecord
100
AcDbBlockTableRecord
  2
*D3
340
0
  0
BLOCK_RECORD
  5
138
330
1
100
AcDbSymbolTableRecord
100
AcDbBlockTableRecord
  2
*D4
340
0
  0
BLOCK_RECORD
  5
143
330
1
100
AcDbSymbolTableRecord
100
AcDbBlockTableRecord
  2
*D5
340
0
  0
BLOCK_RECORD
  5
14E
330
1
100
AcDbSymbolTableRecord
100
AcDbBlockTableRecord
  2
*D6
340
0
  0
BLOCK_RECORD
  5
159
330
1
100
AcDbSymbolTableRecord
100
AcDbBlockTableRecord
  2
*D7
340
0
  0
BLOCK_RECORD
  5
164
330
1
100
AcDbSymbolTableRecord
100
AcDbBlockTableRecord
  2
*D8
340
0
  0
ENDTAB
  0
ENDSEC
  0
SECTION
  2
BLOCKS
  0
BLOCK
  5
20
330
1F
100
AcDbEntity
  8
0
100
AcDbBlockBegin
  2
*Model_Space
 70
     0
 10
0.0
 20
0.0
 30
0.0
  3
*Model_Space
  1

  0
ENDBLK
  5
21
330
1F
100
AcDbEntity
  8
0
100
AcDbBlockEnd
  0
BLOCK
  5
1C
330
1B
100
AcDbEntity
 67
     1
  8
0
100
AcDbBlockBegin
  2
*Paper_Space
 70
     0
 10
0.0
 20
0.0
 30
0.0
  3
*Paper_Space
  1

  0
ENDBLK
  5
1D
330
1B
100
AcDbEntity
 67
     1
  8
0
100
AcDbBlockEnd
  0
BLOCK
  5
24
330
23
100
AcDbEntity
  8
0
100
AcDbBlockBegin
  2
*Paper_Space0
 70
     0
 10
0.0
 20
0.0
 30
0.0
  3
*Paper_Space0
  1

  0
ENDBLK
  5
25
330
23
100
AcDbEntity
  8
0
100
AcDbBlockEnd
  0
BLOCK
  5
49
330
48
100
AcDbEntity
  8
0
100
AcDbBlockBegin
  2
Urheberrecht_DE-EN
 70
     0
 10
99.3007023046904
 20
314.267521512794
 30
0.0
  3
Urheberrecht_DE-EN
  1

  0
MTEXT
  5
6F
330
48
100
AcDbEntity
  8
1
 62
     1
100
AcDbMText
 10
99.3007023046904
 20
314.267521512794
 30
0.0
 40
2.0
 41
0.0
 71
     7
 72
     1
  1
We own the copyright of this document. It \Pdetermined and may neither be copied or \Pmade accessible to outsiders without our\Ppermission.
  7
CONVERTER_11
 11
0.0
 21
1.0
 31
0.0
 73
     1
 44
0.90036014405762
  0
MTEXT
  5
70
330
48
100
AcDbEntity
  8
1
 62
     1
100
AcDbMText
 10
99.3007023046904
 20
257.9781345954878
 30
0.0
 40
2.0
 41
0.0
 71
     7
 72
     1
  1
F\U+00fcr diese Unterlage behalten wir das Ur-\Pheberrecht. Sie darf nur f\U+00fcr den von uns \Pbestimmten Zweck benutzt und ohne unsere \PZustimmung weder vervielf\U+00e4ltigt noch\PDritten zug\U+00e4nglich gemacht werden.
  7
CONVERTER_11
 11
0.0
 21
1.0
 31
0.0
 73
     1
 44
0.90036014405762
  0
ENDBLK
  5
4A
330
48
100
AcDbEntity
  8
0
100
AcDbBlockEnd
  0
BLOCK
  5
129
330
122
100
AcDbEntity
  8
0
100
AcDbBlockBegin
  2
*D2
 70
     1
 10
0.0
 20
0.0
 30
0.0
  3
*D2
  1

  0
LINE
  5
123
330
122
100
AcDbEntity
  8
1
  6
Continuous
 62
     2
100
AcDbLine
 10
222.34045767874
 20
307.0740059771
 30
0.0
 11
222.34045767874
 21
285.0740059771
 31
0.0
  0
LINE
  5
124
330
122
100
AcDbEntity
  8
1
  6
Continuous
 62
     2
100
AcDbLine
 10
211.8696985447
 20
307.0740059771
 30
0.0
 11
224.34045767874
 21
307.0740059771
 31
0.0
  0
LINE
  5
125
330
122
100
AcDbEntity
  8
1
  6
Continuous
 62
     2
100
AcDbLine
 10
211.8696985447
 20
285.0740059771
 30
0.0
 11
224.34045767874
 21
285.0740059771
 31
0.0
  0
SOLID
  5
126
330
122
100
AcDbEntity
  8
1
 62
     2
100
AcDbTrace
 10
222.8012414202959
 20
303.5740059771
 30
0.0
 11
221.8796739371841
 21
303.5740059771
 31
0.0
 12
222.34045767874
 22
307.0740059771
 32
0.0
 13
222.34045767874
 23
307.0740059771
 33
0.0
  0
SOLID
  5
127
330
122
100
AcDbEntity
  8
1
 62
     2
100
AcDbTrace
 10
221.8796739371841
 20
288.5740059771
 30
0.0
 11
222.8012414202959
 21
288.5740059771
 31
0.0
 12
222.34045767874
 22
285.0740059771
 32
0.0
 13
222.34045767874
 23
285.0740059771
 33
0.0
  0
MTEXT
  5
128
330
122
100
AcDbEntity
  8
1
 62
     3
100
AcDbMText
 10
220.34045767874
 20
287.350257571422
 30
0.0
 40
3.5
 41
0.0
 71
     7
 72
     1
  1
\C3;%%c\C3;\C3;22\C2;\H2.45;\S^ ;\C3;
  7
CONVERTER_11
 11
0.0
 21
1.0
 31
0.0
 73
     1
 44
0.60024009603842
  0
ENDBLK
  5
12A
330
122
100
AcDbEntity
  8
0
100
AcDbBlockEnd
  0
BLOCK
  5
134
330
12D
100
AcDbEntity
  8
0
100
AcDbBlockBegin
  2
*D3
 70
     1
 10
0.0
 20
0.0
 30
0.0
  3
*D3
  1

  0
LINE
  5
12E
330
12D
100
AcDbEntity
  8
1
  6
Continuous
 62
     2
100
AcDbLine
 10
231.239640576766
 20
320.0740059771
 30
0.0
 11
231.239640576766
 21
272.0740059771
 31
0.0
  0
LINE
  5
12F
330
12D
100
AcDbEntity
  8
1
  6
Continuous
 62
     2
100
AcDbLine
 10
192.8696985447
 20
320.0740059771
 30
0.0
 11
233.239640576766
 21
320.0740059771
 31
0.0
  0
LINE
  5
130
330
12D
100
AcDbEntity
  8
1
  6
Continuous
 62
     2
100
AcDbLine
 10
192.8696985447
 20
272.0740059771
 30
0.0
 11
233.239640576766
 21
272.0740059771
 31
0.0
  0
SOLID
  5
131
330
12D
100
AcDbEntity
  8
1
 62
     2
100
AcDbTrace
 10
231.7004243183219
 20
316.5740059771
 30
0.0
 11
230.7788568352101
 21
316.5740059771
 31
0.0
 12
231.239640576766
 22
320.0740059771
 32
0.0
 13
231.239640576766
 23
320.0740059771
 33
0.0
  0
SOLID
  5
132
330
12D
100
AcDbEntity
  8
1
 62
     2
100
AcDbTrace
 10
230.7788568352101
 20
275.5740059771
 30
0.0
 11
231.7004243183219
 21
275.5740059771
 31
0.0
 12
231.239640576766
 22
272.0740059771
 32
0.0
 13
231.239640576766
 23
272.0740059771
 33
0.0
  0
MTEXT
  5
133
330
12D
100
AcDbEntity
  8
1
 62
     3
100
AcDbMText
 10
229.239640576766
 20
287.124961801851
 30
0.0
 40
3.5
 41
0.0
 71
     7
 72
     1
  1
\C3;%%c\C3;\C3;48\C2;\H2.45;\S^ ;\C3;
  7
CONVERTER_11
 11
0.0
 21
1.0
 31
0.0
 73
     1
 44
0.60024009603842
  0
ENDBLK
  5
135
330
12D
100
AcDbEntity
  8
0
100
AcDbBlockEnd
  0
BLOCK
  5
13F
330
138
100
AcDbEntity
  8
0
100
AcDbBlockBegin
  2
*D4
 70
     1
 10
0.0
 20
0.0
 30
0.0
  3
*D4
  1

  0
LINE
  5
139
330
138
100
AcDbEntity
  8
1
  6
Continuous
 62
     2
100
AcDbLine
 10
210.8696985447
 20
328.647848389545
 30
0.0
 11
191.8696985447
 21
328.647848389545
 31
0.0
  0
LINE
  5
13A
330
138
100
AcDbEntity
  8
1
  6
Continuous
 62
     2
100
AcDbLine
 10
210.8696985447
 20
308.0740059771
 30
0.0
 11
210.8696985447
 21
330.647848389545
 31
0.0
  0
LINE
  5
13B
330
138
100
AcDbEntity
  8
1
  6
Continuous
 62
     2
100
AcDbLine
 10
191.8696985447
 20
321.0740059771
 30
0.0
 11
191.8696985447
 21
330.647848389545
 31
0.0
  0
SOLID
  5
13C
330
138
100
AcDbEntity
  8
1
 62
     2
100
AcDbTrace
 10
207.3696985447
 20
328.1870646479891
 30
0.0
 11
207.3696985447
 21
329.1086321311009
 31
0.0
 12
210.8696985447
 22
328.647848389545
 32
0.0
 13
210.8696985447
 23
328.647848389545
 33
0.0
  0
SOLID
  5
13D
330
138
100
AcDbEntity
  8
1
 62
     2
100
AcDbTrace
 10
195.3696985447
 20
329.1086321311009
 30
0.0
 11
195.3696985447
 21
328.1870646479891
 31
0.0
 12
191.8696985447
 22
328.647848389545
 32
0.0
 13
191.8696985447
 23
328.647848389545
 33
0.0
  0
MTEXT
  5
13E
330
138
100
AcDbEntity
  8
1
 62
     3
100
AcDbMText
 10
200.158542647842
 20
330.647848389545
 30
0.0
 40
3.5
 41
0.0
 71
     7
 72
     1
  1
\C3;\C3;\C3;19\C2;\H2.45;\S^ ;\C3;
  7
CONVERTER_11
 11
0.9999999999970619
 21
2.424068405545306E-6
 31
0.0
 73
     1
 44
0.60024009603842
  0
ENDBLK
  5
140
330
138
100
AcDbEntity
  8
0
100
AcDbBlockEnd
  0
BLOCK
  5
14A
330
143
100
AcDbEntity
  8
0
100
AcDbBlockBegin
  2
*D5
 70
     1
 10
0.0
 20
0.0
 30
0.0
  3
*D5
  1

  0
LINE
  5
144
330
143
100
AcDbEntity
  8
1
  6
Continuous
 62
     2
100
AcDbLine
 10
210.8696985447
 20
336.871143978861
 30
0.0
 11
157.8196985447
 21
336.871143978861
 31
0.0
  0
LINE
  5
145
330
143
100
AcDbEntity
  8
1
  6
Continuous
 62
     2
100
AcDbLine
 10
210.8696985447
 20
308.0740059771
 30
0.0
 11
210.8696985447
 21
338.871143978861
 31
0.0
  0
LINE
  5
146
330
143
100
AcDbEntity
  8
1
  6
Continuous
 62
     2
100
AcDbLine
 10
157.8196985447
 20
323.0739559586
 30
0.0
 11
157.8196985447
 21
338.871143978861
 31
0.0
  0
SOLID
  5
147
330
143
100
AcDbEntity
  8
1
 62
     2
100
AcDbTrace
 10
207.3696985447
 20
336.4103602373052
 30
0.0
 11
207.3696985447
 21
337.3319277204169
 31
0.0
 12
210.8696985447
 22
336.871143978861
 32
0.0
 13
210.8696985447
 23
336.871143978861
 33
0.0
  0
SOLID
  5
148
330
143
100
AcDbEntity
  8
1
 62
     2
100
AcDbTrace
 10
161.3196985447
 20
337.3319277204169
 30
0.0
 11
161.3196985447
 21
336.4103602373052
 31
0.0
 12
157.8196985447
 22
336.871143978861
 32
0.0
 13
157.8196985447
 23
336.871143978861
 33
0.0
  0
MTEXT
  5
149
330
143
100
AcDbEntity
  8
1
 62
     3
100
AcDbMText
 10
182.728712045285
 20
338.871143978861
 30
0.0
 40
3.5
 41
0.0
 71
     7
 72
     1
  1
\C3;\C3;\C3;53\C2;\H2.45;\S^ ;\C3;
  7
CONVERTER_11
 11
0.9999999999970619
 21
2.424068405545306E-6
 31
0.0
 73
     1
 44
0.60024009603842
  0
ENDBLK
  5
14B
330
143
100
AcDbEntity
  8
0
100
AcDbBlockEnd
  0
BLOCK
  5
155
330
14E
100
AcDbEntity
  8
0
100
AcDbBlockBegin
  2
*D6
 70
     1
 10
0.0
 20
0.0
 30
0.0
  3
*D6
  1

  0
LINE
  5
14F
330
14E
100
AcDbEntity
  8
1
  6
Continuous
 62
     2
100
AcDbLine
 10
210.8696985447
 20
344.531200144251
 30
0.0
 11
131.8696985447
 21
344.531200144251
 31
0.0
  0
LINE
  5
150
330
14E
100
AcDbEntity
  8
1
  6
Continuous
 62
     2
100
AcDbLine
 10
210.8696985447
 20
308.0740059771
 30
0.0
 11
210.8696985447
 21
346.531200144251
 31
0.0
  0
LINE
  5
151
330
14E
100
AcDbEntity
  8
1
  6
Continuous
 62
     2
100
AcDbLine
 10
131.8696985447
 20
323.0740059771
 30
0.0
 11
131.8696985447
 21
346.531200144251
 31
0.0
  0
SOLID
  5
152
330
14E
100
AcDbEntity
  8
1
 62
     2
100
AcDbTrace
 10
207.3696985447
 20
344.0704164026951
 30
0.0
 11
207.3696985447
 21
344.9919838858069
 31
0.0
 12
210.8696985447
 22
344.531200144251
 32
0.0
 13
210.8696985447
 23
344.531200144251
 33
0.0
  0
SOLID
  5
153
330
14E
100
AcDbEntity
  8
1
 62
     2
100
AcDbTrace
 10
135.3696985447
 20
344.9919838858069
 30
0.0
 11
135.3696985447
 21
344.0704164026951
 31
0.0
 12
131.8696985447
 22
344.531200144251
 32
0.0
 13
131.8696985447
 23
344.531200144251
 33
0.0
  0
MTEXT
  5
154
330
14E
100
AcDbEntity
  8
1
 62
     3
100
AcDbMText
 10
170.900684142844
 20
346.531200144251
 30
0.0
 40
3.5
 41
0.0
 71
     7
 72
     1
  1
\C3;\C3;\C3;79\C2;\H2.45;\S^ ;\C3;
  7
CONVERTER_11
 11
0.9999999999970619
 21
2.424068405545306E-6
 31
0.0
 73
     1
 44
0.60024009603842
  0
ENDBLK
  5
156
330
14E
100
AcDbEntity
  8
0
100
AcDbBlockEnd
  0
BLOCK
  5
160
330
159
100
AcDbEntity
  8
0
100
AcDbBlockBegin
  2
*D7
 70
     1
 10
0.0
 20
0.0
 30
0.0
  3
*D7
  1

  0
LINE
  5
15A
330
159
100
AcDbEntity
  8
1
  6
Continuous
 62
     2
100
AcDbLine
 10
210.8696985447
 20
352.416552079211
 30
0.0
 11
106.9696985447
 21
352.416552079211
 31
0.0
  0
LINE
  5
15B
330
159
100
AcDbEntity
  8
1
  6
Continuous
 62
     2
100
AcDbLine
 10
210.8696985447
 20
308.0740059771
 30
0.0
 11
210.8696985447
 21
354.416552079211
 31
0.0
  0
LINE
  5
15C
330
159
100
AcDbEntity
  8
1
  6
Continuous
 62
     2
100
AcDbLine
 10
106.9696985447
 20
315.1303617583
 30
0.0
 11
106.9696985447
 21
354.416552079211
 31
0.0
  0
SOLID
  5
15D
330
159
100
AcDbEntity
  8
1
 62
     2
100
AcDbTrace
 10
207.3696985447
 20
351.9557683376551
 30
0.0
 11
207.3696985447
 21
352.8773358207669
 31
0.0
 12
210.8696985447
 22
352.416552079211
 32
0.0
 13
210.8696985447
 23
352.416552079211
 33
0.0
  0
SOLID
  5
15E
330
159
100
AcDbEntity
  8
1
 62
     2
100
AcDbTrace
 10
110.4696985447
 20
352.8773358207669
 30
0.0
 11
110.4696985447
 21
351.9557683376551
 31
0.0
 12
106.9696985447
 22
352.416552079211
 32
0.0
 13
106.9696985447
 23
352.416552079211
 33
0.0
  0
MTEXT
  5
15F
330
159
100
AcDbEntity
  8
1
 62
     3
100
AcDbMText
 10
160.485613936106
 20
354.416552079211
 30
0.0
 40
3.5
 41
0.0
 71
     7
 72
     1
  1
\C3;\C3;\C3;104\C2;\H2.45;\S^ ;\C3;
  7
CONVERTER_11
 11
0.9999999999970619
 21
2.424068405545306E-6
 31
0.0
 73
     1
 44
0.60024009603842
  0
ENDBLK
  5
161
330
159
100
AcDbEntity
  8
0
100
AcDbBlockEnd
  0
BLOCK
  5
16B
330
164
100
AcDbEntity
  8
0
100
AcDbBlockBegin
  2
*D8
 70
     1
 10
0.0
 20
0.0
 30
0.0
  3
*D8
  1

  0
LINE
  5
165
330
164
100
AcDbEntity
  8
1
  6
Continuous
 62
     2
100
AcDbLine
 10
191.8696985447
 20
261.171765403239
 30
0.0
 11
131.8696985447
 21
261.171765403239
 31
0.0
  0
LINE
  5
166
330
164
100
AcDbEntity
  8
1
  6
Continuous
 62
     2
100
AcDbLine
 10
191.8696985447
 20
271.0740059771
 30
0.0
 11
191.8696985447
 21
259.171765403239
 31
0.0
  0
LINE
  5
167
330
164
100
AcDbEntity
  8
1
  6
Continuous
 62
     2
100
AcDbLine
 10
131.8696985447
 20
269.0740059771
 30
0.0
 11
131.8696985447
 21
259.171765403239
 31
0.0
  0
SOLID
  5
168
330
164
100
AcDbEntity
  8
1
 62
     2
100
AcDbTrace
 10
188.3696985447
 20
260.7109816616831
 30
0.0
 11
188.3696985447
 21
261.6325491447949
 31
0.0
 12
191.8696985447
 22
261.171765403239
 32
0.0
 13
191.8696985447
 23
261.171765403239
 33
0.0
  0
SOLID
  5
169
330
164
100
AcDbEntity
  8
1
 62
     2
100
AcDbTrace
 10
135.3696985447
 20
261.6325491447949
 30
0.0
 11
135.3696985447
 21
260.7109816616831
 31
0.0
 12
131.8696985447
 22
261.171765403239
 32
0.0
 13
131.8696985447
 23
261.171765403239
 33
0.0
  0
MTEXT
  5
16A
330
164
100
AcDbEntity
  8
1
 62
     3
100
AcDbMText
 10
159.523247779544
 20
263.171765403239
 30
0.0
 40
3.5
 41
0.0
 71
     7
 72
     1
  1
\C3;\C3;\C3;60\C2;\H2.45;\S^ ;\C3;
  7
CONVERTER_11
 11
0.9999999999970619
 21
2.424068405545306E-6
 31
0.0
 73
     1
 44
0.60024009603842
  0
ENDBLK
  5
16C
330
164
100
AcDbEntity
  8
0
100
AcDbBlockEnd
  0
ENDSEC
  0
SECTION
  2
ENTITIES
  0
INSERT
  5
6D
330
1F
100
AcDbEntity
  8
0
100
AcDbBlockReference
  2
Urheberrecht_DE-EN
 10
99.3007023046904
 20
314.267521512794
 30
0.0
  0
LINE
  5
71
330
1F
100
AcDbEntity
  8
0
  6
Continuous
 62
     7
100
AcDbLine
 10
106.9696985447
 20
279.0176501957
 30
0.0
 11
106.9696985447
 21
289.6540059771
 31
0.0
  0
LINE
  5
72
330
1F
100
AcDbEntity
  8
0
  6
Continuous
 62
     7
100
AcDbLine
 10
106.9696985447
 20
302.4940059771
 30
0.0
 11
106.9696985447
 21
313.1303617583
 31
0.0
  0
LINE
  5
73
330
1F
100
AcDbEntity
  8
0
  6
Continuous
 62
     9
100
AcDbLine
 10
107.9196613023
 20
314.1291091113
 30
0.0
 11
107.9196613023
 21
303.9225185232
 31
0.0
  0
LINE
  5
74
330
1F
100
AcDbEntity
  8
0
  6
Continuous
 62
     9
100
AcDbLine
 10
107.9196613023
 20
288.2254934311
 30
0.0
 11
107.9196613023
 21
278.018902843
 31
0.0
  0
LINE
  5
75
330
1F
100
AcDbEntity
  8
0
  6
Continuous
 62
     7
100
AcDbLine
 10
108.1196985447
 20
289.7646462176
 30
0.0
 11
108.1196985447
 21
290.8040059771
 31
0.0
  0
LINE
  5
76
330
1F
100
AcDbEntity
  8
0
  6
Continuous
 62
     7
100
AcDbLine
 10
108.1196985447
 20
301.3440059771
 30
0.0
 11
108.1196985447
 21
302.3833657366
 31
0.0
  0
LINE
  5
77
330
1F
100
AcDbEntity
  8
RUNDUNGEN
  6
Continuous
 62
     9
100
AcDbLine
 10
110.1696985447
 20
287.9695351795
 30
0.0
 11
110.1696985447
 21
290.8040059771
 31
0.0
  0
LINE
  5
78
330
1F
100
AcDbEntity
  8
RUNDUNGEN
  6
Continuous
 62
     9
100
AcDbLine
 10
110.1696985447
 20
301.3440059771
 30
0.0
 11
110.1696985447
 21
304.1784767747
 31
0.0
  0
LINE
  5
79
330
1F
100
AcDbEntity
  8
RUNDUNGEN
  6
Continuous
 62
     7
100
AcDbLine
 10
111.5696985447
 20
302.0051562239
 30
0.0
 11
111.5696985447
 21
290.1428557303
 31
0.0
  0
LINE
  5
7A
330
1F
100
AcDbEntity
  8
0
  6
Continuous
 62
     7
100
AcDbLine
 10
107.7061887546
 20
288.4240059771
 30
0.0
 11
107.6577692757
 21
288.3380482711
 31
0.0
  0
LINE
  5
7B
330
1F
100
AcDbEntity
  8
0
  6
Continuous
 62
     7
100
AcDbLine
 10
107.6577692757
 20
303.8099636832
 30
0.0
 11
107.7061887546
 21
303.7240059771
 31
0.0
  0
LWPOLYLINE
  5
7C
330
1F
100
AcDbEntity
  8
BEZUGSACHSEN
  6
DOT_CENTER
 62
     7
100
AcDbPolyline
 90
        2
 70
     0
 43
0.25
 10
124.3696985447
 20
296.0740059771
 10
124.3696985447
 20
290.0740059771
  0
LWPOLYLINE
  5
7D
330
1F
100
AcDbEntity
  8
BEZUGSACHSEN
  6
DOT_CENTER
 62
     7
100
AcDbPolyline
 90
        2
 70
     0
 43
0.25
 10
124.3696985447
 20
296.0740059771
 10
124.3696985447
 20
302.0740059771
  0
LINE
  5
7E
330
1F
100
AcDbEntity
  8
0
  6
Continuous
 62
     7
100
AcDbLine
 10
106.9696985447
 20
289.6540059771
 30
0.0
 11
108.1196985447
 21
290.8040059771
 31
0.0
  0
LINE
  5
7F
330
1F
100
AcDbEntity
  8
0
  6
Continuous
 62
     7
100
AcDbLine
 10
108.1196985447
 20
301.3440059771
 30
0.0
 11
106.9696985447
 21
302.4940059771
 31
0.0
  0
LINE
  5
80
330
1F
100
AcDbEntity
  8
0
  6
Continuous
 62
     7
100
AcDbLine
 10
129.8696985447
 20
315.2288059771
 30
0.0
 11
129.8696985447
 21
276.9192059771
 31
0.0
  0
LINE
  5
81
330
1F
100
AcDbEntity
  8
0
  6
Continuous
 62
     9
100
AcDbLine
 10
130.5398087777
 20
277.0987614729
 30
0.0
 11
130.5398087777
 21
315.0492504814
 31
0.0
  0
LINE
  5
82
330
1F
100
AcDbEntity
  8
0
  6
Continuous
 62
     9
100
AcDbLine
 10
130.6951002048
 20
277.1192059771
 30
0.0
 11
130.6951002048
 21
315.0288059771
 31
0.0
  0
LINE
  5
83
330
1F
100
AcDbEntity
  8
0
  6
Continuous
 62
     9
100
AcDbLine
 10
131.5675289142
 20
277.1192059771
 30
0.0
 11
131.5675289142
 21
315.0288059771
 31
0.0
  0
LINE
  5
84
330
1F
100
AcDbEntity
  8
0
  6
Continuous
 62
     7
100
AcDbLine
 10
131.8696985447
 20
321.0740059771
 30
0.0
 11
131.8696985447
 21
271.0740059771
 31
0.0
  0
LINE
  5
85
330
1F
100
AcDbEntity
  8
0
  6
Continuous
 62
     7
100
AcDbLine
 10
146.4777657132
 20
271.0740059771
 30
0.0
 11
131.8696985447
 21
271.0740059771
 31
0.0
  0
LINE
  5
86
330
1F
100
AcDbEntity
  8
0
  6
Continuous
 62
     7
100
AcDbLine
 10
153.2616313762
 20
271.0740059771
 30
0.0
 11
157.8196985447
 21
271.0740059771
 31
0.0
  0
LINE
  5
87
330
1F
100
AcDbEntity
  8
0
  6
Continuous
 62
     7
100
AcDbLine
 10
175.3196985447
 20
272.0740059771
 30
0.0
 11
190.8696985447
 21
272.0740059771
 31
0.0
  0
LWPOLYLINE
  5
88
330
1F
100
AcDbEntity
  8
BEZUGSACHSEN
  6
DOT_CENTER
 62
     7
100
AcDbPolyline
 90
        2
 70
     0
 43
0.25
 10
138.8696985447
 20
326.968903405
 10
138.8696985447
 20
312.968903405
  0
LINE
  5
89
330
1F
100
AcDbEntity
  8
0
  6
Continuous
 62
     9
100
AcDbLine
 10
106.9696985447
 20
289.1168578661
 30
0.0
 11
108.1196985447
 21
289.7646462176
 31
0.0
  0
LINE
  5
8A
330
1F
100
AcDbEntity
  8
0
  6
Continuous
 62
     7
100
AcDbLine
 10
191.8696985447
 20
274.0740059771
 30
0.0
 11
198.1696985447
 21
274.0740059771
 31
0.0
  0
LINE
  5
8B
330
1F
100
AcDbEntity
  8
0
  6
Continuous
 62
     7
100
AcDbLine
 10
148.7071985447
 20
274.5990059771
 30
0.0
 11
151.0321985447
 21
274.5990059771
 31
0.0
  0
LINE
  5
8C
330
1F
100
AcDbEntity
  8
0
  6
Continuous
 62
     7
100
AcDbLine
 10
129.8696985447
 20
276.9192059771
 30
0.0
 11
107.9196613023
 21
278.018902843
 31
0.0
  0
LINE
  5
8D
330
1F
100
AcDbEntity
  8
0
  6
Continuous
 62
     7
100
AcDbLine
 10
151.7821985447
 20
318.5115531466
 30
0.0
 11
153.2616313762
 21
321.0740059771
 31
0.0
  0
LINE
  5
8E
330
1F
100
AcDbEntity
  8
0
  6
Continuous
 62
     7
100
AcDbLine
 10
158.8196985447
 20
276.0740059771
 30
0.0
 11
173.3196985447
 21
276.0740059771
 31
0.0
  0
LINE
  5
8F
330
1F
100
AcDbEntity
  8
0
  6
Continuous
 62
     7
100
AcDbLine
 10
139.2020248275
 20
276.3413553696
 30
0.0
 11
146.4777657132
 21
276.3413553696
 31
0.0
  0
LINE
  5
90
330
1F
100
AcDbEntity
  8
0
  6
Continuous
 62
     7
100
AcDbLine
 10
153.2616313762
 20
276.3413553696
 30
0.0
 11
157.8196985447
 21
276.3413553696
 31
0.0
  0
LINE
  5
91
330
1F
100
AcDbEntity
  8
0
  6
Continuous
 62
     7
100
AcDbLine
 10
131.5675289142
 20
277.1192059771
 30
0.0
 11
130.6951002048
 21
277.1192059771
 31
0.0
  0
LINE
  5
92
330
1F
100
AcDbEntity
  8
0
  6
Continuous
 62
     9
100
AcDbLine
 10
108.1196985447
 20
302.3833657366
 30
0.0
 11
106.9696985447
 21
303.0311540881
 31
0.0
  0
LINE
  5
93
330
1F
100
AcDbEntity
  8
0
  6
Continuous
 62
     7
100
AcDbLine
 10
151.7821985447
 20
273.6364588077
 30
0.0
 11
153.2616313762
 21
271.0740059771
 31
0.0
  0
LINE
  5
94
330
1F
100
AcDbEntity
  8
FASEN
  6
Continuous
 62
     9
100
AcDbLine
 10
144.5633848176
 20
280.3240059771
 30
0.0
 11
144.5633848176
 21
280.7240059771
 31
0.0
  0
LINE
  5
95
330
1F
100
AcDbEntity
  8
FASEN
  6
Continuous
 62
     9
100
AcDbLine
 10
144.8371985447
 20
290.4565059771
 30
0.0
 11
144.8371985447
 21
290.0565059771
 31
0.0
  0
LINE
  5
96
330
1F
100
AcDbEntity
  8
FASEN
  6
Continuous
 62
     9
100
AcDbLine
 10
144.8371985447
 20
301.6915059771
 30
0.0
 11
144.8371985447
 21
302.0915059771
 31
0.0
  0
LINE
  5
97
330
1F
100
AcDbEntity
  8
0
  6
Continuous
 62
     7
100
AcDbLine
 10
146.4777657132
 20
321.0740059771
 30
0.0
 11
146.4777657132
 21
302.0915059771
 31
0.0
  0
LINE
  5
98
330
1F
100
AcDbEntity
  8
0
  6
Continuous
 62
     7
100
AcDbLine
 10
146.4777657132
 20
290.0565059771
 30
0.0
 11
146.4777657132
 21
280.7240059771
 31
0.0
  0
LINE
  5
99
330
1F
100
AcDbEntity
  8
0
  6
Continuous
 62
     7
100
AcDbLine
 10
146.4777657132
 20
276.3413553696
 30
0.0
 11
146.4777657132
 21
271.0740059771
 31
0.0
  0
LINE
  5
9A
330
1F
100
AcDbEntity
  8
0
  6
Continuous
 62
     7
100
AcDbLine
 10
144.5633848176
 20
280.3240059771
 30
0.0
 11
147.9940354389
 21
280.3240059771
 31
0.0
  0
LINE
  5
9B
330
1F
100
AcDbEntity
  8
0
  6
Continuous
 62
     7
100
AcDbLine
 10
151.7453616505
 20
280.3240059771
 30
0.0
 11
157.8196985447
 21
280.3240059771
 31
0.0
  0
LINE
  5
9C
330
1F
100
AcDbEntity
  8
0
  6
Continuous
 62
     7
100
AcDbLine
 10
144.5633848176
 20
280.7240059771
 30
0.0
 11
147.9940354389
 21
280.7240059771
 31
0.0
  0
LINE
  5
9D
330
1F
100
AcDbEntity
  8
0
  6
Continuous
 62
     7
100
AcDbLine
 10
151.7453616505
 20
280.7240059771
 30
0.0
 11
157.8196985447
 21
280.7240059771
 31
0.0
  0
LINE
  5
9E
330
1F
100
AcDbEntity
  8
0
  6
Continuous
 62
     7
100
AcDbLine
 10
147.9571985447
 20
318.5114985344
 30
0.0
 11
147.9571985447
 21
302.0915059771
 31
0.0
  0
LINE
  5
9F
330
1F
100
AcDbEntity
  8
0
  6
Continuous
 62
     7
100
AcDbLine
 10
147.9571985447
 20
290.0565059771
 30
0.0
 11
147.9571985447
 21
280.7240059771
 31
0.0
  0
LINE
  5
A0
330
1F
100
AcDbEntity
  8
0
  6
Continuous
 62
     7
100
AcDbLine
 10
147.9571985447
 20
273.6364726489
 30
0.0
 11
147.9571985447
 21
280.0014167333
 31
0.0
  0
LINE
  5
A1
330
1F
100
AcDbEntity
  8
0
  6
Continuous
 62
     9
100
AcDbLine
 10
148.7071985447
 20
274.5990059771
 30
0.0
 11
148.7071985447
 21
291.1378510971
 31
0.0
  0
LINE
  5
A2
330
1F
100
AcDbEntity
  8
0
  6
Continuous
 62
     9
100
AcDbLine
 10
148.7071985447
 20
301.0101608572
 30
0.0
 11
148.7071985447
 21
317.5490059771
 31
0.0
  0
LINE
  5
A3
330
1F
100
AcDbEntity
  8
0
  6
Continuous
 62
     9
100
AcDbLine
 10
151.0321985447
 20
274.5990059771
 30
0.0
 11
151.0321985447
 21
291.1378510971
 31
0.0
  0
LINE
  5
A4
330
1F
100
AcDbEntity
  8
0
  6
Continuous
 62
     9
100
AcDbLine
 10
151.0321985447
 20
301.0101608572
 30
0.0
 11
151.0321985447
 21
317.5490059771
 31
0.0
  0
LINE
  5
A5
330
1F
100
AcDbEntity
  8
0
  6
Continuous
 62
     7
100
AcDbLine
 10
130.5398087777
 20
277.0987614729
 30
0.0
 11
129.8696985447
 21
276.9192059771
 31
0.0
  0
LINE
  5
A6
330
1F
100
AcDbEntity
  8
0
  6
Continuous
 62
     7
100
AcDbLine
 10
191.8696985447
 20
284.0740059771
 30
0.0
 11
198.1696985447
 21
284.0740059771
 31
0.0
  0
LINE
  5
A7
330
1F
100
AcDbEntity
  8
RUNDUNGEN
  6
Continuous
 62
     7
100
AcDbLine
 10
209.8696985447
 20
285.0740059771
 30
0.0
 11
191.8696985447
 21
285.0740059771
 31
0.0
  0
LINE
  5
A8
330
1F
100
AcDbEntity
  8
0
  6
Continuous
 62
     7
100
AcDbLine
 10
191.8696985447
 20
285.0740059771
 30
0.0
 11
209.8696985447
 21
285.0740059771
 31
0.0
  0
LINE
  5
A9
330
1F
100
AcDbEntity
  8
0
  6
Continuous
 62
     7
100
AcDbLine
 10
151.7821985447
 20
290.0565059771
 30
0.0
 11
151.7821985447
 21
280.7240059771
 31
0.0
  0
LINE
  5
AA
330
1F
100
AcDbEntity
  8
0
  6
Continuous
 62
     7
100
AcDbLine
 10
151.7821985447
 20
273.6364726489
 30
0.0
 11
151.7821985447
 21
280.0014167333
 31
0.0
  0
LINE
  5
AB
330
1F
100
AcDbEntity
  8
0
  6
Continuous
 62
     7
100
AcDbLine
 10
151.7821985447
 20
302.0915059771
 30
0.0
 11
151.7821985447
 21
318.5114985344
 31
0.0
  0
LINE
  5
AC
330
1F
100
AcDbEntity
  8
0
  6
Continuous
 62
     7
100
AcDbLine
 10
153.2616313762
 20
290.0565059771
 30
0.0
 11
153.2616313762
 21
280.7240059771
 31
0.0
  0
LINE
  5
AD
330
1F
100
AcDbEntity
  8
0
  6
Continuous
 62
     7
100
AcDbLine
 10
153.2616313762
 20
271.0740059771
 30
0.0
 11
153.2616313762
 21
276.3413553696
 31
0.0
  0
LINE
  5
AE
330
1F
100
AcDbEntity
  8
0
  6
Continuous
 62
     7
100
AcDbLine
 10
153.2616313762
 20
302.0915059771
 30
0.0
 11
153.2616313762
 21
321.0740059771
 31
0.0
  0
LINE
  5
AF
330
1F
100
AcDbEntity
  8
RUNDUNGEN
  6
Continuous
 62
     9
100
AcDbLine
 10
110.9877567209
 20
288.4240059771
 30
0.0
 11
110.1696985447
 21
288.4240059771
 31
0.0
  0
LINE
  5
B0
330
1F
100
AcDbEntity
  8
0
  6
Continuous
 62
     9
100
AcDbLine
 10
110.1696985447
 20
288.4240059771
 30
0.0
 11
107.7061887546
 21
288.4240059771
 31
0.0
  0
LINE
  5
B1
330
1F
100
AcDbEntity
  8
0
  6
Continuous
 62
     7
100
AcDbLine
 10
144.8371985447
 20
290.0565059771
 30
0.0
 11
147.9571985447
 21
290.0565059771
 31
0.0
  0
LINE
  5
B2
330
1F
100
AcDbEntity
  8
0
  6
Continuous
 62
     7
100
AcDbLine
 10
151.7821985447
 20
290.0565059771
 30
0.0
 11
157.8196985447
 21
290.0565059771
 31
0.0
  0
LINE
  5
B3
330
1F
100
AcDbEntity
  8
0
  6
Continuous
 62
     7
100
AcDbLine
 10
157.8196985447
 20
290.4565059771
 30
0.0
 11
151.503733692
 21
290.4565059771
 31
0.0
  0
LINE
  5
B4
330
1F
100
AcDbEntity
  8
0
  6
Continuous
 62
     7
100
AcDbLine
 10
148.2356633974
 20
290.4565059771
 30
0.0
 11
144.8371985447
 21
290.4565059771
 31
0.0
  0
LINE
  5
B5
330
1F
100
AcDbEntity
  8
0
  6
Continuous
 62
     7
100
AcDbLine
 10
110.1696985447
 20
290.8040059771
 30
0.0
 11
108.1196985447
 21
290.8040059771
 31
0.0
  0
LINE
  5
B6
330
1F
100
AcDbEntity
  8
0
  6
Continuous
 62
     7
100
AcDbLine
 10
148.7071985447
 20
291.1378510971
 30
0.0
 11
151.0321985447
 21
291.1378510971
 31
0.0
  0
LINE
  5
B7
330
1F
100
AcDbEntity
  8
0
  6
Continuous
 62
     7
100
AcDbLine
 10
157.8196985447
 20
321.0739559586
 30
0.0
 11
157.8196985447
 21
301.6915059771
 31
0.0
  0
LINE
  5
B8
330
1F
100
AcDbEntity
  8
0
  6
Continuous
 62
     7
100
AcDbLine
 10
157.8196985447
 20
271.0740195212
 30
0.0
 11
157.8196985447
 21
290.4565059771
 31
0.0
  0
LINE
  5
B9
330
1F
100
AcDbEntity
  8
RUNDUNGEN
  6
Continuous
 62
     7
100
AcDbLine
 10
157.8196985447
 20
290.4565059771
 30
0.0
 11
157.8196985447
 21
294.0270570281
 31
0.0
  0
LINE
  5
BA
330
1F
100
AcDbEntity
  8
RUNDUNGEN
  6
Continuous
 62
     7
100
AcDbLine
 10
157.8196985447
 20
298.1209549262
 30
0.0
 11
157.8196985447
 21
301.6915059771
 31
0.0
  0
LINE
  5
BB
330
1F
100
AcDbEntity
  8
RUNDUNGEN
  6
Continuous
 62
     9
100
AcDbLine
 10
158.8196985447
 20
276.0740059771
 30
0.0
 11
158.8196985447
 21
316.0740059771
 31
0.0
  0
LINE
  5
BC
330
1F
100
AcDbEntity
  8
0
  6
Continuous
 62
     7
100
AcDbLine
 10
146.4777657132
 20
271.0740059771
 30
0.0
 11
147.9571985447
 21
273.6364588077
 31
0.0
  0
LINE
  5
BD
330
1F
100
AcDbEntity
  8
BEZUGSACHSEN
  6
CENTER
 62
     7
100
AcDbLine
 10
124.3696985447
 20
296.0740059771
 30
0.0
 11
118.3696985447
 21
296.0740059771
 31
0.0
  0
LWPOLYLINE
  5
BE
330
1F
100
AcDbEntity
  8
TEIL_STARTBEZUEGE
  6
DOT_CENTER
 62
     7
100
AcDbPolyline
 90
        2
 70
     0
 43
0.25
 10
213.8696985447
 20
296.0740059771
 10
103.9696985447
 20
296.0740059771
  0
LINE
  5
BF
330
1F
100
AcDbEntity
  8
BEZUGSACHSEN
  6
CENTER
 62
     7
100
AcDbLine
 10
124.3696985447
 20
296.0740059771
 30
0.0
 11
130.3696985447
 21
296.0740059771
 31
0.0
  0
LINE
  5
C0
330
1F
100
AcDbEntity
  8
FASEN
  6
Continuous
 62
     9
100
AcDbLine
 10
127.9690057739
 20
296.0740060186
 30
0.0
 11
127.369734403
 21
296.0740059963
 31
0.0
  0
LINE
  5
C1
330
1F
100
AcDbEntity
  8
FASEN
  6
Continuous
 62
     9
100
AcDbLine
 10
120.7703852068
 20
296.074005919
 30
0.0
 11
121.369652678
 21
296.0740059416
 31
0.0
  0
LINE
  5
C2
330
1F
100
AcDbEntity
  8
0
  6
Continuous
 62
     7
100
AcDbLine
 10
146.4777657132
 20
321.0740059771
 30
0.0
 11
147.9571985447
 21
318.5115531466
 31
0.0
  0
LINE
  5
C3
330
1F
100
AcDbEntity
  8
0
  6
Continuous
 62
     7
100
AcDbLine
 10
151.0321985447
 20
301.0101608572
 30
0.0
 11
148.7071985447
 21
301.0101608572
 31
0.0
  0
LINE
  5
C4
330
1F
100
AcDbEntity
  8
0
  6
Continuous
 62
     7
100
AcDbLine
 10
110.1696985447
 20
301.3440059771
 30
0.0
 11
108.1196985447
 21
301.3440059771
 31
0.0
  0
LINE
  5
C5
330
1F
100
AcDbEntity
  8
0
  6
Continuous
 62
     7
100
AcDbLine
 10
144.8371985447
 20
301.6915059771
 30
0.0
 11
148.2356633974
 21
301.6915059771
 31
0.0
  0
LINE
  5
C6
330
1F
100
AcDbEntity
  8
0
  6
Continuous
 62
     7
100
AcDbLine
 10
151.503733692
 20
301.6915059771
 30
0.0
 11
157.8196985447
 21
301.6915059771
 31
0.0
  0
LINE
  5
C7
330
1F
100
AcDbEntity
  8
0
  6
Continuous
 62
     7
100
AcDbLine
 10
144.8371985447
 20
302.0915059771
 30
0.0
 11
147.9571985447
 21
302.0915059771
 31
0.0
  0
LINE
  5
C8
330
1F
100
AcDbEntity
  8
0
  6
Continuous
 62
     7
100
AcDbLine
 10
151.7821985447
 20
302.0915059771
 30
0.0
 11
157.8196985447
 21
302.0915059771
 31
0.0
  0
LINE
  5
C9
330
1F
100
AcDbEntity
  8
0
  6
Continuous
 62
     9
100
AcDbLine
 10
110.1696985447
 20
303.7240059771
 30
0.0
 11
107.7061887546
 21
303.7240059771
 31
0.0
  0
LINE
  5
CA
330
1F
100
AcDbEntity
  8
RUNDUNGEN
  6
Continuous
 62
     9
100
AcDbLine
 10
110.1696985447
 20
303.7240059771
 30
0.0
 11
110.9877567209
 21
303.7240059771
 31
0.0
  0
LINE
  5
CB
330
1F
100
AcDbEntity
  8
0
  6
Continuous
 62
     7
100
AcDbLine
 10
130.5398087777
 20
315.0492504814
 30
0.0
 11
129.8696985447
 21
315.2288059771
 31
0.0
  0
LINE
  5
CC
330
1F
100
AcDbEntity
  8
RUNDUNGEN
  6
Continuous
 62
     9
100
AcDbLine
 10
173.3196985447
 20
276.0740059771
 30
0.0
 11
173.3196985447
 21
316.0740059771
 31
0.0
  0
LINE
  5
CD
330
1F
100
AcDbEntity
  8
RUNDUNGEN
  6
Continuous
 62
     7
100
AcDbLine
 10
174.3196985447
 20
319.0740059771
 30
0.0
 11
174.3196985447
 21
273.0740059771
 31
0.0
  0
LINE
  5
CE
330
1F
100
AcDbEntity
  8
RUNDUNGEN
  6
Continuous
 62
     7
100
AcDbLine
 10
209.8696985447
 20
307.0740059771
 30
0.0
 11
191.8696985447
 21
307.0740059771
 31
0.0
  0
LINE
  5
CF
330
1F
100
AcDbEntity
  8
0
  6
Continuous
 62
     7
100
AcDbLine
 10
191.8696985447
 20
307.0740059771
 30
0.0
 11
209.8696985447
 21
307.0740059771
 31
0.0
  0
LINE
  5
D0
330
1F
100
AcDbEntity
  8
0
  6
Continuous
 62
     7
100
AcDbLine
 10
191.8696985447
 20
308.0740059771
 30
0.0
 11
198.1696985447
 21
308.0740059771
 31
0.0
  0
LINE
  5
D1
330
1F
100
AcDbEntity
  8
RUNDUNGEN
  6
Continuous
 62
     9
100
AcDbLine
 10
175.3196985447
 20
320.0740059771
 30
0.0
 11
175.3196985447
 21
272.0740059771
 31
0.0
  0
LINE
  5
D2
330
1F
100
AcDbEntity
  8
0
  6
Continuous
 62
     7
100
AcDbLine
 10
129.8696985447
 20
315.2288059771
 30
0.0
 11
107.9196613023
 21
314.1291091113
 31
0.0
  0
LINE
  5
D3
330
1F
100
AcDbEntity
  8
0
  6
Continuous
 62
     7
100
AcDbLine
 10
131.5675289142
 20
315.0288059771
 30
0.0
 11
130.6951002048
 21
315.0288059771
 31
0.0
  0
LINE
  5
D4
330
1F
100
AcDbEntity
  8
0
  6
Continuous
 62
     7
100
AcDbLine
 10
158.8196985447
 20
316.0740059771
 30
0.0
 11
173.3196985447
 21
316.0740059771
 31
0.0
  0
LINE
  5
D5
330
1F
100
AcDbEntity
  8
RUNDUNGEN
  6
Continuous
 62
     7
100
AcDbLine
 10
158.8196985447
 20
316.0740059771
 30
0.0
 11
173.3196985447
 21
316.0740059771
 31
0.0
  0
LINE
  5
D6
330
1F
100
AcDbEntity
  8
0
  6
Continuous
 62
     7
100
AcDbLine
 10
148.7071985447
 20
317.5490059771
 30
0.0
 11
151.0321985447
 21
317.5490059771
 31
0.0
  0
LINE
  5
D7
330
1F
100
AcDbEntity
  8
0
  6
Continuous
 62
     7
100
AcDbLine
 10
191.8696985447
 20
318.0740059771
 30
0.0
 11
198.1696985447
 21
318.0740059771
 31
0.0
  0
LINE
  5
D8
330
1F
100
AcDbEntity
  8
RUNDUNGEN
  6
Continuous
 62
     7
100
AcDbLine
 10
190.8696985447
 20
320.0740059771
 30
0.0
 11
175.3196985447
 21
320.0740059771
 31
0.0
  0
LINE
  5
D9
330
1F
100
AcDbEntity
  8
0
  6
Continuous
 62
     7
100
AcDbLine
 10
175.3196985447
 20
320.0740059771
 30
0.0
 11
190.8696985447
 21
320.0740059771
 31
0.0
  0
LINE
  5
DA
330
1F
100
AcDbEntity
  8
BEZUGSACHSEN
  6
Continuous
 62
     7
100
AcDbLine
 10
146.4777657132
 20
321.0740059771
 30
0.0
 11
143.8696985447
 21
321.0740059771
 31
0.0
  0
LINE
  5
DB
330
1F
100
AcDbEntity
  8
BEZUGSACHSEN
  6
Continuous
 62
     7
100
AcDbLine
 10
133.8696985447
 20
321.0740059771
 30
0.0
 11
131.8696985447
 21
321.0740059771
 31
0.0
  0
LINE
  5
DC
330
1F
100
AcDbEntity
  8
0
  6
Continuous
 62
     7
100
AcDbLine
 10
131.8696985447
 20
321.0740059771
 30
0.0
 11
133.8696985447
 21
321.0740059771
 31
0.0
  0
LINE
  5
DD
330
1F
100
AcDbEntity
  8
0
  6
Continuous
 62
     7
100
AcDbLine
 10
143.8696985447
 20
321.0740059771
 30
0.0
 11
146.4777657132
 21
321.0740059771
 31
0.0
  0
LINE
  5
DE
330
1F
100
AcDbEntity
  8
0
  6
Continuous
 62
     7
100
AcDbLine
 10
153.2616313762
 20
321.0740059771
 30
0.0
 11
157.8196985447
 21
321.0740059771
 31
0.0
  0
LINE
  5
DF
330
1F
100
AcDbEntity
  8
RUNDUNGEN
  6
Continuous
 62
     9
100
AcDbLine
 10
190.8696985447
 20
272.0740059771
 30
0.0
 11
190.8696985447
 21
320.0740059771
 31
0.0
  0
LINE
  5
E0
330
1F
100
AcDbEntity
  8
RUNDUNGEN
  6
Continuous
 62
     7
100
AcDbLine
 10
191.8696985447
 20
273.0740059771
 30
0.0
 11
191.8696985447
 21
319.0740059771
 31
0.0
  0
LINE
  5
E1
330
1F
100
AcDbEntity
  8
0
  6
Continuous
 62
     7
100
AcDbLine
 10
198.1696985447
 20
318.0740059771
 30
0.0
 11
198.1696985447
 21
308.0740059771
 31
0.0
  0
LINE
  5
E2
330
1F
100
AcDbEntity
  8
0
  6
Continuous
 62
     7
100
AcDbLine
 10
198.1696985447
 20
284.0740059771
 30
0.0
 11
198.1696985447
 21
274.0740059771
 31
0.0
  0
LINE
  5
E3
330
1F
100
AcDbEntity
  8
RUNDUNGEN
  6
Continuous
 62
     9
100
AcDbLine
 10
209.8696985447
 20
285.0740059771
 30
0.0
 11
209.8696985447
 21
307.0740059771
 31
0.0
  0
LINE
  5
E4
330
1F
100
AcDbEntity
  8
RUNDUNGEN
  6
Continuous
 62
     7
100
AcDbLine
 10
210.8696985447
 20
306.0740059771
 30
0.0
 11
210.8696985447
 21
286.0740059771
 31
0.0
  0
ARC
  5
E5
330
1F
100
AcDbEntity
  8
0
  6
Continuous
 62
     7
100
AcDbCircle
 10
114.2143101414
 20
280.5240059771
 30
0.0
 40
33.78031736343756
100
AcDbArc
 50
359.660772196785
 51
0.33922780321496
  0
ARC
  5
E6
330
1F
100
AcDbEntity
  8
FASEN
  6
Continuous
 62
     7
100
AcDbCircle
 10
147.0440538924
 20
284.5073977857
 30
0.0
 40
11.32173434580034
100
AcDbArc
 50
223.8842578162989
 51
226.1595439822723
  0
ARC
  5
E7
330
1F
100
AcDbEntity
  8
FASEN
  6
Continuous
 62
     7
100
AcDbCircle
 10
144.5633848176
 20
274.7240059771
 30
0.0
 40
6.0
100
AcDbArc
 50
90.0
 51
161.1845969504029
  0
ARC
  5
E8
330
1F
100
AcDbEntity
  8
FASEN
  6
Continuous
 62
     7
100
AcDbCircle
 10
144.5633848176
 20
274.7240059771
 30
0.0
 40
5.599990644600041
100
AcDbArc
 50
90.0
 51
163.2131310087987
  0
ARC
  5
E9
330
1F
100
AcDbEntity
  8
0
  6
Continuous
 62
     7
100
AcDbCircle
 10
149.382538935
 20
280.0020530699
 30
0.0
 40
1.425340532341831
100
AcDbArc
 50
166.9454935845371
 51
180.0255794330641
  0
ARC
  5
EA
330
1F
100
AcDbEntity
  8
RUNDUNGEN
  6
Continuous
 62
     7
100
AcDbCircle
 10
110.1696985447
 20
292.2040059771
 30
0.0
 40
1.399999999999977
100
AcDbArc
 50
270.0
 51
353.9429041005109
  0
ARC
  5
EB
330
1F
100
AcDbEntity
  8
0
  6
Continuous
 62
     7
100
AcDbCircle
 10
107.9696985447
 20
279.0176501956
 30
0.0
 40
1.0
100
AcDbArc
 50
179.9999999942711
 51
267.1318795106977
  0
ARC
  5
EC
330
1F
100
AcDbEntity
  8
0
  6
Continuous
 62
     7
100
AcDbCircle
 10
148.7071985447
 20
273.8490059771
 30
0.0
 40
0.75
100
AcDbArc
 50
90.0
 51
180.0
  0
ARC
  5
ED
330
1F
100
AcDbEntity
  8
0
  6
Continuous
 62
     7
100
AcDbCircle
 10
130.6951002048
 20
276.5192059771
 30
0.0
 40
0.6000000000000227
100
AcDbArc
 50
90.0
 51
105.0000000028964
  0
ARC
  5
EE
330
1F
100
AcDbEntity
  8
0
  6
Continuous
 62
     7
100
AcDbCircle
 10
131.5675289142
 20
276.5192059771
 30
0.0
 40
0.5999999999998802
100
AcDbArc
 50
59.70317838176059
 51
90.0
  0
ARC
  5
EF
330
1F
100
AcDbEntity
  8
0
  6
Continuous
 62
     7
100
AcDbCircle
 10
148.4608184987
 20
289.9810108441
 30
0.0
 40
0.5037304978999786
100
AcDbArc
 50
166.1596109369583
 51
171.3804870339457
  0
ARC
  5
F0
330
1F
100
AcDbEntity
  8
0
  6
Continuous
 62
     7
100
AcDbCircle
 10
31.2032549568
 20
328.9945414868
 30
0.0
 40
126.7303074975354
100
AcDbArc
 50
335.4508108778999
 51
337.1137532296999
  0
ARC
  5
F1
330
1F
100
AcDbEntity
  8
0
  6
Continuous
 62
     7
100
AcDbCircle
 10
144.8371985447
 20
296.0740059771
 30
0.0
 40
6.017499999999984
100
AcDbArc
 50
90.0
 51
270.0
  0
ARC
  5
F2
330
1F
100
AcDbEntity
  8
FASEN
  6
Continuous
 62
     7
100
AcDbCircle
 10
144.8371985447
 20
296.0740059771
 30
0.0
 40
5.617499843000019
100
AcDbArc
 50
90.0
 51
270.0
  0
ARC
  5
F3
330
1F
100
AcDbEntity
  8
RUNDUNGEN
  6
Continuous
 62
     7
100
AcDbCircle
 10
110.1696985447
 20
299.9440059771
 30
0.0
 40
1.400000000000457
100
AcDbArc
 50
6.05709561601085
 51
90.0
  0
ARC
  5
F4
330
1F
100
AcDbEntity
  8
0
  6
Continuous
 62
     7
100
AcDbCircle
 10
107.9696985447
 20
313.1303617587
 30
0.0
 40
0.999999999976244
100
AcDbArc
 50
92.86812048930244
 51
180.0000000229187
  0
ARC
  5
F5
330
1F
100
AcDbEntity
  8
0
  6
Continuous
 62
     7
100
AcDbCircle
 10
148.7071985447
 20
318.2990059771
 30
0.0
 40
0.75
100
AcDbArc
 50
180.0
 51
270.0
  0
ARC
  5
F6
330
1F
100
AcDbEntity
  8
0
  6
Continuous
 62
     7
100
AcDbCircle
 10
130.6951002048
 20
315.6288059771
 30
0.0
 40
0.5999999999390216
100
AcDbArc
 50
254.9999999946323
 51
270.0
  0
ARC
  5
F7
330
1F
100
AcDbEntity
  8
0
  6
Continuous
 62
     7
100
AcDbCircle
 10
131.5675289142
 20
315.6288059771
 30
0.0
 40
0.6000000000000227
100
AcDbArc
 50
270.0
 51
300.2968216182394
  0
ARC
  5
F8
330
1F
100
AcDbEntity
  8
RUNDUNGEN
  6
Continuous
 62
     7
100
AcDbCircle
 10
197.13976908
 20
-470.3618538247
 30
0.0
 40
779.4077988408526
100
AcDbArc
 50
96.40668094322226
 51
96.57315239321883
  0
ARC
  5
F9
330
1F
100
AcDbEntity
  8
0
  6
Continuous
 62
     7
100
AcDbCircle
 10
185.525086948
 20
280.5240059771
 30
0.0
 40
33.78031736343756
100
AcDbArc
 50
179.660772196785
 51
180.339227803215
  0
ARC
  5
FA
330
1F
100
AcDbEntity
  8
0
  6
Continuous
 62
     7
100
AcDbCircle
 10
150.3568581544
 20
280.0020530699
 30
0.0
 40
1.425340532344775
100
AcDbArc
 50
359.9744205669359
 51
13.05450641546291
  0
ARC
  5
FB
330
1F
100
AcDbEntity
  8
RUNDUNGEN
  6
Continuous
 62
     7
100
AcDbCircle
 10
158.8196985447
 20
275.0740059771
 30
0.0
 40
1.0
100
AcDbArc
 50
90.0
 51
180.0
  0
ARC
  5
FC
330
1F
100
AcDbEntity
  8
RUNDUNGEN
  6
Continuous
 62
     7
100
AcDbCircle
 10
173.3196985447
 20
275.0740059771
 30
0.0
 40
1.0
100
AcDbArc
 50
0.0
 51
90.0
  0
ARC
  5
FD
330
1F
100
AcDbEntity
  8
RUNDUNGEN
  6
Continuous
 62
     7
100
AcDbCircle
 10
190.8696985447
 20
273.0740059771
 30
0.0
 40
1.0
100
AcDbArc
 50
270.0
 51
0.0
  0
ARC
  5
FE
330
1F
100
AcDbEntity
  8
RUNDUNGEN
  6
Continuous
 62
     7
100
AcDbCircle
 10
175.3196985447
 20
273.0740059771
 30
0.0
 40
1.0
100
AcDbArc
 50
180.0
 51
270.0
  0
ARC
  5
FF
330
1F
100
AcDbEntity
  8
RUNDUNGEN
  6
Continuous
 62
     7
100
AcDbCircle
 10
209.8696985447
 20
286.0740059771
 30
0.0
 40
1.0
100
AcDbArc
 50
270.0
 51
0.0
  0
ARC
  5
100
330
1F
100
AcDbEntity
  8
0
  6
Continuous
 62
     7
100
AcDbCircle
 10
151.0321985447
 20
273.8490059771
 30
0.0
 40
0.75
100
AcDbArc
 50
0.0
 51
90.0
  0
ARC
  5
101
330
1F
100
AcDbEntity
  8
RUNDUNGEN
  6
Continuous
 62
     7
100
AcDbCircle
 10
197.13976908
 20
1062.5098657789
 30
0.0
 40
779.4077988408192
100
AcDbArc
 50
263.4268476067803
 51
263.5933190567778
  0
ARC
  5
102
330
1F
100
AcDbEntity
  8
0
  6
Continuous
 62
     7
100
AcDbCircle
 10
268.5361421328
 20
328.9945414869
 30
0.0
 40
126.7303074977998
100
AcDbArc
 50
202.8862467703003
 51
204.5491891221036
  0
ARC
  5
103
330
1F
100
AcDbEntity
  8
RUNDUNGEN
  6
Continuous
 62
     7
100
AcDbCircle
 10
158.8196985447
 20
317.0740059771
 30
0.0
 40
1.0
100
AcDbArc
 50
180.0
 51
270.0
  0
ARC
  5
104
330
1F
100
AcDbEntity
  8
RUNDUNGEN
  6
Continuous
 62
     7
100
AcDbCircle
 10
173.3196985447
 20
317.0740059771
 30
0.0
 40
1.0
100
AcDbArc
 50
270.0
 51
0.0
  0
ARC
  5
105
330
1F
100
AcDbEntity
  8
RUNDUNGEN
  6
Continuous
 62
     7
100
AcDbCircle
 10
175.3196985447
 20
319.0740059771
 30
0.0
 40
1.0
100
AcDbArc
 50
90.0
 51
180.0
  0
ARC
  5
106
330
1F
100
AcDbEntity
  8
RUNDUNGEN
  6
Continuous
 62
     7
100
AcDbCircle
 10
209.8696985447
 20
306.0740059771
 30
0.0
 40
1.0
100
AcDbArc
 50
0.0
 51
90.0
  0
ARC
  5
107
330
1F
100
AcDbEntity
  8
RUNDUNGEN
  6
Continuous
 62
     7
100
AcDbCircle
 10
190.8696985447
 20
319.0740059771
 30
0.0
 40
1.0
100
AcDbArc
 50
0.0
 51
90.0
  0
ARC
  5
108
330
1F
100
AcDbEntity
  8
0
  6
Continuous
 62
     7
100
AcDbCircle
 10
151.0321985447
 20
318.2990059771
 30
0.0
 40
0.75
100
AcDbArc
 50
270.0
 51
0.0
  0
CIRCLE
  5
109
330
1F
100
AcDbEntity
  8
FASEN
  6
Continuous
 62
     7
100
AcDbCircle
 10
124.3696985447
 20
296.0740059771
 30
0.0
 40
3.0
  0
SPLINE
  5
10A
330
1F
100
AcDbEntity
  8
BEZUGSACHSEN
  6
Continuous
 62
     7
100
AcDbSpline
210
0.0
220
0.0
230
1.0
 70
     8
 71
     3
 72
    15
 73
    11
 74
     9
 42
0.0000000001
 43
0.0000000001
 44
0.00000001
 40
0.0
 40
0.0
 40
0.0
 40
0.0
 40
0.9592794727455008
 40
1.918698757738199
 40
2.733413612632485
 40
3.548061682602941
 40
4.096465872366171
 40
4.64485238299268
 40
4.839161107590929
 40
5.03346490926088
 40
5.03346490926088
 40
5.03346490926088
 40
5.03346490926088
 10
138.8696985447
 20
320.568903405
 30
0.0
 10
138.5499191789195
 20
320.5725315679592
 30
0.0
 10
137.9103138404282
 20
320.579788422672
 30
0.0
 10
137.0005037186878
 20
320.6352026590131
 30
0.0
 10
136.1412598486411
 20
320.7159251151182
 30
0.0
 10
135.4209884007353
 20
320.8074697631606
 30
0.0
 10
134.7911878689616
 20
320.9041943402624
 30
0.0
 10
134.3672325926858
 20
320.9783957794917
 30
0.0
 10
134.0603087909894
 20
321.036287179159
 30
0.0
 10
133.9332347568735
 20
321.0614331506357
 30
0.0
 10
133.8696985447
 20
321.0740059771
 30
0.0
 11
138.8696985447
 21
320.568903405
 31
0.0
 11
137.9106031842925
 21
320.5876969271721
 31
0.0
 11
136.952825418242
 21
320.6437960829169
 31
0.0
 11
136.1417151008523
 21
320.7203489914795
 31
0.0
 11
135.3335390331144
 21
320.8228327533265
 31
0.0
 11
134.7914898831611
 21
320.9060786204
 31
0.0
 11
134.2512917590936
 21
321.000491287935
 31
0.0
 11
134.0603621922547
 21
321.0365714897316
 31
0.0
 11
133.8696985447
 21
321.0740059771
 31
0.0
  0
SPLINE
  5
10B
330
1F
100
AcDbEntity
  8
BEZUGSACHSEN
  6
Continuous
 62
     7
100
AcDbSpline
210
0.0
220
0.0
230
1.0
 70
     8
 71
     3
 72
    15
 73
    11
 74
     9
 42
0.0000000001
 43
0.0000000001
 44
0.00000001
 40
0.0
 40
0.0
 40
0.0
 40
0.0
 40
0.194298150342938
 40
0.3886012245846111
 40
0.9369792400134999
 40
1.485374928846543
 40
2.300027372142469
 40
3.114746618637711
 40
4.074175664719709
 40
5.033464878709664
 40
5.033464878709664
 40
5.033464878709664
 40
5.033464878709664
 10
143.8696985447
 20
321.0740059771
 30
0.0
 10
143.8061641787676
 20
321.0614335251104
 30
0.0
 10
143.6790938368165
 20
321.0362883025206
 30
0.0
 10
143.3721765385308
 20
320.9783980285085
 30
0.0
 10
142.9482287555718
 20
320.9041975734891
 30
0.0
 10
142.3184324828876
 20
320.8074729862745
 30
0.0
 10
141.598160999464
 20
320.7159278762682
 30
0.0
 10
140.7389110229502
 20
320.6352044397671
 30
0.0
 10
139.8290929984414
 20
320.5797888356178
 30
0.0
 10
139.1894811580985
 20
320.5725317055779
 30
0.0
 10
138.8696985447
 20
320.568903405
 30
0.0
 11
143.8696985447
 21
321.0740059771
 31
0.0
 11
143.6790404402663
 21
321.036572590392
 31
0.0
 11
143.4881164360161
 21
321.0004933822403
 31
0.0
 11
142.9479267465072
 21
320.9060817984489
 31
0.0
 11
142.4058860799303
 21
320.8228366946439
 31
0.0
 11
141.5977057477394
 21
320.72035179806
 31
0.0
 11
140.786591102963
 21
320.6437980023408
 31
0.0
 11
139.8288036365096
 21
320.5876975248856
 31
0.0
 11
138.8696985447
 21
320.568903405
 31
0.0
  0
SPLINE
  5
10C
330
1F
100
AcDbEntity
  8
0
  6
Continuous
 62
     7
100
AcDbSpline
210
0.0
220
0.0
230
1.0
 70
     8
 71
     3
 72
    11
 73
     7
 74
     5
 42
0.0000000001
 43
0.0000000001
 44
0.00000001
 40
0.0
 40
0.0
 40
0.0
 40
0.0
 40
0.0719820116369681
 40
0.144179486255178
 40
0.2163078795391308
 40
0.2883301027965604
 40
0.2883301027965604
 40
0.2883301027965604
 40
0.2883301027965604
 10
107.9196613023
 20
288.2254934311
 30
0.0
 10
107.895934469121
 20
288.229396618309
 30
0.0
 10
107.8484097814885
 20
288.2372146760952
 30
0.0
 10
107.7805431132645
 20
288.2626483998388
 30
0.0
 10
107.7163062959404
 20
288.2958759299805
 30
0.0
 10
107.6772720325889
 20
288.323997728163
 30
0.0
 10
107.6577692757
 20
288.3380482711
 30
0.0
 11
107.9196613023
 21
288.2254934311
 31
0.0
 11
107.8490511758146
 21
288.2394798544105
 31
0.0
 11
107.7811294933664
 21
288.2639567903839
 31
0.0
 11
107.7172176848667
 21
288.2973900949174
 31
0.0
 11
107.6577692757
 21
288.3380482711
 31
0.0
  0
SPLINE
  5
10D
330
1F
100
AcDbEntity
  8
FASEN
  6
Continuous
 62
     7
100
AcDbSpline
210
0.0
220
0.0
230
1.0
 70
     8
 71
     3
 72
    41
 73
    37
 74
    35
 42
0.0000000001
 43
0.0000000001
 44
0.00000001
 40
0.0
 40
0.0
 40
0.0
 40
0.0
 40
0.3535888544129487
 40
0.7075507289575889
 40
1.060684840909301
 40
1.413709983373235
 40
1.765779918053555
 40
2.117876005206415
 40
2.469055569652812
 40
2.820227711240663
 40
3.171084425214804
 40
3.521941346587594
 40
3.873160085198065
 40
4.2243817654003
 40
4.576461723056602
 40
4.928542604157088
 40
5.281581803804667
 40
5.63462631044762
 40
5.988339657421019
 40
6.342041478492701
 40
6.695908397000969
 40
7.049820838044107
 40
7.403595216257876
 40
7.757194007862146
 40
7.933994428040473
 40
8.110739696085265
 40
8.287420502845624
 40
8.464157456612535
 40
8.817287503265344
 40
9.170592253350396
 40
9.52399752161794
 40
9.87733404749771
 40
10.23089310698436
 40
10.58456791524733
 40
10.93860935639038
 40
11.29227461508323
 40
11.29227461508323
 40
11.29227461508323
 40
11.29227461508323
 10
127.9689469563
 20
296.0740059771
 30
0.0
 10
127.9656383460904
 20
295.9560943849153
 30
0.0
 10
127.9590176352382
 20
295.7201468091883
 30
0.0
 10
127.905140802335
 20
295.3698418648993
 30
0.0
 10
127.8199075141867
 20
295.026455841194
 30
0.0
 10
127.7010790484876
 20
294.6936746342832
 30
0.0
 10
127.5504163634147
 20
294.3744991154071
 30
0.0
 10
127.3694664165283
 20
294.0721533702481
 30
0.0
 10
127.1597652558755
 20
293.789373811804
 30
0.0
 10
126.9236040809961
 20
293.5288400951817
 30
0.0
 10
126.6629846468258
 20
293.2929369196281
 30
0.0
 10
126.3804828932698
 20
293.0837089663054
 30
0.0
 10
126.0786408755955
 20
292.9032647477857
 30
0.0
 10
125.7602426477308
 20
292.7530143892685
 30
0.0
 10
125.4283829792652
 20
292.6345902184885
 30
0.0
 10
125.0859920235488
 20
292.5488697381116
 30
0.0
 10
124.7365534289954
 20
292.4969076407936
 30
0.0
 10
124.3831820320512
 20
292.479050802935
 30
0.0
 10
124.02952749853
 20
292.4956648606596
 30
0.0
 10
123.6788754848232
 20
292.5465089104813
 30
0.0
 10
123.3347760868373
 20
292.6312762652452
 30
0.0
 10
123.00051862486
 20
292.7491078688993
 30
0.0
 10
122.6794838808616
 20
292.8990211467921
 30
0.0
 10
122.4254375915642
 20
293.0494476284113
 30
0.0
 10
122.2319959801817
 20
293.1842780470696
 30
0.0
 10
122.0920875228296
 20
293.2923953843405
 30
0.0
 10
121.9576627755824
 20
293.4072269113871
 30
0.0
 10
121.7862780202234
 20
293.5688818292619
 30
0.0
 10
121.5873320819429
 20
293.7865808476853
 30
0.0
 10
121.3754583784546
 20
294.0699761725888
 30
0.0
 10
121.1926593543971
 20
294.3730527002735
 30
0.0
 10
121.0406261742699
 20
294.692733687878
 30
0.0
 10
120.9207266904678
 20
295.0259675900401
 30
0.0
 10
120.8347762586282
 20
295.3695797386989
 30
0.0
 10
120.7804988196468
 20
295.7200696294007
 30
0.0
 10
120.7737985080957
 20
295.9560690097965
 30
0.0
 10
120.7704501331
 20
296.0740059771
 30
0.0
 11
127.9689469563
 21
296.0740059771
 31
0.0
 11
127.9516991289727
 21
295.7208380419508
 31
0.0
 11
127.89985306848
 21
295.3706937936151
 31
0.0
 11
127.8142671007235
 21
295.0280879805484
 31
0.0
 11
127.6956299403737
 21
294.6955944085868
 31
0.0
 11
127.5453243969274
 21
294.3772212273747
 31
0.0
 11
127.3644770463331
 21
294.0751187772499
 31
0.0
 11
127.1553112548003
 21
293.793025249963
 31
0.0
 11
126.9194406313947
 21
293.53285814589
 31
0.0
 11
126.6593408223646
 21
293.2973830451188
 31
0.0
 11
126.3773767754457
 21
293.0885844447397
 31
0.0
 11
126.075942988864
 21
292.908328308483
 31
0.0
 11
125.758307866123
 21
292.758446363455
 31
0.0
 11
125.4267248164998
 21
292.6400699393416
 31
0.0
 11
125.0851834095047
 21
292.5545689794388
 31
0.0
 11
124.7359899297734
 21
292.5026017763113
 31
0.0
 11
124.3833947021921
 21
292.4847964636857
 31
0.0
 11
124.0300697217665
 21
292.5013672220985
 31
0.0
 11
123.6800324521828
 21
292.5521499763742
 31
0.0
 11
123.3364350537028
 21
292.6367822620122
 31
0.0
 11
123.0026662268313
 21
292.7544784222466
 31
0.0
 11
122.6821147809487
 21
292.9041550110075
 31
0.0
 11
122.3778855365852
 21
293.0843678637623
 31
0.0
 11
122.2328374221037
 21
293.1854590753516
 31
0.0
 11
122.0929819655927
 21
293.293530075441
 31
0.0
 11
121.9586474721312
 21
293.408292226623
 31
0.0
 11
121.8300851004512
 21
293.5295673989166
 31
0.0
 11
121.5918466069807
 21
293.7902266594041
 31
0.0
 11
121.3803298368907
 21
294.0732194197415
 31
0.0
 11
121.1977825373873
 21
294.3758276930641
 31
0.0
 11
121.0460156176353
 21
294.6949099749128
 31
0.0
 11
120.9264071093116
 21
295.0276227839263
 31
0.0
 11
120.8400817060855
 21
295.3706006181338
 31
0.0
 11
120.7878601059178
 21
295.7207695009926
 31
0.0
 11
120.7704501331
 21
296.0740059771
 31
0.0
  0
SPLINE
  5
10E
330
1F
100
AcDbEntity
  8
0
  6
Continuous
 62
     7
100
AcDbSpline
210
0.0
220
0.0
230
1.0
 70
     8
 71
     3
 72
    11
 73
     7
 74
     5
 42
0.0000000001
 43
0.0000000001
 44
0.00000001
 40
0.0
 40
0.0
 40
0.0
 40
0.0
 40
0.0720335616826009
 40
0.1441734620247684
 40
0.2163593593505204
 40
0.2883296528925975
 40
0.2883296528925975
 40
0.2883296528925975
 40
0.2883296528925975
 10
107.6577692757
 20
303.8099636832
 30
0.0
 10
107.6772753291847
 20
303.8240161532189
 30
0.0
 10
107.7163162317256
 20
303.8521418380428
 30
0.0
 10
107.7805581563831
 20
303.8853678310038
 30
0.0
 10
107.8484213531024
 20
303.9107990246319
 30
0.0
 10
107.895938341786
 20
303.9186159207289
 30
0.0
 10
107.9196613023
 20
303.9225185232
 30
0.0
 11
107.6577692757
 21
303.8099636832
 31
0.0
 11
107.7172279016499
 21
303.8506270058487
 31
0.0
 11
107.7811513283955
 21
303.8840629256728
 31
0.0
 11
107.849062657482
 21
303.9085344428801
 31
0.0
 11
107.9196613023
 21
303.9225185232
 31
0.0
  0
SPLINE
  5
10F
330
1F
100
AcDbEntity
  8
RUNDUNGEN
  6
Continuous
 62
     7
100
AcDbSpline
210
0.0
220
0.0
230
1.0
 70
     8
 71
     3
 72
    11
 73
     7
 74
     5
 42
0.0000000001
 43
0.0000000001
 44
0.00000001
 40
0.0
 40
0.0
 40
0.0
 40
0.0
 40
0.5117737013120506
 40
1.023548258451171
 40
1.535323257178057
 40
2.047096843452606
 40
2.047096843452606
 40
2.047096843452606
 40
2.047096843452606
 10
157.8247111075
 20
296.0741467815
 30
0.0
 10
157.8245717408317
 20
295.9035555365954
 30
0.0
 10
157.8242930072621
 20
295.5623727615104
 30
0.0
 10
157.8225947221438
 20
295.0506008469042
 30
0.0
 10
157.8203767509647
 20
294.5388309592278
 30
0.0
 10
157.8199246132469
 20
294.1976481815368
 30
0.0
 10
157.8196985447
 20
294.0270570281
 30
0.0
 11
157.8247111075
 21
296.0741467815
 31
0.0
 11
157.824079643885
 21
295.562373469761
 31
0.0
 11
157.822508108275
 21
295.05060132553
 31
0.0
 11
157.8206333770025
 21
294.5388297605671
 31
0.0
 11
157.8196985447
 21
294.0270570281
 31
0.0
  0
SPLINE
  5
110
330
1F
100
AcDbEntity
  8
0
  6
Continuous
 62
     7
100
AcDbSpline
210
0.0
220
0.0
230
1.0
 70
     8
 71
     3
 72
    25
 73
    21
 74
    19
 42
0.0000000001
 43
0.0000000001
 44
0.00000001
 40
0.0
 40
0.0
 40
0.0
 40
0.0
 40
0.0272074181327763
 40
0.0544897103956526
 40
0.0817252615953344
 40
0.1089465264512282
 40
0.1361394923334827
 40
0.1633375027671357
 40
0.1904999128067284
 40
0.2176598701182923
 40
0.2719180516917121
 40
0.3262245621220082
 40
0.3805032120486945
 40
0.4347626394098035
 40
0.4890258447746431
 40
0.5432924465759099
 40
0.5975546789659183
 40
0.6518175542110899
 40
0.7603351297135542
 40
0.8688543879159341
 40
0.8688543879159341
 40
0.8688543879159341
 40
0.8688543879159341
 10
151.0321985447
 20
291.1378510971
 30
0.0
 10
151.041275217563
 20
291.1374138566087
 30
0.0
 10
151.0594535420643
 20
291.1365381723515
 30
0.0
 10
151.0860554152841
 20
291.1299976304506
 30
0.0
 10
151.1115308720044
 20
291.1201898919186
 30
0.0
 10
151.135601395597
 20
291.107352262714
 30
0.0
 10
151.1582237673295
 20
291.0921770241561
 30
0.0
 10
151.1794476229059
 20
291.075147175248
 30
0.0
 10
151.1994329782753
 20
291.0567088763921
 30
0.0
 10
151.2245494821356
 20
291.0306263742211
 30
0.0
 10
151.2534820793384
 20
290.9957604246678
 30
0.0
 10
151.2848506724627
 20
290.9514171411854
 30
0.0
 10
151.3136738234919
 20
290.9053926641918
 30
0.0
 10
151.3402907030107
 20
290.8580830996054
 30
0.0
 10
151.3651014330543
 20
290.8098121567347
 30
0.0
 10
151.3883286086516
 20
290.7607618263805
 30
0.0
 10
151.4102112451677
 20
290.7110987889612
 30
0.0
 10
151.4377558128973
 20
290.6441958066295
 30
0.0
 10
151.4697276925383
 20
290.5595678008709
 30
0.0
 10
151.4923983002572
 20
290.490860095922
 30
0.0
 10
151.503733692
 20
290.4565059771
 30
0.0
 11
151.0321985447
 21
291.1378510971
 31
0.0
 11
151.0593184357247
 21
291.1356704751101
 31
0.0
 11
151.0858817320723
 21
291.1294483566393
 31
0.0
 11
151.1113055889872
 21
291.1196809235721
 31
0.0
 11
151.1353699481253
 21
291.106956778036
 31
0.0
 11
151.1579919513243
 21
291.0918669680724
 31
0.0
 11
151.1792515831772
 21
291.0749034830228
 31
0.0
 11
151.1992455936609
 21
291.0565177259283
 31
0.0
 11
151.2181168062902
 21
291.0369846612669
 31
0.0
 11
151.2529147721914
 21
290.995354722079
 31
0.0
 11
151.2844314547287
 21
290.9511292113758
 31
0.0
 11
151.3133106484717
 21
290.9051709258701
 31
0.0
 11
151.3399894194166
 21
290.8579234006606
 31
0.0
 11
151.3648369306012
 21
290.8096834105652
 31
0.0
 11
151.3881051299166
 21
290.7606583662341
 31
0.0
 11
151.4100073362249
 21
290.7110127901695
 31
0.0
 11
151.4307065204212
 21
290.6608530114272
 31
0.0
 11
151.4690008679306
 21
290.5593167758176
 31
0.0
 11
151.503733692
 21
290.4565059771
 31
0.0
  0
SPLINE
  5
111
330
1F
100
AcDbEntity
  8
0
  6
Continuous
 62
     7
100
AcDbSpline
210
0.0
220
0.0
230
1.0
 70
     8
 71
     3
 72
    25
 73
    21
 74
    19
 42
0.0000000001
 43
0.0000000001
 44
0.00000001
 40
0.0
 40
0.0
 40
0.0
 40
0.0
 40
0.1085025557124909
 40
0.2170033620829883
 40
0.2712583158292601
 40
0.3255127643281392
 40
0.3797719179331313
 40
0.4340272286516495
 40
0.4882788892691423
 40
0.5425511686195468
 40
0.5968541105359896
 40
0.6511051290694425
 40
0.6782579265324482
 40
0.7054161158976336
 40
0.7326228693861205
 40
0.7598194768936445
 40
0.7870692643678192
 40
0.8143404776686036
 40
0.8416356459133707
 40
0.8688504930323642
 40
0.8688504930323642
 40
0.8688504930323642
 40
0.8688504930323642
 10
148.2356633974
 20
290.4565059771
 30
0.0
 10
148.24699704796
 20
290.4908548069486
 30
0.0
 10
148.2696641663521
 20
290.5595519128539
 30
0.0
 10
148.3016308907279
 20
290.6441671035876
 30
0.0
 10
148.3291707749687
 20
290.7110603044426
 30
0.0
 10
148.3510493951376
 20
290.7607166690237
 30
0.0
 10
148.3742715586838
 20
290.8097608336458
 30
0.0
 10
148.3990771924092
 20
290.8580257503002
 30
0.0
 10
148.425690025286
 20
290.9053291585668
 30
0.0
 10
148.4545050965757
 20
290.9513515055847
 30
0.0
 10
148.4858556137307
 20
290.995700384579
 30
0.0
 10
148.5147804493084
 20
291.030566025802
 30
0.0
 10
148.5399024298562
 20
291.0566347893046
 30
0.0
 10
148.5598848706099
 20
291.0750739882523
 30
0.0
 10
148.5810867236904
 20
291.092134639286
 30
0.0
 10
148.6037062698505
 20
291.1073410304436
 30
0.0
 10
148.6278131059921
 20
291.1201625094875
 30
0.0
 10
148.6533227583188
 20
291.129947298594
 30
0.0
 10
148.6799343925483
 20
291.1365215062953
 30
0.0
 10
148.6981194259338
 20
291.1374083357496
 30
0.0
 10
148.7071985447
 20
291.1378510971
 30
0.0
 11
148.2356633974
 21
290.4565059771
 31
0.0
 11
148.2703908291242
 21
290.5593009676491
 31
0.0
 11
148.3086788684666
 21
290.6608216602509
 31
0.0
 11
148.3293745560438
 21
290.7109743124412
 31
0.0
 11
148.3512726612301
 21
290.7606131900591
 31
0.0
 11
148.3745361126679
 21
290.8096322432643
 31
0.0
 11
148.3993786006533
 21
290.857865940322
 31
0.0
 11
148.4260521652253
 21
290.9051074859443
 31
0.0
 11
148.454922119808
 21
290.9510640527034
 31
0.0
 11
148.4864252662192
 21
290.9952948255541
 31
0.0
 11
148.5212165826126
 21
291.0369209869857
 31
0.0
 11
148.5400874754986
 21
291.0564444039958
 31
0.0
 11
148.5600740170238
 21
291.0748320467882
 31
0.0
 11
148.5813216245719
 21
291.0918245924734
 31
0.0
 11
148.6039358216917
 21
291.1069326548424
 31
0.0
 11
148.6280354652461
 21
291.1196510705433
 31
0.0
 11
148.6535007607408
 21
291.1294100561598
 31
0.0
 11
148.6800727238361
 21
291.1356516093936
 31
0.0
 11
148.7071985447
 21
291.1378510971
 31
0.0
  0
SPLINE
  5
112
330
1F
100
AcDbEntity
  8
0
  6
Continuous
 62
     7
100
AcDbSpline
210
0.0
220
0.0
230
1.0
 70
     8
 71
     3
 72
    25
 73
    21
 74
    19
 42
0.0000000001
 43
0.0000000001
 44
0.00000001
 40
0.0
 40
0.0
 40
0.0
 40
0.0
 40
0.0272067661190284
 40
0.0544881809105738
 40
0.0817226175091646
 40
0.1089430469604744
 40
0.1361366760738764
 40
0.1633351631961213
 40
0.1904968256267561
 40
0.2176561384001204
 40
0.2719142873676161
 40
0.3262206322329507
 40
0.3804997303628981
 40
0.434759664636319
 40
0.4890233385788296
 40
0.5432903872991974
 40
0.5975530058595481
 40
0.6518162746663684
 40
0.7603346282164967
 40
0.8688546603278386
 40
0.8688546603278386
 40
0.8688546603278386
 40
0.8688546603278386
 10
148.7071985447
 20
301.0101608572
 30
0.0
 10
148.6981220883777
 20
301.0105978474871
 30
0.0
 10
148.6799442721702
 20
301.0114730270552
 30
0.0
 10
148.6533428702351
 20
301.0180119495906
 30
0.0
 10
148.6278686307641
 20
301.0278204710783
 30
0.0
 10
148.6037991296793
 20
301.0406589719307
 30
0.0
 10
148.5811762771543
 20
301.0558335926431
 30
0.0
 10
148.55995157989
 20
301.072862631736
 30
0.0
 10
148.5399663816947
 20
301.0913006784025
 30
0.0
 10
148.5148504320406
 20
301.1173830471603
 30
0.0
 10
148.4859176349072
 20
301.1522484289682
 30
0.0
 10
148.4545482429427
 20
301.1965912634099
 30
0.0
 10
148.4257248219292
 20
301.2426158954207
 30
0.0
 10
148.3991078299396
 20
301.2899259403169
 30
0.0
 10
148.3742968366684
 20
301.3381972787333
 30
0.0
 10
148.3510693755746
 20
301.3872479545184
 30
0.0
 10
148.3291865373381
 20
301.4369113505337
 30
0.0
 10
148.3016417642336
 20
301.503814809954
 30
0.0
 10
148.2696696436934
 20
301.5884434182358
 30
0.0
 10
148.2469988712759
 20
301.6571516136837
 30
0.0
 10
148.2356633974
 20
301.6915059771
 30
0.0
 11
148.7071985447
 21
301.0101608572
 31
0.0
 11
148.6800792368729
 21
301.0123405970086
 31
0.0
 11
148.6535165919611
 21
301.0185616490353
 31
0.0
 11
148.6280940415774
 21
301.0283293749135
 31
0.0
 11
148.6040308318044
 21
301.0410539069259
 31
0.0
 11
148.5814079906225
 21
301.0561436558044
 31
0.0
 11
148.5601474210715
 21
301.0731067299392
 31
0.0
 11
148.5401538253489
 21
301.0914918335853
 31
0.0
 11
148.5212831428557
 21
301.1110245142145
 31
0.0
 11
148.4864848650259
 21
301.1526541501661
 31
0.0
 11
148.4549676785684
 21
301.1968790984469
 31
0.0
 11
148.426088051919
 21
301.2428376412696
 31
0.0
 11
148.3994090823945
 21
301.2900856364913
 31
0.0
 11
148.3745613292649
 21
301.3383260290493
 31
0.0
 11
148.3512928581015
 21
301.3873514390581
 31
0.0
 11
148.3293904538899
 21
301.4369973498946
 31
0.0
 11
148.3086911084866
 21
301.4871574878676
 31
0.0
 11
148.2703964747149
 21
301.5886944470575
 31
0.0
 11
148.2356633974
 21
301.6915059771
 31
0.0
  0
SPLINE
  5
113
330
1F
100
AcDbEntity
  8
0
  6
Continuous
 62
     7
100
AcDbSpline
210
0.0
220
0.0
230
1.0
 70
     8
 71
     3
 72
    25
 73
    21
 74
    19
 42
0.0000000001
 43
0.0000000001
 44
0.00000001
 40
0.0
 40
0.0
 40
0.0
 40
0.0
 40
0.1085285490303868
 40
0.2170554556826737
 40
0.2713241332939365
 40
0.3255921109462396
 40
0.3798650579549895
 40
0.4341347749061054
 40
0.488400782496325
 40
0.5426855351785258
 40
0.5969918906582758
 40
0.6512511252966555
 40
0.6784124281187852
 40
0.7055751104782096
 40
0.7327602080731088
 40
0.7599421722140725
 40
0.787153299731101
 40
0.8143760191678715
 40
0.8416525758042875
 40
0.8688563236324032
 40
0.8688563236324032
 40
0.8688563236324032
 40
0.8688563236324032
 10
151.503733692
 20
301.6915059771
 30
0.0
 10
151.492397268584
 20
301.6571489365496
 30
0.0
 10
151.4697245933077
 20
301.5884353753788
 30
0.0
 10
151.4377495733991
 20
301.5037998541797
 30
0.0
 10
151.4102025149634
 20
301.436890371732
 30
0.0
 10
151.3883174036063
 20
301.3872219019335
 30
0.0
 10
151.3650869795017
 20
301.3381662427054
 30
0.0
 10
151.3402727474457
 20
301.2898898233614
 30
0.0
 10
151.3136528316189
 20
301.2425746219766
 30
0.0
 10
151.2848254758691
 20
301.1965477492751
 30
0.0
 10
151.2534490613421
 20
301.152207032773
 30
0.0
 10
151.2245121261633
 20
301.1173439579021
 30
0.0
 10
151.1993954061543
 20
301.0912604531488
 30
0.0
 10
151.1794097296772
 20
301.0728277158568
 30
0.0
 10
151.1581818625939
 20
301.055815203653
 30
0.0
 10
151.1355635191595
 20
301.0406553663038
 30
0.0
 10
151.111509473296
 20
301.0278124022852
 30
0.0
 10
151.0860470045134
 20
301.0179954240953
 30
0.0
 10
151.059449214461
 20
301.0114674736468
 30
0.0
 10
151.0412740046891
 20
301.0105960077995
 30
0.0
 10
151.0321985447
 20
301.0101608572
 30
0.0
 11
151.503733692
 21
301.6915059771
 31
0.0
 11
151.4689976890485
 21
301.5886864456209
 31
0.0
 11
151.4306998837315
 21
301.4871415413892
 31
0.0
 11
151.4099985453859
 21
301.4369763745862
 31
0.0
 11
151.3880938955903
 21
301.387325596991
 31
0.0
 11
151.3648224794357
 21
301.3382950558236
 31
0.0
 11
151.3399715453244
 21
301.290049504197
 31
0.0
 11
151.3132891844693
 21
301.2427964492801
 31
0.0
 11
151.2844043311795
 21
301.1968345125912
 31
0.0
 11
151.2528823000536
 21
301.1526130042589
 31
0.0
 11
151.2180798979438
 21
301.1109854010257
 31
0.0
 11
151.1992071951705
 21
301.0914519051526
 31
0.0
 11
151.1792092288209
 21
301.0730700484771
 31
0.0
 11
151.1579514541757
 21
301.0561249445123
 31
0.0
 11
151.1353343905066
 21
301.0410475572867
 31
0.0
 11
151.1112830648136
 21
301.0283204526216
 31
0.0
 11
151.0858744458224
 21
301.0185491408115
 31
0.0
 11
151.0593153266123
 21
301.0123343416413
 31
0.0
 11
151.0321985447
 21
301.0101608572
 31
0.0
  0
SPLINE
  5
114
330
1F
100
AcDbEntity
  8
RUNDUNGEN
  6
Continuous
 62
     7
100
AcDbSpline
210
0.0
220
0.0
230
1.0
 70
     8
 71
     3
 72
    11
 73
     7
 74
     5
 42
0.0000000001
 43
0.0000000001
 44
0.00000001
 40
0.0
 40
0.0
 40
0.0
 40
0.0
 40
0.5117031844272301
 40
1.02340778083264
 40
1.535111935621266
 40
2.046815234945651
 40
2.046815234945651
 40
2.046815234945651
 40
2.046815234945651
 10
157.8196985447
 20
298.1209549262
 30
0.0
 10
157.8199245551226
 20
297.9503872400109
 30
0.0
 10
157.8203765765915
 20
297.6092513969736
 30
0.0
 10
157.8225941340579
 20
297.0975519103472
 30
0.0
 10
157.8242924430774
 20
296.5858503987778
 30
0.0
 10
157.8245715527702
 20
296.2447145588743
 30
0.0
 10
157.8247111075
 20
296.0741467815
 30
0.0
 11
157.8196985447
 21
298.1209549262
 31
0.0
 11
157.82063316274
 21
297.6092525953063
 31
0.0
 11
157.822507593125
 21
297.097551432035
 31
0.0
 11
157.8240791697475
 21
296.5858496906125
 31
0.0
 11
157.8247111075
 21
296.0741467815
 31
0.0
  0
SPLINE
  5
115
330
1F
100
AcDbEntity
  8
0
  6
Continuous
 62
     7
100
AcDbSpline
210
0.0
220
0.0
230
1.0
 70
     8
 71
     3
 72
    27
 73
    23
 74
    21
 42
0.0000000001
 43
0.0000000001
 44
0.00000001
 40
0.0
 40
0.0
 40
0.0
 40
0.0
 40
0.0679422772585083
 40
0.135990467170704
 40
0.1960311417291845
 40
0.2558288643339157
 40
0.2829045758204178
 40
0.3099751664820211
 40
0.3357621418414946
 40
0.3615450077254285
 40
0.3868874812988586
 40
0.4122310012365701
 40
0.4380221513147798
 40
0.4638182097799773
 40
0.5190828346834264
 40
0.5745822153826635
 40
0.6366003187262766
 40
0.6985580374449026
 40
0.7666673008044225
 40
0.8347923374929058
 40
0.907843419946556
 40
0.9808740973189239
 40
0.9808740973189239
 40
0.9808740973189239
 40
0.9808740973189239
 10
106.9696985447
 20
303.618789869
 30
0.0
 10
106.9701663047587
 20
303.6414466100744
 30
0.0
 10
106.9711025540496
 20
303.6867954109623
 30
0.0
 10
106.9802194754852
 20
303.7516834855011
 30
0.0
 10
106.9959620334342
 20
303.8124479768127
 30
0.0
 10
107.0155292772586
 20
303.8576687504167
 30
0.0
 10
107.0355498016807
 20
303.8900064610819
 30
0.0
 10
107.0518513860814
 20
303.9111515664033
 30
0.0
 10
107.0701209484275
 20
303.9300256528419
 30
0.0
 10
107.0899942978903
 20
303.9463191390651
 30
0.0
 10
107.1115653472447
 20
303.9600117176644
 30
0.0
 10
107.1345837265475
 20
303.9710995800243
 30
0.0
 10
107.1588761413931
 20
303.9794871358758
 30
0.0
 10
107.1936512819452
 20
303.9874479906176
 30
0.0
 10
107.2393702615627
 20
303.9906158775087
 30
0.0
 10
107.2968768238778
 20
303.9851044523141
 30
0.0
 10
107.3553201861148
 20
303.9715882403648
 30
0.0
 10
107.4158100252317
 20
303.950323045028
 30
0.0
 10
107.4761313528111
 20
303.9232034014108
 30
0.0
 10
107.5374986116625
 20
303.8899355039532
 30
0.0
 10
107.5982666154517
 20
303.8523436295815
 30
0.0
 10
107.6379369027003
 20
303.8240890164345
 30
0.0
 10
107.6577692757
 20
303.8099636832
 30
0.0
 11
106.9696985447
 21
303.618789869
 31
0.0
 11
106.9724468097926
 21
303.6866765398423
 31
0.0
 11
106.9819396004092
 21
303.7540593497914
 31
0.0
 11
106.99746842407
 21
303.8120570931712
 31
0.0
 11
107.0216374776284
 21
303.8667528377845
 31
0.0
 11
107.0359329787917
 21
303.8897470283332
 31
0.0
 11
107.0525065957494
 21
303.9111510489768
 31
0.0
 11
107.0704580891628
 21
303.9296635307774
 31
0.0
 11
107.0904162447652
 21
303.9459861591852
 31
0.0
 11
107.111804463101
 21
303.9595797269008
 31
0.0
 11
107.1346347242299
 21
303.9705830527443
 31
0.0
 11
107.1589994344822
 21
303.9790414401013
 31
0.0
 11
107.1841373377727
 21
303.9848312976552
 31
0.0
 11
107.2392375349289
 21
303.9890912318183
 31
0.0
 11
107.2945187029381
 21
303.9841745539223
 31
0.0
 11
107.355007175703
 21
303.9704855143316
 31
0.0
 11
107.4135613535128
 21
303.9502329300564
 31
0.0
 11
107.4757473927621
 21
303.9224522123214
 31
0.0
 11
107.5357407498614
 21
303.8901750109595
 31
0.0
 11
107.5978294235638
 21
303.851685307849
 31
0.0
 11
107.6577692757
 21
303.8099636832
 31
0.0
  0
SPLINE
  5
116
330
1F
100
AcDbEntity
  8
FASEN
  6
Continuous
 62
     7
100
AcDbSpline
210
0.0
220
0.0
230
1.0
 70
     8
 71
     3
 72
    43
 73
    39
 74
    37
 42
0.0000000001
 43
0.0000000001
 44
0.00000001
 40
0.0
 40
0.0
 40
0.0
 40
0.0
 40
0.3536627138593035
 40
0.7077087111144507
 40
1.06138601666105
 40
1.414940913010531
 40
1.768273600935064
 40
2.121679340800097
 40
2.47499047378077
 40
2.828124790763217
 40
3.004861640144397
 40
3.181542282454391
 40
3.358289604750841
 40
3.535092628012896
 40
3.888693191001982
 40
4.242467023606489
 40
4.596379402943209
 40
4.950247373433569
 40
5.303947628016142
 40
5.657661399096346
 40
6.010712555506251
 40
6.363747200721566
 40
6.715806091067678
 40
7.067909115891291
 40
7.419215040221943
 40
7.770346273733873
 40
7.9458547792083
 40
8.121308710057553
 40
8.296759233407341
 40
8.472264989832219
 40
8.823345921706064
 40
9.174601594835405
 40
9.526721241958276
 40
9.878775142243212
 40
10.23179857978261
 40
10.58493613219246
 40
10.93889559959477
 40
11.29248564907124
 40
11.29248564907124
 40
11.29248564907124
 40
11.29248564907124
 10
120.7704501331
 20
296.0740059771
 30
0.0
 10
120.7737799599575
 20
296.1919432868418
 30
0.0
 10
120.7804432223859
 20
296.4279457213617
 30
0.0
 10
120.8347791776429
 20
296.7784300286059
 30
0.0
 10
120.9207224031735
 20
297.1220424948098
 30
0.0
 10
121.0406095479693
 20
297.4552799978078
 30
0.0
 10
121.19265840939
 20
297.7749514879937
 30
0.0
 10
121.3754723258332
 20
298.0780192934371
 30
0.0
 10
121.5873355215179
 20
298.3614260424154
 30
0.0
 10
121.786269960695
 20
298.5791406415408
 30
0.0
 10
121.9576504358387
 20
298.7408022106022
 30
0.0
 10
122.0920769595983
 20
298.8556328602638
 30
0.0
 10
122.2319952265423
 20
298.9637401823088
 30
0.0
 10
122.4254495785441
 20
299.0985557900055
 30
0.0
 10
122.6794943771631
 20
299.2489852962899
 30
0.0
 10
123.0005227917366
 20
299.3989138147898
 30
0.0
 10
123.3347816549228
 20
299.5167434944868
 30
0.0
 10
123.6788824637378
 20
299.6015037293661
 30
0.0
 10
124.0295342678716
 20
299.6523477450567
 30
0.0
 10
124.3831907969656
 20
299.6689618544532
 30
0.0
 10
124.7365627820933
 20
299.6511005918612
 30
0.0
 10
125.085994850058
 20
299.5991402704026
 30
0.0
 10
125.4283855880595
 20
299.5134267337666
 30
0.0
 10
125.7602719997744
 20
299.3949805237289
 30
0.0
 10
126.0786595144542
 20
299.2447253937031
 30
0.0
 10
126.3302958906131
 20
299.094313745574
 30
0.0
 10
126.5217917840205
 20
298.9596406776386
 30
0.0
 10
126.6602427165903
 20
298.8517196419118
 30
0.0
 10
126.7932408304162
 20
298.7371473569
 30
0.0
 10
126.9628715430687
 20
298.5758279149811
 30
0.0
 10
127.159742348112
 20
298.3586482438262
 30
0.0
 10
127.3694690886514
 20
298.075900502209
 30
0.0
 10
127.5504294319987
 20
297.7735220945686
 30
0.0
 10
127.7010612502427
 20
297.45433142536
 30
0.0
 10
127.8198930491989
 20
297.1215577594111
 30
0.0
 10
127.9051381883594
 20
296.7781731329516
 30
0.0
 10
127.9589733483407
 20
296.4278623674299
 30
0.0
 10
127.965623577695
 20
296.191917044156
 30
0.0
 10
127.9689469563
 20
296.0740059771
 30
0.0
 11
120.7704501331
 21
296.0740059771
 31
0.0
 11
120.7878232969755
 21
296.4272417175783
 31
0.0
 11
120.8400738660626
 21
296.7774108855564
 31
0.0
 11
120.9264027400114
 21
297.1203904213621
 31
0.0
 11
121.0460036354457
 21
297.4531015431239
 31
0.0
 11
121.1977804888138
 21
297.7721748499636
 31
0.0
 11
121.3803382130101
 21
298.0747773851576
 31
0.0
 11
121.5918499076531
 21
298.3577819075902
 31
0.0
 11
121.8300772699807
 21
298.6184571263378
 31
0.0
 11
121.9586360236481
 21
298.7397359818102
 31
0.0
 11
122.0929720490888
 21
298.8544960865324
 31
0.0
 11
122.2328364664359
 21
298.9625588493099
 31
0.0
 11
122.3778939346803
 21
299.0636411916905
 31
0.0
 11
122.6821253708314
 21
299.2438538200038
 31
0.0
 11
123.0026715668493
 21
299.3935403619979
 31
0.0
 11
123.3364403243956
 21
299.511236533277
 31
0.0
 11
123.6800399912095
 21
299.595864008156
 31
0.0
 11
124.0300758858991
 21
299.6466453287433
 31
0.0
 11
124.3834013224799
 21
299.6632154137402
 31
0.0
 11
124.7360030483126
 21
299.6454069331165
 31
0.0
 11
125.0851921254055
 21
299.5934410870125
 31
0.0
 11
125.4267128767075
 21
299.5079481709207
 31
0.0
 11
125.7583152530042
 21
299.3895572754753
 31
0.0
 11
126.0760238927813
 21
299.2396337193516
 31
0.0
 11
126.3773857069606
 21
299.0594277258272
 31
0.0
 11
126.5209516725704
 21
298.9584720473717
 31
0.0
 11
126.659335004926
 21
298.8506103990596
 31
0.0
 11
126.792259882626
 21
298.7360946227134
 31
0.0
 11
126.9194325071415
 21
298.6151425904357
 31
0.0
 11
127.1552506189752
 21
298.3550509933846
 31
0.0
 11
127.3644841161594
 21
298.07291292158
 31
0.0
 11
127.5453390054002
 21
297.7707875255477
 31
0.0
 11
127.6956165700546
 21
297.4524188677509
 31
0.0
 11
127.8142532838271
 21
297.11992694665
 31
0.0
 11
127.8998418928751
 21
296.7773182472227
 31
0.0
 11
127.9516690977642
 21
296.427173640814
 31
0.0
 11
127.9689469563
 21
296.0740059771
 31
0.0
  0
SPLINE
  5
117
330
1F
100
AcDbEntity
  8
0
  6
Continuous
 62
     7
100
AcDbSpline
210
0.0
220
0.0
230
1.0
 70
     8
 71
     3
 72
    13
 73
     9
 74
     7
 42
0.0000000001
 43
0.0000000001
 44
0.00000001
 40
0.0
 40
0.0
 40
0.0
 40
0.0
 40
0.1312848067867986
 40
0.2626131914924562
 40
0.3227000711013322
 40
0.3827285903045103
 40
0.4404671081947533
 40
0.4981359433925802
 40
0.4981359433925802
 40
0.4981359433925802
 40
0.4981359433925802
 10
148.2356633974
 20
301.6915059771
 30
0.0
 10
148.200338585093
 20
301.7175354243107
 30
0.0
 10
148.1296772349652
 20
301.7696029587961
 30
0.0
 10
148.0601704746431
 20
301.8532784605231
 30
0.0
 10
148.0169133454285
 20
301.9251711689512
 30
0.0
 10
147.9921925816995
 20
301.979178426167
 30
0.0
 10
147.9733517106082
 20
302.0347270743852
 30
0.0
 10
147.9663007755566
 20
302.0725872961664
 30
0.0
 10
147.9627774367
 20
302.0915059771
 30
0.0
 11
148.2356633974
 21
301.6915059771
 31
0.0
 11
148.1332119849187
 21
301.7735998780527
 31
0.0
 11
148.0487322185574
 21
301.8741499337709
 31
0.0
 11
148.0178964296906
 21
301.9257211197772
 31
0.0
 11
147.9928411810051
 21
301.9802707085111
 31
0.0
 11
147.9746816394675
 21
302.0350791704427
 31
0.0
 11
147.9627774367
 21
302.0915059771
 31
0.0
  0
SPLINE
  5
118
330
1F
100
AcDbEntity
  8
0
  6
Continuous
 62
     7
100
AcDbSpline
210
0.0
220
0.0
230
1.0
 70
     8
 71
     3
 72
    13
 73
     9
 74
     7
 42
0.0000000001
 43
0.0000000001
 44
0.00000001
 40
0.0
 40
0.0
 40
0.0
 40
0.0
 40
0.0576631896563811
 40
0.1153961315240639
 40
0.1754242231680254
 40
0.2355105400479708
 40
0.3668449112040255
 40
0.4981360904024744
 40
0.4981360904024744
 40
0.4981360904024744
 40
0.4981360904024744
 10
151.7766196527
 20
302.0915059771
 30
0.0
 10
151.7730966149573
 20
302.0725891568909
 30
0.0
 10
151.7660462778334
 20
302.0347326337628
 30
0.0
 10
151.7472070631544
 20
301.9791875975089
 30
0.0
 10
151.7224891553263
 20
301.9251814885263
 30
0.0
 10
151.6792340059925
 20
301.8532856055182
 30
0.0
 10
151.6097251558576
 20
301.7696063034061
 30
0.0
 10
151.5390603060553
 20
301.717536564702
 30
0.0
 10
151.503733692
 20
301.6915059771
 30
0.0
 11
151.7766196527
 21
302.0915059771
 31
0.0
 11
151.7647165732401
 21
302.0350847032689
 31
0.0
 11
151.7465593824901
 21
301.980281336577
 31
0.0
 11
151.7215060685624
 21
301.9257313297241
 31
0.0
 11
151.6906724360878
 21
301.8741595100489
 31
0.0
 11
151.6061901982413
 21
301.7736037119295
 31
0.0
 11
151.503733692
 21
301.6915059771
 31
0.0
  0
SPLINE
  5
119
330
1F
100
AcDbEntity
  8
0
  6
Continuous
 62
     7
100
AcDbSpline
210
0.0
220
0.0
230
1.0
 70
     8
 71
     3
 72
    11
 73
     7
 74
     5
 42
0.0000000001
 43
0.0000000001
 44
0.00000001
 40
0.0
 40
0.0
 40
0.0
 40
0.0
 40
0.1068456601637041
 40
0.2142571945298606
 40
0.3333679116597653
 40
0.4521343114786568
 40
0.4521343114786568
 40
0.4521343114786568
 40
0.4521343114786568
 10
147.97171336692
 20
290.101512232395
 30
0.0
 10
147.9823996155079
 20
290.1356209236623
 30
0.0
 10
148.003828709015
 20
290.2040189520783
 30
0.0
 10
148.062827544593
 20
290.2992723377362
 30
0.0
 10
148.1392434852098
 20
290.3864108291416
 30
0.0
 10
148.2035544558287
 20
290.433163485294
 30
0.0
 10
148.2356633974
 20
290.4565059771
 30
0.0
 11
147.97171336692
 21
290.101512232395
 31
0.0
 11
148.00787280291
 21
290.202053220478
 31
0.0
 11
148.0630149721458
 21
290.2942301095927
 31
0.0
 11
148.1422447132052
 21
290.3831683525867
 31
0.0
 11
148.2356633974
 21
290.4565059771
 31
0.0
  0
SPLINE
  5
11A
330
1F
100
AcDbEntity
  8
0
  6
Continuous
 62
     7
100
AcDbSpline
210
0.0
220
0.0
230
1.0
 70
     8
 71
     3
 72
    13
 73
     9
 74
     7
 42
0.0000000001
 43
0.0000000001
 44
0.00000001
 40
0.0
 40
0.0
 40
0.0
 40
0.0
 40
0.1312911943314128
 40
0.2626255805391333
 40
0.3227118842560796
 40
0.3827399627618269
 40
0.4404729026377475
 40
0.4981360903238708
 40
0.4981360903238708
 40
0.4981360903238708
 40
0.4981360903238708
 10
151.503733692
 20
290.4565059771
 30
0.0
 10
151.5390603099968
 20
290.430475386278
 30
0.0
 10
151.6097251676603
 20
290.3784056411497
 30
0.0
 10
151.6792340186724
 20
290.2947263318443
 30
0.0
 10
151.7224891630472
 20
290.222830450308
 30
0.0
 10
151.7472070658465
 20
290.1688243494684
 30
0.0
 10
151.7660462782936
 20
290.1132793185035
 30
0.0
 10
151.7730966151103
 20
290.0754227966668
 30
0.0
 10
151.7766196527
 20
290.0565059771
 30
0.0
 11
151.503733692
 21
290.4565059771
 31
0.0
 11
151.6061902091566
 21
290.3744082316917
 31
0.0
 11
151.6906724530671
 21
290.2738524190084
 31
0.0
 11
151.7215060766721
 21
290.2222806093665
 31
0.0
 11
151.7465593840375
 21
290.1677306139572
 31
0.0
 11
151.764716573793
 21
290.1129272490341
 31
0.0
 11
151.7766196527
 21
290.0565059771
 31
0.0
  0
SPLINE
  5
11B
330
1F
100
AcDbEntity
  8
RUNDUNGEN
  6
Continuous
 62
     7
100
AcDbSpline
210
0.0
220
0.0
230
1.0
 70
     8
 71
     3
 72
    15
 73
    11
 74
     9
 42
0.0000000001
 43
0.0000000001
 44
0.00000001
 40
0.0
 40
0.0
 40
0.0
 40
0.0
 40
0.2286533797250614
 40
0.4574173648833552
 40
0.6866651597610931
 40
0.9158640491016737
 40
1.146314057857722
 40
1.3768317239818
 40
1.609554238594653
 40
1.842048835049855
 40
1.842048835049855
 40
1.842048835049855
 40
1.842048835049855
 10
110.9877567209
 20
303.7240059771
 30
0.0
 10
111.0301614893693
 20
303.6606418363466
 30
0.0
 10
111.1149915385689
 20
303.5338829039997
 30
0.0
 10
111.2264683136948
 20
303.3337014506787
 30
0.0
 10
111.3256165662541
 20
303.127045858505
 30
0.0
 10
111.4101166751069
 20
302.9133097298702
 30
0.0
 10
111.4788922885477
 20
302.6935161734327
 30
0.0
 10
111.5298693429822
 20
302.4677841266866
 30
0.0
 10
111.5632086253238
 20
302.2378025923709
 30
0.0
 10
111.5675359449183
 20
302.0826796808969
 30
0.0
 10
111.5696985447
 20
302.0051562239
 30
0.0
 11
110.9877567209
 21
303.7240059771
 31
0.0
 11
111.1123296673254
 21
303.5322667034011
 31
0.0
 11
111.2243252054556
 21
303.3327924936785
 31
0.0
 11
111.3231456133841
 21
303.1259372823998
 31
0.0
 11
111.4073335355943
 21
302.9127600682589
 31
0.0
 11
111.4758712451002
 21
302.6927378218579
 31
0.0
 11
111.5267744907309
 21
302.4679106571746
 31
0.0
 11
111.5587237288959
 21
302.2373916449686
 31
0.0
 11
111.5696985447
 21
302.0051562239
 31
0.0
  0
SPLINE
  5
11C
330
1F
100
AcDbEntity
  8
RUNDUNGEN
  6
Continuous
 62
     7
100
AcDbSpline
210
0.0
220
0.0
230
1.0
 70
     8
 71
     3
 72
    15
 73
    11
 74
     9
 42
0.0000000001
 43
0.0000000001
 44
0.00000001
 40
0.0
 40
0.0
 40
0.0
 40
0.0
 40
0.1273079847554317
 40
0.2549893803949585
 40
0.3793073350800835
 40
0.5035989686945523
 40
0.6245667031296221
 40
0.7455591721597201
 40
0.864593737273654
 40
0.983551038156925
 40
0.983551038156925
 40
0.983551038156925
 40
0.983551038156925
 10
110.1696985447
 20
304.1784767747
 30
0.0
 10
110.2121777143303
 20
304.1809234188086
 30
0.0
 10
110.2972606505228
 20
304.1858238833514
 30
0.0
 10
110.4229070021889
 20
304.1641596959053
 30
0.0
 10
110.5416930194303
 20
304.1225202234931
 30
0.0
 10
110.6504596681078
 20
304.0636487346876
 30
0.0
 10
110.7493098733237
 20
303.9914746981092
 30
0.0
 10
110.8376955175033
 20
303.9095212861325
 30
0.0
 10
110.9177403976536
 20
303.8202825902752
 30
0.0
 10
110.9644229983312
 20
303.7560912349018
 30
0.0
 10
110.9877567209
 20
303.7240059771
 30
0.0
 11
110.1696985447
 21
304.1784767747
 31
0.0
 11
110.2969822131044
 21
304.1809648944721
 31
0.0
 11
110.4230134851325
 21
304.1605037785823
 31
0.0
 11
110.5403724870952
 21
304.1194937979019
 31
0.0
 11
110.649900775793
 21
304.0607403796057
 31
0.0
 11
110.7477877664766
 21
303.9896676715579
 31
0.0
 11
110.8368414614741
 21
303.9077615242348
 31
0.0
 11
110.9161606226926
 21
303.8190051252799
 31
0.0
 11
110.9877567209
 21
303.7240059771
 31
0.0
  0
SPLINE
  5
11D
330
1F
100
AcDbEntity
  8
RUNDUNGEN
  6
Continuous
 62
     7
100
AcDbSpline
210
0.0
220
0.0
230
1.0
 70
     8
 71
     3
 72
    15
 73
    11
 74
     9
 42
0.0000000001
 43
0.0000000001
 44
0.00000001
 40
0.0
 40
0.0
 40
0.0
 40
0.0
 40
0.2324947530149177
 40
0.4652174308841079
 40
0.6957353316387648
 40
0.9261855605496923
 40
1.155384407683794
 40
1.384632178698247
 40
1.613395801613356
 40
1.842048806064407
 40
1.842048806064407
 40
1.842048806064407
 40
1.842048806064407
 10
111.5696985447
 20
290.1428557303
 30
0.0
 10
111.5675359377306
 20
290.0653322211011
 30
0.0
 10
111.5632086036928
 20
289.9102092029901
 30
0.0
 10
111.5298692653135
 20
289.6802274908314
 30
0.0
 10
111.4788922065265
 20
289.4544952344333
 30
0.0
 10
111.4101165101543
 20
289.2347015541702
 30
0.0
 10
111.3256161355377
 20
289.0209654717612
 30
0.0
 10
111.2264677603507
 20
288.814310104295
 30
0.0
 10
111.1149912550744
 20
288.6141287954256
 30
0.0
 10
111.0301613940697
 20
288.4873700317218
 30
0.0
 10
110.9877567209
 20
288.4240059771
 30
0.0
 11
111.5696985447
 21
290.1428557303
 31
0.0
 11
111.5587237023173
 21
289.910620153753
 31
0.0
 11
111.526774426636
 21
289.6801009819298
 31
0.0
 11
111.4758711450464
 21
289.4552735848187
 31
0.0
 11
111.4073333059689
 21
289.2352511481908
 31
0.0
 11
111.3231451958012
 21
289.0220740536567
 31
0.0
 11
111.2243246570767
 21
288.8152189313095
 31
0.0
 11
111.1123293743438
 21
288.6157449936263
 31
0.0
 11
110.9877567209
 21
288.4240059771
 31
0.0
  0
SPLINE
  5
11E
330
1F
100
AcDbEntity
  8
RUNDUNGEN
  6
Continuous
 62
     7
100
AcDbSpline
210
0.0
220
0.0
230
1.0
 70
     8
 71
     3
 72
    17
 73
    13
 74
    11
 42
0.0000000001
 43
0.0000000001
 44
0.00000001
 40
0.0
 40
0.0
 40
0.0
 40
0.0
 40
0.11900591929499
 40
0.2380814744025384
 40
0.3590691914914034
 40
0.48008507471091
 40
0.6044906460269831
 40
0.72865219443378
 40
0.7922003881759472
 40
0.8557409871998081
 40
0.9198158321739256
 40
0.9838416201954283
 40
0.9838416201954283
 40
0.9838416201954283
 40
0.9838416201954283
 10
110.9877567209
 20
288.4240059771
 30
0.0
 10
110.964411020186
 20
288.3919094460615
 30
0.0
 10
110.9177059581198
 20
288.3276976028347
 30
0.0
 10
110.8376394956224
 20
288.2384398087268
 30
0.0
 10
110.7492685666533
 20
288.1564381158184
 30
0.0
 10
110.6503438085905
 20
288.0842314435139
 30
0.0
 10
110.541509735701
 20
288.0256175005451
 30
0.0
 10
110.4429476837114
 20
287.9907375436914
 30
0.0
 10
110.3609011545366
 20
287.97339059372
 30
0.0
 10
110.2975382353267
 20
287.9659975311839
 30
0.0
 10
110.2335509330657
 20
287.9640641997571
 30
0.0
 10
110.1909772395329
 20
287.9677119852332
 30
0.0
 10
110.1696985447
 20
287.9695351795
 30
0.0
 11
110.9877567209
 21
288.4240059771
 31
0.0
 11
110.9161247645771
 21
288.3289729740926
 31
0.0
 11
110.8367807848293
 21
288.2401837816087
 31
0.0
 11
110.7477485767852
 21
288.1582612961901
 31
0.0
 11
110.6497973820094
 21
288.0871950775388
 31
0.0
 11
110.5401110788331
 21
288.0284953239617
 31
0.0
 11
110.4229226061329
 21
287.9874715263686
 31
0.0
 11
110.3607427766244
 21
287.9743550584682
 31
0.0
 11
110.2976383726553
 21
287.9669225673636
 31
0.0
 11
110.2335840833147
 21
287.965299676262
 31
0.0
 11
110.1696985447
 21
287.9695351795
 31
0.0
  0
SPLINE
  5
11F
330
1F
100
AcDbEntity
  8
0
  6
Continuous
 62
     7
100
AcDbSpline
210
0.0
220
0.0
230
1.0
 70
     8
 71
     3
 72
    27
 73
    23
 74
    21
 42
0.0000000001
 43
0.0000000001
 44
0.00000001
 40
0.0
 40
0.0
 40
0.0
 40
0.0
 40
0.0730306819811098
 40
0.1460817688155001
 40
0.2142068182555194
 40
0.2823160953951557
 40
0.3442738269361137
 40
0.4062919406395879
 40
0.4617913416955411
 40
0.5170559905222715
 40
0.5428520622964701
 40
0.5686432246272399
 40
0.5939867602397277
 40
0.6193292497944402
 40
0.6451121206417981
 40
0.6708991014807023
 40
0.6979696845215655
 40
0.7250453874354348
 40
0.7848430773699963
 40
0.8448837206121337
 40
0.9129318640794912
 40
0.9808740945589562
 40
0.9808740945589562
 40
0.9808740945589562
 40
0.9808740945589562
 10
107.6577692757
 20
288.3380482711
 30
0.0
 10
107.63793690145
 20
288.3239229369715
 30
0.0
 10
107.5982666117626
 20
288.2956683220804
 30
0.0
 10
107.5374986016407
 20
288.2580764441439
 30
0.0
 10
107.4761313331904
 20
288.2248085427104
 30
0.0
 10
107.4158099932744
 20
288.1976888946256
 30
0.0
 10
107.3553201427477
 20
288.176423694489
 30
0.0
 10
107.2968767639338
 20
288.1629074864447
 30
0.0
 10
107.2393701802759
 20
288.1573960857165
 30
0.0
 10
107.1936511837814
 20
288.1605639904482
 30
0.0
 10
107.1588760270181
 20
288.1685248476148
 30
0.0
 10
107.1345835998003
 20
288.1769124111589
 30
0.0
 10
107.1115652144354
 20
288.1880002959019
 30
0.0
 10
107.089994168853
 20
288.2016929038145
 30
0.0
 10
107.0701208327231
 20
288.2179864202948
 30
0.0
 10
107.0518512903584
 20
288.2368605268227
 30
0.0
 10
107.0355497192764
 20
288.2580056372403
 30
0.0
 10
107.0155292112914
 20
288.290343338871
 30
0.0
 10
106.9959619911224
 20
288.3355640963499
 30
0.0
 10
106.9802194591128
 20
288.3963285559848
 30
0.0
 10
106.9711025520403
 20
288.4612165900704
 30
0.0
 10
106.9701663040884
 20
288.5065653598404
 30
0.0
 10
106.9696985447
 20
288.5292220853
 30
0.0
 11
107.6577692757
 21
288.3380482711
 31
0.0
 11
107.5978294197553
 21
288.2963266438551
 31
0.0
 11
107.5357407421436
 21
288.2578369387367
 31
0.0
 11
107.4757473734002
 21
288.2255597321038
 31
0.0
 11
107.4135613212849
 21
288.1977790093846
 31
0.0
 11
107.355007131034
 21
288.1775264218521
 31
0.0
 11
107.2945186459846
 21
288.1638373896083
 31
0.0
 11
107.2392374558042
 21
288.1589207312105
 31
0.0
 11
107.1841372360165
 21
288.1631806830054
 31
0.0
 11
107.158999319952
 21
288.1689705443951
 31
0.0
 11
107.1346345997519
 21
288.1774289404573
 31
0.0
 11
107.1118043316823
 21
288.1884322880029
 31
0.0
 11
107.0904161137683
 21
288.2020258861762
 31
0.0
 11
107.0704579736558
 21
288.218348541364
 31
0.0
 11
107.0525064952633
 21
288.2368610453628
 31
0.0
 11
107.0359328951392
 21
288.2582650694027
 31
0.0
 11
107.0216374053376
 21
288.2812592569207
 31
0.0
 11
106.9974683809001
 21
288.3359549786844
 31
0.0
 11
106.9819395803316
 21
288.3939526958277
 31
0.0
 11
106.9724468055414
 21
288.4613354611029
 31
0.0
 11
106.9696985447
 21
288.5292220853
 31
0.0
  0
SPLINE
  5
120
330
1F
100
AcDbEntity
  8
0
  6
Continuous
 62
     7
100
AcDbSpline
210
0.0
220
0.0
230
1.0
 70
     8
 71
     3
 72
    11
 73
     7
 74
     5
 42
0.0000000001
 43
0.0000000001
 44
0.00000001
 40
0.0
 40
0.0
 40
0.0
 40
0.0
 40
0.441968963384114
 40
0.8839020538557711
 40
1.150518561878871
 40
1.416734593058717
 40
1.416734593058717
 40
1.416734593058717
 40
1.416734593058717
 10
107.7061887546
 20
288.4240059771
 30
0.0
 10
107.7748888547282
 20
288.5545302212926
 30
0.0
 10
107.9122834788631
 20
288.8155681155293
 30
0.0
 10
108.0372096504392
 20
289.1797371470906
 30
0.0
 10
108.1072460158258
 20
289.4981228779565
 30
0.0
 10
108.1155497821117
 20
289.6758496308509
 30
0.0
 10
108.1196985447
 20
289.7646462176
 30
0.0
 11
107.7061887546
 21
288.4240059771
 31
0.0
 11
107.9019336301958
 21
288.8202641104838
 31
0.0
 11
108.0461208509892
 21
289.2380139181603
 31
0.0
 11
108.0997685307434
 21
289.4991772555708
 31
0.0
 11
108.1196985447
 21
289.7646462176
 31
0.0
  0
SPLINE
  5
121
330
1F
100
AcDbEntity
  8
0
  6
Continuous
 62
     7
100
AcDbSpline
210
0.0
220
0.0
230
1.0
 70
     8
 71
     3
 72
    11
 73
     7
 74
     5
 42
0.0000000001
 43
0.0000000001
 44
0.00000001
 40
0.0
 40
0.0
 40
0.0
 40
0.0
 40
0.3847579053301548
 40
0.7696659746337774
 40
1.093183244054013
 40
1.416570809308422
 40
1.416570809308422
 40
1.416570809308422
 40
1.416570809308422
 10
108.1196985447
 20
302.3833657366
 30
0.0
 10
108.1110705069139
 20
302.5117123089172
 30
0.0
 10
108.0938110639763
 20
302.7684555448714
 30
0.0
 10
107.9879631459893
 20
303.1195498233843
 30
0.0
 10
107.8591850011115
 20
303.4387424898066
 30
0.0
 10
107.7571806861621
 20
303.6289308589
 30
0.0
 10
107.7061887546
 20
303.7240059771
 30
0.0
 11
108.1196985447
 21
302.3833657366
 31
0.0
 11
108.0795040714204
 21
302.7660183859203
 31
0.0
 11
107.9761669822291
 21
303.1367954993085
 31
0.0
 11
107.8538502704303
 21
303.4362984970028
 31
0.0
 11
107.7061887546
 21
303.7240059771
 31
0.0
  0
DIMENSION
  5
12C
330
1F
100
AcDbEntity
  8
1
100
AcDbDimension
  2
*D2
 10
222.34045767874
 20
307.0740059771
 30
0.0
 11
218.59045767874
 21
296.205257571422
 31
0.0
 70
    32
  1
<>
 71
     5
 42
-1.0
 53
90.0
  3
ME10_DIM_10
100
AcDbAlignedDimension
 13
209.8696985447
 23
285.0740059771
 33
0.0
 14
209.8696985447
 24
307.0740059771
 34
0.0
 50
90.0
100
AcDbRotatedDimension
  0
DIMENSION
  5
137
330
1F
100
AcDbEntity
  8
1
100
AcDbDimension
  2
*D3
 10
231.239640576766
 20
320.0740059771
 30
0.0
 11
227.489640576766
 21
295.979961801851
 31
0.0
 70
    32
  1
<>
 71
     5
 42
-1.0
 53
90.0
  3
ME10_DIM_11
100
AcDbAlignedDimension
 13
190.8696985447
 23
272.0740059771
 33
0.0
 14
190.8696985447
 24
320.0740059771
 34
0.0
 50
90.0
100
AcDbRotatedDimension
  0
DIMENSION
  5
142
330
1F
100
AcDbEntity
  8
1
100
AcDbDimension
  2
*D4
 10
210.8696985447
 20
328.647848389545
 30
0.0
 11
201.838542647842
 21
332.397848389545
 31
0.0
 70
    32
  1
<>
 71
     5
 42
-1.0
 53
0.00013888888889
  3
ME10_DIM_12
100
AcDbAlignedDimension
 13
191.8696985447
 23
319.0740059771
 33
0.0
 14
210.8696985447
 24
306.0740059771
 34
0.0
100
AcDbRotatedDimension
  0
DIMENSION
  5
14D
330
1F
100
AcDbEntity
  8
1
100
AcDbDimension
  2
*D5
 10
210.8696985447
 20
336.871143978861
 30
0.0
 11
184.828712045285
 21
340.621143978861
 31
0.0
 70
    32
  1
<>
 71
     5
 42
-1.0
 53
0.00013888888889
  3
ME10_DIM_13
100
AcDbAlignedDimension
 13
157.8196985447
 23
321.0739559586
 33
0.0
 14
210.8696985447
 24
306.0740059771
 34
0.0
100
AcDbRotatedDimension
  0
DIMENSION
  5
158
330
1F
100
AcDbEntity
  8
1
100
AcDbDimension
  2
*D6
 10
210.8696985447
 20
344.531200144251
 30
0.0
 11
173.000684142844
 21
348.281200144251
 31
0.0
 70
    32
  1
<>
 71
     5
 42
-1.0
 53
0.00013888888889
  3
ME10_DIM_14
100
AcDbAlignedDimension
 13
131.8696985447
 23
321.0740059771
 33
0.0
 14
210.8696985447
 24
306.0740059771
 34
0.0
100
AcDbRotatedDimension
  0
DIMENSION
  5
163
330
1F
100
AcDbEntity
  8
1
100
AcDbDimension
  2
*D7
 10
210.8696985447
 20
352.416552079211
 30
0.0
 11
163.425613936106
 21
356.166552079211
 31
0.0
 70
    32
  1
<>
 71
     5
 42
-1.0
 53
0.00013888888889
  3
ME10_DIM_15
100
AcDbAlignedDimension
 13
106.9696985447
 23
313.1303617583
 33
0.0
 14
210.8696985447
 24
306.0740059771
 34
0.0
100
AcDbRotatedDimension
  0
DIMENSION
  5
16E
330
1F
100
AcDbEntity
  8
1
100
AcDbDimension
  2
*D8
 10
191.8696985447
 20
261.171765403239
 30
0.0
 11
161.623247779544
 21
264.921765403239
 31
0.0
 70
    32
  1
<>
 71
     5
 42
-1.0
 53
0.00013888888889
  3
ME10_DIM_16
100
AcDbAlignedDimension
 13
131.8696985447
 23
271.0740059771
 33
0.0
 14
191.8696985447
 24
273.0740059771
 34
0.0
100
AcDbRotatedDimension
  0
ENDSEC
  0
SECTION
  2
OBJECTS
  0
DICTIONARY
  5
C
330
0
100
AcDbDictionary
281
     1
  3
ACAD_GROUP
350
D
  3
ACAD_LAYOUT
350
1A
  3
ACAD_MLEADERSTYLE
350
171
  3
ACAD_MLINESTYLE
350
17
  3
ACAD_PLOTSETTINGS
350
19
  3
ACAD_PLOTSTYLENAME
350
E
  3
ACAD_SCALELIST
350
4B
  3
ACAD_VISUALSTYLE
350
2A
  3
AcDbVariableDictionary
350
16F
  0
DICTIONARY
  5
D
102
{ACAD_REACTORS
330
C
102
}
330
C
100
AcDbDictionary
281
     1
  0
DICTIONARY
  5
1A
102
{ACAD_REACTORS
330
C
102
}
330
C
100
AcDbDictionary
281
     1
  3
Layout1
350
1E
  3
Layout2
350
26
  3
Model
350
22
  0
DICTIONARY
  5
171
102
{ACAD_REACTORS
330
C
102
}
330
C
100
AcDbDictionary
281
     1
  0
DICTIONARY
  5
17
102
{ACAD_REACTORS
330
C
102
}
330
C
100
AcDbDictionary
281
     1
  3
Standard
350
18
  0
DICTIONARY
  5
19
102
{ACAD_REACTORS
330
C
102
}
330
C
100
AcDbDictionary
281
     1
  0
ACDBDICTIONARYWDFLT
  5
E
102
{ACAD_REACTORS
330
C
102
}
330
C
100
AcDbDictionary
281
     1
  3
Normal
350
F
100
AcDbDictionaryWithDefault
340
F
  0
DICTIONARY
  5
4B
102
{ACAD_REACTORS
330
C
102
}
330
C
100
AcDbDictionary
281
     1
  3
A0
350
4C
  3
A1
350
4D
  3
A2
350
4E
  3
A3
350
4F
  3
A4
350
50
  3
A5
350
51
  3
A6
350
52
  3
A7
350
53
  3
A8
350
54
  3
A9
350
55
  3
B0
350
56
  3
B1
350
57
  3
B2
350
58
  3
B3
350
59
  3
B4
350
5A
  3
B5
350
5B
  3
B6
350
5C
  3
B7
350
5D
  3
B8
350
5E
  3
B9
350
5F
  3
C0
350
60
  3
C1
350
61
  3
C2
350
62
  3
C3
350
63
  3
C4
350
64
  3
C5
350
65
  3
C6
350
66
  3
C7
350
67
  3
C8
350
68
  3
C9
350
69
  3
D0
350
6A
  3
D1
350
6B
  3
D2
350
6C
  0
DICTIONARY
  5
2A
102
{ACAD_REACTORS
330
C
102
}
330
C
100
AcDbDictionary
281
     1
  3
2dWireframe
350
2F
  3
3D Hidden
350
31
  3
3dWireframe
350
30
  3
Basic
350
32
  3
Brighten
350
36
  3
ColorChange
350
3A
  3
Conceptual
350
34
  3
Dim
350
35
  3
Facepattern
350
39
  3
Flat
350
2B
  3
FlatWithEdges
350
2C
  3
Gouraud
350
2D
  3
GouraudWithEdges
350
2E
  3
Linepattern
350
38
  3
Realistic
350
33
  3
Thicken
350
37
  0
DICTIONARY
  5
16F
102
{ACAD_REACTORS
330
C
102
}
330
C
100
AcDbDictionary
281
     1
  3
CANNOSCALE
350
172
  0
LAYOUT
  5
1E
102
{ACAD_REACTORS
330
1A
102
}
330
1A
100
AcDbPlotSettings
  1

  2
none_device
  4

  6

 40
0.0
 41
0.0
 42
0.0
 43
0.0
 44
0.0
 45
0.0
 46
0.0
 47
0.0
 48
0.0
 49
0.0
140
0.0
141
0.0
142
1.0
143
1.0
 70
   688
 72
     0
 73
     0
 74
     5
  7

 75
    16
147
1.0
148
0.0
149
0.0
100
AcDbLayout
  1
Layout1
 70
     1
 71
     1
 10
0.0
 20
0.0
 11
12.0
 21
9.0
 12
0.0
 22
0.0
 32
0.0
 14
1.00000000000000E+20
 24
1.00000000000000E+20
 34
1.00000000000000E+20
 15
-1.00000000000000E+20
 25
-1.00000000000000E+20
 35
-1.00000000000000E+20
146
0.0
 13
0.0
 23
0.0
 33
0.0
 16
1.0
 26
0.0
 36
0.0
 17
0.0
 27
1.0
 37
0.0
 76
     0
330
1B
  0
LAYOUT
  5
26
102
{ACAD_REACTORS
330
1A
102
}
330
1A
100
AcDbPlotSettings
  1

  2
none_device
  4

  6

 40
0.0
 41
0.0
 42
0.0
 43
0.0
 44
0.0
 45
0.0
 46
0.0
 47
0.0
 48
0.0
 49
0.0
140
0.0
141
0.0
142
1.0
143
1.0
 70
   688
 72
     0
 73
     0
 74
     5
  7

 75
    16
147
1.0
148
0.0
149
0.0
100
AcDbLayout
  1
Layout2
 70
     1
 71
     2
 10
0.0
 20
0.0
 11
0.0
 21
0.0
 12
0.0
 22
0.0
 32
0.0
 14
0.0
 24
0.0
 34
0.0
 15
0.0
 25
0.0
 35
0.0
146
0.0
 13
0.0
 23
0.0
 33
0.0
 16
1.0
 26
0.0
 36
0.0
 17
0.0
 27
1.0
 37
0.0
 76
     0
330
23
  0
LAYOUT
  5
22
102
{ACAD_REACTORS
330
1A
102
}
330
1A
100
AcDbPlotSettings
  1

  2
none_device
  4

  6

 40
0.0
 41
0.0
 42
0.0
 43
0.0
 44
0.0
 45
0.0
 46
0.0
 47
0.0
 48
0.0
 49
0.0
140
0.0
141
0.0
142
1.0
143
1.0
 70
  1712
 72
     0
 73
     0
 74
     0
  7

 75
     0
147
1.0
148
0.0
149
0.0
100
AcDbLayout
  1
Model
 70
     1
 71
     0
 10
0.0
 20
0.0
 11
12.0
 21
9.0
 12
0.0
 22
0.0
 32
0.0
 14
85.3007023046904
 24
257.9781345954878
 34
0.0
 15
233.239640576766
 25
366.747521512794
 35
0.0
146
0.0
 13
0.0
 23
0.0
 33
0.0
 16
1.0
 26
0.0
 36
0.0
 17
0.0
 27
1.0
 37
0.0
 76
     0
330
1F
331
29
  0
MLINESTYLE
  5
18
102
{ACAD_REACTORS
330
17
102
}
330
17
100
AcDbMlineStyle
  2
Standard
 70
     0
  3

 62
   256
 51
90.0
 52
90.0
 71
     2
 49
0.5
 62
   256
  6
BYLAYER
 49
-0.5
 62
   256
  6
BYLAYER
  0
ACDBPLACEHOLDER
  5
F
102
{ACAD_REACTORS
330
E
102
}
330
E
  0
SCALE
  5
4C
102
{ACAD_REACTORS
330
4B
102
}
330
4B
100
AcDbScale
 70
     0
300
1:1
140
1.0
141
1.0
290
     1
  0
SCALE
  5
4D
102
{ACAD_REACTORS
330
4B
102
}
330
4B
100
AcDbScale
 70
     0
300
1:2
140
1.0
141
2.0
290
     0
  0
SCALE
  5
4E
102
{ACAD_REACTORS
330
4B
102
}
330
4B
100
AcDbScale
 70
     0
300
1:4
140
1.0
141
4.0
290
     0
  0
SCALE
  5
4F
102
{ACAD_REACTORS
330
4B
102
}
330
4B
100
AcDbScale
 70
     0
300
1:5
140
1.0
141
5.0
290
     0
  0
SCALE
  5
50
102
{ACAD_REACTORS
330
4B
102
}
330
4B
100
AcDbScale
 70
     0
300
1:8
140
1.0
141
8.0
290
     0
  0
SCALE
  5
51
102
{ACAD_REACTORS
330
4B
102
}
330
4B
100
AcDbScale
 70
     0
300
1:10
140
1.0
141
10.0
290
     0
  0
SCALE
  5
52
102
{ACAD_REACTORS
330
4B
102
}
330
4B
100
AcDbScale
 70
     0
300
1:16
140
1.0
141
16.0
290
     0
  0
SCALE
  5
53
102
{ACAD_REACTORS
330
4B
102
}
330
4B
100
AcDbScale
 70
     0
300
1:20
140
1.0
141
20.0
290
     0
  0
SCALE
  5
54
102
{ACAD_REACTORS
330
4B
102
}
330
4B
100
AcDbScale
 70
     0
300
1:30
140
1.0
141
30.0
290
     0
  0
SCALE
  5
55
102
{ACAD_REACTORS
330
4B
102
}
330
4B
100
AcDbScale
 70
     0
300
1:40
140
1.0
141
40.0
290
     0
  0
SCALE
  5
56
102
{ACAD_REACTORS
330
4B
102
}
330
4B
100
AcDbScale
 70
     0
300
1:50
140
1.0
141
50.0
290
     0
  0
SCALE
  5
57
102
{ACAD_REACTORS
330
4B
102
}
330
4B
100
AcDbScale
 70
     0
300
1:100
140
1.0
141
100.0
290
     0
  0
SCALE
  5
58
102
{ACAD_REACTORS
330
4B
102
}
330
4B
100
AcDbScale
 70
     0
300
2:1
140
2.0
141
1.0
290
     0
  0
SCALE
  5
59
102
{ACAD_REACTORS
330
4B
102
}
330
4B
100
AcDbScale
 70
     0
300
4:1
140
4.0
141
1.0
290
     0
  0
SCALE
  5
5A
102
{ACAD_REACTORS
330
4B
102
}
330
4B
100
AcDbScale
 70
     0
300
8:1
140
8.0
141
1.0
290
     0
  0
SCALE
  5
5B
102
{ACAD_REACTORS
330
4B
102
}
330
4B
100
AcDbScale
 70
     0
300
10:1
140
10.0
141
1.0
290
     0
  0
SCALE
  5
5C
102
{ACAD_REACTORS
330
4B
102
}
330
4B
100
AcDbScale
 70
     0
300
100:1
140
100.0
141
1.0
290
     0
  0
SCALE
  5
5D
102
{ACAD_REACTORS
330
4B
102
}
330
4B
100
AcDbScale
 70
     0
300
1/128" = 1'-0"
140
0.0078125
141
12.0
290
     0
  0
SCALE
  5
5E
102
{ACAD_REACTORS
330
4B
102
}
330
4B
100
AcDbScale
 70
     0
300
1/64" = 1'-0"
140
0.015625
141
12.0
290
     0
  0
SCALE
  5
5F
102
{ACAD_REACTORS
330
4B
102
}
330
4B
100
AcDbScale
 70
     0
300
1/32" = 1'-0"
140
0.03125
141
12.0
290
     0
  0
SCALE
  5
60
102
{ACAD_REACTORS
330
4B
102
}
330
4B
100
AcDbScale
 70
     0
300
1/16" = 1'-0"
140
0.0625
141
12.0
290
     0
  0
SCALE
  5
61
102
{ACAD_REACTORS
330
4B
102
}
330
4B
100
AcDbScale
 70
     0
300
3/32" = 1'-0"
140
0.09375
141
12.0
290
     0
  0
SCALE
  5
62
102
{ACAD_REACTORS
330
4B
102
}
330
4B
100
AcDbScale
 70
     0
300
1/8" = 1'-0"
140
0.125
141
12.0
290
     0
  0
SCALE
  5
63
102
{ACAD_REACTORS
330
4B
102
}
330
4B
100
AcDbScale
 70
     0
300
3/16" = 1'-0"
140
0.1875
141
12.0
290
     0
  0
SCALE
  5
64
102
{ACAD_REACTORS
330
4B
102
}
330
4B
100
AcDbScale
 70
     0
300
1/4" = 1'-0"
140
0.25
141
12.0
290
     0
  0
SCALE
  5
65
102
{ACAD_REACTORS
330
4B
102
}
330
4B
100
AcDbScale
 70
     0
300
3/8" = 1'-0"
140
0.375
141
12.0
290
     0
  0
SCALE
  5
66
102
{ACAD_REACTORS
330
4B
102
}
330
4B
100
AcDbScale
 70
     0
300
1/2" = 1'-0"
140
0.5
141
12.0
290
     0
  0
SCALE
  5
67
102
{ACAD_REACTORS
330
4B
102
}
330
4B
100
AcDbScale
 70
     0
300
3/4" = 1'-0"
140
0.75
141
12.0
290
     0
  0
SCALE
  5
68
102
{ACAD_REACTORS
330
4B
102
}
330
4B
100
AcDbScale
 70
     0
300
1" = 1'-0"
140
1.0
141
12.0
290
     0
  0
SCALE
  5
69
102
{ACAD_REACTORS
330
4B
102
}
330
4B
100
AcDbScale
 70
     0
300
1-1/2" = 1'-0"
140
1.5
141
12.0
290
     0
  0
SCALE
  5
6A
102
{ACAD_REACTORS
330
4B
102
}
330
4B
100
AcDbScale
 70
     0
300
3" = 1'-0"
140
3.0
141
12.0
290
     0
  0
SCALE
  5
6B
102
{ACAD_REACTORS
330
4B
102
}
330
4B
100
AcDbScale
 70
     0
300
6" = 1'-0"
140
6.0
141
12.0
290
     0
  0
SCALE
  5
6C
102
{ACAD_REACTORS
330
4B
102
}
330
4B
100
AcDbScale
 70
     0
300
1'-0" = 1'-0"
140
12.0
141
12.0
290
     0
  0
VISUALSTYLE
  5
2F
102
{ACAD_REACTORS
330
2A
102
}
330
2A
100
AcDbVisualStyle
  2
2dWireframe
 70
     4
 71
     0
 72
     2
 73
     0
 90
        0
 40
-0.6
 41
-30.0
 62
     5
 63
     7
 74
     1
 91
        4
 64
     7
 65
   257
 75
     1
175
     1
 42
1.0
 92
        0
 66
   257
 43
1.0
 76
     1
 77
     6
 78
     2
 67
     7
 79
     5
170
     0
171
     0
290
     0
174
     0
 93
        1
 44
0.0
173
     0
291
     0
 45
0.0
1001
ACAD
1000
AcDbSavedByObjectVersion
1070
     0
  0
VISUALSTYLE
  5
31
102
{ACAD_REACTORS
330
2A
102
}
330
2A
100
AcDbVisualStyle
  2
3D Hidden
 70
     6
 71
     1
 72
     2
 73
     2
 90
        0
 40
-0.6
 41
-30.0
 62
     5
 63
     7
 74
     2
 91
        2
 64
     7
 65
   257
 75
     2
175
     1
 42
40.0
 92
        0
 66
   257
 43
1.0
 76
     1
 77
     6
 78
     2
 67
     7
 79
     3
170
     0
171
     0
290
     0
174
     0
 93
        1
 44
0.0
173
     0
291
     0
 45
0.0
1001
ACAD
1000
AcDbSavedByObjectVersion
1070
     0
  0
VISUALSTYLE
  5
30
102
{ACAD_REACTORS
330
2A
102
}
330
2A
100
AcDbVisualStyle
  2
3dWireframe
 70
     5
 71
     0
 72
     2
 73
     0
 90
        0
 40
-0.6
 41
-30.0
 62
     5
 63
     7
 74
     1
 91
        4
 64
     7
 65
   257
 75
     1
175
     1
 42
1.0
 92
        0
 66
   257
 43
1.0
 76
     1
 77
     6
 78
     2
 67
     7
 79
     5
170
     0
171
     0
290
     0
174
     0
 93
        1
 44
0.0
173
     0
291
     0
 45
0.0
1001
ACAD
1000
AcDbSavedByObjectVersion
1070
     0
  0
VISUALSTYLE
  5
32
102
{ACAD_REACTORS
330
2A
102
}
330
2A
100
AcDbVisualStyle
  2
Basic
 70
     7
 71
     1
 72
     0
 73
     1
 90
        0
 40
-0.6
 41
-30.0
 62
     5
 63
     7
 74
     0
 91
        4
 64
     7
 65
   257
 75
     1
175
     1
 42
1.0
 92
        8
 66
     7
 43
1.0
 76
     1
 77
     6
 78
     2
 67
     7
 79
     5
170
     0
171
     0
290
     0
174
     0
 93
        1
 44
0.0
173
     0
291
     1
 45
0.0
1001
ACAD
1000
AcDbSavedByObjectVersion
1070
     0
  0
VISUALSTYLE
  5
36
102
{ACAD_REACTORS
330
2A
102
}
330
2A
100
AcDbVisualStyle
  2
Brighten
 70
    12
 71
     2
 72
     2
 73
     0
 90
        0
 40
-0.6
 41
-30.0
 62
     5
 63
     7
 74
     1
 91
        4
 64
     7
 65
   257
 75
     1
175
     1
 42
1.0
 92
        8
 66
     7
 43
1.0
 76
     1
 77
     6
 78
     2
 67
     7
 79
     5
170
     0
171
     0
290
     0
174
     0
 93
        1
 44
50.0
173
     0
291
     1
 45
0.0
1001
ACAD
1000
AcDbSavedByObjectVersion
1070
     0
  0
VISUALSTYLE
  5
3A
102
{ACAD_REACTORS
330
2A
102
}
330
2A
100
AcDbVisualStyle
  2
ColorChange
 70
    16
 71
     2
 72
     2
 73
     3
 90
        0
 40
-0.6
 41
-30.0
 62
     5
 63
     8
 74
     1
 91
        4
 64
     7
 65
   257
 75
     1
175
     1
 42
1.0
 92
        8
 66
     8
 43
1.0
 76
     1
 77
     6
 78
     2
 67
     7
 79
     5
170
     0
171
     0
290
     0
174
     0
 93
        1
 44
0.0
173
     0
291
     1
 45
0.0
1001
ACAD
1000
AcDbSavedByObjectVersion
1070
     0
  0
VISUALSTYLE
  5
34
102
{ACAD_REACTORS
330
2A
102
}
330
2A
100
AcDbVisualStyle
  2
Conceptual
 70
     9
 71
     3
 72
     2
 73
     0
 90
        0
 40
-0.6
 41
-30.0
 62
     5
 63
     7
 74
     2
 91
        2
 64
     7
 65
   257
 75
     1
175
     1
 42
40.0
 92
        8
 66
     7
 43
1.0
 76
     1
 77
     6
 78
     2
 67
     7
 79
     3
170
     0
171
     0
290
     0
174
     0
 93
        1
 44
0.0
173
     0
291
     0
 45
0.0
1001
ACAD
1000
AcDbSavedByObjectVersion
1070
     0
  0
VISUALSTYLE
  5
35
102
{ACAD_REACTORS
330
2A
102
}
330
2A
100
AcDbVisualStyle
  2
Dim
 70
    11
 71
     2
 72
     2
 73
     0
 90
        0
 40
-0.6
 41
-30.0
 62
     5
 63
     7
 74
     1
 91
        4
 64
     7
 65
   257
 75
     1
175
     1
 42
1.0
 92
        8
 66
     7
 43
1.0
 76
     1
 77
     6
 78
     2
 67
     7
 79
     5
170
     0
171
     0
290
     0
174
     0
 93
        1
 44
-50.0
173
     0
291
     1
 45
0.0
1001
ACAD
1000
AcDbSavedByObjectVersion
1070
     0
  0
VISUALSTYLE
  5
39
102
{ACAD_REACTORS
330
2A
102
}
330
2A
100
AcDbVisualStyle
  2
Facepattern
 70
    15
 71
     2
 72
     2
 73
     0
 90
        0
 40
-0.6
 41
-30.0
 62
     5
 63
     7
 74
     1
 91
        4
 64
     7
 65
   257
 75
     1
175
     1
 42
1.0
 92
        8
 66
     7
 43
1.0
 76
     1
 77
     6
 78
     2
 67
     7
 79
     5
170
     0
171
     0
290
     0
174
     0
 93
        1
 44
0.0
173
     0
291
     1
 45
0.0
1001
ACAD
1000
AcDbSavedByObjectVersion
1070
     0
  0
VISUALSTYLE
  5
2B
102
{ACAD_REACTORS
330
2A
102
}
330
2A
100
AcDbVisualStyle
  2
Flat
 70
     0
 71
     2
 72
     1
 73
     1
 90
        2
 40
-0.6
 41
30.0
 62
     5
 63
     7
 74
     0
 91
        4
 64
     7
 65
   257
 75
     1
175
     1
 42
1.0
 92
        8
 66
     7
 43
1.0
 76
     1
 77
     6
 78
     2
 67
     7
 79
     5
170
     0
171
     0
290
     0
174
     0
 93
       13
 44
0.0
173
     0
291
     1
 45
0.0
1001
ACAD
1000
AcDbSavedByObjectVersion
1070
     0
  0
VISUALSTYLE
  5
2C
102
{ACAD_REACTORS
330
2A
102
}
330
2A
100
AcDbVisualStyle
  2
FlatWithEdges
 70
     1
 71
     2
 72
     1
 73
     1
 90
        2
 40
-0.6
 41
30.0
 62
     5
 63
     7
 74
     1
 91
        4
 64
     7
 65
   257
 75
     1
175
     1
 42
1.0
 92
        0
 66
   257
 43
1.0
 76
     1
 77
     6
 78
     2
 67
     7
 79
     5
170
     0
171
     0
290
     0
174
     0
 93
       13
 44
0.0
173
     0
291
     1
 45
0.0
1001
ACAD
1000
AcDbSavedByObjectVersion
1070
     0
  0
VISUALSTYLE
  5
2D
102
{ACAD_REACTORS
330
2A
102
}
330
2A
100
AcDbVisualStyle
  2
Gouraud
 70
     2
 71
     2
 72
     2
 73
     1
 90
        2
 40
-0.6
 41
30.0
 62
     5
 63
     7
 74
     0
 91
        4
 64
     7
 65
   257
 75
     1
175
     1
 42
1.0
 92
        0
 66
     7
 43
1.0
 76
     1
 77
     6
 78
     2
 67
     7
 79
     5
170
     0
171
     0
290
     0
174
     0
 93
       13
 44
0.0
173
     0
291
     1
 45
0.0
1001
ACAD
1000
AcDbSavedByObjectVersion
1070
     0
  0
VISUALSTYLE
  5
2E
102
{ACAD_REACTORS
330
2A
102
}
330
2A
100
AcDbVisualStyle
  2
GouraudWithEdges
 70
     3
 71
     2
 72
     2
 73
     1
 90
        2
 40
-0.6
 41
30.0
 62
     5
 63
     7
 74
     1
 91
        4
 64
     7
 65
   257
 75
     1
175
     1
 42
1.0
 92
        0
 66
   257
 43
1.0
 76
     1
 77
     6
 78
     2
 67
     7
 79
     5
170
     0
171
     0
290
     0
174
     0
 93
       13
 44
0.0
173
     0
291
     1
 45
0.0
1001
ACAD
1000
AcDbSavedByObjectVersion
1070
     0
  0
VISUALSTYLE
  5
38
102
{ACAD_REACTORS
330
2A
102
}
330
2A
100
AcDbVisualStyle
  2
Linepattern
 70
    14
 71
     2
 72
     2
 73
     0
 90
        0
 40
-0.6
 41
-30.0
 62
     5
 63
     7
 74
     1
 91
        4
 64
     7
 65
   257
 75
     7
175
     7
 42
1.0
 92
        8
 66
     7
 43
1.0
 76
     1
 77
     6
 78
     2
 67
     7
 79
     5
170
     0
171
     0
290
     0
174
     0
 93
        1
 44
0.0
173
     0
291
     1
 45
0.0
1001
ACAD
1000
AcDbSavedByObjectVersion
1070
     0
  0
VISUALSTYLE
  5
33
102
{ACAD_REACTORS
330
2A
102
}
330
2A
100
AcDbVisualStyle
  2
Realistic
 70
     8
 71
     2
 72
     2
 73
     0
 90
        0
 40
-0.6
 41
-30.0
 62
     5
 63
     7
 74
     1
 91
        0
 64
     7
 65
   257
 75
     1
175
     1
 42
1.0
 92
        8
 66
     8
 43
1.0
 76
     1
 77
     6
 78
     2
 67
     7
 79
     5
170
     0
171
     0
290
     0
174
     0
 93
       13
 44
0.0
173
     0
291
     0
 45
0.0
1001
ACAD
1000
AcDbSavedByObjectVersion
1070
     0
  0
VISUALSTYLE
  5
37
102
{ACAD_REACTORS
330
2A
102
}
330
2A
100
AcDbVisualStyle
  2
Thicken
 70
    13
 71
     2
 72
     2
 73
     0
 90
        0
 40
-0.6
 41
-30.0
 62
     5
 63
     7
 74
     1
 91
        4
 64
     7
 65
   257
 75
     1
175
     1
 42
1.0
 92
       12
 66
     7
 43
1.0
 76
     1
 77
     6
 78
     2
 67
     7
 79
     5
170
     0
171
     0
290
     0
174
     0
 93
        1
 44
0.0
173
     0
291
     1
 45
0.0
1001
ACAD
1000
AcDbSavedByObjectVersion
1070
     0
  0
DICTIONARYVAR
  5
172
102
{ACAD_REACTORS
330
16F
102
}
330
16F
100
DictionaryVariables
280
     0
  1
1:1
  0
ENDSEC
  0
EOF
