  0
SECTION
  2
HEADER
  9
$ACADVER
  1
AC1015
  9
$ACADMAINTVER
 70
     6
  9
$DWGCODEPAGE
  3
ANSI_1252
  9
$INSBASE
 10
0.0
 20
0.0
 30
0.0
  9
$EXTMIN
 10
2166.14106672084
 20
140.5994760109568
 30
0.0
  9
$EXTMAX
 10
2409.589521295
 20
249.854229195754
 30
0.0
  9
$LIMMIN
 10
0.0
 20
0.0
  9
$LIMMAX
 10
12.0
 20
9.0
  9
$ORTHOMODE
 70
     0
  9
$REGENMODE
 70
     1
  9
$FILLMODE
 70
     1
  9
$QTEXTMODE
 70
     0
  9
$MIRRTEXT
 70
     1
  9
$LTSCALE
 40
1.0
  9
$ATTMODE
 70
     1
  9
$TEXTSIZE
 40
0.2
  9
$TRACEWID
 40
0.05
  9
$TEXTSTYLE
  7
Standard
  9
$CLAYER
  8
0
  9
$CELTYPE
  6
ByLayer
  9
$CECOLOR
 62
   256
  9
$CELTSCALE
 40
1.0
  9
$DISPSILH
 70
     0
  9
$DIMSCALE
 40
1.0
  9
$DIMASZ
 40
0.18
  9
$DIMEXO
 40
0.0625
  9
$DIMDLI
 40
0.38
  9
$DIMRND
 40
0.0
  9
$DIMDLE
 40
0.0
  9
$DIMEXE
 40
0.18
  9
$DIMTP
 40
0.0
  9
$DIMTM
 40
0.0
  9
$DIMTXT
 40
0.18
  9
$DIMCEN
 40
0.09
  9
$DIMTSZ
 40
0.0
  9
$DIMTOL
 70
     0
  9
$DIMLIM
 70
     0
  9
$DIMTIH
 70
     1
  9
$DIMTOH
 70
     1
  9
$DIMSE1
 70
     0
  9
$DIMSE2
 70
     0
  9
$DIMTAD
 70
     0
  9
$DIMZIN
 70
     0
  9
$DIMBLK
  1

  9
$DIMASO
 70
     1
  9
$DIMSHO
 70
     1
  9
$DIMPOST
  1

  9
$DIMAPOST
  1

  9
$DIMALT
 70
     0
  9
$DIMALTD
 70
     2
  9
$DIMALTF
 40
25.4
  9
$DIMLFAC
 40
1.0
  9
$DIMTOFL
 70
     0
  9
$DIMTVP
 40
0.0
  9
$DIMTIX
 70
     0
  9
$DIMSOXD
 70
     0
  9
$DIMSAH
 70
     0
  9
$DIMBLK1
  1

  9
$DIMBLK2
  1

  9
$DIMSTYLE
  2
Standard
  9
$DIMCLRD
 70
     0
  9
$DIMCLRE
 70
     0
  9
$DIMCLRT
 70
     0
  9
$DIMTFAC
 40
1.0
  9
$DIMGAP
 40
0.09
  9
$DIMJUST
 70
     0
  9
$DIMSD1
 70
     0
  9
$DIMSD2
 70
     0
  9
$DIMTOLJ
 70
     1
  9
$DIMTZIN
 70
     0
  9
$DIMALTZ
 70
     0
  9
$DIMALTTZ
 70
     0
  9
$DIMUPT
 70
     0
  9
$DIMDEC
 70
     4
  9
$DIMTDEC
 70
     4
  9
$DIMALTU
 70
     2
  9
$DIMALTTD
 70
     2
  9
$DIMTXSTY
  7
Standard
  9
$DIMAUNIT
 70
     0
  9
$DIMADEC
 70
     0
  9
$DIMALTRND
 40
0.0
  9
$DIMAZIN
 70
     0
  9
$DIMDSEP
 70
    46
  9
$DIMATFIT
 70
     3
  9
$DIMFRAC
 70
     0
  9
$DIMLDRBLK
  1

  9
$DIMLUNIT
 70
     2
  9
$DIMLWD
 70
    -2
  9
$DIMLWE
 70
    -2
  9
$DIMTMOVE
 70
     0
  9
$LUNITS
 70
     2
  9
$LUPREC
 70
     4
  9
$SKETCHINC
 40
0.1
  9
$FILLETRAD
 40
0.5
  9
$AUNITS
 70
     0
  9
$AUPREC
 70
     0
  9
$MENU
  1
.
  9
$ELEVATION
 40
0.0
  9
$PELEVATION
 40
0.0
  9
$THICKNESS
 40
0.0
  9
$LIMCHECK
 70
     0
  9
$CHAMFERA
 40
0.5
  9
$CHAMFERB
 40
0.5
  9
$CHAMFERC
 40
1.0
  9
$CHAMFERD
 40
0.0
  9
$SKPOLY
 70
     0
  9
$TDCREATE
 40
2456337.56023662
  9
$TDUCREATE
 40
2456337.518569954
  9
$TDUPDATE
 40
2456337.560236632
  9
$TDUUPDATE
 40
2456337.518569965
  9
$TDINDWG
 40
0.0000000116
  9
$TDUSRTIMER
 40
0.0000000116
  9
$USRTIMER
 70
     1
  9
$ANGBASE
 50
0.0
  9
$ANGDIR
 70
     0
  9
$PDMODE
 70
     0
  9
$PDSIZE
 40
0.0
  9
$PLINEWID
 40
0.0
  9
$SPLFRAME
 70
     0
  9
$SPLINETYPE
 70
     6
  9
$SPLINESEGS
 70
     8
  9
$HANDSEED
  5
150
  9
$SURFTAB1
 70
     6
  9
$SURFTAB2
 70
     6
  9
$SURFTYPE
 70
     6
  9
$SURFU
 70
     6
  9
$SURFV
 70
     6
  9
$UCSBASE
  2

  9
$UCSNAME
  2

  9
$UCSORG
 10
0.0
 20
0.0
 30
0.0
  9
$UCSXDIR
 10
1.0
 20
0.0
 30
0.0
  9
$UCSYDIR
 10
0.0
 20
1.0
 30
0.0
  9
$UCSORTHOREF
  2

  9
$UCSORTHOVIEW
 70
     0
  9
$UCSORGTOP
 10
0.0
 20
0.0
 30
0.0
  9
$UCSORGBOTTOM
 10
0.0
 20
0.0
 30
0.0
  9
$UCSORGLEFT
 10
0.0
 20
0.0
 30
0.0
  9
$UCSORGRIGHT
 10
0.0
 20
0.0
 30
0.0
  9
$UCSORGFRONT
 10
0.0
 20
0.0
 30
0.0
  9
$UCSORGBACK
 10
0.0
 20
0.0
 30
0.0
  9
$PUCSBASE
  2

  9
$PUCSNAME
  2

  9
$PUCSORG
 10
0.0
 20
0.0
 30
0.0
  9
$PUCSXDIR
 10
1.0
 20
0.0
 30
0.0
  9
$PUCSYDIR
 10
0.0
 20
1.0
 30
0.0
  9
$PUCSORTHOREF
  2

  9
$PUCSORTHOVIEW
 70
     0
  9
$PUCSORGTOP
 10
0.0
 20
0.0
 30
0.0
  9
$PUCSORGBOTTOM
 10
0.0
 20
0.0
 30
0.0
  9
$PUCSORGLEFT
 10
0.0
 20
0.0
 30
0.0
  9
$PUCSORGRIGHT
 10
0.0
 20
0.0
 30
0.0
  9
$PUCSORGFRONT
 10
0.0
 20
0.0
 30
0.0
  9
$PUCSORGBACK
 10
0.0
 20
0.0
 30
0.0
  9
$USERI1
 70
     0
  9
$USERI2
 70
     0
  9
$USERI3
 70
     0
  9
$USERI4
 70
     0
  9
$USERI5
 70
     0
  9
$USERR1
 40
16.5
  9
$USERR2
 40
0.0
  9
$USERR3
 40
0.0
  9
$USERR4
 40
0.0
  9
$USERR5
 40
0.0
  9
$WORLDVIEW
 70
     1
  9
$SHADEDGE
 70
     3
  9
$SHADEDIF
 70
    70
  9
$TILEMODE
 70
     1
  9
$MAXACTVP
 70
    64
  9
$PINSBASE
 10
0.0
 20
0.0
 30
0.0
  9
$PLIMCHECK
 70
     0
  9
$PEXTMIN
 10
1.00000000000000E+20
 20
1.00000000000000E+20
 30
1.00000000000000E+20
  9
$PEXTMAX
 10
-1.00000000000000E+20
 20
-1.00000000000000E+20
 30
-1.00000000000000E+20
  9
$PLIMMIN
 10
0.0
 20
0.0
  9
$PLIMMAX
 10
12.0
 20
9.0
  9
$UNITMODE
 70
     0
  9
$VISRETAIN
 70
     1
  9
$PLINEGEN
 70
     0
  9
$PSLTSCALE
 70
     1
  9
$TREEDEPTH
 70
  3020
  9
$CMLSTYLE
  2
Standard
  9
$CMLJUST
 70
     0
  9
$CMLSCALE
 40
1.0
  9
$PROXYGRAPHICS
 70
     1
  9
$MEASUREMENT
 70
     1
  9
$CELWEIGHT
370
    -1
  9
$ENDCAPS
280
     0
  9
$JOINSTYLE
280
     0
  9
$LWDISPLAY
290
     0
  9
$INSUNITS
 70
     1
  9
$HYPERLINKBASE
  1

  9
$STYLESHEET
  1

  9
$XEDIT
290
     1
  9
$CEPSNTYPE
380
     0
  9
$PSTYLEMODE
290
     1
  9
$FINGERPRINTGUID
  2
{1EA476A0-4F79-4179-8B54-AC1FCA4EDB6E}
  9
$VERSIONGUID
  2
{FAEB1C32-E019-11D5-929B-00C0DF256EC4}
  9
$EXTNAMES
290
     1
  9
$PSVPSCALE
 40
0.0
  9
$OLESTARTUP
290
     0
  0
ENDSEC
  0
SECTION
  2
CLASSES
  0
CLASS
  1
ACDBDICTIONARYWDFLT
  2
AcDbDictionaryWithDefault
  3
ObjectDBX Classes
 90
        0
280
     0
281
     0
  0
CLASS
  1
VISUALSTYLE
  2
AcDbVisualStyle
  3
ObjectDBX Classes
 90
     4095
280
     0
281
     0
  0
CLASS
  1
SCALE
  2
AcDbScale
  3
ObjectDBX Classes
 90
     1153
280
     0
281
     0
  0
CLASS
  1

  2
exOdDbPolyline
  3

 90
        0
280
     0
281
     1
  0
CLASS
  1
DICTIONARYVAR
  2
AcDbDictionaryVar
  3
ObjectDBX Classes
 90
        0
280
     0
281
     0
  0
CLASS
  1
ACDBPLACEHOLDER
  2
AcDbPlaceHolder
  3
ObjectDBX Classes
 90
        0
280
     0
281
     0
  0
CLASS
  1
LAYOUT
  2
AcDbLayout
  3
ObjectDBX Classes
 90
        0
280
     0
281
     0
  0
ENDSEC
  0
SECTION
  2
TABLES
  0
TABLE
  2
VPORT
  5
8
330
0
100
AcDbSymbolTable
 70
     1
  0
VPORT
  5
29
330
8
100
AcDbSymbolTableRecord
100
AcDbViewportTableRecord
  2
*Active
 70
     0
 10
0.0
 20
0.0
 11
1.0
 21
1.0
 12
2287.86529400792
 22
195.2268526033554
 13
0.0
 23
0.0
 14
0.5
 24
0.5
 15
0.5
 25
0.5
 16
0.0
 26
0.0
 36
1.0
 17
0.0
 27
0.0
 37
0.0
 40
167.0910841422646
 41
1.60267857142857
 42
50.0
 43
0.0
 44
0.0
 50
0.0
 51
0.0
 71
     0
 72
   100
 73
     1
 74
     3
 75
     0
 76
     0
 77
     0
 78
     0
281
     0
 65
     1
110
0.0
120
0.0
130
0.0
111
1.0
121
0.0
131
0.0
112
0.0
122
1.0
132
0.0
 79
     0
146
0.0
  0
ENDTAB
  0
TABLE
  2
LTYPE
  5
5
330
0
100
AcDbSymbolTable
 70
     8
  0
LTYPE
  5
14
330
5
100
AcDbSymbolTableRecord
100
AcDbLinetypeTableRecord
  2
ByBlock
 70
     0
  3

 72
    65
 73
     0
 40
0.0
  0
LTYPE
  5
15
330
5
100
AcDbSymbolTableRecord
100
AcDbLinetypeTableRecord
  2
ByLayer
 70
     0
  3

 72
    65
 73
     0
 40
0.0
  0
LTYPE
  5
16
330
5
100
AcDbSymbolTableRecord
100
AcDbLinetypeTableRecord
  2
Continuous
 70
     0
  3
Solid line
 72
    65
 73
     0
 40
0.0
  0
LTYPE
  5
3B
330
5
100
AcDbSymbolTableRecord
100
AcDbLinetypeTableRecord
  2
DASHED
 70
     0
  3
Dashed
 72
    65
 73
     2
 40
15.0
 49
7.0
 74
     0
 49
-8.0
 74
     0
  0
LTYPE
  5
3C
330
5
100
AcDbSymbolTableRecord
100
AcDbLinetypeTableRecord
  2
DOTTED
 70
     0
  3
Dotted
 72
    65
 73
     2
 40
1.0
 49
0.0
 74
     0
 49
-1.0
 74
     0
  0
LTYPE
  5
3D
330
5
100
AcDbSymbolTableRecord
100
AcDbLinetypeTableRecord
  2
DOT_CENTER
 70
     0
  3
Dot_Center
 72
    65
 73
     4
 40
14.0
 49
12.0
 74
     0
 49
-1.0
 74
     0
 49
0.0
 74
     0
 49
-1.0
 74
     0
  0
LTYPE
  5
3E
330
5
100
AcDbSymbolTableRecord
100
AcDbLinetypeTableRecord
  2
LONG_DASHED
 70
     0
  3
Long_Dashed
 72
    65
 73
     2
 40
15.0
 49
10.0
 74
     0
 49
-5.0
 74
     0
  0
LTYPE
  5
3F
330
5
100
AcDbSymbolTableRecord
100
AcDbLinetypeTableRecord
  2
DASH_CENTER
 70
     0
  3
Dash_Center
 72
    65
 73
     4
 40
14.0
 49
11.0
 74
     0
 49
-1.0
 74
     0
 49
1.0
 74
     0
 49
-1.0
 74
     0
  0
LTYPE
  5
40
330
5
100
AcDbSymbolTableRecord
100
AcDbLinetypeTableRecord
  2
PHANTOM
 70
     0
  3
Phantom
 72
    65
 73
     6
 40
13.0
 49
10.0
 74
     0
 49
-1.0
 74
     0
 49
0.0
 74
     0
 49
-1.0
 74
     0
 49
0.0
 74
     0
 49
-1.0
 74
     0
  0
LTYPE
  5
41
330
5
100
AcDbSymbolTableRecord
100
AcDbLinetypeTableRecord
  2
CENTER_DASH_DASH
 70
     0
  3
Center_Dash_Dash
 72
    65
 73
     6
 40
14.0
 49
9.0
 74
     0
 49
-1.0
 74
     0
 49
1.0
 74
     0
 49
-1.0
 74
     0
 49
1.0
 74
     0
 49
-1.0
 74
     0
  0
ENDTAB
  0
TABLE
  2
LAYER
  5
2
330
0
100
AcDbSymbolTable
 70
     2
  0
LAYER
  5
10
330
2
100
AcDbSymbolTableRecord
100
AcDbLayerTableRecord
  2
0
 70
     0
 62
     7
  6
Continuous
370
    -3
390
F
  0
LAYER
  5
42
330
2
100
AcDbSymbolTableRecord
100
AcDbLayerTableRecord
  2
1
 70
     0
 62
     7
  6
Continuous
370
    -3
390
F
  0
ENDTAB
  0
TABLE
  2
STYLE
  5
3
330
0
100
AcDbSymbolTable
 70
     2
  0
STYLE
  5
11
330
3
100
AcDbSymbolTableRecord
100
AcDbTextStyleTableRecord
  2
Standard
 70
     0
 40
0.0
 41
1.0
 50
0.0
 71
     0
 42
0.2
  3
txt
  4

  0
STYLE
  5
6D
330
3
100
AcDbSymbolTableRecord
100
AcDbTextStyleTableRecord
  2
CONVERTER_11
 70
     0
 40
0.0
 41
0.72
 50
0.0
 71
     0
 42
0.2
  3
txt.shx
  4

  0
ENDTAB
  0
TABLE
  2
VIEW
  5
6
330
0
100
AcDbSymbolTable
 70
     0
  0
ENDTAB
  0
TABLE
  2
UCS
  5
7
330
0
100
AcDbSymbolTable
 70
     0
  0
ENDTAB
  0
TABLE
  2
APPID
  5
9
330
0
100
AcDbSymbolTable
 70
     1
  0
APPID
  5
12
330
9
100
AcDbSymbolTableRecord
100
AcDbRegAppTableRecord
  2
ACAD
 70
     0
  0
ENDTAB
  0
TABLE
  2
DIMSTYLE
  5
A
330
0
100
AcDbSymbolTable
 70
     8
100
AcDbDimStyleTable
  0
DIMSTYLE
105
27
330
A
100
AcDbSymbolTableRecord
100
AcDbDimStyleTableRecord
  2
Standard
 70
     0
340
11
  0
DIMSTYLE
105
108
102
{ACAD_REACTORS
330
109
102
}
330
A
100
AcDbSymbolTableRecord
100
AcDbDimStyleTableRecord
  2
ME10_DIM_10
 70
     0
  3
<>
 41
3.5
 42
2.0
 44
2.0
 71
     1
 73
     0
 74
     0
 77
     1
 78
     8
140
3.5
146
0.7
147
2.0
172
     1
173
     1
176
     2
177
     2
178
     3
271
     2
272
     0
340
6D
  0
DIMSTYLE
105
113
102
{ACAD_REACTORS
330
114
102
}
330
A
100
AcDbSymbolTableRecord
100
AcDbDimStyleTableRecord
  2
ME10_DIM_11
 70
     0
  3
ER<>
 41
3.5
 42
2.0
 44
2.0
 71
     1
 73
     0
 74
     0
 77
     1
 78
     8
140
3.5
146
0.7
147
2.0
172
     1
173
     1
176
     2
177
     2
178
     3
271
     2
272
     0
340
6D
  0
DIMSTYLE
105
11E
102
{ACAD_REACTORS
330
11F
102
}
330
A
100
AcDbSymbolTableRecord
100
AcDbDimStyleTableRecord
  2
ME10_DIM_12
 70
     0
  3
<>
 41
3.5
 42
2.0
 44
2.0
 71
     1
 73
     0
 74
     0
 77
     1
 78
     8
140
3.5
146
0.7
147
2.0
172
     1
173
     1
176
     2
177
     2
178
     3
271
     2
272
     0
340
6D
  0
DIMSTYLE
105
129
102
{ACAD_REACTORS
330
12A
102
}
330
A
100
AcDbSymbolTableRecord
100
AcDbDimStyleTableRecord
  2
ME10_DIM_13
 70
     0
  3
<>
 41
3.5
 42
2.0
 44
2.0
 71
     1
 73
     0
 74
     0
 77
     1
 78
     8
140
3.5
146
0.7
147
2.0
172
     1
173
     1
176
     2
177
     2
178
     3
271
     2
272
     0
340
6D
  0
DIMSTYLE
105
134
102
{ACAD_REACTORS
330
135
102
}
330
A
100
AcDbSymbolTableRecord
100
AcDbDimStyleTableRecord
  2
ME10_DIM_14
 70
     0
  3
<>
 41
3.5
 42
2.0
 44
2.0
 71
     1
 73
     0
 74
     0
 77
     1
 78
     8
140
3.5
146
0.7
147
2.0
172
     1
173
     1
176
     2
177
     2
178
     3
271
     2
272
     0
340
6D
  0
DIMSTYLE
105
13F
102
{ACAD_REACTORS
330
140
102
}
330
A
100
AcDbSymbolTableRecord
100
AcDbDimStyleTableRecord
  2
ME10_DIM_15
 70
     0
  3
\U+2300<>
 41
3.5
 42
2.0
 44
2.0
 71
     1
 73
     0
 74
     0
 77
     1
 78
     8
140
3.5
146
0.7
147
2.0
172
     1
173
     1
176
     2
177
     2
178
     3
271
     2
272
     0
340
6D
  0
DIMSTYLE
105
14A
102
{ACAD_REACTORS
330
14B
102
}
330
A
100
AcDbSymbolTableRecord
100
AcDbDimStyleTableRecord
  2
ME10_DIM_16
 70
     0
  3
\U+2300<>
 41
3.5
 42
2.0
 44
2.0
 71
     1
 73
     0
 74
     0
 77
     1
 78
     8
140
3.5
146
0.7
147
2.0
172
     1
173
     1
176
     2
177
     2
178
     3
271
     2
272
     0
340
6D
  0
ENDTAB
  0
TABLE
  2
BLOCK_RECORD
  5
1
330
0
100
AcDbSymbolTable
 70
    10
  0
BLOCK_RECORD
  5
1F
330
1
100
AcDbSymbolTableRecord
100
AcDbBlockTableRecord
  2
*Model_Space
340
22
  0
BLOCK_RECORD
  5
1B
330
1
100
AcDbSymbolTableRecord
100
AcDbBlockTableRecord
  2
*Paper_Space
340
1E
  0
BLOCK_RECORD
  5
23
330
1
100
AcDbSymbolTableRecord
100
AcDbBlockTableRecord
  2
*Paper_Space0
340
26
  0
BLOCK_RECORD
  5
43
330
1
100
AcDbSymbolTableRecord
100
AcDbBlockTableRecord
  2
Urheberrecht_DE-EN
340
0
102
{BLKREFS
331
6B
102
}
  0
BLOCK_RECORD
  5
46
330
1
100
AcDbSymbolTableRecord
100
AcDbBlockTableRecord
  2
_1
340
0
102
{BLKREFS
331
6C
102
}
  0
BLOCK_RECORD
  5
FF
330
1
100
AcDbSymbolTableRecord
100
AcDbBlockTableRecord
  2
*D3
340
0
  0
BLOCK_RECORD
  5
10A
330
1
100
AcDbSymbolTableRecord
100
AcDbBlockTableRecord
  2
*D4
340
0
  0
BLOCK_RECORD
  5
115
330
1
100
AcDbSymbolTableRecord
100
AcDbBlockTableRecord
  2
*D5
340
0
  0
BLOCK_RECORD
  5
120
330
1
100
AcDbSymbolTableRecord
100
AcDbBlockTableRecord
  2
*D6
340
0
  0
BLOCK_RECORD
  5
12B
330
1
100
AcDbSymbolTableRecord
100
AcDbBlockTableRecord
  2
*D7
340
0
  0
BLOCK_RECORD
  5
136
330
1
100
AcDbSymbolTableRecord
100
AcDbBlockTableRecord
  2
*D8
340
0
  0
BLOCK_RECORD
  5
141
330
1
100
AcDbSymbolTableRecord
100
AcDbBlockTableRecord
  2
*D9
340
0
  0
ENDTAB
  0
ENDSEC
  0
SECTION
  2
BLOCKS
  0
BLOCK
  5
20
330
1F
100
AcDbEntity
  8
0
100
AcDbBlockBegin
  2
*Model_Space
 70
     0
 10
0.0
 20
0.0
 30
0.0
  3
*Model_Space
  1

  0
ENDBLK
  5
21
330
1F
100
AcDbEntity
  8
0
100
AcDbBlockEnd
  0
BLOCK
  5
1C
330
1B
100
AcDbEntity
 67
     1
  8
0
100
AcDbBlockBegin
  2
*Paper_Space
 70
     0
 10
0.0
 20
0.0
 30
0.0
  3
*Paper_Space
  1

  0
ENDBLK
  5
1D
330
1B
100
AcDbEntity
 67
     1
  8
0
100
AcDbBlockEnd
  0
BLOCK
  5
24
330
23
100
AcDbEntity
  8
0
100
AcDbBlockBegin
  2
*Paper_Space0
 70
     0
 10
0.0
 20
0.0
 30
0.0
  3
*Paper_Space0
  1

  0
ENDBLK
  5
25
330
23
100
AcDbEntity
  8
0
100
AcDbBlockEnd
  0
BLOCK
  5
44
330
43
100
AcDbEntity
  8
0
100
AcDbBlockBegin
  2
Urheberrecht_DE-EN
 70
     0
 10
2180.14106672084
 20
196.888862928263
 30
0.0
  3
Urheberrecht_DE-EN
  1

  0
MTEXT
  5
6E
330
43
100
AcDbEntity
  8
1
 62
     1
100
AcDbMText
 10
2180.14106672084
 20
196.888862928263
 30
0.0
 40
2.0
 41
0.0
 71
     7
 72
     1
  1
We own the copyright of this document. It \Pdetermined and may neither be copied or \Pmade accessible to outsiders without our\Ppermission.
  7
CONVERTER_11
 11
0.0
 21
1.0
 31
0.0
 73
     1
 44
0.90036014405762
  0
MTEXT
  5
6F
330
43
100
AcDbEntity
  8
1
 62
     1
100
AcDbMText
 10
2180.14106672084
 20
140.5994760109568
 30
0.0
 40
2.0
 41
0.0
 71
     7
 72
     1
  1
F\U+00fcr diese Unterlage behalten wir das Ur-\Pheberrecht. Sie darf nur f\U+00fcr den von uns \Pbestimmten Zweck benutzt und ohne unsere \PZustimmung weder vervielf\U+00e4ltigt noch\PDritten zug\U+00e4nglich gemacht werden.
  7
CONVERTER_11
 11
0.0
 21
1.0
 31
0.0
 73
     1
 44
0.90036014405762
  0
ENDBLK
  5
45
330
43
100
AcDbEntity
  8
0
100
AcDbBlockEnd
  0
BLOCK
  5
47
330
46
100
AcDbEntity
  8
0
100
AcDbBlockBegin
  2
_1
 70
     0
 10
2361.732571799497
 20
157.7988933128197
 30
0.0
  3
_1
  1

  0
LWPOLYLINE
  5
70
330
46
100
AcDbEntity
  8
1
  6
DOT_CENTER
 62
     7
100
AcDbPolyline
 90
        2
 70
     0
 43
0.25
 10
2361.857571799497
 20
199.9238933128196
 10
2378.104527867187
 20
199.9238933128196
  0
LWPOLYLINE
  5
71
330
46
100
AcDbEntity
  8
1
  6
DOT_CENTER
 62
     7
100
AcDbPolyline
 90
        2
 70
     0
 43
0.25
 10
2378.104527867187
 20
199.9238933128196
 10
2381.857571799497
 20
193.4229186644206
  0
LWPOLYLINE
  5
72
330
46
100
AcDbEntity
  8
1
  6
DOT_CENTER
 62
     7
100
AcDbPolyline
 90
        2
 70
     0
 43
0.25
 10
2381.857571799497
 20
193.4229186644206
 10
2381.857571799497
 20
164.4243629034937
  0
LWPOLYLINE
  5
73
330
46
100
AcDbEntity
  8
1
  6
DOT_CENTER
 62
     7
100
AcDbPolyline
 90
        2
 70
     0
 43
0.25
 10
2361.857571799497
 20
199.9238933128196
 10
2361.857571799497
 20
157.9238933128197
  0
LWPOLYLINE
  5
74
330
46
100
AcDbEntity
  8
1
  6
DOT_CENTER
 62
     7
100
AcDbPolyline
 90
        2
 70
     0
 43
0.25
 10
2361.857571799497
 20
157.9238933128197
 10
2378.104399946047
 20
157.9238933128197
  0
LWPOLYLINE
  5
75
330
46
100
AcDbEntity
  8
1
  6
DOT_CENTER
 62
     7
100
AcDbPolyline
 90
        2
 70
     0
 43
0.25
 10
2378.104399946047
 20
157.9238933128197
 10
2381.857571799497
 20
164.4243629034937
  0
ENDBLK
  5
48
330
46
100
AcDbEntity
  8
0
100
AcDbBlockEnd
  0
BLOCK
  5
106
330
FF
100
AcDbEntity
  8
0
100
AcDbBlockBegin
  2
*D3
 70
     1
 10
0.0
 20
0.0
 30
0.0
  3
*D3
  1

  0
LINE
  5
100
330
FF
100
AcDbEntity
  8
1
  6
Continuous
 62
     2
100
AcDbLine
 10
2381.857571799497
 20
236.134217827763
 30
0.0
 11
2221.857571799497
 21
236.134217827763
 31
0.0
  0
LINE
  5
101
330
FF
100
AcDbEntity
  8
1
  6
Continuous
 62
     2
100
AcDbLine
 10
2221.857571799497
 20
211.9238933128196
 30
0.0
 11
2221.857571799497
 21
238.134217827763
 31
0.0
  0
LINE
  5
102
330
FF
100
AcDbEntity
  8
1
  6
Continuous
 62
     2
100
AcDbLine
 10
2381.857571799497
 20
195.4229186644206
 30
0.0
 11
2381.857571799497
 21
238.134217827763
 31
0.0
  0
SOLID
  5
103
330
FF
100
AcDbEntity
  8
1
 62
     2
100
AcDbTrace
 10
2378.357571799497
 20
235.6734340862071
 30
0.0
 11
2378.357571799497
 21
236.5950015693189
 31
0.0
 12
2381.857571799497
 22
236.134217827763
 32
0.0
 13
2381.857571799497
 23
236.134217827763
 33
0.0
  0
SOLID
  5
104
330
FF
100
AcDbEntity
  8
1
 62
     2
100
AcDbTrace
 10
2225.357571799497
 20
236.5950015693189
 30
0.0
 11
2225.357571799497
 21
235.6734340862071
 31
0.0
 12
2221.857571799497
 22
236.134217827763
 32
0.0
 13
2221.857571799497
 23
236.134217827763
 33
0.0
  0
MTEXT
  5
105
330
FF
100
AcDbEntity
  8
1
 62
     3
100
AcDbMText
 10
2305.37232737251
 20
238.134217827763
 30
0.0
 40
3.5
 41
0.0
 71
     7
 72
     1
  1
\C3;\C3;\C3;160\C2;\H2.45;\S^ ;\C3;
  7
CONVERTER_11
 11
0.9999999999970619
 21
2.424068405545306E-6
 31
0.0
 73
     1
 44
0.60024009603842
  0
ENDBLK
  5
107
330
FF
100
AcDbEntity
  8
0
100
AcDbBlockEnd
  0
BLOCK
  5
111
330
10A
100
AcDbEntity
  8
0
100
AcDbBlockBegin
  2
*D4
 70
     1
 10
0.0
 20
0.0
 30
0.0
  3
*D4
  1

  0
LINE
  5
10B
330
10A
100
AcDbEntity
  8
1
  6
Continuous
 62
     2
100
AcDbLine
 10
2391.90380129586
 20
191.4238933128196
 30
0.0
 11
2391.90380129586
 21
166.4238933128197
 31
0.0
  0
LINE
  5
10C
330
10A
100
AcDbEntity
  8
1
  6
Continuous
 62
     2
100
AcDbLine
 10
2376.536474447026
 20
166.4238933128197
 30
0.0
 11
2393.90380129586
 21
166.4238933128197
 31
0.0
  0
LINE
  5
10D
330
10A
100
AcDbEntity
  8
1
  6
Continuous
 62
     2
100
AcDbLine
 10
2376.536474447026
 20
191.4238933128196
 30
0.0
 11
2393.90380129586
 21
191.4238933128196
 31
0.0
  0
SOLID
  5
10E
330
10A
100
AcDbEntity
  8
1
 62
     2
100
AcDbTrace
 10
2392.364585037416
 20
187.9238933128196
 30
0.0
 11
2391.443017554304
 21
187.9238933128196
 31
0.0
 12
2391.90380129586
 22
191.4238933128196
 32
0.0
 13
2391.90380129586
 23
191.4238933128196
 33
0.0
  0
SOLID
  5
10F
330
10A
100
AcDbEntity
  8
1
 62
     2
100
AcDbTrace
 10
2391.443017554304
 20
169.9238933128197
 30
0.0
 11
2392.364585037416
 21
169.9238933128197
 31
0.0
 12
2391.90380129586
 22
166.4238933128197
 32
0.0
 13
2391.90380129586
 23
166.4238933128197
 33
0.0
  0
MTEXT
  5
110
330
10A
100
AcDbEntity
  8
1
 62
     3
100
AcDbMText
 10
2389.90380129586
 20
173.9376836135984
 30
0.0
 40
3.5
 41
0.0
 71
     7
 72
     1
  1
\C3;ER\C3;\C3;25\C2;\H2.45;\S^ ;\C3;
  7
CONVERTER_11
 11
0.0
 21
1.0
 31
0.0
 73
     1
 44
0.60024009603842
  0
ENDBLK
  5
112
330
10A
100
AcDbEntity
  8
0
100
AcDbBlockEnd
  0
BLOCK
  5
11C
330
115
100
AcDbEntity
  8
0
100
AcDbBlockBegin
  2
*D5
 70
     1
 10
0.0
 20
0.0
 30
0.0
  3
*D5
  1

  0
LINE
  5
116
330
115
100
AcDbEntity
  8
1
  6
Continuous
 62
     2
100
AcDbLine
 10
2374.236474447026
 20
244.354229195754
 30
0.0
 11
2189.857571799497
 21
244.354229195754
 31
0.0
  0
LINE
  5
117
330
115
100
AcDbEntity
  8
1
  6
Continuous
 62
     2
100
AcDbLine
 10
2189.857571799497
 20
198.5008933128196
 30
0.0
 11
2189.857571799497
 21
246.354229195754
 31
0.0
  0
LINE
  5
118
330
115
100
AcDbEntity
  8
1
  6
Continuous
 62
     2
100
AcDbLine
 10
2374.236474447026
 20
196.4238933128196
 30
0.0
 11
2374.236474447026
 21
246.354229195754
 31
0.0
  0
SOLID
  5
119
330
115
100
AcDbEntity
  8
1
 62
     2
100
AcDbTrace
 10
2370.736474447026
 20
243.8934454541981
 30
0.0
 11
2370.736474447026
 21
244.8150129373099
 31
0.0
 12
2374.236474447026
 22
244.354229195754
 32
0.0
 13
2374.236474447026
 23
244.354229195754
 33
0.0
  0
SOLID
  5
11A
330
115
100
AcDbEntity
  8
1
 62
     2
100
AcDbTrace
 10
2193.357571799497
 20
244.8150129373099
 30
0.0
 11
2193.357571799497
 21
243.8934454541981
 31
0.0
 12
2189.857571799497
 22
244.354229195754
 32
0.0
 13
2189.857571799497
 23
244.354229195754
 33
0.0
  0
MTEXT
  5
11B
330
115
100
AcDbEntity
  8
1
 62
     3
100
AcDbMText
 10
2282.79737373394
 20
246.354229195754
 30
0.0
 40
3.5
 41
0.0
 71
     7
 72
     1
  1
\C3;\C3;\C3;184.38\C2;\H2.45;\S^ ;\C3;
  7
CONVERTER_11
 11
0.9999999999970619
 21
2.424068405545306E-6
 31
0.0
 73
     1
 44
0.60024009603842
  0
ENDBLK
  5
11D
330
115
100
AcDbEntity
  8
0
100
AcDbBlockEnd
  0
BLOCK
  5
127
330
120
100
AcDbEntity
  8
0
100
AcDbBlockBegin
  2
*D6
 70
     1
 10
0.0
 20
0.0
 30
0.0
  3
*D6
  1

  0
LINE
  5
121
330
120
100
AcDbEntity
  8
1
  6
Continuous
 62
     2
100
AcDbLine
 10
2374.236474447026
 20
227.366205701906
 30
0.0
 11
2221.857571799497
 21
227.366205701906
 31
0.0
  0
LINE
  5
122
330
120
100
AcDbEntity
  8
1
  6
Continuous
 62
     2
100
AcDbLine
 10
2221.857571799497
 20
206.4388933128196
 30
0.0
 11
2221.857571799497
 21
229.366205701906
 31
0.0
  0
LINE
  5
123
330
120
100
AcDbEntity
  8
1
  6
Continuous
 62
     2
100
AcDbLine
 10
2374.236474447026
 20
196.4238933128196
 30
0.0
 11
2374.236474447026
 21
229.366205701906
 31
0.0
  0
SOLID
  5
124
330
120
100
AcDbEntity
  8
1
 62
     2
100
AcDbTrace
 10
2370.736474447026
 20
226.9054219603501
 30
0.0
 11
2370.736474447026
 21
227.8269894434619
 31
0.0
 12
2374.236474447026
 22
227.366205701906
 32
0.0
 13
2374.236474447026
 23
227.366205701906
 33
0.0
  0
SOLID
  5
125
330
120
100
AcDbEntity
  8
1
 62
     2
100
AcDbTrace
 10
2225.357571799497
 20
227.8269894434619
 30
0.0
 11
2225.357571799497
 21
226.9054219603501
 31
0.0
 12
2221.857571799497
 22
227.366205701906
 32
0.0
 13
2221.857571799497
 23
227.366205701906
 33
0.0
  0
MTEXT
  5
126
330
120
100
AcDbEntity
  8
1
 62
     3
100
AcDbMText
 10
2291.29138548086
 20
229.366205701906
 30
0.0
 40
3.5
 41
0.0
 71
     7
 72
     1
  1
\C3;\C3;\C3;152.38\C2;\H2.45;\S^ ;\C3;
  7
CONVERTER_11
 11
0.9999999999970619
 21
2.424068405545306E-6
 31
0.0
 73
     1
 44
0.60024009603842
  0
ENDBLK
  5
128
330
120
100
AcDbEntity
  8
0
100
AcDbBlockEnd
  0
BLOCK
  5
132
330
12B
100
AcDbEntity
  8
0
100
AcDbBlockBegin
  2
*D7
 70
     1
 10
0.0
 20
0.0
 30
0.0
  3
*D7
  1

  0
LINE
  5
12C
330
12B
100
AcDbEntity
  8
1
  6
Continuous
 62
     2
100
AcDbLine
 10
2374.236474447026
 20
218.735193765516
 30
0.0
 11
2247.857571799497
 21
218.735193765516
 31
0.0
  0
LINE
  5
12D
330
12B
100
AcDbEntity
  8
1
  6
Continuous
 62
     2
100
AcDbLine
 10
2247.857571799497
 20
212.4238933128196
 30
0.0
 11
2247.857571799497
 21
220.735193765516
 31
0.0
  0
LINE
  5
12E
330
12B
100
AcDbEntity
  8
1
  6
Continuous
 62
     2
100
AcDbLine
 10
2374.236474447026
 20
196.4238933128196
 30
0.0
 11
2374.236474447026
 21
220.735193765516
 31
0.0
  0
SOLID
  5
12F
330
12B
100
AcDbEntity
  8
1
 62
     2
100
AcDbTrace
 10
2370.736474447026
 20
218.2744100239601
 30
0.0
 11
2370.736474447026
 21
219.1959775070719
 31
0.0
 12
2374.236474447026
 22
218.735193765516
 32
0.0
 13
2374.236474447026
 23
218.735193765516
 33
0.0
  0
SOLID
  5
130
330
12B
100
AcDbEntity
  8
1
 62
     2
100
AcDbTrace
 10
2251.357571799497
 20
219.1959775070719
 30
0.0
 11
2251.357571799497
 21
218.2744100239601
 31
0.0
 12
2247.857571799497
 22
218.735193765516
 32
0.0
 13
2247.857571799497
 23
218.735193765516
 33
0.0
  0
MTEXT
  5
131
330
12B
100
AcDbEntity
  8
1
 62
     3
100
AcDbMText
 10
2307.73140821684
 20
220.735193765516
 30
0.0
 40
3.5
 41
0.0
 71
     7
 72
     1
  1
\C3;\C3;\C3;126.38\C2;\H2.45;\S^ ;\C3;
  7
CONVERTER_11
 11
0.9999999999970619
 21
2.424068405545306E-6
 31
0.0
 73
     1
 44
0.60024009603842
  0
ENDBLK
  5
133
330
12B
100
AcDbEntity
  8
0
100
AcDbBlockEnd
  0
BLOCK
  5
13D
330
136
100
AcDbEntity
  8
0
100
AcDbBlockBegin
  2
*D8
 70
     1
 10
0.0
 20
0.0
 30
0.0
  3
*D8
  1

  0
LINE
  5
137
330
136
100
AcDbEntity
  8
1
  6
Continuous
 62
     2
100
AcDbLine
 10
2407.589521295
 20
153.4238933128198
 30
0.0
 11
2407.589521295
 21
204.4238933128196
 31
0.0
  0
LINE
  5
138
330
136
100
AcDbEntity
  8
1
  6
Continuous
 62
     2
100
AcDbLine
 10
2255.151100605502
 20
204.4238933128196
 30
0.0
 11
2409.589521295
 21
204.4238933128196
 31
0.0
  0
LINE
  5
139
330
136
100
AcDbEntity
  8
1
  6
Continuous
 62
     2
100
AcDbLine
 10
2255.151100605501
 20
153.4238933128198
 30
0.0
 11
2409.589521295
 21
153.4238933128198
 31
0.0
  0
SOLID
  5
13A
330
136
100
AcDbEntity
  8
1
 62
     2
100
AcDbTrace
 10
2407.128737553444
 20
156.9238933128198
 30
0.0
 11
2408.050305036556
 21
156.9238933128198
 31
0.0
 12
2407.589521295
 22
153.4238933128198
 32
0.0
 13
2407.589521295
 23
153.4238933128198
 33
0.0
  0
SOLID
  5
13B
330
136
100
AcDbEntity
  8
1
 62
     2
100
AcDbTrace
 10
2408.050305036556
 20
200.9238933128196
 30
0.0
 11
2407.128737553444
 21
200.9238933128196
 31
0.0
 12
2407.589521295
 22
204.4238933128196
 32
0.0
 13
2407.589521295
 23
204.4238933128196
 33
0.0
  0
MTEXT
  5
13C
330
136
100
AcDbEntity
  8
1
 62
     3
100
AcDbMText
 10
2405.589521295
 20
170.46762179803
 30
0.0
 40
3.5
 41
0.0
 71
     7
 72
     1
  1
\C3;%%c\C3;\C3;51\C2;\H2.45;\S^ ;\C3;
  7
CONVERTER_11
 11
0.0
 21
1.0
 31
0.0
 73
     1
 44
0.60024009603842
  0
ENDBLK
  5
13E
330
136
100
AcDbEntity
  8
0
100
AcDbBlockEnd
  0
BLOCK
  5
148
330
141
100
AcDbEntity
  8
0
100
AcDbBlockBegin
  2
*D9
 70
     1
 10
0.0
 20
0.0
 30
0.0
  3
*D9
  1

  0
LINE
  5
142
330
141
100
AcDbEntity
  8
1
  6
Continuous
 62
     2
100
AcDbLine
 10
2400.12538269881
 20
199.9238933128196
 30
0.0
 11
2400.12538269881
 21
157.9238933128197
 31
0.0
  0
LINE
  5
143
330
141
100
AcDbEntity
  8
1
  6
Continuous
 62
     2
100
AcDbLine
 10
2355.493833759907
 20
157.9238933128197
 30
0.0
 11
2402.12538269881
 21
157.9238933128197
 31
0.0
  0
LINE
  5
144
330
141
100
AcDbEntity
  8
1
  6
Continuous
 62
     2
100
AcDbLine
 10
2354.578115233526
 20
199.9238933128196
 30
0.0
 11
2402.12538269881
 21
199.9238933128196
 31
0.0
  0
SOLID
  5
145
330
141
100
AcDbEntity
  8
1
 62
     2
100
AcDbTrace
 10
2400.586166440366
 20
196.4238933128196
 30
0.0
 11
2399.664598957254
 21
196.4238933128196
 31
0.0
 12
2400.12538269881
 22
199.9238933128196
 32
0.0
 13
2400.12538269881
 23
199.9238933128196
 33
0.0
  0
SOLID
  5
146
330
141
100
AcDbEntity
  8
1
 62
     2
100
AcDbTrace
 10
2399.664598957254
 20
161.4238933128197
 30
0.0
 11
2400.586166440366
 21
161.4238933128197
 31
0.0
 12
2400.12538269881
 22
157.9238933128197
 32
0.0
 13
2400.12538269881
 23
157.9238933128197
 33
0.0
  0
MTEXT
  5
147
330
141
100
AcDbEntity
  8
1
 62
     3
100
AcDbMText
 10
2398.12538269881
 20
170.19734414118
 30
0.0
 40
3.5
 41
0.0
 71
     7
 72
     1
  1
\C3;%%c\C3;\C3;42\C2;\H2.45;\S^ ;\C3;
  7
CONVERTER_11
 11
0.0
 21
1.0
 31
0.0
 73
     1
 44
0.60024009603842
  0
ENDBLK
  5
149
330
141
100
AcDbEntity
  8
0
100
AcDbBlockEnd
  0
ENDSEC
  0
SECTION
  2
ENTITIES
  0
INSERT
  5
6B
330
1F
100
AcDbEntity
  8
0
100
AcDbBlockReference
  2
Urheberrecht_DE-EN
 10
2180.14106672084
 20
196.888862928263
 30
0.0
  0
INSERT
  5
6C
330
1F
100
AcDbEntity
  8
1
100
AcDbBlockReference
  2
_1
 10
2361.732571799497
 20
157.7988933128197
 30
0.0
  0
LWPOLYLINE
  5
76
330
1F
100
AcDbEntity
  8
1
  6
Continuous
 62
     7
100
AcDbPolyline
 90
        2
 70
     0
 43
0.5
 10
2332.20806255616
 20
199.9255117116664
 10
2253.321710119623
 20
204.4190381162792
  0
LWPOLYLINE
  5
77
330
1F
100
AcDbEntity
  8
1
  6
Continuous
 62
     7
100
AcDbPolyline
 90
        2
 70
     0
 43
0.25
 10
2332.236474447025
 20
159.9238933128198
 10
2332.236474447026
 20
197.9238933128196
  0
LWPOLYLINE
  5
78
330
1F
100
AcDbEntity
  8
1
  6
Continuous
 62
     7
100
AcDbPolyline
 90
        2
 70
     0
 43
0.25
 10
2253.236474447026
 20
202.4238933128196
 10
2253.236474447025
 20
155.4238933128198
  0
LWPOLYLINE
  5
79
330
1F
100
AcDbEntity
  8
1
  6
Continuous
 62
     7
100
AcDbPolyline
 90
        2
 70
     0
 43
0.5
 10
2221.857571799497
 20
204.4388933128196
 10
2221.857571799497
 20
209.9238933128196
  0
LWPOLYLINE
  5
7A
330
1F
100
AcDbEntity
  8
1
  6
Continuous
 62
     7
100
AcDbPolyline
 90
        2
 70
     0
 43
0.5
 10
2189.857571799497
 20
200.4978933128197
 10
2189.857571799497
 20
196.5008933128196
  0
LWPOLYLINE
  5
7B
330
1F
100
AcDbEntity
  8
1
  6
Continuous
 62
     7
100
AcDbPolyline
 90
        2
 70
     0
 43
0.5
 10
2247.857571799497
 20
210.4238933128196
 10
2247.857571799497
 20
205.4238933128196
  0
LWPOLYLINE
  5
7C
330
1F
100
AcDbEntity
  8
1
  6
Continuous
 62
     7
100
AcDbPolyline
 90
        2
 70
     0
 43
0.25
 10
2358.736474447026
 20
162.6238933128196
 10
2358.736474447026
 20
194.6238933128196
  0
LWPOLYLINE
  5
7D
330
1F
100
AcDbEntity
  8
1
  6
Continuous
 62
     7
100
AcDbPolyline
 90
        2
 70
     0
 43
0.25
 10
2354.736474447026
 20
159.2238933128197
 10
2354.736474447026
 20
198.2238933128197
  0
LWPOLYLINE
  5
7E
330
1F
100
AcDbEntity
  8
1
  6
Continuous
 62
     7
100
AcDbPolyline
 90
        2
 70
     0
 43
0.5
 10
2353.317287463215
 20
188.4838933128198
 10
2353.317287463216
 20
169.3638933128196
  0
LWPOLYLINE
  5
7F
330
1F
100
AcDbEntity
  8
1
  6
DOT_CENTER
 62
     7
100
AcDbPolyline
 90
        2
 70
     0
 43
0.25
 10
2186.076571799496
 20
178.9238933128197
 10
2381.293571799497
 20
178.9238933128197
  0
LWPOLYLINE
  5
80
330
1F
100
AcDbEntity
  8
1
  6
Continuous
 62
     7
100
AcDbPolyline
 90
        2
 70
     0
 43
0.5
 10
2374.236474447026
 20
191.4238933128196
 10
2353.317287463215
 20
188.4838933128198
  0
LWPOLYLINE
  5
81
330
1F
100
AcDbEntity
  8
1
  6
Continuous
 62
     7
100
AcDbPolyline
 90
        2
 70
     0
 43
0.5
 10
2342.736474447026
 20
188.4588933128197
 10
2342.736474447026
 20
169.3888933128197
  0
LWPOLYLINE
  5
82
330
1F
100
AcDbEntity
  8
1
  6
Continuous
 62
     7
100
AcDbPolyline
 90
        2
 70
     0
 43
0.5
 10
2353.317287463215
 20
188.4838933128198
 10
2342.736474447026
 20
188.4838933128198
  0
LWPOLYLINE
  5
83
330
1F
100
AcDbEntity
  8
1
  6
Continuous
 62
     7
100
AcDbPolyline
 90
        2
 70
     0
 43
0.5
 10
2342.736474447026
 20
169.3638933128196
 10
2353.317287463216
 20
169.3638933128196
  0
LWPOLYLINE
  5
84
330
1F
100
AcDbEntity
  8
1
  6
Continuous
 62
     7
100
AcDbPolyline
 90
        2
 70
     0
 43
0.5
 10
2353.317287463216
 20
169.3638933128196
 10
2374.236474447026
 20
166.4238933128197
  0
LWPOLYLINE
  5
85
330
1F
100
AcDbEntity
  8
1
  6
DOT_CENTER
 62
     7
100
AcDbPolyline
 90
        2
 70
     0
 43
0.25
 10
2374.236474447026
 20
166.4238933128197
 10
2374.536474447026
 20
166.4238933128197
  0
LWPOLYLINE
  5
86
330
1F
100
AcDbEntity
  8
1
  6
DOT_CENTER
 62
     7
100
AcDbPolyline
 90
        2
 70
     0
 43
0.25
 10
2374.236474447026
 20
191.4238933128196
 10
2374.536474447026
 20
191.4238933128196
  0
LWPOLYLINE
  5
87
330
1F
100
AcDbEntity
  8
1
  6
Continuous
 62
     7
100
AcDbPolyline
 90
        2
 70
     0
 43
0.5
 10
2248.857571799497
 20
153.4238933128197
 10
2253.151100605501
 20
153.4238933128198
  0
LWPOLYLINE
  5
88
330
1F
100
AcDbEntity
  8
1
  6
Continuous
 62
     7
100
AcDbPolyline
 90
        2
 70
     0
 43
0.5
 10
2253.321710119622
 20
153.4287485093602
 10
2332.208062556159
 20
157.9222749139731
  0
LWPOLYLINE
  5
89
330
1F
100
AcDbEntity
  8
1
  6
Continuous
 62
     7
100
AcDbPolyline
 90
        2
 70
     0
 43
0.5
 10
2332.2649323942
 20
157.9238933128198
 10
2353.493833759907
 20
157.9238933128197
  0
LWPOLYLINE
  5
8A
330
1F
100
AcDbEntity
  8
1
  6
Continuous
 62
     7
100
AcDbPolyline
 90
        2
 70
     0
 43
0.5
 10
2358.443474447027
 20
161.6308933128196
 10
2355.615154103467
 20
158.8025729692602
  0
LWPOLYLINE
  5
8B
330
1F
100
AcDbEntity
  8
1
  6
Continuous
 62
     7
100
AcDbPolyline
 90
        2
 70
     0
 43
0.5
 10
2360.236474447026
 20
161.9238933128197
 10
2360.236474447026
 20
162.6738933128197
  0
LWPOLYLINE
  5
8C
330
1F
100
AcDbEntity
  8
1
  6
Continuous
 62
     7
100
AcDbPolyline
 90
        2
 70
     0
 43
0.5
 10
2373.370474447026
 20
161.9238933128197
 10
2359.150474447026
 20
161.9238933128197
  0
LWPOLYLINE
  5
8D
330
1F
100
AcDbEntity
  8
1
  6
Continuous
 62
     7
100
AcDbPolyline
 90
        2
 70
     0
 43
0.25
 10
2373.803474447026
 20
162.6738933128197
 10
2360.236474447026
 20
162.6738933128197
  0
LWPOLYLINE
  5
8E
330
1F
100
AcDbEntity
  8
1
  6
Continuous
 62
     7
100
AcDbPolyline
 90
        2
 70
     0
 43
0.5
 10
2373.370474447026
 20
161.9238933128197
 10
2374.236474447026
 20
163.4238933128197
  0
LWPOLYLINE
  5
8F
330
1F
100
AcDbEntity
  8
1
  6
Continuous
 62
     7
100
AcDbPolyline
 90
        2
 70
     0
 43
0.5
 10
2374.236474447026
 20
194.4238933128196
 10
2374.236474447026
 20
163.4238933128197
  0
LWPOLYLINE
  5
90
330
1F
100
AcDbEntity
  8
1
  6
Continuous
 62
     7
100
AcDbPolyline
 90
        2
 70
     0
 43
0.5
 10
2373.370474447026
 20
195.9238933128196
 10
2374.236474447026
 20
194.4238933128196
  0
LWPOLYLINE
  5
91
330
1F
100
AcDbEntity
  8
1
  6
Continuous
 62
     7
100
AcDbPolyline
 90
        2
 70
     0
 43
0.25
 10
2373.803474447026
 20
195.1738933128196
 10
2360.236474447026
 20
195.1738933128196
  0
LWPOLYLINE
  5
92
330
1F
100
AcDbEntity
  8
1
  6
Continuous
 62
     7
100
AcDbPolyline
 90
        2
 70
     0
 43
0.5
 10
2360.236474447026
 20
195.9238933128196
 10
2360.236474447026
 20
195.1738933128196
  0
LWPOLYLINE
  5
93
330
1F
100
AcDbEntity
  8
1
  6
Continuous
 62
     7
100
AcDbPolyline
 90
        2
 70
     0
 43
0.5
 10
2373.370474447026
 20
195.9238933128196
 10
2359.150474447026
 20
195.9238933128196
  0
LWPOLYLINE
  5
94
330
1F
100
AcDbEntity
  8
1
  6
Continuous
 62
     7
100
AcDbPolyline
 90
        2
 70
     0
 43
0.5
 10
2358.443474447027
 20
196.2168933128198
 10
2355.615154103467
 20
199.0452136563794
  0
LWPOLYLINE
  5
95
330
1F
100
AcDbEntity
  8
1
  6
Continuous
 62
     7
100
AcDbPolyline
 90
        2
 70
     0
 43
0.5
 10
2353.493833759907
 20
199.9238933128196
 10
2352.578115233526
 20
199.9238933128196
  0
LWPOLYLINE
  5
96
330
1F
100
AcDbEntity
  8
1
  6
Continuous
 62
     7
100
AcDbPolyline
 90
        2
 70
     0
 43
0.5
 10
2352.578115233526
 20
199.9238933128196
 10
2332.264932394201
 20
199.9238933128196
  0
LWPOLYLINE
  5
97
330
1F
100
AcDbEntity
  8
1
  6
Continuous
 62
     7
100
AcDbPolyline
 90
        2
 70
     0
 43
0.5
 10
2248.857571799497
 20
204.4238933128196
 10
2253.151100605502
 20
204.4238933128196
  0
LWPOLYLINE
  5
98
330
1F
100
AcDbEntity
  8
1
  6
DOT_CENTER
 62
     7
100
AcDbPolyline
 90
        2
 70
     0
 43
0.25
 10
2228.857571799497
 20
213.9558933128197
 10
2228.857571799497
 20
202.7508933128197
  0
LWPOLYLINE
  5
99
330
1F
100
AcDbEntity
  8
1
  6
DOT_CENTER
 62
     7
100
AcDbPolyline
 90
        2
 70
     0
 43
0.25
 10
2234.857571799497
 20
188.6298933128197
 10
2234.857571799497
 20
168.5988933128197
  0
LWPOLYLINE
  5
9A
330
1F
100
AcDbEntity
  8
1
  6
DOT_CENTER
 62
     7
100
AcDbPolyline
 90
        2
 70
     0
 43
0.25
 10
2239.857571799497
 20
210.4238933128196
 10
2239.857571799497
 20
147.4238933128197
  0
LWPOLYLINE
  5
9B
330
1F
100
AcDbEntity
  8
1
  6
Continuous
 62
     7
100
AcDbPolyline
 90
        2
 70
     0
 43
0.5
 10
2222.357571799497
 20
147.4238933128197
 10
2221.857571799497
 20
147.9238933128197
  0
LWPOLYLINE
  5
9C
330
1F
100
AcDbEntity
  8
1
  6
Continuous
 62
     7
100
AcDbPolyline
 90
        2
 70
     0
 43
0.5
 10
2221.857571799497
 20
147.9238933128197
 10
2221.857571799497
 20
209.9238933128196
  0
LWPOLYLINE
  5
9D
330
1F
100
AcDbEntity
  8
1
  6
Continuous
 62
     7
100
AcDbPolyline
 90
        2
 70
     0
 43
0.5
 10
2221.857571799497
 20
209.9238933128196
 10
2222.357571799497
 20
210.4238933128197
  0
LWPOLYLINE
  5
9E
330
1F
100
AcDbEntity
  8
1
  6
Continuous
 62
     7
100
AcDbPolyline
 90
        2
 70
     0
 43
0.5
 10
2222.357571799497
 20
210.4238933128197
 10
2222.357571799497
 20
147.4238933128197
  0
LWPOLYLINE
  5
9F
330
1F
100
AcDbEntity
  8
1
  6
Continuous
 62
     7
100
AcDbPolyline
 90
        2
 70
     0
 43
0.25
 10
2220.228571799497
 20
154.9158933128197
 10
2220.228571799497
 20
202.9408933128197
  0
LWPOLYLINE
  5
A0
330
1F
100
AcDbEntity
  8
1
  6
Continuous
 62
     7
100
AcDbPolyline
 90
        2
 70
     0
 43
0.5
 10
2219.857571799497
 20
203.1388933128197
 10
2190.997571799497
 20
201.6958933128197
  0
LWPOLYLINE
  5
A1
330
1F
100
AcDbEntity
  8
1
  6
Continuous
 62
     7
100
AcDbPolyline
 90
        2
 70
     0
 43
0.5
 10
2219.857571799497
 20
203.1388933128197
 10
2219.857571799497
 20
154.7088933128197
  0
LWPOLYLINE
  5
A2
330
1F
100
AcDbEntity
  8
1
  6
Continuous
 62
     7
100
AcDbPolyline
 90
        2
 70
     0
 43
0.5
 10
2189.857571799497
 20
200.4978933128197
 10
2189.857571799497
 20
186.1938933128197
  0
LWPOLYLINE
  5
A3
330
1F
100
AcDbEntity
  8
1
  6
Continuous
 62
     7
100
AcDbPolyline
 90
        2
 70
     0
 43
0.5
 10
2189.857571799497
 20
171.6538933128197
 10
2189.857571799497
 20
157.3508933128197
  0
LWPOLYLINE
  5
A4
330
1F
100
AcDbEntity
  8
1
  6
Continuous
 62
     7
100
AcDbPolyline
 90
        2
 70
     0
 43
0.5
 10
2190.857571799497
 20
185.1938933128197
 10
2189.857571799497
 20
186.1938933128197
  0
LWPOLYLINE
  5
A5
330
1F
100
AcDbEntity
  8
1
  6
Continuous
 62
     7
100
AcDbPolyline
 90
        2
 70
     0
 43
0.5
 10
2190.857571799497
 20
185.1938933128197
 10
2194.357571799497
 20
185.1938933128197
  0
LWPOLYLINE
  5
A6
330
1F
100
AcDbEntity
  8
1
  6
Continuous
 62
     7
100
AcDbPolyline
 90
        2
 70
     0
 43
0.5
 10
2195.857571799497
 20
183.6938933128197
 10
2195.857571799497
 20
174.1538933128197
  0
LWPOLYLINE
  5
A7
330
1F
100
AcDbEntity
  8
1
  6
Continuous
 62
     7
100
AcDbPolyline
 90
        2
 70
     0
 43
0.5
 10
2190.857571799497
 20
172.6538933128197
 10
2189.857571799497
 20
171.6538933128197
  0
LWPOLYLINE
  5
A8
330
1F
100
AcDbEntity
  8
1
  6
Continuous
 62
     7
100
AcDbPolyline
 90
        2
 70
     0
 43
0.5
 10
2190.857571799497
 20
172.6538933128197
 10
2194.357571799497
 20
172.6538933128197
  0
LWPOLYLINE
  5
A9
330
1F
100
AcDbEntity
  8
1
  6
Continuous
 62
     7
100
AcDbPolyline
 90
        2
 70
     0
 43
0.5
 10
2219.857571799497
 20
154.7088933128197
 10
2190.997571799497
 20
156.1518933128197
  0
LWPOLYLINE
  5
AA
330
1F
100
AcDbEntity
  8
1
  6
Continuous
 62
     7
100
AcDbPolyline
 90
        2
 70
     0
 43
0.5
 10
2247.857571799497
 20
210.4238933128196
 10
2243.234571799497
 20
210.4238933128197
  0
LWPOLYLINE
  5
AB
330
1F
100
AcDbEntity
  8
1
  6
Continuous
 62
     7
100
AcDbPolyline
 90
        2
 70
     0
 43
0.5
 10
2236.480571799497
 20
210.4238933128197
 10
2233.857571799497
 20
210.4238933128197
  0
LWPOLYLINE
  5
AC
330
1F
100
AcDbEntity
  8
1
  6
Continuous
 62
     7
100
AcDbPolyline
 90
        2
 70
     0
 43
0.5
 10
2223.857571799497
 20
210.4238933128197
 10
2222.357571799497
 20
210.4238933128197
  0
LWPOLYLINE
  5
AD
330
1F
100
AcDbEntity
  8
1
  6
Continuous
 62
     7
100
AcDbPolyline
 90
        2
 70
     0
 43
0.5
 10
2247.857571799497
 20
210.4238933128196
 10
2247.857571799497
 20
147.4238933128197
  0
LWPOLYLINE
  5
AE
330
1F
100
AcDbEntity
  8
1
  6
Continuous
 62
     7
100
AcDbPolyline
 90
        2
 70
     0
 43
0.5
 10
2247.857571799497
 20
158.9238933128197
 10
2241.732571799497
 20
158.9238933128197
  0
LWPOLYLINE
  5
AF
330
1F
100
AcDbEntity
  8
1
  6
Continuous
 62
     7
100
AcDbPolyline
 90
        2
 70
     0
 43
0.5
 10
2237.982571799497
 20
158.9238933128197
 10
2233.969571799497
 20
158.9238933128197
  0
LWPOLYLINE
  5
B0
330
1F
100
AcDbEntity
  8
1
  6
Continuous
 62
     7
100
AcDbPolyline
 90
        2
 70
     0
 43
0.5
 10
2247.857571799497
 20
154.5878933128197
 10
2243.234571799497
 20
154.5878933128197
  0
LWPOLYLINE
  5
B1
330
1F
100
AcDbEntity
  8
1
  6
Continuous
 62
     7
100
AcDbPolyline
 90
        2
 70
     0
 43
0.5
 10
2236.480571799497
 20
154.5878933128197
 10
2226.857571799497
 20
154.5878933128197
  0
LWPOLYLINE
  5
B2
330
1F
100
AcDbEntity
  8
1
  6
Continuous
 62
     7
100
AcDbPolyline
 90
        2
 70
     0
 43
0.5
 10
2247.857571799497
 20
147.4238933128197
 10
2243.234571799497
 20
147.4238933128197
  0
LWPOLYLINE
  5
B3
330
1F
100
AcDbEntity
  8
1
  6
Continuous
 62
     7
100
AcDbPolyline
 90
        2
 70
     0
 43
0.5
 10
2236.480571799497
 20
147.4238933128197
 10
2222.357571799497
 20
147.4238933128197
  0
LWPOLYLINE
  5
B4
330
1F
100
AcDbEntity
  8
1
  6
Continuous
 62
     7
100
AcDbPolyline
 90
        2
 70
     0
 43
0.5
 10
2236.480571799497
 20
170.9238933128197
 10
2236.480571799497
 20
158.9238933128197
  0
LWPOLYLINE
  5
B5
330
1F
100
AcDbEntity
  8
1
  6
Continuous
 62
     7
100
AcDbPolyline
 90
        2
 70
     0
 43
0.5
 10
2236.480571799497
 20
154.5878933128197
 10
2236.480571799497
 20
147.4238933128197
  0
LWPOLYLINE
  5
B6
330
1F
100
AcDbEntity
  8
1
  6
Continuous
 62
     7
100
AcDbPolyline
 90
        2
 70
     0
 43
0.5
 10
2237.982571799497
 20
207.8208933128197
 10
2237.982571799497
 20
186.2718933128197
  0
LWPOLYLINE
  5
B7
330
1F
100
AcDbEntity
  8
1
  6
Continuous
 62
     7
100
AcDbPolyline
 90
        2
 70
     0
 43
0.5
 10
2237.982571799497
 20
171.5758933128197
 10
2237.982571799497
 20
164.8798933128197
  0
LWPOLYLINE
  5
B8
330
1F
100
AcDbEntity
  8
1
  6
Continuous
 62
     7
100
AcDbPolyline
 90
        2
 70
     0
 43
0.5
 10
2237.982571799497
 20
164.8798933128197
 10
2237.982571799497
 20
150.0268933128197
  0
LWPOLYLINE
  5
B9
330
1F
100
AcDbEntity
  8
1
  6
Continuous
 62
     7
100
AcDbPolyline
 90
        2
 70
     0
 43
0.5
 10
2241.732571799497
 20
207.8218933128197
 10
2241.732571799497
 20
186.2718933128197
  0
LWPOLYLINE
  5
BA
330
1F
100
AcDbEntity
  8
1
  6
Continuous
 62
     7
100
AcDbPolyline
 90
        2
 70
     0
 43
0.5
 10
2241.732571799497
 20
171.5758933128197
 10
2241.732571799497
 20
164.8328933128197
  0
LWPOLYLINE
  5
BB
330
1F
100
AcDbEntity
  8
1
  6
Continuous
 62
     7
100
AcDbPolyline
 90
        2
 70
     0
 43
0.5
 10
2241.732571799497
 20
164.8798933128197
 10
2241.732571799497
 20
150.0258933128197
  0
LWPOLYLINE
  5
BC
330
1F
100
AcDbEntity
  8
1
  6
Continuous
 62
     7
100
AcDbPolyline
 90
        2
 70
     0
 43
0.5
 10
2243.234571799497
 20
147.4238933128197
 10
2243.234571799497
 20
154.5878933128197
  0
LWPOLYLINE
  5
BD
330
1F
100
AcDbEntity
  8
1
  6
Continuous
 62
     7
100
AcDbPolyline
 90
        2
 70
     0
 43
0.5
 10
2243.234571799497
 20
158.9238933128197
 10
2243.234571799497
 20
170.9238933128197
  0
LWPOLYLINE
  5
BE
330
1F
100
AcDbEntity
  8
1
  6
Continuous
 62
     7
100
AcDbPolyline
 90
        2
 70
     0
 43
0.5
 10
2243.234571799497
 20
186.9238933128197
 10
2243.234571799497
 20
210.4238933128197
  0
LWPOLYLINE
  5
BF
330
1F
100
AcDbEntity
  8
1
  6
Continuous
 62
     7
100
AcDbPolyline
 90
        2
 70
     0
 43
0.5
 10
2237.982571799497
 20
171.5758933128197
 10
2241.732571799497
 20
171.5758933128197
  0
LWPOLYLINE
  5
C0
330
1F
100
AcDbEntity
  8
1
  6
Continuous
 62
     7
100
AcDbPolyline
 90
        2
 70
     0
 43
0.5
 10
2234.857571799497
 20
170.9238933128197
 10
2237.982571799497
 20
170.9238933128197
  0
LWPOLYLINE
  5
C1
330
1F
100
AcDbEntity
  8
1
  6
Continuous
 62
     7
100
AcDbPolyline
 90
        2
 70
     0
 43
0.5
 10
2241.732571799497
 20
170.9238933128197
 10
2247.857571799497
 20
170.9238933128197
  0
LWPOLYLINE
  5
C2
330
1F
100
AcDbEntity
  8
1
  6
Continuous
 62
     7
100
AcDbPolyline
 90
        2
 70
     0
 43
0.5
 10
2234.857571799497
 20
186.9238933128197
 10
2237.982571799497
 20
186.9238933128197
  0
LWPOLYLINE
  5
C3
330
1F
100
AcDbEntity
  8
1
  6
Continuous
 62
     7
100
AcDbPolyline
 90
        2
 70
     0
 43
0.5
 10
2241.732571799497
 20
186.9238933128197
 10
2247.857571799497
 20
186.9238933128197
  0
LWPOLYLINE
  5
C4
330
1F
100
AcDbEntity
  8
1
  6
Continuous
 62
     7
100
AcDbPolyline
 90
        2
 70
     0
 43
0.5
 10
2237.982571799497
 20
186.2718933128197
 10
2241.732571799497
 20
186.2718933128197
  0
LWPOLYLINE
  5
C5
330
1F
100
AcDbEntity
  8
1
  6
Continuous
 62
     7
100
AcDbPolyline
 90
        2
 70
     0
 43
0.5
 10
2221.364571799497
 20
203.0388933128197
 10
2220.309571799497
 20
203.0388933128197
  0
LWPOLYLINE
  5
C6
330
1F
100
AcDbEntity
  8
1
  6
Continuous
 62
     7
100
AcDbPolyline
 90
        2
 70
     0
 43
0.5
 10
2219.857571799497
 20
203.1388933128197
 10
2220.154571799497
 20
203.0588933128197
  0
LWPOLYLINE
  5
C7
330
1F
100
AcDbEntity
  8
1
  6
Continuous
 62
     7
100
AcDbPolyline
 90
        2
 70
     0
 43
0.5
 10
2190.857571799497
 20
187.7448933128197
 10
2189.857571799497
 20
188.7448933128197
  0
LWPOLYLINE
  5
C8
330
1F
100
AcDbEntity
  8
1
  6
Continuous
 62
     7
100
AcDbPolyline
 90
        2
 70
     0
 43
0.5
 10
2190.857571799497
 20
185.1938933128197
 10
2190.857571799497
 20
187.7448933128197
  0
LWPOLYLINE
  5
C9
330
1F
100
AcDbEntity
  8
1
  6
Continuous
 62
     7
100
AcDbPolyline
 90
        2
 70
     0
 43
0.5
 10
2195.857571799497
 20
187.7448933128197
 10
2195.857571799497
 20
183.6938933128197
  0
LWPOLYLINE
  5
CA
330
1F
100
AcDbEntity
  8
1
  6
Continuous
 62
     7
100
AcDbPolyline
 90
        2
 70
     0
 43
0.5
 10
2190.857571799497
 20
170.1028933128197
 10
2189.857571799497
 20
169.1028933128197
  0
LWPOLYLINE
  5
CB
330
1F
100
AcDbEntity
  8
1
  6
Continuous
 62
     7
100
AcDbPolyline
 90
        2
 70
     0
 43
0.5
 10
2190.857571799497
 20
172.6538933128197
 10
2190.857571799497
 20
170.1028933128197
  0
LWPOLYLINE
  5
CC
330
1F
100
AcDbEntity
  8
1
  6
Continuous
 62
     7
100
AcDbPolyline
 90
        2
 70
     0
 43
0.5
 10
2195.857571799497
 20
170.1028933128197
 10
2195.857571799497
 20
174.1538933128197
  0
LWPOLYLINE
  5
CD
330
1F
100
AcDbEntity
  8
1
  6
Continuous
 62
     7
100
AcDbPolyline
 90
        2
 70
     0
 43
0.5
 10
2221.364571799497
 20
154.8088933128197
 10
2220.309571799497
 20
154.8088933128197
  0
LWPOLYLINE
  5
CE
330
1F
100
AcDbEntity
  8
1
  6
Continuous
 62
     7
100
AcDbPolyline
 90
        2
 70
     0
 43
0.5
 10
2219.857571799497
 20
154.7088933128197
 10
2220.154571799497
 20
154.7888933128197
  0
LWPOLYLINE
  5
CF
330
1F
100
AcDbEntity
  8
1
  6
Continuous
 62
     7
100
AcDbPolyline
 90
        2
 70
     0
 43
0.5
 10
2236.480571799497
 20
147.4238933128197
 10
2237.982571799497
 20
150.0268933128197
  0
LWPOLYLINE
  5
D0
330
1F
100
AcDbEntity
  8
1
  6
Continuous
 62
     7
100
AcDbPolyline
 90
        2
 70
     0
 43
0.5
 10
2243.234571799497
 20
147.4238933128197
 10
2241.732571799497
 20
150.0258933128197
  0
LWPOLYLINE
  5
D1
330
1F
100
AcDbEntity
  8
1
  6
Continuous
 62
     7
100
AcDbPolyline
 90
        2
 70
     0
 43
0.5
 10
2238.982571799497
 20
151.4238933128197
 10
2240.732571799497
 20
151.4238933128197
  0
LWPOLYLINE
  5
D2
330
1F
100
AcDbEntity
  8
1
  6
Continuous
 62
     7
100
AcDbPolyline
 90
        2
 70
     0
 43
0.5
 10
2236.480571799497
 20
210.4238933128197
 10
2237.982571799497
 20
207.8208933128197
  0
LWPOLYLINE
  5
D3
330
1F
100
AcDbEntity
  8
1
  6
Continuous
 62
     7
100
AcDbPolyline
 90
        2
 70
     0
 43
0.5
 10
2243.234571799497
 20
210.4238933128197
 10
2241.732571799497
 20
207.8218933128197
  0
LWPOLYLINE
  5
D4
330
1F
100
AcDbEntity
  8
1
  6
Continuous
 62
     7
100
AcDbPolyline
 90
        2
 70
     0
 43
0.5
 10
2238.982571799497
 20
206.4238933128197
 10
2240.732571799497
 20
206.4238933128197
  0
LWPOLYLINE
  5
D5
330
1F
100
AcDbEntity
  8
1
  6
DOT_CENTER
 62
     7
100
AcDbPolyline
 90
        2
 70
     0
 43
0.25
 10
2207.107571799497
 20
178.9238933128197
 10
2212.857571799497
 20
178.9238933128197
  0
LWPOLYLINE
  5
D6
330
1F
100
AcDbEntity
  8
1
  6
DOT_CENTER
 62
     7
100
AcDbPolyline
 90
        2
 70
     0
 43
0.25
 10
2212.857571799497
 20
178.9238933128197
 10
2218.607571799497
 20
178.9238933128197
  0
LWPOLYLINE
  5
D7
330
1F
100
AcDbEntity
  8
1
  6
DOT_CENTER
 62
     7
100
AcDbPolyline
 90
        2
 70
     0
 43
0.25
 10
2212.857571799497
 20
173.1738933128197
 10
2212.857571799497
 20
178.9238933128197
  0
LWPOLYLINE
  5
D8
330
1F
100
AcDbEntity
  8
1
  6
DOT_CENTER
 62
     7
100
AcDbPolyline
 90
        2
 70
     0
 43
0.25
 10
2212.857571799497
 20
178.9238933128197
 10
2212.857571799497
 20
184.6738933128197
  0
LWPOLYLINE
  5
D9
330
1F
100
AcDbEntity
  8
1
  6
LONG_DASHED
 62
     7
100
AcDbPolyline
 90
        2
 70
     0
 43
0.35
 10
2226.857571799497
 20
179.9238933128197
 10
2226.857571799497
 20
177.9238933128197
  0
LWPOLYLINE
  5
DA
330
1F
100
AcDbEntity
  8
1
  6
Continuous
 62
     7
100
AcDbPolyline
 90
        2
 70
     0
 43
0.5
 10
2236.480571799497
 20
210.4238933128197
 10
2236.480571799497
 20
186.9238933128197
  0
LWPOLYLINE
  5
DB
330
1F
100
AcDbEntity
  8
1
  6
Continuous
 62
     7
100
AcDbPolyline
 90
        2
 70
     0
 43
0.5
 10
2359.150474447026
 20
161.9238933128197
 42
0.198896114645
 10
2358.443474447027
 20
161.6308933128196
 42
0.198896114645
  0
LWPOLYLINE
  5
DC
330
1F
100
AcDbEntity
  8
1
  6
Continuous
 62
     7
100
AcDbPolyline
 90
        2
 70
     0
 43
0.5
 10
2358.443474447027
 20
196.2168933128198
 42
0.198896114645
 10
2359.150474447026
 20
195.9238933128196
 42
0.198896114645
  0
LWPOLYLINE
  5
DD
330
1F
100
AcDbEntity
  8
1
  6
Continuous
 62
     7
100
AcDbPolyline
 90
        2
 70
     0
 43
0.5
 10
2190.997571799497
 20
201.6958933128197
 42
0.39951698664576
 10
2189.857571799497
 20
200.4978933128197
 42
0.39951698664576
  0
LWPOLYLINE
  5
DE
330
1F
100
AcDbEntity
  8
1
  6
Continuous
 62
     7
100
AcDbPolyline
 90
        2
 70
     0
 43
0.5
 10
2195.857571799497
 20
183.6938933128197
 42
0.4142135623731
 10
2194.357571799497
 20
185.1938933128197
 42
0.4142135623731
  0
LWPOLYLINE
  5
DF
330
1F
100
AcDbEntity
  8
1
  6
Continuous
 62
     7
100
AcDbPolyline
 90
        2
 70
     0
 43
0.5
 10
2194.357571799497
 20
172.6538933128197
 42
0.4142135623731
 10
2195.857571799497
 20
174.1538933128197
 42
0.4142135623731
  0
LWPOLYLINE
  5
E0
330
1F
100
AcDbEntity
  8
1
  6
Continuous
 62
     7
100
AcDbPolyline
 90
        2
 70
     0
 43
0.5
 10
2189.857571799497
 20
157.3508933128197
 42
0.39975859315768
 10
2190.997571799497
 20
156.1518933128197
 42
0.39975859315768
  0
LWPOLYLINE
  5
E1
330
1F
100
AcDbEntity
  8
1
  6
Continuous
 62
     7
100
AcDbPolyline
 90
        2
 70
     0
 43
0.5
 10
2243.234571799497
 20
154.5878933128197
 42
0.13766050511666
 10
2241.732766330222
 20
158.0680535372574
 42
0.13766050511666
  0
LWPOLYLINE
  5
E2
330
1F
100
AcDbEntity
  8
1
  6
Continuous
 62
     7
100
AcDbPolyline
 90
        2
 70
     0
 43
0.5
 10
2237.982376432638
 20
158.0680543733914
 42
0.13766052157886
 10
2236.480571799497
 20
154.5878933128197
 42
0.13766052157886
  0
LWPOLYLINE
  5
E3
330
1F
100
AcDbEntity
  8
1
  6
Continuous
 62
     7
100
AcDbPolyline
 90
        2
 70
     0
 43
0.5
 10
2233.969571799497
 20
158.9238933128197
 42
0.28082657473578
 10
2226.857571799497
 20
154.5878933128197
 42
0.28082657473578
  0
LWPOLYLINE
  5
E4
330
1F
100
AcDbEntity
  8
1
  6
Continuous
 62
     7
100
AcDbPolyline
 90
        2
 70
     0
 43
0.5
 10
2241.732571799497
 20
150.423893432029
 42
0.4142135274575
 10
2240.732571799497
 20
151.4238933128197
 42
0.4142135274575
  0
LWPOLYLINE
  5
E5
330
1F
100
AcDbEntity
  8
1
  6
Continuous
 62
     7
100
AcDbPolyline
 90
        2
 70
     0
 43
0.5
 10
2238.982571799497
 20
151.4238933128197
 42
0.41421359728869
 10
2237.982571799497
 20
150.4238931936104
 42
0.41421359728869
  0
LWPOLYLINE
  5
E6
330
1F
100
AcDbEntity
  8
1
  6
Continuous
 62
     7
100
AcDbPolyline
 90
        2
 70
     0
 43
0.5
 10
2234.857571799497
 20
186.9238933128197
 42
1.0
 10
2234.857571799497
 20
170.9238933128197
 42
1.0
  0
LWPOLYLINE
  5
E7
330
1F
100
AcDbEntity
  8
1
  6
Continuous
 62
     7
100
AcDbPolyline
 90
        2
 70
     0
 43
0.5
 10
2237.982571799497
 20
207.4238931936104
 42
0.4142135274575
 10
2238.982571799497
 20
206.4238933128197
 42
0.4142135274575
  0
LWPOLYLINE
  5
E8
330
1F
100
AcDbEntity
  8
1
  6
Continuous
 62
     7
100
AcDbPolyline
 90
        2
 70
     0
 43
0.5
 10
2240.732571799497
 20
206.4238933128197
 42
0.41421359728869
 10
2241.732571799497
 20
207.423893432029
 42
0.41421359728869
  0
LWPOLYLINE
  5
E9
330
1F
100
AcDbEntity
  8
1
  6
Continuous
 62
     7
100
AcDbPolyline
 90
        2
 70
     0
 43
0.5
 10
2220.154571799497
 20
203.0588933128197
 42
0.06539724823512
 10
2220.309571799497
 20
203.0388933128197
 42
0.06539724823512
  0
LWPOLYLINE
  5
EA
330
1F
100
AcDbEntity
  8
1
  6
Continuous
 62
     7
100
AcDbPolyline
 90
        2
 70
     0
 43
0.5
 10
2221.364571799497
 20
203.0388933128197
 42
0.2458681781449
 10
2221.857577122907
 20
203.2969198888619
 42
0.2458681781449
  0
LWPOLYLINE
  5
EB
330
1F
100
AcDbEntity
  8
1
  6
Continuous
 62
     7
100
AcDbPolyline
 90
        2
 70
     0
 43
0.5
 10
2190.857571799497
 20
187.7448933128197
 42
0.0190215038091
 10
2194.357576753218
 20
188.1490098736453
 42
0.0190215038091
  0
LWPOLYLINE
  5
EC
330
1F
100
AcDbEntity
  8
1
  6
Continuous
 62
     7
100
AcDbPolyline
 90
        2
 70
     0
 43
0.5
 10
2194.357576753218
 20
169.6987767519941
 42
0.0190215038091
 10
2190.857571799497
 20
170.1028933128197
 42
0.0190215038091
  0
LWPOLYLINE
  5
ED
330
1F
100
AcDbEntity
  8
1
  6
Continuous
 62
     7
100
AcDbPolyline
 90
        2
 70
     0
 43
0.5
 10
2220.309571799497
 20
154.8088933128197
 42
0.06539724823512
 10
2220.154571799497
 20
154.7888933128197
 42
0.06539724823512
  0
LWPOLYLINE
  5
EE
330
1F
100
AcDbEntity
  8
1
  6
Continuous
 62
     7
100
AcDbPolyline
 90
        2
 70
     0
 43
0.5
 10
2221.857577122907
 20
154.5508667367775
 42
0.2458681781449
 10
2221.364571799497
 20
154.8088933128197
 42
0.2458681781449
  0
LWPOLYLINE
  5
EF
330
1F
100
AcDbEntity
  8
1
  6
Continuous
 62
     7
100
AcDbPolyline
 90
        2
 70
     1
 43
0.5
 10
2208.607571799497
 20
178.9238933128197
 42
1.0
 10
2217.107571799497
 20
178.9238933128197
 42
1.0
  0
LWPOLYLINE
  5
F0
330
1F
100
AcDbEntity
  8
1
  6
Continuous
 62
     7
100
AcDbPolyline
 90
        2
 70
     1
 43
0.5
 10
2209.107571799497
 20
178.9238933128197
 42
1.0
 10
2216.607571799497
 20
178.9238933128197
 42
1.0
  0
LWPOLYLINE
  5
F1
330
1F
100
AcDbEntity
  8
1
  6
Continuous
 62
     7
100
AcDbPolyline
 90
        2
 70
     0
 43
0.5
 10
2332.2649323942
 20
157.9238933128198
 42
0.01422609390297
 10
2332.208062556159
 20
157.9222749139731
 42
0.01422609390297
  0
LWPOLYLINE
  5
F2
330
1F
100
AcDbEntity
  8
1
  6
Continuous
 62
     7
100
AcDbPolyline
 90
        2
 70
     0
 43
0.5
 10
2253.151100605501
 20
153.4238933128198
 42
0.01422609390274
 10
2253.321710119622
 20
153.4287485093602
 42
0.01422609390274
  0
LWPOLYLINE
  5
F3
330
1F
100
AcDbEntity
  8
1
  6
Continuous
 62
     7
100
AcDbPolyline
 90
        2
 70
     0
 43
0.5
 10
2253.321710119623
 20
204.4190381162792
 42
0.01422609390274
 10
2253.151100605502
 20
204.4238933128196
 42
0.01422609390274
  0
LWPOLYLINE
  5
F4
330
1F
100
AcDbEntity
  8
1
  6
Continuous
 62
     7
100
AcDbPolyline
 90
        2
 70
     0
 43
0.5
 10
2332.20806255616
 20
199.9255117116664
 42
0.01422609390297
 10
2332.264932394201
 20
199.9238933128196
 42
0.01422609390297
  0
LWPOLYLINE
  5
F5
330
1F
100
AcDbEntity
  8
1
  6
Continuous
 62
     7
100
AcDbPolyline
 90
        2
 70
     0
 43
0.5
 10
2248.857571799497
 20
153.4238933128197
 42
0.4142135623731
 10
2247.857571799497
 20
152.4238933128197
 42
0.4142135623731
  0
LWPOLYLINE
  5
F6
330
1F
100
AcDbEntity
  8
1
  6
Continuous
 62
     7
100
AcDbPolyline
 90
        2
 70
     0
 43
0.5
 10
2353.493833759907
 20
157.9238933128197
 42
0.19891236737969
 10
2355.615154103467
 20
158.8025729692602
 42
0.19891236737969
  0
LWPOLYLINE
  5
F7
330
1F
100
AcDbEntity
  8
1
  6
Continuous
 62
     7
100
AcDbPolyline
 90
        2
 70
     0
 43
0.5
 10
2355.615154103467
 20
199.0452136563794
 42
0.19891236737967
 10
2353.493833759907
 20
199.9238933128196
 42
0.19891236737967
  0
LWPOLYLINE
  5
F8
330
1F
100
AcDbEntity
  8
1
  6
Continuous
 62
     7
100
AcDbPolyline
 90
        2
 70
     0
 43
0.5
 10
2247.857571799497
 20
205.4238933128196
 42
0.4142135623731
 10
2248.857571799497
 20
204.4238933128196
 42
0.4142135623731
  0
LEADER
  5
F9
330
1F
100
AcDbEntity
  8
1
  6
Continuous
 62
     7
100
AcDbLeader
  3
Standard
 71
     0
 76
     1
 10
2194.483571799497
 20
187.4848933128197
 30
0.0
  0
LEADER
  5
FA
330
1F
100
AcDbEntity
  8
1
  6
Continuous
 62
     7
100
AcDbLeader
  3
Standard
 71
     0
 76
    31
 10
2194.357576753218
 20
188.1490098736453
 30
0.0
 10
2194.430025596889
 20
188.1614126857562
 30
0.0
 10
2194.502232990766
 20
188.1722511014648
 30
0.0
 10
2194.574389235606
 20
188.1812055169666
 30
0.0
 10
2194.646296556129
 20
188.1882513888272
 30
0.0
 10
2194.717757859337
 20
188.1933694047988
 30
0.0
 10
2194.788577274735
 20
188.1965455367531
 30
0.0
 10
2194.8585606912
 20
188.197771079132
 30
0.0
 10
2194.927516289022
 20
188.1970426728084
 30
0.0
 10
2194.995255065672
 20
188.1943623142938
 30
0.0
 10
2195.061591353843
 20
188.1897373502657
 30
0.0
 10
2195.126343330353
 20
188.1831804574309
 30
0.0
 10
2195.189333514507
 20
188.1747096077795
 30
0.0
 10
2195.250389254565
 20
188.1643480193254
 30
0.0
 10
2195.30934320096
 20
188.1521240924664
 30
0.0
 10
2195.366033764999
 20
188.1380713321415
 30
0.0
 10
2195.420305561762
 20
188.1222282559959
 30
0.0
 10
2195.472009836004
 20
188.1046382888065
 30
0.0
 10
2195.521004869884
 20
188.0853496434581
 30
0.0
 10
2195.567156371397
 20
188.0644151887949
 30
0.0
 10
2195.610337842466
 20
188.0418923047106
 30
0.0
 10
2195.650430925664
 20
188.0178427248745
 30
0.0
 10
2195.687325728619
 20
187.9923323675231
 30
0.0
 10
2195.720921125226
 20
187.9654311547834
 30
0.0
 10
2195.751125032823
 20
187.9372128210207
 30
0.0
 10
2195.777854664587
 20
187.9077547107383
 30
0.0
 10
2195.801036756443
 20
187.877137566581
 30
0.0
 10
2195.820607767882
 20
187.8454453080256
 30
0.0
 10
2195.83651405611
 20
187.812764801363
 30
0.0
 10
2195.848712023093
 20
187.7791856216041
 30
0.0
 10
2195.857571799497
 20
187.7448933128197
 30
0.0
  0
LEADER
  5
FB
330
1F
100
AcDbEntity
  8
1
  6
Continuous
 62
     7
100
AcDbLeader
  3
Standard
 71
     0
 76
     1
 10
2194.483571799497
 20
170.3628933128197
 30
0.0
  0
LEADER
  5
FC
330
1F
100
AcDbEntity
  8
1
  6
Continuous
 62
     7
100
AcDbLeader
  3
Standard
 71
     0
 76
    31
 10
2194.357576753218
 20
169.6987767519941
 30
0.0
 10
2194.430025596889
 20
169.6863739398832
 30
0.0
 10
2194.502232990766
 20
169.6755355241745
 30
0.0
 10
2194.574389235606
 20
169.6665811086728
 30
0.0
 10
2194.646296556129
 20
169.6595352368122
 30
0.0
 10
2194.717757859337
 20
169.6544172208406
 30
0.0
 10
2194.788577274735
 20
169.6512410888863
 30
0.0
 10
2194.8585606912
 20
169.6500155465074
 30
0.0
 10
2194.927516289022
 20
169.6507439528309
 30
0.0
 10
2194.995255065672
 20
169.6534243113455
 30
0.0
 10
2195.061591353843
 20
169.6580492753737
 30
0.0
 10
2195.126343330353
 20
169.6646061682085
 30
0.0
 10
2195.189333514507
 20
169.6730770178598
 30
0.0
 10
2195.250389254565
 20
169.683438606314
 30
0.0
 10
2195.30934320096
 20
169.695662533173
 30
0.0
 10
2195.366033764999
 20
169.7097152934979
 30
0.0
 10
2195.420305561762
 20
169.7255583696435
 30
0.0
 10
2195.472009836004
 20
169.7431483368329
 30
0.0
 10
2195.521004869884
 20
169.7624369821813
 30
0.0
 10
2195.567156371397
 20
169.7833714368445
 30
0.0
 10
2195.610337842466
 20
169.8058943209287
 30
0.0
 10
2195.650430925664
 20
169.8299439007649
 30
0.0
 10
2195.687325728619
 20
169.8554542581163
 30
0.0
 10
2195.720921125226
 20
169.882355470856
 30
0.0
 10
2195.751125032823
 20
169.9105738046187
 30
0.0
 10
2195.777854664587
 20
169.9400319149011
 30
0.0
 10
2195.801036756443
 20
169.9706490590584
 30
0.0
 10
2195.820607767882
 20
170.0023413176138
 30
0.0
 10
2195.83651405611
 20
170.0350218242763
 30
0.0
 10
2195.848712023093
 20
170.0686010040353
 30
0.0
 10
2195.857571799497
 20
170.1028933128197
 30
0.0
  0
LEADER
  5
FD
330
1F
100
AcDbEntity
  8
1
  6
Continuous
 62
     7
100
AcDbLeader
  3
Standard
 71
     0
 76
     1
 10
2228.857571799497
 20
210.4238933128197
 30
0.0
  0
LEADER
  5
FE
330
1F
100
AcDbEntity
  8
1
  6
Continuous
 62
     7
100
AcDbLeader
  3
Standard
 71
     0
 76
    60
 10
2233.857571799497
 20
210.4238933128197
 30
0.0
 10
2233.850485121954
 20
210.4026646301836
 30
0.0
 10
2233.829245494506
 20
210.3814963602739
 30
0.0
 10
2233.793913123161
 20
210.3604482690869
 30
0.0
 10
2233.744588161326
 20
210.3395800197012
 30
0.0
 10
2233.681410425912
 20
210.3189507654145
 30
0.0
 10
2233.604559001005
 20
210.2986189820672
 30
0.0
 10
2233.514251730237
 20
210.2786423022864
 30
0.0
 10
2233.410744599281
 20
210.2590773521197
 30
0.0
 10
2233.294331010235
 20
210.2399795905231
 30
0.0
 10
2233.165340949938
 20
210.2214031521561
 30
0.0
 10
2233.024140054592
 20
210.2034006939316
 30
0.0
 10
2232.871128573325
 20
210.186023245754
 30
0.0
 10
2232.70674023364
 20
210.1693200658694
 30
0.0
 10
2232.53144101197
 20
210.1533385012381
 30
0.0
 10
2232.345727812814
 20
210.1381238533241
 30
0.0
 10
2232.150127060213
 20
210.1237192496835
 30
0.0
 10
2231.945193205542
 20
210.110165521715
 30
0.0
 10
2231.731507155856
 20
210.0975010889184
 30
0.0
 10
2231.509674627251
 20
210.0857618499908
 30
0.0
 10
2231.280324427891
 20
210.0749810810678
 30
0.0
 10
2231.044106675587
 20
210.0651893413986
 30
0.0
 10
2230.801690954969
 20
210.0564143867226
 30
0.0
 10
2230.553764419473
 20
210.0486810905927
 30
0.0
 10
2230.301029843536
 20
210.0420113738687
 30
0.0
 10
2230.044203630497
 20
210.0364241425801
 30
0.0
 10
2229.784013781887
 20
210.0319352343351
 30
0.0
 10
2229.521197833819
 20
210.0285573734269
 30
0.0
 10
2229.256500766369
 20
210.0263001347657
 30
0.0
 10
2228.99067289185
 20
210.0251699167372
 30
0.0
 10
2228.724467727967
 20
210.025169923066
 30
0.0
 10
2228.458639861893
 20
210.0263001537342
 30
0.0
 10
2228.193942811309
 20
210.0285574049813
 30
0.0
 10
2227.93112688848
 20
210.031935278386
 30
0.0
 10
2227.67093707341
 20
210.0364241990026
 30
0.0
 10
2227.414110902118
 20
210.0420114425029
 30
0.0
 10
2227.161376376015
 20
210.048681171244
 30
0.0
 10
2226.913449898301
 20
210.0564144791624
 30
0.0
 10
2226.671034243248
 20
210.0651894453649
 30
0.0
 10
2226.434816564106
 20
210.0749811962659
 30
0.0
 10
2226.205466445297
 20
210.0857619760941
 30
0.0
 10
2225.983634004405
 20
210.0975012255694
 30
0.0
 10
2225.769948049345
 20
210.1101656685264
 30
0.0
 10
2225.565014295945
 20
210.1237194062393
 30
0.0
 10
2225.369413650973
 20
210.1381240191803
 30
0.0
 10
2225.183700565497
 20
210.1533386759247
 30
0.0
 10
2225.008401463237
 20
210.1693202488912
 30
0.0
 10
2224.844013248355
 20
210.1860234365922
 30
0.0
 10
2224.691001896928
 20
210.2034008920452
 30
0.0
 10
2224.549801136094
 20
210.2214033569836
 30
0.0
 10
2224.420811214596
 20
210.2399798014838
 30
0.0
 10
2224.304397768244
 20
210.2590775686157
 30
0.0
 10
2224.200890783473
 20
210.278642523704
 30
0.0
 10
2224.110583661966
 20
210.2986192077788
 30
0.0
 10
2224.033732388974
 20
210.3189509947802
 30
0.0
 10
2223.970554807698
 20
210.3395802520709
 30
0.0
 10
2223.921230001786
 20
210.3604485038019
 30
0.0
 10
2223.885897787708
 20
210.3814965966689
 30
0.0
 10
2223.864658318425
 20
210.4026648675885
 30
0.0
 10
2223.857571799497
 20
210.4238933128197
 30
0.0
  0
DIMENSION
  5
109
330
1F
100
AcDbEntity
  8
1
100
AcDbDimension
  2
*D3
 10
2381.857571799497
 20
236.134217827763
 30
0.0
 11
2308.31232737251
 21
239.884217827763
 31
0.0
 70
    32
  1
<>
 71
     5
 42
-1.0
 53
0.00013888888889
  3
ME10_DIM_10
100
AcDbAlignedDimension
 13
2221.857571799497
 23
209.9238933128196
 33
0.0
 14
2381.857571799497
 24
193.4229186644206
 34
0.0
100
AcDbRotatedDimension
  0
DIMENSION
  5
114
330
1F
100
AcDbEntity
  8
1
100
AcDbDimension
  2
*D4
 10
2391.90380129586
 20
191.4238933128196
 30
0.0
 11
2388.15380129586
 21
178.5226836135984
 31
0.0
 70
    32
  1
<>
 71
     5
 42
-1.0
 53
90.0
  3
ME10_DIM_11
100
AcDbAlignedDimension
 13
2374.536474447026
 23
166.4238933128197
 33
0.0
 14
2374.536474447026
 24
191.4238933128196
 34
0.0
 50
90.0
100
AcDbRotatedDimension
  0
DIMENSION
  5
11F
330
1F
100
AcDbEntity
  8
1
100
AcDbDimension
  2
*D5
 10
2374.236474447026
 20
244.354229195754
 30
0.0
 11
2288.71237373394
 21
248.104229195754
 31
0.0
 70
    32
  1
<>
 71
     5
 42
-1.0
 53
0.00013888888889
  3
ME10_DIM_12
100
AcDbAlignedDimension
 13
2189.857571799497
 23
196.5008933128196
 33
0.0
 14
2374.236474447026
 24
194.4238933128196
 34
0.0
100
AcDbRotatedDimension
  0
DIMENSION
  5
12A
330
1F
100
AcDbEntity
  8
1
100
AcDbDimension
  2
*D6
 10
2374.236474447026
 20
227.366205701906
 30
0.0
 11
2297.20638548086
 21
231.116205701906
 31
0.0
 70
    32
  1
<>
 71
     5
 42
-1.0
 53
0.00013888888889
  3
ME10_DIM_13
100
AcDbAlignedDimension
 13
2221.857571799497
 23
204.4388933128196
 33
0.0
 14
2374.236474447026
 24
194.4238933128196
 34
0.0
100
AcDbRotatedDimension
  0
DIMENSION
  5
135
330
1F
100
AcDbEntity
  8
1
100
AcDbDimension
  2
*D7
 10
2374.236474447026
 20
218.735193765516
 30
0.0
 11
2313.64640821684
 21
222.485193765516
 31
0.0
 70
    32
  1
<>
 71
     5
 42
-1.0
 53
0.00013888888889
  3
ME10_DIM_14
100
AcDbAlignedDimension
 13
2247.857571799497
 23
210.4238933128196
 33
0.0
 14
2374.236474447026
 24
194.4238933128196
 34
0.0
100
AcDbRotatedDimension
  0
DIMENSION
  5
140
330
1F
100
AcDbEntity
  8
1
100
AcDbDimension
  2
*D8
 10
2407.589521295
 20
153.4238933128198
 30
0.0
 11
2403.839521295
 21
178.90262179803
 31
0.0
 70
    32
  1
<>
 71
     5
 42
-1.0
 53
90.0
  3
ME10_DIM_15
100
AcDbAlignedDimension
 13
2253.151100605502
 23
204.4238933128196
 33
0.0
 14
2253.151100605501
 24
153.4238933128198
 34
0.0
 50
90.0
100
AcDbRotatedDimension
  0
DIMENSION
  5
14B
330
1F
100
AcDbEntity
  8
1
100
AcDbDimension
  2
*D9
 10
2400.12538269881
 20
199.9238933128196
 30
0.0
 11
2396.37538269881
 21
179.05234414118
 31
0.0
 70
    32
  1
<>
 71
     5
 42
-1.0
 53
90.0
  3
ME10_DIM_16
100
AcDbAlignedDimension
 13
2353.493833759907
 23
157.9238933128197
 33
0.0
 14
2352.578115233526
 24
199.9238933128196
 34
0.0
 50
90.0
100
AcDbRotatedDimension
  0
ENDSEC
  0
SECTION
  2
OBJECTS
  0
DICTIONARY
  5
C
330
0
100
AcDbDictionary
281
     1
  3
ACAD_GROUP
350
D
  3
ACAD_LAYOUT
350
1A
  3
ACAD_MLEADERSTYLE
350
14E
  3
ACAD_MLINESTYLE
350
17
  3
ACAD_PLOTSETTINGS
350
19
  3
ACAD_PLOTSTYLENAME
350
E
  3
ACAD_SCALELIST
350
49
  3
ACAD_VISUALSTYLE
350
2A
  3
AcDbVariableDictionary
350
14C
  0
DICTIONARY
  5
D
102
{ACAD_REACTORS
330
C
102
}
330
C
100
AcDbDictionary
281
     1
  0
DICTIONARY
  5
1A
102
{ACAD_REACTORS
330
C
102
}
330
C
100
AcDbDictionary
281
     1
  3
Layout1
350
1E
  3
Layout2
350
26
  3
Model
350
22
  0
DICTIONARY
  5
14E
102
{ACAD_REACTORS
330
C
102
}
330
C
100
AcDbDictionary
281
     1
  0
DICTIONARY
  5
17
102
{ACAD_REACTORS
330
C
102
}
330
C
100
AcDbDictionary
281
     1
  3
Standard
350
18
  0
DICTIONARY
  5
19
102
{ACAD_REACTORS
330
C
102
}
330
C
100
AcDbDictionary
281
     1
  0
ACDBDICTIONARYWDFLT
  5
E
102
{ACAD_REACTORS
330
C
102
}
330
C
100
AcDbDictionary
281
     1
  3
Normal
350
F
100
AcDbDictionaryWithDefault
340
F
  0
DICTIONARY
  5
49
102
{ACAD_REACTORS
330
C
102
}
330
C
100
AcDbDictionary
281
     1
  3
A0
350
4A
  3
A1
350
4B
  3
A2
350
4C
  3
A3
350
4D
  3
A4
350
4E
  3
A5
350
4F
  3
A6
350
50
  3
A7
350
51
  3
A8
350
52
  3
A9
350
53
  3
B0
350
54
  3
B1
350
55
  3
B2
350
56
  3
B3
350
57
  3
B4
350
58
  3
B5
350
59
  3
B6
350
5A
  3
B7
350
5B
  3
B8
350
5C
  3
B9
350
5D
  3
C0
350
5E
  3
C1
350
5F
  3
C2
350
60
  3
C3
350
61
  3
C4
350
62
  3
C5
350
63
  3
C6
350
64
  3
C7
350
65
  3
C8
350
66
  3
C9
350
67
  3
D0
350
68
  3
D1
350
69
  3
D2
350
6A
  0
DICTIONARY
  5
2A
102
{ACAD_REACTORS
330
C
102
}
330
C
100
AcDbDictionary
281
     1
  3
2dWireframe
350
2F
  3
3D Hidden
350
31
  3
3dWireframe
350
30
  3
Basic
350
32
  3
Brighten
350
36
  3
ColorChange
350
3A
  3
Conceptual
350
34
  3
Dim
350
35
  3
Facepattern
350
39
  3
Flat
350
2B
  3
FlatWithEdges
350
2C
  3
Gouraud
350
2D
  3
GouraudWithEdges
350
2E
  3
Linepattern
350
38
  3
Realistic
350
33
  3
Thicken
350
37
  0
DICTIONARY
  5
14C
102
{ACAD_REACTORS
330
C
102
}
330
C
100
AcDbDictionary
281
     1
  3
CANNOSCALE
350
14F
  0
LAYOUT
  5
1E
102
{ACAD_REACTORS
330
1A
102
}
330
1A
100
AcDbPlotSettings
  1

  2
none_device
  4

  6

 40
0.0
 41
0.0
 42
0.0
 43
0.0
 44
0.0
 45
0.0
 46
0.0
 47
0.0
 48
0.0
 49
0.0
140
0.0
141
0.0
142
1.0
143
1.0
 70
   688
 72
     0
 73
     0
 74
     5
  7

 75
    16
147
1.0
148
0.0
149
0.0
100
AcDbLayout
  1
Layout1
 70
     1
 71
     1
 10
0.0
 20
0.0
 11
12.0
 21
9.0
 12
0.0
 22
0.0
 32
0.0
 14
1.00000000000000E+20
 24
1.00000000000000E+20
 34
1.00000000000000E+20
 15
-1.00000000000000E+20
 25
-1.00000000000000E+20
 35
-1.00000000000000E+20
146
0.0
 13
0.0
 23
0.0
 33
0.0
 16
1.0
 26
0.0
 36
0.0
 17
0.0
 27
1.0
 37
0.0
 76
     0
330
1B
  0
LAYOUT
  5
26
102
{ACAD_REACTORS
330
1A
102
}
330
1A
100
AcDbPlotSettings
  1

  2
none_device
  4

  6

 40
0.0
 41
0.0
 42
0.0
 43
0.0
 44
0.0
 45
0.0
 46
0.0
 47
0.0
 48
0.0
 49
0.0
140
0.0
141
0.0
142
1.0
143
1.0
 70
   688
 72
     0
 73
     0
 74
     5
  7

 75
    16
147
1.0
148
0.0
149
0.0
100
AcDbLayout
  1
Layout2
 70
     1
 71
     2
 10
0.0
 20
0.0
 11
0.0
 21
0.0
 12
0.0
 22
0.0
 32
0.0
 14
0.0
 24
0.0
 34
0.0
 15
0.0
 25
0.0
 35
0.0
146
0.0
 13
0.0
 23
0.0
 33
0.0
 16
1.0
 26
0.0
 36
0.0
 17
0.0
 27
1.0
 37
0.0
 76
     0
330
23
  0
LAYOUT
  5
22
102
{ACAD_REACTORS
330
1A
102
}
330
1A
100
AcDbPlotSettings
  1

  2
none_device
  4

  6

 40
0.0
 41
0.0
 42
0.0
 43
0.0
 44
0.0
 45
0.0
 46
0.0
 47
0.0
 48
0.0
 49
0.0
140
0.0
141
0.0
142
1.0
143
1.0
 70
  1712
 72
     0
 73
     0
 74
     0
  7

 75
     0
147
1.0
148
0.0
149
0.0
100
AcDbLayout
  1
Model
 70
     1
 71
     0
 10
0.0
 20
0.0
 11
12.0
 21
9.0
 12
0.0
 22
0.0
 32
0.0
 14
2166.14106672084
 24
140.5994760109568
 34
0.0
 15
2409.589521295
 25
249.854229195754
 35
0.0
146
0.0
 13
0.0
 23
0.0
 33
0.0
 16
1.0
 26
0.0
 36
0.0
 17
0.0
 27
1.0
 37
0.0
 76
     0
330
1F
331
29
  0
MLINESTYLE
  5
18
102
{ACAD_REACTORS
330
17
102
}
330
17
100
AcDbMlineStyle
  2
Standard
 70
     0
  3

 62
   256
 51
90.0
 52
90.0
 71
     2
 49
0.5
 62
   256
  6
BYLAYER
 49
-0.5
 62
   256
  6
BYLAYER
  0
ACDBPLACEHOLDER
  5
F
102
{ACAD_REACTORS
330
E
102
}
330
E
  0
SCALE
  5
4A
102
{ACAD_REACTORS
330
49
102
}
330
49
100
AcDbScale
 70
     0
300
1:1
140
1.0
141
1.0
290
     1
  0
SCALE
  5
4B
102
{ACAD_REACTORS
330
49
102
}
330
49
100
AcDbScale
 70
     0
300
1:2
140
1.0
141
2.0
290
     0
  0
SCALE
  5
4C
102
{ACAD_REACTORS
330
49
102
}
330
49
100
AcDbScale
 70
     0
300
1:4
140
1.0
141
4.0
290
     0
  0
SCALE
  5
4D
102
{ACAD_REACTORS
330
49
102
}
330
49
100
AcDbScale
 70
     0
300
1:5
140
1.0
141
5.0
290
     0
  0
SCALE
  5
4E
102
{ACAD_REACTORS
330
49
102
}
330
49
100
AcDbScale
 70
     0
300
1:8
140
1.0
141
8.0
290
     0
  0
SCALE
  5
4F
102
{ACAD_REACTORS
330
49
102
}
330
49
100
AcDbScale
 70
     0
300
1:10
140
1.0
141
10.0
290
     0
  0
SCALE
  5
50
102
{ACAD_REACTORS
330
49
102
}
330
49
100
AcDbScale
 70
     0
300
1:16
140
1.0
141
16.0
290
     0
  0
SCALE
  5
51
102
{ACAD_REACTORS
330
49
102
}
330
49
100
AcDbScale
 70
     0
300
1:20
140
1.0
141
20.0
290
     0
  0
SCALE
  5
52
102
{ACAD_REACTORS
330
49
102
}
330
49
100
AcDbScale
 70
     0
300
1:30
140
1.0
141
30.0
290
     0
  0
SCALE
  5
53
102
{ACAD_REACTORS
330
49
102
}
330
49
100
AcDbScale
 70
     0
300
1:40
140
1.0
141
40.0
290
     0
  0
SCALE
  5
54
102
{ACAD_REACTORS
330
49
102
}
330
49
100
AcDbScale
 70
     0
300
1:50
140
1.0
141
50.0
290
     0
  0
SCALE
  5
55
102
{ACAD_REACTORS
330
49
102
}
330
49
100
AcDbScale
 70
     0
300
1:100
140
1.0
141
100.0
290
     0
  0
SCALE
  5
56
102
{ACAD_REACTORS
330
49
102
}
330
49
100
AcDbScale
 70
     0
300
2:1
140
2.0
141
1.0
290
     0
  0
SCALE
  5
57
102
{ACAD_REACTORS
330
49
102
}
330
49
100
AcDbScale
 70
     0
300
4:1
140
4.0
141
1.0
290
     0
  0
SCALE
  5
58
102
{ACAD_REACTORS
330
49
102
}
330
49
100
AcDbScale
 70
     0
300
8:1
140
8.0
141
1.0
290
     0
  0
SCALE
  5
59
102
{ACAD_REACTORS
330
49
102
}
330
49
100
AcDbScale
 70
     0
300
10:1
140
10.0
141
1.0
290
     0
  0
SCALE
  5
5A
102
{ACAD_REACTORS
330
49
102
}
330
49
100
AcDbScale
 70
     0
300
100:1
140
100.0
141
1.0
290
     0
  0
SCALE
  5
5B
102
{ACAD_REACTORS
330
49
102
}
330
49
100
AcDbScale
 70
     0
300
1/128" = 1'-0"
140
0.0078125
141
12.0
290
     0
  0
SCALE
  5
5C
102
{ACAD_REACTORS
330
49
102
}
330
49
100
AcDbScale
 70
     0
300
1/64" = 1'-0"
140
0.015625
141
12.0
290
     0
  0
SCALE
  5
5D
102
{ACAD_REACTORS
330
49
102
}
330
49
100
AcDbScale
 70
     0
300
1/32" = 1'-0"
140
0.03125
141
12.0
290
     0
  0
SCALE
  5
5E
102
{ACAD_REACTORS
330
49
102
}
330
49
100
AcDbScale
 70
     0
300
1/16" = 1'-0"
140
0.0625
141
12.0
290
     0
  0
SCALE
  5
5F
102
{ACAD_REACTORS
330
49
102
}
330
49
100
AcDbScale
 70
     0
300
3/32" = 1'-0"
140
0.09375
141
12.0
290
     0
  0
SCALE
  5
60
102
{ACAD_REACTORS
330
49
102
}
330
49
100
AcDbScale
 70
     0
300
1/8" = 1'-0"
140
0.125
141
12.0
290
     0
  0
SCALE
  5
61
102
{ACAD_REACTORS
330
49
102
}
330
49
100
AcDbScale
 70
     0
300
3/16" = 1'-0"
140
0.1875
141
12.0
290
     0
  0
SCALE
  5
62
102
{ACAD_REACTORS
330
49
102
}
330
49
100
AcDbScale
 70
     0
300
1/4" = 1'-0"
140
0.25
141
12.0
290
     0
  0
SCALE
  5
63
102
{ACAD_REACTORS
330
49
102
}
330
49
100
AcDbScale
 70
     0
300
3/8" = 1'-0"
140
0.375
141
12.0
290
     0
  0
SCALE
  5
64
102
{ACAD_REACTORS
330
49
102
}
330
49
100
AcDbScale
 70
     0
300
1/2" = 1'-0"
140
0.5
141
12.0
290
     0
  0
SCALE
  5
65
102
{ACAD_REACTORS
330
49
102
}
330
49
100
AcDbScale
 70
     0
300
3/4" = 1'-0"
140
0.75
141
12.0
290
     0
  0
SCALE
  5
66
102
{ACAD_REACTORS
330
49
102
}
330
49
100
AcDbScale
 70
     0
300
1" = 1'-0"
140
1.0
141
12.0
290
     0
  0
SCALE
  5
67
102
{ACAD_REACTORS
330
49
102
}
330
49
100
AcDbScale
 70
     0
300
1-1/2" = 1'-0"
140
1.5
141
12.0
290
     0
  0
SCALE
  5
68
102
{ACAD_REACTORS
330
49
102
}
330
49
100
AcDbScale
 70
     0
300
3" = 1'-0"
140
3.0
141
12.0
290
     0
  0
SCALE
  5
69
102
{ACAD_REACTORS
330
49
102
}
330
49
100
AcDbScale
 70
     0
300
6" = 1'-0"
140
6.0
141
12.0
290
     0
  0
SCALE
  5
6A
102
{ACAD_REACTORS
330
49
102
}
330
49
100
AcDbScale
 70
     0
300
1'-0" = 1'-0"
140
12.0
141
12.0
290
     0
  0
VISUALSTYLE
  5
2F
102
{ACAD_REACTORS
330
2A
102
}
330
2A
100
AcDbVisualStyle
  2
2dWireframe
 70
     4
 71
     0
 72
     2
 73
     0
 90
        0
 40
-0.6
 41
-30.0
 62
     5
 63
     7
 74
     1
 91
        4
 64
     7
 65
   257
 75
     1
175
     1
 42
1.0
 92
        0
 66
   257
 43
1.0
 76
     1
 77
     6
 78
     2
 67
     7
 79
     5
170
     0
171
     0
290
     0
174
     0
 93
        1
 44
0.0
173
     0
291
     0
 45
0.0
1001
ACAD
1000
AcDbSavedByObjectVersion
1070
     0
  0
VISUALSTYLE
  5
31
102
{ACAD_REACTORS
330
2A
102
}
330
2A
100
AcDbVisualStyle
  2
3D Hidden
 70
     6
 71
     1
 72
     2
 73
     2
 90
        0
 40
-0.6
 41
-30.0
 62
     5
 63
     7
 74
     2
 91
        2
 64
     7
 65
   257
 75
     2
175
     1
 42
40.0
 92
        0
 66
   257
 43
1.0
 76
     1
 77
     6
 78
     2
 67
     7
 79
     3
170
     0
171
     0
290
     0
174
     0
 93
        1
 44
0.0
173
     0
291
     0
 45
0.0
1001
ACAD
1000
AcDbSavedByObjectVersion
1070
     0
  0
VISUALSTYLE
  5
30
102
{ACAD_REACTORS
330
2A
102
}
330
2A
100
AcDbVisualStyle
  2
3dWireframe
 70
     5
 71
     0
 72
     2
 73
     0
 90
        0
 40
-0.6
 41
-30.0
 62
     5
 63
     7
 74
     1
 91
        4
 64
     7
 65
   257
 75
     1
175
     1
 42
1.0
 92
        0
 66
   257
 43
1.0
 76
     1
 77
     6
 78
     2
 67
     7
 79
     5
170
     0
171
     0
290
     0
174
     0
 93
        1
 44
0.0
173
     0
291
     0
 45
0.0
1001
ACAD
1000
AcDbSavedByObjectVersion
1070
     0
  0
VISUALSTYLE
  5
32
102
{ACAD_REACTORS
330
2A
102
}
330
2A
100
AcDbVisualStyle
  2
Basic
 70
     7
 71
     1
 72
     0
 73
     1
 90
        0
 40
-0.6
 41
-30.0
 62
     5
 63
     7
 74
     0
 91
        4
 64
     7
 65
   257
 75
     1
175
     1
 42
1.0
 92
        8
 66
     7
 43
1.0
 76
     1
 77
     6
 78
     2
 67
     7
 79
     5
170
     0
171
     0
290
     0
174
     0
 93
        1
 44
0.0
173
     0
291
     1
 45
0.0
1001
ACAD
1000
AcDbSavedByObjectVersion
1070
     0
  0
VISUALSTYLE
  5
36
102
{ACAD_REACTORS
330
2A
102
}
330
2A
100
AcDbVisualStyle
  2
Brighten
 70
    12
 71
     2
 72
     2
 73
     0
 90
        0
 40
-0.6
 41
-30.0
 62
     5
 63
     7
 74
     1
 91
        4
 64
     7
 65
   257
 75
     1
175
     1
 42
1.0
 92
        8
 66
     7
 43
1.0
 76
     1
 77
     6
 78
     2
 67
     7
 79
     5
170
     0
171
     0
290
     0
174
     0
 93
        1
 44
50.0
173
     0
291
     1
 45
0.0
1001
ACAD
1000
AcDbSavedByObjectVersion
1070
     0
  0
VISUALSTYLE
  5
3A
102
{ACAD_REACTORS
330
2A
102
}
330
2A
100
AcDbVisualStyle
  2
ColorChange
 70
    16
 71
     2
 72
     2
 73
     3
 90
        0
 40
-0.6
 41
-30.0
 62
     5
 63
     8
 74
     1
 91
        4
 64
     7
 65
   257
 75
     1
175
     1
 42
1.0
 92
        8
 66
     8
 43
1.0
 76
     1
 77
     6
 78
     2
 67
     7
 79
     5
170
     0
171
     0
290
     0
174
     0
 93
        1
 44
0.0
173
     0
291
     1
 45
0.0
1001
ACAD
1000
AcDbSavedByObjectVersion
1070
     0
  0
VISUALSTYLE
  5
34
102
{ACAD_REACTORS
330
2A
102
}
330
2A
100
AcDbVisualStyle
  2
Conceptual
 70
     9
 71
     3
 72
     2
 73
     0
 90
        0
 40
-0.6
 41
-30.0
 62
     5
 63
     7
 74
     2
 91
        2
 64
     7
 65
   257
 75
     1
175
     1
 42
40.0
 92
        8
 66
     7
 43
1.0
 76
     1
 77
     6
 78
     2
 67
     7
 79
     3
170
     0
171
     0
290
     0
174
     0
 93
        1
 44
0.0
173
     0
291
     0
 45
0.0
1001
ACAD
1000
AcDbSavedByObjectVersion
1070
     0
  0
VISUALSTYLE
  5
35
102
{ACAD_REACTORS
330
2A
102
}
330
2A
100
AcDbVisualStyle
  2
Dim
 70
    11
 71
     2
 72
     2
 73
     0
 90
        0
 40
-0.6
 41
-30.0
 62
     5
 63
     7
 74
     1
 91
        4
 64
     7
 65
   257
 75
     1
175
     1
 42
1.0
 92
        8
 66
     7
 43
1.0
 76
     1
 77
     6
 78
     2
 67
     7
 79
     5
170
     0
171
     0
290
     0
174
     0
 93
        1
 44
-50.0
173
     0
291
     1
 45
0.0
1001
ACAD
1000
AcDbSavedByObjectVersion
1070
     0
  0
VISUALSTYLE
  5
39
102
{ACAD_REACTORS
330
2A
102
}
330
2A
100
AcDbVisualStyle
  2
Facepattern
 70
    15
 71
     2
 72
     2
 73
     0
 90
        0
 40
-0.6
 41
-30.0
 62
     5
 63
     7
 74
     1
 91
        4
 64
     7
 65
   257
 75
     1
175
     1
 42
1.0
 92
        8
 66
     7
 43
1.0
 76
     1
 77
     6
 78
     2
 67
     7
 79
     5
170
     0
171
     0
290
     0
174
     0
 93
        1
 44
0.0
173
     0
291
     1
 45
0.0
1001
ACAD
1000
AcDbSavedByObjectVersion
1070
     0
  0
VISUALSTYLE
  5
2B
102
{ACAD_REACTORS
330
2A
102
}
330
2A
100
AcDbVisualStyle
  2
Flat
 70
     0
 71
     2
 72
     1
 73
     1
 90
        2
 40
-0.6
 41
30.0
 62
     5
 63
     7
 74
     0
 91
        4
 64
     7
 65
   257
 75
     1
175
     1
 42
1.0
 92
        8
 66
     7
 43
1.0
 76
     1
 77
     6
 78
     2
 67
     7
 79
     5
170
     0
171
     0
290
     0
174
     0
 93
       13
 44
0.0
173
     0
291
     1
 45
0.0
1001
ACAD
1000
AcDbSavedByObjectVersion
1070
     0
  0
VISUALSTYLE
  5
2C
102
{ACAD_REACTORS
330
2A
102
}
330
2A
100
AcDbVisualStyle
  2
FlatWithEdges
 70
     1
 71
     2
 72
     1
 73
     1
 90
        2
 40
-0.6
 41
30.0
 62
     5
 63
     7
 74
     1
 91
        4
 64
     7
 65
   257
 75
     1
175
     1
 42
1.0
 92
        0
 66
   257
 43
1.0
 76
     1
 77
     6
 78
     2
 67
     7
 79
     5
170
     0
171
     0
290
     0
174
     0
 93
       13
 44
0.0
173
     0
291
     1
 45
0.0
1001
ACAD
1000
AcDbSavedByObjectVersion
1070
     0
  0
VISUALSTYLE
  5
2D
102
{ACAD_REACTORS
330
2A
102
}
330
2A
100
AcDbVisualStyle
  2
Gouraud
 70
     2
 71
     2
 72
     2
 73
     1
 90
        2
 40
-0.6
 41
30.0
 62
     5
 63
     7
 74
     0
 91
        4
 64
     7
 65
   257
 75
     1
175
     1
 42
1.0
 92
        0
 66
     7
 43
1.0
 76
     1
 77
     6
 78
     2
 67
     7
 79
     5
170
     0
171
     0
290
     0
174
     0
 93
       13
 44
0.0
173
     0
291
     1
 45
0.0
1001
ACAD
1000
AcDbSavedByObjectVersion
1070
     0
  0
VISUALSTYLE
  5
2E
102
{ACAD_REACTORS
330
2A
102
}
330
2A
100
AcDbVisualStyle
  2
GouraudWithEdges
 70
     3
 71
     2
 72
     2
 73
     1
 90
        2
 40
-0.6
 41
30.0
 62
     5
 63
     7
 74
     1
 91
        4
 64
     7
 65
   257
 75
     1
175
     1
 42
1.0
 92
        0
 66
   257
 43
1.0
 76
     1
 77
     6
 78
     2
 67
     7
 79
     5
170
     0
171
     0
290
     0
174
     0
 93
       13
 44
0.0
173
     0
291
     1
 45
0.0
1001
ACAD
1000
AcDbSavedByObjectVersion
1070
     0
  0
VISUALSTYLE
  5
38
102
{ACAD_REACTORS
330
2A
102
}
330
2A
100
AcDbVisualStyle
  2
Linepattern
 70
    14
 71
     2
 72
     2
 73
     0
 90
        0
 40
-0.6
 41
-30.0
 62
     5
 63
     7
 74
     1
 91
        4
 64
     7
 65
   257
 75
     7
175
     7
 42
1.0
 92
        8
 66
     7
 43
1.0
 76
     1
 77
     6
 78
     2
 67
     7
 79
     5
170
     0
171
     0
290
     0
174
     0
 93
        1
 44
0.0
173
     0
291
     1
 45
0.0
1001
ACAD
1000
AcDbSavedByObjectVersion
1070
     0
  0
VISUALSTYLE
  5
33
102
{ACAD_REACTORS
330
2A
102
}
330
2A
100
AcDbVisualStyle
  2
Realistic
 70
     8
 71
     2
 72
     2
 73
     0
 90
        0
 40
-0.6
 41
-30.0
 62
     5
 63
     7
 74
     1
 91
        0
 64
     7
 65
   257
 75
     1
175
     1
 42
1.0
 92
        8
 66
     8
 43
1.0
 76
     1
 77
     6
 78
     2
 67
     7
 79
     5
170
     0
171
     0
290
     0
174
     0
 93
       13
 44
0.0
173
     0
291
     0
 45
0.0
1001
ACAD
1000
AcDbSavedByObjectVersion
1070
     0
  0
VISUALSTYLE
  5
37
102
{ACAD_REACTORS
330
2A
102
}
330
2A
100
AcDbVisualStyle
  2
Thicken
 70
    13
 71
     2
 72
     2
 73
     0
 90
        0
 40
-0.6
 41
-30.0
 62
     5
 63
     7
 74
     1
 91
        4
 64
     7
 65
   257
 75
     1
175
     1
 42
1.0
 92
       12
 66
     7
 43
1.0
 76
     1
 77
     6
 78
     2
 67
     7
 79
     5
170
     0
171
     0
290
     0
174
     0
 93
        1
 44
0.0
173
     0
291
     1
 45
0.0
1001
ACAD
1000
AcDbSavedByObjectVersion
1070
     0
  0
DICTIONARYVAR
  5
14F
102
{ACAD_REACTORS
330
14C
102
}
330
14C
100
DictionaryVariables
280
     0
  1
1:1
  0
ENDSEC
  0
EOF
