  0
SECTION
  2
HEADER
  9
$ACADVER
  1
AC1015
  9
$ACADMAINTVER
 70
     6
  9
$DWGCODEPAGE
  3
ANSI_1252
  9
$INSBASE
 10
0.0
 20
0.0
 30
0.0
  9
$EXTMIN
 10
4.0490635138232
 20
241.4065737680618
 30
0.0
  9
$EXTMAX
 10
239.01751672361
 20
350.175960685368
 30
0.0
  9
$LIMMIN
 10
0.0
 20
0.0
  9
$LIMMAX
 10
12.0
 20
9.0
  9
$ORTHOMODE
 70
     0
  9
$REGENMODE
 70
     1
  9
$FILLMODE
 70
     1
  9
$QTEXTMODE
 70
     0
  9
$MIRRTEXT
 70
     1
  9
$LTSCALE
 40
1.0
  9
$ATTMODE
 70
     1
  9
$TEXTSIZE
 40
0.2
  9
$TRACEWID
 40
0.05
  9
$TEXTSTYLE
  7
Standard
  9
$CLAYER
  8
0
  9
$CELTYPE
  6
ByLayer
  9
$CECOLOR
 62
   256
  9
$CELTSCALE
 40
1.0
  9
$DISPSILH
 70
     0
  9
$DIMSCALE
 40
1.0
  9
$DIMASZ
 40
0.18
  9
$DIMEXO
 40
0.0625
  9
$DIMDLI
 40
0.38
  9
$DIMRND
 40
0.0
  9
$DIMDLE
 40
0.0
  9
$DIMEXE
 40
0.18
  9
$DIMTP
 40
0.0
  9
$DIMTM
 40
0.0
  9
$DIMTXT
 40
0.18
  9
$DIMCEN
 40
0.09
  9
$DIMTSZ
 40
0.0
  9
$DIMTOL
 70
     0
  9
$DIMLIM
 70
     0
  9
$DIMTIH
 70
     1
  9
$DIMTOH
 70
     1
  9
$DIMSE1
 70
     0
  9
$DIMSE2
 70
     0
  9
$DIMTAD
 70
     0
  9
$DIMZIN
 70
     0
  9
$DIMBLK
  1

  9
$DIMASO
 70
     1
  9
$DIMSHO
 70
     1
  9
$DIMPOST
  1

  9
$DIMAPOST
  1

  9
$DIMALT
 70
     0
  9
$DIMALTD
 70
     2
  9
$DIMALTF
 40
25.4
  9
$DIMLFAC
 40
1.0
  9
$DIMTOFL
 70
     0
  9
$DIMTVP
 40
0.0
  9
$DIMTIX
 70
     0
  9
$DIMSOXD
 70
     0
  9
$DIMSAH
 70
     0
  9
$DIMBLK1
  1

  9
$DIMBLK2
  1

  9
$DIMSTYLE
  2
Standard
  9
$DIMCLRD
 70
     0
  9
$DIMCLRE
 70
     0
  9
$DIMCLRT
 70
     0
  9
$DIMTFAC
 40
1.0
  9
$DIMGAP
 40
0.09
  9
$DIMJUST
 70
     0
  9
$DIMSD1
 70
     0
  9
$DIMSD2
 70
     0
  9
$DIMTOLJ
 70
     1
  9
$DIMTZIN
 70
     0
  9
$DIMALTZ
 70
     0
  9
$DIMALTTZ
 70
     0
  9
$DIMUPT
 70
     0
  9
$DIMDEC
 70
     4
  9
$DIMTDEC
 70
     4
  9
$DIMALTU
 70
     2
  9
$DIMALTTD
 70
     2
  9
$DIMTXSTY
  7
Standard
  9
$DIMAUNIT
 70
     0
  9
$DIMADEC
 70
     0
  9
$DIMALTRND
 40
0.0
  9
$DIMAZIN
 70
     0
  9
$DIMDSEP
 70
    46
  9
$DIMATFIT
 70
     3
  9
$DIMFRAC
 70
     0
  9
$DIMLDRBLK
  1

  9
$DIMLUNIT
 70
     2
  9
$DIMLWD
 70
    -2
  9
$DIMLWE
 70
    -2
  9
$DIMTMOVE
 70
     0
  9
$LUNITS
 70
     2
  9
$LUPREC
 70
     4
  9
$SKETCHINC
 40
0.1
  9
$FILLETRAD
 40
0.5
  9
$AUNITS
 70
     0
  9
$AUPREC
 70
     0
  9
$MENU
  1
.
  9
$ELEVATION
 40
0.0
  9
$PELEVATION
 40
0.0
  9
$THICKNESS
 40
0.0
  9
$LIMCHECK
 70
     0
  9
$CHAMFERA
 40
0.5
  9
$CHAMFERB
 40
0.5
  9
$CHAMFERC
 40
1.0
  9
$CHAMFERD
 40
0.0
  9
$SKPOLY
 70
     0
  9
$TDCREATE
 40
2456749.750876748
  9
$TDUCREATE
 40
2456749.667543415
  9
$TDUPDATE
 40
2456749.750876759
  9
$TDUUPDATE
 40
2456749.667543426
  9
$TDINDWG
 40
0.0000000116
  9
$TDUSRTIMER
 40
0.0000000116
  9
$USRTIMER
 70
     1
  9
$ANGBASE
 50
0.0
  9
$ANGDIR
 70
     0
  9
$PDMODE
 70
     0
  9
$PDSIZE
 40
0.0
  9
$PLINEWID
 40
0.0
  9
$SPLFRAME
 70
     0
  9
$SPLINETYPE
 70
     6
  9
$SPLINESEGS
 70
     8
  9
$HANDSEED
  5
17A
  9
$SURFTAB1
 70
     6
  9
$SURFTAB2
 70
     6
  9
$SURFTYPE
 70
     6
  9
$SURFU
 70
     6
  9
$SURFV
 70
     6
  9
$UCSBASE
  2

  9
$UCSNAME
  2

  9
$UCSORG
 10
0.0
 20
0.0
 30
0.0
  9
$UCSXDIR
 10
1.0
 20
0.0
 30
0.0
  9
$UCSYDIR
 10
0.0
 20
1.0
 30
0.0
  9
$UCSORTHOREF
  2

  9
$UCSORTHOVIEW
 70
     0
  9
$UCSORGTOP
 10
0.0
 20
0.0
 30
0.0
  9
$UCSORGBOTTOM
 10
0.0
 20
0.0
 30
0.0
  9
$UCSORGLEFT
 10
0.0
 20
0.0
 30
0.0
  9
$UCSORGRIGHT
 10
0.0
 20
0.0
 30
0.0
  9
$UCSORGFRONT
 10
0.0
 20
0.0
 30
0.0
  9
$UCSORGBACK
 10
0.0
 20
0.0
 30
0.0
  9
$PUCSBASE
  2

  9
$PUCSNAME
  2

  9
$PUCSORG
 10
0.0
 20
0.0
 30
0.0
  9
$PUCSXDIR
 10
1.0
 20
0.0
 30
0.0
  9
$PUCSYDIR
 10
0.0
 20
1.0
 30
0.0
  9
$PUCSORTHOREF
  2

  9
$PUCSORTHOVIEW
 70
     0
  9
$PUCSORGTOP
 10
0.0
 20
0.0
 30
0.0
  9
$PUCSORGBOTTOM
 10
0.0
 20
0.0
 30
0.0
  9
$PUCSORGLEFT
 10
0.0
 20
0.0
 30
0.0
  9
$PUCSORGRIGHT
 10
0.0
 20
0.0
 30
0.0
  9
$PUCSORGFRONT
 10
0.0
 20
0.0
 30
0.0
  9
$PUCSORGBACK
 10
0.0
 20
0.0
 30
0.0
  9
$USERI1
 70
     0
  9
$USERI2
 70
     0
  9
$USERI3
 70
     0
  9
$USERI4
 70
     0
  9
$USERI5
 70
     0
  9
$USERR1
 40
16.5
  9
$USERR2
 40
0.0
  9
$USERR3
 40
0.0
  9
$USERR4
 40
0.0
  9
$USERR5
 40
0.0
  9
$WORLDVIEW
 70
     1
  9
$SHADEDGE
 70
     3
  9
$SHADEDIF
 70
    70
  9
$TILEMODE
 70
     1
  9
$MAXACTVP
 70
    64
  9
$PINSBASE
 10
0.0
 20
0.0
 30
0.0
  9
$PLIMCHECK
 70
     0
  9
$PEXTMIN
 10
1.00000000000000E+20
 20
1.00000000000000E+20
 30
1.00000000000000E+20
  9
$PEXTMAX
 10
-1.00000000000000E+20
 20
-1.00000000000000E+20
 30
-1.00000000000000E+20
  9
$PLIMMIN
 10
0.0
 20
0.0
  9
$PLIMMAX
 10
12.0
 20
9.0
  9
$UNITMODE
 70
     0
  9
$VISRETAIN
 70
     1
  9
$PLINEGEN
 70
     0
  9
$PSLTSCALE
 70
     1
  9
$TREEDEPTH
 70
  3020
  9
$CMLSTYLE
  2
Standard
  9
$CMLJUST
 70
     0
  9
$CMLSCALE
 40
1.0
  9
$PROXYGRAPHICS
 70
     1
  9
$MEASUREMENT
 70
     1
  9
$CELWEIGHT
370
    -1
  9
$ENDCAPS
280
     0
  9
$JOINSTYLE
280
     0
  9
$LWDISPLAY
290
     0
  9
$INSUNITS
 70
     1
  9
$HYPERLINKBASE
  1

  9
$STYLESHEET
  1

  9
$XEDIT
290
     1
  9
$CEPSNTYPE
380
     0
  9
$PSTYLEMODE
290
     1
  9
$FINGERPRINTGUID
  2
{620663D1-FBB7-4926-909A-DB9AF0F43B69}
  9
$VERSIONGUID
  2
{FAEB1C32-E019-11D5-929B-00C0DF256EC4}
  9
$EXTNAMES
290
     1
  9
$PSVPSCALE
 40
0.0
  9
$OLESTARTUP
290
     0
  0
ENDSEC
  0
SECTION
  2
CLASSES
  0
CLASS
  1
ACDBDICTIONARYWDFLT
  2
AcDbDictionaryWithDefault
  3
ObjectDBX Classes
 90
        0
280
     0
281
     0
  0
CLASS
  1
VISUALSTYLE
  2
AcDbVisualStyle
  3
ObjectDBX Classes
 90
     4095
280
     0
281
     0
  0
CLASS
  1
SCALE
  2
AcDbScale
  3
ObjectDBX Classes
 90
     1153
280
     0
281
     0
  0
CLASS
  1

  2
exOdDbPolyline
  3

 90
        0
280
     0
281
     1
  0
CLASS
  1

  2
exOdDbCircle
  3

 90
        0
280
     0
281
     1
  0
CLASS
  1

  2
exOdDbSpline
  3

 90
        0
280
     0
281
     1
  0
CLASS
  1
DICTIONARYVAR
  2
AcDbDictionaryVar
  3
ObjectDBX Classes
 90
        0
280
     0
281
     0
  0
CLASS
  1
ACDBPLACEHOLDER
  2
AcDbPlaceHolder
  3
ObjectDBX Classes
 90
        0
280
     0
281
     0
  0
CLASS
  1
LAYOUT
  2
AcDbLayout
  3
ObjectDBX Classes
 90
        0
280
     0
281
     0
  0
ENDSEC
  0
SECTION
  2
TABLES
  0
TABLE
  2
VPORT
  5
8
330
0
100
AcDbSymbolTable
 70
     1
  0
VPORT
  5
29
330
8
100
AcDbSymbolTableRecord
100
AcDbViewportTableRecord
  2
*Active
 70
     0
 10
0.0
 20
0.0
 11
1.0
 21
1.0
 12
121.5332901187166
 22
295.7912672267149
 13
0.0
 23
0.0
 14
0.5
 24
0.5
 15
0.5
 25
0.5
 16
0.0
 26
0.0
 36
1.0
 17
0.0
 27
0.0
 37
0.0
 40
161.2708269384164
 41
1.60267857142857
 42
50.0
 43
0.0
 44
0.0
 50
0.0
 51
0.0
 71
     0
 72
   100
 73
     1
 74
     3
 75
     0
 76
     0
 77
     0
 78
     0
281
     0
 65
     1
110
0.0
120
0.0
130
0.0
111
1.0
121
0.0
131
0.0
112
0.0
122
1.0
132
0.0
 79
     0
146
0.0
  0
ENDTAB
  0
TABLE
  2
LTYPE
  5
5
330
0
100
AcDbSymbolTable
 70
     8
  0
LTYPE
  5
14
330
5
100
AcDbSymbolTableRecord
100
AcDbLinetypeTableRecord
  2
ByBlock
 70
     0
  3

 72
    65
 73
     0
 40
0.0
  0
LTYPE
  5
15
330
5
100
AcDbSymbolTableRecord
100
AcDbLinetypeTableRecord
  2
ByLayer
 70
     0
  3

 72
    65
 73
     0
 40
0.0
  0
LTYPE
  5
16
330
5
100
AcDbSymbolTableRecord
100
AcDbLinetypeTableRecord
  2
Continuous
 70
     0
  3
Solid line
 72
    65
 73
     0
 40
0.0
  0
LTYPE
  5
3B
330
5
100
AcDbSymbolTableRecord
100
AcDbLinetypeTableRecord
  2
DASHED
 70
     0
  3
Dashed
 72
    65
 73
     2
 40
15.0
 49
7.0
 74
     0
 49
-8.0
 74
     0
  0
LTYPE
  5
3C
330
5
100
AcDbSymbolTableRecord
100
AcDbLinetypeTableRecord
  2
DOTTED
 70
     0
  3
Dotted
 72
    65
 73
     2
 40
1.0
 49
0.0
 74
     0
 49
-1.0
 74
     0
  0
LTYPE
  5
3D
330
5
100
AcDbSymbolTableRecord
100
AcDbLinetypeTableRecord
  2
DOT_CENTER
 70
     0
  3
Dot_Center
 72
    65
 73
     4
 40
14.0
 49
12.0
 74
     0
 49
-1.0
 74
     0
 49
0.0
 74
     0
 49
-1.0
 74
     0
  0
LTYPE
  5
3E
330
5
100
AcDbSymbolTableRecord
100
AcDbLinetypeTableRecord
  2
LONG_DASHED
 70
     0
  3
Long_Dashed
 72
    65
 73
     2
 40
15.0
 49
10.0
 74
     0
 49
-5.0
 74
     0
  0
LTYPE
  5
3F
330
5
100
AcDbSymbolTableRecord
100
AcDbLinetypeTableRecord
  2
DASH_CENTER
 70
     0
  3
Dash_Center
 72
    65
 73
     4
 40
14.0
 49
11.0
 74
     0
 49
-1.0
 74
     0
 49
1.0
 74
     0
 49
-1.0
 74
     0
  0
LTYPE
  5
40
330
5
100
AcDbSymbolTableRecord
100
AcDbLinetypeTableRecord
  2
PHANTOM
 70
     0
  3
Phantom
 72
    65
 73
     6
 40
13.0
 49
10.0
 74
     0
 49
-1.0
 74
     0
 49
0.0
 74
     0
 49
-1.0
 74
     0
 49
0.0
 74
     0
 49
-1.0
 74
     0
  0
LTYPE
  5
41
330
5
100
AcDbSymbolTableRecord
100
AcDbLinetypeTableRecord
  2
CENTER_DASH_DASH
 70
     0
  3
Center_Dash_Dash
 72
    65
 73
     6
 40
14.0
 49
9.0
 74
     0
 49
-1.0
 74
     0
 49
1.0
 74
     0
 49
-1.0
 74
     0
 49
1.0
 74
     0
 49
-1.0
 74
     0
  0
ENDTAB
  0
TABLE
  2
LAYER
  5
2
330
0
100
AcDbSymbolTable
 70
     8
  0
LAYER
  5
10
330
2
100
AcDbSymbolTableRecord
100
AcDbLayerTableRecord
  2
0
 70
     0
 62
     7
  6
Continuous
370
    -3
390
F
  0
LAYER
  5
42
330
2
100
AcDbSymbolTableRecord
100
AcDbLayerTableRecord
  2
1
 70
     0
 62
     7
  6
Continuous
370
    -3
390
F
  0
LAYER
  5
43
330
2
100
AcDbSymbolTableRecord
100
AcDbLayerTableRecord
  2
BEZUGSACHSEN
 70
     0
 62
     7
  6
Continuous
370
    -3
390
F
  0
LAYER
  5
44
330
2
100
AcDbSymbolTableRecord
100
AcDbLayerTableRecord
  2
BG_STARTBEZUEGE
 70
     0
 62
     7
  6
Continuous
370
    -3
390
F
  0
LAYER
  5
45
330
2
100
AcDbSymbolTableRecord
100
AcDbLayerTableRecord
  2
DEFAULT_2
 70
     0
 62
     7
  6
Continuous
370
    -3
390
F
  0
LAYER
  5
46
330
2
100
AcDbSymbolTableRecord
100
AcDbLayerTableRecord
  2
FASEN
 70
     0
 62
     7
  6
Continuous
370
    -3
390
F
  0
LAYER
  5
47
330
2
100
AcDbSymbolTableRecord
100
AcDbLayerTableRecord
  2
RUNDUNGEN
 70
     0
 62
     7
  6
Continuous
370
    -3
390
F
  0
LAYER
  5
48
330
2
100
AcDbSymbolTableRecord
100
AcDbLayerTableRecord
  2
VERERBUNG
 70
     0
 62
     7
  6
Continuous
370
    -3
390
F
  0
ENDTAB
  0
TABLE
  2
STYLE
  5
3
330
0
100
AcDbSymbolTable
 70
     2
  0
STYLE
  5
11
330
3
100
AcDbSymbolTableRecord
100
AcDbTextStyleTableRecord
  2
Standard
 70
     0
 40
0.0
 41
1.0
 50
0.0
 71
     0
 42
0.2
  3
txt
  4

  0
STYLE
  5
6F
330
3
100
AcDbSymbolTableRecord
100
AcDbTextStyleTableRecord
  2
CONVERTER_11
 70
     0
 40
0.0
 41
0.72
 50
0.0
 71
     0
 42
0.2
  3
txt.shx
  4

  0
ENDTAB
  0
TABLE
  2
VIEW
  5
6
330
0
100
AcDbSymbolTable
 70
     0
  0
ENDTAB
  0
TABLE
  2
UCS
  5
7
330
0
100
AcDbSymbolTable
 70
     0
  0
ENDTAB
  0
TABLE
  2
APPID
  5
9
330
0
100
AcDbSymbolTable
 70
     1
  0
APPID
  5
12
330
9
100
AcDbSymbolTableRecord
100
AcDbRegAppTableRecord
  2
ACAD
 70
     0
  0
ENDTAB
  0
TABLE
  2
DIMSTYLE
  5
A
330
0
100
AcDbSymbolTable
 70
     7
100
AcDbDimStyleTable
  0
DIMSTYLE
105
27
330
A
100
AcDbSymbolTableRecord
100
AcDbDimStyleTableRecord
  2
Standard
 70
     0
340
11
  0
DIMSTYLE
105
136
102
{ACAD_REACTORS
330
137
102
}
330
A
100
AcDbSymbolTableRecord
100
AcDbDimStyleTableRecord
  2
ME10_DIM_10
 70
     0
  3
\U+2300<>
 41
3.5
 42
2.0
 44
2.0
 71
     1
 73
     0
 74
     0
 77
     1
 78
     8
140
3.5
146
0.7
147
2.0
172
     1
173
     1
176
     2
177
     2
178
     3
271
     2
272
     0
340
6F
  0
DIMSTYLE
105
141
102
{ACAD_REACTORS
330
142
102
}
330
A
100
AcDbSymbolTableRecord
100
AcDbDimStyleTableRecord
  2
ME10_DIM_11
 70
     0
  3
ER<>
 41
3.5
 42
2.0
 44
2.0
 71
     1
 73
     0
 74
     0
 77
     1
 78
     8
140
3.5
146
0.7
147
2.0
172
     1
173
     1
176
     2
177
     2
178
     3
271
     2
272
     0
340
6F
  0
DIMSTYLE
105
14C
102
{ACAD_REACTORS
330
14D
102
}
330
A
100
AcDbSymbolTableRecord
100
AcDbDimStyleTableRecord
  2
ME10_DIM_12
 70
     0
  3
<>
 41
3.5
 42
2.0
 44
2.0
 71
     1
 73
     0
 74
     0
 77
     1
 78
     8
140
3.5
146
0.7
147
2.0
172
     1
173
     1
176
     2
177
     2
178
     3
271
     2
272
     0
340
6F
  0
DIMSTYLE
105
157
102
{ACAD_REACTORS
330
158
102
}
330
A
100
AcDbSymbolTableRecord
100
AcDbDimStyleTableRecord
  2
ME10_DIM_13
 70
     0
  3
<>
 41
3.5
 42
2.0
 44
2.0
 71
     1
 73
     0
 74
     0
 77
     1
 78
     8
140
3.5
146
0.7
147
2.0
172
     1
173
     1
176
     2
177
     2
178
     3
271
     2
272
     0
340
6F
  0
DIMSTYLE
105
162
102
{ACAD_REACTORS
330
163
102
}
330
A
100
AcDbSymbolTableRecord
100
AcDbDimStyleTableRecord
  2
ME10_DIM_14
 70
     0
  3
<>
 41
3.5
 42
2.0
 44
2.0
 71
     1
 73
     0
 74
     0
 77
     1
 78
     8
140
3.5
146
0.7
147
2.0
172
     1
173
     1
176
     2
177
     2
178
     3
271
     2
272
     0
340
6F
  0
DIMSTYLE
105
16D
102
{ACAD_REACTORS
330
16E
102
}
330
A
100
AcDbSymbolTableRecord
100
AcDbDimStyleTableRecord
  2
ME10_DIM_15
 70
     0
  3
<>
 41
3.5
 42
2.0
 44
2.0
 71
     1
 73
     0
 74
     0
 77
     1
 78
     8
140
3.5
146
0.7
147
2.0
172
     1
173
     1
176
     2
177
     2
178
     3
271
     2
272
     0
340
6F
  0
ENDTAB
  0
TABLE
  2
BLOCK_RECORD
  5
1
330
0
100
AcDbSymbolTable
 70
     9
  0
BLOCK_RECORD
  5
1F
330
1
100
AcDbSymbolTableRecord
100
AcDbBlockTableRecord
  2
*Model_Space
340
22
  0
BLOCK_RECORD
  5
1B
330
1
100
AcDbSymbolTableRecord
100
AcDbBlockTableRecord
  2
*Paper_Space
340
1E
  0
BLOCK_RECORD
  5
23
330
1
100
AcDbSymbolTableRecord
100
AcDbBlockTableRecord
  2
*Paper_Space0
340
26
  0
BLOCK_RECORD
  5
49
330
1
100
AcDbSymbolTableRecord
100
AcDbBlockTableRecord
  2
Urheberrecht_DE-EN
340
0
102
{BLKREFS
331
6E
102
}
  0
BLOCK_RECORD
  5
12D
330
1
100
AcDbSymbolTableRecord
100
AcDbBlockTableRecord
  2
*D2
340
0
  0
BLOCK_RECORD
  5
138
330
1
100
AcDbSymbolTableRecord
100
AcDbBlockTableRecord
  2
*D3
340
0
  0
BLOCK_RECORD
  5
143
330
1
100
AcDbSymbolTableRecord
100
AcDbBlockTableRecord
  2
*D4
340
0
  0
BLOCK_RECORD
  5
14E
330
1
100
AcDbSymbolTableRecord
100
AcDbBlockTableRecord
  2
*D5
340
0
  0
BLOCK_RECORD
  5
159
330
1
100
AcDbSymbolTableRecord
100
AcDbBlockTableRecord
  2
*D6
340
0
  0
BLOCK_RECORD
  5
164
330
1
100
AcDbSymbolTableRecord
100
AcDbBlockTableRecord
  2
*D7
340
0
  0
BLOCK_RECORD
  5
16F
330
1
100
AcDbSymbolTableRecord
100
AcDbBlockTableRecord
  2
*D8
340
0
102
{BLKREFS
331
175
102
}
  0
ENDTAB
  0
ENDSEC
  0
SECTION
  2
BLOCKS
  0
BLOCK
  5
20
330
1F
100
AcDbEntity
  8
0
100
AcDbBlockBegin
  2
*Model_Space
 70
     0
 10
0.0
 20
0.0
 30
0.0
  3
*Model_Space
  1

  0
ENDBLK
  5
21
330
1F
100
AcDbEntity
  8
0
100
AcDbBlockEnd
  0
BLOCK
  5
1C
330
1B
100
AcDbEntity
 67
     1
  8
0
100
AcDbBlockBegin
  2
*Paper_Space
 70
     0
 10
0.0
 20
0.0
 30
0.0
  3
*Paper_Space
  1

  0
ENDBLK
  5
1D
330
1B
100
AcDbEntity
 67
     1
  8
0
100
AcDbBlockEnd
  0
BLOCK
  5
24
330
23
100
AcDbEntity
  8
0
100
AcDbBlockBegin
  2
*Paper_Space0
 70
     0
 10
0.0
 20
0.0
 30
0.0
  3
*Paper_Space0
  1

  0
ENDBLK
  5
25
330
23
100
AcDbEntity
  8
0
100
AcDbBlockEnd
  0
BLOCK
  5
4A
330
49
100
AcDbEntity
  8
0
100
AcDbBlockBegin
  2
Urheberrecht_DE-EN
 70
     0
 10
18.0490635138232
 20
297.695960685368
 30
0.0
  3
Urheberrecht_DE-EN
  1

  0
MTEXT
  5
70
330
49
100
AcDbEntity
  8
1
 62
     1
100
AcDbMText
 10
18.0490635138232
 20
297.695960685368
 30
0.0
 40
2.0
 41
0.0
 71
     7
 72
     1
  1
We own the copyright of this document. It \Pdetermined and may neither be copied or \Pmade accessible to outsiders without our\Ppermission.
  7
CONVERTER_11
 11
0.0
 21
1.0
 31
0.0
 73
     1
 44
0.90036014405762
  0
MTEXT
  5
71
330
49
100
AcDbEntity
  8
1
 62
     1
100
AcDbMText
 10
18.0490635138232
 20
241.4065737680618
 30
0.0
 40
2.0
 41
0.0
 71
     7
 72
     1
  1
F\U+00fcr diese Unterlage behalten wir das Ur-\Pheberrecht. Sie darf nur f\U+00fcr den von uns \Pbestimmten Zweck benutzt und ohne unsere \PZustimmung weder vervielf\U+00e4ltigt noch\PDritten zug\U+00e4nglich gemacht werden.
  7
CONVERTER_11
 11
0.0
 21
1.0
 31
0.0
 73
     1
 44
0.90036014405762
  0
ENDBLK
  5
4B
330
49
100
AcDbEntity
  8
0
100
AcDbBlockEnd
  0
BLOCK
  5
134
330
12D
100
AcDbEntity
  8
0
100
AcDbBlockBegin
  2
*D2
 70
     1
 10
0.0
 20
0.0
 30
0.0
  3
*D2
  1

  0
LINE
  5
12E
330
12D
100
AcDbEntity
  8
1
  6
Continuous
 62
     2
100
AcDbLine
 10
237.01751672361
 20
310.1750976563
 30
0.0
 11
237.01751672361
 21
247.1750976563
 31
0.0
  0
LINE
  5
12F
330
12D
100
AcDbEntity
  8
1
  6
Continuous
 62
     2
100
AcDbLine
 10
215.1665542984
 20
310.1750976563
 30
0.0
 11
239.01751672361
 21
310.1750976563
 31
0.0
  0
LINE
  5
130
330
12D
100
AcDbEntity
  8
1
  6
Continuous
 62
     2
100
AcDbLine
 10
215.1665542984
 20
247.1750976563
 30
0.0
 11
239.01751672361
 21
247.1750976563
 31
0.0
  0
SOLID
  5
131
330
12D
100
AcDbEntity
  8
1
 62
     2
100
AcDbTrace
 10
237.4783004651659
 20
306.6750976563
 30
0.0
 11
236.5567329820541
 21
306.6750976563
 31
0.0
 12
237.01751672361
 22
310.1750976563
 32
0.0
 13
237.01751672361
 23
310.1750976563
 33
0.0
  0
SOLID
  5
132
330
12D
100
AcDbEntity
  8
1
 62
     2
100
AcDbTrace
 10
236.5567329820541
 20
250.6750976563
 30
0.0
 11
237.4783004651659
 21
250.6750976563
 31
0.0
 12
237.01751672361
 22
247.1750976563
 32
0.0
 13
237.01751672361
 23
247.1750976563
 33
0.0
  0
MTEXT
  5
133
330
12D
100
AcDbEntity
  8
1
 62
     3
100
AcDbMText
 10
235.01751672361
 20
269.344292258505
 30
0.0
 40
3.5
 41
0.0
 71
     7
 72
     1
  1
\C3;%%c\C3;\C3;63\C2;\H2.45;\S^ ;\C3;
  7
CONVERTER_11
 11
0.0
 21
1.0
 31
0.0
 73
     1
 44
0.60024009603842
  0
ENDBLK
  5
135
330
12D
100
AcDbEntity
  8
0
100
AcDbBlockEnd
  0
BLOCK
  5
13F
330
138
100
AcDbEntity
  8
0
100
AcDbBlockBegin
  2
*D3
 70
     1
 10
0.0
 20
0.0
 30
0.0
  3
*D3
  1

  0
LINE
  5
139
330
138
100
AcDbEntity
  8
1
  6
Continuous
 62
     2
100
AcDbLine
 10
229.114848594001
 20
298.6750976563
 30
0.0
 11
229.114848594001
 21
258.6750976563
 31
0.0
  0
LINE
  5
13A
330
138
100
AcDbEntity
  8
1
  6
Continuous
 62
     2
100
AcDbLine
 10
204.35234375
 20
298.6750976563
 30
0.0
 11
231.114848594001
 21
298.6750976563
 31
0.0
  0
LINE
  5
13B
330
138
100
AcDbEntity
  8
1
  6
Continuous
 62
     2
100
AcDbLine
 10
204.35234375
 20
258.6750976563
 30
0.0
 11
231.114848594001
 21
258.6750976563
 31
0.0
  0
SOLID
  5
13C
330
138
100
AcDbEntity
  8
1
 62
     2
100
AcDbTrace
 10
229.5756323355569
 20
295.1750976563
 30
0.0
 11
228.6540648524451
 21
295.1750976563
 31
0.0
 12
229.114848594001
 22
298.6750976563
 32
0.0
 13
229.114848594001
 23
298.6750976563
 33
0.0
  0
SOLID
  5
13D
330
138
100
AcDbEntity
  8
1
 62
     2
100
AcDbTrace
 10
228.6540648524451
 20
262.1750976563
 30
0.0
 11
229.5756323355569
 21
262.1750976563
 31
0.0
 12
229.114848594001
 22
258.6750976563
 32
0.0
 13
229.114848594001
 23
258.6750976563
 33
0.0
  0
MTEXT
  5
13E
330
138
100
AcDbEntity
  8
1
 62
     3
100
AcDbMText
 10
227.114848594001
 20
274.633991372003
 30
0.0
 40
3.5
 41
0.0
 71
     7
 72
     1
  1
\C3;ER\C3;\C3;40\C2;\H2.45;\S^ ;\C3;
  7
CONVERTER_11
 11
0.0
 21
1.0
 31
0.0
 73
     1
 44
0.60024009603842
  0
ENDBLK
  5
140
330
138
100
AcDbEntity
  8
0
100
AcDbBlockEnd
  0
BLOCK
  5
14A
330
143
100
AcDbEntity
  8
0
100
AcDbBlockBegin
  2
*D4
 70
     1
 10
0.0
 20
0.0
 30
0.0
  3
*D4
  1

  0
LINE
  5
144
330
143
100
AcDbEntity
  8
1
  6
Continuous
 62
     2
100
AcDbLine
 10
202.35234375
 20
320.177939855219
 30
0.0
 11
83.35234374999999
 21
320.177939855219
 31
0.0
  0
LINE
  5
145
330
143
100
AcDbEntity
  8
1
  6
Continuous
 62
     2
100
AcDbLine
 10
202.35234375
 20
305.6750976562
 30
0.0
 11
202.35234375
 21
322.177939855219
 31
0.0
  0
LINE
  5
146
330
143
100
AcDbEntity
  8
1
  6
Continuous
 62
     2
100
AcDbLine
 10
83.35234374999999
 20
312.1750487507
 30
0.0
 11
83.35234374999999
 21
322.177939855219
 31
0.0
  0
SOLID
  5
147
330
143
100
AcDbEntity
  8
1
 62
     2
100
AcDbTrace
 10
198.85234375
 20
319.7171561136631
 30
0.0
 11
198.85234375
 21
320.6387235967749
 31
0.0
 12
202.35234375
 22
320.177939855219
 32
0.0
 13
202.35234375
 23
320.177939855219
 33
0.0
  0
SOLID
  5
148
330
143
100
AcDbEntity
  8
1
 62
     2
100
AcDbTrace
 10
86.85234374999999
 20
320.6387235967749
 30
0.0
 11
86.85234374999999
 21
319.7171561136631
 31
0.0
 12
83.35234374999999
 22
320.177939855219
 32
0.0
 13
83.35234374999999
 23
320.177939855219
 33
0.0
  0
MTEXT
  5
149
330
143
100
AcDbEntity
  8
1
 62
     3
100
AcDbMText
 10
140.381815758969
 20
322.177939855219
 30
0.0
 40
3.5
 41
0.0
 71
     7
 72
     1
  1
\C3;\C3;\C3;119\C2;\H2.45;\S^ ;\C3;
  7
CONVERTER_11
 11
0.9999999999970619
 21
2.424068405545306E-6
 31
0.0
 73
     1
 44
0.60024009603842
  0
ENDBLK
  5
14B
330
143
100
AcDbEntity
  8
0
100
AcDbBlockEnd
  0
BLOCK
  5
155
330
14E
100
AcDbEntity
  8
0
100
AcDbBlockBegin
  2
*D5
 70
     1
 10
0.0
 20
0.0
 30
0.0
  3
*D5
  1

  0
LINE
  5
14F
330
14E
100
AcDbEntity
  8
1
  6
Continuous
 62
     2
100
AcDbLine
 10
202.35234375
 20
328.096121198059
 30
0.0
 11
57.35234375
 21
328.096121198059
 31
0.0
  0
LINE
  5
150
330
14E
100
AcDbEntity
  8
1
  6
Continuous
 62
     2
100
AcDbLine
 10
202.35234375
 20
305.6750976562
 30
0.0
 11
202.35234375
 21
330.096121198059
 31
0.0
  0
LINE
  5
151
330
14E
100
AcDbEntity
  8
1
  6
Continuous
 62
     2
100
AcDbLine
 10
57.35234375
 20
312.1750976563
 30
0.0
 11
57.35234375
 21
330.096121198059
 31
0.0
  0
SOLID
  5
152
330
14E
100
AcDbEntity
  8
1
 62
     2
100
AcDbTrace
 10
198.85234375
 20
327.6353374565031
 30
0.0
 11
198.85234375
 21
328.5569049396149
 31
0.0
 12
202.35234375
 22
328.096121198059
 32
0.0
 13
202.35234375
 23
328.096121198059
 33
0.0
  0
SOLID
  5
153
330
14E
100
AcDbEntity
  8
1
 62
     2
100
AcDbTrace
 10
60.85234375
 20
328.5569049396149
 30
0.0
 11
60.85234375
 21
327.6353374565031
 31
0.0
 12
57.35234375
 22
328.096121198059
 32
0.0
 13
57.35234375
 23
328.096121198059
 33
0.0
  0
MTEXT
  5
154
330
14E
100
AcDbEntity
  8
1
 62
     3
100
AcDbMText
 10
127.801751553892
 20
330.096121198059
 30
0.0
 40
3.5
 41
0.0
 71
     7
 72
     1
  1
\C3;\C3;\C3;145\C2;\H2.45;\S^ ;\C3;
  7
CONVERTER_11
 11
0.9999999999970619
 21
2.424068405545306E-6
 31
0.0
 73
     1
 44
0.60024009603842
  0
ENDBLK
  5
156
330
14E
100
AcDbEntity
  8
0
100
AcDbBlockEnd
  0
BLOCK
  5
160
330
159
100
AcDbEntity
  8
0
100
AcDbBlockBegin
  2
*D6
 70
     1
 10
0.0
 20
0.0
 30
0.0
  3
*D6
  1

  0
LINE
  5
15A
330
159
100
AcDbEntity
  8
1
  6
Continuous
 62
     2
100
AcDbLine
 10
57.35234375
 20
336.155698636308
 30
0.0
 11
217.35234375
 21
336.155698636308
 31
0.0
  0
LINE
  5
15B
330
159
100
AcDbEntity
  8
1
  6
Continuous
 62
     2
100
AcDbLine
 10
57.35234375
 20
312.1750976563
 30
0.0
 11
57.35234375
 21
338.155698636308
 31
0.0
  0
LINE
  5
15C
330
159
100
AcDbEntity
  8
1
  6
Continuous
 62
     2
100
AcDbLine
 10
217.35234375
 20
306.1750976563
 30
0.0
 11
217.35234375
 21
338.155698636308
 31
0.0
  0
SOLID
  5
15D
330
159
100
AcDbEntity
  8
1
 62
     2
100
AcDbTrace
 10
60.85234375
 20
336.6164823778639
 30
0.0
 11
60.85234375
 21
335.6949148947521
 31
0.0
 12
57.35234375
 22
336.155698636308
 32
0.0
 13
57.35234375
 23
336.155698636308
 33
0.0
  0
SOLID
  5
15E
330
159
100
AcDbEntity
  8
1
 62
     2
100
AcDbTrace
 10
213.85234375
 20
335.6949148947521
 30
0.0
 11
213.85234375
 21
336.6164823778639
 31
0.0
 12
217.35234375
 22
336.155698636308
 32
0.0
 13
217.35234375
 23
336.155698636308
 33
0.0
  0
MTEXT
  5
15F
330
159
100
AcDbEntity
  8
1
 62
     3
100
AcDbMText
 10
136.144121182956
 20
338.155698636308
 30
0.0
 40
3.5
 41
0.0
 71
     7
 72
     1
  1
\C3;\C3;\C3;160\C2;\H2.45;\S^ ;\C3;
  7
CONVERTER_11
 11
0.9999999999970619
 21
2.424068405545306E-6
 31
0.0
 73
     1
 44
0.60024009603842
  0
ENDBLK
  5
161
330
159
100
AcDbEntity
  8
0
100
AcDbBlockEnd
  0
BLOCK
  5
16B
330
164
100
AcDbEntity
  8
0
100
AcDbBlockBegin
  2
*D7
 70
     1
 10
0.0
 20
0.0
 30
0.0
  3
*D7
  1

  0
LINE
  5
165
330
164
100
AcDbEntity
  8
1
  6
Continuous
 62
     2
100
AcDbLine
 10
202.35234375
 20
343.508295597517
 30
0.0
 11
25.35234375
 21
343.508295597517
 31
0.0
  0
LINE
  5
166
330
164
100
AcDbEntity
  8
1
  6
Continuous
 62
     2
100
AcDbLine
 10
202.35234375
 20
305.6750976562
 30
0.0
 11
202.35234375
 21
345.508295597517
 31
0.0
  0
LINE
  5
167
330
164
100
AcDbEntity
  8
1
  6
Continuous
 62
     2
100
AcDbLine
 10
25.35234375
 20
302.2511248364
 30
0.0
 11
25.35234375
 21
345.508295597517
 31
0.0
  0
SOLID
  5
168
330
164
100
AcDbEntity
  8
1
 62
     2
100
AcDbTrace
 10
198.85234375
 20
343.0475118559611
 30
0.0
 11
198.85234375
 21
343.9690793390729
 31
0.0
 12
202.35234375
 22
343.508295597517
 32
0.0
 13
202.35234375
 23
343.508295597517
 33
0.0
  0
SOLID
  5
169
330
164
100
AcDbEntity
  8
1
 62
     2
100
AcDbTrace
 10
28.85234375
 20
343.9690793390729
 30
0.0
 11
28.85234375
 21
343.0475118559611
 31
0.0
 12
25.35234375
 22
343.508295597517
 32
0.0
 13
25.35234375
 23
343.508295597517
 33
0.0
  0
MTEXT
  5
16A
330
164
100
AcDbEntity
  8
1
 62
     3
100
AcDbMText
 10
115.076102967184
 20
345.508295597517
 30
0.0
 40
3.5
 41
0.0
 71
     7
 72
     1
  1
\C3;\C3;\C3;177\C2;\H2.45;\S^ ;\C3;
  7
CONVERTER_11
 11
0.9999999999970619
 21
2.424068405545306E-6
 31
0.0
 73
     1
 44
0.60024009603842
  0
ENDBLK
  5
16C
330
164
100
AcDbEntity
  8
0
100
AcDbBlockEnd
  0
BLOCK
  5
173
330
16F
100
AcDbEntity
  8
0
100
AcDbBlockBegin
  2
*D8
 70
     1
 10
0.0
 20
0.0
 30
0.0
  3
*D8
  1

  0
LINE
  5
170
330
16F
100
AcDbEntity
  8
1
  6
Continuous
 62
     2
100
AcDbLine
 10
93.66679807967084
 20
311.0707751472995
 30
0.0
 11
83.52797101625137
 21
304.1090503119447
 31
0.0
  0
SOLID
  5
171
330
16F
100
AcDbEntity
  8
1
 62
     2
100
AcDbTrace
 10
86.15245017087929
 20
306.4700735696458
 30
0.0
 11
86.67410099728683
 21
305.7103584643351
 31
0.0
 12
83.52797101625137
 22
304.1090503119447
 32
0.0
 13
83.52797101625137
 23
304.1090503119447
 33
0.0
  0
MTEXT
  5
172
330
16F
100
AcDbEntity
  8
1
 62
     3
100
AcDbMText
 10
87.11033080354967
 20
308.9949290891458
 30
0.0
 40
3.5
 41
0.0
 71
     7
 72
     1
  1
\C3; R\C3;\C3;1\C2;\H2.45;\S^ ;\C3;
  7
CONVERTER_11
 11
0.8243727336662007
 21
0.5660473442987924
 31
0.0
 73
     1
 44
0.60024009603842
  0
ENDBLK
  5
174
330
16F
100
AcDbEntity
  8
0
100
AcDbBlockEnd
  0
ENDSEC
  0
SECTION
  2
ENTITIES
  0
INSERT
  5
6E
330
1F
100
AcDbEntity
  8
0
100
AcDbBlockReference
  2
Urheberrecht_DE-EN
 10
18.0490635138232
 20
297.695960685368
 30
0.0
  0
LINE
  5
72
330
1F
100
AcDbEntity
  8
VERERBUNG
  6
Continuous
 62
     7
100
AcDbLine
 10
25.35234375
 20
257.0990703794
 30
0.0
 11
25.35234375
 21
271.4050976563
 31
0.0
  0
LINE
  5
73
330
1F
100
AcDbEntity
  8
VERERBUNG
  6
Continuous
 62
     7
100
AcDbLine
 10
25.35234375
 20
285.9450976563
 30
0.0
 11
25.35234375
 21
300.2511248364
 31
0.0
  0
LINE
  5
74
330
1F
100
AcDbEntity
  8
VERERBUNG
  6
Continuous
 62
     7
100
AcDbLine
 10
26.35234375
 20
271.0452159764
 30
0.0
 11
26.35234375
 21
272.4050976563
 31
0.0
  0
LINE
  5
75
330
1F
100
AcDbEntity
  8
VERERBUNG
  6
Continuous
 62
     7
100
AcDbLine
 10
26.35234375
 20
284.9450976563
 30
0.0
 11
26.35234375
 21
286.3049793361
 31
0.0
  0
LINE
  5
76
330
1F
100
AcDbEntity
  8
VERERBUNG
  6
Continuous
 62
     9
100
AcDbLine
 10
26.4923006857
 20
301.4496729138
 30
0.0
 11
26.4923006857
 21
288.2371255876
 31
0.0
  0
LINE
  5
77
330
1F
100
AcDbEntity
  8
VERERBUNG
  6
Continuous
 62
     9
100
AcDbLine
 10
26.4923006857
 20
269.1130697249
 30
0.0
 11
26.4923006857
 21
255.9005223987
 31
0.0
  0
LINE
  5
78
330
1F
100
AcDbEntity
  8
VERERBUNG
  6
Continuous
 62
     9
100
AcDbLine
 10
29.85234375
 20
268.7187847743
 30
0.0
 11
29.85234375
 21
272.4050976563
 31
0.0
  0
LINE
  5
79
330
1F
100
AcDbEntity
  8
VERERBUNG
  6
Continuous
 62
     9
100
AcDbLine
 10
29.85234375
 20
284.9450976563
 30
0.0
 11
29.85234375
 21
288.6314105382
 31
0.0
  0
LINE
  5
7A
330
1F
100
AcDbEntity
  8
VERERBUNG
  6
Continuous
 62
     7
100
AcDbLine
 10
31.35234375
 20
286.1168853748
 30
0.0
 11
31.35234375
 21
271.2333099377
 31
0.0
  0
LWPOLYLINE
  5
7B
330
1F
100
AcDbEntity
  8
BEZUGSACHSEN
  6
DOT_CENTER
 62
     7
100
AcDbPolyline
 90
        2
 70
     0
 43
0.25
 10
48.35234375
 20
271.9250976563
 10
48.35234375
 20
285.4250976563
  0
LINE
  5
7C
330
1F
100
AcDbEntity
  8
VERERBUNG
  6
Continuous
 62
     7
100
AcDbLine
 10
55.35234375
 20
302.8955218059
 30
0.0
 11
55.35234375
 21
254.4546735066
 31
0.0
  0
LINE
  5
7D
330
1F
100
AcDbEntity
  8
VERERBUNG
  6
Continuous
 62
     9
100
AcDbLine
 10
56.022453983
 20
254.6342290024
 30
0.0
 11
56.022453983
 21
302.7159663101
 31
0.0
  0
LINE
  5
7E
330
1F
100
AcDbEntity
  8
VERERBUNG
  6
Continuous
 62
     9
100
AcDbLine
 10
56.1777454101
 20
254.6546735066
 30
0.0
 11
56.1777454101
 21
302.6955218059
 31
0.0
  0
LINE
  5
7F
330
1F
100
AcDbEntity
  8
VERERBUNG
  6
Continuous
 62
     9
100
AcDbLine
 10
57.0501741195
 20
254.6546735066
 30
0.0
 11
57.0501741195
 21
302.6955218059
 31
0.0
  0
LINE
  5
80
330
1F
100
AcDbEntity
  8
VERERBUNG
  6
Continuous
 62
     7
100
AcDbLine
 10
57.35234375
 20
310.1750976563
 30
0.0
 11
57.35234375
 21
247.1750976563
 31
0.0
  0
LINE
  5
81
330
1F
100
AcDbEntity
  8
VERERBUNG
  6
Continuous
 62
     7
100
AcDbLine
 10
25.35234375
 20
271.4050976563
 30
0.0
 11
26.35234375
 21
272.4050976563
 31
0.0
  0
LINE
  5
82
330
1F
100
AcDbEntity
  8
VERERBUNG
  6
Continuous
 62
     7
100
AcDbLine
 10
26.35234375
 20
284.9450976563
 30
0.0
 11
25.35234375
 21
285.9450976563
 31
0.0
  0
LWPOLYLINE
  5
83
330
1F
100
AcDbEntity
  8
BEZUGSACHSEN
  6
DOT_CENTER
 62
     7
100
AcDbPolyline
 90
        2
 70
     0
 43
0.25
 10
64.35234375
 20
302.1757407364
 10
64.35234375
 20
313.1750976563
  0
LINE
  5
84
330
1F
100
AcDbEntity
  8
VERERBUNG
  6
Continuous
 62
     7
100
AcDbLine
 10
77.22734375
 20
307.5726929204
 30
0.0
 11
78.7298428248
 21
310.1750976563
 31
0.0
  0
LINE
  5
85
330
1F
100
AcDbEntity
  8
FASEN
  6
Continuous
 62
     9
100
AcDbLine
 10
69.489354153
 20
258.4250976563
 30
0.0
 11
69.489354153
 21
258.8250976563
 31
0.0
  0
LINE
  5
86
330
1F
100
AcDbEntity
  8
0
  6
Continuous
 62
     7
100
AcDbLine
 10
71.9748446752
 20
310.1750976563
 30
0.0
 11
71.9748446752
 21
286.6925976563
 31
0.0
  0
LINE
  5
87
330
1F
100
AcDbEntity
  8
0
  6
Continuous
 62
     7
100
AcDbLine
 10
71.9748446752
 20
270.6575976563
 30
0.0
 11
71.9748446752
 21
258.8250976563
 31
0.0
  0
LINE
  5
88
330
1F
100
AcDbEntity
  8
0
  6
Continuous
 62
     7
100
AcDbLine
 10
71.9748446752
 20
254.2164079939
 30
0.0
 11
71.9748446752
 21
247.1750976563
 31
0.0
  0
LINE
  5
89
330
1F
100
AcDbEntity
  8
0
  6
Continuous
 62
     7
100
AcDbLine
 10
73.47734375
 20
307.5726703839
 30
0.0
 11
73.47734375
 21
286.6925976563
 31
0.0
  0
LINE
  5
8A
330
1F
100
AcDbEntity
  8
0
  6
Continuous
 62
     7
100
AcDbLine
 10
73.47734375
 20
270.6575976563
 30
0.0
 11
73.47734375
 21
258.8250976563
 31
0.0
  0
LINE
  5
8B
330
1F
100
AcDbEntity
  8
0
  6
Continuous
 62
     7
100
AcDbLine
 10
73.47734375
 20
249.7775087048
 30
0.0
 11
73.47734375
 21
258.2244864184
 31
0.0
  0
LINE
  5
8C
330
1F
100
AcDbEntity
  8
0
  6
Continuous
 62
     9
100
AcDbLine
 10
74.47734375
 20
251.1750976563
 30
0.0
 11
74.47734375
 21
270.9750976563
 31
0.0
  0
LINE
  5
8D
330
1F
100
AcDbEntity
  8
0
  6
Continuous
 62
     9
100
AcDbLine
 10
74.47734375
 20
286.3750976563
 30
0.0
 11
74.47734375
 21
306.1750976563
 31
0.0
  0
LINE
  5
8E
330
1F
100
AcDbEntity
  8
VERERBUNG
  6
Continuous
 62
     7
100
AcDbLine
 10
77.22734375
 20
249.7775023921
 30
0.0
 11
78.7298428248
 21
247.1750976563
 31
0.0
  0
LINE
  5
8F
330
1F
100
AcDbEntity
  8
0
  6
Continuous
 62
     9
100
AcDbLine
 10
76.22734375
 20
251.1750976563
 30
0.0
 11
76.22734375
 21
270.9750976563
 31
0.0
  0
LINE
  5
90
330
1F
100
AcDbEntity
  8
0
  6
Continuous
 62
     9
100
AcDbLine
 10
76.22734375
 20
286.3750976563
 30
0.0
 11
76.22734375
 21
306.1750976563
 31
0.0
  0
LINE
  5
91
330
1F
100
AcDbEntity
  8
0
  6
Continuous
 62
     7
100
AcDbLine
 10
77.22734375
 20
249.7775087048
 30
0.0
 11
77.22734375
 21
258.2244864184
 31
0.0
  0
LINE
  5
92
330
1F
100
AcDbEntity
  8
0
  6
Continuous
 62
     7
100
AcDbLine
 10
77.22734375
 20
258.8250976563
 30
0.0
 11
77.22734375
 21
270.6575976563
 31
0.0
  0
LINE
  5
93
330
1F
100
AcDbEntity
  8
0
  6
Continuous
 62
     7
100
AcDbLine
 10
77.22734375
 20
286.6925976563
 30
0.0
 11
77.22734375
 21
307.5726703839
 31
0.0
  0
LINE
  5
94
330
1F
100
AcDbEntity
  8
0
  6
Continuous
 62
     7
100
AcDbLine
 10
78.7298428248
 20
310.1750976563
 30
0.0
 11
78.7298428248
 21
286.6925976563
 31
0.0
  0
LINE
  5
95
330
1F
100
AcDbEntity
  8
0
  6
Continuous
 62
     7
100
AcDbLine
 10
78.7298428248
 20
270.6575976563
 30
0.0
 11
78.7298428248
 21
258.8250976563
 31
0.0
  0
LINE
  5
96
330
1F
100
AcDbEntity
  8
0
  6
Continuous
 62
     7
100
AcDbLine
 10
78.7298428248
 20
254.2164079939
 30
0.0
 11
78.7298428248
 21
247.1750976563
 31
0.0
  0
LINE
  5
97
330
1F
100
AcDbEntity
  8
VERERBUNG
  6
Continuous
 62
     9
100
AcDbLine
 10
25.35234375
 20
270.4985098697
 30
0.0
 11
26.35234375
 21
271.0452159764
 31
0.0
  0
LINE
  5
98
330
1F
100
AcDbEntity
  8
0
  6
Continuous
 62
     7
100
AcDbLine
 10
83.35234375
 20
254.2164079939
 30
0.0
 11
83.35234375
 21
247.175136718
 31
0.0
  0
LINE
  5
99
330
1F
100
AcDbEntity
  8
FASEN
  6
Continuous
 62
     7
100
AcDbLine
 10
83.35234375
 20
254.2164079939
 30
0.0
 11
83.35234375
 21
258.8250976563
 31
0.0
  0
LINE
  5
9A
330
1F
100
AcDbEntity
  8
0
  6
Continuous
 62
     7
100
AcDbLine
 10
83.35234375
 20
258.8250976563
 30
0.0
 11
83.35234375
 21
310.1750487507
 31
0.0
  0
LINE
  5
9B
330
1F
100
AcDbEntity
  8
RUNDUNGEN
  6
Continuous
 62
     9
100
AcDbLine
 10
84.35234375
 20
303.6750976562
 30
0.0
 11
84.35234375
 21
253.6750976563
 31
0.0
  0
LINE
  5
9C
330
1F
100
AcDbEntity
  8
VERERBUNG
  6
Continuous
 62
     9
100
AcDbLine
 10
26.35234375
 20
286.3049793361
 30
0.0
 11
25.35234375
 21
286.8516854428
 31
0.0
  0
LINE
  5
9D
330
1F
100
AcDbEntity
  8
VERERBUNG
  6
Continuous
 62
     7
100
AcDbLine
 10
71.9748446752
 20
247.1750976563
 30
0.0
 11
73.47734375
 21
249.7775023921
 31
0.0
  0
LINE
  5
9E
330
1F
100
AcDbEntity
  8
VERERBUNG
  6
Continuous
 62
     7
100
AcDbLine
 10
71.9748446752
 20
247.1750976563
 30
0.0
 11
57.35234375
 21
247.1750976563
 31
0.0
  0
LINE
  5
9F
330
1F
100
AcDbEntity
  8
VERERBUNG
  6
Continuous
 62
     7
100
AcDbLine
 10
78.7298428248
 20
247.1750976563
 30
0.0
 11
83.35234375
 21
247.1750976563
 31
0.0
  0
LINE
  5
A0
330
1F
100
AcDbEntity
  8
0
  6
Continuous
 62
     7
100
AcDbLine
 10
193.10234375
 20
247.1750976563
 30
0.0
 11
213.1665542984
 21
247.1750976563
 31
0.0
  0
LINE
  5
A1
330
1F
100
AcDbEntity
  8
0
  6
Continuous
 62
     7
100
AcDbLine
 10
202.35234375
 20
249.6266767162
 30
0.0
 11
213.1665542984
 21
249.6266767162
 31
0.0
  0
LINE
  5
A2
330
1F
100
AcDbEntity
  8
VERERBUNG
  6
Continuous
 62
     7
100
AcDbLine
 10
74.47734375
 20
251.1750976563
 30
0.0
 11
76.22734375
 21
251.1750976563
 31
0.0
  0
LINE
  5
A3
330
1F
100
AcDbEntity
  8
0
  6
Continuous
 62
     7
100
AcDbLine
 10
215.3636515747
 20
252.1018672974
 30
0.0
 11
202.35234375
 21
252.1018672974
 31
0.0
  0
LINE
  5
A4
330
1F
100
AcDbEntity
  8
0
  6
Continuous
 62
     7
100
AcDbLine
 10
202.35234375
 20
253.5996109285
 30
0.0
 11
213.1665542984
 21
253.5996109285
 31
0.0
  0
LINE
  5
A5
330
1F
100
AcDbEntity
  8
RUNDUNGEN
  6
Continuous
 62
     7
100
AcDbLine
 10
191.85234375
 20
253.6750976562
 30
0.0
 11
84.35234375
 21
253.6750976563
 31
0.0
  0
LINE
  5
A6
330
1F
100
AcDbEntity
  8
0
  6
Continuous
 62
     7
100
AcDbLine
 10
84.35234375
 20
253.6750976563
 30
0.0
 11
191.85234375
 21
253.6750976562
 31
0.0
  0
LWPOLYLINE
  5
A7
330
1F
100
AcDbEntity
  8
DEFAULT_2
  6
DASHED
 62
     8
100
AcDbPolyline
 90
        2
 70
     0
 43
0.35
 10
191.85234375
 20
253.6750976562
 10
202.35234375
 20
253.6750976563
  0
LINE
  5
A8
330
1F
100
AcDbEntity
  8
FASEN
  6
Continuous
 62
     7
100
AcDbLine
 10
62.6879561942
 20
254.2164079939
 30
0.0
 11
71.9748446752
 21
254.2164079939
 31
0.0
  0
LINE
  5
A9
330
1F
100
AcDbEntity
  8
0
  6
Continuous
 62
     7
100
AcDbLine
 10
78.7298428248
 20
254.2164079939
 30
0.0
 11
83.35234375
 21
254.2164079939
 31
0.0
  0
LINE
  5
AA
330
1F
100
AcDbEntity
  8
VERERBUNG
  6
Continuous
 62
     7
100
AcDbLine
 10
57.0501741195
 20
254.6546735066
 30
0.0
 11
56.1777454101
 21
254.6546735066
 31
0.0
  0
LINE
  5
AB
330
1F
100
AcDbEntity
  8
VERERBUNG
  6
Continuous
 62
     7
100
AcDbLine
 10
55.35234375
 20
254.4546735066
 30
0.0
 11
26.4923006857
 21
255.9005223987
 31
0.0
  0
LINE
  5
AC
330
1F
100
AcDbEntity
  8
VERERBUNG
  6
Continuous
 62
     7
100
AcDbLine
 10
71.9748446752
 20
310.1750976563
 30
0.0
 11
73.47734375
 21
307.5726929204
 31
0.0
  0
LINE
  5
AD
330
1F
100
AcDbEntity
  8
FASEN
  6
Continuous
 62
     7
100
AcDbLine
 10
69.489354153
 20
258.4250976563
 30
0.0
 11
73.4877090153
 21
258.4250976563
 31
0.0
  0
LINE
  5
AE
330
1F
100
AcDbEntity
  8
FASEN
  6
Continuous
 62
     7
100
AcDbLine
 10
77.2169784847
 20
258.4250976563
 30
0.0
 11
83.35234375
 21
258.4250976563
 31
0.0
  0
LINE
  5
AF
330
1F
100
AcDbEntity
  8
0
  6
Continuous
 62
     7
100
AcDbLine
 10
69.489354153
 20
258.8250976563
 30
0.0
 11
73.47734375
 21
258.8250976563
 31
0.0
  0
LINE
  5
B0
330
1F
100
AcDbEntity
  8
FASEN
  6
Continuous
 62
     7
100
AcDbLine
 10
73.47734375
 20
258.8250976563
 30
0.0
 11
73.4877090153
 21
258.8250976563
 31
0.0
  0
LINE
  5
B1
330
1F
100
AcDbEntity
  8
FASEN
  6
Continuous
 62
     7
100
AcDbLine
 10
77.2169784847
 20
258.8250976563
 30
0.0
 11
77.22734375
 21
258.8250976563
 31
0.0
  0
LINE
  5
B2
330
1F
100
AcDbEntity
  8
0
  6
Continuous
 62
     7
100
AcDbLine
 10
77.22734375
 20
258.8250976563
 30
0.0
 11
83.35234375
 21
258.8250976563
 31
0.0
  0
LWPOLYLINE
  5
B3
330
1F
100
AcDbEntity
  8
DEFAULT_2
  6
DASHED
 62
     8
100
AcDbPolyline
 90
        2
 70
     0
 43
0.35
 10
168.5543375687
 20
263.4250976563
 10
164.35234375
 20
263.4250976563
  0
LINE
  5
B4
330
1F
100
AcDbEntity
  8
VERERBUNG
  6
Continuous
 62
     9
100
AcDbLine
 10
30.8397507877
 20
269.4050976563
 30
0.0
 11
26.0240185604
 21
269.4050976563
 31
0.0
  0
LWPOLYLINE
  5
B5
330
1F
100
AcDbEntity
  8
DEFAULT_2
  6
DASHED
 62
     8
100
AcDbPolyline
 90
        2
 70
     0
 43
0.35
 10
202.35234375
 20
258.6750976563
 10
168.5543375687
 20
263.4250976563
  0
LINE
  5
B6
330
1F
100
AcDbEntity
  8
VERERBUNG
  6
Continuous
 62
     7
100
AcDbLine
 10
56.022453983
 20
254.6342290024
 30
0.0
 11
55.35234375
 21
254.4546735066
 31
0.0
  0
LINE
  5
B7
330
1F
100
AcDbEntity
  8
0
  6
Continuous
 62
     7
100
AcDbLine
 10
83.35234375
 20
270.6575976563
 30
0.0
 11
76.6432306405
 21
270.6575976563
 31
0.0
  0
LINE
  5
B8
330
1F
100
AcDbEntity
  8
0
  6
Continuous
 62
     7
100
AcDbLine
 10
70.31984375
 20
270.6575976563
 30
0.0
 11
74.0614568595
 21
270.6575976563
 31
0.0
  0
LINE
  5
B9
330
1F
100
AcDbEntity
  8
0
  6
Continuous
 62
     7
100
AcDbLine
 10
74.47734375
 20
270.9750976563
 30
0.0
 11
76.22734375
 21
270.9750976563
 31
0.0
  0
LINE
  5
BA
330
1F
100
AcDbEntity
  8
VERERBUNG
  6
Continuous
 62
     7
100
AcDbLine
 10
29.85234375
 20
272.4050976563
 30
0.0
 11
26.35234375
 21
272.4050976563
 31
0.0
  0
LINE
  5
BB
330
1F
100
AcDbEntity
  8
0
  6
Continuous
 62
     7
100
AcDbLine
 10
202.35234375
 20
274.7021634439
 30
0.0
 11
213.1665542984
 21
274.7021634439
 31
0.0
  0
LINE
  5
BC
330
1F
100
AcDbEntity
  8
0
  6
Continuous
 62
     7
100
AcDbLine
 10
215.3636515747
 20
275.3250976563
 30
0.0
 11
202.35234375
 21
275.3250976563
 31
0.0
  0
LWPOLYLINE
  5
BD
330
1F
100
AcDbEntity
  8
BG_STARTBEZUEGE
  6
DOT_CENTER
 62
     7
100
AcDbPolyline
 90
        2
 70
     0
 43
0.25
 10
220.35234375
 20
278.6750976563
 10
22.35234375
 20
278.6750976563
  0
LINE
  5
BE
330
1F
100
AcDbEntity
  8
0
  6
Continuous
 62
     7
100
AcDbLine
 10
215.3636515747
 20
282.0250976563
 30
0.0
 11
202.35234375
 21
282.0250976563
 31
0.0
  0
LINE
  5
BF
330
1F
100
AcDbEntity
  8
0
  6
Continuous
 62
     7
100
AcDbLine
 10
202.35234375
 20
282.6480318686
 30
0.0
 11
213.1665542984
 21
282.6480318686
 31
0.0
  0
LWPOLYLINE
  5
C0
330
1F
100
AcDbEntity
  8
DEFAULT_2
  6
DASHED
 62
     8
100
AcDbPolyline
 90
        2
 70
     0
 43
0.35
 10
202.35234375
 20
298.6750976563
 10
168.5543375687
 20
293.9250976563
  0
LINE
  5
C1
330
1F
100
AcDbEntity
  8
VERERBUNG
  6
Continuous
 62
     7
100
AcDbLine
 10
29.85234375
 20
284.9450976563
 30
0.0
 11
26.35234375
 21
284.9450976563
 31
0.0
  0
LINE
  5
C2
330
1F
100
AcDbEntity
  8
0
  6
Continuous
 62
     7
100
AcDbLine
 10
74.47734375
 20
286.3750976563
 30
0.0
 11
76.22734375
 21
286.3750976563
 31
0.0
  0
LINE
  5
C3
330
1F
100
AcDbEntity
  8
0
  6
Continuous
 62
     7
100
AcDbLine
 10
70.31984375
 20
286.6925976563
 30
0.0
 11
74.0614568595
 21
286.6925976563
 31
0.0
  0
LINE
  5
C4
330
1F
100
AcDbEntity
  8
0
  6
Continuous
 62
     7
100
AcDbLine
 10
76.6432306405
 20
286.6925976563
 30
0.0
 11
83.35234375
 21
286.6925976563
 31
0.0
  0
LINE
  5
C5
330
1F
100
AcDbEntity
  8
VERERBUNG
  6
Continuous
 62
     9
100
AcDbLine
 10
26.0240185604
 20
287.9450976563
 30
0.0
 11
30.8397507877
 21
287.9450976563
 31
0.0
  0
LINE
  5
C6
330
1F
100
AcDbEntity
  8
VERERBUNG
  6
Continuous
 62
     7
100
AcDbLine
 10
56.022453983
 20
302.7159663101
 30
0.0
 11
55.35234375
 21
302.8955218059
 31
0.0
  0
LWPOLYLINE
  5
C7
330
1F
100
AcDbEntity
  8
DEFAULT_2
  6
DASHED
 62
     8
100
AcDbPolyline
 90
        2
 70
     0
 43
0.35
 10
168.5543375687
 20
293.9250976563
 10
164.35234375
 20
293.9250976563
  0
LINE
  5
C8
330
1F
100
AcDbEntity
  8
VERERBUNG
  6
Continuous
 62
     7
100
AcDbLine
 10
57.0501741195
 20
302.6955218059
 30
0.0
 11
56.1777454101
 21
302.6955218059
 31
0.0
  0
LINE
  5
C9
330
1F
100
AcDbEntity
  8
RUNDUNGEN
  6
Continuous
 62
     7
100
AcDbLine
 10
191.85234375
 20
303.6750976562
 30
0.0
 11
84.35234375
 21
303.6750976562
 31
0.0
  0
LINE
  5
CA
330
1F
100
AcDbEntity
  8
0
  6
Continuous
 62
     7
100
AcDbLine
 10
84.35234375
 20
303.6750976562
 30
0.0
 11
191.85234375
 21
303.6750976562
 31
0.0
  0
LWPOLYLINE
  5
CB
330
1F
100
AcDbEntity
  8
DEFAULT_2
  6
DASHED
 62
     8
100
AcDbPolyline
 90
        2
 70
     0
 43
0.35
 10
191.85234375
 20
303.6750976562
 10
202.35234375
 20
303.6750976562
  0
LINE
  5
CC
330
1F
100
AcDbEntity
  8
0
  6
Continuous
 62
     7
100
AcDbLine
 10
202.35234375
 20
303.750584384
 30
0.0
 11
213.1665542984
 21
303.750584384
 31
0.0
  0
LINE
  5
CD
330
1F
100
AcDbEntity
  8
VERERBUNG
  6
Continuous
 62
     7
100
AcDbLine
 10
55.35234375
 20
302.8955218059
 30
0.0
 11
26.4923006857
 21
301.4496729138
 31
0.0
  0
LINE
  5
CE
330
1F
100
AcDbEntity
  8
0
  6
Continuous
 62
     7
100
AcDbLine
 10
215.3636515747
 20
305.2483280151
 30
0.0
 11
202.35234375
 21
305.2483280151
 31
0.0
  0
LINE
  5
CF
330
1F
100
AcDbEntity
  8
VERERBUNG
  6
Continuous
 62
     7
100
AcDbLine
 10
74.47734375
 20
306.1750976563
 30
0.0
 11
76.22734375
 21
306.1750976563
 31
0.0
  0
LINE
  5
D0
330
1F
100
AcDbEntity
  8
0
  6
Continuous
 62
     7
100
AcDbLine
 10
202.35234375
 20
307.7235185963
 30
0.0
 11
213.1665542984
 21
307.7235185963
 31
0.0
  0
LINE
  5
D1
330
1F
100
AcDbEntity
  8
RUNDUNGEN
  6
Continuous
 62
     7
100
AcDbLine
 10
213.1665542984
 20
310.1750976563
 30
0.0
 11
193.10234375
 21
310.1750976563
 31
0.0
  0
LINE
  5
D2
330
1F
100
AcDbEntity
  8
VERERBUNG
  6
Continuous
 62
     7
100
AcDbLine
 10
71.9748446752
 20
310.1750976563
 30
0.0
 11
69.35234375
 21
310.1750976563
 31
0.0
  0
LINE
  5
D3
330
1F
100
AcDbEntity
  8
VERERBUNG
  6
Continuous
 62
     7
100
AcDbLine
 10
59.35234375
 20
310.1750976563
 30
0.0
 11
57.35234375
 21
310.1750976563
 31
0.0
  0
LINE
  5
D4
330
1F
100
AcDbEntity
  8
VERERBUNG
  6
Continuous
 62
     7
100
AcDbLine
 10
78.7298428248
 20
310.1750976563
 30
0.0
 11
83.35234375
 21
310.1750976563
 31
0.0
  0
LINE
  5
D5
330
1F
100
AcDbEntity
  8
0
  6
Continuous
 62
     7
100
AcDbLine
 10
193.10234375
 20
310.1750976563
 30
0.0
 11
213.1665542984
 21
310.1750976563
 31
0.0
  0
LWPOLYLINE
  5
D6
330
1F
100
AcDbEntity
  8
DEFAULT_2
  6
DASHED
 62
     8
100
AcDbPolyline
 90
        2
 70
     0
 43
0.35
 10
164.35234375
 20
293.9250976563
 10
164.35234375
 20
263.4250976563
  0
LWPOLYLINE
  5
D7
330
1F
100
AcDbEntity
  8
DEFAULT_2
  6
DASHED
 62
     8
100
AcDbPolyline
 90
        2
 70
     0
 43
0.35
 10
168.5543375687
 20
293.9250976563
 10
168.5543375687
 20
263.4250976563
  0
LINE
  5
D8
330
1F
100
AcDbEntity
  8
RUNDUNGEN
  6
Continuous
 62
     7
100
AcDbLine
 10
191.85234375
 20
248.4250976563
 30
0.0
 11
191.85234375
 21
308.9250976562
 31
0.0
  0
LINE
  5
D9
330
1F
100
AcDbEntity
  8
RUNDUNGEN
  6
Continuous
 62
     9
100
AcDbLine
 10
193.10234375
 20
247.1750976563
 30
0.0
 11
193.10234375
 21
310.1750976563
 31
0.0
  0
LINE
  5
DA
330
1F
100
AcDbEntity
  8
0
  6
Continuous
 62
     7
100
AcDbLine
 10
202.35234375
 20
307.7235185963
 30
0.0
 11
202.35234375
 21
303.750584384
 31
0.0
  0
LINE
  5
DB
330
1F
100
AcDbEntity
  8
0
  6
Continuous
 62
     7
100
AcDbLine
 10
202.35234375
 20
282.6480318686
 30
0.0
 11
202.35234375
 21
274.7021634439
 31
0.0
  0
LINE
  5
DC
330
1F
100
AcDbEntity
  8
0
  6
Continuous
 62
     7
100
AcDbLine
 10
202.35234375
 20
253.5996109285
 30
0.0
 11
202.35234375
 21
249.6266767162
 31
0.0
  0
LWPOLYLINE
  5
DD
330
1F
100
AcDbEntity
  8
DEFAULT_2
  6
DASHED
 62
     8
100
AcDbPolyline
 90
        2
 70
     0
 43
0.35
 10
202.35234375
 20
253.6750976563
 10
202.35234375
 20
303.6750976562
  0
LINE
  5
DE
330
1F
100
AcDbEntity
  8
0
  6
Continuous
 62
     9
100
AcDbLine
 10
213.1665542984
 20
247.1750976563
 30
0.0
 11
213.1665542984
 21
249.6266767162
 31
0.0
  0
LINE
  5
DF
330
1F
100
AcDbEntity
  8
0
  6
Continuous
 62
     9
100
AcDbLine
 10
213.1665542984
 20
253.5996109285
 30
0.0
 11
213.1665542984
 21
274.7021634439
 31
0.0
  0
LINE
  5
E0
330
1F
100
AcDbEntity
  8
0
  6
Continuous
 62
     9
100
AcDbLine
 10
213.1665542984
 20
282.6480318686
 30
0.0
 11
213.1665542984
 21
303.750584384
 31
0.0
  0
LINE
  5
E1
330
1F
100
AcDbEntity
  8
0
  6
Continuous
 62
     9
100
AcDbLine
 10
213.1665542984
 20
307.7235185963
 30
0.0
 11
213.1665542984
 21
310.1750976563
 31
0.0
  0
LINE
  5
E2
330
1F
100
AcDbEntity
  8
0
  6
Continuous
 62
     9
100
AcDbLine
 10
214.2490860531
 20
247.8000976563
 30
0.0
 11
214.2490860531
 21
250.2317499972
 31
0.0
  0
LINE
  5
E3
330
1F
100
AcDbEntity
  8
0
  6
Continuous
 62
     9
100
AcDbLine
 10
214.2490860531
 20
254.0524046838
 30
0.0
 11
214.2490860531
 21
274.8544429696
 31
0.0
  0
LINE
  5
E4
330
1F
100
AcDbEntity
  8
0
  6
Continuous
 62
     9
100
AcDbLine
 10
214.2490860531
 20
282.4957523429
 30
0.0
 11
214.2490860531
 21
303.2977906287
 31
0.0
  0
LINE
  5
E5
330
1F
100
AcDbEntity
  8
0
  6
Continuous
 62
     9
100
AcDbLine
 10
214.2490860531
 20
307.1184453153
 30
0.0
 11
214.2490860531
 21
309.5500976563
 31
0.0
  0
LINE
  5
E6
330
1F
100
AcDbEntity
  8
0
  6
Continuous
 62
     7
100
AcDbLine
 10
217.35234375
 20
304.1750976563
 30
0.0
 11
217.35234375
 21
253.1750976563
 31
0.0
  0
LINE
  5
E7
330
1F
100
AcDbEntity
  8
RUNDUNGEN
  6
Continuous
 62
     7
100
AcDbLine
 10
217.35234375
 20
253.1750976563
 30
0.0
 11
214.2490860531
 21
247.8000976563
 31
0.0
  0
LINE
  5
E8
330
1F
100
AcDbEntity
  8
0
  6
Continuous
 62
     7
100
AcDbLine
 10
214.2490860531
 20
247.8000976563
 30
0.0
 11
217.35234375
 21
253.1750976563
 31
0.0
  0
LINE
  5
E9
330
1F
100
AcDbEntity
  8
0
  6
Continuous
 62
     7
100
AcDbLine
 10
214.2490860531
 20
309.5500976563
 30
0.0
 11
217.35234375
 21
304.1750976563
 31
0.0
  0
LINE
  5
EA
330
1F
100
AcDbEntity
  8
RUNDUNGEN
  6
Continuous
 62
     7
100
AcDbLine
 10
217.35234375
 20
304.1750976563
 30
0.0
 11
214.2490860531
 21
309.5500976563
 31
0.0
  0
LINE
  5
EB
330
1F
100
AcDbEntity
  8
0
  6
Continuous
 62
     7
100
AcDbLine
 10
215.3636515747
 20
275.3250976563
 30
0.0
 11
214.2490860531
 21
274.8544429696
 31
0.0
  0
LINE
  5
EC
330
1F
100
AcDbEntity
  8
0
  6
Continuous
 62
     7
100
AcDbLine
 10
214.2490860531
 20
282.4957523429
 30
0.0
 11
215.3636515747
 21
282.0250976563
 31
0.0
  0
ARC
  5
ED
330
1F
100
AcDbEntity
  8
FASEN
  6
Continuous
 62
     7
100
AcDbCircle
 10
-24.2178967285
 20
258.6250976562
 30
0.0
 40
97.70581044013116
100
AcDbArc
 50
359.8827176823191
 51
0.11728231779816
  0
ARC
  5
EE
330
1F
100
AcDbEntity
  8
FASEN
  6
Continuous
 62
     7
100
AcDbCircle
 10
72.3963496657
 20
262.744494813
 30
0.0
 40
12.92211935370016
100
AcDbArc
 50
219.3764519582008
 51
221.2968513337219
  0
ARC
  5
EF
330
1F
100
AcDbEntity
  8
FASEN
  6
Continuous
 62
     7
100
AcDbCircle
 10
69.489354153
 20
250.8250976562
 30
0.0
 40
8.000000000099988
100
AcDbArc
 50
90.0
 51
152.2781454968999
  0
ARC
  5
F0
330
1F
100
AcDbEntity
  8
FASEN
  6
Continuous
 62
     7
100
AcDbCircle
 10
69.489354153
 20
250.8250976562
 30
0.0
 40
7.599996372199996
100
AcDbArc
 50
90.0
 51
153.4982565739269
  0
ARC
  5
F1
330
1F
100
AcDbEntity
  8
FASEN
  6
Continuous
 62
     7
100
AcDbCircle
 10
75.2797982869
 20
258.2244332228
 30
0.0
 40
1.947545463826496
100
AcDbArc
 50
0.00156498701871
 51
5.91393926133212
  0
ARC
  5
F2
330
1F
100
AcDbEntity
  8
VERERBUNG
  6
Continuous
 62
     7
100
AcDbCircle
 10
29.85234375
 20
273.9050976563
 30
0.0
 40
1.5
100
AcDbArc
 50
270.0
 51
354.6670371750983
  0
ARC
  5
F3
330
1F
100
AcDbEntity
  8
VERERBUNG
  6
Continuous
 62
     7
100
AcDbCircle
 10
26.55234375
 20
257.0990193034
 30
0.0
 40
1.199999999999999
100
AcDbArc
 50
180.0
 51
267.1319572717895
  0
ARC
  5
F4
330
1F
100
AcDbEntity
  8
VERERBUNG
  6
Continuous
 62
     7
100
AcDbCircle
 10
74.47734375
 20
250.1750976563
 30
0.0
 40
1.0
100
AcDbArc
 50
90.0
 51
180.0
  0
ARC
  5
F5
330
1F
100
AcDbEntity
  8
VERERBUNG
  6
Continuous
 62
     7
100
AcDbCircle
 10
56.1777454101
 20
254.0546735066
 30
0.0
 40
0.5999999999999943
100
AcDbArc
 50
90.0
 51
105.0000000028945
  0
ARC
  5
F6
330
1F
100
AcDbEntity
  8
VERERBUNG
  6
Continuous
 62
     7
100
AcDbCircle
 10
57.0501741195
 20
254.0546735066
 30
0.0
 40
0.6000000000003612
100
AcDbArc
 50
59.7415209274156
 51
90.0
  0
ARC
  5
F7
330
1F
100
AcDbEntity
  8
0
  6
Continuous
 62
     7
100
AcDbCircle
 10
-70.3961977226
 20
318.1401012605
 30
0.0
 40
156.0632957305417
100
AcDbArc
 50
335.8202227521907
 51
337.2043014055999
  0
ARC
  5
F8
330
1F
100
AcDbEntity
  8
VERERBUNG
  6
Continuous
 62
     7
100
AcDbCircle
 10
64.333777565
 20
341.4896455155
 30
0.0
 40
31.71385608959983
100
AcDbArc
 50
270.0335425085
 51
279.1049739730002
  0
ARC
  5
F9
330
1F
100
AcDbEntity
  8
0
  6
Continuous
 62
     7
100
AcDbCircle
 10
70.31984375
 20
278.6750976562
 30
0.0
 40
8.017500000099972
100
AcDbArc
 50
90.0
 51
270.0
  0
ARC
  5
FA
330
1F
100
AcDbEntity
  8
VERERBUNG
  6
Continuous
 62
     7
100
AcDbCircle
 10
29.85234375
 20
283.4450976563
 30
0.0
 40
1.50000000000003
100
AcDbArc
 50
5.33296276981269
 51
90.0
  0
ARC
  5
FB
330
1F
100
AcDbEntity
  8
VERERBUNG
  6
Continuous
 62
     7
100
AcDbCircle
 10
26.55234375
 20
300.2511760091
 30
0.0
 40
1.200000000060833
100
AcDbArc
 50
92.86804272821051
 51
180.0
  0
ARC
  5
FC
330
1F
100
AcDbEntity
  8
VERERBUNG
  6
Continuous
 62
     7
100
AcDbCircle
 10
74.47734375
 20
307.1750976562
 30
0.0
 40
1.0
100
AcDbArc
 50
180.0
 51
270.0
  0
ARC
  5
FD
330
1F
100
AcDbEntity
  8
VERERBUNG
  6
Continuous
 62
     7
100
AcDbCircle
 10
56.1777454101
 20
303.2955218059
 30
0.0
 40
0.6000000000356516
100
AcDbArc
 50
254.9999999971069
 51
270.0
  0
ARC
  5
FE
330
1F
100
AcDbEntity
  8
VERERBUNG
  6
Continuous
 62
     7
100
AcDbCircle
 10
57.0501741195
 20
303.2955218059
 30
0.0
 40
0.6000000000000227
100
AcDbArc
 50
270.0
 51
300.258479072583
  0
ARC
  5
FF
330
1F
100
AcDbEntity
  8
VERERBUNG
  6
Continuous
 62
     7
100
AcDbCircle
 10
131.2359411565
 20
-589.85996426
 30
0.0
 40
884.3221864331545
100
AcDbArc
 50
96.58318095120157
 51
96.8023740697
  0
ARC
  5
100
330
1F
100
AcDbEntity
  8
FASEN
  6
Continuous
 62
     7
100
AcDbCircle
 10
174.9225842305
 20
258.6250976563
 30
0.0
 40
97.70581044213138
100
AcDbArc
 50
179.8827176822629
 51
180.1172823177371
  0
ARC
  5
101
330
1F
100
AcDbEntity
  8
0
  6
Continuous
 62
     7
100
AcDbCircle
 10
202.9278710329
 20
253.7768672974
 30
0.0
 40
12.54807804740676
100
AcDbArc
 50
352.3288848667713
 51
7.67111513319913
  0
ARC
  5
102
330
1F
100
AcDbEntity
  8
FASEN
  6
Continuous
 62
     7
100
AcDbCircle
 10
75.4248892131
 20
258.2244332228
 30
0.0
 40
1.947545463813452
100
AcDbArc
 50
174.0860607386679
 51
179.9984350129813
  0
ARC
  5
103
330
1F
100
AcDbEntity
  8
RUNDUNGEN
  6
Continuous
 62
     7
100
AcDbCircle
 10
213.1665542984
 20
248.4250976563
 30
0.0
 40
1.25
100
AcDbArc
 50
270.0
 51
329.9999999992999
  0
ARC
  5
104
330
1F
100
AcDbEntity
  8
RUNDUNGEN
  6
Continuous
 62
     7
100
AcDbCircle
 10
193.10234375
 20
248.4250976563
 30
0.0
 40
1.25
100
AcDbArc
 50
180.0
 51
270.0
  0
ARC
  5
105
330
1F
100
AcDbEntity
  8
RUNDUNGEN
  6
Continuous
 62
     7
100
AcDbCircle
 10
84.35234375
 20
252.6750976563
 30
0.0
 40
1.0
100
AcDbArc
 50
90.0
 51
180.0
  0
ARC
  5
106
330
1F
100
AcDbEntity
  8
VERERBUNG
  6
Continuous
 62
     7
100
AcDbCircle
 10
76.22734375
 20
250.1750976563
 30
0.0
 40
1.0
100
AcDbArc
 50
0.0
 51
90.0
  0
ARC
  5
107
330
1F
100
AcDbEntity
  8
VERERBUNG
  6
Continuous
 62
     7
100
AcDbCircle
 10
131.2359411597
 20
1147.2101595998
 30
0.0
 40
884.3221864605997
100
AcDbArc
 50
263.1976259303
 51
263.4168190487953
  0
ARC
  5
108
330
1F
100
AcDbEntity
  8
0
  6
Continuous
 62
     7
100
AcDbCircle
 10
221.1008852228
 20
318.1401012606
 30
0.0
 40
156.0632957307999
100
AcDbArc
 50
202.7956985943999
 51
204.1797772478128
  0
ARC
  5
109
330
1F
100
AcDbEntity
  8
0
  6
Continuous
 62
     7
100
AcDbCircle
 10
165.4520831489
 20
278.6750976563
 30
0.0
 40
50.02386593140634
100
AcDbArc
 50
356.16014046767
 51
3.83985953232996
  0
ARC
  5
10A
330
1F
100
AcDbEntity
  8
0
  6
Continuous
 62
     7
100
AcDbCircle
 10
202.9278710329
 20
303.5733280151
 30
0.0
 40
12.54807804749975
100
AcDbArc
 50
352.328884866801
 51
7.67111513322869
  0
ARC
  5
10B
330
1F
100
AcDbEntity
  8
RUNDUNGEN
  6
Continuous
 62
     7
100
AcDbCircle
 10
213.1665542984
 20
308.9250976562
 30
0.0
 40
1.250000000023538
100
AcDbArc
 50
30.0000000046692
 51
90.0
  0
ARC
  5
10C
330
1F
100
AcDbEntity
  8
RUNDUNGEN
  6
Continuous
 62
     7
100
AcDbCircle
 10
193.10234375
 20
308.9250976562
 30
0.0
 40
1.250000000099988
100
AcDbArc
 50
90.0
 51
180.0
  0
ARC
  5
10D
330
1F
100
AcDbEntity
  8
VERERBUNG
  6
Continuous
 62
     7
100
AcDbCircle
 10
76.22734375
 20
307.1750976562
 30
0.0
 40
0.9999999999000124
100
AcDbArc
 50
270.0
 51
0.0
  0
ARC
  5
10E
330
1F
100
AcDbEntity
  8
RUNDUNGEN
  6
Continuous
 62
     7
100
AcDbCircle
 10
84.35234375
 20
304.6750976563
 30
0.0
 40
0.9999999999999941
100
AcDbArc
 50
185.6250007271715
 51
270.0
  0
CIRCLE
  5
10F
330
1F
100
AcDbEntity
  8
VERERBUNG
  6
Continuous
 62
     7
100
AcDbCircle
 10
48.35234375
 20
278.6750976563
 30
0.0
 40
3.75
  0
SPLINE
  5
110
330
1F
100
AcDbEntity
  8
0
  6
Continuous
 62
     7
100
AcDbSpline
210
0.0
220
0.0
230
1.0
 70
     8
 71
     3
 72
     9
 73
     5
 74
     3
 42
0.0000000001
 43
0.0000000001
 44
0.00000001
 40
0.0
 40
0.0
 40
0.0
 40
0.0
 40
0.8945322749331488
 40
1.789064548103917
 40
1.789064548103917
 40
1.789064548103917
 40
1.789064548103917
 10
214.2490860531
 20
254.0524046838
 30
0.0
 10
214.4348899315858
 20
254.2856142401683
 30
0.0
 10
214.8064976881913
 20
254.7520333524454
 30
0.0
 10
215.1779336127144
 20
255.2185893159056
 30
0.0
 10
215.363651574793
 20
255.451867297406
 30
0.0
 11
214.2490860531
 21
254.0524046838
 31
0.0
 11
214.8064547305366
 21
254.7520675657007
 31
0.0
 11
215.363651574793
 21
255.451867297406
 31
0.0
  0
SPLINE
  5
111
330
1F
100
AcDbEntity
  8
0
  6
Continuous
 62
     7
100
AcDbSpline
210
0.0
220
0.0
230
1.0
 70
     8
 71
     3
 72
     9
 73
     5
 74
     3
 42
0.0000000001
 43
0.0000000001
 44
0.00000001
 40
0.0
 40
0.0
 40
0.0
 40
0.0
 40
0.894532273170741
 40
1.789064548103894
 40
1.789064548103894
 40
1.789064548103894
 40
1.789064548103894
 10
215.363651574793
 20
301.898328015094
 30
0.0
 10
215.1779336127144
 20
302.1316059965944
 30
0.0
 10
214.8064976881912
 20
302.5981619600547
 30
0.0
 10
214.4348899315858
 20
303.0645810723317
 30
0.0
 10
214.2490860531
 20
303.2977906287
 30
0.0
 11
215.363651574793
 21
301.898328015094
 31
0.0
 11
214.8064547305366
 21
302.5981277467993
 31
0.0
 11
214.2490860531
 21
303.2977906287
 31
0.0
  0
SPLINE
  5
112
330
1F
100
AcDbEntity
  8
0
  6
Continuous
 62
     7
100
AcDbSpline
210
0.0
220
0.0
230
1.0
 70
     8
 71
     3
 72
    13
 73
     9
 74
     7
 42
0.0000000001
 43
0.0000000001
 44
0.00000001
 40
0.0
 40
0.0
 40
0.0
 40
0.0
 40
0.1629838413781581
 40
0.3259920208265231
 40
0.4834028875645809
 40
0.6414569938924245
 40
0.9270148569187735
 40
1.209880548996445
 40
1.209880548996445
 40
1.209880548996445
 40
1.209880548996445
 10
213.1665542984
 20
253.5996109285
 30
0.0
 10
213.2209049415289
 20
253.6011030052876
 30
0.0
 10
213.3296143438661
 20
253.6040873816719
 30
0.0
 10
213.4893192057121
 20
253.6279154558183
 30
0.0
 10
213.6446860843082
 20
253.6653085393483
 30
0.0
 10
213.8331134943033
 20
253.7332920980592
 30
0.0
 10
214.0513560568213
 20
253.8465575661161
 30
0.0
 10
214.1833844922885
 20
253.9840059725527
 30
0.0
 10
214.2490860531
 20
254.0524046838
 30
0.0
 11
213.1665542984
 21
253.5996109285
 31
0.0
 11
213.3293539250465
 21
253.6073578062017
 31
0.0
 11
213.4906988529042
 21
253.6305845326537
 31
0.0
 11
213.643597303279
 21
253.6680043781936
 31
0.0
 11
213.7924019744799
 21
253.721279798003
 31
0.0
 11
214.0423896800332
 21
253.8592995074955
 31
0.0
 11
214.2490860531
 21
254.0524046838
 31
0.0
  0
SPLINE
  5
113
330
1F
100
AcDbEntity
  8
0
  6
Continuous
 62
     7
100
AcDbSpline
210
0.0
220
0.0
230
1.0
 70
     8
 71
     3
 72
    13
 73
     9
 74
     7
 42
0.0000000001
 43
0.0000000001
 44
0.00000001
 40
0.0
 40
0.0
 40
0.0
 40
0.0
 40
0.282866152945536
 40
0.5684244885546381
 40
0.7264784430232349
 40
0.8838891563271087
 40
1.04689701864056
 40
1.209880543936831
 40
1.209880543936831
 40
1.209880543936831
 40
1.209880543936831
 10
214.2490860531
 20
303.2977906287
 30
0.0
 10
214.183384373788
 20
303.3661894423908
 30
0.0
 10
214.0513556984896
 20
303.5036380564617
 30
0.0
 10
213.8331128262059
 20
303.6169035238698
 30
0.0
 10
213.6446853271755
 20
303.6848869950256
 30
0.0
 10
213.4893186347984
 20
303.7222799629809
 30
0.0
 10
213.3296140270656
 20
303.7461079491767
 30
0.0
 10
213.2209048360458
 20
303.7490923133251
 30
0.0
 10
213.1665542984
 20
303.750584384
 30
0.0
 11
214.2490860531
 21
303.2977906287
 31
0.0
 11
214.042389300202
 21
303.4908960735317
 31
0.0
 11
213.7924011071845
 21
303.6289158778631
 31
0.0
 11
213.64359654865
 21
303.6821911618372
 31
0.0
 11
213.4906982308754
 21
303.7196109037458
 31
0.0
 11
213.3293536100988
 21
303.7428375376493
 31
0.0
 11
213.1665542984
 21
303.750584384
 31
0.0
  0
SPLINE
  5
114
330
1F
100
AcDbEntity
  8
0
  6
Continuous
 62
     7
100
AcDbSpline
210
0.0
220
0.0
230
1.0
 70
     8
 71
     3
 72
     9
 73
     5
 74
     3
 42
0.0000000001
 43
0.0000000001
 44
0.00000001
 40
0.0
 40
0.0
 40
0.0
 40
0.0
 40
1.088530555906415
 40
2.177061109991705
 40
2.177061109991705
 40
2.177061109991705
 40
2.177061109991705
 10
214.2490860531
 20
307.1184453153
 30
0.0
 10
214.4348987781328
 20
306.8067899732117
 30
0.0
 10
214.8065242278873
 20
306.1834792895563
 30
0.0
 10
215.1779424591994
 20
305.5600451064116
 30
0.0
 10
215.3636515747
 20
305.2483280151
 30
0.0
 11
214.2490860531
 21
307.1184453153
 31
0.0
 11
214.8064724235875
 21
306.1834484141625
 31
0.0
 11
215.3636515747
 21
305.2483280151
 31
0.0
  0
SPLINE
  5
115
330
1F
100
AcDbEntity
  8
0
  6
Continuous
 62
     7
100
AcDbSpline
210
0.0
220
0.0
230
1.0
 70
     8
 71
     3
 72
     9
 73
     5
 74
     3
 42
0.0000000001
 43
0.0000000001
 44
0.00000001
 40
0.0
 40
0.0
 40
0.0
 40
0.0
 40
1.08853055408529
 40
2.177061109991705
 40
2.177061109991705
 40
2.177061109991705
 40
2.177061109991705
 10
215.3636515747
 20
252.1018672974
 30
0.0
 10
215.1779424591993
 20
251.7901502060884
 30
0.0
 10
214.8065242278873
 20
251.1667160229436
 30
0.0
 10
214.4348987781328
 20
250.5434053392884
 30
0.0
 10
214.2490860531
 20
250.2317499972
 30
0.0
 11
215.3636515747
 21
252.1018672974
 31
0.0
 11
214.8064724235875
 21
251.1667468983375
 31
0.0
 11
214.2490860531
 21
250.2317499972
 31
0.0
  0
SPLINE
  5
116
330
1F
100
AcDbEntity
  8
0
  6
Continuous
 62
     7
100
AcDbSpline
210
0.0
220
0.0
230
1.0
 70
     8
 71
     3
 72
    15
 73
    11
 74
     9
 42
0.0000000001
 43
0.0000000001
 44
0.00000001
 40
0.0
 40
0.0
 40
0.0
 40
0.0
 40
0.159719279983313
 40
0.3197368409602155
 40
0.4812712600962024
 40
0.6427231322732839
 40
0.8055799296767244
 40
0.9685258155574255
 40
1.132380830341542
 40
1.295959296677751
 40
1.295959296677751
 40
1.295959296677751
 40
1.295959296677751
 10
214.2490860531
 20
250.2317499972
 30
0.0
 10
214.2200237891528
 20
250.1870507674912
 30
0.0
 10
214.1618449865273
 20
250.097568830796
 30
0.0
 10
214.0528691291264
 20
249.9788906195482
 30
0.0
 10
213.9300726750553
 20
249.8742085111178
 30
0.0
 10
213.7936805729336
 20
249.7860158137865
 30
0.0
 10
213.6467449102399
 20
249.7157099985864
 30
0.0
 10
213.4912804566621
 20
249.6648604222492
 30
0.0
 10
213.3303305493484
 20
249.6327195638582
 30
0.0
 10
213.2211156346184
 20
249.6286898642656
 30
0.0
 10
213.1665542984
 20
249.6266767162
 30
0.0
 11
214.2490860531
 21
250.2317499972
 31
0.0
 11
214.1583508218746
 21
250.1003066017293
 31
0.0
 11
214.0509987172842
 21
249.9816425993487
 31
0.0
 11
213.9279109814235
 21
249.8770348661436
 31
0.0
 11
213.7924011071535
 21
249.7892636806395
 31
0.0
 11
213.6454743348335
 21
249.7190151216781
 31
0.0
 11
213.4906982308674
 21
249.6680669188982
 31
0.0
 11
213.329802467763
 21
249.637066607852
 31
0.0
 11
213.1665542984
 21
249.6266767162
 31
0.0
  0
SPLINE
  5
117
330
1F
100
AcDbEntity
  8
0
  6
Continuous
 62
     7
100
AcDbSpline
210
0.0
220
0.0
230
1.0
 70
     8
 71
     3
 72
    13
 73
     9
 74
     7
 42
0.0000000001
 43
0.0000000001
 44
0.00000001
 40
0.0
 40
0.0
 40
0.0
 40
0.0
 40
0.1039194727436564
 40
0.2080168457468364
 40
0.3396345108981342
 40
0.4711855883896302
 40
0.7849337817186604
 40
1.098755804375773
 40
1.098755804375773
 40
1.098755804375773
 40
1.098755804375773
 10
214.2490860531
 20
274.8544429696
 30
0.0
 10
214.2167224063644
 20
274.8420216119123
 30
0.0
 10
214.1519397094063
 20
274.8171576323533
 30
0.0
 10
214.0422569535807
 20
274.7884774516439
 30
0.0
 10
213.9224864792197
 20
274.7630302742027
 30
0.0
 10
213.7325151320269
 20
274.7328201508108
 30
0.0
 10
213.480413232582
 20
274.7071532093509
 30
0.0
 10
213.2711821479943
 20
274.7038268294923
 30
0.0
 10
213.1665542984
 20
274.7021634439
 30
0.0
 11
214.2490860531
 21
274.8544429696
 31
0.0
 11
214.1513973890434
 21
274.8190003154928
 31
0.0
 11
214.0509987172937
 21
274.7914981378146
 31
0.0
 11
213.9222558619294
 21
274.7641396478611
 31
0.0
 11
213.7924011071491
 21
274.7430819022524
 31
0.0
 11
213.4802335735034
 21
274.7116278126169
 31
0.0
 11
213.1665542984
 21
274.7021634439
 31
0.0
  0
SPLINE
  5
118
330
1F
100
AcDbEntity
  8
0
  6
Continuous
 62
     7
100
AcDbSpline
210
0.0
220
0.0
230
1.0
 70
     8
 71
     3
 72
    13
 73
     9
 74
     7
 42
0.0000000001
 43
0.0000000001
 44
0.00000001
 40
0.0
 40
0.0
 40
0.0
 40
0.0
 40
0.3138224605209443
 40
0.6275710913523409
 40
0.7591219682371628
 40
0.8907394320550801
 40
0.9948365677232683
 40
1.09875580427492
 40
1.09875580427492
 40
1.09875580427492
 40
1.09875580427492
 10
213.1665542984
 20
282.6480318686
 30
0.0
 10
213.2711822940321
 20
282.6463684788523
 30
0.0
 10
213.4804136705749
 20
282.6430420906851
 30
0.0
 10
213.7325157915502
 20
282.6173750857899
 30
0.0
 10
213.9224871430092
 20
282.58716491467
 30
0.0
 10
214.0422574030989
 20
282.5617177533315
 30
0.0
 10
214.1519399332374
 20
282.5330376018693
 30
0.0
 10
214.2167224808556
 20
282.5081736745395
 30
0.0
 10
214.2490860531
 20
282.4957523429
 30
0.0
 11
213.1665542984
 21
282.6480318686
 31
0.0
 11
213.4802340107763
 21
282.6385674736923
 31
0.0
 11
213.7924019744631
 21
282.6071132880214
 31
0.0
 11
213.9222565260876
 21
282.5860555428535
 31
0.0
 11
214.0509991778811
 21
282.5586970635272
 31
0.0
 11
214.1513976145908
 21
282.5311949261455
 31
0.0
 11
214.2490860531
 21
282.4957523429
 31
0.0
  0
SPLINE
  5
119
330
1F
100
AcDbEntity
  8
0
  6
Continuous
 62
     7
100
AcDbSpline
210
0.0
220
0.0
230
1.0
 70
     8
 71
     3
 72
    15
 73
    11
 74
     9
 42
0.0000000001
 43
0.0000000001
 44
0.00000001
 40
0.0
 40
0.0
 40
0.0
 40
0.0
 40
0.1635787863754471
 40
0.3274341230303172
 40
0.4903801840310847
 40
0.6532371552692526
 40
0.8146888507520523
 40
0.9762230920315866
 40
1.136240333877002
 40
1.2959592966396
 40
1.2959592966396
 40
1.2959592966396
 40
1.2959592966396
 10
213.1665542984
 20
307.7235185963
 30
0.0
 10
213.2211157414939
 20
307.721505439799
 30
0.0
 10
213.330330870586
 20
307.7174757233058
 30
0.0
 10
213.4912810356715
 20
307.6853347455615
 30
0.0
 10
213.6467456740646
 20
307.6344850122224
 30
0.0
 10
213.7936813409631
 20
307.5641790692964
 30
0.0
 10
213.9300733290723
 20
307.4759863091671
 30
0.0
 10
214.0528695510558
 20
307.3713042759472
 30
0.0
 10
214.1618451721613
 20
307.2526262216097
 30
0.0
 10
214.2200238509124
 20
307.1631444584876
 30
0.0
 10
214.2490860531
 20
307.1184453153
 30
0.0
 11
213.1665542984
 21
307.7235185963
 31
0.0
 11
213.3298027857436
 21
307.7131286621283
 31
0.0
 11
213.4906988529173
 21
307.6821282279649
 31
0.0
 11
213.6454750943638
 21
307.6311798827576
 31
0.0
 11
213.7924019744605
 21
307.5609311462145
 31
0.0
 11
213.927911638461
 21
307.473159961098
 31
0.0
 11
214.0509991778816
 21
307.3685522713943
 31
0.0
 11
214.1583510207782
 21
307.2498884626129
 31
0.0
 11
214.2490860531
 21
307.1184453153
 31
0.0
  0
SPLINE
  5
11A
330
1F
100
AcDbEntity
  8
VERERBUNG
  6
Continuous
 62
     7
100
AcDbSpline
210
0.0
220
0.0
230
1.0
 70
     8
 71
     3
 72
    13
 73
     9
 74
     7
 42
0.0000000001
 43
0.0000000001
 44
0.00000001
 40
0.0
 40
0.0
 40
0.0
 40
0.0
 40
0.9581451161705911
 40
1.916374757543972
 40
2.729668920807501
 40
3.542928077726967
 40
4.281951737053952
 40
5.020980281049309
 40
5.020980281049309
 40
5.020980281049309
 40
5.020980281049309
 10
64.35234375
 20
309.7757407364
 30
0.0
 10
64.03294958367471
 20
309.7785842741019
 30
0.0
 10
63.39413307485723
 20
309.7842716003558
 30
0.0
 10
62.48506895363609
 20
309.8278793189983
 30
0.0
 10
61.62575084640709
 20
309.8914357051814
 30
0.0
 10
60.8411123034919
 20
309.9704327211872
 30
0.0
 10
60.08298077599992
 20
310.0638437817065
 30
0.0
 10
59.5958899619127
 20
310.1380129497307
 30
0.0
 10
59.35234375
 20
310.1750976563
 30
0.0
 11
64.35234375
 21
309.7757407364
 31
0.0
 11
63.39431235815616
 21
309.7905027106344
 31
0.0
 11
62.43710064626246
 21
309.8346590716721
 31
0.0
 11
61.62604931593064
 21
309.8950174643406
 31
0.0
 11
60.81683756783973
 21
309.9760532778122
 31
0.0
 11
60.08347132937617
 21
310.0673217243141
 31
0.0
 11
59.35234375
 21
310.1750976563
 31
0.0
  0
SPLINE
  5
11B
330
1F
100
AcDbEntity
  8
VERERBUNG
  6
Continuous
 62
     7
100
AcDbSpline
210
0.0
220
0.0
230
1.0
 70
     8
 71
     3
 72
    43
 73
    39
 74
    37
 42
0.0000000001
 43
0.0000000001
 44
0.00000001
 40
0.0
 40
0.0
 40
0.0
 40
0.0
 40
0.4175881289718686
 40
0.8356316530853527
 40
1.253282831965197
 40
1.670787328004681
 40
2.088079154497501
 40
2.505458237112244
 40
2.922766757469052
 40
3.339867556013053
 40
3.54861284594051
 40
3.757291312396017
 40
3.966036487518147
 40
4.174848410702285
 40
4.59241699088178
 40
5.010187344177194
 40
5.428059866881841
 40
5.845880990822017
 40
6.263484877169136
 40
6.681103578776222
 40
7.097989619731771
 40
7.514858051231204
 40
7.930683045110772
 40
8.34655796170345
 40
8.761608456998589
 40
9.176458234565404
 40
9.383846863126136
 40
9.591169424624498
 40
9.798492920816912
 40
10.00588294525172
 40
10.42072923636737
 40
10.83577763644115
 40
11.25173036417902
 40
11.66760664531998
 40
12.08452417581697
 40
12.5015751161469
 40
12.91952009632335
 40
13.33702820997535
 40
13.33702820997535
 40
13.33702820997535
 40
13.33702820997535
 10
44.1029700397
 20
278.6750976563
 30
0.0
 10
44.10689091913788
 20
278.8143529348545
 30
0.0
 10
44.11473695387622
 20
279.0930153549426
 30
0.0
 10
44.17888855399138
 20
279.506867413704
 30
0.0
 10
44.28029901056046
 20
279.9126347257319
 30
0.0
 10
44.42174630355065
 20
280.3062079590231
 30
0.0
 10
44.60112634395816
 20
280.6838161016748
 30
0.0
 10
44.81679363884236
 20
281.0419014413268
 30
0.0
 10
45.06671374669594
 20
281.3768611268696
 30
0.0
 10
45.30138377165557
 20
281.6342786149455
 30
0.0
 10
45.50355215696146
 20
281.8254881956948
 30
0.0
 10
45.66213571306329
 20
281.9613295306109
 30
0.0
 10
45.82721719861189
 20
282.0892316635403
 30
0.0
 10
46.05546774028786
 20
282.2487510326509
 30
0.0
 10
46.35522686831518
 20
282.4268181562276
 30
0.0
 10
46.73407960157336
 20
282.6043598335817
 30
0.0
 10
47.12862211508006
 20
282.7439114682309
 30
0.0
 10
47.53483501715685
 20
282.8442905975572
 30
0.0
 10
47.94883114224487
 20
282.9044605305602
 30
0.0
 10
48.36640668639219
 20
282.9240441096059
 30
0.0
 10
48.78365000395366
 20
282.9027355756763
 30
0.0
 10
49.19625087947582
 20
282.8410223223282
 30
0.0
 10
49.60051274271412
 20
282.7393528329168
 30
0.0
 10
49.992378057069
 20
282.5989654689448
 30
0.0
 10
50.36828340473458
 20
282.4209982959801
 30
0.0
 10
50.66539971498631
 20
282.2429764778396
 30
0.0
 10
50.89154263354791
 20
282.0836843490415
 30
0.0
 10
51.05505827557411
 20
281.95605125214
 30
0.0
 10
51.2121226254956
 20
281.8205574738218
 30
0.0
 10
51.4124525914627
 20
281.6298166542658
 30
0.0
 10
51.6450134825342
 20
281.3731364004713
 30
0.0
 10
51.89283282462593
 20
281.0390914923
 30
0.0
 10
52.10673263972822
 20
280.6819353433389
 30
0.0
 10
52.28483301177697
 20
280.3049962573612
 30
0.0
 10
52.42538742229566
 20
279.9120339812388
 30
0.0
 10
52.52623685278036
 20
279.5065692627304
 30
0.0
 10
52.58992153973583
 20
279.0929211354469
 30
0.0
 10
52.59778685772896
 20
278.8143235888961
 30
0.0
 10
52.6017174603
 20
278.6750976563
 30
0.0
 11
44.1029700397
 21
278.6750976563
 31
0.0
 11
44.12345499271734
 21
279.0921830338405
 31
0.0
 11
44.1851266933481
 21
279.5056524878447
 31
0.0
 11
44.28699769883617
 21
279.9106892830382
 31
0.0
 11
44.42810088860188
 21
280.3036268023095
 31
0.0
 11
44.60716526371297
 21
280.6805464462972
 31
0.0
 11
44.82252215623181
 21
281.038075056969
 31
0.0
 11
45.07203787315149
 21
281.3725721543742
 31
0.0
 11
45.35306318332616
 21
281.6807893686683
 31
0.0
 11
45.50471707229052
 21
281.8242316707584
 31
0.0
 11
45.66319847624848
 21
281.9599900847213
 31
0.0
 11
45.82821222678068
 21
282.0878376903777
 31
0.0
 11
45.99937049552405
 21
282.2074506758961
 31
0.0
 11
46.35834616310215
 21
282.4207579407512
 31
0.0
 11
46.73665031871189
 21
282.5980092706221
 31
0.0
 11
47.13059271021954
 21
282.7373894607668
 31
0.0
 11
47.53621712227212
 21
282.837605866398
 31
0.0
 11
47.94947466032728
 21
282.8976992365215
 31
0.0
 11
48.36663650490802
 21
282.9172280705365
 31
0.0
 11
48.78298121783729
 21
282.8959901054872
 31
0.0
 11
49.19525737156012
 21
282.8342838476822
 31
0.0
 11
49.5985275636946
 21
282.7328758713156
 31
0.0
 11
49.99002180686072
 21
282.5925754656898
 31
0.0
 11
50.36516626406232
 21
282.4149985812829
 31
0.0
 11
50.72099883081714
 21
282.2017299188313
 31
0.0
 11
50.89055119320886
 21
282.0823061370134
 31
0.0
 11
51.05398287402064
 21
281.9547415250974
 31
0.0
 11
51.21096460038304
 21
281.8193171193881
 31
0.0
 11
51.36115910185512
 21
281.6763058122735
 31
0.0
 11
51.6397246877669
 21
281.3688994694664
 31
0.0
 11
51.88697961946522
 21
281.035537544294
 31
0.0
 11
52.10072946889515
 21
280.6787075097099
 31
0.0
 11
52.27841972346634
 21
280.302703181748
 31
0.0
 11
52.41872338519844
 21
279.9101027363328
 31
0.0
 11
52.51997610346506
 21
279.5055296602715
 31
0.0
 11
52.58128118993189
 21
279.0921053106886
 31
0.0
 11
52.6017174603
 21
278.6750976563
 31
0.0
  0
SPLINE
  5
11C
330
1F
100
AcDbEntity
  8
VERERBUNG
  6
Continuous
 62
     7
100
AcDbSpline
210
0.0
220
0.0
230
1.0
 70
     8
 71
     3
 72
    43
 73
    39
 74
    37
 42
0.0000000001
 43
0.0000000001
 44
0.00000001
 40
0.0
 40
0.0
 40
0.0
 40
0.0
 40
0.4175035109935792
 40
0.83545556486017
 40
1.252511183716964
 40
1.669422664497554
 40
2.085295425820159
 40
2.501251326671105
 40
2.916298094185049
 40
3.331138757832444
 40
3.538526233057246
 40
3.745847791003921
 40
3.953170095148816
 40
4.160558348236888
 40
4.575407544452018
 40
4.990456744675655
 40
5.406332394458794
 40
5.822158816092529
 40
6.239027280534651
 40
6.655913113582189
 40
7.073532178573513
 40
7.491136194389859
 40
7.908956414506601
 40
8.326828662589538
 40
8.744600199996833
 40
9.162169349401156
 40
9.370981458446806
 40
9.579726706229037
 40
9.788406630795112
 40
9.99715392654382
 40
10.41425933417024
 40
10.83156890853423
 40
11.24894510865408
 40
11.66624011611449
 40
12.08375102635746
 40
12.50139861941242
 40
12.9194354478835
 40
13.33702799569508
 40
13.33702799569508
 40
13.33702799569508
 40
13.33702799569508
 10
52.6017174603
 20
278.6750976563
 30
0.0
 10
52.59781288077708
 20
278.5358714493802
 30
0.0
 10
52.58999952686514
 20
278.25726945854
 30
0.0
 10
52.5262099324524
 20
277.8436321754168
 30
0.0
 10
52.42537326765208
 20
277.4381666592765
 30
0.0
 10
52.28484739083228
 20
277.0451944042436
 30
0.0
 10
52.10673534237692
 20
276.6682620860431
 30
0.0
 10
51.89282181167774
 20
276.3111158996041
 30
0.0
 10
51.64501966855572
 20
275.977061038312
 30
0.0
 10
51.41247159813176
 20
275.7203725140098
 30
0.0
 10
51.21213908715965
 20
275.5296390106481
 30
0.0
 10
51.05507042039631
 20
275.3941526804726
 30
0.0
 10
50.89155204437434
 20
275.2665245717811
 30
0.0
 10
50.66540777980735
 20
275.1072352002686
 30
0.0
 10
50.36829570217382
 20
274.9292084637991
 30
0.0
 10
49.99239517622438
 20
274.7512315300326
 30
0.0
 10
49.60052956789854
 20
274.6108432644248
 30
0.0
 10
49.19626640004409
 20
274.5091761330414
 30
0.0
 10
48.78366529651656
 20
274.4474622578102
 30
0.0
 10
48.36642205009559
 20
274.426151558581
 30
0.0
 10
47.9488462877755
 20
274.4457326466538
 30
0.0
 10
47.53485003387315
 20
274.5059014424087
 30
0.0
 10
47.12863795637465
 20
274.6062826741864
 30
0.0
 10
46.73409552710705
 20
274.745833787088
 30
0.0
 10
46.35523848881391
 20
274.9233670077261
 30
0.0
 10
46.0554755577201
 20
275.1014295698185
 30
0.0
 10
45.82722596024505
 20
275.2609508952329
 30
0.0
 10
45.66214679574983
 20
275.3888570453907
 30
0.0
 10
45.50356712305368
 20
275.5247047515297
 30
0.0
 10
45.30140121388276
 20
275.7159206506971
 30
0.0
 10
45.06672030988894
 20
275.9733307368756
 30
0.0
 10
44.81678534814628
 20
276.3082814595636
 30
0.0
 10
44.60112979346336
 20
276.6663752410541
 30
0.0
 10
44.42175933167695
 20
277.0439894497675
 30
0.0
 10
44.28028666538822
 20
277.4375543436763
 30
0.0
 10
44.17886634624389
 20
277.8433219720741
 30
0.0
 10
44.11481437651454
 20
278.2571845606335
 30
0.0
 10
44.10691675232322
 20
278.5358426759745
 30
0.0
 10
44.1029700397
 20
278.6750976563
 30
0.0
 11
52.6017174603
 21
278.6750976563
 31
0.0
 11
52.58132907772835
 21
278.2580922659894
 31
0.0
 11
52.51996853500175
 21
277.8446689924215
 31
0.0
 11
52.41871067410688
 21
277.4400923806074
 31
0.0
 11
52.27842774346777
 21
277.047490951448
 31
0.0
 11
52.10073297858037
 21
276.6714926480719
 31
0.0
 11
51.88697278087545
 21
276.3146651136385
 31
0.0
 11
51.63972947259013
 21
275.9812966002304
 31
0.0
 11
51.36117649487456
 21
275.6738864266492
 31
0.0
 11
51.21098092897379
 21
275.5308799342656
 31
0.0
 11
51.05399580848943
 21
275.3954624304637
 31
0.0
 11
50.89056093294865
 21
275.2679023299114
 31
0.0
 11
50.7210076396964
 21
275.1484805217428
 31
0.0
 11
50.36517838607304
 21
274.935207462342
 31
0.0
 11
49.99003880092086
 21
274.7576233125478
 31
0.0
 11
49.59854451002057
 21
274.6173208668278
 31
0.0
 11
49.19527256389264
 21
274.5159140110688
 31
0.0
 11
48.78299642196852
 21
274.4542074518835
 31
0.0
 11
48.36665201625781
 21
274.4329675453598
 31
0.0
 11
47.94948970503523
 21
274.4524941820304
 31
0.0
 11
47.53623192446153
 21
274.5125867840812
 31
0.0
 11
47.13060868329558
 21
274.6128041606406
 31
0.0
 11
46.73666603952479
 21
274.7521828144465
 31
0.0
 11
46.35835760205715
 21
274.9294277963457
 31
0.0
 11
45.99937881528582
 21
275.1427309261456
 31
0.0
 11
45.82822127487871
 21
275.2623452783191
 31
0.0
 11
45.66321025561768
 21
275.3901965278011
 31
0.0
 11
45.50473194090007
 21
275.5259607892294
 31
0.0
 11
45.35307917939046
 21
275.6694072022515
 31
0.0
 11
45.07204316717595
 21
275.9776208958307
 31
0.0
 11
44.82251750024005
 21
276.312111885838
 31
0.0
 11
44.60716943355239
 21
276.6696424476091
 31
0.0
 11
44.42810853313908
 21
277.0465672639778
 31
0.0
 11
44.28698683028854
 21
277.4395049500764
 31
0.0
 11
44.18512244460958
 21
277.8445397126769
 31
0.0
 11
44.12350327198941
 21
278.2580102285831
 31
0.0
 11
44.1029700397
 21
278.6750976563
 31
0.0
  0
SPLINE
  5
11D
330
1F
100
AcDbEntity
  8
VERERBUNG
  6
Continuous
 62
     7
100
AcDbSpline
210
0.0
220
0.0
230
1.0
 70
     8
 71
     3
 72
    13
 73
     9
 74
     7
 42
0.0000000001
 43
0.0000000001
 44
0.00000001
 40
0.0
 40
0.0
 40
0.0
 40
0.0
 40
0.476518241976527
 40
0.9529821706518209
 40
1.193158830003218
 40
1.433310795930529
 40
1.675484054975865
 40
1.917493731734666
 40
1.917493731734666
 40
1.917493731734666
 40
1.917493731734666
 10
30.8397507877
 20
287.9450976563
 30
0.0
 10
30.91157140036433
 20
287.8032994934389
 30
0.0
 10
31.05520443961694
 20
287.5197193297976
 30
0.0
 10
31.18962853356449
 20
287.1441053731843
 30
0.0
 10
31.27122323482467
 20
286.8356289140738
 30
0.0
 10
31.31662858017478
 20
286.598955471425
 30
0.0
 10
31.34650431805372
 20
286.3590090208492
 30
0.0
 10
31.35039771114842
 20
286.1975750765435
 30
0.0
 10
31.35234375
 20
286.1168853748
 30
0.0
 11
30.8397507877
 21
287.9450976563
 31
0.0
 11
31.04614463830022
 21
287.5155965347988
 31
0.0
 11
31.20757482474936
 21
287.0673129524185
 31
0.0
 11
31.26853104427662
 21
286.8350003031758
 31
0.0
 11
31.31391891802286
 21
286.5991764119868
 31
0.0
 11
31.34248907475216
 21
286.3586943262899
 31
0.0
 11
31.35234375
 21
286.1168853748
 31
0.0
  0
SPLINE
  5
11E
330
1F
100
AcDbEntity
  8
VERERBUNG
  6
Continuous
 62
     7
100
AcDbSpline
210
0.0
220
0.0
230
1.0
 70
     8
 71
     3
 72
    19
 73
    15
 74
    13
 42
0.0000000001
 43
0.0000000001
 44
0.00000001
 40
0.0
 40
0.0
 40
0.0
 40
0.0
 40
0.0835832282533586
 40
0.1672705448673024
 40
0.2499538624494516
 40
0.3326148850762367
 40
0.4138475639303706
 40
0.4950848398043111
 40
0.5749375740258856
 40
0.6547985887934077
 40
0.8114954796610212
 40
0.9684466433214656
 40
1.123543258609693
 40
1.278502018070345
 40
1.278502018070345
 40
1.278502018070345
 40
1.278502018070345
 10
29.85234375
 20
288.6314105382
 30
0.0
 10
29.88014239057286
 20
288.6336834188875
 30
0.0
 10
29.93577429008621
 20
288.6382320107398
 30
0.0
 10
30.01920569360853
 20
288.6328658827023
 30
0.0
 10
30.10111476703117
 20
288.6185616992839
 30
0.0
 10
30.18015123991515
 20
288.5953719080928
 30
0.0
 10
30.25585224792746
 20
288.5642672011115
 30
0.0
 10
30.32738188575096
 20
288.5264965521026
 30
0.0
 10
30.39492372788702
 20
288.4828612677211
 30
0.0
 10
30.47879317167753
 20
288.4187657809283
 30
0.0
 10
30.57438110170494
 20
288.328342582573
 30
0.0
 10
30.67475538062057
 20
288.2082962423842
 30
0.0
 10
30.76379969189914
 20
288.0802975346288
 30
0.0
 10
30.81444126113048
 20
287.990150922177
 30
0.0
 10
30.8397507877
 20
287.9450976563
 30
0.0
 11
29.85234375
 21
288.6314105382
 31
0.0
 11
29.93578982667496
 21
288.6361968032166
 31
0.0
 11
30.0193355156126
 21
288.6313300977624
 31
0.0
 11
30.10077578976108
 21
288.6170467944677
 31
0.0
 11
30.18012062454041
 21
288.593868316184
 31
0.0
 11
30.25529703201808
 21
288.5630907939873
 31
0.0
 11
30.32718139561266
 21
288.5252472573922
 31
0.0
 11
30.39431262553203
 21
288.4820054127024
 31
0.0
 11
30.4578293795816
 21
288.4335966982524
 31
0.0
 11
30.57206649905673
 21
288.3263409471637
 31
0.0
 11
30.67330021978223
 21
288.206401789411
 31
0.0
 11
30.76170489078929
 21
288.0789672014138
 31
0.0
 11
30.8397507877
 21
287.9450976563
 31
0.0
  0
SPLINE
  5
11F
330
1F
100
AcDbEntity
  8
VERERBUNG
  6
Continuous
 62
     7
100
AcDbSpline
210
0.0
220
0.0
230
1.0
 70
     8
 71
     3
 72
    13
 73
     9
 74
     7
 42
0.0000000001
 43
0.0000000001
 44
0.00000001
 40
0.0
 40
0.0
 40
0.0
 40
0.0
 40
0.2420096761429073
 40
0.4841829345765647
 40
0.7243349034837331
 40
0.9645115658399513
 40
1.440975492146139
 40
1.917493731673849
 40
1.917493731673849
 40
1.917493731673849
 40
1.917493731673849
 10
31.35234375
 20
271.2333099377
 30
0.0
 10
31.35039771116269
 20
271.152620236162
 30
0.0
 10
31.34650431809649
 20
270.9911862922658
 30
0.0
 10
31.31662858025565
 20
270.7512398410984
 30
0.0
 10
31.27122323457321
 20
270.5145663966829
 30
0.0
 10
31.1896285327548
 20
270.2060899364675
 30
0.0
 10
31.05520443868025
 20
269.8304759805574
 30
0.0
 10
30.91157140004811
 20
269.5468958184049
 30
0.0
 10
30.8397507877
 20
269.4050976563
 30
0.0
 11
31.35234375
 21
271.2333099377
 31
0.0
 11
31.34248907481899
 21
270.9915009868238
 31
0.0
 11
31.3139189182607
 21
270.7510189017226
 31
0.0
 11
31.26853104396119
 21
270.5151950076055
 31
0.0
 11
31.20757482348858
 21
270.2828823555043
 31
0.0
 11
31.04614463743859
 21
269.8345987754984
 31
0.0
 11
30.8397507877
 21
269.4050976563
 31
0.0
  0
SPLINE
  5
120
330
1F
100
AcDbEntity
  8
VERERBUNG
  6
Continuous
 62
     7
100
AcDbSpline
210
0.0
220
0.0
230
1.0
 70
     8
 71
     3
 72
    19
 73
    15
 74
    13
 42
0.0000000001
 43
0.0000000001
 44
0.00000001
 40
0.0
 40
0.0
 40
0.0
 40
0.0
 40
0.1549595547452635
 40
0.3100569267092725
 40
0.4670093143901792
 40
0.6237075594223838
 40
0.7035716820945344
 40
0.7834274372215095
 40
0.8646682251850889
 40
0.9459045180279819
 40
1.028561641651742
 40
1.111240956062836
 40
1.194923428877846
 40
1.278501866414073
 40
1.278501866414073
 40
1.278501866414073
 40
1.278501866414073
 10
30.8397507877
 20
269.4050976563
 30
0.0
 10
30.81444113787141
 20
269.3600441554833
 30
0.0
 10
30.76379932843385
 20
269.2698970843737
 30
0.0
 10
30.67475440835909
 20
269.141897659774
 30
0.0
 10
30.57437900892234
 20
269.0218507911453
 30
0.0
 10
30.47878956192533
 20
268.9314264779392
 30
0.0
 10
30.39491827101628
 20
268.8673292907583
 30
0.0
 10
30.32737340608965
 20
268.8236926874564
 30
0.0
 10
30.25583974643764
 20
268.785922317133
 30
0.0
 10
30.18013677559346
 20
268.7548195834373
 30
0.0
 10
30.10110133573477
 20
268.7316315536472
 30
0.0
 10
30.01919634870618
 20
268.717328732139
 30
0.0
 10
29.93576947072137
 20
268.7119635357818
 30
0.0
 10
29.88014079000568
 20
268.7165119711604
 30
0.0
 10
29.85234375
 20
268.7187847743
 30
0.0
 11
30.8397507877
 21
269.4050976563
 31
0.0
 11
30.76170449337734
 21
269.2712274223069
 31
0.0
 11
30.67329927706344
 21
269.1437922916771
 31
0.0
 11
30.57206445824915
 21
269.0238524590177
 31
0.0
 11
30.45782625349441
 21
268.9165958854635
 31
0.0
 11
30.39430705128267
 21
268.8681852560462
 31
0.0
 11
30.32717291974087
 21
268.8249423374464
 31
0.0
 11
30.25528454895981
 21
268.7870988733425
 31
0.0
 11
30.18010390582542
 21
268.7563221585607
 31
0.0
 11
30.10076238087451
 21
268.7331462550354
 31
0.0
 11
30.01932591650217
 21
268.7188644028438
 31
0.0
 11
29.93578503016661
 21
268.7139985456014
 31
0.0
 11
29.85234375
 21
268.7187847743
 31
0.0
  0
SPLINE
  5
121
330
1F
100
AcDbEntity
  8
VERERBUNG
  6
Continuous
 62
     7
100
AcDbSpline
210
0.0
220
0.0
230
1.0
 70
     8
 71
     3
 72
    23
 73
    19
 74
    17
 42
0.0000000001
 43
0.0000000001
 44
0.00000001
 40
0.0
 40
0.0
 40
0.0
 40
0.0
 40
0.0621269684789233
 40
0.1242824031031073
 40
0.181313530274522
 40
0.2383411403654624
 40
0.2903938962602983
 40
0.3423956884368502
 40
0.3914747075331168
 40
0.4404962287928919
 40
0.4905855734957804
 40
0.5407628276189334
 40
0.5956736074661139
 40
0.6506193813298198
 40
0.7116314426103174
 40
0.7726461253572467
 40
0.8391602987292771
 40
0.905649003205156
 40
0.905649003205156
 40
0.905649003205156
 40
0.905649003205156
 10
25.929045427
 20
269.527307976
 30
0.0
 10
25.91023853025555
 20
269.5186187228854
 30
0.0
 10
25.87261611957727
 20
269.5012362353009
 30
0.0
 10
25.81557019502155
 20
269.4809948552185
 30
0.0
 10
25.75870383821349
 20
269.4659872888542
 30
0.0
 10
25.70381300063381
 20
269.4577300639824
 30
0.0
 10
25.6499805469721
 20
269.4564513532184
 30
0.0
 10
25.59909871288934
 20
269.4629563790564
 30
0.0
 10
25.55114112818671
 20
269.4781181126311
 30
0.0
 10
25.50725753367725
 20
269.501480025047
 30
0.0
 10
25.46875523973477
 20
269.5335174126981
 30
0.0
 10
25.43536762836139
 20
269.5733386754335
 30
0.0
 10
25.40827651920821
 20
269.6195637448983
 30
0.0
 10
25.38664684212996
 20
269.6724027707577
 30
0.0
 10
25.37067252934042
 20
269.729317600845
 30
0.0
 10
25.3597767018976
 20
269.7912810719827
 30
0.0
 10
25.35338964252627
 20
269.855718985744
 30
0.0
 10
25.35269233633273
 20
269.900062182027
 30
0.0
 10
25.35234375
 20
269.9222295345
 30
0.0
 11
25.929045427
 21
269.527307976
 31
0.0
 11
25.87225489456834
 21
269.5021167942391
 31
0.0
 11
25.81369586520866
 21
269.4812808125302
 31
0.0
 11
25.75848215256624
 21
269.4669981166123
 31
0.0
 11
25.70205737395967
 21
269.4587281304041
 31
0.0
 11
25.65001355178854
 21
269.4577637808477
 31
0.0
 11
25.59846923734739
 21
269.4646463703579
 31
0.0
 11
25.55169654353348
 21
269.4795146328267
 31
0.0
 11
25.50850057581482
 21
269.5026925947619
 31
0.0
 11
25.46984758869753
 21
269.5345499179338
 31
0.0
 11
25.43748515889182
 21
269.5728961037729
 31
0.0
 11
25.40945433420372
 21
269.6201133316747
 31
0.0
 11
25.38836042585655
 21
269.6708487738835
 31
0.0
 11
25.37166340106356
 21
269.7295316588225
 31
0.0
 11
25.36082052509113
 21
269.7895751726383
 31
0.0
 11
25.35430944393294
 21
269.8557698935873
 31
0.0
 11
25.35234375
 21
269.9222295345
 31
0.0
  0
SPLINE
  5
122
330
1F
100
AcDbEntity
  8
VERERBUNG
  6
Continuous
 62
     7
100
AcDbSpline
210
0.0
220
0.0
230
1.0
 70
     8
 71
     3
 72
     9
 73
     5
 74
     3
 42
0.0000000001
 43
0.0000000001
 44
0.00000001
 40
0.0
 40
0.0
 40
0.0
 40
0.0
 40
0.0773963057015759
 40
0.1547963631387965
 40
0.1547963631387965
 40
0.1547963631387965
 40
0.1547963631387965
 10
26.0240185604
 20
269.4050976563
 30
0.0
 10
26.00768083004925
 20
269.4250697896476
 30
0.0
 10
25.97500457738688
 20
269.4650150244788
 30
0.0
 10
25.9443653913254
 20
269.5065433233249
 30
0.0
 10
25.929045427
 20
269.527307976
 30
0.0
 11
26.0240185604
 21
269.4050976563
 31
0.0
 11
25.9755146113125
 21
269.4654098031625
 31
0.0
 11
25.929045427
 21
269.527307976
 31
0.0
  0
SPLINE
  5
123
330
1F
100
AcDbEntity
  8
VERERBUNG
  6
Continuous
 62
     7
100
AcDbSpline
210
0.0
220
0.0
230
1.0
 70
     8
 71
     3
 72
    15
 73
    11
 74
     9
 42
0.0000000001
 43
0.0000000001
 44
0.00000001
 40
0.0
 40
0.0
 40
0.0
 40
0.0
 40
0.0705890229248896
 40
0.1413178422228231
 40
0.2119756691079404
 40
0.2826066759673089
 40
0.3532320943217506
 40
0.4238693692942062
 40
0.4944866364924668
 40
0.565078270198444
 40
0.565078270198444
 40
0.565078270198444
 40
0.565078270198444
 10
26.4923006857
 20
269.1130697249
 30
0.0
 10
26.46903561636137
 20
269.1168117653106
 30
0.0
 10
26.42245940292382
 20
269.124303256968
 30
0.0
 10
26.35522539049161
 20
269.1469670617693
 30
0.0
 10
26.29103976329628
 20
269.1767951496511
 30
0.0
 10
26.230463132927
 20
269.2133794068561
 30
0.0
 10
26.17350754018763
 20
269.2552959143583
 30
0.0
 10
26.12021015105821
 20
269.3017271622897
 30
0.0
 10
26.07010995209243
 20
269.3515919930908
 30
0.0
 10
26.03938049820312
 20
269.3872645937658
 30
0.0
 10
26.0240185604
 20
269.4050976563
 30
0.0
 11
26.4923006857
 21
269.1130697249
 31
0.0
 11
26.42294293767444
 21
269.1261965274929
 31
0.0
 11
26.35571381956927
 21
269.1481695008484
 31
0.0
 11
26.29162820600693
 21
269.1779279052826
 31
0.0
 11
26.23106408446221
 21
269.21426970369
 31
0.0
 11
26.17411975047316
 21
269.2560464022704
 31
0.0
 11
26.12073680682153
 21
269.3023053034963
 31
0.0
 11
26.07077050779058
 21
269.3522068805024
 31
0.0
 11
26.0240185604
 21
269.4050976563
 31
0.0
  0
SPLINE
  5
124
330
1F
100
AcDbEntity
  8
VERERBUNG
  6
Continuous
 62
     7
100
AcDbSpline
210
0.0
220
0.0
230
1.0
 70
     8
 71
     3
 72
    15
 73
    11
 74
     9
 42
0.0000000001
 43
0.0000000001
 44
0.00000001
 40
0.0
 40
0.0
 40
0.0
 40
0.0
 40
0.0705917491274352
 40
0.1412091311457726
 40
0.2118461808009194
 40
0.282471374897558
 40
0.3531025104650745
 40
0.4237604658496849
 40
0.4944892663267204
 40
0.5650782700912735
 40
0.5650782700912735
 40
0.5650782700912735
 40
0.5650782700912735
 10
26.0240185604
 20
287.9450976563
 30
0.0
 10
26.03938052270379
 20
287.9629307485137
 30
0.0
 10
26.07011002546331
 20
287.9986034083961
 30
0.0
 10
26.12021022776179
 20
288.0484682388001
 30
0.0
 10
26.17350754255957
 20
288.0948994019112
 30
0.0
 10
26.23046304885405
 20
288.1368158449143
 30
0.0
 10
26.29103968292321
 20
288.1734001177724
 30
0.0
 10
26.35522538119032
 20
288.203228242363
 30
0.0
 10
26.42245942189873
 20
288.2258920574824
 30
0.0
 10
26.46903562272361
 20
288.2333835478458
 30
0.0
 10
26.4923006857
 20
288.2371255876
 30
0.0
 11
26.0240185604
 21
287.9450976563
 31
0.0
 11
26.07077058305438
 21
287.9979885196187
 31
0.0
 11
26.12073696739278
 21
288.0478901736922
 31
0.0
 11
26.1741197489523
 21
288.0941489179137
 31
0.0
 11
26.23106390117603
 21
288.135925485134
 31
0.0
 11
26.29162812755182
 21
288.1722673589857
 31
0.0
 11
26.35571385643718
 21
288.2020258201752
 31
0.0
 11
26.42294295668983
 21
288.2239987875702
 31
0.0
 11
26.4923006857
 21
288.2371255876
 31
0.0
  0
SPLINE
  5
125
330
1F
100
AcDbEntity
  8
VERERBUNG
  6
Continuous
 62
     7
100
AcDbSpline
210
0.0
220
0.0
230
1.0
 70
     8
 71
     3
 72
     9
 73
     5
 74
     3
 42
0.0000000001
 43
0.0000000001
 44
0.00000001
 40
0.0
 40
0.0
 40
0.0
 40
0.0
 40
0.0774000574472235
 40
0.1547963632169689
 40
0.1547963632169689
 40
0.1547963632169689
 40
0.1547963632169689
 10
25.929045427
 20
287.8228873365
 30
0.0
 10
25.94436539132851
 20
287.8436519891768
 30
0.0
 10
25.97500457740771
 20
287.8851802880417
 30
0.0
 10
26.0076808300521
 20
287.925125522921
 30
0.0
 10
26.0240185604
 20
287.9450976563
 30
0.0
 11
25.929045427
 21
287.8228873365
 31
0.0
 11
25.9755146113125
 21
287.88478550935
 31
0.0
 11
26.0240185604
 21
287.9450976563
 31
0.0
  0
SPLINE
  5
126
330
1F
100
AcDbEntity
  8
0
  6
Continuous
 62
     7
100
AcDbSpline
210
0.0
220
0.0
230
1.0
 70
     8
 71
     3
 72
    17
 73
    13
 74
    11
 42
0.0000000001
 43
0.0000000001
 44
0.00000001
 40
0.0
 40
0.0
 40
0.0
 40
0.0
 40
0.0680277950775733
 40
0.1360632351831863
 40
0.2040812641244765
 40
0.2721696697474921
 40
0.3403702855872766
 40
0.4083585486022232
 40
0.4424627524335505
 40
0.4765773021375474
 40
0.5107086426998547
 40
0.5447868110344385
 40
0.5447868110344385
 40
0.5447868110344385
 40
0.5447868110344385
 10
74.0614568595
 20
286.6925976563
 30
0.0
 10
74.07386548201801
 20
286.6736122894297
 30
0.0
 10
74.09868412154677
 20
286.6356394220957
 30
0.0
 10
74.13962566631174
 20
286.581246890818
 30
0.0
 10
74.18384420296456
 20
286.5294519683391
 30
0.0
 10
74.23242430198894
 20
286.4815775649053
 30
0.0
 10
74.28575710319275
 20
286.438997099818
 30
0.0
 10
74.33491218741071
 20
286.410056867606
 30
0.0
 10
74.37687742516243
 20
286.3925377207281
 30
0.0
 10
74.40960182680539
 20
286.3827197496934
 30
0.0
 10
74.44322929128717
 20
286.3763387214501
 30
0.0
 10
74.4659781750048
 20
286.3755111296356
 30
0.0
 10
74.47734375
 20
286.3750976563
 30
0.0
 11
74.0614568595
 21
286.6925976563
 31
0.0
 11
74.09930204271019
 21
286.6360686990223
 31
0.0
 11
74.14017327284824
 21
286.5816778573542
 31
0.0
 11
74.1845486579262
 21
286.5301290701692
 31
0.0
 11
74.23319021734721
 21
286.4824842417261
 31
0.0
 11
74.28675413827034
 21
286.4402677712878
 31
0.0
 11
74.34557340481
 21
286.406169416613
 31
0.0
 11
74.37707254251914
 21
286.3930965040627
 31
0.0
 11
74.40974834782727
 21
286.3832937366487
 31
0.0
 11
74.44333007540973
 21
286.3771932464096
 31
0.0
 11
74.47734375
 21
286.3750976563
 31
0.0
  0
SPLINE
  5
127
330
1F
100
AcDbEntity
  8
0
  6
Continuous
 62
     7
100
AcDbSpline
210
0.0
220
0.0
230
1.0
 70
     8
 71
     3
 72
    17
 73
    13
 74
    11
 42
0.0000000001
 43
0.0000000001
 44
0.00000001
 40
0.0
 40
0.0
 40
0.0
 40
0.0
 40
0.0340790970056295
 40
0.0682097420853509
 40
0.1023154065891621
 40
0.1364128755268008
 40
0.2043992839366809
 40
0.2725935679960521
 40
0.340680350698952
 40
0.4086986202759156
 40
0.4767464406792431
 40
0.5447862542233268
 40
0.5447862542233268
 40
0.5447862542233268
 40
0.5447862542233268
 10
74.47734375
 20
270.9750976563
 30
0.0
 10
74.46597785960364
 20
270.9746863885908
 30
0.0
 10
74.44322888675438
 20
270.9738632310884
 30
0.0
 10
74.40960152296832
 20
270.9674953470409
 30
0.0
 10
74.37688504847998
 20
270.957667317613
 30
0.0
 10
74.33493408229981
 20
270.9401300833985
 30
0.0
 10
74.28578424245897
 20
270.9111942350524
 30
0.0
 10
74.23244300743552
 20
270.8686293361947
 30
0.0
 10
74.18385907611697
 20
270.8207620571432
 30
0.0
 10
74.13963617200554
 20
270.7689659456996
 30
0.0
 10
74.09869017957837
 20
270.7145664276612
 30
0.0
 10
74.07386747936955
 20
270.6765865018908
 30
0.0
 10
74.0614568595
 20
270.6575976563
 30
0.0
 11
74.47734375
 21
270.9750976563
 31
0.0
 11
74.44332867986613
 21
270.973009629359
 31
0.0
 11
74.40974627683346
 21
270.9669167531819
 31
0.0
 11
74.37708145689187
 21
270.9571082930871
 31
0.0
 11
74.34559384232774
 21
270.9440251926513
 31
0.0
 11
74.28677797549842
 21
270.9099246715762
 31
0.0
 11
74.23321093542698
 21
270.8677223896906
 31
0.0
 11
74.18456455874826
 21
270.8200847993352
 31
0.0
 11
74.1401867749245
 21
270.7685377596614
 31
0.0
 11
74.09930815741423
 21
270.7141369830852
 31
0.0
 11
74.0614568595
 21
270.6575976563
 31
0.0
  0
SPLINE
  5
128
330
1F
100
AcDbEntity
  8
0
  6
Continuous
 62
     7
100
AcDbSpline
210
0.0
220
0.0
230
1.0
 70
     8
 71
     3
 72
    17
 73
    13
 74
    11
 42
0.0000000001
 43
0.0000000001
 44
0.00000001
 40
0.0
 40
0.0
 40
0.0
 40
0.0
 40
0.0680405843175174
 40
0.1360892263217655
 40
0.2041088006590704
 40
0.2721966988394153
 40
0.3403905142609763
 40
0.4083768376178963
 40
0.442473570700433
 40
0.4765783279193774
 40
0.5107080465659162
 40
0.5447863432923686
 40
0.5447863432923686
 40
0.5447863432923686
 40
0.5447863432923686
 10
76.6432306405
 20
270.6575976563
 30
0.0
 10
76.63081986832411
 20
270.6765867096302
 30
0.0
 10
76.60599685423017
 20
270.7145670650636
 30
0.0
 10
76.56505026287459
 20
270.7689673362901
 30
0.0
 10
76.52082685913977
 20
270.820764440298
 30
0.0
 10
76.47224219741742
 20
270.868631969574
 30
0.0
 10
76.41889962310128
 20
270.9111955491032
 30
0.0
 10
76.36974990262092
 20
270.9401304817926
 30
0.0
 10
76.3278000021376
 20
270.9576686867158
 30
0.0
 10
76.29508449391072
 20
270.9674971433341
 30
0.0
 10
76.26145777083062
 20
270.9738637830955
 30
0.0
 10
76.23870937361608
 20
270.9746865719983
 30
0.0
 10
76.22734375
 20
270.9750976563
 30
0.0
 11
76.6432306405
 21
270.6575976563
 31
0.0
 11
76.60537888178293
 21
270.7141376021463
 31
0.0
 11
76.56449978897008
 21
270.7685390492724
 31
0.0
 11
76.52012124256865
 21
270.8200871541098
 31
0.0
 11
76.47147371634962
 21
270.867725164893
 31
0.0
 11
76.41790614677252
 21
270.9099260173886
 31
0.0
 11
76.35909014411556
 21
270.9440261346178
 31
0.0
 11
76.3276035020369
 21
270.9571096577486
 31
0.0
 11
76.29493967631078
 21
270.9669182740575
 31
0.0
 11
76.26135805896111
 21
270.973010291053
 31
0.0
 11
76.22734375
 21
270.9750976563
 31
0.0
  0
SPLINE
  5
129
330
1F
100
AcDbEntity
  8
0
  6
Continuous
 62
     7
100
AcDbSpline
210
0.0
220
0.0
230
1.0
 70
     8
 71
     3
 72
    17
 73
    13
 74
    11
 42
0.0000000001
 43
0.0000000001
 44
0.00000001
 40
0.0
 40
0.0
 40
0.0
 40
0.0
 40
0.0340781916082888
 40
0.0682095735048063
 40
0.1023243844196191
 40
0.136428824507866
 40
0.2044171800855062
 40
0.2726179463159904
 40
0.3407061059843645
 40
0.4087238601928839
 40
0.4767591626435432
 40
0.5447868280905386
 40
0.5447868280905386
 40
0.5447868280905386
 40
0.5447868280905386
 10
76.22734375
 20
286.3750976563
 30
0.0
 10
76.23870933268972
 20
286.3755111533429
 30
0.0
 10
76.2614582378198
 20
286.3763387928277
 30
0.0
 10
76.29508578066076
 20
286.3827199711766
 30
0.0
 10
76.32781038469047
 20
286.3925378675126
 30
0.0
 10
76.36977589084243
 20
286.4100568966226
 30
0.0
 10
76.41893107519263
 20
286.438997317483
 30
0.0
 10
76.47226368377017
 20
286.4815780144709
 30
0.0
 10
76.52084363648187
 20
286.5294523804791
 30
0.0
 10
76.5650620445127
 20
286.5812471244103
 30
0.0
 10
76.60600346105457
 20
286.6356395264781
 30
0.0
 10
76.63082204502774
 20
286.6736123234774
 30
0.0
 10
76.6432306405
 20
286.6925976563
 30
0.0
 11
76.22734375
 21
286.3750976563
 31
0.0
 11
76.26135744289466
 21
286.3771933277816
 31
0.0
 11
76.2949391974936
 21
286.3832939005599
 31
0.0
 11
76.32761527955213
 21
286.3930966545126
 31
0.0
 11
76.35911468401314
 21
286.4061695406643
 31
0.0
 11
76.41793399832886
 21
286.4402679974854
 31
0.0
 11
76.47149789003791
 21
286.4824847479454
 31
0.0
 11
76.52013920284047
 21
286.5301294766766
 31
0.0
 11
76.56451440545229
 21
286.5816780584295
 31
0.0
 11
76.60538554111827
 21
286.6360687988999
 31
0.0
 11
76.6432306405
 21
286.6925976563
 31
0.0
  0
SPLINE
  5
12A
330
1F
100
AcDbEntity
  8
VERERBUNG
  6
Continuous
 62
     7
100
AcDbSpline
210
0.0
220
0.0
230
1.0
 70
     8
 71
     3
 72
    23
 73
    19
 74
    17
 42
0.0000000001
 43
0.0000000001
 44
0.00000001
 40
0.0
 40
0.0
 40
0.0
 40
0.0
 40
0.066488689118505
 40
0.133002850640238
 40
0.1940175413912478
 40
0.2550295991330589
 40
0.3099753629361506
 40
0.3648861555487323
 40
0.4150633581042212
 40
0.4651526181972192
 40
0.5141740379484927
 40
0.563252990575187
 40
0.6152549116425406
 40
0.6673077698666453
 40
0.7243355356677063
 40
0.781366834063876
 40
0.8435221576227961
 40
0.9056490098718009
 40
0.9056490098718009
 40
0.9056490098718009
 40
0.9056490098718009
 10
25.35234375
 20
287.427965778
 30
0.0
 10
25.3526923373546
 20
287.450133125354
 30
0.0
 10
25.35338964561068
 20
287.4944763125683
 30
0.0
 10
25.35977670471894
 20
287.5589142194456
 30
0.0
 10
25.37067250800047
 20
287.6208776919022
 30
0.0
 10
25.38664681559551
 20
287.6777925235177
 30
0.0
 10
25.40827654262684
 20
287.7306315302327
 30
0.0
 10
25.43536765179594
 20
287.7768565735349
 30
0.0
 10
25.46875513430293
 20
287.8166778827117
 30
0.0
 10
25.50725730794825
 20
287.8487153053462
 30
0.0
 10
25.55114087563418
 20
287.8720771065326
 30
0.0
 10
25.59909846452981
 20
287.8872387546176
 30
0.0
 10
25.64998033421528
 20
287.893743881417
 30
0.0
 10
25.70381292371068
 20
287.8924652900903
 30
0.0
 10
25.75870390801044
 20
287.8842080464983
 30
0.0
 10
25.81557032190839
 20
287.8692004145236
 30
0.0
 10
25.87261622273823
 20
287.8489590273562
 30
0.0
 10
25.91023856516373
 20
287.8315765727596
 30
0.0
 10
25.929045427
 20
287.8228873365
 30
0.0
 11
25.35234375
 21
287.427965778
 31
0.0
 11
25.35430944627391
 21
287.4944254034793
 31
0.0
 11
25.36082052255481
 21
287.5606201130006
 31
0.0
 11
25.37166338364612
 21
287.6206636376373
 31
0.0
 11
25.38836041000696
 21
287.679346518451
 31
0.0
 11
25.40945434765654
 21
287.7300819375814
 31
0.0
 11
25.43748517415654
 21
287.777299179253
 31
0.0
 11
25.46984749620138
 21
287.8156453885592
 31
0.0
 11
25.5085003707695
 21
287.8475027152563
 31
0.0
 11
25.55169627398751
 21
287.8706805827081
 31
0.0
 11
25.59846891960658
 21
287.8855487773774
 31
0.0
 11
25.65001335230101
 21
287.8924314551198
 31
0.0
 11
25.70205727857217
 21
287.891467200184
 31
0.0
 11
25.75848221379345
 21
287.8831972087974
 31
0.0
 11
25.81369608337724
 21
287.8689144358756
 31
0.0
 11
25.87225500118079
 21
287.8480784719576
 31
0.0
 11
25.929045427
 21
287.8228873365
 31
0.0
  0
SPLINE
  5
12B
330
1F
100
AcDbEntity
  8
VERERBUNG
  6
Continuous
 62
     7
100
AcDbSpline
210
0.0
220
0.0
230
1.0
 70
     8
 71
     3
 72
    11
 73
     7
 74
     5
 42
0.0000000001
 43
0.0000000001
 44
0.00000001
 40
0.0
 40
0.0
 40
0.0
 40
0.0
 40
0.5427795452355998
 40
1.085508812848524
 40
1.33744849213569
 40
1.589025708897548
 40
1.589025708897548
 40
1.589025708897548
 40
1.589025708897548
 10
25.929045427
 20
269.527307976
 30
0.0
 10
26.00677576448461
 20
269.6909283330013
 30
0.0
 10
26.16222923929934
 20
270.0181538908644
 30
0.0
 10
26.28615076141312
 20
270.4487667872402
 30
0.0
 10
26.34370512689643
 20
270.7933998132911
 30
0.0
 10
26.34946559121134
 20
270.9613175478786
 30
0.0
 10
26.35234375
 20
271.0452159764
 30
0.0
 11
25.929045427
 21
269.527307976
 31
0.0
 11
26.14851630173757
 21
270.0237373968325
 31
0.0
 11
26.29914034487918
 21
270.5451465025751
 31
0.0
 11
26.33823262318662
 21
270.7940348224619
 31
0.0
 11
26.35234375
 21
271.0452159764
 31
0.0
  0
SPLINE
  5
12C
330
1F
100
AcDbEntity
  8
VERERBUNG
  6
Continuous
 62
     7
100
AcDbSpline
210
0.0
220
0.0
230
1.0
 70
     8
 71
     3
 72
    11
 73
     7
 74
     5
 42
0.0000000001
 43
0.0000000001
 44
0.00000001
 40
0.0
 40
0.0
 40
0.0
 40
0.0
 40
0.4891002097433437
 40
0.9783817007605387
 40
1.283670603129416
 40
1.588797103076666
 40
1.588797103076666
 40
1.588797103076666
 40
1.588797103076666
 10
26.35234375
 20
286.3049793361
 30
0.0
 10
26.34157299237842
 20
286.4681325294317
 30
0.0
 10
26.32002748503585
 20
286.7944993875858
 30
0.0
 10
26.19651395503045
 20
287.2071182901062
 30
0.0
 10
26.06373355161588
 20
287.5488334944636
 30
0.0
 10
25.97393350470229
 20
287.7315522600704
 30
0.0
 10
25.929045427
 20
287.8228873365
 30
0.0
 11
26.35234375
 21
286.3049793361
 31
0.0
 11
26.3018898460537
 21
286.7914702597025
 31
0.0
 11
26.17142161243019
 21
287.2630361802981
 31
0.0
 11
26.05968759468958
 21
287.5471432431971
 31
0.0
 11
25.929045427
 21
287.8228873365
 31
0.0
  0
DIMENSION
  5
137
330
1F
100
AcDbEntity
  8
1
100
AcDbDimension
  2
*D2
 10
237.01751672361
 20
310.1750976563
 30
0.0
 11
233.26751672361
 21
278.199292258505
 31
0.0
 70
    32
  1
<>
 71
     5
 42
-1.0
 53
90.0
  3
ME10_DIM_10
100
AcDbAlignedDimension
 13
213.1665542984
 23
247.1750976563
 33
0.0
 14
213.1665542984
 24
310.1750976563
 34
0.0
 50
90.0
100
AcDbRotatedDimension
  0
DIMENSION
  5
142
330
1F
100
AcDbEntity
  8
1
100
AcDbDimension
  2
*D3
 10
229.114848594001
 20
298.6750976563
 30
0.0
 11
225.364848594001
 21
279.218991372003
 31
0.0
 70
    32
  1
<>
 71
     5
 42
-1.0
 53
90.0
  3
ME10_DIM_11
100
AcDbAlignedDimension
 13
202.35234375
 23
258.6750976563
 33
0.0
 14
202.35234375
 24
298.6750976563
 34
0.0
 50
90.0
100
AcDbRotatedDimension
  0
DIMENSION
  5
14D
330
1F
100
AcDbEntity
  8
1
100
AcDbDimension
  2
*D4
 10
202.35234375
 20
320.177939855219
 30
0.0
 11
142.901815758969
 21
323.927939855219
 31
0.0
 70
    32
  1
<>
 71
     5
 42
-1.0
 53
0.00013888888889
  3
ME10_DIM_12
100
AcDbAlignedDimension
 13
83.35234375
 23
310.1750487507
 33
0.0
 14
202.35234375
 24
303.6750976562
 34
0.0
100
AcDbRotatedDimension
  0
DIMENSION
  5
158
330
1F
100
AcDbEntity
  8
1
100
AcDbDimension
  2
*D5
 10
202.35234375
 20
328.096121198059
 30
0.0
 11
130.741751553892
 21
331.846121198059
 31
0.0
 70
    32
  1
<>
 71
     5
 42
-1.0
 53
0.00013888888889
  3
ME10_DIM_13
100
AcDbAlignedDimension
 13
57.35234375
 23
310.1750976563
 33
0.0
 14
202.35234375
 24
303.6750976562
 34
0.0
100
AcDbRotatedDimension
  0
DIMENSION
  5
163
330
1F
100
AcDbEntity
  8
1
100
AcDbDimension
  2
*D6
 10
57.35234375
 20
336.155698636308
 30
0.0
 11
139.084121182956
 21
339.905698636308
 31
0.0
 70
    32
  1
<>
 71
     5
 42
-1.0
 53
0.00013888888889
  3
ME10_DIM_14
100
AcDbAlignedDimension
 13
217.35234375
 23
304.1750976563
 33
0.0
 14
57.35234375
 24
310.1750976563
 34
0.0
100
AcDbRotatedDimension
  0
DIMENSION
  5
16E
330
1F
100
AcDbEntity
  8
1
100
AcDbDimension
  2
*D7
 10
202.35234375
 20
343.508295597517
 30
0.0
 11
118.016102967184
 21
347.258295597517
 31
0.0
 70
    32
  1
<>
 71
     5
 42
-1.0
 53
0.00013888888889
  3
ME10_DIM_15
100
AcDbAlignedDimension
 13
25.35234375
 23
300.2511248364
 33
0.0
 14
202.35234375
 24
303.6750976562
 34
0.0
100
AcDbRotatedDimension
  0
INSERT
  5
175
330
1F
100
AcDbEntity
  8
1
100
AcDbBlockReference
  2
*D8
 10
0.0
 20
0.0
 30
0.0
  0
ENDSEC
  0
SECTION
  2
OBJECTS
  0
DICTIONARY
  5
C
330
0
100
AcDbDictionary
281
     1
  3
ACAD_GROUP
350
D
  3
ACAD_LAYOUT
350
1A
  3
ACAD_MLEADERSTYLE
350
178
  3
ACAD_MLINESTYLE
350
17
  3
ACAD_PLOTSETTINGS
350
19
  3
ACAD_PLOTSTYLENAME
350
E
  3
ACAD_SCALELIST
350
4C
  3
ACAD_VISUALSTYLE
350
2A
  3
AcDbVariableDictionary
350
176
  0
DICTIONARY
  5
D
102
{ACAD_REACTORS
330
C
102
}
330
C
100
AcDbDictionary
281
     1
  0
DICTIONARY
  5
1A
102
{ACAD_REACTORS
330
C
102
}
330
C
100
AcDbDictionary
281
     1
  3
Layout1
350
1E
  3
Layout2
350
26
  3
Model
350
22
  0
DICTIONARY
  5
178
102
{ACAD_REACTORS
330
C
102
}
330
C
100
AcDbDictionary
281
     1
  0
DICTIONARY
  5
17
102
{ACAD_REACTORS
330
C
102
}
330
C
100
AcDbDictionary
281
     1
  3
Standard
350
18
  0
DICTIONARY
  5
19
102
{ACAD_REACTORS
330
C
102
}
330
C
100
AcDbDictionary
281
     1
  0
ACDBDICTIONARYWDFLT
  5
E
102
{ACAD_REACTORS
330
C
102
}
330
C
100
AcDbDictionary
281
     1
  3
Normal
350
F
100
AcDbDictionaryWithDefault
340
F
  0
DICTIONARY
  5
4C
102
{ACAD_REACTORS
330
C
102
}
330
C
100
AcDbDictionary
281
     1
  3
A0
350
4D
  3
A1
350
4E
  3
A2
350
4F
  3
A3
350
50
  3
A4
350
51
  3
A5
350
52
  3
A6
350
53
  3
A7
350
54
  3
A8
350
55
  3
A9
350
56
  3
B0
350
57
  3
B1
350
58
  3
B2
350
59
  3
B3
350
5A
  3
B4
350
5B
  3
B5
350
5C
  3
B6
350
5D
  3
B7
350
5E
  3
B8
350
5F
  3
B9
350
60
  3
C0
350
61
  3
C1
350
62
  3
C2
350
63
  3
C3
350
64
  3
C4
350
65
  3
C5
350
66
  3
C6
350
67
  3
C7
350
68
  3
C8
350
69
  3
C9
350
6A
  3
D0
350
6B
  3
D1
350
6C
  3
D2
350
6D
  0
DICTIONARY
  5
2A
102
{ACAD_REACTORS
330
C
102
}
330
C
100
AcDbDictionary
281
     1
  3
2dWireframe
350
2F
  3
3D Hidden
350
31
  3
3dWireframe
350
30
  3
Basic
350
32
  3
Brighten
350
36
  3
ColorChange
350
3A
  3
Conceptual
350
34
  3
Dim
350
35
  3
Facepattern
350
39
  3
Flat
350
2B
  3
FlatWithEdges
350
2C
  3
Gouraud
350
2D
  3
GouraudWithEdges
350
2E
  3
Linepattern
350
38
  3
Realistic
350
33
  3
Thicken
350
37
  0
DICTIONARY
  5
176
102
{ACAD_REACTORS
330
C
102
}
330
C
100
AcDbDictionary
281
     1
  3
CANNOSCALE
350
179
  0
LAYOUT
  5
1E
102
{ACAD_REACTORS
330
1A
102
}
330
1A
100
AcDbPlotSettings
  1

  2
none_device
  4

  6

 40
0.0
 41
0.0
 42
0.0
 43
0.0
 44
0.0
 45
0.0
 46
0.0
 47
0.0
 48
0.0
 49
0.0
140
0.0
141
0.0
142
1.0
143
1.0
 70
   688
 72
     0
 73
     0
 74
     5
  7

 75
    16
147
1.0
148
0.0
149
0.0
100
AcDbLayout
  1
Layout1
 70
     1
 71
     1
 10
0.0
 20
0.0
 11
12.0
 21
9.0
 12
0.0
 22
0.0
 32
0.0
 14
1.00000000000000E+20
 24
1.00000000000000E+20
 34
1.00000000000000E+20
 15
-1.00000000000000E+20
 25
-1.00000000000000E+20
 35
-1.00000000000000E+20
146
0.0
 13
0.0
 23
0.0
 33
0.0
 16
1.0
 26
0.0
 36
0.0
 17
0.0
 27
1.0
 37
0.0
 76
     0
330
1B
  0
LAYOUT
  5
26
102
{ACAD_REACTORS
330
1A
102
}
330
1A
100
AcDbPlotSettings
  1

  2
none_device
  4

  6

 40
0.0
 41
0.0
 42
0.0
 43
0.0
 44
0.0
 45
0.0
 46
0.0
 47
0.0
 48
0.0
 49
0.0
140
0.0
141
0.0
142
1.0
143
1.0
 70
   688
 72
     0
 73
     0
 74
     5
  7

 75
    16
147
1.0
148
0.0
149
0.0
100
AcDbLayout
  1
Layout2
 70
     1
 71
     2
 10
0.0
 20
0.0
 11
0.0
 21
0.0
 12
0.0
 22
0.0
 32
0.0
 14
0.0
 24
0.0
 34
0.0
 15
0.0
 25
0.0
 35
0.0
146
0.0
 13
0.0
 23
0.0
 33
0.0
 16
1.0
 26
0.0
 36
0.0
 17
0.0
 27
1.0
 37
0.0
 76
     0
330
23
  0
LAYOUT
  5
22
102
{ACAD_REACTORS
330
1A
102
}
330
1A
100
AcDbPlotSettings
  1

  2
none_device
  4

  6

 40
0.0
 41
0.0
 42
0.0
 43
0.0
 44
0.0
 45
0.0
 46
0.0
 47
0.0
 48
0.0
 49
0.0
140
0.0
141
0.0
142
1.0
143
1.0
 70
  1712
 72
     0
 73
     0
 74
     0
  7

 75
     0
147
1.0
148
0.0
149
0.0
100
AcDbLayout
  1
Model
 70
     1
 71
     0
 10
0.0
 20
0.0
 11
12.0
 21
9.0
 12
0.0
 22
0.0
 32
0.0
 14
4.0490635138232
 24
241.4065737680618
 34
0.0
 15
239.01751672361
 25
350.175960685368
 35
0.0
146
0.0
 13
0.0
 23
0.0
 33
0.0
 16
1.0
 26
0.0
 36
0.0
 17
0.0
 27
1.0
 37
0.0
 76
     0
330
1F
331
29
  0
MLINESTYLE
  5
18
102
{ACAD_REACTORS
330
17
102
}
330
17
100
AcDbMlineStyle
  2
Standard
 70
     0
  3

 62
   256
 51
90.0
 52
90.0
 71
     2
 49
0.5
 62
   256
  6
BYLAYER
 49
-0.5
 62
   256
  6
BYLAYER
  0
ACDBPLACEHOLDER
  5
F
102
{ACAD_REACTORS
330
E
102
}
330
E
  0
SCALE
  5
4D
102
{ACAD_REACTORS
330
4C
102
}
330
4C
100
AcDbScale
 70
     0
300
1:1
140
1.0
141
1.0
290
     1
  0
SCALE
  5
4E
102
{ACAD_REACTORS
330
4C
102
}
330
4C
100
AcDbScale
 70
     0
300
1:2
140
1.0
141
2.0
290
     0
  0
SCALE
  5
4F
102
{ACAD_REACTORS
330
4C
102
}
330
4C
100
AcDbScale
 70
     0
300
1:4
140
1.0
141
4.0
290
     0
  0
SCALE
  5
50
102
{ACAD_REACTORS
330
4C
102
}
330
4C
100
AcDbScale
 70
     0
300
1:5
140
1.0
141
5.0
290
     0
  0
SCALE
  5
51
102
{ACAD_REACTORS
330
4C
102
}
330
4C
100
AcDbScale
 70
     0
300
1:8
140
1.0
141
8.0
290
     0
  0
SCALE
  5
52
102
{ACAD_REACTORS
330
4C
102
}
330
4C
100
AcDbScale
 70
     0
300
1:10
140
1.0
141
10.0
290
     0
  0
SCALE
  5
53
102
{ACAD_REACTORS
330
4C
102
}
330
4C
100
AcDbScale
 70
     0
300
1:16
140
1.0
141
16.0
290
     0
  0
SCALE
  5
54
102
{ACAD_REACTORS
330
4C
102
}
330
4C
100
AcDbScale
 70
     0
300
1:20
140
1.0
141
20.0
290
     0
  0
SCALE
  5
55
102
{ACAD_REACTORS
330
4C
102
}
330
4C
100
AcDbScale
 70
     0
300
1:30
140
1.0
141
30.0
290
     0
  0
SCALE
  5
56
102
{ACAD_REACTORS
330
4C
102
}
330
4C
100
AcDbScale
 70
     0
300
1:40
140
1.0
141
40.0
290
     0
  0
SCALE
  5
57
102
{ACAD_REACTORS
330
4C
102
}
330
4C
100
AcDbScale
 70
     0
300
1:50
140
1.0
141
50.0
290
     0
  0
SCALE
  5
58
102
{ACAD_REACTORS
330
4C
102
}
330
4C
100
AcDbScale
 70
     0
300
1:100
140
1.0
141
100.0
290
     0
  0
SCALE
  5
59
102
{ACAD_REACTORS
330
4C
102
}
330
4C
100
AcDbScale
 70
     0
300
2:1
140
2.0
141
1.0
290
     0
  0
SCALE
  5
5A
102
{ACAD_REACTORS
330
4C
102
}
330
4C
100
AcDbScale
 70
     0
300
4:1
140
4.0
141
1.0
290
     0
  0
SCALE
  5
5B
102
{ACAD_REACTORS
330
4C
102
}
330
4C
100
AcDbScale
 70
     0
300
8:1
140
8.0
141
1.0
290
     0
  0
SCALE
  5
5C
102
{ACAD_REACTORS
330
4C
102
}
330
4C
100
AcDbScale
 70
     0
300
10:1
140
10.0
141
1.0
290
     0
  0
SCALE
  5
5D
102
{ACAD_REACTORS
330
4C
102
}
330
4C
100
AcDbScale
 70
     0
300
100:1
140
100.0
141
1.0
290
     0
  0
SCALE
  5
5E
102
{ACAD_REACTORS
330
4C
102
}
330
4C
100
AcDbScale
 70
     0
300
1/128" = 1'-0"
140
0.0078125
141
12.0
290
     0
  0
SCALE
  5
5F
102
{ACAD_REACTORS
330
4C
102
}
330
4C
100
AcDbScale
 70
     0
300
1/64" = 1'-0"
140
0.015625
141
12.0
290
     0
  0
SCALE
  5
60
102
{ACAD_REACTORS
330
4C
102
}
330
4C
100
AcDbScale
 70
     0
300
1/32" = 1'-0"
140
0.03125
141
12.0
290
     0
  0
SCALE
  5
61
102
{ACAD_REACTORS
330
4C
102
}
330
4C
100
AcDbScale
 70
     0
300
1/16" = 1'-0"
140
0.0625
141
12.0
290
     0
  0
SCALE
  5
62
102
{ACAD_REACTORS
330
4C
102
}
330
4C
100
AcDbScale
 70
     0
300
3/32" = 1'-0"
140
0.09375
141
12.0
290
     0
  0
SCALE
  5
63
102
{ACAD_REACTORS
330
4C
102
}
330
4C
100
AcDbScale
 70
     0
300
1/8" = 1'-0"
140
0.125
141
12.0
290
     0
  0
SCALE
  5
64
102
{ACAD_REACTORS
330
4C
102
}
330
4C
100
AcDbScale
 70
     0
300
3/16" = 1'-0"
140
0.1875
141
12.0
290
     0
  0
SCALE
  5
65
102
{ACAD_REACTORS
330
4C
102
}
330
4C
100
AcDbScale
 70
     0
300
1/4" = 1'-0"
140
0.25
141
12.0
290
     0
  0
SCALE
  5
66
102
{ACAD_REACTORS
330
4C
102
}
330
4C
100
AcDbScale
 70
     0
300
3/8" = 1'-0"
140
0.375
141
12.0
290
     0
  0
SCALE
  5
67
102
{ACAD_REACTORS
330
4C
102
}
330
4C
100
AcDbScale
 70
     0
300
1/2" = 1'-0"
140
0.5
141
12.0
290
     0
  0
SCALE
  5
68
102
{ACAD_REACTORS
330
4C
102
}
330
4C
100
AcDbScale
 70
     0
300
3/4" = 1'-0"
140
0.75
141
12.0
290
     0
  0
SCALE
  5
69
102
{ACAD_REACTORS
330
4C
102
}
330
4C
100
AcDbScale
 70
     0
300
1" = 1'-0"
140
1.0
141
12.0
290
     0
  0
SCALE
  5
6A
102
{ACAD_REACTORS
330
4C
102
}
330
4C
100
AcDbScale
 70
     0
300
1-1/2" = 1'-0"
140
1.5
141
12.0
290
     0
  0
SCALE
  5
6B
102
{ACAD_REACTORS
330
4C
102
}
330
4C
100
AcDbScale
 70
     0
300
3" = 1'-0"
140
3.0
141
12.0
290
     0
  0
SCALE
  5
6C
102
{ACAD_REACTORS
330
4C
102
}
330
4C
100
AcDbScale
 70
     0
300
6" = 1'-0"
140
6.0
141
12.0
290
     0
  0
SCALE
  5
6D
102
{ACAD_REACTORS
330
4C
102
}
330
4C
100
AcDbScale
 70
     0
300
1'-0" = 1'-0"
140
12.0
141
12.0
290
     0
  0
VISUALSTYLE
  5
2F
102
{ACAD_REACTORS
330
2A
102
}
330
2A
100
AcDbVisualStyle
  2
2dWireframe
 70
     4
 71
     0
 72
     2
 73
     0
 90
        0
 40
-0.6
 41
-30.0
 62
     5
 63
     7
 74
     1
 91
        4
 64
     7
 65
   257
 75
     1
175
     1
 42
1.0
 92
        0
 66
   257
 43
1.0
 76
     1
 77
     6
 78
     2
 67
     7
 79
     5
170
     0
171
     0
290
     0
174
     0
 93
        1
 44
0.0
173
     0
291
     0
 45
0.0
1001
ACAD
1000
AcDbSavedByObjectVersion
1070
     0
  0
VISUALSTYLE
  5
31
102
{ACAD_REACTORS
330
2A
102
}
330
2A
100
AcDbVisualStyle
  2
3D Hidden
 70
     6
 71
     1
 72
     2
 73
     2
 90
        0
 40
-0.6
 41
-30.0
 62
     5
 63
     7
 74
     2
 91
        2
 64
     7
 65
   257
 75
     2
175
     1
 42
40.0
 92
        0
 66
   257
 43
1.0
 76
     1
 77
     6
 78
     2
 67
     7
 79
     3
170
     0
171
     0
290
     0
174
     0
 93
        1
 44
0.0
173
     0
291
     0
 45
0.0
1001
ACAD
1000
AcDbSavedByObjectVersion
1070
     0
  0
VISUALSTYLE
  5
30
102
{ACAD_REACTORS
330
2A
102
}
330
2A
100
AcDbVisualStyle
  2
3dWireframe
 70
     5
 71
     0
 72
     2
 73
     0
 90
        0
 40
-0.6
 41
-30.0
 62
     5
 63
     7
 74
     1
 91
        4
 64
     7
 65
   257
 75
     1
175
     1
 42
1.0
 92
        0
 66
   257
 43
1.0
 76
     1
 77
     6
 78
     2
 67
     7
 79
     5
170
     0
171
     0
290
     0
174
     0
 93
        1
 44
0.0
173
     0
291
     0
 45
0.0
1001
ACAD
1000
AcDbSavedByObjectVersion
1070
     0
  0
VISUALSTYLE
  5
32
102
{ACAD_REACTORS
330
2A
102
}
330
2A
100
AcDbVisualStyle
  2
Basic
 70
     7
 71
     1
 72
     0
 73
     1
 90
        0
 40
-0.6
 41
-30.0
 62
     5
 63
     7
 74
     0
 91
        4
 64
     7
 65
   257
 75
     1
175
     1
 42
1.0
 92
        8
 66
     7
 43
1.0
 76
     1
 77
     6
 78
     2
 67
     7
 79
     5
170
     0
171
     0
290
     0
174
     0
 93
        1
 44
0.0
173
     0
291
     1
 45
0.0
1001
ACAD
1000
AcDbSavedByObjectVersion
1070
     0
  0
VISUALSTYLE
  5
36
102
{ACAD_REACTORS
330
2A
102
}
330
2A
100
AcDbVisualStyle
  2
Brighten
 70
    12
 71
     2
 72
     2
 73
     0
 90
        0
 40
-0.6
 41
-30.0
 62
     5
 63
     7
 74
     1
 91
        4
 64
     7
 65
   257
 75
     1
175
     1
 42
1.0
 92
        8
 66
     7
 43
1.0
 76
     1
 77
     6
 78
     2
 67
     7
 79
     5
170
     0
171
     0
290
     0
174
     0
 93
        1
 44
50.0
173
     0
291
     1
 45
0.0
1001
ACAD
1000
AcDbSavedByObjectVersion
1070
     0
  0
VISUALSTYLE
  5
3A
102
{ACAD_REACTORS
330
2A
102
}
330
2A
100
AcDbVisualStyle
  2
ColorChange
 70
    16
 71
     2
 72
     2
 73
     3
 90
        0
 40
-0.6
 41
-30.0
 62
     5
 63
     8
 74
     1
 91
        4
 64
     7
 65
   257
 75
     1
175
     1
 42
1.0
 92
        8
 66
     8
 43
1.0
 76
     1
 77
     6
 78
     2
 67
     7
 79
     5
170
     0
171
     0
290
     0
174
     0
 93
        1
 44
0.0
173
     0
291
     1
 45
0.0
1001
ACAD
1000
AcDbSavedByObjectVersion
1070
     0
  0
VISUALSTYLE
  5
34
102
{ACAD_REACTORS
330
2A
102
}
330
2A
100
AcDbVisualStyle
  2
Conceptual
 70
     9
 71
     3
 72
     2
 73
     0
 90
        0
 40
-0.6
 41
-30.0
 62
     5
 63
     7
 74
     2
 91
        2
 64
     7
 65
   257
 75
     1
175
     1
 42
40.0
 92
        8
 66
     7
 43
1.0
 76
     1
 77
     6
 78
     2
 67
     7
 79
     3
170
     0
171
     0
290
     0
174
     0
 93
        1
 44
0.0
173
     0
291
     0
 45
0.0
1001
ACAD
1000
AcDbSavedByObjectVersion
1070
     0
  0
VISUALSTYLE
  5
35
102
{ACAD_REACTORS
330
2A
102
}
330
2A
100
AcDbVisualStyle
  2
Dim
 70
    11
 71
     2
 72
     2
 73
     0
 90
        0
 40
-0.6
 41
-30.0
 62
     5
 63
     7
 74
     1
 91
        4
 64
     7
 65
   257
 75
     1
175
     1
 42
1.0
 92
        8
 66
     7
 43
1.0
 76
     1
 77
     6
 78
     2
 67
     7
 79
     5
170
     0
171
     0
290
     0
174
     0
 93
        1
 44
-50.0
173
     0
291
     1
 45
0.0
1001
ACAD
1000
AcDbSavedByObjectVersion
1070
     0
  0
VISUALSTYLE
  5
39
102
{ACAD_REACTORS
330
2A
102
}
330
2A
100
AcDbVisualStyle
  2
Facepattern
 70
    15
 71
     2
 72
     2
 73
     0
 90
        0
 40
-0.6
 41
-30.0
 62
     5
 63
     7
 74
     1
 91
        4
 64
     7
 65
   257
 75
     1
175
     1
 42
1.0
 92
        8
 66
     7
 43
1.0
 76
     1
 77
     6
 78
     2
 67
     7
 79
     5
170
     0
171
     0
290
     0
174
     0
 93
        1
 44
0.0
173
     0
291
     1
 45
0.0
1001
ACAD
1000
AcDbSavedByObjectVersion
1070
     0
  0
VISUALSTYLE
  5
2B
102
{ACAD_REACTORS
330
2A
102
}
330
2A
100
AcDbVisualStyle
  2
Flat
 70
     0
 71
     2
 72
     1
 73
     1
 90
        2
 40
-0.6
 41
30.0
 62
     5
 63
     7
 74
     0
 91
        4
 64
     7
 65
   257
 75
     1
175
     1
 42
1.0
 92
        8
 66
     7
 43
1.0
 76
     1
 77
     6
 78
     2
 67
     7
 79
     5
170
     0
171
     0
290
     0
174
     0
 93
       13
 44
0.0
173
     0
291
     1
 45
0.0
1001
ACAD
1000
AcDbSavedByObjectVersion
1070
     0
  0
VISUALSTYLE
  5
2C
102
{ACAD_REACTORS
330
2A
102
}
330
2A
100
AcDbVisualStyle
  2
FlatWithEdges
 70
     1
 71
     2
 72
     1
 73
     1
 90
        2
 40
-0.6
 41
30.0
 62
     5
 63
     7
 74
     1
 91
        4
 64
     7
 65
   257
 75
     1
175
     1
 42
1.0
 92
        0
 66
   257
 43
1.0
 76
     1
 77
     6
 78
     2
 67
     7
 79
     5
170
     0
171
     0
290
     0
174
     0
 93
       13
 44
0.0
173
     0
291
     1
 45
0.0
1001
ACAD
1000
AcDbSavedByObjectVersion
1070
     0
  0
VISUALSTYLE
  5
2D
102
{ACAD_REACTORS
330
2A
102
}
330
2A
100
AcDbVisualStyle
  2
Gouraud
 70
     2
 71
     2
 72
     2
 73
     1
 90
        2
 40
-0.6
 41
30.0
 62
     5
 63
     7
 74
     0
 91
        4
 64
     7
 65
   257
 75
     1
175
     1
 42
1.0
 92
        0
 66
     7
 43
1.0
 76
     1
 77
     6
 78
     2
 67
     7
 79
     5
170
     0
171
     0
290
     0
174
     0
 93
       13
 44
0.0
173
     0
291
     1
 45
0.0
1001
ACAD
1000
AcDbSavedByObjectVersion
1070
     0
  0
VISUALSTYLE
  5
2E
102
{ACAD_REACTORS
330
2A
102
}
330
2A
100
AcDbVisualStyle
  2
GouraudWithEdges
 70
     3
 71
     2
 72
     2
 73
     1
 90
        2
 40
-0.6
 41
30.0
 62
     5
 63
     7
 74
     1
 91
        4
 64
     7
 65
   257
 75
     1
175
     1
 42
1.0
 92
        0
 66
   257
 43
1.0
 76
     1
 77
     6
 78
     2
 67
     7
 79
     5
170
     0
171
     0
290
     0
174
     0
 93
       13
 44
0.0
173
     0
291
     1
 45
0.0
1001
ACAD
1000
AcDbSavedByObjectVersion
1070
     0
  0
VISUALSTYLE
  5
38
102
{ACAD_REACTORS
330
2A
102
}
330
2A
100
AcDbVisualStyle
  2
Linepattern
 70
    14
 71
     2
 72
     2
 73
     0
 90
        0
 40
-0.6
 41
-30.0
 62
     5
 63
     7
 74
     1
 91
        4
 64
     7
 65
   257
 75
     7
175
     7
 42
1.0
 92
        8
 66
     7
 43
1.0
 76
     1
 77
     6
 78
     2
 67
     7
 79
     5
170
     0
171
     0
290
     0
174
     0
 93
        1
 44
0.0
173
     0
291
     1
 45
0.0
1001
ACAD
1000
AcDbSavedByObjectVersion
1070
     0
  0
VISUALSTYLE
  5
33
102
{ACAD_REACTORS
330
2A
102
}
330
2A
100
AcDbVisualStyle
  2
Realistic
 70
     8
 71
     2
 72
     2
 73
     0
 90
        0
 40
-0.6
 41
-30.0
 62
     5
 63
     7
 74
     1
 91
        0
 64
     7
 65
   257
 75
     1
175
     1
 42
1.0
 92
        8
 66
     8
 43
1.0
 76
     1
 77
     6
 78
     2
 67
     7
 79
     5
170
     0
171
     0
290
     0
174
     0
 93
       13
 44
0.0
173
     0
291
     0
 45
0.0
1001
ACAD
1000
AcDbSavedByObjectVersion
1070
     0
  0
VISUALSTYLE
  5
37
102
{ACAD_REACTORS
330
2A
102
}
330
2A
100
AcDbVisualStyle
  2
Thicken
 70
    13
 71
     2
 72
     2
 73
     0
 90
        0
 40
-0.6
 41
-30.0
 62
     5
 63
     7
 74
     1
 91
        4
 64
     7
 65
   257
 75
     1
175
     1
 42
1.0
 92
       12
 66
     7
 43
1.0
 76
     1
 77
     6
 78
     2
 67
     7
 79
     5
170
     0
171
     0
290
     0
174
     0
 93
        1
 44
0.0
173
     0
291
     1
 45
0.0
1001
ACAD
1000
AcDbSavedByObjectVersion
1070
     0
  0
DICTIONARYVAR
  5
179
102
{ACAD_REACTORS
330
176
102
}
330
176
100
DictionaryVariables
280
     0
  1
1:1
  0
ENDSEC
  0
EOF
