  0
SECTION
  2
HEADER
  9
$ACADVER
  1
AC1015
  9
$ACADMAINTVER
 70
     6
  9
$DWGCODEPAGE
  3
ANSI_1252
  9
$INSBASE
 10
0.0
 20
0.0
 30
0.0
  9
$EXTMIN
 10
8.7237775202263
 20
258.0146408527378
 30
0.0
  9
$EXTMAX
 10
243.011129497587
 20
366.784027770044
 30
0.0
  9
$LIMMIN
 10
0.0
 20
0.0
  9
$LIMMAX
 10
12.0
 20
9.0
  9
$ORTHOMODE
 70
     0
  9
$REGENMODE
 70
     1
  9
$FILLMODE
 70
     1
  9
$QTEXTMODE
 70
     0
  9
$MIRRTEXT
 70
     1
  9
$LTSCALE
 40
1.0
  9
$ATTMODE
 70
     1
  9
$TEXTSIZE
 40
0.2
  9
$TRACEWID
 40
0.05
  9
$TEXTSTYLE
  7
Standard
  9
$CLAYER
  8
0
  9
$CELTYPE
  6
ByLayer
  9
$CECOLOR
 62
   256
  9
$CELTSCALE
 40
1.0
  9
$DISPSILH
 70
     0
  9
$DIMSCALE
 40
1.0
  9
$DIMASZ
 40
0.18
  9
$DIMEXO
 40
0.0625
  9
$DIMDLI
 40
0.38
  9
$DIMRND
 40
0.0
  9
$DIMDLE
 40
0.0
  9
$DIMEXE
 40
0.18
  9
$DIMTP
 40
0.0
  9
$DIMTM
 40
0.0
  9
$DIMTXT
 40
0.18
  9
$DIMCEN
 40
0.09
  9
$DIMTSZ
 40
0.0
  9
$DIMTOL
 70
     0
  9
$DIMLIM
 70
     0
  9
$DIMTIH
 70
     1
  9
$DIMTOH
 70
     1
  9
$DIMSE1
 70
     0
  9
$DIMSE2
 70
     0
  9
$DIMTAD
 70
     0
  9
$DIMZIN
 70
     0
  9
$DIMBLK
  1

  9
$DIMASO
 70
     1
  9
$DIMSHO
 70
     1
  9
$DIMPOST
  1

  9
$DIMAPOST
  1

  9
$DIMALT
 70
     0
  9
$DIMALTD
 70
     2
  9
$DIMALTF
 40
25.4
  9
$DIMLFAC
 40
1.0
  9
$DIMTOFL
 70
     0
  9
$DIMTVP
 40
0.0
  9
$DIMTIX
 70
     0
  9
$DIMSOXD
 70
     0
  9
$DIMSAH
 70
     0
  9
$DIMBLK1
  1

  9
$DIMBLK2
  1

  9
$DIMSTYLE
  2
Standard
  9
$DIMCLRD
 70
     0
  9
$DIMCLRE
 70
     0
  9
$DIMCLRT
 70
     0
  9
$DIMTFAC
 40
1.0
  9
$DIMGAP
 40
0.09
  9
$DIMJUST
 70
     0
  9
$DIMSD1
 70
     0
  9
$DIMSD2
 70
     0
  9
$DIMTOLJ
 70
     1
  9
$DIMTZIN
 70
     0
  9
$DIMALTZ
 70
     0
  9
$DIMALTTZ
 70
     0
  9
$DIMUPT
 70
     0
  9
$DIMDEC
 70
     4
  9
$DIMTDEC
 70
     4
  9
$DIMALTU
 70
     2
  9
$DIMALTTD
 70
     2
  9
$DIMTXSTY
  7
Standard
  9
$DIMAUNIT
 70
     0
  9
$DIMADEC
 70
     0
  9
$DIMALTRND
 40
0.0
  9
$DIMAZIN
 70
     0
  9
$DIMDSEP
 70
    46
  9
$DIMATFIT
 70
     3
  9
$DIMFRAC
 70
     0
  9
$DIMLDRBLK
  1

  9
$DIMLUNIT
 70
     2
  9
$DIMLWD
 70
    -2
  9
$DIMLWE
 70
    -2
  9
$DIMTMOVE
 70
     0
  9
$LUNITS
 70
     2
  9
$LUPREC
 70
     4
  9
$SKETCHINC
 40
0.1
  9
$FILLETRAD
 40
0.5
  9
$AUNITS
 70
     0
  9
$AUPREC
 70
     0
  9
$MENU
  1
.
  9
$ELEVATION
 40
0.0
  9
$PELEVATION
 40
0.0
  9
$THICKNESS
 40
0.0
  9
$LIMCHECK
 70
     0
  9
$CHAMFERA
 40
0.5
  9
$CHAMFERB
 40
0.5
  9
$CHAMFERC
 40
1.0
  9
$CHAMFERD
 40
0.0
  9
$SKPOLY
 70
     0
  9
$TDCREATE
 40
2456749.75095831
  9
$TDUCREATE
 40
2456749.667624977
  9
$TDUPDATE
 40
2456749.750958322
  9
$TDUUPDATE
 40
2456749.667624989
  9
$TDINDWG
 40
0.0000000116
  9
$TDUSRTIMER
 40
0.0000000116
  9
$USRTIMER
 70
     1
  9
$ANGBASE
 50
0.0
  9
$ANGDIR
 70
     0
  9
$PDMODE
 70
     0
  9
$PDSIZE
 40
0.0
  9
$PLINEWID
 40
0.0
  9
$SPLFRAME
 70
     0
  9
$SPLINETYPE
 70
     6
  9
$SPLINESEGS
 70
     8
  9
$HANDSEED
  5
18D
  9
$SURFTAB1
 70
     6
  9
$SURFTAB2
 70
     6
  9
$SURFTYPE
 70
     6
  9
$SURFU
 70
     6
  9
$SURFV
 70
     6
  9
$UCSBASE
  2

  9
$UCSNAME
  2

  9
$UCSORG
 10
0.0
 20
0.0
 30
0.0
  9
$UCSXDIR
 10
1.0
 20
0.0
 30
0.0
  9
$UCSYDIR
 10
0.0
 20
1.0
 30
0.0
  9
$UCSORTHOREF
  2

  9
$UCSORTHOVIEW
 70
     0
  9
$UCSORGTOP
 10
0.0
 20
0.0
 30
0.0
  9
$UCSORGBOTTOM
 10
0.0
 20
0.0
 30
0.0
  9
$UCSORGLEFT
 10
0.0
 20
0.0
 30
0.0
  9
$UCSORGRIGHT
 10
0.0
 20
0.0
 30
0.0
  9
$UCSORGFRONT
 10
0.0
 20
0.0
 30
0.0
  9
$UCSORGBACK
 10
0.0
 20
0.0
 30
0.0
  9
$PUCSBASE
  2

  9
$PUCSNAME
  2

  9
$PUCSORG
 10
0.0
 20
0.0
 30
0.0
  9
$PUCSXDIR
 10
1.0
 20
0.0
 30
0.0
  9
$PUCSYDIR
 10
0.0
 20
1.0
 30
0.0
  9
$PUCSORTHOREF
  2

  9
$PUCSORTHOVIEW
 70
     0
  9
$PUCSORGTOP
 10
0.0
 20
0.0
 30
0.0
  9
$PUCSORGBOTTOM
 10
0.0
 20
0.0
 30
0.0
  9
$PUCSORGLEFT
 10
0.0
 20
0.0
 30
0.0
  9
$PUCSORGRIGHT
 10
0.0
 20
0.0
 30
0.0
  9
$PUCSORGFRONT
 10
0.0
 20
0.0
 30
0.0
  9
$PUCSORGBACK
 10
0.0
 20
0.0
 30
0.0
  9
$USERI1
 70
     0
  9
$USERI2
 70
     0
  9
$USERI3
 70
     0
  9
$USERI4
 70
     0
  9
$USERI5
 70
     0
  9
$USERR1
 40
16.5
  9
$USERR2
 40
0.0
  9
$USERR3
 40
0.0
  9
$USERR4
 40
0.0
  9
$USERR5
 40
0.0
  9
$WORLDVIEW
 70
     1
  9
$SHADEDGE
 70
     3
  9
$SHADEDIF
 70
    70
  9
$TILEMODE
 70
     1
  9
$MAXACTVP
 70
    64
  9
$PINSBASE
 10
0.0
 20
0.0
 30
0.0
  9
$PLIMCHECK
 70
     0
  9
$PEXTMIN
 10
1.00000000000000E+20
 20
1.00000000000000E+20
 30
1.00000000000000E+20
  9
$PEXTMAX
 10
-1.00000000000000E+20
 20
-1.00000000000000E+20
 30
-1.00000000000000E+20
  9
$PLIMMIN
 10
0.0
 20
0.0
  9
$PLIMMAX
 10
12.0
 20
9.0
  9
$UNITMODE
 70
     0
  9
$VISRETAIN
 70
     1
  9
$PLINEGEN
 70
     0
  9
$PSLTSCALE
 70
     1
  9
$TREEDEPTH
 70
  3020
  9
$CMLSTYLE
  2
Standard
  9
$CMLJUST
 70
     0
  9
$CMLSCALE
 40
1.0
  9
$PROXYGRAPHICS
 70
     1
  9
$MEASUREMENT
 70
     1
  9
$CELWEIGHT
370
    -1
  9
$ENDCAPS
280
     0
  9
$JOINSTYLE
280
     0
  9
$LWDISPLAY
290
     0
  9
$INSUNITS
 70
     1
  9
$HYPERLINKBASE
  1

  9
$STYLESHEET
  1

  9
$XEDIT
290
     1
  9
$CEPSNTYPE
380
     0
  9
$PSTYLEMODE
290
     1
  9
$FINGERPRINTGUID
  2
{FA38DE72-88DE-4D20-ABE1-E4EC735661C0}
  9
$VERSIONGUID
  2
{FAEB1C32-E019-11D5-929B-00C0DF256EC4}
  9
$EXTNAMES
290
     1
  9
$PSVPSCALE
 40
0.0
  9
$OLESTARTUP
290
     0
  0
ENDSEC
  0
SECTION
  2
CLASSES
  0
CLASS
  1
ACDBDICTIONARYWDFLT
  2
AcDbDictionaryWithDefault
  3
ObjectDBX Classes
 90
        0
280
     0
281
     0
  0
CLASS
  1
VISUALSTYLE
  2
AcDbVisualStyle
  3
ObjectDBX Classes
 90
     4095
280
     0
281
     0
  0
CLASS
  1
SCALE
  2
AcDbScale
  3
ObjectDBX Classes
 90
     1153
280
     0
281
     0
  0
CLASS
  1

  2
exOdDbPolyline
  3

 90
        0
280
     0
281
     1
  0
CLASS
  1

  2
exOdDbCircle
  3

 90
        0
280
     0
281
     1
  0
CLASS
  1

  2
exOdDbSpline
  3

 90
        0
280
     0
281
     1
  0
CLASS
  1
DICTIONARYVAR
  2
AcDbDictionaryVar
  3
ObjectDBX Classes
 90
        0
280
     0
281
     0
  0
CLASS
  1
ACDBPLACEHOLDER
  2
AcDbPlaceHolder
  3
ObjectDBX Classes
 90
        0
280
     0
281
     0
  0
CLASS
  1
LAYOUT
  2
AcDbLayout
  3
ObjectDBX Classes
 90
        0
280
     0
281
     0
  0
ENDSEC
  0
SECTION
  2
TABLES
  0
TABLE
  2
VPORT
  5
8
330
0
100
AcDbSymbolTable
 70
     1
  0
VPORT
  5
29
330
8
100
AcDbSymbolTableRecord
100
AcDbViewportTableRecord
  2
*Active
 70
     0
 10
0.0
 20
0.0
 11
1.0
 21
1.0
 12
125.8674535089066
 22
312.3993343113909
 13
0.0
 23
0.0
 14
0.5
 24
0.5
 15
0.5
 25
0.5
 16
0.0
 26
0.0
 36
1.0
 17
0.0
 27
0.0
 37
0.0
 40
160.8033524435145
 41
1.60267857142857
 42
50.0
 43
0.0
 44
0.0
 50
0.0
 51
0.0
 71
     0
 72
   100
 73
     1
 74
     3
 75
     0
 76
     0
 77
     0
 78
     0
281
     0
 65
     1
110
0.0
120
0.0
130
0.0
111
1.0
121
0.0
131
0.0
112
0.0
122
1.0
132
0.0
 79
     0
146
0.0
  0
ENDTAB
  0
TABLE
  2
LTYPE
  5
5
330
0
100
AcDbSymbolTable
 70
     8
  0
LTYPE
  5
14
330
5
100
AcDbSymbolTableRecord
100
AcDbLinetypeTableRecord
  2
ByBlock
 70
     0
  3

 72
    65
 73
     0
 40
0.0
  0
LTYPE
  5
15
330
5
100
AcDbSymbolTableRecord
100
AcDbLinetypeTableRecord
  2
ByLayer
 70
     0
  3

 72
    65
 73
     0
 40
0.0
  0
LTYPE
  5
16
330
5
100
AcDbSymbolTableRecord
100
AcDbLinetypeTableRecord
  2
Continuous
 70
     0
  3
Solid line
 72
    65
 73
     0
 40
0.0
  0
LTYPE
  5
3B
330
5
100
AcDbSymbolTableRecord
100
AcDbLinetypeTableRecord
  2
DASHED
 70
     0
  3
Dashed
 72
    65
 73
     2
 40
15.0
 49
7.0
 74
     0
 49
-8.0
 74
     0
  0
LTYPE
  5
3C
330
5
100
AcDbSymbolTableRecord
100
AcDbLinetypeTableRecord
  2
DOTTED
 70
     0
  3
Dotted
 72
    65
 73
     2
 40
1.0
 49
0.0
 74
     0
 49
-1.0
 74
     0
  0
LTYPE
  5
3D
330
5
100
AcDbSymbolTableRecord
100
AcDbLinetypeTableRecord
  2
DOT_CENTER
 70
     0
  3
Dot_Center
 72
    65
 73
     4
 40
14.0
 49
12.0
 74
     0
 49
-1.0
 74
     0
 49
0.0
 74
     0
 49
-1.0
 74
     0
  0
LTYPE
  5
3E
330
5
100
AcDbSymbolTableRecord
100
AcDbLinetypeTableRecord
  2
LONG_DASHED
 70
     0
  3
Long_Dashed
 72
    65
 73
     2
 40
15.0
 49
10.0
 74
     0
 49
-5.0
 74
     0
  0
LTYPE
  5
3F
330
5
100
AcDbSymbolTableRecord
100
AcDbLinetypeTableRecord
  2
DASH_CENTER
 70
     0
  3
Dash_Center
 72
    65
 73
     4
 40
14.0
 49
11.0
 74
     0
 49
-1.0
 74
     0
 49
1.0
 74
     0
 49
-1.0
 74
     0
  0
LTYPE
  5
40
330
5
100
AcDbSymbolTableRecord
100
AcDbLinetypeTableRecord
  2
PHANTOM
 70
     0
  3
Phantom
 72
    65
 73
     6
 40
13.0
 49
10.0
 74
     0
 49
-1.0
 74
     0
 49
0.0
 74
     0
 49
-1.0
 74
     0
 49
0.0
 74
     0
 49
-1.0
 74
     0
  0
LTYPE
  5
41
330
5
100
AcDbSymbolTableRecord
100
AcDbLinetypeTableRecord
  2
CENTER_DASH_DASH
 70
     0
  3
Center_Dash_Dash
 72
    65
 73
     6
 40
14.0
 49
9.0
 74
     0
 49
-1.0
 74
     0
 49
1.0
 74
     0
 49
-1.0
 74
     0
 49
1.0
 74
     0
 49
-1.0
 74
     0
  0
ENDTAB
  0
TABLE
  2
LAYER
  5
2
330
0
100
AcDbSymbolTable
 70
     8
  0
LAYER
  5
10
330
2
100
AcDbSymbolTableRecord
100
AcDbLayerTableRecord
  2
0
 70
     0
 62
     7
  6
Continuous
370
    -3
390
F
  0
LAYER
  5
42
330
2
100
AcDbSymbolTableRecord
100
AcDbLayerTableRecord
  2
1
 70
     0
 62
     7
  6
Continuous
370
    -3
390
F
  0
LAYER
  5
43
330
2
100
AcDbSymbolTableRecord
100
AcDbLayerTableRecord
  2
BEZUGSACHSEN
 70
     0
 62
     7
  6
Continuous
370
    -3
390
F
  0
LAYER
  5
44
330
2
100
AcDbSymbolTableRecord
100
AcDbLayerTableRecord
  2
BG_STARTBEZUEGE
 70
     0
 62
     7
  6
Continuous
370
    -3
390
F
  0
LAYER
  5
45
330
2
100
AcDbSymbolTableRecord
100
AcDbLayerTableRecord
  2
DEFAULT_2
 70
     0
 62
     7
  6
Continuous
370
    -3
390
F
  0
LAYER
  5
46
330
2
100
AcDbSymbolTableRecord
100
AcDbLayerTableRecord
  2
FASEN
 70
     0
 62
     7
  6
Continuous
370
    -3
390
F
  0
LAYER
  5
47
330
2
100
AcDbSymbolTableRecord
100
AcDbLayerTableRecord
  2
RUNDUNGEN
 70
     0
 62
     7
  6
Continuous
370
    -3
390
F
  0
LAYER
  5
48
330
2
100
AcDbSymbolTableRecord
100
AcDbLayerTableRecord
  2
VERERBUNG
 70
     0
 62
     7
  6
Continuous
370
    -3
390
F
  0
ENDTAB
  0
TABLE
  2
STYLE
  5
3
330
0
100
AcDbSymbolTable
 70
     2
  0
STYLE
  5
11
330
3
100
AcDbSymbolTableRecord
100
AcDbTextStyleTableRecord
  2
Standard
 70
     0
 40
0.0
 41
1.0
 50
0.0
 71
     0
 42
0.2
  3
txt
  4

  0
STYLE
  5
6F
330
3
100
AcDbSymbolTableRecord
100
AcDbTextStyleTableRecord
  2
CONVERTER_11
 70
     0
 40
0.0
 41
0.72
 50
0.0
 71
     0
 42
0.2
  3
txt.shx
  4

  0
ENDTAB
  0
TABLE
  2
VIEW
  5
6
330
0
100
AcDbSymbolTable
 70
     0
  0
ENDTAB
  0
TABLE
  2
UCS
  5
7
330
0
100
AcDbSymbolTable
 70
     0
  0
ENDTAB
  0
TABLE
  2
APPID
  5
9
330
0
100
AcDbSymbolTable
 70
     1
  0
APPID
  5
12
330
9
100
AcDbSymbolTableRecord
100
AcDbRegAppTableRecord
  2
ACAD
 70
     0
  0
ENDTAB
  0
TABLE
  2
DIMSTYLE
  5
A
330
0
100
AcDbSymbolTable
 70
     7
100
AcDbDimStyleTable
  0
DIMSTYLE
105
27
330
A
100
AcDbSymbolTableRecord
100
AcDbDimStyleTableRecord
  2
Standard
 70
     0
340
11
  0
DIMSTYLE
105
149
102
{ACAD_REACTORS
330
14A
102
}
330
A
100
AcDbSymbolTableRecord
100
AcDbDimStyleTableRecord
  2
ME10_DIM_10
 70
     0
  3
ER<>
 41
3.5
 42
2.0
 44
2.0
 71
     1
 73
     0
 74
     0
 77
     1
 78
     8
140
3.5
146
0.7
147
2.0
172
     1
173
     1
176
     2
177
     2
178
     3
271
     2
272
     0
340
6F
  0
DIMSTYLE
105
154
102
{ACAD_REACTORS
330
155
102
}
330
A
100
AcDbSymbolTableRecord
100
AcDbDimStyleTableRecord
  2
ME10_DIM_11
 70
     0
  3
\U+2300<>
 41
3.5
 42
2.0
 44
2.0
 71
     1
 73
     0
 74
     0
 77
     1
 78
     8
140
3.5
146
0.7
147
2.0
172
     1
173
     1
176
     2
177
     2
178
     3
271
     2
272
     0
340
6F
  0
DIMSTYLE
105
15F
102
{ACAD_REACTORS
330
160
102
}
330
A
100
AcDbSymbolTableRecord
100
AcDbDimStyleTableRecord
  2
ME10_DIM_12
 70
     0
  3
<>
 41
3.5
 42
2.0
 44
2.0
 71
     1
 73
     0
 74
     0
 77
     1
 78
     8
140
3.5
146
0.7
147
2.0
172
     1
173
     1
176
     2
177
     2
178
     3
271
     2
272
     0
340
6F
  0
DIMSTYLE
105
16A
102
{ACAD_REACTORS
330
16B
102
}
330
A
100
AcDbSymbolTableRecord
100
AcDbDimStyleTableRecord
  2
ME10_DIM_13
 70
     0
  3
<>
 41
3.5
 42
2.0
 44
2.0
 71
     1
 73
     0
 74
     0
 77
     1
 78
     8
140
3.5
146
0.7
147
2.0
172
     1
173
     1
176
     2
177
     2
178
     3
271
     2
272
     0
340
6F
  0
DIMSTYLE
105
175
102
{ACAD_REACTORS
330
176
102
}
330
A
100
AcDbSymbolTableRecord
100
AcDbDimStyleTableRecord
  2
ME10_DIM_14
 70
     0
  3
<>
 41
3.5
 42
2.0
 44
2.0
 71
     1
 73
     0
 74
     0
 77
     1
 78
     8
140
3.5
146
0.7
147
2.0
172
     1
173
     1
176
     2
177
     2
178
     3
271
     2
272
     0
340
6F
  0
DIMSTYLE
105
180
102
{ACAD_REACTORS
330
181
102
}
330
A
100
AcDbSymbolTableRecord
100
AcDbDimStyleTableRecord
  2
ME10_DIM_15
 70
     0
  3
<>
 41
3.5
 42
2.0
 44
2.0
 71
     1
 73
     0
 74
     0
 77
     1
 78
     8
140
3.5
146
0.7
147
2.0
172
     1
173
     1
176
     2
177
     2
178
     3
271
     2
272
     0
340
6F
  0
ENDTAB
  0
TABLE
  2
BLOCK_RECORD
  5
1
330
0
100
AcDbSymbolTable
 70
     9
  0
BLOCK_RECORD
  5
1F
330
1
100
AcDbSymbolTableRecord
100
AcDbBlockTableRecord
  2
*Model_Space
340
22
  0
BLOCK_RECORD
  5
1B
330
1
100
AcDbSymbolTableRecord
100
AcDbBlockTableRecord
  2
*Paper_Space
340
1E
  0
BLOCK_RECORD
  5
23
330
1
100
AcDbSymbolTableRecord
100
AcDbBlockTableRecord
  2
*Paper_Space0
340
26
  0
BLOCK_RECORD
  5
49
330
1
100
AcDbSymbolTableRecord
100
AcDbBlockTableRecord
  2
Urheberrecht_DE-EN
340
0
102
{BLKREFS
331
6E
102
}
  0
BLOCK_RECORD
  5
140
330
1
100
AcDbSymbolTableRecord
100
AcDbBlockTableRecord
  2
*D2
340
0
  0
BLOCK_RECORD
  5
14B
330
1
100
AcDbSymbolTableRecord
100
AcDbBlockTableRecord
  2
*D3
340
0
  0
BLOCK_RECORD
  5
156
330
1
100
AcDbSymbolTableRecord
100
AcDbBlockTableRecord
  2
*D4
340
0
  0
BLOCK_RECORD
  5
161
330
1
100
AcDbSymbolTableRecord
100
AcDbBlockTableRecord
  2
*D5
340
0
  0
BLOCK_RECORD
  5
16C
330
1
100
AcDbSymbolTableRecord
100
AcDbBlockTableRecord
  2
*D6
340
0
  0
BLOCK_RECORD
  5
177
330
1
100
AcDbSymbolTableRecord
100
AcDbBlockTableRecord
  2
*D7
340
0
  0
BLOCK_RECORD
  5
182
330
1
100
AcDbSymbolTableRecord
100
AcDbBlockTableRecord
  2
*D8
340
0
102
{BLKREFS
331
188
102
}
  0
ENDTAB
  0
ENDSEC
  0
SECTION
  2
BLOCKS
  0
BLOCK
  5
20
330
1F
100
AcDbEntity
  8
0
100
AcDbBlockBegin
  2
*Model_Space
 70
     0
 10
0.0
 20
0.0
 30
0.0
  3
*Model_Space
  1

  0
ENDBLK
  5
21
330
1F
100
AcDbEntity
  8
0
100
AcDbBlockEnd
  0
BLOCK
  5
1C
330
1B
100
AcDbEntity
 67
     1
  8
0
100
AcDbBlockBegin
  2
*Paper_Space
 70
     0
 10
0.0
 20
0.0
 30
0.0
  3
*Paper_Space
  1

  0
ENDBLK
  5
1D
330
1B
100
AcDbEntity
 67
     1
  8
0
100
AcDbBlockEnd
  0
BLOCK
  5
24
330
23
100
AcDbEntity
  8
0
100
AcDbBlockBegin
  2
*Paper_Space0
 70
     0
 10
0.0
 20
0.0
 30
0.0
  3
*Paper_Space0
  1

  0
ENDBLK
  5
25
330
23
100
AcDbEntity
  8
0
100
AcDbBlockEnd
  0
BLOCK
  5
4A
330
49
100
AcDbEntity
  8
0
100
AcDbBlockBegin
  2
Urheberrecht_DE-EN
 70
     0
 10
22.7237775202263
 20
314.304027770044
 30
0.0
  3
Urheberrecht_DE-EN
  1

  0
MTEXT
  5
70
330
49
100
AcDbEntity
  8
1
 62
     1
100
AcDbMText
 10
22.7237775202263
 20
314.304027770044
 30
0.0
 40
2.0
 41
0.0
 71
     7
 72
     1
  1
We own the copyright of this document. It \Pdetermined and may neither be copied or \Pmade accessible to outsiders without our\Ppermission.
  7
CONVERTER_11
 11
0.0
 21
1.0
 31
0.0
 73
     1
 44
0.90036014405762
  0
MTEXT
  5
71
330
49
100
AcDbEntity
  8
1
 62
     1
100
AcDbMText
 10
22.7237775202263
 20
258.0146408527378
 30
0.0
 40
2.0
 41
0.0
 71
     7
 72
     1
  1
F\U+00fcr diese Unterlage behalten wir das Ur-\Pheberrecht. Sie darf nur f\U+00fcr den von uns \Pbestimmten Zweck benutzt und ohne unsere \PZustimmung weder vervielf\U+00e4ltigt noch\PDritten zug\U+00e4nglich gemacht werden.
  7
CONVERTER_11
 11
0.0
 21
1.0
 31
0.0
 73
     1
 44
0.90036014405762
  0
ENDBLK
  5
4B
330
49
100
AcDbEntity
  8
0
100
AcDbBlockEnd
  0
BLOCK
  5
147
330
140
100
AcDbEntity
  8
0
100
AcDbBlockBegin
  2
*D2
 70
     1
 10
0.0
 20
0.0
 30
0.0
  3
*D2
  1

  0
LINE
  5
141
330
140
100
AcDbEntity
  8
1
  6
Continuous
 62
     2
100
AcDbLine
 10
232.946930169783
 20
312.164453125
 30
0.0
 11
232.946930169783
 21
280.164453125
 31
0.0
  0
LINE
  5
142
330
140
100
AcDbEntity
  8
1
  6
Continuous
 62
     2
100
AcDbLine
 10
210.0068359375
 20
312.164453125
 30
0.0
 11
234.946930169783
 21
312.164453125
 31
0.0
  0
LINE
  5
143
330
140
100
AcDbEntity
  8
1
  6
Continuous
 62
     2
100
AcDbLine
 10
210.0068359375
 20
280.164453125
 30
0.0
 11
234.946930169783
 21
280.164453125
 31
0.0
  0
SOLID
  5
144
330
140
100
AcDbEntity
  8
1
 62
     2
100
AcDbTrace
 10
233.4077139113389
 20
308.664453125
 30
0.0
 11
232.4861464282271
 21
308.664453125
 31
0.0
 12
232.946930169783
 22
312.164453125
 32
0.0
 13
232.946930169783
 23
312.164453125
 33
0.0
  0
SOLID
  5
145
330
140
100
AcDbEntity
  8
1
 62
     2
100
AcDbTrace
 10
232.4861464282271
 20
283.664453125
 30
0.0
 11
233.4077139113389
 21
283.664453125
 31
0.0
 12
232.946930169783
 22
280.164453125
 32
0.0
 13
232.946930169783
 23
280.164453125
 33
0.0
  0
MTEXT
  5
146
330
140
100
AcDbEntity
  8
1
 62
     3
100
AcDbMText
 10
230.946930169783
 20
291.086884985237
 30
0.0
 40
3.5
 41
0.0
 71
     7
 72
     1
  1
\C3;ER\C3;\C3;32\C2;\H2.45;\S^ ;\C3;
  7
CONVERTER_11
 11
0.0
 21
1.0
 31
0.0
 73
     1
 44
0.60024009603842
  0
ENDBLK
  5
148
330
140
100
AcDbEntity
  8
0
100
AcDbBlockEnd
  0
BLOCK
  5
152
330
14B
100
AcDbEntity
  8
0
100
AcDbBlockBegin
  2
*D3
 70
     1
 10
0.0
 20
0.0
 30
0.0
  3
*D3
  1

  0
LINE
  5
14C
330
14B
100
AcDbEntity
  8
1
  6
Continuous
 62
     2
100
AcDbLine
 10
241.011129497587
 20
321.164453125
 30
0.0
 11
241.011129497587
 21
271.164453125
 31
0.0
  0
LINE
  5
14D
330
14B
100
AcDbEntity
  8
1
  6
Continuous
 62
     2
100
AcDbLine
 10
218.388033784
 20
321.164453125
 30
0.0
 11
243.011129497587
 21
321.164453125
 31
0.0
  0
LINE
  5
14E
330
14B
100
AcDbEntity
  8
1
  6
Continuous
 62
     2
100
AcDbLine
 10
218.388033784
 20
271.164453125
 30
0.0
 11
243.011129497587
 21
271.164453125
 31
0.0
  0
SOLID
  5
14F
330
14B
100
AcDbEntity
  8
1
 62
     2
100
AcDbTrace
 10
241.4719132391429
 20
317.664453125
 30
0.0
 11
240.5503457560311
 21
317.664453125
 31
0.0
 12
241.011129497587
 22
321.164453125
 32
0.0
 13
241.011129497587
 23
321.164453125
 33
0.0
  0
SOLID
  5
150
330
14B
100
AcDbEntity
  8
1
 62
     2
100
AcDbTrace
 10
240.5503457560311
 20
274.664453125
 30
0.0
 11
241.4719132391429
 21
274.664453125
 31
0.0
 12
241.011129497587
 22
271.164453125
 32
0.0
 13
241.011129497587
 23
271.164453125
 33
0.0
  0
MTEXT
  5
151
330
14B
100
AcDbEntity
  8
1
 62
     3
100
AcDbMText
 10
239.011129497587
 20
287.712907132771
 30
0.0
 40
3.5
 41
0.0
 71
     7
 72
     1
  1
\C3;%%c\C3;\C3;50\C2;\H2.45;\S^ ;\C3;
  7
CONVERTER_11
 11
0.0
 21
1.0
 31
0.0
 73
     1
 44
0.60024009603842
  0
ENDBLK
  5
153
330
14B
100
AcDbEntity
  8
0
100
AcDbBlockEnd
  0
BLOCK
  5
15D
330
156
100
AcDbEntity
  8
0
100
AcDbBlockBegin
  2
*D4
 70
     1
 10
0.0
 20
0.0
 30
0.0
  3
*D4
  1

  0
LINE
  5
157
330
156
100
AcDbEntity
  8
1
  6
Continuous
 62
     2
100
AcDbLine
 10
208.0068359375
 20
336.319666306106
 30
0.0
 11
87.0068359375
 21
336.319666306106
 31
0.0
  0
LINE
  5
158
330
156
100
AcDbEntity
  8
1
  6
Continuous
 62
     2
100
AcDbLine
 10
208.0068359375
 20
318.164453125
 30
0.0
 11
208.0068359375
 21
338.319666306106
 31
0.0
  0
LINE
  5
159
330
156
100
AcDbEntity
  8
1
  6
Continuous
 62
     2
100
AcDbLine
 10
87.0068359375
 20
329.6644042195
 30
0.0
 11
87.0068359375
 21
338.319666306106
 31
0.0
  0
SOLID
  5
15A
330
156
100
AcDbEntity
  8
1
 62
     2
100
AcDbTrace
 10
204.5068359375
 20
335.8588825645501
 30
0.0
 11
204.5068359375
 21
336.7804500476619
 31
0.0
 12
208.0068359375
 22
336.319666306106
 32
0.0
 13
208.0068359375
 23
336.319666306106
 33
0.0
  0
SOLID
  5
15B
330
156
100
AcDbEntity
  8
1
 62
     2
100
AcDbTrace
 10
90.5068359375
 20
336.7804500476619
 30
0.0
 11
90.5068359375
 21
335.8588825645501
 31
0.0
 12
87.0068359375
 22
336.319666306106
 32
0.0
 13
87.0068359375
 23
336.319666306106
 33
0.0
  0
MTEXT
  5
15C
330
156
100
AcDbEntity
  8
1
 62
     3
100
AcDbMText
 10
145.779821012109
 20
338.319666306106
 30
0.0
 40
3.5
 41
0.0
 71
     7
 72
     1
  1
\C3;\C3;\C3;121\C2;\H2.45;\S^ ;\C3;
  7
CONVERTER_11
 11
0.9999999999970619
 21
2.424068405545306E-6
 31
0.0
 73
     1
 44
0.60024009603842
  0
ENDBLK
  5
15E
330
156
100
AcDbEntity
  8
0
100
AcDbBlockEnd
  0
BLOCK
  5
168
330
161
100
AcDbEntity
  8
0
100
AcDbBlockBegin
  2
*D5
 70
     1
 10
0.0
 20
0.0
 30
0.0
  3
*D5
  1

  0
LINE
  5
162
330
161
100
AcDbEntity
  8
1
  6
Continuous
 62
     2
100
AcDbLine
 10
208.0068359375
 20
343.851332121075
 30
0.0
 11
61.0068359375
 21
343.851332121075
 31
0.0
  0
LINE
  5
163
330
161
100
AcDbEntity
  8
1
  6
Continuous
 62
     2
100
AcDbLine
 10
208.0068359375
 20
318.164453125
 30
0.0
 11
208.0068359375
 21
345.851332121075
 31
0.0
  0
LINE
  5
164
330
161
100
AcDbEntity
  8
1
  6
Continuous
 62
     2
100
AcDbLine
 10
61.0068359375
 20
329.664453125
 30
0.0
 11
61.0068359375
 21
345.851332121075
 31
0.0
  0
SOLID
  5
165
330
161
100
AcDbEntity
  8
1
 62
     2
100
AcDbTrace
 10
204.5068359375
 20
343.3905483795191
 30
0.0
 11
204.5068359375
 21
344.3121158626309
 31
0.0
 12
208.0068359375
 22
343.851332121075
 32
0.0
 13
208.0068359375
 23
343.851332121075
 33
0.0
  0
SOLID
  5
166
330
161
100
AcDbEntity
  8
1
 62
     2
100
AcDbTrace
 10
64.5068359375
 20
344.3121158626309
 30
0.0
 11
64.5068359375
 21
343.3905483795191
 31
0.0
 12
61.0068359375
 22
343.851332121075
 32
0.0
 13
61.0068359375
 23
343.851332121075
 33
0.0
  0
MTEXT
  5
167
330
161
100
AcDbEntity
  8
1
 62
     3
100
AcDbMText
 10
132.034566108703
 20
345.851332121075
 30
0.0
 40
3.5
 41
0.0
 71
     7
 72
     1
  1
\C3;\C3;\C3;147\C2;\H2.45;\S^ ;\C3;
  7
CONVERTER_11
 11
0.9999999999970619
 21
2.424068405545306E-6
 31
0.0
 73
     1
 44
0.60024009603842
  0
ENDBLK
  5
169
330
161
100
AcDbEntity
  8
0
100
AcDbBlockEnd
  0
BLOCK
  5
173
330
16C
100
AcDbEntity
  8
0
100
AcDbBlockBegin
  2
*D6
 70
     1
 10
0.0
 20
0.0
 30
0.0
  3
*D6
  1

  0
LINE
  5
16D
330
16C
100
AcDbEntity
  8
1
  6
Continuous
 62
     2
100
AcDbLine
 10
61.0068359375
 20
351.093318481622
 30
0.0
 11
221.0068359375
 21
351.093318481622
 31
0.0
  0
LINE
  5
16E
330
16C
100
AcDbEntity
  8
1
  6
Continuous
 62
     2
100
AcDbLine
 10
61.0068359375
 20
329.664453125
 30
0.0
 11
61.0068359375
 21
353.093318481622
 31
0.0
  0
LINE
  5
16F
330
16C
100
AcDbEntity
  8
1
  6
Continuous
 62
     2
100
AcDbLine
 10
221.0068359375
 20
316.414453125
 30
0.0
 11
221.0068359375
 21
353.093318481622
 31
0.0
  0
SOLID
  5
170
330
16C
100
AcDbEntity
  8
1
 62
     2
100
AcDbTrace
 10
64.5068359375
 20
351.5541022231779
 30
0.0
 11
64.5068359375
 21
350.6325347400661
 31
0.0
 12
61.0068359375
 22
351.093318481622
 32
0.0
 13
61.0068359375
 23
351.093318481622
 33
0.0
  0
SOLID
  5
171
330
16C
100
AcDbEntity
  8
1
 62
     2
100
AcDbTrace
 10
217.5068359375
 20
350.6325347400661
 30
0.0
 11
217.5068359375
 21
351.5541022231779
 31
0.0
 12
221.0068359375
 22
351.093318481622
 32
0.0
 13
221.0068359375
 23
351.093318481622
 33
0.0
  0
MTEXT
  5
172
330
16C
100
AcDbEntity
  8
1
 62
     3
100
AcDbMText
 10
139.566231923671
 20
353.093318481622
 30
0.0
 40
3.5
 41
0.0
 71
     7
 72
     1
  1
\C3;\C3;\C3;160\C2;\H2.45;\S^ ;\C3;
  7
CONVERTER_11
 11
0.9999999999970619
 21
2.424068405545306E-6
 31
0.0
 73
     1
 44
0.60024009603842
  0
ENDBLK
  5
174
330
16C
100
AcDbEntity
  8
0
100
AcDbBlockEnd
  0
BLOCK
  5
17E
330
177
100
AcDbEntity
  8
0
100
AcDbBlockBegin
  2
*D7
 70
     1
 10
0.0
 20
0.0
 30
0.0
  3
*D7
  1

  0
LINE
  5
178
330
177
100
AcDbEntity
  8
1
  6
Continuous
 62
     2
100
AcDbLine
 10
208.0068359375
 20
358.335304842169
 30
0.0
 11
29.0068359375
 21
358.335304842169
 31
0.0
  0
LINE
  5
179
330
177
100
AcDbEntity
  8
1
  6
Continuous
 62
     2
100
AcDbLine
 10
208.0068359375
 20
318.164453125
 30
0.0
 11
208.0068359375
 21
360.335304842169
 31
0.0
  0
LINE
  5
17A
330
177
100
AcDbEntity
  8
1
  6
Continuous
 62
     2
100
AcDbLine
 10
29.0068359375
 20
319.7404803051
 30
0.0
 11
29.0068359375
 21
360.335304842169
 31
0.0
  0
SOLID
  5
17B
330
177
100
AcDbEntity
  8
1
 62
     2
100
AcDbTrace
 10
204.5068359375
 20
357.8745211006132
 30
0.0
 11
204.5068359375
 21
358.7960885837249
 31
0.0
 12
208.0068359375
 22
358.335304842169
 32
0.0
 13
208.0068359375
 23
358.335304842169
 33
0.0
  0
SOLID
  5
17C
330
177
100
AcDbEntity
  8
1
 62
     2
100
AcDbTrace
 10
32.5068359375
 20
358.7960885837249
 30
0.0
 11
32.5068359375
 21
357.8745211006132
 31
0.0
 12
29.0068359375
 22
358.335304842169
 32
0.0
 13
29.0068359375
 23
358.335304842169
 33
0.0
  0
MTEXT
  5
17D
330
177
100
AcDbEntity
  8
1
 62
     3
100
AcDbMText
 10
119.868029022984
 20
360.335304842169
 30
0.0
 40
3.5
 41
0.0
 71
     7
 72
     1
  1
\C3;\C3;\C3;179\C2;\H2.45;\S^ ;\C3;
  7
CONVERTER_11
 11
0.9999999999970619
 21
2.424068405545306E-6
 31
0.0
 73
     1
 44
0.60024009603842
  0
ENDBLK
  5
17F
330
177
100
AcDbEntity
  8
0
100
AcDbBlockEnd
  0
BLOCK
  5
186
330
182
100
AcDbEntity
  8
0
100
AcDbBlockBegin
  2
*D8
 70
     1
 10
0.0
 20
0.0
 30
0.0
  3
*D8
  1

  0
LINE
  5
183
330
182
100
AcDbEntity
  8
1
  6
Continuous
 62
     2
100
AcDbLine
 10
100.2187863690227
 20
328.1061197763953
 30
0.0
 11
87.27794555950868
 21
321.5321776801998
 31
0.0
  0
SOLID
  5
184
330
182
100
AcDbEntity
  8
1
 62
     2
100
AcDbTrace
 10
90.18969844232578
 20
323.5281778820756
 30
0.0
 11
90.60708573506732
 21
322.7065487237646
 31
0.0
 12
87.27794555950868
 22
321.5321776801998
 32
0.0
 13
87.27794555950868
 23
321.5321776801998
 33
0.0
  0
MTEXT
  5
185
330
182
100
AcDbEntity
  8
1
 62
     3
100
AcDbMText
 10
89.63958177270014
 20
324.975156648355
 30
0.0
 40
3.5
 41
0.0
 71
     7
 72
     1
  1
\C3; R\C3;\C3;2.5\C2;\H2.45;\S^ ;\C3;
  7
CONVERTER_11
 11
0.8915561511965281
 21
0.4529101779201186
 31
0.0
 73
     1
 44
0.60024009603842
  0
ENDBLK
  5
187
330
182
100
AcDbEntity
  8
0
100
AcDbBlockEnd
  0
ENDSEC
  0
SECTION
  2
ENTITIES
  0
INSERT
  5
6E
330
1F
100
AcDbEntity
  8
0
100
AcDbBlockReference
  2
Urheberrecht_DE-EN
 10
22.7237775202263
 20
314.304027770044
 30
0.0
  0
LINE
  5
72
330
1F
100
AcDbEntity
  8
VERERBUNG
  6
Continuous
 62
     7
100
AcDbLine
 10
29.0068359375
 20
274.5884258481
 30
0.0
 11
29.0068359375
 21
288.894453125
 31
0.0
  0
LINE
  5
73
330
1F
100
AcDbEntity
  8
VERERBUNG
  6
Continuous
 62
     7
100
AcDbLine
 10
29.0068359375
 20
303.434453125
 30
0.0
 11
29.0068359375
 21
317.7404803051
 31
0.0
  0
LINE
  5
74
330
1F
100
AcDbEntity
  8
VERERBUNG
  6
Continuous
 62
     7
100
AcDbLine
 10
30.0068359375
 20
288.5345714451
 30
0.0
 11
30.0068359375
 21
289.894453125
 31
0.0
  0
LINE
  5
75
330
1F
100
AcDbEntity
  8
VERERBUNG
  6
Continuous
 62
     7
100
AcDbLine
 10
30.0068359375
 20
302.434453125
 30
0.0
 11
30.0068359375
 21
303.7943348049
 31
0.0
  0
LINE
  5
76
330
1F
100
AcDbEntity
  8
VERERBUNG
  6
Continuous
 62
     9
100
AcDbLine
 10
30.1467928732
 20
318.9390283825
 30
0.0
 11
30.1467928732
 21
305.7264810563
 31
0.0
  0
LINE
  5
77
330
1F
100
AcDbEntity
  8
VERERBUNG
  6
Continuous
 62
     9
100
AcDbLine
 10
30.1467928732
 20
286.6024251937
 30
0.0
 11
30.1467928732
 21
273.3898778675
 31
0.0
  0
LINE
  5
78
330
1F
100
AcDbEntity
  8
VERERBUNG
  6
Continuous
 62
     9
100
AcDbLine
 10
33.5068359375
 20
286.2081402431
 30
0.0
 11
33.5068359375
 21
289.894453125
 31
0.0
  0
LINE
  5
79
330
1F
100
AcDbEntity
  8
VERERBUNG
  6
Continuous
 62
     9
100
AcDbLine
 10
33.5068359375
 20
302.434453125
 30
0.0
 11
33.5068359375
 21
306.1207660069
 31
0.0
  0
LINE
  5
7A
330
1F
100
AcDbEntity
  8
VERERBUNG
  6
Continuous
 62
     7
100
AcDbLine
 10
35.0068359375
 20
303.6062408436
 30
0.0
 11
35.0068359375
 21
288.7226654064
 31
0.0
  0
LWPOLYLINE
  5
7B
330
1F
100
AcDbEntity
  8
BEZUGSACHSEN
  6
DOT_CENTER
 62
     7
100
AcDbPolyline
 90
        2
 70
     0
 43
0.25
 10
52.0068359375
 20
289.414453125
 10
52.0068359375
 20
302.914453125
  0
LINE
  5
7C
330
1F
100
AcDbEntity
  8
VERERBUNG
  6
Continuous
 62
     7
100
AcDbLine
 10
59.0068359375
 20
320.3848772747
 30
0.0
 11
59.0068359375
 21
271.9440289753
 31
0.0
  0
LINE
  5
7D
330
1F
100
AcDbEntity
  8
VERERBUNG
  6
Continuous
 62
     9
100
AcDbLine
 10
59.6769461705
 20
272.1235844711
 30
0.0
 11
59.6769461705
 21
320.2053217789
 31
0.0
  0
LINE
  5
7E
330
1F
100
AcDbEntity
  8
VERERBUNG
  6
Continuous
 62
     9
100
AcDbLine
 10
59.8322375976
 20
272.1440289753
 30
0.0
 11
59.8322375976
 21
320.1848772747
 31
0.0
  0
LINE
  5
7F
330
1F
100
AcDbEntity
  8
VERERBUNG
  6
Continuous
 62
     9
100
AcDbLine
 10
60.704666307
 20
272.1440289753
 30
0.0
 11
60.704666307
 21
320.1848772747
 31
0.0
  0
LINE
  5
80
330
1F
100
AcDbEntity
  8
VERERBUNG
  6
Continuous
 62
     7
100
AcDbLine
 10
61.0068359375
 20
327.664453125
 30
0.0
 11
61.0068359375
 21
264.664453125
 31
0.0
  0
LINE
  5
81
330
1F
100
AcDbEntity
  8
VERERBUNG
  6
Continuous
 62
     7
100
AcDbLine
 10
29.0068359375
 20
288.894453125
 30
0.0
 11
30.0068359375
 21
289.894453125
 31
0.0
  0
LINE
  5
82
330
1F
100
AcDbEntity
  8
VERERBUNG
  6
Continuous
 62
     7
100
AcDbLine
 10
30.0068359375
 20
302.434453125
 30
0.0
 11
29.0068359375
 21
303.434453125
 31
0.0
  0
LWPOLYLINE
  5
83
330
1F
100
AcDbEntity
  8
BEZUGSACHSEN
  6
DOT_CENTER
 62
     7
100
AcDbPolyline
 90
        2
 70
     0
 43
0.25
 10
68.0068359375
 20
319.6650962052
 10
68.0068359375
 20
330.664453125
  0
LINE
  5
84
330
1F
100
AcDbEntity
  8
VERERBUNG
  6
Continuous
 62
     7
100
AcDbLine
 10
80.8818359375
 20
325.0620483892
 30
0.0
 11
82.3843350123
 21
327.664453125
 31
0.0
  0
LINE
  5
85
330
1F
100
AcDbEntity
  8
FASEN
  6
Continuous
 62
     9
100
AcDbLine
 10
73.1438463405
 20
275.914453125
 30
0.0
 11
73.1438463405
 21
276.314453125
 31
0.0
  0
LINE
  5
86
330
1F
100
AcDbEntity
  8
0
  6
Continuous
 62
     7
100
AcDbLine
 10
75.6293368627
 20
327.664453125
 30
0.0
 11
75.6293368627
 21
304.181953125
 31
0.0
  0
LINE
  5
87
330
1F
100
AcDbEntity
  8
0
  6
Continuous
 62
     7
100
AcDbLine
 10
75.6293368627
 20
288.146953125
 30
0.0
 11
75.6293368627
 21
276.314453125
 31
0.0
  0
LINE
  5
88
330
1F
100
AcDbEntity
  8
0
  6
Continuous
 62
     7
100
AcDbLine
 10
75.6293368627
 20
271.7057634626
 30
0.0
 11
75.6293368627
 21
264.664453125
 31
0.0
  0
LINE
  5
89
330
1F
100
AcDbEntity
  8
0
  6
Continuous
 62
     7
100
AcDbLine
 10
77.1318359375
 20
325.0620258527
 30
0.0
 11
77.1318359375
 21
304.181953125
 31
0.0
  0
LINE
  5
8A
330
1F
100
AcDbEntity
  8
0
  6
Continuous
 62
     7
100
AcDbLine
 10
77.1318359375
 20
288.146953125
 30
0.0
 11
77.1318359375
 21
276.314453125
 31
0.0
  0
LINE
  5
8B
330
1F
100
AcDbEntity
  8
0
  6
Continuous
 62
     7
100
AcDbLine
 10
77.1318359375
 20
267.2668641735
 30
0.0
 11
77.1318359375
 21
275.7138418872
 31
0.0
  0
LINE
  5
8C
330
1F
100
AcDbEntity
  8
0
  6
Continuous
 62
     9
100
AcDbLine
 10
78.1318359375
 20
268.664453125
 30
0.0
 11
78.1318359375
 21
288.464453125
 31
0.0
  0
LINE
  5
8D
330
1F
100
AcDbEntity
  8
0
  6
Continuous
 62
     9
100
AcDbLine
 10
78.1318359375
 20
303.864453125
 30
0.0
 11
78.1318359375
 21
323.664453125
 31
0.0
  0
LINE
  5
8E
330
1F
100
AcDbEntity
  8
VERERBUNG
  6
Continuous
 62
     7
100
AcDbLine
 10
80.8818359375
 20
267.2668578608
 30
0.0
 11
82.3843350123
 21
264.664453125
 31
0.0
  0
LINE
  5
8F
330
1F
100
AcDbEntity
  8
0
  6
Continuous
 62
     9
100
AcDbLine
 10
79.8818359375
 20
268.664453125
 30
0.0
 11
79.8818359375
 21
288.464453125
 31
0.0
  0
LINE
  5
90
330
1F
100
AcDbEntity
  8
0
  6
Continuous
 62
     9
100
AcDbLine
 10
79.8818359375
 20
303.864453125
 30
0.0
 11
79.8818359375
 21
323.664453125
 31
0.0
  0
LINE
  5
91
330
1F
100
AcDbEntity
  8
0
  6
Continuous
 62
     7
100
AcDbLine
 10
80.8818359375
 20
267.2668641735
 30
0.0
 11
80.8818359375
 21
275.7138418872
 31
0.0
  0
LINE
  5
92
330
1F
100
AcDbEntity
  8
0
  6
Continuous
 62
     7
100
AcDbLine
 10
80.8818359375
 20
276.314453125
 30
0.0
 11
80.8818359375
 21
288.146953125
 31
0.0
  0
LINE
  5
93
330
1F
100
AcDbEntity
  8
0
  6
Continuous
 62
     7
100
AcDbLine
 10
80.8818359375
 20
304.181953125
 30
0.0
 11
80.8818359375
 21
325.0620258527
 31
0.0
  0
LINE
  5
94
330
1F
100
AcDbEntity
  8
0
  6
Continuous
 62
     7
100
AcDbLine
 10
82.3843350123
 20
327.664453125
 30
0.0
 11
82.3843350123
 21
304.181953125
 31
0.0
  0
LINE
  5
95
330
1F
100
AcDbEntity
  8
0
  6
Continuous
 62
     7
100
AcDbLine
 10
82.3843350123
 20
288.146953125
 30
0.0
 11
82.3843350123
 21
276.314453125
 31
0.0
  0
LINE
  5
96
330
1F
100
AcDbEntity
  8
0
  6
Continuous
 62
     7
100
AcDbLine
 10
82.3843350123
 20
271.7057634626
 30
0.0
 11
82.3843350123
 21
264.664453125
 31
0.0
  0
LINE
  5
97
330
1F
100
AcDbEntity
  8
VERERBUNG
  6
Continuous
 62
     9
100
AcDbLine
 10
29.0068359375
 20
287.9878653384
 30
0.0
 11
30.0068359375
 21
288.5345714451
 31
0.0
  0
LINE
  5
98
330
1F
100
AcDbEntity
  8
0
  6
Continuous
 62
     7
100
AcDbLine
 10
87.0068359375
 20
327.6644042195
 30
0.0
 11
87.0068359375
 21
304.181953125
 31
0.0
  0
LINE
  5
99
330
1F
100
AcDbEntity
  8
0
  6
Continuous
 62
     7
100
AcDbLine
 10
87.0068359375
 20
288.146953125
 30
0.0
 11
87.0068359375
 21
276.314453125
 31
0.0
  0
LINE
  5
9A
330
1F
100
AcDbEntity
  8
0
  6
Continuous
 62
     7
100
AcDbLine
 10
87.0068359375
 20
271.7057634626
 30
0.0
 11
87.0068359375
 21
264.6644921868
 31
0.0
  0
LINE
  5
9B
330
1F
100
AcDbEntity
  8
FASEN
  6
Continuous
 62
     7
100
AcDbLine
 10
87.0068359375
 20
271.7057634626
 30
0.0
 11
87.0068359375
 21
276.314453125
 31
0.0
  0
LINE
  5
9C
330
1F
100
AcDbEntity
  8
RUNDUNGEN
  6
Continuous
 62
     7
100
AcDbLine
 10
87.0068359375
 20
288.146953125
 30
0.0
 11
87.0068359375
 21
293.8644493709
 31
0.0
  0
LINE
  5
9D
330
1F
100
AcDbEntity
  8
RUNDUNGEN
  6
Continuous
 62
     7
100
AcDbLine
 10
87.0068359375
 20
298.4644571898
 30
0.0
 11
87.0068359375
 21
304.181953125
 31
0.0
  0
LINE
  5
9E
330
1F
100
AcDbEntity
  8
RUNDUNGEN
  6
Continuous
 62
     9
100
AcDbLine
 10
89.5068359375
 20
320.164453125
 30
0.0
 11
89.5068359375
 21
272.164453125
 31
0.0
  0
LINE
  5
9F
330
1F
100
AcDbEntity
  8
VERERBUNG
  6
Continuous
 62
     9
100
AcDbLine
 10
30.0068359375
 20
303.7943348049
 30
0.0
 11
29.0068359375
 21
304.3410409116
 31
0.0
  0
LINE
  5
A0
330
1F
100
AcDbEntity
  8
VERERBUNG
  6
Continuous
 62
     7
100
AcDbLine
 10
75.6293368627
 20
264.664453125
 30
0.0
 11
77.1318359375
 21
267.2668578608
 31
0.0
  0
LINE
  5
A1
330
1F
100
AcDbEntity
  8
VERERBUNG
  6
Continuous
 62
     7
100
AcDbLine
 10
75.6293368627
 20
264.664453125
 30
0.0
 11
61.0068359375
 21
264.664453125
 31
0.0
  0
LINE
  5
A2
330
1F
100
AcDbEntity
  8
VERERBUNG
  6
Continuous
 62
     7
100
AcDbLine
 10
82.3843350123
 20
264.664453125
 30
0.0
 11
87.0068359375
 21
264.664453125
 31
0.0
  0
LINE
  5
A3
330
1F
100
AcDbEntity
  8
VERERBUNG
  6
Continuous
 62
     7
100
AcDbLine
 10
78.1318359375
 20
268.664453125
 30
0.0
 11
79.8818359375
 21
268.664453125
 31
0.0
  0
LINE
  5
A4
330
1F
100
AcDbEntity
  8
0
  6
Continuous
 62
     7
100
AcDbLine
 10
199.7568359375
 20
271.164453125
 30
0.0
 11
216.388033784
 21
271.164453125
 31
0.0
  0
LINE
  5
A5
330
1F
100
AcDbEntity
  8
FASEN
  6
Continuous
 62
     7
100
AcDbLine
 10
66.3424483817
 20
271.7057634626
 30
0.0
 11
75.6293368627
 21
271.7057634626
 31
0.0
  0
LINE
  5
A6
330
1F
100
AcDbEntity
  8
0
  6
Continuous
 62
     7
100
AcDbLine
 10
82.3843350123
 20
271.7057634626
 30
0.0
 11
87.0068359375
 21
271.7057634626
 31
0.0
  0
LINE
  5
A7
330
1F
100
AcDbEntity
  8
VERERBUNG
  6
Continuous
 62
     7
100
AcDbLine
 10
60.704666307
 20
272.1440289753
 30
0.0
 11
59.8322375976
 21
272.1440289753
 31
0.0
  0
LINE
  5
A8
330
1F
100
AcDbEntity
  8
0
  6
Continuous
 62
     7
100
AcDbLine
 10
89.5068359375
 20
272.164453125
 30
0.0
 11
184.2641952504
 21
272.164453125
 31
0.0
  0
LINE
  5
A9
330
1F
100
AcDbEntity
  8
0
  6
Continuous
 62
     7
100
AcDbLine
 10
208.5068359375
 20
273.0743333601
 30
0.0
 11
216.388033784
 21
273.0743333601
 31
0.0
  0
LINE
  5
AA
330
1F
100
AcDbEntity
  8
VERERBUNG
  6
Continuous
 62
     7
100
AcDbLine
 10
59.0068359375
 20
271.9440289753
 30
0.0
 11
30.1467928732
 21
273.3898778675
 31
0.0
  0
LINE
  5
AB
330
1F
100
AcDbEntity
  8
VERERBUNG
  6
Continuous
 62
     7
100
AcDbLine
 10
75.6293368627
 20
327.664453125
 30
0.0
 11
77.1318359375
 21
325.0620483892
 31
0.0
  0
LINE
  5
AC
330
1F
100
AcDbEntity
  8
0
  6
Continuous
 62
     7
100
AcDbLine
 10
218.6386988739
 20
275.638689161
 30
0.0
 11
208.5068359375
 21
275.638689161
 31
0.0
  0
LINE
  5
AD
330
1F
100
AcDbEntity
  8
FASEN
  6
Continuous
 62
     7
100
AcDbLine
 10
73.1438463405
 20
275.914453125
 30
0.0
 11
77.1422012028
 21
275.914453125
 31
0.0
  0
LINE
  5
AE
330
1F
100
AcDbEntity
  8
FASEN
  6
Continuous
 62
     7
100
AcDbLine
 10
80.8714706722
 20
275.914453125
 30
0.0
 11
87.0068359375
 21
275.914453125
 31
0.0
  0
LINE
  5
AF
330
1F
100
AcDbEntity
  8
RUNDUNGEN
  6
Continuous
 62
     7
100
AcDbLine
 10
198.5068359375
 20
276.164453125
 30
0.0
 11
189.9210494999
 21
276.164453125
 31
0.0
  0
LINE
  5
B0
330
1F
100
AcDbEntity
  8
0
  6
Continuous
 62
     7
100
AcDbLine
 10
189.9210494999
 20
276.164453125
 30
0.0
 11
198.5068359375
 21
276.164453125
 31
0.0
  0
LWPOLYLINE
  5
B1
330
1F
100
AcDbEntity
  8
DEFAULT_2
  6
DASHED
 62
     8
100
AcDbPolyline
 90
        2
 70
     0
 43
0.35
 10
198.5068359375
 20
276.164453125
 10
208.0068359375
 20
276.164453125
  0
LINE
  5
B2
330
1F
100
AcDbEntity
  8
0
  6
Continuous
 62
     7
100
AcDbLine
 10
73.1438463405
 20
276.314453125
 30
0.0
 11
77.1318359375
 21
276.314453125
 31
0.0
  0
LINE
  5
B3
330
1F
100
AcDbEntity
  8
FASEN
  6
Continuous
 62
     7
100
AcDbLine
 10
77.1318359375
 20
276.314453125
 30
0.0
 11
77.1422012028
 21
276.314453125
 31
0.0
  0
LINE
  5
B4
330
1F
100
AcDbEntity
  8
FASEN
  6
Continuous
 62
     7
100
AcDbLine
 10
80.8714706722
 20
276.314453125
 30
0.0
 11
80.8818359375
 21
276.314453125
 31
0.0
  0
LINE
  5
B5
330
1F
100
AcDbEntity
  8
0
  6
Continuous
 62
     7
100
AcDbLine
 10
80.8818359375
 20
276.314453125
 30
0.0
 11
87.0068359375
 21
276.314453125
 31
0.0
  0
LINE
  5
B6
330
1F
100
AcDbEntity
  8
0
  6
Continuous
 62
     7
100
AcDbLine
 10
208.5068359375
 20
276.3197078912
 30
0.0
 11
216.388033784
 21
276.3197078912
 31
0.0
  0
LWPOLYLINE
  5
B7
330
1F
100
AcDbEntity
  8
DEFAULT_2
  6
DASHED
 62
     8
100
AcDbPolyline
 90
        2
 70
     0
 43
0.35
 10
177.7665146174
 20
284.414453125
 10
174.0068359375
 20
284.414453125
  0
LINE
  5
B8
330
1F
100
AcDbEntity
  8
VERERBUNG
  6
Continuous
 62
     9
100
AcDbLine
 10
34.4942429752
 20
286.894453125
 30
0.0
 11
29.6785107479
 21
286.894453125
 31
0.0
  0
LINE
  5
B9
330
1F
100
AcDbEntity
  8
VERERBUNG
  6
Continuous
 62
     7
100
AcDbLine
 10
59.6769461705
 20
272.1235844711
 30
0.0
 11
59.0068359375
 21
271.9440289753
 31
0.0
  0
LINE
  5
BA
330
1F
100
AcDbEntity
  8
0
  6
Continuous
 62
     7
100
AcDbLine
 10
87.0068359375
 20
288.146953125
 30
0.0
 11
80.297722828
 21
288.146953125
 31
0.0
  0
LINE
  5
BB
330
1F
100
AcDbEntity
  8
0
  6
Continuous
 62
     7
100
AcDbLine
 10
73.9743359375
 20
288.146953125
 30
0.0
 11
77.715949047
 21
288.146953125
 31
0.0
  0
LINE
  5
BC
330
1F
100
AcDbEntity
  8
0
  6
Continuous
 62
     7
100
AcDbLine
 10
78.1318359375
 20
288.464453125
 30
0.0
 11
79.8818359375
 21
288.464453125
 31
0.0
  0
LINE
  5
BD
330
1F
100
AcDbEntity
  8
VERERBUNG
  6
Continuous
 62
     7
100
AcDbLine
 10
33.5068359375
 20
289.894453125
 30
0.0
 11
30.0068359375
 21
289.894453125
 31
0.0
  0
LINE
  5
BE
330
1F
100
AcDbEntity
  8
0
  6
Continuous
 62
     7
100
AcDbLine
 10
208.5068359375
 20
292.9190785938
 30
0.0
 11
216.388033784
 21
292.9190785938
 31
0.0
  0
LINE
  5
BF
330
1F
100
AcDbEntity
  8
0
  6
Continuous
 62
     7
100
AcDbLine
 10
218.6386988739
 20
293.564453125
 30
0.0
 11
208.5068359375
 21
293.564453125
 31
0.0
  0
LWPOLYLINE
  5
C0
330
1F
100
AcDbEntity
  8
DEFAULT_2
  6
DASHED
 62
     8
100
AcDbPolyline
 90
        2
 70
     0
 43
0.35
 10
208.0068359375
 20
280.164453125
 10
177.7665146174
 20
284.414453125
  0
LWPOLYLINE
  5
C1
330
1F
100
AcDbEntity
  8
DEFAULT_2
  6
DASHED
 62
     8
100
AcDbPolyline
 90
        2
 70
     0
 43
0.35
 10
208.0068359375
 20
312.164453125
 10
177.7665146174
 20
307.914453125
  0
LWPOLYLINE
  5
C2
330
1F
100
AcDbEntity
  8
BG_STARTBEZUEGE
  6
DOT_CENTER
 62
     7
100
AcDbPolyline
 90
        2
 70
     0
 43
0.25
 10
224.0068359375
 20
296.164453125
 10
26.0068359375
 20
296.164453125
  0
LINE
  5
C3
330
1F
100
AcDbEntity
  8
0
  6
Continuous
 62
     7
100
AcDbLine
 10
218.6386988739
 20
298.764453125
 30
0.0
 11
208.5068359375
 21
298.764453125
 31
0.0
  0
LINE
  5
C4
330
1F
100
AcDbEntity
  8
0
  6
Continuous
 62
     7
100
AcDbLine
 10
208.5068359375
 20
299.4098276562
 30
0.0
 11
216.388033784
 21
299.4098276562
 31
0.0
  0
LINE
  5
C5
330
1F
100
AcDbEntity
  8
VERERBUNG
  6
Continuous
 62
     7
100
AcDbLine
 10
33.5068359375
 20
302.434453125
 30
0.0
 11
30.0068359375
 21
302.434453125
 31
0.0
  0
LINE
  5
C6
330
1F
100
AcDbEntity
  8
0
  6
Continuous
 62
     7
100
AcDbLine
 10
78.1318359375
 20
303.864453125
 30
0.0
 11
79.8818359375
 21
303.864453125
 31
0.0
  0
LINE
  5
C7
330
1F
100
AcDbEntity
  8
0
  6
Continuous
 62
     7
100
AcDbLine
 10
73.9743359375
 20
304.181953125
 30
0.0
 11
77.715949047
 21
304.181953125
 31
0.0
  0
LINE
  5
C8
330
1F
100
AcDbEntity
  8
0
  6
Continuous
 62
     7
100
AcDbLine
 10
80.297722828
 20
304.181953125
 30
0.0
 11
87.0068359375
 21
304.181953125
 31
0.0
  0
LINE
  5
C9
330
1F
100
AcDbEntity
  8
VERERBUNG
  6
Continuous
 62
     9
100
AcDbLine
 10
29.6785107479
 20
305.434453125
 30
0.0
 11
34.4942429752
 21
305.434453125
 31
0.0
  0
LWPOLYLINE
  5
CA
330
1F
100
AcDbEntity
  8
DEFAULT_2
  6
DASHED
 62
     8
100
AcDbPolyline
 90
        2
 70
     0
 43
0.35
 10
177.7665146174
 20
307.914453125
 10
174.0068359375
 20
307.914453125
  0
LINE
  5
CB
330
1F
100
AcDbEntity
  8
VERERBUNG
  6
Continuous
 62
     7
100
AcDbLine
 10
59.6769461705
 20
320.2053217789
 30
0.0
 11
59.0068359375
 21
320.3848772747
 31
0.0
  0
LINE
  5
CC
330
1F
100
AcDbEntity
  8
0
  6
Continuous
 62
     7
100
AcDbLine
 10
208.5068359375
 20
316.0091983588
 30
0.0
 11
216.388033784
 21
316.0091983588
 31
0.0
  0
LINE
  5
CD
330
1F
100
AcDbEntity
  8
RUNDUNGEN
  6
Continuous
 62
     7
100
AcDbLine
 10
198.5068359375
 20
316.164453125
 30
0.0
 11
189.9210494999
 21
316.164453125
 31
0.0
  0
LINE
  5
CE
330
1F
100
AcDbEntity
  8
0
  6
Continuous
 62
     7
100
AcDbLine
 10
189.9210494999
 20
316.164453125
 30
0.0
 11
198.5068359375
 21
316.164453125
 31
0.0
  0
LWPOLYLINE
  5
CF
330
1F
100
AcDbEntity
  8
DEFAULT_2
  6
DASHED
 62
     8
100
AcDbPolyline
 90
        2
 70
     0
 43
0.35
 10
198.5068359375
 20
316.164453125
 10
208.0068359375
 20
316.164453125
  0
LINE
  5
D0
330
1F
100
AcDbEntity
  8
0
  6
Continuous
 62
     7
100
AcDbLine
 10
218.6386988739
 20
316.690217089
 30
0.0
 11
208.5068359375
 21
316.690217089
 31
0.0
  0
LINE
  5
D1
330
1F
100
AcDbEntity
  8
0
  6
Continuous
 62
     7
100
AcDbLine
 10
208.5068359375
 20
319.2545728899
 30
0.0
 11
216.388033784
 21
319.2545728899
 31
0.0
  0
LINE
  5
D2
330
1F
100
AcDbEntity
  8
RUNDUNGEN
  6
Continuous
 62
     7
100
AcDbLine
 10
184.2641952504
 20
320.164453125
 30
0.0
 11
89.5068359375
 21
320.164453125
 31
0.0
  0
LINE
  5
D3
330
1F
100
AcDbEntity
  8
0
  6
Continuous
 62
     7
100
AcDbLine
 10
89.5068359375
 20
320.164453125
 30
0.0
 11
184.2641952504
 21
320.164453125
 31
0.0
  0
LINE
  5
D4
330
1F
100
AcDbEntity
  8
VERERBUNG
  6
Continuous
 62
     7
100
AcDbLine
 10
60.704666307
 20
320.1848772747
 30
0.0
 11
59.8322375976
 21
320.1848772747
 31
0.0
  0
LINE
  5
D5
330
1F
100
AcDbEntity
  8
RUNDUNGEN
  6
Continuous
 62
     7
100
AcDbLine
 10
216.388033784
 20
321.164453125
 30
0.0
 11
199.7568359375
 21
321.164453125
 31
0.0
  0
LINE
  5
D6
330
1F
100
AcDbEntity
  8
0
  6
Continuous
 62
     7
100
AcDbLine
 10
199.7568359375
 20
321.164453125
 30
0.0
 11
216.388033784
 21
321.164453125
 31
0.0
  0
LINE
  5
D7
330
1F
100
AcDbEntity
  8
VERERBUNG
  6
Continuous
 62
     7
100
AcDbLine
 10
59.0068359375
 20
320.3848772747
 30
0.0
 11
30.1467928732
 21
318.9390283825
 31
0.0
  0
LINE
  5
D8
330
1F
100
AcDbEntity
  8
VERERBUNG
  6
Continuous
 62
     7
100
AcDbLine
 10
78.1318359375
 20
323.664453125
 30
0.0
 11
79.8818359375
 21
323.664453125
 31
0.0
  0
LINE
  5
D9
330
1F
100
AcDbEntity
  8
VERERBUNG
  6
Continuous
 62
     7
100
AcDbLine
 10
75.6293368627
 20
327.664453125
 30
0.0
 11
73.0068359375
 21
327.664453125
 31
0.0
  0
LINE
  5
DA
330
1F
100
AcDbEntity
  8
VERERBUNG
  6
Continuous
 62
     7
100
AcDbLine
 10
63.0068359375
 20
327.664453125
 30
0.0
 11
61.0068359375
 21
327.664453125
 31
0.0
  0
LINE
  5
DB
330
1F
100
AcDbEntity
  8
VERERBUNG
  6
Continuous
 62
     7
100
AcDbLine
 10
82.3843350123
 20
327.664453125
 30
0.0
 11
87.0068359375
 21
327.664453125
 31
0.0
  0
LWPOLYLINE
  5
DC
330
1F
100
AcDbEntity
  8
DEFAULT_2
  6
DASHED
 62
     8
100
AcDbPolyline
 90
        2
 70
     0
 43
0.35
 10
174.0068359375
 20
307.914453125
 10
174.0068359375
 20
284.414453125
  0
LWPOLYLINE
  5
DD
330
1F
100
AcDbEntity
  8
DEFAULT_2
  6
DASHED
 62
     8
100
AcDbPolyline
 90
        2
 70
     0
 43
0.35
 10
177.7665146174
 20
307.914453125
 10
177.7665146174
 20
284.414453125
  0
LINE
  5
DE
330
1F
100
AcDbEntity
  8
RUNDUNGEN
  6
Continuous
 62
     9
100
AcDbLine
 10
184.2641952504
 20
272.164453125
 30
0.0
 11
184.2641952504
 21
320.164453125
 31
0.0
  0
LINE
  5
DF
330
1F
100
AcDbEntity
  8
RUNDUNGEN
  6
Continuous
 62
     9
100
AcDbLine
 10
186.3855155939
 20
273.0431327814
 30
0.0
 11
186.3855155939
 21
319.2857734686
 31
0.0
  0
LINE
  5
E0
330
1F
100
AcDbEntity
  8
0
  6
Continuous
 62
     7
100
AcDbLine
 10
186.3855155939
 20
273.0431327814
 30
0.0
 11
189.2139427187
 21
275.8715599062
 31
0.0
  0
LINE
  5
E1
330
1F
100
AcDbEntity
  8
0
  6
Continuous
 62
     7
100
AcDbLine
 10
186.3855155939
 20
319.2857734686
 30
0.0
 11
189.2139427187
 21
316.4573463438
 31
0.0
  0
LINE
  5
E2
330
1F
100
AcDbEntity
  8
RUNDUNGEN
  6
Continuous
 62
     7
100
AcDbLine
 10
189.2139427187
 20
316.4573463438
 30
0.0
 11
186.3855155939
 21
319.2857734686
 31
0.0
  0
LINE
  5
E3
330
1F
100
AcDbEntity
  8
RUNDUNGEN
  6
Continuous
 62
     9
100
AcDbLine
 10
189.2139427187
 20
316.4573463438
 30
0.0
 11
189.2139427187
 21
275.8715599062
 31
0.0
  0
LINE
  5
E4
330
1F
100
AcDbEntity
  8
RUNDUNGEN
  6
Continuous
 62
     9
100
AcDbLine
 10
189.9210494999
 20
316.164453125
 30
0.0
 11
189.9210494999
 21
276.164453125
 31
0.0
  0
LINE
  5
E5
330
1F
100
AcDbEntity
  8
RUNDUNGEN
  6
Continuous
 62
     7
100
AcDbLine
 10
198.5068359375
 20
319.914453125
 30
0.0
 11
198.5068359375
 21
272.414453125
 31
0.0
  0
LINE
  5
E6
330
1F
100
AcDbEntity
  8
RUNDUNGEN
  6
Continuous
 62
     9
100
AcDbLine
 10
199.7568359375
 20
271.164453125
 30
0.0
 11
199.7568359375
 21
321.164453125
 31
0.0
  0
LWPOLYLINE
  5
E7
330
1F
100
AcDbEntity
  8
DEFAULT_2
  6
DASHED
 62
     8
100
AcDbPolyline
 90
        2
 70
     0
 43
0.35
 10
208.0068359375
 20
316.164453125
 10
208.0068359375
 20
276.164453125
  0
LINE
  5
E8
330
1F
100
AcDbEntity
  8
0
  6
Continuous
 62
     7
100
AcDbLine
 10
208.5068359375
 20
319.2545728899
 30
0.0
 11
208.5068359375
 21
316.0091983588
 31
0.0
  0
LINE
  5
E9
330
1F
100
AcDbEntity
  8
0
  6
Continuous
 62
     7
100
AcDbLine
 10
208.5068359375
 20
299.4098276562
 30
0.0
 11
208.5068359375
 21
292.9190785938
 31
0.0
  0
LINE
  5
EA
330
1F
100
AcDbEntity
  8
0
  6
Continuous
 62
     7
100
AcDbLine
 10
208.5068359375
 20
276.3197078912
 30
0.0
 11
208.5068359375
 21
273.0743333601
 31
0.0
  0
LINE
  5
EB
330
1F
100
AcDbEntity
  8
0
  6
Continuous
 62
     9
100
AcDbLine
 10
216.388033784
 20
271.164453125
 30
0.0
 11
216.388033784
 21
273.0743333601
 31
0.0
  0
LINE
  5
EC
330
1F
100
AcDbEntity
  8
0
  6
Continuous
 62
     9
100
AcDbLine
 10
216.388033784
 20
276.3197078912
 30
0.0
 11
216.388033784
 21
292.9190785938
 31
0.0
  0
LINE
  5
ED
330
1F
100
AcDbEntity
  8
0
  6
Continuous
 62
     9
100
AcDbLine
 10
216.388033784
 20
299.4098276562
 30
0.0
 11
216.388033784
 21
316.0091983588
 31
0.0
  0
LINE
  5
EE
330
1F
100
AcDbEntity
  8
0
  6
Continuous
 62
     9
100
AcDbLine
 10
216.388033784
 20
319.2545728899
 30
0.0
 11
216.388033784
 21
321.164453125
 31
0.0
  0
LINE
  5
EF
330
1F
100
AcDbEntity
  8
0
  6
Continuous
 62
     9
100
AcDbLine
 10
217.4705655387
 20
271.789453125
 30
0.0
 11
217.4705655387
 21
273.6791604049
 31
0.0
  0
LINE
  5
F0
330
1F
100
AcDbEntity
  8
0
  6
Continuous
 62
     9
100
AcDbLine
 10
217.4705655387
 20
276.772317381
 30
0.0
 11
217.4705655387
 21
293.071296149
 31
0.0
  0
LINE
  5
F1
330
1F
100
AcDbEntity
  8
0
  6
Continuous
 62
     9
100
AcDbLine
 10
217.4705655387
 20
299.257610101
 30
0.0
 11
217.4705655387
 21
315.556588869
 31
0.0
  0
LINE
  5
F2
330
1F
100
AcDbEntity
  8
0
  6
Continuous
 62
     9
100
AcDbLine
 10
217.4705655387
 20
318.6497458451
 30
0.0
 11
217.4705655387
 21
320.539453125
 31
0.0
  0
LINE
  5
F3
330
1F
100
AcDbEntity
  8
0
  6
Continuous
 62
     7
100
AcDbLine
 10
221.0068359375
 20
314.414453125
 30
0.0
 11
221.0068359375
 21
277.914453125
 31
0.0
  0
LINE
  5
F4
330
1F
100
AcDbEntity
  8
RUNDUNGEN
  6
Continuous
 62
     7
100
AcDbLine
 10
221.0068359375
 20
277.914453125
 30
0.0
 11
217.4705655387
 21
271.789453125
 31
0.0
  0
LINE
  5
F5
330
1F
100
AcDbEntity
  8
0
  6
Continuous
 62
     7
100
AcDbLine
 10
217.4705655387
 20
271.789453125
 30
0.0
 11
221.0068359375
 21
277.914453125
 31
0.0
  0
LINE
  5
F6
330
1F
100
AcDbEntity
  8
0
  6
Continuous
 62
     7
100
AcDbLine
 10
217.4705655387
 20
320.539453125
 30
0.0
 11
221.0068359375
 21
314.414453125
 31
0.0
  0
LINE
  5
F7
330
1F
100
AcDbEntity
  8
RUNDUNGEN
  6
Continuous
 62
     7
100
AcDbLine
 10
221.0068359375
 20
314.414453125
 30
0.0
 11
217.4705655387
 21
320.539453125
 31
0.0
  0
LINE
  5
F8
330
1F
100
AcDbEntity
  8
0
  6
Continuous
 62
     7
100
AcDbLine
 10
218.6386988739
 20
293.564453125
 30
0.0
 11
217.4705655387
 21
293.071296149
 31
0.0
  0
LINE
  5
F9
330
1F
100
AcDbEntity
  8
0
  6
Continuous
 62
     7
100
AcDbLine
 10
217.4705655387
 20
299.257610101
 30
0.0
 11
218.6386988739
 21
298.764453125
 31
0.0
  0
ARC
  5
FA
330
1F
100
AcDbEntity
  8
FASEN
  6
Continuous
 62
     7
100
AcDbCircle
 10
-20.563404543
 20
276.114453125
 30
0.0
 40
97.70581044213137
100
AcDbArc
 50
359.8827176822629
 51
0.11728231773712
  0
ARC
  5
FB
330
1F
100
AcDbEntity
  8
FASEN
  6
Continuous
 62
     7
100
AcDbCircle
 10
76.0508418532
 20
280.2338502818
 30
0.0
 40
12.92211935370016
100
AcDbArc
 50
219.3764519582008
 51
221.296851334055
  0
ARC
  5
FC
330
1F
100
AcDbEntity
  8
FASEN
  6
Continuous
 62
     7
100
AcDbCircle
 10
73.1438463405
 20
268.314453125
 30
0.0
 40
8.0
100
AcDbArc
 50
90.0
 51
152.2781454968998
  0
ARC
  5
FD
330
1F
100
AcDbEntity
  8
FASEN
  6
Continuous
 62
     7
100
AcDbCircle
 10
73.1438463405
 20
268.314453125
 30
0.0
 40
7.599996372100009
100
AcDbArc
 50
90.0
 51
153.4982565746016
  0
ARC
  5
FE
330
1F
100
AcDbEntity
  8
FASEN
  6
Continuous
 62
     7
100
AcDbCircle
 10
78.9342904744
 20
275.7137886915
 30
0.0
 40
1.947545463826499
100
AcDbArc
 50
0.00156498996029
 51
5.91393926133208
  0
ARC
  5
FF
330
1F
100
AcDbEntity
  8
VERERBUNG
  6
Continuous
 62
     7
100
AcDbCircle
 10
33.5068359375
 20
291.394453125
 30
0.0
 40
1.5
100
AcDbArc
 50
270.0
 51
354.6670371752118
  0
ARC
  5
100
330
1F
100
AcDbEntity
  8
VERERBUNG
  6
Continuous
 62
     7
100
AcDbCircle
 10
30.2068359375
 20
274.5883747721
 30
0.0
 40
1.199999999999999
100
AcDbArc
 50
180.0
 51
267.1319572715506
  0
ARC
  5
101
330
1F
100
AcDbEntity
  8
VERERBUNG
  6
Continuous
 62
     7
100
AcDbCircle
 10
78.1318359375
 20
267.664453125
 30
0.0
 40
1.0
100
AcDbArc
 50
90.0
 51
180.0
  0
ARC
  5
102
330
1F
100
AcDbEntity
  8
VERERBUNG
  6
Continuous
 62
     7
100
AcDbCircle
 10
59.8322375976
 20
271.5440289753
 30
0.0
 40
0.5999999999999659
100
AcDbArc
 50
90.0
 51
105.0000000028938
  0
ARC
  5
103
330
1F
100
AcDbEntity
  8
VERERBUNG
  6
Continuous
 62
     7
100
AcDbCircle
 10
60.704666307
 20
271.5440289753
 30
0.0
 40
0.6000000000003367
100
AcDbArc
 50
59.74152092741424
 51
90.0
  0
ARC
  5
104
330
1F
100
AcDbEntity
  8
0
  6
Continuous
 62
     7
100
AcDbCircle
 10
-66.7417055351
 20
335.6294567292
 30
0.0
 40
156.0632957305418
100
AcDbArc
 50
335.8202227521907
 51
337.2043014055999
  0
ARC
  5
105
330
1F
100
AcDbEntity
  8
VERERBUNG
  6
Continuous
 62
     7
100
AcDbCircle
 10
67.9882697594
 20
358.9790009849
 30
0.0
 40
31.71385608959979
100
AcDbArc
 50
270.0335424960999
 51
279.1049739605998
  0
ARC
  5
106
330
1F
100
AcDbEntity
  8
0
  6
Continuous
 62
     7
100
AcDbCircle
 10
73.9743359375
 20
296.164453125
 30
0.0
 40
8.017499999999984
100
AcDbArc
 50
90.0
 51
270.0
  0
ARC
  5
107
330
1F
100
AcDbEntity
  8
VERERBUNG
  6
Continuous
 62
     7
100
AcDbCircle
 10
33.5068359375
 20
300.934453125
 30
0.0
 40
1.500000000000026
100
AcDbArc
 50
5.3329627698127
 51
90.0
  0
ARC
  5
108
330
1F
100
AcDbEntity
  8
VERERBUNG
  6
Continuous
 62
     7
100
AcDbCircle
 10
30.2068359375
 20
317.7405314779
 30
0.0
 40
1.199999999960971
100
AcDbArc
 50
92.86804272844938
 51
180.0
  0
ARC
  5
109
330
1F
100
AcDbEntity
  8
VERERBUNG
  6
Continuous
 62
     7
100
AcDbCircle
 10
78.1318359375
 20
324.664453125
 30
0.0
 40
1.0
100
AcDbArc
 50
180.0
 51
270.0
  0
ARC
  5
10A
330
1F
100
AcDbEntity
  8
VERERBUNG
  6
Continuous
 62
     7
100
AcDbCircle
 10
59.8322375976
 20
320.7848772747
 30
0.0
 40
0.6000000000356498
100
AcDbArc
 50
254.9999999971076
 51
270.0
  0
ARC
  5
10B
330
1F
100
AcDbEntity
  8
VERERBUNG
  6
Continuous
 62
     7
100
AcDbCircle
 10
60.704666307
 20
320.7848772747
 30
0.0
 40
0.6000000000000227
100
AcDbArc
 50
270.0
 51
300.258479072583
  0
ARC
  5
10C
330
1F
100
AcDbEntity
  8
VERERBUNG
  6
Continuous
 62
     7
100
AcDbCircle
 10
134.890433344
 20
-572.3706087913
 30
0.0
 40
884.3221864331545
100
AcDbArc
 50
96.58318095120157
 51
96.8023740697
  0
ARC
  5
10D
330
1F
100
AcDbEntity
  8
FASEN
  6
Continuous
 62
     7
100
AcDbCircle
 10
178.577076418
 20
276.114453125
 30
0.0
 40
97.70581044213135
100
AcDbArc
 50
179.8827176822629
 51
180.1172823177371
  0
ARC
  5
10E
330
1F
100
AcDbEntity
  8
0
  6
Continuous
 62
     7
100
AcDbCircle
 10
209.0362183045
 20
276.938689161
 30
0.0
 40
9.690079106266603
100
AcDbArc
 50
352.2900758040112
 51
7.70992419599982
  0
ARC
  5
10F
330
1F
100
AcDbEntity
  8
RUNDUNGEN
  6
Continuous
 62
     7
100
AcDbCircle
 10
184.2641952504
 20
275.164453125
 30
0.0
 40
3.0
100
AcDbArc
 50
270.0
 51
314.9999999986493
  0
ARC
  5
110
330
1F
100
AcDbEntity
  8
RUNDUNGEN
  6
Continuous
 62
     7
100
AcDbCircle
 10
89.5068359375
 20
269.664453125
 30
0.0
 40
2.5
100
AcDbArc
 50
90.0
 51
175.4999997451108
  0
ARC
  5
111
330
1F
100
AcDbEntity
  8
FASEN
  6
Continuous
 62
     7
100
AcDbCircle
 10
79.0793814006
 20
275.7137886915
 30
0.0
 40
1.947545463813452
100
AcDbArc
 50
174.0860607386679
 51
179.9984350100397
  0
ARC
  5
112
330
1F
100
AcDbEntity
  8
RUNDUNGEN
  6
Continuous
 62
     7
100
AcDbCircle
 10
199.7568359375
 20
272.414453125
 30
0.0
 40
1.25
100
AcDbArc
 50
180.0
 51
270.0
  0
ARC
  5
113
330
1F
100
AcDbEntity
  8
RUNDUNGEN
  6
Continuous
 62
     7
100
AcDbCircle
 10
216.388033784
 20
272.414453125
 30
0.0
 40
1.25
100
AcDbArc
 50
270.0
 51
329.9999999992999
  0
ARC
  5
114
330
1F
100
AcDbEntity
  8
RUNDUNGEN
  6
Continuous
 62
     7
100
AcDbCircle
 10
189.9210494999
 20
275.164453125
 30
0.0
 40
1.0
100
AcDbArc
 50
90.0
 51
135.0000000000011
  0
ARC
  5
115
330
1F
100
AcDbEntity
  8
VERERBUNG
  6
Continuous
 62
     7
100
AcDbCircle
 10
79.8818359375
 20
267.664453125
 30
0.0
 40
1.0
100
AcDbArc
 50
0.0
 51
90.0
  0
ARC
  5
116
330
1F
100
AcDbEntity
  8
VERERBUNG
  6
Continuous
 62
     7
100
AcDbCircle
 10
134.890433344
 20
1164.6995150413
 30
0.0
 40
884.3221864331001
100
AcDbArc
 50
263.1976259303
 51
263.4168190487984
  0
ARC
  5
117
330
1F
100
AcDbEntity
  8
0
  6
Continuous
 62
     7
100
AcDbCircle
 10
224.7553774103
 20
335.6294567293
 30
0.0
 40
156.0632957308
100
AcDbArc
 50
202.7956985943999
 51
204.1797772478128
  0
ARC
  5
118
330
1F
100
AcDbEntity
  8
0
  6
Continuous
 62
     7
100
AcDbCircle
 10
180.0973787912
 20
296.164453125
 30
0.0
 40
38.62891861956708
100
AcDbArc
 50
356.1406702632808
 51
3.8593297367191
  0
ARC
  5
119
330
1F
100
AcDbEntity
  8
0
  6
Continuous
 62
     7
100
AcDbCircle
 10
209.0362183045
 20
315.390217089
 30
0.0
 40
9.690079106200232
100
AcDbArc
 50
352.2900758040002
 51
7.70992419598875
  0
ARC
  5
11A
330
1F
100
AcDbEntity
  8
RUNDUNGEN
  6
Continuous
 62
     7
100
AcDbCircle
 10
184.2641952504
 20
317.164453125
 30
0.0
 40
2.999999999986338
100
AcDbArc
 50
45.00000000134992
 51
90.0
  0
ARC
  5
11B
330
1F
100
AcDbEntity
  8
RUNDUNGEN
  6
Continuous
 62
     7
100
AcDbCircle
 10
89.5068359375
 20
322.664453125
 30
0.0
 40
2.5
100
AcDbArc
 50
180.0
 51
270.0
  0
ARC
  5
11C
330
1F
100
AcDbEntity
  8
RUNDUNGEN
  6
Continuous
 62
     7
100
AcDbCircle
 10
199.7568359375
 20
319.914453125
 30
0.0
 40
1.25
100
AcDbArc
 50
90.0
 51
180.0
  0
ARC
  5
11D
330
1F
100
AcDbEntity
  8
RUNDUNGEN
  6
Continuous
 62
     7
100
AcDbCircle
 10
216.388033784
 20
319.914453125
 30
0.0
 40
1.249999999973544
100
AcDbArc
 50
30.00000000070012
 51
90.0
  0
ARC
  5
11E
330
1F
100
AcDbEntity
  8
RUNDUNGEN
  6
Continuous
 62
     7
100
AcDbCircle
 10
189.9210494999
 20
317.164453125
 30
0.0
 40
1.00000000001904
100
AcDbArc
 50
225.0000000000012
 51
270.0
  0
ARC
  5
11F
330
1F
100
AcDbEntity
  8
VERERBUNG
  6
Continuous
 62
     7
100
AcDbCircle
 10
79.8818359375
 20
324.664453125
 30
0.0
 40
1.0
100
AcDbArc
 50
270.0
 51
0.0
  0
CIRCLE
  5
120
330
1F
100
AcDbEntity
  8
VERERBUNG
  6
Continuous
 62
     7
100
AcDbCircle
 10
52.0068359375
 20
296.164453125
 30
0.0
 40
3.75
  0
SPLINE
  5
121
330
1F
100
AcDbEntity
  8
0
  6
Continuous
 62
     7
100
AcDbSpline
210
0.0
220
0.0
230
1.0
 70
     8
 71
     3
 72
     9
 73
     5
 74
     3
 42
0.0000000001
 43
0.0000000001
 44
0.00000001
 40
0.0
 40
0.0
 40
0.0
 40
0.0
 40
0.9373875654080585
 40
1.874775126650634
 40
1.874775126650634
 40
1.874775126650634
 40
1.874775126650634
 10
217.4705655387
 20
276.772317381
 30
0.0
 10
217.6653129913414
 20
277.0166660260452
 30
0.0
 10
218.0548078957589
 20
277.5053633150499
 30
0.0
 10
218.4440685480972
 20
277.9942472127073
 30
0.0
 10
218.638698873834
 20
278.238689160993
 30
0.0
 11
217.4705655387
 21
276.772317381
 31
0.0
 11
218.0547493336043
 21
277.5054099682991
 31
0.0
 11
218.638698873834
 21
278.238689160993
 31
0.0
  0
SPLINE
  5
122
330
1F
100
AcDbEntity
  8
0
  6
Continuous
 62
     7
100
AcDbSpline
210
0.0
220
0.0
230
1.0
 70
     8
 71
     3
 72
     9
 73
     5
 74
     3
 42
0.0000000001
 43
0.0000000001
 44
0.00000001
 40
0.0
 40
0.0
 40
0.0
 40
0.0
 40
0.9373875612425485
 40
1.874775126650634
 40
1.874775126650634
 40
1.874775126650634
 40
1.874775126650634
 10
218.638698873834
 20
314.090217089007
 30
0.0
 10
218.4440685480972
 20
314.3346590372926
 30
0.0
 10
218.0548078957589
 20
314.82354293495
 30
0.0
 10
217.6653129913414
 20
315.3122402239547
 30
0.0
 10
217.4705655387
 20
315.556588869
 30
0.0
 11
218.638698873834
 21
314.090217089007
 31
0.0
 11
218.0547493336042
 21
314.8234962817008
 31
0.0
 11
217.4705655387
 21
315.556588869
 31
0.0
  0
SPLINE
  5
123
330
1F
100
AcDbEntity
  8
0
  6
Continuous
 62
     7
100
AcDbSpline
210
0.0
220
0.0
230
1.0
 70
     8
 71
     3
 72
    13
 73
     9
 74
     7
 42
0.0000000001
 43
0.0000000001
 44
0.00000001
 40
0.0
 40
0.0
 40
0.0
 40
0.0
 40
0.1629655048129262
 40
0.3259550953046945
 40
0.483352555187463
 40
0.641393644845426
 40
0.9269380768758697
 40
1.209788447330795
 40
1.209788447330795
 40
1.209788447330795
 40
1.209788447330795
 10
216.388033784
 20
276.3197078912
 30
0.0
 10
216.4423782919132
 20
276.3211989620451
 30
0.0
 10
216.5510753396501
 20
276.3241813241099
 30
0.0
 10
216.7107650761062
 20
276.3479941402035
 30
0.0
 10
216.866121802092
 20
276.3853644769454
 30
0.0
 10
217.0545476205435
 20
276.453312113098
 30
0.0
 10
217.2728030907688
 20
276.5665214104033
 30
0.0
 10
217.4048533520849
 20
276.7039358284558
 30
0.0
 10
217.4705655387
 20
276.772317381
 30
0.0
 11
216.388033784
 21
276.3197078912
 31
0.0
 11
216.5508152968217
 21
276.327449650846
 31
0.0
 11
216.7121436045687
 21
276.3506613661671
 31
0.0
 11
216.8650336566834
 21
276.3880591246815
 31
0.0
 11
217.0138349464758
 21
276.4413053656418
 31
0.0
 11
217.2638399684796
 21
276.5792659094087
 31
0.0
 11
217.4705655387
 21
276.772317381
 31
0.0
  0
SPLINE
  5
124
330
1F
100
AcDbEntity
  8
0
  6
Continuous
 62
     7
100
AcDbSpline
210
0.0
220
0.0
230
1.0
 70
     8
 71
     3
 72
    13
 73
     9
 74
     7
 42
0.0000000001
 43
0.0000000001
 44
0.00000001
 40
0.0
 40
0.0
 40
0.0
 40
0.0
 40
0.2828508066867767
 40
0.5683956860144066
 40
0.7264366318302716
 40
0.8838339464148495
 40
1.046823236893828
 40
1.209788442580043
 40
1.209788442580043
 40
1.209788442580043
 40
1.209788442580043
 10
217.4705655387
 20
315.556588869
 30
0.0
 10
217.4048532399244
 20
315.6249705185159
 30
0.0
 10
217.2728027516135
 20
315.7623851331062
 30
0.0
 10
217.0545469882068
 20
315.8755944297019
 30
0.0
 10
216.8661210855574
 20
315.9435419829559
 30
0.0
 10
216.7107645358514
 20
315.9809122103334
 30
0.0
 10
216.5510750398798
 20
316.0047249432321
 30
0.0
 10
216.4423781920882
 20
316.0077072937327
 30
0.0
 10
216.388033784
 20
316.0091983588
 30
0.0
 11
217.4705655387
 21
315.556588869
 31
0.0
 11
217.2638396089611
 21
315.7496405947549
 31
0.0
 11
217.0138341255576
 21
315.8876012281922
 31
0.0
 11
216.8650329425285
 21
315.9408473405716
 31
0.0
 11
216.7121430160054
 21
315.978245001009
 31
0.0
 11
216.5508149987668
 21
316.0014566287998
 31
0.0
 11
216.388033784
 21
316.0091983588
 31
0.0
  0
SPLINE
  5
125
330
1F
100
AcDbEntity
  8
0
  6
Continuous
 62
     7
100
AcDbSpline
210
0.0
220
0.0
230
1.0
 70
     8
 71
     3
 72
     9
 73
     5
 74
     3
 42
0.0000000001
 43
0.0000000001
 44
0.00000001
 40
0.0
 40
0.0
 40
0.0
 40
0.0
 40
1.140645492886403
 40
2.281290981651074
 40
2.281290981651074
 40
2.281290981651074
 40
2.281290981651074
 10
217.4705655387
 20
318.6497458451
 30
0.0
 10
217.6653250555242
 20
318.3231998215097
 30
0.0
 10
218.0548440884689
 20
317.670107775509
 30
0.0
 10
218.4440806123241
 20
317.0168473174429
 30
0.0
 10
218.6386988739
 20
316.690217089
 30
0.0
 11
217.4705655387
 21
318.6497458451
 31
0.0
 11
218.0547734619
 21
317.6700656713125
 31
0.0
 11
218.6386988739
 21
316.690217089
 31
0.0
  0
SPLINE
  5
126
330
1F
100
AcDbEntity
  8
0
  6
Continuous
 62
     7
100
AcDbSpline
210
0.0
220
0.0
230
1.0
 70
     8
 71
     3
 72
     9
 73
     5
 74
     3
 42
0.0000000001
 43
0.0000000001
 44
0.00000001
 40
0.0
 40
0.0
 40
0.0
 40
0.0
 40
1.140645488764685
 40
2.281290981651025
 40
2.281290981651025
 40
2.281290981651025
 40
2.281290981651025
 10
218.6386988739
 20
275.638689161
 30
0.0
 10
218.444080612324
 20
275.3120589325571
 30
0.0
 10
218.0548440884688
 20
274.6587984744911
 30
0.0
 10
217.6653250555242
 20
274.0057064284903
 30
0.0
 10
217.4705655387
 20
273.6791604049
 30
0.0
 11
218.6386988739
 21
275.638689161
 31
0.0
 11
218.0547734619
 21
274.6588405786875
 31
0.0
 11
217.4705655387
 21
273.6791604049
 31
0.0
  0
SPLINE
  5
127
330
1F
100
AcDbEntity
  8
0
  6
Continuous
 62
     7
100
AcDbSpline
210
0.0
220
0.0
230
1.0
 70
     8
 71
     3
 72
    15
 73
    11
 74
     9
 42
0.0000000001
 43
0.0000000001
 44
0.00000001
 40
0.0
 40
0.0
 40
0.0
 40
0.0
 40
0.159701452988649
 40
0.3197013834856762
 40
0.4812180800185761
 40
0.6426522275541485
 40
0.8054905616809918
 40
0.9684179305620086
 40
1.132253501803839
 40
1.295812828024041
 40
1.295812828024041
 40
1.295812828024041
 40
1.295812828024041
 10
217.4705655387
 20
273.6791604049
 30
0.0
 10
217.4414983295168
 20
273.6344714324154
 30
0.0
 10
217.3833095853568
 20
273.5450099650179
 30
0.0
 10
217.2743182817391
 20
273.4263696674416
 30
0.0
 10
217.1515101416361
 20
273.321728656037
 30
0.0
 10
217.0151124895659
 20
273.233577916519
 30
0.0
 10
216.8681790571305
 20
273.1633105106683
 30
0.0
 10
216.7127245502564
 20
273.1124920190075
 30
0.0
 10
216.5517906811394
 20
273.0803719936341
 30
0.0
 10
216.4425887027033
 20
273.0763451053596
 30
0.0
 10
216.388033784
 20
273.0743333601
 30
0.0
 11
217.4705655387
 21
273.6791604049
 31
0.0
 11
217.3798154041106
 21
273.547748962633
 31
0.0
 11
217.2724485768985
 21
273.4291220593881
 31
0.0
 11
217.1493494501695
 21
273.3245551035299
 31
0.0
 11
217.0138341255605
 21
273.2368249445955
 31
0.0
 11
216.8669096739282
 21
273.1666143430189
 31
0.0
 11
216.7121430160195
 21
273.1156966729007
 31
0.0
 11
216.551263218583
 21
273.0847162729529
 31
0.0
 11
216.388033784
 21
273.0743333601
 31
0.0
  0
SPLINE
  5
128
330
1F
100
AcDbEntity
  8
0
  6
Continuous
 62
     7
100
AcDbSpline
210
0.0
220
0.0
230
1.0
 70
     8
 71
     3
 72
    13
 73
     9
 74
     7
 42
0.0000000001
 43
0.0000000001
 44
0.00000001
 40
0.0
 40
0.0
 40
0.0
 40
0.0
 40
0.103930946608136
 40
0.208039781500262
 40
0.3396638172745251
 40
0.4712212345394736
 40
0.784945267117688
 40
1.098743092832357
 40
1.098743092832357
 40
1.098743092832357
 40
1.098743092832357
 10
217.4705655387
 20
293.071296149
 30
0.0
 10
217.4381966821826
 20
293.0588777044636
 30
0.0
 10
217.3734035665893
 20
293.0340195599719
 30
0.0
 10
217.2637080766276
 20
293.0053496290737
 30
0.0
 10
217.143927277723
 20
292.9799124621857
 30
0.0
 10
216.9539573602412
 20
292.9497178315831
 30
0.0
 10
216.7018684700488
 20
292.9240653893357
 30
0.0
 10
216.4926535468596
 20
292.920740989289
 30
0.0
 10
216.388033784
 20
292.9190785938
 30
0.0
 11
217.4705655387
 21
293.071296149
 31
0.0
 11
217.372861496923
 21
293.0358622403346
 31
0.0
 11
217.2724485769303
 21
293.008368695617
 31
0.0
 11
217.1436968103107
 21
292.9810214949224
 31
0.0
 11
217.0138341254893
 21
292.9599730477491
 31
0.0
 11
216.7016890197177
 21
292.9285373743834
 31
0.0
 11
216.388033784
 21
292.9190785938
 31
0.0
  0
SPLINE
  5
129
330
1F
100
AcDbEntity
  8
0
  6
Continuous
 62
     7
100
AcDbSpline
210
0.0
220
0.0
230
1.0
 70
     8
 71
     3
 72
    13
 73
     9
 74
     7
 42
0.0000000001
 43
0.0000000001
 44
0.00000001
 40
0.0
 40
0.0
 40
0.0
 40
0.0
 40
0.3137982401999915
 40
0.6275226868900736
 40
0.7590799143065552
 40
0.8907037595315356
 40
0.994812369708138
 40
1.098743092727203
 40
1.098743092727203
 40
1.098743092727203
 40
1.098743092727203
 10
216.388033784
 20
299.4098276562
 30
0.0
 10
216.4926536851002
 20
299.4081652567742
 30
0.0
 10
216.7018688846458
 20
299.4048408488561
 30
0.0
 10
216.9539579845459
 20
299.3791883465676
 30
0.0
 10
217.1439279060931
 20
299.3489936708293
 30
0.0
 10
217.2637085021789
 20
299.3235565191702
 30
0.0
 10
217.3734037784726
 20
299.2948866158713
 30
0.0
 10
217.4381967526929
 20
299.2700285208613
 30
0.0
 10
217.4705655387
 20
299.257610101
 30
0.0
 11
216.388033784
 21
299.4098276562
 31
0.0
 11
216.7016894336436
 21
299.4003688508187
 31
0.0
 11
217.0138349464708
 21
299.3689330865861
 31
0.0
 11
217.1436974390339
 21
299.347884639831
 31
0.0
 11
217.2724490129838
 21
299.3205374491669
 31
0.0
 11
217.3728617104236
 21
299.293043942556
 31
0.0
 11
217.4705655387
 21
299.257610101
 31
0.0
  0
SPLINE
  5
12A
330
1F
100
AcDbEntity
  8
0
  6
Continuous
 62
     7
100
AcDbSpline
210
0.0
220
0.0
230
1.0
 70
     8
 71
     3
 72
    15
 73
    11
 74
     9
 42
0.0000000001
 43
0.0000000001
 44
0.00000001
 40
0.0
 40
0.0
 40
0.0
 40
0.0
 40
0.1635596290284234
 40
0.3273955047585828
 40
0.4903230394826794
 40
0.6531615382653654
 40
0.8145955186459796
 40
0.976112046909515
 40
1.13611167530175
 40
1.295812828012572
 40
1.295812828012572
 40
1.295812828012572
 40
1.295812828012572
 10
216.388033784
 20
319.2545728899
 30
0.0
 10
216.4425888038247
 20
319.2525611366774
 30
0.0
 10
216.551790985064
 20
319.2485342324488
 30
0.0
 10
216.7127250981341
 20
319.2164140942503
 30
0.0
 10
216.8681797799779
 20
319.1655954540048
 30
0.0
 10
217.0151132165051
 20
319.0953279272193
 30
0.0
 10
217.1515107607818
 20
319.0071771282297
 30
0.0
 10
217.2743186812425
 20
318.9025361879523
 30
0.0
 10
217.3833097611613
 20
318.7838960388306
 30
0.0
 10
217.441498388005
 20
318.6944347357031
 30
0.0
 10
217.4705655387
 20
318.6497458451
 30
0.0
 11
216.388033784
 21
319.2545728899
 31
0.0
 11
216.5512635194482
 21
319.2441899368799
 31
0.0
 11
216.7121436045541
 21
319.2132094205416
 31
0.0
 11
216.8669103927024
 21
319.1622916156248
 31
0.0
 11
217.0138349464924
 21
319.0920808459424
 31
0.0
 11
217.1493500721738
 21
319.0043506873133
 31
0.0
 11
217.2724490130307
 21
318.8997837725543
 31
0.0
 11
217.3798155924665
 21
318.7811570525208
 31
0.0
 11
217.4705655387
 21
318.6497458451
 31
0.0
  0
SPLINE
  5
12B
330
1F
100
AcDbEntity
  8
VERERBUNG
  6
Continuous
 62
     7
100
AcDbSpline
210
0.0
220
0.0
230
1.0
 70
     8
 71
     3
 72
    13
 73
     9
 74
     7
 42
0.0000000001
 43
0.0000000001
 44
0.00000001
 40
0.0
 40
0.0
 40
0.0
 40
0.0
 40
0.9581451161705911
 40
1.916374757543965
 40
2.729668920807248
 40
3.542928077724324
 40
4.281951737045672
 40
5.020980281037101
 40
5.020980281037101
 40
5.020980281037101
 40
5.020980281037101
 10
68.0068359375
 20
327.2650962052
 30
0.0
 10
67.6874417711747
 20
327.267939742902
 30
0.0
 10
67.04862526235722
 20
327.2736270691557
 30
0.0
 10
66.13956114113616
 20
327.3172347877984
 30
0.0
 10
65.28024303390808
 20
327.3807911739812
 30
0.0
 10
64.49560449099414
 20
327.459788189968
 30
0.0
 10
63.73747296349867
 20
327.5531992504272
 30
0.0
 10
63.25038214941249
 20
327.6273684184376
 30
0.0
 10
63.0068359375
 20
327.664453125
 30
0.0
 11
68.0068359375
 21
327.2650962052
 31
0.0
 11
67.04880454565615
 21
327.2798581794344
 31
0.0
 11
66.09159283376246
 21
327.3240145404721
 31
0.0
 11
65.28054150343064
 21
327.3843729331372
 31
0.0
 11
64.47132975533972
 21
327.4654087465848
 31
0.0
 11
63.73796351687616
 21
327.556677193041
 31
0.0
 11
63.0068359375
 21
327.664453125
 31
0.0
  0
SPLINE
  5
12C
330
1F
100
AcDbEntity
  8
VERERBUNG
  6
Continuous
 62
     7
100
AcDbSpline
210
0.0
220
0.0
230
1.0
 70
     8
 71
     3
 72
    43
 73
    39
 74
    37
 42
0.0000000001
 43
0.0000000001
 44
0.00000001
 40
0.0
 40
0.0
 40
0.0
 40
0.0
 40
0.4175035109342487
 40
0.8354555648349135
 40
1.252511183710892
 40
1.669422664480623
 40
2.08529542577306
 40
2.501251326595427
 40
2.916298094101066
 40
3.331138757768506
 40
3.538526233013019
 40
3.745847790976413
 40
3.953170095128018
 40
4.160558348217013
 40
4.575407544432113
 40
4.990456744655774
 40
5.406332394438223
 40
5.822158816068409
 40
6.2390272805056
 40
6.655913113551438
 40
7.073532178543458
 40
7.491136194360075
 40
7.90895641447681
 40
8.32682866255978
 40
8.74460019996707
 40
9.162169349371393
 40
9.370981458416159
 40
9.57972670619167
 40
9.788406630741108
 40
9.997153926470201
 40
10.41425933407509
 40
10.8315689084357
 40
11.24894510855735
 40
11.6662401160309
 40
12.08375102630228
 40
12.50139861936838
 40
12.91943544780752
 40
13.3370279955931
 40
13.3370279955931
 40
13.3370279955931
 40
13.3370279955931
 10
56.2562096478
 20
296.164453125
 30
0.0
 10
56.25230506827569
 20
296.0252269181001
 30
0.0
 10
56.24449171436007
 20
295.7466249272686
 30
0.0
 10
56.18070211995365
 20
295.3329876441468
 30
0.0
 10
56.07986545515672
 20
294.9275221279908
 30
0.0
 10
55.93933957833628
 20
294.5345498729656
 30
0.0
 10
55.76122752987672
 20
294.1576175547922
 30
0.0
 10
55.54731399917204
 20
293.8004713683829
 30
0.0
 10
55.29951185604665
 20
293.4664165071009
 30
0.0
 10
55.06696378562575
 20
293.2097279827831
 30
0.0
 10
54.86663127466076
 20
293.0189944793868
 30
0.0
 10
54.70956260790052
 20
292.8835081491856
 30
0.0
 10
54.54604423187666
 20
292.7558800404829
 30
0.0
 10
54.31989996730762
 20
292.5965906689688
 30
0.0
 10
54.02278788967379
 20
292.4185639324991
 30
0.0
 10
53.64688736372461
 20
292.2405869987326
 30
0.0
 10
53.25502175540004
 20
292.1001987331253
 30
0.0
 10
52.85075858754493
 20
291.998531601754
 30
0.0
 10
52.4381574840147
 20
291.93681772656
 30
0.0
 10
52.02091423759433
 20
291.9155070273684
 30
0.0
 10
51.60333847527583
 20
291.9350881154539
 30
0.0
 10
51.18934222137325
 20
291.9952569112087
 30
0.0
 10
50.78313014387463
 20
292.0956381429863
 30
0.0
 10
50.38858771460706
 20
292.2351892558881
 30
0.0
 10
50.00973067631392
 20
292.4127224765261
 30
0.0
 10
49.70996774522032
 20
292.5907850386185
 30
0.0
 10
49.48171814774742
 20
292.7503063640312
 30
0.0
 10
49.31663898325404
 20
292.878212514178
 30
0.0
 10
49.15805931055477
 20
293.014060220291
 30
0.0
 10
48.95589340137717
 20
293.2052761194235
 30
0.0
 10
48.72121249738314
 20
293.462686205583
 30
0.0
 10
48.47127753564536
 20
293.7976369282651
 30
0.0
 10
48.25562198096055
 20
294.1557307097589
 30
0.0
 10
48.07625151917354
 20
294.5333449184884
 30
0.0
 10
47.93477885289126
 20
294.9269098124183
 30
0.0
 10
47.83335853374859
 20
295.3326774408185
 30
0.0
 10
47.7693065640136
 20
295.7465400293614
 30
0.0
 10
47.76140893982293
 20
296.0251981446832
 30
0.0
 10
47.7574622272
 20
296.164453125
 30
0.0
 11
56.2562096478
 21
296.164453125
 31
0.0
 11
56.23582126522835
 21
295.7474477347488
 31
0.0
 11
56.17446072250175
 21
295.3340244611465
 31
0.0
 11
56.07320286160689
 21
294.9294478493126
 31
0.0
 11
55.93291993096777
 21
294.5368464201647
 31
0.0
 11
55.75522516608037
 21
294.160848116822
 31
0.0
 11
55.54146496837546
 21
293.8040205824219
 31
0.0
 11
55.29422166009012
 21
293.4706520690241
 31
0.0
 11
55.01566868237456
 21
293.1632418954159
 31
0.0
 11
54.8654731164738
 21
293.0202354030037
 31
0.0
 11
54.70848799598942
 21
292.8848178991762
 31
0.0
 11
54.54505312044866
 21
292.757257798613
 31
0.0
 11
54.37549982719639
 21
292.6378359904429
 31
0.0
 11
54.01967057357304
 21
292.4245629310421
 31
0.0
 11
53.64453098842085
 21
292.2469787812478
 31
0.0
 11
53.25303669752057
 21
292.1066763355298
 31
0.0
 11
52.84976475139264
 21
292.0052694797855
 31
0.0
 11
52.43748860946852
 21
291.9435629206334
 31
0.0
 11
52.02114420375781
 21
291.9223230141431
 31
0.0
 11
51.60398189253522
 21
291.9418496508284
 31
0.0
 11
51.19072411196153
 21
292.0019422528812
 31
0.0
 11
50.78510087079559
 21
292.1021596294405
 31
0.0
 11
50.39115822702478
 21
292.2415382832465
 31
0.0
 11
50.01284978955715
 21
292.4187832651457
 31
0.0
 11
49.65387100278582
 21
292.6320863949456
 31
0.0
 11
49.48271346237871
 21
292.7517007471176
 31
0.0
 11
49.31770244311769
 21
292.8795519965886
 31
0.0
 11
49.15922412840006
 21
293.0153162579913
 31
0.0
 11
49.00757136689046
 21
293.1587626709849
 31
0.0
 11
48.72653535467593
 21
293.466976364535
 31
0.0
 11
48.47700968774005
 21
293.801467354538
 31
0.0
 11
48.26166162105239
 21
294.1589979163113
 31
0.0
 11
48.08260072063908
 21
294.5359227326945
 31
0.0
 11
47.94147901778854
 21
294.9288604188232
 31
0.0
 11
47.83961463210957
 21
295.3338951814352
 31
0.0
 11
47.77799545948942
 21
295.7473656973091
 31
0.0
 11
47.7574622272
 21
296.164453125
 31
0.0
  0
SPLINE
  5
12D
330
1F
100
AcDbEntity
  8
VERERBUNG
  6
Continuous
 62
     7
100
AcDbSpline
210
0.0
220
0.0
230
1.0
 70
     8
 71
     3
 72
    13
 73
     9
 74
     7
 42
0.0000000001
 43
0.0000000001
 44
0.00000001
 40
0.0
 40
0.0
 40
0.0
 40
0.0
 40
0.4765182419301083
 40
0.9529821706433217
 40
1.193158830004174
 40
1.433310795932938
 40
1.675484054965855
 40
1.91749373163719
 40
1.91749373163719
 40
1.91749373163719
 40
1.91749373163719
 10
34.4942429752
 20
305.434453125
 30
0.0
 10
34.56606358786703
 20
305.2926549621573
 30
0.0
 10
34.70969662713773
 20
305.0090747985275
 30
0.0
 10
34.84412072106075
 20
304.6334608419039
 30
0.0
 10
34.92571542232412
 20
304.324984382778
 30
0.0
 10
34.97112076767353
 20
304.0883109401294
 30
0.0
 10
35.00099650555066
 20
303.8483644895865
 30
0.0
 10
35.0048898986476
 20
303.6869305453142
 30
0.0
 10
35.0068359375
 20
303.6062408436
 30
0.0
 11
34.4942429752
 21
305.434453125
 31
0.0
 11
34.70063682580022
 21
305.0049520035503
 31
0.0
 11
34.86206701224937
 21
304.5566684211297
 31
0.0
 11
34.92302323177662
 21
304.3243557718773
 31
0.0
 11
34.96841110552286
 21
304.0885318806867
 31
0.0
 11
34.99698126225216
 21
303.8480497950024
 31
0.0
 11
35.0068359375
 21
303.6062408436
 31
0.0
  0
SPLINE
  5
12E
330
1F
100
AcDbEntity
  8
VERERBUNG
  6
Continuous
 62
     7
100
AcDbSpline
210
0.0
220
0.0
230
1.0
 70
     8
 71
     3
 72
    19
 73
    15
 74
    13
 42
0.0000000001
 43
0.0000000001
 44
0.00000001
 40
0.0
 40
0.0
 40
0.0
 40
0.0
 40
0.0835832282583681
 40
0.1672705448715812
 40
0.249953862454107
 40
0.3326148850850842
 40
0.4138475639518752
 40
0.4950848398413096
 40
0.5749375740705795
 40
0.6547985888393737
 40
0.8114954797069119
 40
0.9684466433673952
 40
1.123543258655628
 40
1.278502018116232
 40
1.278502018116232
 40
1.278502018116232
 40
1.278502018116232
 10
33.5068359375
 20
306.1207660069
 30
0.0
 10
33.53463457807234
 20
306.1230388876231
 30
0.0
 10
33.59026647758272
 20
306.1275874795465
 30
0.0
 10
33.67369788110946
 20
306.1222213515004
 30
0.0
 10
33.75560695453275
 20
306.107917168084
 30
0.0
 10
33.83464342741967
 20
306.0847273768783
 30
0.0
 10
33.91034443542888
 20
306.0536226698601
 30
0.0
 10
33.9818740732472
 20
306.0158520208168
 30
0.0
 10
34.04941591538435
 20
305.9722167364231
 30
0.0
 10
34.13328535917716
 20
305.9081212496284
 30
0.0
 10
34.228873289205
 20
305.8176980512731
 30
0.0
 10
34.32924756812054
 20
305.6976517110842
 30
0.0
 10
34.41829187939912
 20
305.5696530033288
 30
0.0
 10
34.46893344863048
 20
305.4795063908768
 30
0.0
 10
34.4942429752
 20
305.434453125
 30
0.0
 11
33.5068359375
 21
306.1207660069
 31
0.0
 11
33.59028201417496
 21
306.1255522720041
 31
0.0
 11
33.67382770311259
 21
306.1206855665624
 31
0.0
 11
33.75526797726108
 21
306.1064022632655
 31
0.0
 11
33.83461281204041
 21
306.0832237849669
 31
0.0
 11
33.90978921951807
 21
306.0524462627367
 31
0.0
 11
33.98167358311265
 21
306.0146027261084
 31
0.0
 11
34.04880481303203
 21
305.9713608814045
 31
0.0
 11
34.11232156708159
 21
305.9229521669523
 31
0.0
 11
34.22655868655673
 21
305.8156964158637
 31
0.0
 11
34.32779240728222
 21
305.6957572581109
 31
0.0
 11
34.41619707828929
 21
305.5683226701138
 31
0.0
 11
34.4942429752
 21
305.434453125
 31
0.0
  0
SPLINE
  5
12F
330
1F
100
AcDbEntity
  8
VERERBUNG
  6
Continuous
 62
     7
100
AcDbSpline
210
0.0
220
0.0
230
1.0
 70
     8
 71
     3
 72
    13
 73
     9
 74
     7
 42
0.0000000001
 43
0.0000000001
 44
0.00000001
 40
0.0
 40
0.0
 40
0.0
 40
0.0
 40
0.2420096760820216
 40
0.4841829345389354
 40
0.7243349034435919
 40
0.9645115657846342
 40
1.440975492113233
 40
1.917493731669684
 40
1.917493731669684
 40
1.917493731669684
 40
1.917493731669684
 10
35.0068359375
 20
288.7226654064
 30
0.0
 10
35.00488989866162
 20
288.6419757048823
 30
0.0
 10
35.00099650559258
 20
288.4805417609988
 30
0.0
 10
34.97112076775781
 20
288.2405953098443
 30
0.0
 10
34.92571542207516
 20
288.0039218654267
 30
0.0
 10
34.84412072024769
 20
287.6954454052122
 30
0.0
 10
34.70969662618004
 20
287.3198314492876
 30
0.0
 10
34.56606358754835
 20
287.0362512871155
 30
0.0
 10
34.4942429752
 20
286.894453125
 30
0.0
 11
35.0068359375
 21
288.7226654064
 31
0.0
 11
34.99698126231899
 21
288.4808564555847
 31
0.0
 11
34.9684111057607
 21
288.2403743704601
 31
0.0
 11
34.92302323146119
 21
288.0045504763455
 31
0.0
 11
34.86206701098858
 21
287.7722378242601
 31
0.0
 11
34.70063682493859
 21
287.3239542442303
 31
0.0
 11
34.4942429752
 21
286.894453125
 31
0.0
  0
SPLINE
  5
130
330
1F
100
AcDbEntity
  8
VERERBUNG
  6
Continuous
 62
     7
100
AcDbSpline
210
0.0
220
0.0
230
1.0
 70
     8
 71
     3
 72
    19
 73
    15
 74
    13
 42
0.0000000001
 43
0.0000000001
 44
0.00000001
 40
0.0
 40
0.0
 40
0.0
 40
0.0
 40
0.1549595547211572
 40
0.3100569266467238
 40
0.4670093143138627
 40
0.6237075593634152
 40
0.7035716820529663
 40
0.7834274371938855
 40
0.864668225162731
 40
0.9459045180062302
 40
1.028561641629127
 40
1.111240956036482
 40
1.194923428848762
 40
1.278501866386604
 40
1.278501866386604
 40
1.278501866386604
 40
1.278501866386604
 10
34.4942429752
 20
286.894453125
 30
0.0
 10
34.46893332537241
 20
286.8493996241918
 30
0.0
 10
34.41829151593919
 20
286.7592525531035
 30
0.0
 10
34.32924659585058
 20
286.6312531285442
 30
0.0
 10
34.22887119641162
 20
286.5112062599335
 30
0.0
 10
34.13328174941958
 20
286.4207819467142
 30
0.0
 10
34.04941045851773
 20
286.3566847594976
 30
0.0
 10
33.98186559359381
 20
286.3130481561685
 30
0.0
 10
33.91033193393972
 20
286.2752777858339
 30
0.0
 10
33.83462896309392
 20
286.2441750521375
 30
0.0
 10
33.75559352323645
 20
286.2209870223477
 30
0.0
 10
33.67368853620564
 20
286.2066842008566
 30
0.0
 10
33.59026165821888
 20
286.2013190045601
 30
0.0
 10
33.53463297750534
 20
286.2058674399532
 30
0.0
 10
33.5068359375
 20
286.2081402431
 30
0.0
 11
34.4942429752
 21
286.894453125
 31
0.0
 11
34.41619668087733
 21
286.7605828910349
 31
0.0
 11
34.32779146456344
 21
286.6331477604518
 31
0.0
 11
34.22655664574914
 21
286.5132079278104
 31
0.0
 11
34.11231844099441
 21
286.4059513542309
 31
0.0
 11
34.04879923878267
 21
286.3575407247849
 31
0.0
 11
33.98166510724087
 21
286.3142978061593
 31
0.0
 11
33.90977673645981
 21
286.2764543420441
 31
0.0
 11
33.83459609332542
 21
286.2456776272608
 31
0.0
 11
33.75525456837451
 21
286.2225017237384
 31
0.0
 11
33.67381810400217
 21
286.2082198715685
 31
0.0
 11
33.5902772176666
 21
286.2033540143732
 31
0.0
 11
33.5068359375
 21
286.2081402431
 31
0.0
  0
SPLINE
  5
131
330
1F
100
AcDbEntity
  8
VERERBUNG
  6
Continuous
 62
     7
100
AcDbSpline
210
0.0
220
0.0
230
1.0
 70
     8
 71
     3
 72
    23
 73
    19
 74
    17
 42
0.0000000001
 43
0.0000000001
 44
0.00000001
 40
0.0
 40
0.0
 40
0.0
 40
0.0
 40
0.0664886891767441
 40
0.1330028506632903
 40
0.1940175413969025
 40
0.2550295991523282
 40
0.3099753629843393
 40
0.3648861556109003
 40
0.4150633581506203
 40
0.4651526182241345
 40
0.5141740379689007
 40
0.5632529905950129
 40
0.6152549116625998
 40
0.6673077698864687
 40
0.724335535683202
 40
0.781366834075909
 40
0.843522157645332
 40
0.9056490099052158
 40
0.9056490099052158
 40
0.9056490099052158
 40
0.9056490099052158
 10
29.0068359375
 20
304.9173212467
 30
0.0
 10
29.0071845248537
 20
304.9394885940735
 30
0.0
 10
29.00788183310748
 20
304.9838317812955
 30
0.0
 10
29.01426889221975
 20
305.0482696881746
 30
0.0
 10
29.025164695504
 20
305.1102331606173
 30
0.0
 10
29.04113900309899
 20
305.1671479922411
 30
0.0
 10
29.062768730124
 20
305.2199869989787
 30
0.0
 10
29.08985983928608
 20
305.2662120422966
 30
0.0
 10
29.12324732180142
 20
305.3060333514592
 30
0.0
 10
29.16174949545433
 20
305.3380707740622
 30
0.0
 10
29.20563306313679
 20
305.3614325752334
 30
0.0
 10
29.25359065203007
 20
305.3765942233177
 30
0.0
 10
29.30447252171521
 20
305.3830993501169
 30
0.0
 10
29.35830511120846
 20
305.3818207588017
 30
0.0
 10
29.41319609551039
 20
305.3735635152453
 30
0.0
 10
29.47006250941632
 20
305.3585558832905
 30
0.0
 10
29.52710841023745
 20
305.338314496079
 30
0.0
 10
29.56473075266343
 20
305.3209320414672
 30
0.0
 10
29.5835376145
 20
305.3122428052
 30
0.0
 11
29.0068359375
 21
304.9173212467
 31
0.0
 11
29.00880163377391
 21
304.9837808722376
 31
0.0
 11
29.01531271005481
 21
305.0499755817235
 31
0.0
 11
29.02615557114612
 21
305.1100191063425
 31
0.0
 11
29.04285259750696
 21
305.1687019871704
 31
0.0
 11
29.06394653515654
 21
305.2194374063321
 31
0.0
 11
29.09197736165653
 21
305.2666546480199
 31
0.0
 11
29.12433968370138
 21
305.3050008573056
 31
0.0
 11
29.1629925582695
 21
305.336858183972
 31
0.0
 11
29.20618846148751
 21
305.36003605141
 31
0.0
 11
29.25296110710658
 21
305.3749042460774
 31
0.0
 11
29.30450553980101
 21
305.3817869238216
 31
0.0
 11
29.35654946607217
 21
305.3808226688985
 31
0.0
 11
29.41297440129345
 21
305.3725526775418
 31
0.0
 11
29.46818827087724
 21
305.3582699046337
 31
0.0
 11
29.52674718868079
 21
305.3374339406844
 31
0.0
 11
29.5835376145
 21
305.3122428052
 31
0.0
  0
SPLINE
  5
132
330
1F
100
AcDbEntity
  8
VERERBUNG
  6
Continuous
 62
     7
100
AcDbSpline
210
0.0
220
0.0
230
1.0
 70
     8
 71
     3
 72
    23
 73
    19
 74
    17
 42
0.0000000001
 43
0.0000000001
 44
0.00000001
 40
0.0
 40
0.0
 40
0.0
 40
0.0
 40
0.0621269685144218
 40
0.1242824031427755
 40
0.1813135303135923
 40
0.2383411404021492
 40
0.2903938962963967
 40
0.342395688475198
 40
0.3914747075660814
 40
0.440496228817811
 40
0.4905855735308975
 40
0.5407628276681251
 40
0.5956736075029393
 40
0.6506193813492194
 40
0.7116314426420731
 40
0.7726461254004146
 40
0.8391602987537197
 40
0.9056490032902808
 40
0.9056490032902808
 40
0.9056490032902808
 40
0.9056490032902808
 10
29.5835376145
 20
287.0166634448
 30
0.0
 10
29.56473071775811
 20
287.0079741916507
 30
0.0
 10
29.5271083070944
 20
286.990591704001
 30
0.0
 10
29.47006238252229
 20
286.9703503239201
 30
0.0
 10
29.4131960257148
 20
286.9553427575542
 30
0.0
 10
29.35830518813297
 20
286.947085532696
 30
0.0
 10
29.30447273447003
 20
286.9458068219714
 30
0.0
 10
29.25359090039373
 20
286.9523118478311
 30
0.0
 10
29.20563331568858
 20
286.9674735813792
 30
0.0
 10
29.16174972116821
 20
286.9908354937772
 30
0.0
 10
29.12324742723351
 20
287.0228728814486
 30
0.0
 10
29.08985981587059
 20
287.062694144196
 30
0.0
 10
29.06276870670872
 20
287.1089192136487
 30
0.0
 10
29.04113902962404
 20
287.1617582394998
 30
0.0
 10
29.02516471684131
 20
287.2186730695917
 30
0.0
 10
29.01426888939985
 20
287.2806365407307
 30
0.0
 10
29.00788183002327
 20
287.3450744545096
 30
0.0
 10
29.00718452383187
 20
287.3894176508068
 30
0.0
 10
29.0068359375
 20
287.4115850033
 30
0.0
 11
29.5835376145
 21
287.0166634448
 31
0.0
 11
29.52674708206833
 21
286.9914722629516
 31
0.0
 11
29.46818805270866
 21
286.9706362812302
 31
0.0
 11
29.41297434006624
 21
286.9563535853147
 31
0.0
 11
29.35654956145967
 21
286.948083599123
 31
0.0
 11
29.30450573928854
 21
286.947119249598
 31
0.0
 11
29.25296142484739
 21
286.9540018391251
 31
0.0
 11
29.20618873103348
 21
286.9688701015762
 31
0.0
 11
29.16299276331483
 21
286.9920480634944
 31
0.0
 11
29.12433977619753
 21
287.0239053866823
 31
0.0
 11
29.09197734639182
 21
287.0622515725398
 31
0.0
 11
29.06394652170372
 21
287.1094688004272
 31
0.0
 11
29.04285261335655
 21
287.1602042426172
 31
0.0
 11
29.02615558856357
 21
287.218887127569
 31
0.0
 11
29.01531271259113
 21
287.2789306413964
 31
0.0
 11
29.00880163143294
 21
287.3451253623266
 31
0.0
 11
29.0068359375
 21
287.4115850033
 31
0.0
  0
SPLINE
  5
133
330
1F
100
AcDbEntity
  8
VERERBUNG
  6
Continuous
 62
     7
100
AcDbSpline
210
0.0
220
0.0
230
1.0
 70
     8
 71
     3
 72
     9
 73
     5
 74
     3
 42
0.0000000001
 43
0.0000000001
 44
0.00000001
 40
0.0
 40
0.0
 40
0.0
 40
0.0
 40
0.0773963057112768
 40
0.1547963632185037
 40
0.1547963632185037
 40
0.1547963632185037
 40
0.1547963632185037
 10
29.6785107479
 20
286.894453125
 30
0.0
 10
29.66217301754629
 20
286.9144252583495
 30
0.0
 10
29.6294967648653
 20
286.9543704932003
 30
0.0
 10
29.59885757882219
 20
286.9958987920933
 30
0.0
 10
29.5835376145
 20
287.0166634448
 30
0.0
 11
29.6785107479
 21
286.894453125
 31
0.0
 11
29.6300067988125
 21
286.954765271875
 31
0.0
 11
29.5835376145
 21
287.0166634448
 31
0.0
  0
SPLINE
  5
134
330
1F
100
AcDbEntity
  8
VERERBUNG
  6
Continuous
 62
     7
100
AcDbSpline
210
0.0
220
0.0
230
1.0
 70
     8
 71
     3
 72
    15
 73
    11
 74
     9
 42
0.0000000001
 43
0.0000000001
 44
0.00000001
 40
0.0
 40
0.0
 40
0.0
 40
0.0
 40
0.0705890229134521
 40
0.1413178422175698
 40
0.2119756690987098
 40
0.2826066759500352
 40
0.3532320943156064
 40
0.4238693693084962
 40
0.4944866365082431
 40
0.56507827015021
 40
0.56507827015021
 40
0.56507827015021
 40
0.56507827015021
 10
30.1467928732
 20
286.6024251937
 30
0.0
 10
30.12352780385971
 20
286.6061672340828
 30
0.0
 10
30.076951590413
 20
286.6136587256855
 30
0.0
 10
30.0097175779982
 20
286.6363225305388
 30
0.0
 10
29.94553195079845
 20
286.6661506183988
 30
0.0
 10
29.88495532041768
 20
286.7027348755873
 30
0.0
 10
29.82799972768417
 20
286.7446513831117
 30
0.0
 10
29.77470233856404
 20
286.7910826310708
 30
0.0
 10
29.72460213961813
 20
286.8409474618696
 30
0.0
 10
29.69387268570694
 20
286.8766200624976
 30
0.0
 10
29.6785107479
 20
286.894453125
 30
0.0
 11
30.1467928732
 21
286.6024251937
 31
0.0
 11
30.07743512517444
 21
286.6155519962314
 31
0.0
 11
30.01020600706927
 21
286.6375249696068
 31
0.0
 11
29.94612039350693
 21
286.6672833740315
 31
0.0
 11
29.88555627196222
 21
286.7036251724233
 31
0.0
 11
29.82861193797316
 21
286.7454018710226
 31
0.0
 11
29.77522899432153
 21
286.7916607722796
 31
0.0
 11
29.72526269529059
 21
286.8415623492879
 31
0.0
 11
29.6785107479
 21
286.894453125
 31
0.0
  0
SPLINE
  5
135
330
1F
100
AcDbEntity
  8
VERERBUNG
  6
Continuous
 62
     7
100
AcDbSpline
210
0.0
220
0.0
230
1.0
 70
     8
 71
     3
 72
    15
 73
    11
 74
     9
 42
0.0000000001
 43
0.0000000001
 44
0.00000001
 40
0.0
 40
0.0
 40
0.0
 40
0.0
 40
0.07059174917343
 40
0.141209131177829
 40
0.2118461808404262
 40
0.2824713749549838
 40
0.3531025105299875
 40
0.4237604659154838
 40
0.4944892663886342
 40
0.5650782701369086
 40
0.5650782701369086
 40
0.5650782701369086
 40
0.5650782701369086
 10
29.6785107479
 20
305.434453125
 30
0.0
 10
29.69387271019964
 20
305.4522862172379
 30
0.0
 10
29.72460221293784
 20
305.4879588771537
 30
0.0
 10
29.77470241527346
 20
305.5378237075405
 30
0.0
 10
29.82799973006333
 20
305.5842548706642
 30
0.0
 10
29.88495523634898
 20
305.626171313698
 30
0.0
 10
29.94553187042039
 20
305.6627555865715
 30
0.0
 10
30.00971756868871
 20
305.6925837111606
 30
0.0
 10
30.07695160939173
 20
305.7152475262874
 30
0.0
 10
30.12352781022264
 20
305.7227390165809
 30
0.0
 10
30.1467928732
 20
305.7264810563
 30
0.0
 11
29.6785107479
 21
305.434453125
 31
0.0
 11
29.72526277055437
 21
305.4873439883801
 31
0.0
 11
29.77522915489278
 21
305.5372456424338
 31
0.0
 11
29.82861193645231
 21
305.5835043866667
 31
0.0
 11
29.88555608867603
 21
305.6252809539173
 31
0.0
 11
29.94612031505183
 21
305.6616228277836
 31
0.0
 11
30.01020604393718
 21
305.6913812889752
 31
0.0
 11
30.07743514418983
 21
305.7133542563577
 31
0.0
 11
30.1467928732
 21
305.7264810563
 31
0.0
  0
SPLINE
  5
136
330
1F
100
AcDbEntity
  8
0
  6
Continuous
 62
     7
100
AcDbSpline
210
0.0
220
0.0
230
1.0
 70
     8
 71
     3
 72
    17
 73
    13
 74
    11
 42
0.0000000001
 43
0.0000000001
 44
0.00000001
 40
0.0
 40
0.0
 40
0.0
 40
0.0
 40
0.0680277950559475
 40
0.1360632351357033
 40
0.2040812640857294
 40
0.2721696697298661
 40
0.3403702855761008
 40
0.4083585485774934
 40
0.4424627523990723
 40
0.4765773021019775
 40
0.5107086426706919
 40
0.5447868110069224
 40
0.5447868110069224
 40
0.5447868110069224
 40
0.5447868110069224
 10
77.715949047
 20
304.181953125
 30
0.0
 10
77.72835766951732
 20
304.1629677581378
 30
0.0
 10
77.75317630904391
 20
304.124994890821
 30
0.0
 10
77.79411785382453
 20
304.0706023595716
 30
0.0
 10
77.83833639046875
 20
304.0188074370849
 30
0.0
 10
77.88691648948304
 20
303.9709330336233
 30
0.0
 10
77.94024929068418
 20
303.928352568524
 30
0.0
 10
77.98940437490765
 20
303.8994123363281
 30
0.0
 10
78.03136961266688
 20
303.8818931894885
 30
0.0
 10
78.06409401430963
 20
303.8720752184654
 30
0.0
 10
78.09772147878397
 20
303.8656941901723
 30
0.0
 10
78.12047036250426
 20
303.864866598343
 30
0.0
 10
78.1318359375
 20
303.864453125
 30
0.0
 11
77.715949047
 21
304.181953125
 31
0.0
 11
77.7537942302102
 21
304.1254241677483
 31
0.0
 11
77.79466546034826
 21
304.0710333261126
 31
0.0
 11
77.8390408454262
 21
304.0194845389161
 31
0.0
 11
77.88768240484721
 21
303.9718397104427
 31
0.0
 11
77.94124632577035
 21
303.929623239994
 31
0.0
 11
78.00006559231
 21
303.8955248853463
 31
0.0
 11
78.03156473001916
 21
303.8824519728214
 31
0.0
 11
78.06424053532727
 21
303.8726492054112
 31
0.0
 11
78.09782226290972
 21
303.8665487151362
 31
0.0
 11
78.1318359375
 21
303.864453125
 31
0.0
  0
SPLINE
  5
137
330
1F
100
AcDbEntity
  8
RUNDUNGEN
  6
Continuous
 62
     7
100
AcDbSpline
210
0.0
220
0.0
230
1.0
 70
     8
 71
     3
 72
     9
 73
     5
 74
     3
 42
0.0000000001
 43
0.0000000001
 44
0.00000001
 40
0.0
 40
0.0
 40
0.0
 40
0.0
 40
1.149990097176727
 40
2.299980194369168
 40
2.299980194369168
 40
2.299980194369168
 40
2.299980194369168
 10
87.0068359375
 20
298.464453125
 30
0.0
 10
87.00716939976668
 20
298.0811232376487
 30
0.0
 10
87.00783632430003
 20
297.3144634629408
 30
0.0
 10
87.00850326683334
 20
296.5478036882487
 30
0.0
 10
87.0088367381
 20
296.1644738009
 30
0.0
 11
87.0068359375
 21
298.464453125
 31
0.0
 11
87.00783632880001
 21
297.31446346295
 31
0.0
 11
87.0088367381
 21
296.1644738009
 31
0.0
  0
SPLINE
  5
138
330
1F
100
AcDbEntity
  8
0
  6
Continuous
 62
     7
100
AcDbSpline
210
0.0
220
0.0
230
1.0
 70
     8
 71
     3
 72
    17
 73
    13
 74
    11
 42
0.0000000001
 43
0.0000000001
 44
0.00000001
 40
0.0
 40
0.0
 40
0.0
 40
0.0
 40
0.0340790970019758
 40
0.0682097420878262
 40
0.1023154065976997
 40
0.1364128755343002
 40
0.2043992839270735
 40
0.272593567962172
 40
0.3406803506549997
 40
0.4086986202466378
 40
0.4767464406874561
 40
0.5447862542549607
 40
0.5447862542549607
 40
0.5447862542549607
 40
0.5447862542549607
 10
78.1318359375
 20
288.464453125
 30
0.0
 10
78.1204700471028
 20
288.4640418573189
 30
0.0
 10
78.09772107424865
 20
288.4632186998729
 30
0.0
 10
78.06409371046865
 20
288.4568508157569
 30
0.0
 10
78.03137723598361
 20
288.4470227863151
 30
0.0
 10
77.98942626980497
 20
288.429485552107
 30
0.0
 10
77.94027642996208
 20
288.400549703795
 30
0.0
 10
77.88693519492965
 20
288.3579848049747
 30
0.0
 10
77.83835126360866
 20
288.310117525934
 30
0.0
 10
77.79412835949722
 20
288.258321414471
 30
0.0
 10
77.75318236708398
 20
288.2039218963907
 30
0.0
 10
77.72835966687057
 20
288.1659419705993
 30
0.0
 10
77.715949047
 20
288.146953125
 30
0.0
 11
78.1318359375
 21
288.464453125
 31
0.0
 11
78.09782086736614
 21
288.4623650981183
 31
0.0
 11
78.06423846433347
 21
288.4562722219069
 31
0.0
 11
78.03157364439187
 21
288.4464637617911
 31
0.0
 11
78.00008602982776
 21
288.4333806613579
 31
0.0
 11
77.94127016299844
 21
288.399280140317
 31
0.0
 11
77.887703122927
 21
288.3570778584706
 31
0.0
 11
77.83905674624829
 21
288.3094402681296
 31
0.0
 11
77.79467896242448
 21
288.2578932284364
 31
0.0
 11
77.75380034491421
 21
288.2034924518134
 31
0.0
 11
77.715949047
 21
288.146953125
 31
0.0
  0
SPLINE
  5
139
330
1F
100
AcDbEntity
  8
RUNDUNGEN
  6
Continuous
 62
     7
100
AcDbSpline
210
0.0
220
0.0
230
1.0
 70
     8
 71
     3
 72
     9
 73
     5
 74
     3
 42
0.0000000001
 43
0.0000000001
 44
0.00000001
 40
0.0
 40
0.0
 40
0.0
 40
0.0
 40
1.150010773068846
 40
2.30002154615353
 40
2.30002154615353
 40
2.30002154615353
 40
2.30002154615353
 10
87.0088367381
 20
296.1644738009
 30
0.0
 10
87.00850327585208
 20
295.781137021582
 30
0.0
 10
87.00783635135625
 20
295.0144634629409
 30
0.0
 10
87.00716940878542
 20
294.2477899043154
 30
0.0
 10
87.0068359375
 20
293.864453125
 30
0.0
 11
87.0088367381
 21
296.1644738009
 31
0.0
 11
87.00783634683751
 21
295.0144634629501
 31
0.0
 11
87.0068359375
 21
293.864453125
 31
0.0
  0
SPLINE
  5
13A
330
1F
100
AcDbEntity
  8
0
  6
Continuous
 62
     7
100
AcDbSpline
210
0.0
220
0.0
230
1.0
 70
     8
 71
     3
 72
    17
 73
    13
 74
    11
 42
0.0000000001
 43
0.0000000001
 44
0.00000001
 40
0.0
 40
0.0
 40
0.0
 40
0.0
 40
0.0340781916100192
 40
0.0682095735149085
 40
0.1023243844360235
 40
0.1364288245254557
 40
0.2044171801020533
 40
0.2726179463235187
 40
0.3407061059708215
 40
0.4087238601705957
 40
0.4767591626370608
 40
0.5447868280330029
 40
0.5447868280330029
 40
0.5447868280330029
 40
0.5447868280330029
 10
79.8818359375
 20
303.864453125
 30
0.0
 10
79.89320152019035
 20
303.8648666220503
 30
0.0
 10
79.91595042532381
 20
303.8656942615499
 30
0.0
 10
79.94957796815937
 20
303.8720754399586
 30
0.0
 10
79.98230257218785
 20
303.8818933363115
 30
0.0
 10
80.02426807834178
 20
303.8994123654224
 30
0.0
 10
80.07342326268933
 20
303.9283527862808
 30
0.0
 10
80.12675587126493
 20
303.9709334832535
 30
0.0
 10
80.17533582398585
 20
304.0188078492334
 30
0.0
 10
80.21955423202402
 20
304.070602593154
 30
0.0
 10
80.26049564853056
 20
304.1249949952292
 30
0.0
 10
80.28531423252382
 20
304.1629677922007
 30
0.0
 10
80.297722828
 20
304.181953125
 30
0.0
 11
79.8818359375
 21
303.864453125
 31
0.0
 11
79.91584963039466
 21
303.8665487965098
 31
0.0
 11
79.9494313849936
 21
303.8726493693349
 31
0.0
 11
79.98210746705215
 21
303.8824521233095
 31
0.0
 11
80.01360687151313
 21
303.8955250094643
 31
0.0
 11
80.07242618582887
 21
303.9296234662833
 31
0.0
 11
80.1259900775379
 21
303.9718402167288
 31
0.0
 11
80.17463139034048
 21
304.0194849454298
 31
0.0
 11
80.2190065929523
 21
304.0710335271712
 31
0.0
 11
80.25987772861826
 21
304.1254242676614
 31
0.0
 11
80.297722828
 21
304.181953125
 31
0.0
  0
SPLINE
  5
13B
330
1F
100
AcDbEntity
  8
VERERBUNG
  6
Continuous
 62
     7
100
AcDbSpline
210
0.0
220
0.0
230
1.0
 70
     8
 71
     3
 72
     9
 73
     5
 74
     3
 42
0.0000000001
 43
0.0000000001
 44
0.00000001
 40
0.0
 40
0.0
 40
0.0
 40
0.0
 40
0.0774000575071814
 40
0.1547963632185025
 40
0.1547963632185025
 40
0.1547963632185025
 40
0.1547963632185025
 10
29.5835376145
 20
305.3122428052
 30
0.0
 10
29.59885757882219
 20
305.3330074579067
 30
0.0
 10
29.62949676486534
 20
305.3745357567997
 30
0.0
 10
29.6621730175463
 20
305.4144809916504
 30
0.0
 10
29.6785107479
 20
305.434453125
 30
0.0
 11
29.5835376145
 21
305.3122428052
 31
0.0
 11
29.6300067988125
 21
305.374140978125
 31
0.0
 11
29.6785107479
 21
305.434453125
 31
0.0
  0
SPLINE
  5
13C
330
1F
100
AcDbEntity
  8
0
  6
Continuous
 62
     7
100
AcDbSpline
210
0.0
220
0.0
230
1.0
 70
     8
 71
     3
 72
    17
 73
    13
 74
    11
 42
0.0000000001
 43
0.0000000001
 44
0.00000001
 40
0.0
 40
0.0
 40
0.0
 40
0.0
 40
0.068040584339167
 40
0.1360892263692638
 40
0.2041088006998486
 40
0.272196698871245
 40
0.3403905143053882
 40
0.4083768376638477
 40
0.4424735707387939
 40
0.4765783279569346
 40
0.5107080466076638
 40
0.5447863433303802
 40
0.5447863433303802
 40
0.5447863433303802
 40
0.5447863433303802
 10
80.297722828
 20
288.146953125
 30
0.0
 10
80.28531205582341
 20
288.1659421783382
 30
0.0
 10
80.26048904172728
 20
288.2039225337888
 30
0.0
 10
80.21954245038688
 20
288.258322805044
 30
0.0
 10
80.17531904664057
 20
288.310119909048
 30
0.0
 10
80.12673438490742
 20
288.3579874383103
 30
0.0
 10
80.07339181060624
 20
288.4005510178588
 30
0.0
 10
80.02424209012835
 20
288.4294859505616
 30
0.0
 10
79.98229218963391
 20
288.4470241554554
 30
0.0
 10
79.94957668140766
 20
288.4568526120599
 30
0.0
 10
79.91594995833555
 20
288.46321925188
 30
0.0
 10
79.89320156111685
 20
288.4640420407264
 30
0.0
 10
79.8818359375
 20
288.464453125
 30
0.0
 11
80.297722828
 21
288.146953125
 31
0.0
 11
80.25987106928291
 21
288.2034930708722
 31
0.0
 11
80.21899197647008
 21
288.2578945180308
 31
0.0
 11
80.17461343006865
 21
288.3094426228593
 31
0.0
 11
80.12596590384962
 21
288.3570806336297
 31
0.0
 11
80.07239833427253
 21
288.3992814861456
 31
0.0
 11
80.01358233161557
 21
288.4333816033779
 31
0.0
 11
79.9820956895369
 21
288.4464651264889
 31
0.0
 11
79.94943186381077
 21
288.456273742795
 31
0.0
 11
79.9158502464611
 21
288.4623657598139
 31
0.0
 11
79.8818359375
 21
288.464453125
 31
0.0
  0
SPLINE
  5
13D
330
1F
100
AcDbEntity
  8
VERERBUNG
  6
Continuous
 62
     7
100
AcDbSpline
210
0.0
220
0.0
230
1.0
 70
     8
 71
     3
 72
    43
 73
    39
 74
    37
 42
0.0000000001
 43
0.0000000001
 44
0.00000001
 40
0.0
 40
0.0
 40
0.0
 40
0.0
 40
0.4175881290591886
 40
0.8356316531850965
 40
1.253282832062903
 40
1.670787328088689
 40
2.088079154553677
 40
2.505458237154839
 40
2.922766757528013
 40
3.339867556074189
 40
3.548612845985982
 40
3.757291312425366
 40
3.966036487540852
 40
4.174848410724078
 40
4.592416990903568
 40
5.010187344198989
 40
5.428059866903648
 40
5.84588099084381
 40
6.26348487719124
 40
6.681103578799001
 40
7.097989619752962
 40
7.51485805124963
 40
7.930683045133168
 40
8.346557961730461
 40
8.7616084570151
 40
9.176458234565404
 40
9.383846863122804
 40
9.59116942462064
 40
9.79849292081353
 40
10.00588294525242
 40
10.42072923639338
 40
10.83577763649862
 40
11.25173036424975
 40
11.66760664537982
 40
12.08452417584538
 40
12.501575116143
 40
12.91952009631732
 40
13.33702821005465
 40
13.33702821005465
 40
13.33702821005465
 40
13.33702821005465
 10
47.7574622272
 20
296.164453125
 30
0.0
 10
47.76138310663687
 20
296.3037084035838
 30
0.0
 10
47.76922914137246
 20
296.5823708237052
 30
0.0
 10
47.83338074148982
 20
296.9962228824994
 30
0.0
 10
47.93479119805904
 20
297.4019901945261
 30
0.0
 10
48.07623849104723
 20
297.795563427803
 30
0.0
 10
48.25561853146122
 20
298.1731715704315
 30
0.0
 10
48.47128582635232
 20
298.5312569100687
 30
0.0
 10
48.72120593419159
 20
298.8662165956233
 30
0.0
 10
48.95587595914517
 20
299.1236340837079
 30
0.0
 10
49.15804434446126
 20
299.3148436644324
 30
0.0
 10
49.3166279005674
 20
299.4506849993235
 30
0.0
 10
49.48170938611419
 20
299.5785871322421
 30
0.0
 10
49.70995992778813
 20
299.738106501351
 30
0.0
 10
50.00971905581517
 20
299.9161736249275
 30
0.0
 10
50.38857178907336
 20
300.0937153022817
 30
0.0
 10
50.78311430258003
 20
300.2332669369309
 30
0.0
 10
51.18932720465697
 20
300.3336460662572
 30
0.0
 10
51.60332332974522
 20
300.3938159992603
 30
0.0
 10
52.02089887389094
 20
300.4133995783184
 30
0.0
 10
52.43814219145271
 20
300.3920910444268
 30
0.0
 10
52.85074306697967
 20
300.3303777911024
 30
0.0
 10
53.2550049302149
 20
300.2287083016665
 30
0.0
 10
53.64687024456097
 20
300.0883209376756
 30
0.0
 10
54.02277559223164
 20
299.9103537647419
 30
0.0
 10
54.31989190248989
 20
299.7323319466307
 30
0.0
 10
54.54603482104904
 20
299.5730398178405
 30
0.0
 10
54.70955046307436
 20
299.4454067209397
 30
0.0
 10
54.86661481299694
 20
299.3099129426207
 30
0.0
 10
55.06694477896782
 20
299.1191721230543
 30
0.0
 10
55.29950567003601
 20
298.8624918692285
 30
0.0
 10
55.54732501212028
 20
298.5284469610232
 30
0.0
 10
55.76122482722246
 20
298.1712908120495
 30
0.0
 10
55.93932519927296
 20
297.7943517260837
 30
0.0
 10
56.07987960979565
 20
297.4013894499894
 30
0.0
 10
56.18072904028389
 20
296.9959247315041
 30
0.0
 10
56.24441372723994
 20
296.5822766042033
 30
0.0
 10
56.25227904523005
 20
296.3036790576245
 30
0.0
 10
56.2562096478
 20
296.164453125
 30
0.0
 11
47.7574622272
 21
296.164453125
 31
0.0
 11
47.77794718021735
 21
296.581538502628
 31
0.0
 11
47.83961888084809
 21
296.9950079566447
 31
0.0
 11
47.94148988633618
 21
297.400044751836
 31
0.0
 11
48.08259307610187
 21
297.7929822710929
 31
0.0
 11
48.26165745121296
 21
298.1699019150497
 31
0.0
 11
48.47701434373181
 21
298.5274305257057
 31
0.0
 11
48.7265300606515
 21
298.8619276231312
 31
0.0
 11
49.00755537082616
 21
299.1701448374284
 31
0.0
 11
49.15920925979052
 21
299.3135871394956
 31
0.0
 11
49.31769066374848
 21
299.4493455534338
 31
0.0
 11
49.48270441428068
 21
299.5771931590793
 31
0.0
 11
49.65386268302406
 21
299.6968061445961
 31
0.0
 11
50.01283835060215
 21
299.9101134094512
 31
0.0
 11
50.39114250621189
 21
300.0873647393221
 31
0.0
 11
50.78508489771954
 21
300.2267449294669
 31
0.0
 11
51.19070930977212
 21
300.326961335098
 31
0.0
 11
51.60396684782728
 21
300.3870547052236
 31
0.0
 11
52.02112869240801
 21
300.4065835392532
 31
0.0
 11
52.43747340533729
 21
300.3853455742353
 31
0.0
 11
52.84974955906011
 21
300.3236393164488
 31
0.0
 11
53.25301975119459
 21
300.2222313400659
 31
0.0
 11
53.64451399436071
 21
300.0819309344265
 31
0.0
 11
54.01965845156231
 21
299.9043540500442
 31
0.0
 11
54.37549101831713
 21
299.6910853876246
 31
0.0
 11
54.54504338070887
 21
299.5716616058126
 31
0.0
 11
54.70847506152064
 21
299.4440969938974
 31
0.0
 11
54.86545678788304
 21
299.3086725881873
 31
0.0
 11
55.01565128935513
 21
299.1656612810668
 31
0.0
 11
55.2942168752669
 21
298.8582549382256
 31
0.0
 11
55.54147180696522
 21
298.524893013014
 31
0.0
 11
55.75522165639514
 21
298.1680629784145
 31
0.0
 11
55.93291191096634
 21
297.7920586504646
 31
0.0
 11
56.07321557269843
 21
297.3994582050827
 31
0.0
 11
56.17446829096507
 21
296.9948851290548
 31
0.0
 11
56.2357733774319
 21
296.5814607794741
 31
0.0
 11
56.2562096478
 21
296.164453125
 31
0.0
  0
SPLINE
  5
13E
330
1F
100
AcDbEntity
  8
VERERBUNG
  6
Continuous
 62
     7
100
AcDbSpline
210
0.0
220
0.0
230
1.0
 70
     8
 71
     3
 72
    11
 73
     7
 74
     5
 42
0.0000000001
 43
0.0000000001
 44
0.00000001
 40
0.0
 40
0.0
 40
0.0
 40
0.0
 40
0.4891002096563284
 40
0.9783817006614715
 40
1.283670603030347
 40
1.588797102977597
 40
1.588797102977597
 40
1.588797102977597
 40
1.588797102977597
 10
30.0068359375
 20
303.7943348049
 30
0.0
 10
29.9960651798765
 20
303.9574879982023
 30
0.0
 10
29.97451967252843
 20
304.2838548563226
 30
0.0
 10
29.8510061425285
 20
304.6964737588098
 30
0.0
 10
29.71822573911597
 20
305.0381889631636
 30
0.0
 10
29.62842569220232
 20
305.2209077287705
 30
0.0
 10
29.5835376145
 20
305.3122428052
 30
0.0
 11
30.0068359375
 21
303.7943348049
 31
0.0
 11
29.95638203355371
 21
304.280825728415
 31
0.0
 11
29.82591379993019
 21
304.7523916489981
 31
0.0
 11
29.71417978218959
 21
305.0364987118971
 31
0.0
 11
29.5835376145
 21
305.3122428052
 31
0.0
  0
SPLINE
  5
13F
330
1F
100
AcDbEntity
  8
VERERBUNG
  6
Continuous
 62
     7
100
AcDbSpline
210
0.0
220
0.0
230
1.0
 70
     8
 71
     3
 72
    11
 73
     7
 74
     5
 42
0.0000000001
 43
0.0000000001
 44
0.00000001
 40
0.0
 40
0.0
 40
0.0
 40
0.0
 40
0.5427795451555247
 40
1.085508812756485
 40
1.337448492043656
 40
1.589025708805515
 40
1.589025708805515
 40
1.589025708805515
 40
1.589025708805515
 10
29.5835376145
 20
287.0166634448
 30
0.0
 10
29.66126795198623
 20
287.1802838017713
 30
0.0
 10
29.81672142681395
 20
287.507509359595
 30
0.0
 10
29.94064294891319
 20
287.9381222559445
 30
0.0
 10
29.99819731439651
 20
288.2827552819911
 30
0.0
 10
30.00395777871137
 20
288.4506730165786
 30
0.0
 10
30.0068359375
 20
288.5345714451
 30
0.0
 11
29.5835376145
 21
287.0166634448
 31
0.0
 11
29.80300848923754
 21
287.5130928655449
 31
0.0
 11
29.95363253237914
 21
288.0345019712751
 31
0.0
 11
29.99272481068661
 21
288.2833902911619
 31
0.0
 11
30.0068359375
 21
288.5345714451
 31
0.0
  0
DIMENSION
  5
14A
330
1F
100
AcDbEntity
  8
1
100
AcDbDimension
  2
*D2
 10
232.946930169783
 20
312.164453125
 30
0.0
 11
229.196930169783
 21
295.671884985237
 31
0.0
 70
    32
  1
<>
 71
     5
 42
-1.0
 53
90.0
  3
ME10_DIM_10
100
AcDbAlignedDimension
 13
208.0068359375
 23
280.164453125
 33
0.0
 14
208.0068359375
 24
312.164453125
 34
0.0
 50
90.0
100
AcDbRotatedDimension
  0
DIMENSION
  5
155
330
1F
100
AcDbEntity
  8
1
100
AcDbDimension
  2
*D3
 10
241.011129497587
 20
321.164453125
 30
0.0
 11
237.261129497587
 21
296.567907132771
 31
0.0
 70
    32
  1
<>
 71
     5
 42
-1.0
 53
90.0
  3
ME10_DIM_11
100
AcDbAlignedDimension
 13
216.388033784
 23
271.164453125
 33
0.0
 14
216.388033784
 24
321.164453125
 34
0.0
 50
90.0
100
AcDbRotatedDimension
  0
DIMENSION
  5
160
330
1F
100
AcDbEntity
  8
1
100
AcDbDimension
  2
*D4
 10
208.0068359375
 20
336.319666306106
 30
0.0
 11
148.299821012109
 21
340.069666306106
 31
0.0
 70
    32
  1
<>
 71
     5
 42
-1.0
 53
0.00013888888889
  3
ME10_DIM_12
100
AcDbAlignedDimension
 13
87.0068359375
 23
327.6644042195
 33
0.0
 14
208.0068359375
 24
316.164453125
 34
0.0
100
AcDbRotatedDimension
  0
DIMENSION
  5
16B
330
1F
100
AcDbEntity
  8
1
100
AcDbDimension
  2
*D5
 10
208.0068359375
 20
343.851332121075
 30
0.0
 11
134.974566108703
 21
347.601332121075
 31
0.0
 70
    32
  1
<>
 71
     5
 42
-1.0
 53
0.00013888888889
  3
ME10_DIM_13
100
AcDbAlignedDimension
 13
61.0068359375
 23
327.664453125
 33
0.0
 14
208.0068359375
 24
316.164453125
 34
0.0
100
AcDbRotatedDimension
  0
DIMENSION
  5
176
330
1F
100
AcDbEntity
  8
1
100
AcDbDimension
  2
*D6
 10
61.0068359375
 20
351.093318481622
 30
0.0
 11
142.506231923671
 21
354.843318481622
 31
0.0
 70
    32
  1
<>
 71
     5
 42
-1.0
 53
0.00013888888889
  3
ME10_DIM_14
100
AcDbAlignedDimension
 13
221.0068359375
 23
314.414453125
 33
0.0
 14
61.0068359375
 24
327.664453125
 34
0.0
100
AcDbRotatedDimension
  0
DIMENSION
  5
181
330
1F
100
AcDbEntity
  8
1
100
AcDbDimension
  2
*D7
 10
208.0068359375
 20
358.335304842169
 30
0.0
 11
122.808029022984
 21
362.085304842169
 31
0.0
 70
    32
  1
<>
 71
     5
 42
-1.0
 53
0.00013888888889
  3
ME10_DIM_15
100
AcDbAlignedDimension
 13
29.0068359375
 23
317.7404803051
 33
0.0
 14
208.0068359375
 24
316.164453125
 34
0.0
100
AcDbRotatedDimension
  0
INSERT
  5
188
330
1F
100
AcDbEntity
  8
1
100
AcDbBlockReference
  2
*D8
 10
0.0
 20
0.0
 30
0.0
  0
ENDSEC
  0
SECTION
  2
OBJECTS
  0
DICTIONARY
  5
C
330
0
100
AcDbDictionary
281
     1
  3
ACAD_GROUP
350
D
  3
ACAD_LAYOUT
350
1A
  3
ACAD_MLEADERSTYLE
350
18B
  3
ACAD_MLINESTYLE
350
17
  3
ACAD_PLOTSETTINGS
350
19
  3
ACAD_PLOTSTYLENAME
350
E
  3
ACAD_SCALELIST
350
4C
  3
ACAD_VISUALSTYLE
350
2A
  3
AcDbVariableDictionary
350
189
  0
DICTIONARY
  5
D
102
{ACAD_REACTORS
330
C
102
}
330
C
100
AcDbDictionary
281
     1
  0
DICTIONARY
  5
1A
102
{ACAD_REACTORS
330
C
102
}
330
C
100
AcDbDictionary
281
     1
  3
Layout1
350
1E
  3
Layout2
350
26
  3
Model
350
22
  0
DICTIONARY
  5
18B
102
{ACAD_REACTORS
330
C
102
}
330
C
100
AcDbDictionary
281
     1
  0
DICTIONARY
  5
17
102
{ACAD_REACTORS
330
C
102
}
330
C
100
AcDbDictionary
281
     1
  3
Standard
350
18
  0
DICTIONARY
  5
19
102
{ACAD_REACTORS
330
C
102
}
330
C
100
AcDbDictionary
281
     1
  0
ACDBDICTIONARYWDFLT
  5
E
102
{ACAD_REACTORS
330
C
102
}
330
C
100
AcDbDictionary
281
     1
  3
Normal
350
F
100
AcDbDictionaryWithDefault
340
F
  0
DICTIONARY
  5
4C
102
{ACAD_REACTORS
330
C
102
}
330
C
100
AcDbDictionary
281
     1
  3
A0
350
4D
  3
A1
350
4E
  3
A2
350
4F
  3
A3
350
50
  3
A4
350
51
  3
A5
350
52
  3
A6
350
53
  3
A7
350
54
  3
A8
350
55
  3
A9
350
56
  3
B0
350
57
  3
B1
350
58
  3
B2
350
59
  3
B3
350
5A
  3
B4
350
5B
  3
B5
350
5C
  3
B6
350
5D
  3
B7
350
5E
  3
B8
350
5F
  3
B9
350
60
  3
C0
350
61
  3
C1
350
62
  3
C2
350
63
  3
C3
350
64
  3
C4
350
65
  3
C5
350
66
  3
C6
350
67
  3
C7
350
68
  3
C8
350
69
  3
C9
350
6A
  3
D0
350
6B
  3
D1
350
6C
  3
D2
350
6D
  0
DICTIONARY
  5
2A
102
{ACAD_REACTORS
330
C
102
}
330
C
100
AcDbDictionary
281
     1
  3
2dWireframe
350
2F
  3
3D Hidden
350
31
  3
3dWireframe
350
30
  3
Basic
350
32
  3
Brighten
350
36
  3
ColorChange
350
3A
  3
Conceptual
350
34
  3
Dim
350
35
  3
Facepattern
350
39
  3
Flat
350
2B
  3
FlatWithEdges
350
2C
  3
Gouraud
350
2D
  3
GouraudWithEdges
350
2E
  3
Linepattern
350
38
  3
Realistic
350
33
  3
Thicken
350
37
  0
DICTIONARY
  5
189
102
{ACAD_REACTORS
330
C
102
}
330
C
100
AcDbDictionary
281
     1
  3
CANNOSCALE
350
18C
  0
LAYOUT
  5
1E
102
{ACAD_REACTORS
330
1A
102
}
330
1A
100
AcDbPlotSettings
  1

  2
none_device
  4

  6

 40
0.0
 41
0.0
 42
0.0
 43
0.0
 44
0.0
 45
0.0
 46
0.0
 47
0.0
 48
0.0
 49
0.0
140
0.0
141
0.0
142
1.0
143
1.0
 70
   688
 72
     0
 73
     0
 74
     5
  7

 75
    16
147
1.0
148
0.0
149
0.0
100
AcDbLayout
  1
Layout1
 70
     1
 71
     1
 10
0.0
 20
0.0
 11
12.0
 21
9.0
 12
0.0
 22
0.0
 32
0.0
 14
1.00000000000000E+20
 24
1.00000000000000E+20
 34
1.00000000000000E+20
 15
-1.00000000000000E+20
 25
-1.00000000000000E+20
 35
-1.00000000000000E+20
146
0.0
 13
0.0
 23
0.0
 33
0.0
 16
1.0
 26
0.0
 36
0.0
 17
0.0
 27
1.0
 37
0.0
 76
     0
330
1B
  0
LAYOUT
  5
26
102
{ACAD_REACTORS
330
1A
102
}
330
1A
100
AcDbPlotSettings
  1

  2
none_device
  4

  6

 40
0.0
 41
0.0
 42
0.0
 43
0.0
 44
0.0
 45
0.0
 46
0.0
 47
0.0
 48
0.0
 49
0.0
140
0.0
141
0.0
142
1.0
143
1.0
 70
   688
 72
     0
 73
     0
 74
     5
  7

 75
    16
147
1.0
148
0.0
149
0.0
100
AcDbLayout
  1
Layout2
 70
     1
 71
     2
 10
0.0
 20
0.0
 11
0.0
 21
0.0
 12
0.0
 22
0.0
 32
0.0
 14
0.0
 24
0.0
 34
0.0
 15
0.0
 25
0.0
 35
0.0
146
0.0
 13
0.0
 23
0.0
 33
0.0
 16
1.0
 26
0.0
 36
0.0
 17
0.0
 27
1.0
 37
0.0
 76
     0
330
23
  0
LAYOUT
  5
22
102
{ACAD_REACTORS
330
1A
102
}
330
1A
100
AcDbPlotSettings
  1

  2
none_device
  4

  6

 40
0.0
 41
0.0
 42
0.0
 43
0.0
 44
0.0
 45
0.0
 46
0.0
 47
0.0
 48
0.0
 49
0.0
140
0.0
141
0.0
142
1.0
143
1.0
 70
  1712
 72
     0
 73
     0
 74
     0
  7

 75
     0
147
1.0
148
0.0
149
0.0
100
AcDbLayout
  1
Model
 70
     1
 71
     0
 10
0.0
 20
0.0
 11
12.0
 21
9.0
 12
0.0
 22
0.0
 32
0.0
 14
8.7237775202263
 24
258.0146408527378
 34
0.0
 15
243.011129497587
 25
366.784027770044
 35
0.0
146
0.0
 13
0.0
 23
0.0
 33
0.0
 16
1.0
 26
0.0
 36
0.0
 17
0.0
 27
1.0
 37
0.0
 76
     0
330
1F
331
29
  0
MLINESTYLE
  5
18
102
{ACAD_REACTORS
330
17
102
}
330
17
100
AcDbMlineStyle
  2
Standard
 70
     0
  3

 62
   256
 51
90.0
 52
90.0
 71
     2
 49
0.5
 62
   256
  6
BYLAYER
 49
-0.5
 62
   256
  6
BYLAYER
  0
ACDBPLACEHOLDER
  5
F
102
{ACAD_REACTORS
330
E
102
}
330
E
  0
SCALE
  5
4D
102
{ACAD_REACTORS
330
4C
102
}
330
4C
100
AcDbScale
 70
     0
300
1:1
140
1.0
141
1.0
290
     1
  0
SCALE
  5
4E
102
{ACAD_REACTORS
330
4C
102
}
330
4C
100
AcDbScale
 70
     0
300
1:2
140
1.0
141
2.0
290
     0
  0
SCALE
  5
4F
102
{ACAD_REACTORS
330
4C
102
}
330
4C
100
AcDbScale
 70
     0
300
1:4
140
1.0
141
4.0
290
     0
  0
SCALE
  5
50
102
{ACAD_REACTORS
330
4C
102
}
330
4C
100
AcDbScale
 70
     0
300
1:5
140
1.0
141
5.0
290
     0
  0
SCALE
  5
51
102
{ACAD_REACTORS
330
4C
102
}
330
4C
100
AcDbScale
 70
     0
300
1:8
140
1.0
141
8.0
290
     0
  0
SCALE
  5
52
102
{ACAD_REACTORS
330
4C
102
}
330
4C
100
AcDbScale
 70
     0
300
1:10
140
1.0
141
10.0
290
     0
  0
SCALE
  5
53
102
{ACAD_REACTORS
330
4C
102
}
330
4C
100
AcDbScale
 70
     0
300
1:16
140
1.0
141
16.0
290
     0
  0
SCALE
  5
54
102
{ACAD_REACTORS
330
4C
102
}
330
4C
100
AcDbScale
 70
     0
300
1:20
140
1.0
141
20.0
290
     0
  0
SCALE
  5
55
102
{ACAD_REACTORS
330
4C
102
}
330
4C
100
AcDbScale
 70
     0
300
1:30
140
1.0
141
30.0
290
     0
  0
SCALE
  5
56
102
{ACAD_REACTORS
330
4C
102
}
330
4C
100
AcDbScale
 70
     0
300
1:40
140
1.0
141
40.0
290
     0
  0
SCALE
  5
57
102
{ACAD_REACTORS
330
4C
102
}
330
4C
100
AcDbScale
 70
     0
300
1:50
140
1.0
141
50.0
290
     0
  0
SCALE
  5
58
102
{ACAD_REACTORS
330
4C
102
}
330
4C
100
AcDbScale
 70
     0
300
1:100
140
1.0
141
100.0
290
     0
  0
SCALE
  5
59
102
{ACAD_REACTORS
330
4C
102
}
330
4C
100
AcDbScale
 70
     0
300
2:1
140
2.0
141
1.0
290
     0
  0
SCALE
  5
5A
102
{ACAD_REACTORS
330
4C
102
}
330
4C
100
AcDbScale
 70
     0
300
4:1
140
4.0
141
1.0
290
     0
  0
SCALE
  5
5B
102
{ACAD_REACTORS
330
4C
102
}
330
4C
100
AcDbScale
 70
     0
300
8:1
140
8.0
141
1.0
290
     0
  0
SCALE
  5
5C
102
{ACAD_REACTORS
330
4C
102
}
330
4C
100
AcDbScale
 70
     0
300
10:1
140
10.0
141
1.0
290
     0
  0
SCALE
  5
5D
102
{ACAD_REACTORS
330
4C
102
}
330
4C
100
AcDbScale
 70
     0
300
100:1
140
100.0
141
1.0
290
     0
  0
SCALE
  5
5E
102
{ACAD_REACTORS
330
4C
102
}
330
4C
100
AcDbScale
 70
     0
300
1/128" = 1'-0"
140
0.0078125
141
12.0
290
     0
  0
SCALE
  5
5F
102
{ACAD_REACTORS
330
4C
102
}
330
4C
100
AcDbScale
 70
     0
300
1/64" = 1'-0"
140
0.015625
141
12.0
290
     0
  0
SCALE
  5
60
102
{ACAD_REACTORS
330
4C
102
}
330
4C
100
AcDbScale
 70
     0
300
1/32" = 1'-0"
140
0.03125
141
12.0
290
     0
  0
SCALE
  5
61
102
{ACAD_REACTORS
330
4C
102
}
330
4C
100
AcDbScale
 70
     0
300
1/16" = 1'-0"
140
0.0625
141
12.0
290
     0
  0
SCALE
  5
62
102
{ACAD_REACTORS
330
4C
102
}
330
4C
100
AcDbScale
 70
     0
300
3/32" = 1'-0"
140
0.09375
141
12.0
290
     0
  0
SCALE
  5
63
102
{ACAD_REACTORS
330
4C
102
}
330
4C
100
AcDbScale
 70
     0
300
1/8" = 1'-0"
140
0.125
141
12.0
290
     0
  0
SCALE
  5
64
102
{ACAD_REACTORS
330
4C
102
}
330
4C
100
AcDbScale
 70
     0
300
3/16" = 1'-0"
140
0.1875
141
12.0
290
     0
  0
SCALE
  5
65
102
{ACAD_REACTORS
330
4C
102
}
330
4C
100
AcDbScale
 70
     0
300
1/4" = 1'-0"
140
0.25
141
12.0
290
     0
  0
SCALE
  5
66
102
{ACAD_REACTORS
330
4C
102
}
330
4C
100
AcDbScale
 70
     0
300
3/8" = 1'-0"
140
0.375
141
12.0
290
     0
  0
SCALE
  5
67
102
{ACAD_REACTORS
330
4C
102
}
330
4C
100
AcDbScale
 70
     0
300
1/2" = 1'-0"
140
0.5
141
12.0
290
     0
  0
SCALE
  5
68
102
{ACAD_REACTORS
330
4C
102
}
330
4C
100
AcDbScale
 70
     0
300
3/4" = 1'-0"
140
0.75
141
12.0
290
     0
  0
SCALE
  5
69
102
{ACAD_REACTORS
330
4C
102
}
330
4C
100
AcDbScale
 70
     0
300
1" = 1'-0"
140
1.0
141
12.0
290
     0
  0
SCALE
  5
6A
102
{ACAD_REACTORS
330
4C
102
}
330
4C
100
AcDbScale
 70
     0
300
1-1/2" = 1'-0"
140
1.5
141
12.0
290
     0
  0
SCALE
  5
6B
102
{ACAD_REACTORS
330
4C
102
}
330
4C
100
AcDbScale
 70
     0
300
3" = 1'-0"
140
3.0
141
12.0
290
     0
  0
SCALE
  5
6C
102
{ACAD_REACTORS
330
4C
102
}
330
4C
100
AcDbScale
 70
     0
300
6" = 1'-0"
140
6.0
141
12.0
290
     0
  0
SCALE
  5
6D
102
{ACAD_REACTORS
330
4C
102
}
330
4C
100
AcDbScale
 70
     0
300
1'-0" = 1'-0"
140
12.0
141
12.0
290
     0
  0
VISUALSTYLE
  5
2F
102
{ACAD_REACTORS
330
2A
102
}
330
2A
100
AcDbVisualStyle
  2
2dWireframe
 70
     4
 71
     0
 72
     2
 73
     0
 90
        0
 40
-0.6
 41
-30.0
 62
     5
 63
     7
 74
     1
 91
        4
 64
     7
 65
   257
 75
     1
175
     1
 42
1.0
 92
        0
 66
   257
 43
1.0
 76
     1
 77
     6
 78
     2
 67
     7
 79
     5
170
     0
171
     0
290
     0
174
     0
 93
        1
 44
0.0
173
     0
291
     0
 45
0.0
1001
ACAD
1000
AcDbSavedByObjectVersion
1070
     0
  0
VISUALSTYLE
  5
31
102
{ACAD_REACTORS
330
2A
102
}
330
2A
100
AcDbVisualStyle
  2
3D Hidden
 70
     6
 71
     1
 72
     2
 73
     2
 90
        0
 40
-0.6
 41
-30.0
 62
     5
 63
     7
 74
     2
 91
        2
 64
     7
 65
   257
 75
     2
175
     1
 42
40.0
 92
        0
 66
   257
 43
1.0
 76
     1
 77
     6
 78
     2
 67
     7
 79
     3
170
     0
171
     0
290
     0
174
     0
 93
        1
 44
0.0
173
     0
291
     0
 45
0.0
1001
ACAD
1000
AcDbSavedByObjectVersion
1070
     0
  0
VISUALSTYLE
  5
30
102
{ACAD_REACTORS
330
2A
102
}
330
2A
100
AcDbVisualStyle
  2
3dWireframe
 70
     5
 71
     0
 72
     2
 73
     0
 90
        0
 40
-0.6
 41
-30.0
 62
     5
 63
     7
 74
     1
 91
        4
 64
     7
 65
   257
 75
     1
175
     1
 42
1.0
 92
        0
 66
   257
 43
1.0
 76
     1
 77
     6
 78
     2
 67
     7
 79
     5
170
     0
171
     0
290
     0
174
     0
 93
        1
 44
0.0
173
     0
291
     0
 45
0.0
1001
ACAD
1000
AcDbSavedByObjectVersion
1070
     0
  0
VISUALSTYLE
  5
32
102
{ACAD_REACTORS
330
2A
102
}
330
2A
100
AcDbVisualStyle
  2
Basic
 70
     7
 71
     1
 72
     0
 73
     1
 90
        0
 40
-0.6
 41
-30.0
 62
     5
 63
     7
 74
     0
 91
        4
 64
     7
 65
   257
 75
     1
175
     1
 42
1.0
 92
        8
 66
     7
 43
1.0
 76
     1
 77
     6
 78
     2
 67
     7
 79
     5
170
     0
171
     0
290
     0
174
     0
 93
        1
 44
0.0
173
     0
291
     1
 45
0.0
1001
ACAD
1000
AcDbSavedByObjectVersion
1070
     0
  0
VISUALSTYLE
  5
36
102
{ACAD_REACTORS
330
2A
102
}
330
2A
100
AcDbVisualStyle
  2
Brighten
 70
    12
 71
     2
 72
     2
 73
     0
 90
        0
 40
-0.6
 41
-30.0
 62
     5
 63
     7
 74
     1
 91
        4
 64
     7
 65
   257
 75
     1
175
     1
 42
1.0
 92
        8
 66
     7
 43
1.0
 76
     1
 77
     6
 78
     2
 67
     7
 79
     5
170
     0
171
     0
290
     0
174
     0
 93
        1
 44
50.0
173
     0
291
     1
 45
0.0
1001
ACAD
1000
AcDbSavedByObjectVersion
1070
     0
  0
VISUALSTYLE
  5
3A
102
{ACAD_REACTORS
330
2A
102
}
330
2A
100
AcDbVisualStyle
  2
ColorChange
 70
    16
 71
     2
 72
     2
 73
     3
 90
        0
 40
-0.6
 41
-30.0
 62
     5
 63
     8
 74
     1
 91
        4
 64
     7
 65
   257
 75
     1
175
     1
 42
1.0
 92
        8
 66
     8
 43
1.0
 76
     1
 77
     6
 78
     2
 67
     7
 79
     5
170
     0
171
     0
290
     0
174
     0
 93
        1
 44
0.0
173
     0
291
     1
 45
0.0
1001
ACAD
1000
AcDbSavedByObjectVersion
1070
     0
  0
VISUALSTYLE
  5
34
102
{ACAD_REACTORS
330
2A
102
}
330
2A
100
AcDbVisualStyle
  2
Conceptual
 70
     9
 71
     3
 72
     2
 73
     0
 90
        0
 40
-0.6
 41
-30.0
 62
     5
 63
     7
 74
     2
 91
        2
 64
     7
 65
   257
 75
     1
175
     1
 42
40.0
 92
        8
 66
     7
 43
1.0
 76
     1
 77
     6
 78
     2
 67
     7
 79
     3
170
     0
171
     0
290
     0
174
     0
 93
        1
 44
0.0
173
     0
291
     0
 45
0.0
1001
ACAD
1000
AcDbSavedByObjectVersion
1070
     0
  0
VISUALSTYLE
  5
35
102
{ACAD_REACTORS
330
2A
102
}
330
2A
100
AcDbVisualStyle
  2
Dim
 70
    11
 71
     2
 72
     2
 73
     0
 90
        0
 40
-0.6
 41
-30.0
 62
     5
 63
     7
 74
     1
 91
        4
 64
     7
 65
   257
 75
     1
175
     1
 42
1.0
 92
        8
 66
     7
 43
1.0
 76
     1
 77
     6
 78
     2
 67
     7
 79
     5
170
     0
171
     0
290
     0
174
     0
 93
        1
 44
-50.0
173
     0
291
     1
 45
0.0
1001
ACAD
1000
AcDbSavedByObjectVersion
1070
     0
  0
VISUALSTYLE
  5
39
102
{ACAD_REACTORS
330
2A
102
}
330
2A
100
AcDbVisualStyle
  2
Facepattern
 70
    15
 71
     2
 72
     2
 73
     0
 90
        0
 40
-0.6
 41
-30.0
 62
     5
 63
     7
 74
     1
 91
        4
 64
     7
 65
   257
 75
     1
175
     1
 42
1.0
 92
        8
 66
     7
 43
1.0
 76
     1
 77
     6
 78
     2
 67
     7
 79
     5
170
     0
171
     0
290
     0
174
     0
 93
        1
 44
0.0
173
     0
291
     1
 45
0.0
1001
ACAD
1000
AcDbSavedByObjectVersion
1070
     0
  0
VISUALSTYLE
  5
2B
102
{ACAD_REACTORS
330
2A
102
}
330
2A
100
AcDbVisualStyle
  2
Flat
 70
     0
 71
     2
 72
     1
 73
     1
 90
        2
 40
-0.6
 41
30.0
 62
     5
 63
     7
 74
     0
 91
        4
 64
     7
 65
   257
 75
     1
175
     1
 42
1.0
 92
        8
 66
     7
 43
1.0
 76
     1
 77
     6
 78
     2
 67
     7
 79
     5
170
     0
171
     0
290
     0
174
     0
 93
       13
 44
0.0
173
     0
291
     1
 45
0.0
1001
ACAD
1000
AcDbSavedByObjectVersion
1070
     0
  0
VISUALSTYLE
  5
2C
102
{ACAD_REACTORS
330
2A
102
}
330
2A
100
AcDbVisualStyle
  2
FlatWithEdges
 70
     1
 71
     2
 72
     1
 73
     1
 90
        2
 40
-0.6
 41
30.0
 62
     5
 63
     7
 74
     1
 91
        4
 64
     7
 65
   257
 75
     1
175
     1
 42
1.0
 92
        0
 66
   257
 43
1.0
 76
     1
 77
     6
 78
     2
 67
     7
 79
     5
170
     0
171
     0
290
     0
174
     0
 93
       13
 44
0.0
173
     0
291
     1
 45
0.0
1001
ACAD
1000
AcDbSavedByObjectVersion
1070
     0
  0
VISUALSTYLE
  5
2D
102
{ACAD_REACTORS
330
2A
102
}
330
2A
100
AcDbVisualStyle
  2
Gouraud
 70
     2
 71
     2
 72
     2
 73
     1
 90
        2
 40
-0.6
 41
30.0
 62
     5
 63
     7
 74
     0
 91
        4
 64
     7
 65
   257
 75
     1
175
     1
 42
1.0
 92
        0
 66
     7
 43
1.0
 76
     1
 77
     6
 78
     2
 67
     7
 79
     5
170
     0
171
     0
290
     0
174
     0
 93
       13
 44
0.0
173
     0
291
     1
 45
0.0
1001
ACAD
1000
AcDbSavedByObjectVersion
1070
     0
  0
VISUALSTYLE
  5
2E
102
{ACAD_REACTORS
330
2A
102
}
330
2A
100
AcDbVisualStyle
  2
GouraudWithEdges
 70
     3
 71
     2
 72
     2
 73
     1
 90
        2
 40
-0.6
 41
30.0
 62
     5
 63
     7
 74
     1
 91
        4
 64
     7
 65
   257
 75
     1
175
     1
 42
1.0
 92
        0
 66
   257
 43
1.0
 76
     1
 77
     6
 78
     2
 67
     7
 79
     5
170
     0
171
     0
290
     0
174
     0
 93
       13
 44
0.0
173
     0
291
     1
 45
0.0
1001
ACAD
1000
AcDbSavedByObjectVersion
1070
     0
  0
VISUALSTYLE
  5
38
102
{ACAD_REACTORS
330
2A
102
}
330
2A
100
AcDbVisualStyle
  2
Linepattern
 70
    14
 71
     2
 72
     2
 73
     0
 90
        0
 40
-0.6
 41
-30.0
 62
     5
 63
     7
 74
     1
 91
        4
 64
     7
 65
   257
 75
     7
175
     7
 42
1.0
 92
        8
 66
     7
 43
1.0
 76
     1
 77
     6
 78
     2
 67
     7
 79
     5
170
     0
171
     0
290
     0
174
     0
 93
        1
 44
0.0
173
     0
291
     1
 45
0.0
1001
ACAD
1000
AcDbSavedByObjectVersion
1070
     0
  0
VISUALSTYLE
  5
33
102
{ACAD_REACTORS
330
2A
102
}
330
2A
100
AcDbVisualStyle
  2
Realistic
 70
     8
 71
     2
 72
     2
 73
     0
 90
        0
 40
-0.6
 41
-30.0
 62
     5
 63
     7
 74
     1
 91
        0
 64
     7
 65
   257
 75
     1
175
     1
 42
1.0
 92
        8
 66
     8
 43
1.0
 76
     1
 77
     6
 78
     2
 67
     7
 79
     5
170
     0
171
     0
290
     0
174
     0
 93
       13
 44
0.0
173
     0
291
     0
 45
0.0
1001
ACAD
1000
AcDbSavedByObjectVersion
1070
     0
  0
VISUALSTYLE
  5
37
102
{ACAD_REACTORS
330
2A
102
}
330
2A
100
AcDbVisualStyle
  2
Thicken
 70
    13
 71
     2
 72
     2
 73
     0
 90
        0
 40
-0.6
 41
-30.0
 62
     5
 63
     7
 74
     1
 91
        4
 64
     7
 65
   257
 75
     1
175
     1
 42
1.0
 92
       12
 66
     7
 43
1.0
 76
     1
 77
     6
 78
     2
 67
     7
 79
     5
170
     0
171
     0
290
     0
174
     0
 93
        1
 44
0.0
173
     0
291
     1
 45
0.0
1001
ACAD
1000
AcDbSavedByObjectVersion
1070
     0
  0
DICTIONARYVAR
  5
18C
102
{ACAD_REACTORS
330
189
102
}
330
189
100
DictionaryVariables
280
     0
  1
1:1
  0
ENDSEC
  0
EOF
