  0
SECTION
  2
HEADER
  9
$ACADVER
  1
AC1015
  9
$ACADMAINTVER
 70
     6
  9
$DWGCODEPAGE
  3
ANSI_1252
  9
$INSBASE
 10
0.0
 20
0.0
 30
0.0
  9
$EXTMIN
 10
23.7967218166178
 20
275.1614124853848
 30
0.0
  9
$EXTMAX
 10
259.838551460086
 20
383.930799402691
 30
0.0
  9
$LIMMIN
 10
0.0
 20
0.0
  9
$LIMMAX
 10
12.0
 20
9.0
  9
$ORTHOMODE
 70
     0
  9
$REGENMODE
 70
     1
  9
$FILLMODE
 70
     1
  9
$QTEXTMODE
 70
     0
  9
$MIRRTEXT
 70
     1
  9
$LTSCALE
 40
1.0
  9
$ATTMODE
 70
     1
  9
$TEXTSIZE
 40
0.2
  9
$TRACEWID
 40
0.05
  9
$TEXTSTYLE
  7
Standard
  9
$CLAYER
  8
0
  9
$CELTYPE
  6
ByLayer
  9
$CECOLOR
 62
   256
  9
$CELTSCALE
 40
1.0
  9
$DISPSILH
 70
     0
  9
$DIMSCALE
 40
1.0
  9
$DIMASZ
 40
0.18
  9
$DIMEXO
 40
0.0625
  9
$DIMDLI
 40
0.38
  9
$DIMRND
 40
0.0
  9
$DIMDLE
 40
0.0
  9
$DIMEXE
 40
0.18
  9
$DIMTP
 40
0.0
  9
$DIMTM
 40
0.0
  9
$DIMTXT
 40
0.18
  9
$DIMCEN
 40
0.09
  9
$DIMTSZ
 40
0.0
  9
$DIMTOL
 70
     0
  9
$DIMLIM
 70
     0
  9
$DIMTIH
 70
     1
  9
$DIMTOH
 70
     1
  9
$DIMSE1
 70
     0
  9
$DIMSE2
 70
     0
  9
$DIMTAD
 70
     0
  9
$DIMZIN
 70
     0
  9
$DIMBLK
  1

  9
$DIMASO
 70
     1
  9
$DIMSHO
 70
     1
  9
$DIMPOST
  1

  9
$DIMAPOST
  1

  9
$DIMALT
 70
     0
  9
$DIMALTD
 70
     2
  9
$DIMALTF
 40
25.4
  9
$DIMLFAC
 40
1.0
  9
$DIMTOFL
 70
     0
  9
$DIMTVP
 40
0.0
  9
$DIMTIX
 70
     0
  9
$DIMSOXD
 70
     0
  9
$DIMSAH
 70
     0
  9
$DIMBLK1
  1

  9
$DIMBLK2
  1

  9
$DIMSTYLE
  2
Standard
  9
$DIMCLRD
 70
     0
  9
$DIMCLRE
 70
     0
  9
$DIMCLRT
 70
     0
  9
$DIMTFAC
 40
1.0
  9
$DIMGAP
 40
0.09
  9
$DIMJUST
 70
     0
  9
$DIMSD1
 70
     0
  9
$DIMSD2
 70
     0
  9
$DIMTOLJ
 70
     1
  9
$DIMTZIN
 70
     0
  9
$DIMALTZ
 70
     0
  9
$DIMALTTZ
 70
     0
  9
$DIMUPT
 70
     0
  9
$DIMDEC
 70
     4
  9
$DIMTDEC
 70
     4
  9
$DIMALTU
 70
     2
  9
$DIMALTTD
 70
     2
  9
$DIMTXSTY
  7
Standard
  9
$DIMAUNIT
 70
     0
  9
$DIMADEC
 70
     0
  9
$DIMALTRND
 40
0.0
  9
$DIMAZIN
 70
     0
  9
$DIMDSEP
 70
    46
  9
$DIMATFIT
 70
     3
  9
$DIMFRAC
 70
     0
  9
$DIMLDRBLK
  1

  9
$DIMLUNIT
 70
     2
  9
$DIMLWD
 70
    -2
  9
$DIMLWE
 70
    -2
  9
$DIMTMOVE
 70
     0
  9
$LUNITS
 70
     2
  9
$LUPREC
 70
     4
  9
$SKETCHINC
 40
0.1
  9
$FILLETRAD
 40
0.5
  9
$AUNITS
 70
     0
  9
$AUPREC
 70
     0
  9
$MENU
  1
.
  9
$ELEVATION
 40
0.0
  9
$PELEVATION
 40
0.0
  9
$THICKNESS
 40
0.0
  9
$LIMCHECK
 70
     0
  9
$CHAMFERA
 40
0.5
  9
$CHAMFERB
 40
0.5
  9
$CHAMFERC
 40
1.0
  9
$CHAMFERD
 40
0.0
  9
$SKPOLY
 70
     0
  9
$TDCREATE
 40
2456749.751032453
  9
$TDUCREATE
 40
2456749.66769912
  9
$TDUPDATE
 40
2456749.751032465
  9
$TDUUPDATE
 40
2456749.667699132
  9
$TDINDWG
 40
0.0000000116
  9
$TDUSRTIMER
 40
0.0000000116
  9
$USRTIMER
 70
     1
  9
$ANGBASE
 50
0.0
  9
$ANGDIR
 70
     0
  9
$PDMODE
 70
     0
  9
$PDSIZE
 40
0.0
  9
$PLINEWID
 40
0.0
  9
$SPLFRAME
 70
     0
  9
$SPLINETYPE
 70
     6
  9
$SPLINESEGS
 70
     8
  9
$HANDSEED
  5
18D
  9
$SURFTAB1
 70
     6
  9
$SURFTAB2
 70
     6
  9
$SURFTYPE
 70
     6
  9
$SURFU
 70
     6
  9
$SURFV
 70
     6
  9
$UCSBASE
  2

  9
$UCSNAME
  2

  9
$UCSORG
 10
0.0
 20
0.0
 30
0.0
  9
$UCSXDIR
 10
1.0
 20
0.0
 30
0.0
  9
$UCSYDIR
 10
0.0
 20
1.0
 30
0.0
  9
$UCSORTHOREF
  2

  9
$UCSORTHOVIEW
 70
     0
  9
$UCSORGTOP
 10
0.0
 20
0.0
 30
0.0
  9
$UCSORGBOTTOM
 10
0.0
 20
0.0
 30
0.0
  9
$UCSORGLEFT
 10
0.0
 20
0.0
 30
0.0
  9
$UCSORGRIGHT
 10
0.0
 20
0.0
 30
0.0
  9
$UCSORGFRONT
 10
0.0
 20
0.0
 30
0.0
  9
$UCSORGBACK
 10
0.0
 20
0.0
 30
0.0
  9
$PUCSBASE
  2

  9
$PUCSNAME
  2

  9
$PUCSORG
 10
0.0
 20
0.0
 30
0.0
  9
$PUCSXDIR
 10
1.0
 20
0.0
 30
0.0
  9
$PUCSYDIR
 10
0.0
 20
1.0
 30
0.0
  9
$PUCSORTHOREF
  2

  9
$PUCSORTHOVIEW
 70
     0
  9
$PUCSORGTOP
 10
0.0
 20
0.0
 30
0.0
  9
$PUCSORGBOTTOM
 10
0.0
 20
0.0
 30
0.0
  9
$PUCSORGLEFT
 10
0.0
 20
0.0
 30
0.0
  9
$PUCSORGRIGHT
 10
0.0
 20
0.0
 30
0.0
  9
$PUCSORGFRONT
 10
0.0
 20
0.0
 30
0.0
  9
$PUCSORGBACK
 10
0.0
 20
0.0
 30
0.0
  9
$USERI1
 70
     0
  9
$USERI2
 70
     0
  9
$USERI3
 70
     0
  9
$USERI4
 70
     0
  9
$USERI5
 70
     0
  9
$USERR1
 40
16.5
  9
$USERR2
 40
0.0
  9
$USERR3
 40
0.0
  9
$USERR4
 40
0.0
  9
$USERR5
 40
0.0
  9
$WORLDVIEW
 70
     1
  9
$SHADEDGE
 70
     3
  9
$SHADEDIF
 70
    70
  9
$TILEMODE
 70
     1
  9
$MAXACTVP
 70
    64
  9
$PINSBASE
 10
0.0
 20
0.0
 30
0.0
  9
$PLIMCHECK
 70
     0
  9
$PEXTMIN
 10
1.00000000000000E+20
 20
1.00000000000000E+20
 30
1.00000000000000E+20
  9
$PEXTMAX
 10
-1.00000000000000E+20
 20
-1.00000000000000E+20
 30
-1.00000000000000E+20
  9
$PLIMMIN
 10
0.0
 20
0.0
  9
$PLIMMAX
 10
12.0
 20
9.0
  9
$UNITMODE
 70
     0
  9
$VISRETAIN
 70
     1
  9
$PLINEGEN
 70
     0
  9
$PSLTSCALE
 70
     1
  9
$TREEDEPTH
 70
  3020
  9
$CMLSTYLE
  2
Standard
  9
$CMLJUST
 70
     0
  9
$CMLSCALE
 40
1.0
  9
$PROXYGRAPHICS
 70
     1
  9
$MEASUREMENT
 70
     1
  9
$CELWEIGHT
370
    -1
  9
$ENDCAPS
280
     0
  9
$JOINSTYLE
280
     0
  9
$LWDISPLAY
290
     0
  9
$INSUNITS
 70
     1
  9
$HYPERLINKBASE
  1

  9
$STYLESHEET
  1

  9
$XEDIT
290
     1
  9
$CEPSNTYPE
380
     0
  9
$PSTYLEMODE
290
     1
  9
$FINGERPRINTGUID
  2
{BF90D620-59D9-48DA-8C92-A37D9AFF6DA9}
  9
$VERSIONGUID
  2
{FAEB1C32-E019-11D5-929B-00C0DF256EC4}
  9
$EXTNAMES
290
     1
  9
$PSVPSCALE
 40
0.0
  9
$OLESTARTUP
290
     0
  0
ENDSEC
  0
SECTION
  2
CLASSES
  0
CLASS
  1
ACDBDICTIONARYWDFLT
  2
AcDbDictionaryWithDefault
  3
ObjectDBX Classes
 90
        0
280
     0
281
     0
  0
CLASS
  1
VISUALSTYLE
  2
AcDbVisualStyle
  3
ObjectDBX Classes
 90
     4095
280
     0
281
     0
  0
CLASS
  1
SCALE
  2
AcDbScale
  3
ObjectDBX Classes
 90
     1153
280
     0
281
     0
  0
CLASS
  1

  2
exOdDbPolyline
  3

 90
        0
280
     0
281
     1
  0
CLASS
  1

  2
exOdDbCircle
  3

 90
        0
280
     0
281
     1
  0
CLASS
  1

  2
exOdDbSpline
  3

 90
        0
280
     0
281
     1
  0
CLASS
  1
DICTIONARYVAR
  2
AcDbDictionaryVar
  3
ObjectDBX Classes
 90
        0
280
     0
281
     0
  0
CLASS
  1
ACDBPLACEHOLDER
  2
AcDbPlaceHolder
  3
ObjectDBX Classes
 90
        0
280
     0
281
     0
  0
CLASS
  1
LAYOUT
  2
AcDbLayout
  3
ObjectDBX Classes
 90
        0
280
     0
281
     0
  0
ENDSEC
  0
SECTION
  2
TABLES
  0
TABLE
  2
VPORT
  5
8
330
0
100
AcDbSymbolTable
 70
     1
  0
VPORT
  5
29
330
8
100
AcDbSymbolTableRecord
100
AcDbViewportTableRecord
  2
*Active
 70
     0
 10
0.0
 20
0.0
 11
1.0
 21
1.0
 12
141.8176366383519
 22
329.5461059440379
 13
0.0
 23
0.0
 14
0.5
 24
0.5
 15
0.5
 25
0.5
 16
0.0
 26
0.0
 36
1.0
 17
0.0
 27
0.0
 37
0.0
 40
162.0075399001409
 41
1.60267857142857
 42
50.0
 43
0.0
 44
0.0
 50
0.0
 51
0.0
 71
     0
 72
   100
 73
     1
 74
     3
 75
     0
 76
     0
 77
     0
 78
     0
281
     0
 65
     1
110
0.0
120
0.0
130
0.0
111
1.0
121
0.0
131
0.0
112
0.0
122
1.0
132
0.0
 79
     0
146
0.0
  0
ENDTAB
  0
TABLE
  2
LTYPE
  5
5
330
0
100
AcDbSymbolTable
 70
     8
  0
LTYPE
  5
14
330
5
100
AcDbSymbolTableRecord
100
AcDbLinetypeTableRecord
  2
ByBlock
 70
     0
  3

 72
    65
 73
     0
 40
0.0
  0
LTYPE
  5
15
330
5
100
AcDbSymbolTableRecord
100
AcDbLinetypeTableRecord
  2
ByLayer
 70
     0
  3

 72
    65
 73
     0
 40
0.0
  0
LTYPE
  5
16
330
5
100
AcDbSymbolTableRecord
100
AcDbLinetypeTableRecord
  2
Continuous
 70
     0
  3
Solid line
 72
    65
 73
     0
 40
0.0
  0
LTYPE
  5
3B
330
5
100
AcDbSymbolTableRecord
100
AcDbLinetypeTableRecord
  2
DASHED
 70
     0
  3
Dashed
 72
    65
 73
     2
 40
15.0
 49
7.0
 74
     0
 49
-8.0
 74
     0
  0
LTYPE
  5
3C
330
5
100
AcDbSymbolTableRecord
100
AcDbLinetypeTableRecord
  2
DOTTED
 70
     0
  3
Dotted
 72
    65
 73
     2
 40
1.0
 49
0.0
 74
     0
 49
-1.0
 74
     0
  0
LTYPE
  5
3D
330
5
100
AcDbSymbolTableRecord
100
AcDbLinetypeTableRecord
  2
DOT_CENTER
 70
     0
  3
Dot_Center
 72
    65
 73
     4
 40
14.0
 49
12.0
 74
     0
 49
-1.0
 74
     0
 49
0.0
 74
     0
 49
-1.0
 74
     0
  0
LTYPE
  5
3E
330
5
100
AcDbSymbolTableRecord
100
AcDbLinetypeTableRecord
  2
LONG_DASHED
 70
     0
  3
Long_Dashed
 72
    65
 73
     2
 40
15.0
 49
10.0
 74
     0
 49
-5.0
 74
     0
  0
LTYPE
  5
3F
330
5
100
AcDbSymbolTableRecord
100
AcDbLinetypeTableRecord
  2
DASH_CENTER
 70
     0
  3
Dash_Center
 72
    65
 73
     4
 40
14.0
 49
11.0
 74
     0
 49
-1.0
 74
     0
 49
1.0
 74
     0
 49
-1.0
 74
     0
  0
LTYPE
  5
40
330
5
100
AcDbSymbolTableRecord
100
AcDbLinetypeTableRecord
  2
PHANTOM
 70
     0
  3
Phantom
 72
    65
 73
     6
 40
13.0
 49
10.0
 74
     0
 49
-1.0
 74
     0
 49
0.0
 74
     0
 49
-1.0
 74
     0
 49
0.0
 74
     0
 49
-1.0
 74
     0
  0
LTYPE
  5
41
330
5
100
AcDbSymbolTableRecord
100
AcDbLinetypeTableRecord
  2
CENTER_DASH_DASH
 70
     0
  3
Center_Dash_Dash
 72
    65
 73
     6
 40
14.0
 49
9.0
 74
     0
 49
-1.0
 74
     0
 49
1.0
 74
     0
 49
-1.0
 74
     0
 49
1.0
 74
     0
 49
-1.0
 74
     0
  0
ENDTAB
  0
TABLE
  2
LAYER
  5
2
330
0
100
AcDbSymbolTable
 70
     8
  0
LAYER
  5
10
330
2
100
AcDbSymbolTableRecord
100
AcDbLayerTableRecord
  2
0
 70
     0
 62
     7
  6
Continuous
370
    -3
390
F
  0
LAYER
  5
42
330
2
100
AcDbSymbolTableRecord
100
AcDbLayerTableRecord
  2
1
 70
     0
 62
     7
  6
Continuous
370
    -3
390
F
  0
LAYER
  5
43
330
2
100
AcDbSymbolTableRecord
100
AcDbLayerTableRecord
  2
BEZUGSACHSEN
 70
     0
 62
     7
  6
Continuous
370
    -3
390
F
  0
LAYER
  5
44
330
2
100
AcDbSymbolTableRecord
100
AcDbLayerTableRecord
  2
BG_STARTBEZUEGE
 70
     0
 62
     7
  6
Continuous
370
    -3
390
F
  0
LAYER
  5
45
330
2
100
AcDbSymbolTableRecord
100
AcDbLayerTableRecord
  2
DEFAULT_2
 70
     0
 62
     7
  6
Continuous
370
    -3
390
F
  0
LAYER
  5
46
330
2
100
AcDbSymbolTableRecord
100
AcDbLayerTableRecord
  2
FASEN
 70
     0
 62
     7
  6
Continuous
370
    -3
390
F
  0
LAYER
  5
47
330
2
100
AcDbSymbolTableRecord
100
AcDbLayerTableRecord
  2
RUNDUNGEN
 70
     0
 62
     7
  6
Continuous
370
    -3
390
F
  0
LAYER
  5
48
330
2
100
AcDbSymbolTableRecord
100
AcDbLayerTableRecord
  2
VERERBUNG
 70
     0
 62
     7
  6
Continuous
370
    -3
390
F
  0
ENDTAB
  0
TABLE
  2
STYLE
  5
3
330
0
100
AcDbSymbolTable
 70
     2
  0
STYLE
  5
11
330
3
100
AcDbSymbolTableRecord
100
AcDbTextStyleTableRecord
  2
Standard
 70
     0
 40
0.0
 41
1.0
 50
0.0
 71
     0
 42
0.2
  3
txt
  4

  0
STYLE
  5
6F
330
3
100
AcDbSymbolTableRecord
100
AcDbTextStyleTableRecord
  2
CONVERTER_11
 70
     0
 40
0.0
 41
0.72
 50
0.0
 71
     0
 42
0.2
  3
txt.shx
  4

  0
ENDTAB
  0
TABLE
  2
VIEW
  5
6
330
0
100
AcDbSymbolTable
 70
     0
  0
ENDTAB
  0
TABLE
  2
UCS
  5
7
330
0
100
AcDbSymbolTable
 70
     0
  0
ENDTAB
  0
TABLE
  2
APPID
  5
9
330
0
100
AcDbSymbolTable
 70
     1
  0
APPID
  5
12
330
9
100
AcDbSymbolTableRecord
100
AcDbRegAppTableRecord
  2
ACAD
 70
     0
  0
ENDTAB
  0
TABLE
  2
DIMSTYLE
  5
A
330
0
100
AcDbSymbolTable
 70
     7
100
AcDbDimStyleTable
  0
DIMSTYLE
105
27
330
A
100
AcDbSymbolTableRecord
100
AcDbDimStyleTableRecord
  2
Standard
 70
     0
340
11
  0
DIMSTYLE
105
149
102
{ACAD_REACTORS
330
14A
102
}
330
A
100
AcDbSymbolTableRecord
100
AcDbDimStyleTableRecord
  2
ME10_DIM_10
 70
     0
  3
ER<>
 41
3.5
 42
2.0
 44
2.0
 71
     1
 73
     0
 74
     0
 77
     1
 78
     8
140
3.5
146
0.7
147
2.0
172
     1
173
     1
176
     2
177
     2
178
     3
271
     2
272
     0
340
6F
  0
DIMSTYLE
105
154
102
{ACAD_REACTORS
330
155
102
}
330
A
100
AcDbSymbolTableRecord
100
AcDbDimStyleTableRecord
  2
ME10_DIM_11
 70
     0
  3
\U+2300<>
 41
3.5
 42
2.0
 44
2.0
 71
     1
 73
     0
 74
     0
 77
     1
 78
     8
140
3.5
146
0.7
147
2.0
172
     1
173
     1
176
     2
177
     2
178
     3
271
     2
272
     0
340
6F
  0
DIMSTYLE
105
15F
102
{ACAD_REACTORS
330
160
102
}
330
A
100
AcDbSymbolTableRecord
100
AcDbDimStyleTableRecord
  2
ME10_DIM_12
 70
     0
  3
<>
 41
3.5
 42
2.0
 44
2.0
 71
     1
 73
     0
 74
     0
 77
     1
 78
     8
140
3.5
146
0.7
147
2.0
172
     1
173
     1
176
     2
177
     2
178
     3
271
     2
272
     0
340
6F
  0
DIMSTYLE
105
16A
102
{ACAD_REACTORS
330
16B
102
}
330
A
100
AcDbSymbolTableRecord
100
AcDbDimStyleTableRecord
  2
ME10_DIM_13
 70
     0
  3
<>
 41
3.5
 42
2.0
 44
2.0
 71
     1
 73
     0
 74
     0
 77
     1
 78
     8
140
3.5
146
0.7
147
2.0
172
     1
173
     1
176
     2
177
     2
178
     3
271
     2
272
     0
340
6F
  0
DIMSTYLE
105
175
102
{ACAD_REACTORS
330
176
102
}
330
A
100
AcDbSymbolTableRecord
100
AcDbDimStyleTableRecord
  2
ME10_DIM_14
 70
     0
  3
<>
 41
3.5
 42
2.0
 44
2.0
 71
     1
 73
     0
 74
     0
 77
     1
 78
     8
140
3.5
146
0.7
147
2.0
172
     1
173
     1
176
     2
177
     2
178
     3
271
     2
272
     0
340
6F
  0
DIMSTYLE
105
180
102
{ACAD_REACTORS
330
181
102
}
330
A
100
AcDbSymbolTableRecord
100
AcDbDimStyleTableRecord
  2
ME10_DIM_15
 70
     0
  3
<>
 41
3.5
 42
2.0
 44
2.0
 71
     1
 73
     0
 74
     0
 77
     1
 78
     8
140
3.5
146
0.7
147
2.0
172
     1
173
     1
176
     2
177
     2
178
     3
271
     2
272
     0
340
6F
  0
ENDTAB
  0
TABLE
  2
BLOCK_RECORD
  5
1
330
0
100
AcDbSymbolTable
 70
     9
  0
BLOCK_RECORD
  5
1F
330
1
100
AcDbSymbolTableRecord
100
AcDbBlockTableRecord
  2
*Model_Space
340
22
  0
BLOCK_RECORD
  5
1B
330
1
100
AcDbSymbolTableRecord
100
AcDbBlockTableRecord
  2
*Paper_Space
340
1E
  0
BLOCK_RECORD
  5
23
330
1
100
AcDbSymbolTableRecord
100
AcDbBlockTableRecord
  2
*Paper_Space0
340
26
  0
BLOCK_RECORD
  5
49
330
1
100
AcDbSymbolTableRecord
100
AcDbBlockTableRecord
  2
Urheberrecht_DE-EN
340
0
102
{BLKREFS
331
6E
102
}
  0
BLOCK_RECORD
  5
140
330
1
100
AcDbSymbolTableRecord
100
AcDbBlockTableRecord
  2
*D2
340
0
  0
BLOCK_RECORD
  5
14B
330
1
100
AcDbSymbolTableRecord
100
AcDbBlockTableRecord
  2
*D3
340
0
  0
BLOCK_RECORD
  5
156
330
1
100
AcDbSymbolTableRecord
100
AcDbBlockTableRecord
  2
*D4
340
0
  0
BLOCK_RECORD
  5
161
330
1
100
AcDbSymbolTableRecord
100
AcDbBlockTableRecord
  2
*D5
340
0
  0
BLOCK_RECORD
  5
16C
330
1
100
AcDbSymbolTableRecord
100
AcDbBlockTableRecord
  2
*D6
340
0
  0
BLOCK_RECORD
  5
177
330
1
100
AcDbSymbolTableRecord
100
AcDbBlockTableRecord
  2
*D7
340
0
  0
BLOCK_RECORD
  5
182
330
1
100
AcDbSymbolTableRecord
100
AcDbBlockTableRecord
  2
*D8
340
0
102
{BLKREFS
331
188
102
}
  0
ENDTAB
  0
ENDSEC
  0
SECTION
  2
BLOCKS
  0
BLOCK
  5
20
330
1F
100
AcDbEntity
  8
0
100
AcDbBlockBegin
  2
*Model_Space
 70
     0
 10
0.0
 20
0.0
 30
0.0
  3
*Model_Space
  1

  0
ENDBLK
  5
21
330
1F
100
AcDbEntity
  8
0
100
AcDbBlockEnd
  0
BLOCK
  5
1C
330
1B
100
AcDbEntity
 67
     1
  8
0
100
AcDbBlockBegin
  2
*Paper_Space
 70
     0
 10
0.0
 20
0.0
 30
0.0
  3
*Paper_Space
  1

  0
ENDBLK
  5
1D
330
1B
100
AcDbEntity
 67
     1
  8
0
100
AcDbBlockEnd
  0
BLOCK
  5
24
330
23
100
AcDbEntity
  8
0
100
AcDbBlockBegin
  2
*Paper_Space0
 70
     0
 10
0.0
 20
0.0
 30
0.0
  3
*Paper_Space0
  1

  0
ENDBLK
  5
25
330
23
100
AcDbEntity
  8
0
100
AcDbBlockEnd
  0
BLOCK
  5
4A
330
49
100
AcDbEntity
  8
0
100
AcDbBlockBegin
  2
Urheberrecht_DE-EN
 70
     0
 10
37.7967218166178
 20
331.450799402691
 30
0.0
  3
Urheberrecht_DE-EN
  1

  0
MTEXT
  5
70
330
49
100
AcDbEntity
  8
1
 62
     1
100
AcDbMText
 10
37.7967218166178
 20
331.450799402691
 30
0.0
 40
2.0
 41
0.0
 71
     7
 72
     1
  1
We own the copyright of this document. It \Pdetermined and may neither be copied or \Pmade accessible to outsiders without our\Ppermission.
  7
CONVERTER_11
 11
0.0
 21
1.0
 31
0.0
 73
     1
 44
0.90036014405762
  0
MTEXT
  5
71
330
49
100
AcDbEntity
  8
1
 62
     1
100
AcDbMText
 10
37.7967218166178
 20
275.1614124853848
 30
0.0
 40
2.0
 41
0.0
 71
     7
 72
     1
  1
F\U+00fcr diese Unterlage behalten wir das Ur-\Pheberrecht. Sie darf nur f\U+00fcr den von uns \Pbestimmten Zweck benutzt und ohne unsere \PZustimmung weder vervielf\U+00e4ltigt noch\PDritten zug\U+00e4nglich gemacht werden.
  7
CONVERTER_11
 11
0.0
 21
1.0
 31
0.0
 73
     1
 44
0.90036014405762
  0
ENDBLK
  5
4B
330
49
100
AcDbEntity
  8
0
100
AcDbBlockEnd
  0
BLOCK
  5
147
330
140
100
AcDbEntity
  8
0
100
AcDbBlockBegin
  2
*D2
 70
     1
 10
0.0
 20
0.0
 30
0.0
  3
*D2
  1

  0
LINE
  5
141
330
140
100
AcDbEntity
  8
1
  6
Continuous
 62
     2
100
AcDbLine
 10
248.921859579691
 20
326.9369140625
 30
0.0
 11
248.921859579691
 21
301.9369140625
 31
0.0
  0
LINE
  5
142
330
140
100
AcDbEntity
  8
1
  6
Continuous
 62
     2
100
AcDbLine
 10
227.9741210938
 20
326.9369140625
 30
0.0
 11
250.921859579691
 21
326.9369140625
 31
0.0
  0
LINE
  5
143
330
140
100
AcDbEntity
  8
1
  6
Continuous
 62
     2
100
AcDbLine
 10
227.9741210938
 20
301.9369140625
 30
0.0
 11
250.921859579691
 21
301.9369140625
 31
0.0
  0
SOLID
  5
144
330
140
100
AcDbEntity
  8
1
 62
     2
100
AcDbTrace
 10
249.3826433212469
 20
323.4369140625
 30
0.0
 11
248.4610758381351
 21
323.4369140625
 31
0.0
 12
248.921859579691
 22
326.9369140625
 32
0.0
 13
248.921859579691
 23
326.9369140625
 33
0.0
  0
SOLID
  5
145
330
140
100
AcDbEntity
  8
1
 62
     2
100
AcDbTrace
 10
248.4610758381351
 20
305.4369140625
 30
0.0
 11
249.3826433212469
 21
305.4369140625
 31
0.0
 12
248.921859579691
 22
301.9369140625
 32
0.0
 13
248.921859579691
 23
301.9369140625
 33
0.0
  0
MTEXT
  5
146
330
140
100
AcDbEntity
  8
1
 62
     3
100
AcDbMText
 10
246.921859579691
 20
309.351030400265
 30
0.0
 40
3.5
 41
0.0
 71
     7
 72
     1
  1
\C3;ER\C3;\C3;25\C2;\H2.45;\S^ ;\C3;
  7
CONVERTER_11
 11
0.0
 21
1.0
 31
0.0
 73
     1
 44
0.60024009603842
  0
ENDBLK
  5
148
330
140
100
AcDbEntity
  8
0
100
AcDbBlockEnd
  0
BLOCK
  5
152
330
14B
100
AcDbEntity
  8
0
100
AcDbBlockBegin
  2
*D3
 70
     1
 10
0.0
 20
0.0
 30
0.0
  3
*D3
  1

  0
LINE
  5
14C
330
14B
100
AcDbEntity
  8
1
  6
Continuous
 62
     2
100
AcDbLine
 10
257.838551460086
 20
335.4369140625
 30
0.0
 11
257.838551460086
 21
293.4369140625
 31
0.0
  0
LINE
  5
14D
330
14B
100
AcDbEntity
  8
1
  6
Continuous
 62
     2
100
AcDbLine
 10
235.4996565075
 20
335.4369140625
 30
0.0
 11
259.838551460086
 21
335.4369140625
 31
0.0
  0
LINE
  5
14E
330
14B
100
AcDbEntity
  8
1
  6
Continuous
 62
     2
100
AcDbLine
 10
235.4996565075
 20
293.4369140625
 30
0.0
 11
259.838551460086
 21
293.4369140625
 31
0.0
  0
SOLID
  5
14F
330
14B
100
AcDbEntity
  8
1
 62
     2
100
AcDbTrace
 10
258.2993352016419
 20
331.9369140625
 30
0.0
 11
257.3777677185302
 21
331.9369140625
 31
0.0
 12
257.838551460086
 22
335.4369140625
 32
0.0
 13
257.838551460086
 23
335.4369140625
 33
0.0
  0
SOLID
  5
150
330
14B
100
AcDbEntity
  8
1
 62
     2
100
AcDbTrace
 10
257.3777677185302
 20
296.9369140625
 30
0.0
 11
258.2993352016419
 21
296.9369140625
 31
0.0
 12
257.838551460086
 22
293.4369140625
 32
0.0
 13
257.838551460086
 23
293.4369140625
 33
0.0
  0
MTEXT
  5
151
330
14B
100
AcDbEntity
  8
1
 62
     3
100
AcDbMText
 10
255.838551460086
 20
305.513713332995
 30
0.0
 40
3.5
 41
0.0
 71
     7
 72
     1
  1
\C3;%%c\C3;\C3;42\C2;\H2.45;\S^ ;\C3;
  7
CONVERTER_11
 11
0.0
 21
1.0
 31
0.0
 73
     1
 44
0.60024009603842
  0
ENDBLK
  5
153
330
14B
100
AcDbEntity
  8
0
100
AcDbBlockEnd
  0
BLOCK
  5
15D
330
156
100
AcDbEntity
  8
0
100
AcDbBlockBegin
  2
*D4
 70
     1
 10
0.0
 20
0.0
 30
0.0
  3
*D4
  1

  0
LINE
  5
157
330
156
100
AcDbEntity
  8
1
  6
Continuous
 62
     2
100
AcDbLine
 10
225.9741210938
 20
353.506123240536
 30
0.0
 11
103.9741210938
 21
353.506123240536
 31
0.0
  0
LINE
  5
158
330
156
100
AcDbEntity
  8
1
  6
Continuous
 62
     2
100
AcDbLine
 10
225.9741210938
 20
332.4369140625
 30
0.0
 11
225.9741210938
 21
355.506123240536
 31
0.0
  0
LINE
  5
159
330
156
100
AcDbEntity
  8
1
  6
Continuous
 62
     2
100
AcDbLine
 10
103.9741210938
 20
347.936865157
 30
0.0
 11
103.9741210938
 21
355.506123240536
 31
0.0
  0
SOLID
  5
15A
330
156
100
AcDbEntity
  8
1
 62
     2
100
AcDbTrace
 10
222.4741210938
 20
353.0453394989801
 30
0.0
 11
222.4741210938
 21
353.9669069820919
 31
0.0
 12
225.9741210938
 22
353.506123240536
 32
0.0
 13
225.9741210938
 23
353.506123240536
 33
0.0
  0
SOLID
  5
15B
330
156
100
AcDbEntity
  8
1
 62
     2
100
AcDbTrace
 10
107.4741210938
 20
353.9669069820919
 30
0.0
 11
107.4741210938
 21
353.0453394989801
 31
0.0
 12
103.9741210938
 22
353.506123240536
 32
0.0
 13
103.9741210938
 23
353.506123240536
 33
0.0
  0
MTEXT
  5
15C
330
156
100
AcDbEntity
  8
1
 62
     3
100
AcDbMText
 10
163.853428943267
 20
355.506123240536
 30
0.0
 40
3.5
 41
0.0
 71
     7
 72
     1
  1
\C3;\C3;\C3;122\C2;\H2.45;\S^ ;\C3;
  7
CONVERTER_11
 11
0.9999999999970619
 21
2.424068405545306E-6
 31
0.0
 73
     1
 44
0.60024009603842
  0
ENDBLK
  5
15E
330
156
100
AcDbEntity
  8
0
100
AcDbBlockEnd
  0
BLOCK
  5
168
330
161
100
AcDbEntity
  8
0
100
AcDbBlockBegin
  2
*D5
 70
     1
 10
0.0
 20
0.0
 30
0.0
  3
*D5
  1

  0
LINE
  5
162
330
161
100
AcDbEntity
  8
1
  6
Continuous
 62
     2
100
AcDbLine
 10
225.9741210938
 20
361.174842560343
 30
0.0
 11
77.9741210938
 21
361.174842560343
 31
0.0
  0
LINE
  5
163
330
161
100
AcDbEntity
  8
1
  6
Continuous
 62
     2
100
AcDbLine
 10
225.9741210938
 20
332.4369140625
 30
0.0
 11
225.9741210938
 21
363.174842560343
 31
0.0
  0
LINE
  5
164
330
161
100
AcDbEntity
  8
1
  6
Continuous
 62
     2
100
AcDbLine
 10
77.9741210938
 20
347.9369140625
 30
0.0
 11
77.9741210938
 21
363.174842560343
 31
0.0
  0
SOLID
  5
165
330
161
100
AcDbEntity
  8
1
 62
     2
100
AcDbTrace
 10
222.4741210938
 20
360.7140588187871
 30
0.0
 11
222.4741210938
 21
361.6356263018989
 31
0.0
 12
225.9741210938
 22
361.174842560343
 32
0.0
 13
225.9741210938
 23
361.174842560343
 33
0.0
  0
SOLID
  5
166
330
161
100
AcDbEntity
  8
1
 62
     2
100
AcDbTrace
 10
81.4741210938
 20
361.6356263018989
 30
0.0
 11
81.4741210938
 21
360.7140588187871
 31
0.0
 12
77.9741210938
 22
361.174842560343
 32
0.0
 13
77.9741210938
 23
361.174842560343
 33
0.0
  0
MTEXT
  5
167
330
161
100
AcDbEntity
  8
1
 62
     3
100
AcDbMText
 10
150.966265401195
 20
363.174842560343
 30
0.0
 40
3.5
 41
0.0
 71
     7
 72
     1
  1
\C3;\C3;\C3;148\C2;\H2.45;\S^ ;\C3;
  7
CONVERTER_11
 11
0.9999999999970619
 21
2.424068405545306E-6
 31
0.0
 73
     1
 44
0.60024009603842
  0
ENDBLK
  5
169
330
161
100
AcDbEntity
  8
0
100
AcDbBlockEnd
  0
BLOCK
  5
173
330
16C
100
AcDbEntity
  8
0
100
AcDbBlockBegin
  2
*D6
 70
     1
 10
0.0
 20
0.0
 30
0.0
  3
*D6
  1

  0
LINE
  5
16D
330
16C
100
AcDbEntity
  8
1
  6
Continuous
 62
     2
100
AcDbLine
 10
225.9741210938
 20
377.430178662184
 30
0.0
 11
45.97412109379999
 21
377.430178662184
 31
0.0
  0
LINE
  5
16E
330
16C
100
AcDbEntity
  8
1
  6
Continuous
 62
     2
100
AcDbLine
 10
225.9741210938
 20
332.4369140625
 30
0.0
 11
225.9741210938
 21
379.430178662184
 31
0.0
  0
LINE
  5
16F
330
16C
100
AcDbEntity
  8
1
  6
Continuous
 62
     2
100
AcDbLine
 10
45.97412109379999
 20
338.0129412426
 30
0.0
 11
45.97412109379999
 21
379.430178662184
 31
0.0
  0
SOLID
  5
170
330
16C
100
AcDbEntity
  8
1
 62
     2
100
AcDbTrace
 10
222.4741210938
 20
376.9693949206281
 30
0.0
 11
222.4741210938
 21
377.8909624037399
 31
0.0
 12
225.9741210938
 22
377.430178662184
 32
0.0
 13
225.9741210938
 23
377.430178662184
 33
0.0
  0
SOLID
  5
171
330
16C
100
AcDbEntity
  8
1
 62
     2
100
AcDbTrace
 10
49.47412109379999
 20
377.8909624037399
 30
0.0
 11
49.47412109379999
 21
376.9693949206281
 31
0.0
 12
45.97412109379999
 22
377.430178662184
 32
0.0
 13
45.97412109379999
 23
377.430178662184
 33
0.0
  0
MTEXT
  5
172
330
16C
100
AcDbEntity
  8
1
 62
     3
100
AcDbMText
 10
136.568681996708
 20
379.430178662184
 30
0.0
 40
3.5
 41
0.0
 71
     7
 72
     1
  1
\C3;\C3;\C3;180\C2;\H2.45;\S^ ;\C3;
  7
CONVERTER_11
 11
0.9999999999970619
 21
2.424068405545306E-6
 31
0.0
 73
     1
 44
0.60024009603842
  0
ENDBLK
  5
174
330
16C
100
AcDbEntity
  8
0
100
AcDbBlockEnd
  0
BLOCK
  5
17E
330
177
100
AcDbEntity
  8
0
100
AcDbBlockBegin
  2
*D7
 70
     1
 10
0.0
 20
0.0
 30
0.0
  3
*D7
  1

  0
LINE
  5
178
330
177
100
AcDbEntity
  8
1
  6
Continuous
 62
     2
100
AcDbLine
 10
77.9741210938
 20
369.999167872771
 30
0.0
 11
237.9741210938
 21
369.999167872771
 31
0.0
  0
LINE
  5
179
330
177
100
AcDbEntity
  8
1
  6
Continuous
 62
     2
100
AcDbLine
 10
77.9741210938
 20
347.9369140625
 30
0.0
 11
77.9741210938
 21
371.999167872771
 31
0.0
  0
LINE
  5
17A
330
177
100
AcDbEntity
  8
1
  6
Continuous
 62
     2
100
AcDbLine
 10
237.9741210938
 20
330.9369140625
 30
0.0
 11
237.9741210938
 21
371.999167872771
 31
0.0
  0
SOLID
  5
17B
330
177
100
AcDbEntity
  8
1
 62
     2
100
AcDbTrace
 10
81.4741210938
 20
370.4599516143269
 30
0.0
 11
81.4741210938
 21
369.5383841312151
 31
0.0
 12
77.9741210938
 22
369.999167872771
 32
0.0
 13
77.9741210938
 23
369.999167872771
 33
0.0
  0
SOLID
  5
17C
330
177
100
AcDbEntity
  8
1
 62
     2
100
AcDbTrace
 10
234.4741210938
 20
369.5383841312151
 30
0.0
 11
234.4741210938
 21
370.4599516143269
 31
0.0
 12
237.9741210938
 22
369.999167872771
 32
0.0
 13
237.9741210938
 23
369.999167872771
 33
0.0
  0
MTEXT
  5
17D
330
177
100
AcDbEntity
  8
1
 62
     3
100
AcDbMText
 10
155.14620897024
 20
371.999167872771
 30
0.0
 40
3.5
 41
0.0
 71
     7
 72
     1
  1
\C3;\C3;\C3;160\C2;\H2.45;\S^ ;\C3;
  7
CONVERTER_11
 11
0.9999999999970619
 21
2.424068405545306E-6
 31
0.0
 73
     1
 44
0.60024009603842
  0
ENDBLK
  5
17F
330
177
100
AcDbEntity
  8
0
100
AcDbBlockEnd
  0
BLOCK
  5
186
330
182
100
AcDbEntity
  8
0
100
AcDbBlockBegin
  2
*D8
 70
     1
 10
0.0
 20
0.0
 30
0.0
  3
*D8
  1

  0
LINE
  5
183
330
182
100
AcDbEntity
  8
1
  6
Continuous
 62
     2
100
AcDbLine
 10
116.0798803317662
 20
345.368545010198
 30
0.0
 11
104.9067326018019
 21
337.8727726879607
 31
0.0
  0
SOLID
  5
184
330
182
100
AcDbEntity
  8
1
 62
     2
100
AcDbTrace
 10
107.5565422735795
 20
340.205331446028
 30
0.0
 11
108.0699628289309
 21
339.4400302247618
 31
0.0
 12
104.9067326018019
 22
337.8727726879607
 32
0.0
 13
104.9067326018019
 23
337.8727726879607
 33
0.0
  0
MTEXT
  5
185
330
182
100
AcDbEntity
  8
1
 62
     3
100
AcDbMText
 10
105.9554352613558
 20
340.9846982956969
 30
0.0
 40
3.5
 41
0.0
 71
     7
 72
     1
  1
\C3; R\C3;\C3;5.5\C2;\H2.45;\S^ ;\C3;
  7
CONVERTER_11
 11
0.8304342712723688
 21
0.5571166135526116
 31
0.0
 73
     1
 44
0.60024009603842
  0
ENDBLK
  5
187
330
182
100
AcDbEntity
  8
0
100
AcDbBlockEnd
  0
ENDSEC
  0
SECTION
  2
ENTITIES
  0
INSERT
  5
6E
330
1F
100
AcDbEntity
  8
0
100
AcDbBlockReference
  2
Urheberrecht_DE-EN
 10
37.7967218166178
 20
331.450799402691
 30
0.0
  0
LINE
  5
72
330
1F
100
AcDbEntity
  8
VERERBUNG
  6
Continuous
 62
     7
100
AcDbLine
 10
45.9741210938
 20
292.8608867856
 30
0.0
 11
45.9741210938
 21
307.1669140625
 31
0.0
  0
LINE
  5
73
330
1F
100
AcDbEntity
  8
VERERBUNG
  6
Continuous
 62
     7
100
AcDbLine
 10
45.9741210938
 20
321.7069140625
 30
0.0
 11
45.9741210938
 21
336.0129412426
 31
0.0
  0
LINE
  5
74
330
1F
100
AcDbEntity
  8
VERERBUNG
  6
Continuous
 62
     7
100
AcDbLine
 10
46.9741210938
 20
306.8070323826
 30
0.0
 11
46.9741210938
 21
308.1669140625
 31
0.0
  0
LINE
  5
75
330
1F
100
AcDbEntity
  8
VERERBUNG
  6
Continuous
 62
     7
100
AcDbLine
 10
46.9741210938
 20
320.7069140625
 30
0.0
 11
46.9741210938
 21
322.0667957424
 31
0.0
  0
LINE
  5
76
330
1F
100
AcDbEntity
  8
VERERBUNG
  6
Continuous
 62
     9
100
AcDbLine
 10
47.1140780294
 20
337.21148932
 30
0.0
 11
47.1140780294
 21
323.9989419938
 31
0.0
  0
LINE
  5
77
330
1F
100
AcDbEntity
  8
VERERBUNG
  6
Continuous
 62
     9
100
AcDbLine
 10
47.1140780294
 20
304.8748861312
 30
0.0
 11
47.1140780294
 21
291.662338805
 31
0.0
  0
LINE
  5
78
330
1F
100
AcDbEntity
  8
VERERBUNG
  6
Continuous
 62
     9
100
AcDbLine
 10
50.4741210938
 20
304.4806011806
 30
0.0
 11
50.4741210938
 21
308.1669140625
 31
0.0
  0
LINE
  5
79
330
1F
100
AcDbEntity
  8
VERERBUNG
  6
Continuous
 62
     9
100
AcDbLine
 10
50.4741210938
 20
320.7069140625
 30
0.0
 11
50.4741210938
 21
324.3932269444
 31
0.0
  0
LINE
  5
7A
330
1F
100
AcDbEntity
  8
VERERBUNG
  6
Continuous
 62
     7
100
AcDbLine
 10
51.9741210938
 20
321.8787017811
 30
0.0
 11
51.9741210938
 21
306.9951263439
 31
0.0
  0
LWPOLYLINE
  5
7B
330
1F
100
AcDbEntity
  8
BEZUGSACHSEN
  6
DOT_CENTER
 62
     7
100
AcDbPolyline
 90
        2
 70
     0
 43
0.25
 10
68.9741210938
 20
307.6869140625
 10
68.9741210938
 20
321.1869140625
  0
LINE
  5
7C
330
1F
100
AcDbEntity
  8
VERERBUNG
  6
Continuous
 62
     7
100
AcDbLine
 10
75.9741210938
 20
338.6573382122
 30
0.0
 11
75.9741210938
 21
290.2164899128
 31
0.0
  0
LINE
  5
7D
330
1F
100
AcDbEntity
  8
VERERBUNG
  6
Continuous
 62
     9
100
AcDbLine
 10
76.6442313268
 20
290.3960454086
 30
0.0
 11
76.6442313268
 21
338.4777827164
 31
0.0
  0
LINE
  5
7E
330
1F
100
AcDbEntity
  8
VERERBUNG
  6
Continuous
 62
     9
100
AcDbLine
 10
76.7995227538
 20
290.4164899128
 30
0.0
 11
76.7995227538
 21
338.4573382122
 31
0.0
  0
LINE
  5
7F
330
1F
100
AcDbEntity
  8
VERERBUNG
  6
Continuous
 62
     9
100
AcDbLine
 10
77.6719514632
 20
290.4164899128
 30
0.0
 11
77.6719514632
 21
338.4573382122
 31
0.0
  0
LINE
  5
80
330
1F
100
AcDbEntity
  8
VERERBUNG
  6
Continuous
 62
     7
100
AcDbLine
 10
77.9741210938
 20
345.9369140625
 30
0.0
 11
77.9741210938
 21
282.9369140625
 31
0.0
  0
LINE
  5
81
330
1F
100
AcDbEntity
  8
VERERBUNG
  6
Continuous
 62
     7
100
AcDbLine
 10
45.9741210938
 20
307.1669140625
 30
0.0
 11
46.9741210938
 21
308.1669140625
 31
0.0
  0
LINE
  5
82
330
1F
100
AcDbEntity
  8
VERERBUNG
  6
Continuous
 62
     7
100
AcDbLine
 10
46.9741210938
 20
320.7069140625
 30
0.0
 11
45.9741210938
 21
321.7069140625
 31
0.0
  0
LWPOLYLINE
  5
83
330
1F
100
AcDbEntity
  8
BEZUGSACHSEN
  6
DOT_CENTER
 62
     7
100
AcDbPolyline
 90
        2
 70
     0
 43
0.25
 10
84.9741210938
 20
337.9375571427
 10
84.9741210938
 20
348.9369140625
  0
LINE
  5
84
330
1F
100
AcDbEntity
  8
VERERBUNG
  6
Continuous
 62
     7
100
AcDbLine
 10
97.8491210938
 20
343.3345093267
 30
0.0
 11
99.3516201685
 21
345.9369140625
 31
0.0
  0
LINE
  5
85
330
1F
100
AcDbEntity
  8
FASEN
  6
Continuous
 62
     9
100
AcDbLine
 10
90.1111314968
 20
294.1869140625
 30
0.0
 11
90.1111314968
 21
294.5869140625
 31
0.0
  0
LINE
  5
86
330
1F
100
AcDbEntity
  8
0
  6
Continuous
 62
     7
100
AcDbLine
 10
92.596622019
 20
345.9369140625
 30
0.0
 11
92.596622019
 21
322.4544140625
 31
0.0
  0
LINE
  5
87
330
1F
100
AcDbEntity
  8
0
  6
Continuous
 62
     7
100
AcDbLine
 10
92.596622019
 20
306.4194140625
 30
0.0
 11
92.596622019
 21
294.5869140625
 31
0.0
  0
LINE
  5
88
330
1F
100
AcDbEntity
  8
0
  6
Continuous
 62
     7
100
AcDbLine
 10
92.596622019
 20
289.9782244001
 30
0.0
 11
92.596622019
 21
282.9369140625
 31
0.0
  0
LINE
  5
89
330
1F
100
AcDbEntity
  8
0
  6
Continuous
 62
     7
100
AcDbLine
 10
94.0991210938
 20
343.3344867902
 30
0.0
 11
94.0991210938
 21
322.4544140625
 31
0.0
  0
LINE
  5
8A
330
1F
100
AcDbEntity
  8
0
  6
Continuous
 62
     7
100
AcDbLine
 10
94.0991210938
 20
306.4194140625
 30
0.0
 11
94.0991210938
 21
294.5869140625
 31
0.0
  0
LINE
  5
8B
330
1F
100
AcDbEntity
  8
0
  6
Continuous
 62
     7
100
AcDbLine
 10
94.0991210938
 20
285.539325111
 30
0.0
 11
94.0991210938
 21
293.9863028247
 31
0.0
  0
LINE
  5
8C
330
1F
100
AcDbEntity
  8
0
  6
Continuous
 62
     9
100
AcDbLine
 10
95.0991210938
 20
286.9369140625
 30
0.0
 11
95.0991210938
 21
306.7369140625
 31
0.0
  0
LINE
  5
8D
330
1F
100
AcDbEntity
  8
0
  6
Continuous
 62
     9
100
AcDbLine
 10
95.0991210938
 20
322.1369140625
 30
0.0
 11
95.0991210938
 21
341.9369140625
 31
0.0
  0
LINE
  5
8E
330
1F
100
AcDbEntity
  8
VERERBUNG
  6
Continuous
 62
     7
100
AcDbLine
 10
97.8491210938
 20
285.5393187983
 30
0.0
 11
99.3516201685
 21
282.9369140625
 31
0.0
  0
LINE
  5
8F
330
1F
100
AcDbEntity
  8
0
  6
Continuous
 62
     9
100
AcDbLine
 10
96.8491210938
 20
286.9369140625
 30
0.0
 11
96.8491210938
 21
306.7369140625
 31
0.0
  0
LINE
  5
90
330
1F
100
AcDbEntity
  8
0
  6
Continuous
 62
     9
100
AcDbLine
 10
96.8491210938
 20
322.1369140625
 30
0.0
 11
96.8491210938
 21
341.9369140625
 31
0.0
  0
LINE
  5
91
330
1F
100
AcDbEntity
  8
0
  6
Continuous
 62
     7
100
AcDbLine
 10
97.8491210938
 20
285.539325111
 30
0.0
 11
97.8491210938
 21
293.9863028247
 31
0.0
  0
LINE
  5
92
330
1F
100
AcDbEntity
  8
0
  6
Continuous
 62
     7
100
AcDbLine
 10
97.8491210938
 20
294.5869140625
 30
0.0
 11
97.8491210938
 21
306.4194140625
 31
0.0
  0
LINE
  5
93
330
1F
100
AcDbEntity
  8
0
  6
Continuous
 62
     7
100
AcDbLine
 10
97.8491210938
 20
322.4544140625
 30
0.0
 11
97.8491210938
 21
343.3344867902
 31
0.0
  0
LINE
  5
94
330
1F
100
AcDbEntity
  8
0
  6
Continuous
 62
     7
100
AcDbLine
 10
99.3516201685
 20
345.9369140625
 30
0.0
 11
99.3516201685
 21
322.4544140625
 31
0.0
  0
LINE
  5
95
330
1F
100
AcDbEntity
  8
0
  6
Continuous
 62
     7
100
AcDbLine
 10
99.3516201685
 20
306.4194140625
 30
0.0
 11
99.3516201685
 21
294.5869140625
 31
0.0
  0
LINE
  5
96
330
1F
100
AcDbEntity
  8
0
  6
Continuous
 62
     7
100
AcDbLine
 10
99.3516201685
 20
289.9782244001
 30
0.0
 11
99.3516201685
 21
282.9369140625
 31
0.0
  0
LINE
  5
97
330
1F
100
AcDbEntity
  8
VERERBUNG
  6
Continuous
 62
     9
100
AcDbLine
 10
45.9741210938
 20
306.2603262759
 30
0.0
 11
46.9741210938
 21
306.8070323826
 31
0.0
  0
LINE
  5
98
330
1F
100
AcDbEntity
  8
0
  6
Continuous
 62
     7
100
AcDbLine
 10
103.9741210938
 20
345.936865157
 30
0.0
 11
103.9741210938
 21
322.4544140625
 31
0.0
  0
LINE
  5
99
330
1F
100
AcDbEntity
  8
0
  6
Continuous
 62
     7
100
AcDbLine
 10
103.9741210938
 20
306.4194140625
 30
0.0
 11
103.9741210938
 21
294.5869140625
 31
0.0
  0
LINE
  5
9A
330
1F
100
AcDbEntity
  8
0
  6
Continuous
 62
     7
100
AcDbLine
 10
103.9741210938
 20
289.9782244001
 30
0.0
 11
103.9741210938
 21
282.9369531243
 31
0.0
  0
LINE
  5
9B
330
1F
100
AcDbEntity
  8
FASEN
  6
Continuous
 62
     7
100
AcDbLine
 10
103.9741210938
 20
289.9782244001
 30
0.0
 11
103.9741210938
 21
294.5869140625
 31
0.0
  0
LINE
  5
9C
330
1F
100
AcDbEntity
  8
RUNDUNGEN
  6
Continuous
 62
     7
100
AcDbLine
 10
103.9741210938
 20
306.4194140625
 30
0.0
 11
103.9741210938
 21
312.1369101897
 31
0.0
  0
LINE
  5
9D
330
1F
100
AcDbEntity
  8
RUNDUNGEN
  6
Continuous
 62
     7
100
AcDbLine
 10
103.9741210938
 20
316.736918186
 30
0.0
 11
103.9741210938
 21
322.4544140625
 31
0.0
  0
LINE
  5
9E
330
1F
100
AcDbEntity
  8
VERERBUNG
  6
Continuous
 62
     9
100
AcDbLine
 10
46.9741210938
 20
322.0667957424
 30
0.0
 11
45.9741210938
 21
322.6135018491
 31
0.0
  0
LINE
  5
9F
330
1F
100
AcDbEntity
  8
RUNDUNGEN
  6
Continuous
 62
     9
100
AcDbLine
 10
109.4741210938
 20
335.4369140625
 30
0.0
 11
109.4741210938
 21
293.4369140625
 31
0.0
  0
LINE
  5
A0
330
1F
100
AcDbEntity
  8
VERERBUNG
  6
Continuous
 62
     7
100
AcDbLine
 10
92.596622019
 20
282.9369140625
 30
0.0
 11
94.0991210938
 21
285.5393187983
 31
0.0
  0
LINE
  5
A1
330
1F
100
AcDbEntity
  8
VERERBUNG
  6
Continuous
 62
     7
100
AcDbLine
 10
92.596622019
 20
282.9369140625
 30
0.0
 11
77.9741210938
 21
282.9369140625
 31
0.0
  0
LINE
  5
A2
330
1F
100
AcDbEntity
  8
VERERBUNG
  6
Continuous
 62
     7
100
AcDbLine
 10
99.3516201685
 20
282.9369140625
 30
0.0
 11
103.9741210938
 21
282.9369140625
 31
0.0
  0
LINE
  5
A3
330
1F
100
AcDbEntity
  8
VERERBUNG
  6
Continuous
 62
     7
100
AcDbLine
 10
95.0991210938
 20
286.9369140625
 30
0.0
 11
96.8491210938
 21
286.9369140625
 31
0.0
  0
LINE
  5
A4
330
1F
100
AcDbEntity
  8
FASEN
  6
Continuous
 62
     7
100
AcDbLine
 10
83.309733538
 20
289.9782244001
 30
0.0
 11
92.596622019
 21
289.9782244001
 31
0.0
  0
LINE
  5
A5
330
1F
100
AcDbEntity
  8
0
  6
Continuous
 62
     7
100
AcDbLine
 10
99.3516201685
 20
289.9782244001
 30
0.0
 11
103.9741210938
 21
289.9782244001
 31
0.0
  0
LINE
  5
A6
330
1F
100
AcDbEntity
  8
VERERBUNG
  6
Continuous
 62
     7
100
AcDbLine
 10
77.6719514632
 20
290.4164899128
 30
0.0
 11
76.7995227538
 21
290.4164899128
 31
0.0
  0
LINE
  5
A7
330
1F
100
AcDbEntity
  8
VERERBUNG
  6
Continuous
 62
     7
100
AcDbLine
 10
75.9741210938
 20
290.2164899128
 30
0.0
 11
47.1140780294
 21
291.662338805
 31
0.0
  0
LINE
  5
A8
330
1F
100
AcDbEntity
  8
VERERBUNG
  6
Continuous
 62
     7
100
AcDbLine
 10
92.596622019
 20
345.9369140625
 30
0.0
 11
94.0991210938
 21
343.3345093267
 31
0.0
  0
LINE
  5
A9
330
1F
100
AcDbEntity
  8
0
  6
Continuous
 62
     7
100
AcDbLine
 10
109.4741210938
 20
293.4369140625
 30
0.0
 11
204.2314804066
 21
293.4369140625
 31
0.0
  0
LINE
  5
AA
330
1F
100
AcDbEntity
  8
0
  6
Continuous
 62
     7
100
AcDbLine
 10
219.2241210938
 20
293.4369140625
 30
0.0
 11
233.4996565075
 21
293.4369140625
 31
0.0
  0
LINE
  5
AB
330
1F
100
AcDbEntity
  8
FASEN
  6
Continuous
 62
     7
100
AcDbLine
 10
90.1111314968
 20
294.1869140625
 30
0.0
 11
94.109486359
 21
294.1869140625
 31
0.0
  0
LINE
  5
AC
330
1F
100
AcDbEntity
  8
FASEN
  6
Continuous
 62
     7
100
AcDbLine
 10
97.8387558285
 20
294.1869140625
 30
0.0
 11
103.9741210938
 21
294.1869140625
 31
0.0
  0
LINE
  5
AD
330
1F
100
AcDbEntity
  8
0
  6
Continuous
 62
     7
100
AcDbLine
 10
90.1111314968
 20
294.5869140625
 30
0.0
 11
94.0991210938
 21
294.5869140625
 31
0.0
  0
LINE
  5
AE
330
1F
100
AcDbEntity
  8
FASEN
  6
Continuous
 62
     7
100
AcDbLine
 10
94.0991210938
 20
294.5869140625
 30
0.0
 11
94.109486359
 21
294.5869140625
 31
0.0
  0
LINE
  5
AF
330
1F
100
AcDbEntity
  8
FASEN
  6
Continuous
 62
     7
100
AcDbLine
 10
97.8387558285
 20
294.5869140625
 30
0.0
 11
97.8491210938
 21
294.5869140625
 31
0.0
  0
LINE
  5
B0
330
1F
100
AcDbEntity
  8
0
  6
Continuous
 62
     7
100
AcDbLine
 10
97.8491210938
 20
294.5869140625
 30
0.0
 11
103.9741210938
 21
294.5869140625
 31
0.0
  0
LINE
  5
B1
330
1F
100
AcDbEntity
  8
0
  6
Continuous
 62
     7
100
AcDbLine
 10
227.0741210938
 20
294.8410025358
 30
0.0
 11
233.4996565075
 21
294.8410025358
 31
0.0
  0
LINE
  5
B2
330
1F
100
AcDbEntity
  8
0
  6
Continuous
 62
     7
100
AcDbLine
 10
235.7883960482
 20
297.461854254
 30
0.0
 11
227.0741210938
 21
297.461854254
 31
0.0
  0
LINE
  5
B3
330
1F
100
AcDbEntity
  8
0
  6
Continuous
 62
     7
100
AcDbLine
 10
227.0741210938
 20
298.1005954629
 30
0.0
 11
233.4996565075
 21
298.1005954629
 31
0.0
  0
LINE
  5
B4
330
1F
100
AcDbEntity
  8
RUNDUNGEN
  6
Continuous
 62
     7
100
AcDbLine
 10
217.9741210938
 20
298.4369140625
 30
0.0
 11
210.8883346561
 21
298.4369140625
 31
0.0
  0
LINE
  5
B5
330
1F
100
AcDbEntity
  8
0
  6
Continuous
 62
     7
100
AcDbLine
 10
210.8883346561
 20
298.4369140625
 30
0.0
 11
217.9741210938
 21
298.4369140625
 31
0.0
  0
LWPOLYLINE
  5
B6
330
1F
100
AcDbEntity
  8
DEFAULT_2
  6
DASHED
 62
     8
100
AcDbPolyline
 90
        2
 70
     0
 43
0.35
 10
217.9741210938
 20
298.4369140625
 10
225.9741210938
 20
298.4369140625
  0
LINE
  5
B7
330
1F
100
AcDbEntity
  8
VERERBUNG
  6
Continuous
 62
     9
100
AcDbLine
 10
51.4615281315
 20
305.1669140625
 30
0.0
 11
46.6457959042
 21
305.1669140625
 31
0.0
  0
LWPOLYLINE
  5
B8
330
1F
100
AcDbEntity
  8
DEFAULT_2
  6
DASHED
 62
     8
100
AcDbPolyline
 90
        2
 70
     0
 43
0.35
 10
201.0703270654
 20
305.4369140625
 10
196.9741210938
 20
305.4369140625
  0
LINE
  5
B9
330
1F
100
AcDbEntity
  8
VERERBUNG
  6
Continuous
 62
     7
100
AcDbLine
 10
76.6442313268
 20
290.3960454086
 30
0.0
 11
75.9741210938
 21
290.2164899128
 31
0.0
  0
LINE
  5
BA
330
1F
100
AcDbEntity
  8
0
  6
Continuous
 62
     7
100
AcDbLine
 10
103.9741210938
 20
306.4194140625
 30
0.0
 11
97.2650079843
 21
306.4194140625
 31
0.0
  0
LINE
  5
BB
330
1F
100
AcDbEntity
  8
0
  6
Continuous
 62
     7
100
AcDbLine
 10
90.9416210938
 20
306.4194140625
 30
0.0
 11
94.6832342032
 21
306.4194140625
 31
0.0
  0
LINE
  5
BC
330
1F
100
AcDbEntity
  8
0
  6
Continuous
 62
     7
100
AcDbLine
 10
95.0991210938
 20
306.7369140625
 30
0.0
 11
96.8491210938
 21
306.7369140625
 31
0.0
  0
LINE
  5
BD
330
1F
100
AcDbEntity
  8
VERERBUNG
  6
Continuous
 62
     7
100
AcDbLine
 10
50.4741210938
 20
308.1669140625
 30
0.0
 11
46.9741210938
 21
308.1669140625
 31
0.0
  0
LINE
  5
BE
330
1F
100
AcDbEntity
  8
0
  6
Continuous
 62
     7
100
AcDbLine
 10
227.0741210938
 20
311.1773211354
 30
0.0
 11
233.4996565075
 21
311.1773211354
 31
0.0
  0
LINE
  5
BF
330
1F
100
AcDbEntity
  8
0
  6
Continuous
 62
     7
100
AcDbLine
 10
235.7883960482
 20
311.8369140625
 30
0.0
 11
227.0741210938
 21
311.8369140625
 31
0.0
  0
LWPOLYLINE
  5
C0
330
1F
100
AcDbEntity
  8
DEFAULT_2
  6
DASHED
 62
     8
100
AcDbPolyline
 90
        2
 70
     0
 43
0.35
 10
225.9741210938
 20
326.9369140625
 10
201.0703270654
 20
323.4369140625
  0
LWPOLYLINE
  5
C1
330
1F
100
AcDbEntity
  8
BG_STARTBEZUEGE
  6
DOT_CENTER
 62
     7
100
AcDbPolyline
 90
        2
 70
     0
 43
0.25
 10
240.9741210938
 20
314.4369140625
 10
42.9741210938
 20
314.4369140625
  0
LINE
  5
C2
330
1F
100
AcDbEntity
  8
0
  6
Continuous
 62
     7
100
AcDbLine
 10
235.7883960482
 20
317.0369140625
 30
0.0
 11
227.0741210938
 21
317.0369140625
 31
0.0
  0
LINE
  5
C3
330
1F
100
AcDbEntity
  8
0
  6
Continuous
 62
     7
100
AcDbLine
 10
227.0741210938
 20
317.6965069896
 30
0.0
 11
233.4996565075
 21
317.6965069896
 31
0.0
  0
LWPOLYLINE
  5
C4
330
1F
100
AcDbEntity
  8
DEFAULT_2
  6
DASHED
 62
     8
100
AcDbPolyline
 90
        2
 70
     0
 43
0.35
 10
225.9741210938
 20
301.9369140625
 10
201.0703270654
 20
305.4369140625
  0
LINE
  5
C5
330
1F
100
AcDbEntity
  8
VERERBUNG
  6
Continuous
 62
     7
100
AcDbLine
 10
50.4741210938
 20
320.7069140625
 30
0.0
 11
46.9741210938
 21
320.7069140625
 31
0.0
  0
LINE
  5
C6
330
1F
100
AcDbEntity
  8
0
  6
Continuous
 62
     7
100
AcDbLine
 10
95.0991210938
 20
322.1369140625
 30
0.0
 11
96.8491210938
 21
322.1369140625
 31
0.0
  0
LINE
  5
C7
330
1F
100
AcDbEntity
  8
0
  6
Continuous
 62
     7
100
AcDbLine
 10
90.9416210938
 20
322.4544140625
 30
0.0
 11
94.6832342032
 21
322.4544140625
 31
0.0
  0
LINE
  5
C8
330
1F
100
AcDbEntity
  8
0
  6
Continuous
 62
     7
100
AcDbLine
 10
97.2650079843
 20
322.4544140625
 30
0.0
 11
103.9741210938
 21
322.4544140625
 31
0.0
  0
LWPOLYLINE
  5
C9
330
1F
100
AcDbEntity
  8
DEFAULT_2
  6
DASHED
 62
     8
100
AcDbPolyline
 90
        2
 70
     0
 43
0.35
 10
201.0703270654
 20
323.4369140625
 10
196.9741210938
 20
323.4369140625
  0
LINE
  5
CA
330
1F
100
AcDbEntity
  8
VERERBUNG
  6
Continuous
 62
     9
100
AcDbLine
 10
46.6457959042
 20
323.7069140625
 30
0.0
 11
51.4615281315
 21
323.7069140625
 31
0.0
  0
LINE
  5
CB
330
1F
100
AcDbEntity
  8
VERERBUNG
  6
Continuous
 62
     7
100
AcDbLine
 10
76.6442313268
 20
338.4777827164
 30
0.0
 11
75.9741210938
 21
338.6573382122
 31
0.0
  0
LINE
  5
CC
330
1F
100
AcDbEntity
  8
RUNDUNGEN
  6
Continuous
 62
     7
100
AcDbLine
 10
217.9741210938
 20
330.4369140625
 30
0.0
 11
210.8883346561
 21
330.4369140625
 31
0.0
  0
LINE
  5
CD
330
1F
100
AcDbEntity
  8
0
  6
Continuous
 62
     7
100
AcDbLine
 10
210.8883346561
 20
330.4369140625
 30
0.0
 11
217.9741210938
 21
330.4369140625
 31
0.0
  0
LWPOLYLINE
  5
CE
330
1F
100
AcDbEntity
  8
DEFAULT_2
  6
DASHED
 62
     8
100
AcDbPolyline
 90
        2
 70
     0
 43
0.35
 10
217.9741210938
 20
330.4369140625
 10
225.9741210938
 20
330.4369140625
  0
LINE
  5
CF
330
1F
100
AcDbEntity
  8
0
  6
Continuous
 62
     7
100
AcDbLine
 10
227.0741210938
 20
330.7732326621
 30
0.0
 11
233.4996565075
 21
330.7732326621
 31
0.0
  0
LINE
  5
D0
330
1F
100
AcDbEntity
  8
0
  6
Continuous
 62
     7
100
AcDbLine
 10
235.7883960482
 20
331.411973871
 30
0.0
 11
227.0741210938
 21
331.411973871
 31
0.0
  0
LINE
  5
D1
330
1F
100
AcDbEntity
  8
0
  6
Continuous
 62
     7
100
AcDbLine
 10
227.0741210938
 20
334.0328255892
 30
0.0
 11
233.4996565075
 21
334.0328255892
 31
0.0
  0
LINE
  5
D2
330
1F
100
AcDbEntity
  8
RUNDUNGEN
  6
Continuous
 62
     7
100
AcDbLine
 10
233.4996565075
 20
335.4369140625
 30
0.0
 11
219.2241210938
 21
335.4369140625
 31
0.0
  0
LINE
  5
D3
330
1F
100
AcDbEntity
  8
RUNDUNGEN
  6
Continuous
 62
     7
100
AcDbLine
 10
204.2314804066
 20
335.4369140625
 30
0.0
 11
109.4741210938
 21
335.4369140625
 31
0.0
  0
LINE
  5
D4
330
1F
100
AcDbEntity
  8
0
  6
Continuous
 62
     7
100
AcDbLine
 10
109.4741210938
 20
335.4369140625
 30
0.0
 11
204.2314804066
 21
335.4369140625
 31
0.0
  0
LINE
  5
D5
330
1F
100
AcDbEntity
  8
0
  6
Continuous
 62
     7
100
AcDbLine
 10
219.2241210938
 20
335.4369140625
 30
0.0
 11
233.4996565075
 21
335.4369140625
 31
0.0
  0
LINE
  5
D6
330
1F
100
AcDbEntity
  8
VERERBUNG
  6
Continuous
 62
     7
100
AcDbLine
 10
77.6719514632
 20
338.4573382122
 30
0.0
 11
76.7995227538
 21
338.4573382122
 31
0.0
  0
LINE
  5
D7
330
1F
100
AcDbEntity
  8
VERERBUNG
  6
Continuous
 62
     7
100
AcDbLine
 10
75.9741210938
 20
338.6573382122
 30
0.0
 11
47.1140780294
 21
337.21148932
 31
0.0
  0
LINE
  5
D8
330
1F
100
AcDbEntity
  8
VERERBUNG
  6
Continuous
 62
     7
100
AcDbLine
 10
95.0991210938
 20
341.9369140625
 30
0.0
 11
96.8491210938
 21
341.9369140625
 31
0.0
  0
LINE
  5
D9
330
1F
100
AcDbEntity
  8
VERERBUNG
  6
Continuous
 62
     7
100
AcDbLine
 10
92.596622019
 20
345.9369140625
 30
0.0
 11
89.9741210938
 21
345.9369140625
 31
0.0
  0
LINE
  5
DA
330
1F
100
AcDbEntity
  8
VERERBUNG
  6
Continuous
 62
     7
100
AcDbLine
 10
79.9741210938
 20
345.9369140625
 30
0.0
 11
77.9741210938
 21
345.9369140625
 31
0.0
  0
LINE
  5
DB
330
1F
100
AcDbEntity
  8
VERERBUNG
  6
Continuous
 62
     7
100
AcDbLine
 10
99.3516201685
 20
345.9369140625
 30
0.0
 11
103.9741210938
 21
345.9369140625
 31
0.0
  0
LWPOLYLINE
  5
DC
330
1F
100
AcDbEntity
  8
DEFAULT_2
  6
DASHED
 62
     8
100
AcDbPolyline
 90
        2
 70
     0
 43
0.35
 10
196.9741210938
 20
323.4369140625
 10
196.9741210938
 20
305.4369140625
  0
LWPOLYLINE
  5
DD
330
1F
100
AcDbEntity
  8
DEFAULT_2
  6
DASHED
 62
     8
100
AcDbPolyline
 90
        2
 70
     0
 43
0.35
 10
201.0703270654
 20
323.4369140625
 10
201.0703270654
 20
305.4369140625
  0
LINE
  5
DE
330
1F
100
AcDbEntity
  8
0
  6
Continuous
 62
     7
100
AcDbLine
 10
206.3528007502
 20
294.3155937189
 30
0.0
 11
210.1812278749
 21
298.1440208437
 31
0.0
  0
LINE
  5
DF
330
1F
100
AcDbEntity
  8
0
  6
Continuous
 62
     7
100
AcDbLine
 10
206.3528007502
 20
334.5582344061
 30
0.0
 11
210.1812278749
 21
330.7298072813
 31
0.0
  0
LINE
  5
E0
330
1F
100
AcDbEntity
  8
RUNDUNGEN
  6
Continuous
 62
     7
100
AcDbLine
 10
210.1812278749
 20
330.7298072813
 30
0.0
 11
206.3528007502
 21
334.5582344061
 31
0.0
  0
LINE
  5
E1
330
1F
100
AcDbEntity
  8
RUNDUNGEN
  6
Continuous
 62
     9
100
AcDbLine
 10
204.2314804066
 20
293.4369140625
 30
0.0
 11
204.2314804066
 21
335.4369140625
 31
0.0
  0
LINE
  5
E2
330
1F
100
AcDbEntity
  8
RUNDUNGEN
  6
Continuous
 62
     9
100
AcDbLine
 10
206.3528007502
 20
294.3155937189
 30
0.0
 11
206.3528007502
 21
334.5582344061
 31
0.0
  0
LINE
  5
E3
330
1F
100
AcDbEntity
  8
RUNDUNGEN
  6
Continuous
 62
     9
100
AcDbLine
 10
210.1812278749
 20
330.7298072813
 30
0.0
 11
210.1812278749
 21
298.1440208437
 31
0.0
  0
LINE
  5
E4
330
1F
100
AcDbEntity
  8
RUNDUNGEN
  6
Continuous
 62
     9
100
AcDbLine
 10
210.8883346561
 20
330.4369140625
 30
0.0
 11
210.8883346561
 21
298.4369140625
 31
0.0
  0
LINE
  5
E5
330
1F
100
AcDbEntity
  8
RUNDUNGEN
  6
Continuous
 62
     7
100
AcDbLine
 10
217.9741210938
 20
334.1869140625
 30
0.0
 11
217.9741210938
 21
294.6869140625
 31
0.0
  0
LINE
  5
E6
330
1F
100
AcDbEntity
  8
RUNDUNGEN
  6
Continuous
 62
     9
100
AcDbLine
 10
219.2241210938
 20
293.4369140625
 30
0.0
 11
219.2241210938
 21
335.4369140625
 31
0.0
  0
LWPOLYLINE
  5
E7
330
1F
100
AcDbEntity
  8
DEFAULT_2
  6
DASHED
 62
     8
100
AcDbPolyline
 90
        2
 70
     0
 43
0.35
 10
225.9741210938
 20
330.4369140625
 10
225.9741210938
 20
298.4369140625
  0
LINE
  5
E8
330
1F
100
AcDbEntity
  8
0
  6
Continuous
 62
     7
100
AcDbLine
 10
227.0741210938
 20
334.0328255892
 30
0.0
 11
227.0741210938
 21
330.7732326621
 31
0.0
  0
LINE
  5
E9
330
1F
100
AcDbEntity
  8
0
  6
Continuous
 62
     7
100
AcDbLine
 10
227.0741210938
 20
317.6965069896
 30
0.0
 11
227.0741210938
 21
311.1773211354
 31
0.0
  0
LINE
  5
EA
330
1F
100
AcDbEntity
  8
0
  6
Continuous
 62
     7
100
AcDbLine
 10
227.0741210938
 20
298.1005954629
 30
0.0
 11
227.0741210938
 21
294.8410025358
 31
0.0
  0
LINE
  5
EB
330
1F
100
AcDbEntity
  8
0
  6
Continuous
 62
     9
100
AcDbLine
 10
233.4996565075
 20
293.4369140625
 30
0.0
 11
233.4996565075
 21
294.8410025358
 31
0.0
  0
LINE
  5
EC
330
1F
100
AcDbEntity
  8
0
  6
Continuous
 62
     9
100
AcDbLine
 10
233.4996565075
 20
298.1005954629
 30
0.0
 11
233.4996565075
 21
311.1773211354
 31
0.0
  0
LINE
  5
ED
330
1F
100
AcDbEntity
  8
0
  6
Continuous
 62
     9
100
AcDbLine
 10
233.4996565075
 20
317.6965069896
 30
0.0
 11
233.4996565075
 21
330.7732326621
 31
0.0
  0
LINE
  5
EE
330
1F
100
AcDbEntity
  8
0
  6
Continuous
 62
     9
100
AcDbLine
 10
233.4996565075
 20
334.0328255892
 30
0.0
 11
233.4996565075
 21
335.4369140625
 31
0.0
  0
LINE
  5
EF
330
1F
100
AcDbEntity
  8
0
  6
Continuous
 62
     9
100
AcDbLine
 10
234.5821882623
 20
294.0619140625
 30
0.0
 11
234.5821882623
 21
295.4442242618
 31
0.0
  0
LINE
  5
F0
330
1F
100
AcDbEntity
  8
0
  6
Continuous
 62
     9
100
AcDbLine
 10
234.5821882623
 20
298.5520036463
 30
0.0
 11
234.5821882623
 21
311.329134678
 31
0.0
  0
LINE
  5
F1
330
1F
100
AcDbEntity
  8
0
  6
Continuous
 62
     9
100
AcDbLine
 10
234.5821882623
 20
317.544693447
 30
0.0
 11
234.5821882623
 21
330.3218244787
 31
0.0
  0
LINE
  5
F2
330
1F
100
AcDbEntity
  8
0
  6
Continuous
 62
     9
100
AcDbLine
 10
234.5821882623
 20
333.4296038632
 30
0.0
 11
234.5821882623
 21
334.8119140625
 31
0.0
  0
LINE
  5
F3
330
1F
100
AcDbEntity
  8
0
  6
Continuous
 62
     7
100
AcDbLine
 10
237.9741210938
 20
328.9369140625
 30
0.0
 11
237.9741210938
 21
299.9369140625
 31
0.0
  0
LINE
  5
F4
330
1F
100
AcDbEntity
  8
RUNDUNGEN
  6
Continuous
 62
     7
100
AcDbLine
 10
237.9741210938
 20
299.9369140625
 30
0.0
 11
234.5821882623
 21
294.0619140625
 31
0.0
  0
LINE
  5
F5
330
1F
100
AcDbEntity
  8
0
  6
Continuous
 62
     7
100
AcDbLine
 10
234.5821882623
 20
294.0619140625
 30
0.0
 11
237.9741210938
 21
299.9369140625
 31
0.0
  0
LINE
  5
F6
330
1F
100
AcDbEntity
  8
0
  6
Continuous
 62
     7
100
AcDbLine
 10
234.5821882623
 20
334.8119140625
 30
0.0
 11
237.9741210938
 21
328.9369140625
 31
0.0
  0
LINE
  5
F7
330
1F
100
AcDbEntity
  8
RUNDUNGEN
  6
Continuous
 62
     7
100
AcDbLine
 10
237.9741210938
 20
328.9369140625
 30
0.0
 11
234.5821882623
 21
334.8119140625
 31
0.0
  0
LINE
  5
F8
330
1F
100
AcDbEntity
  8
0
  6
Continuous
 62
     7
100
AcDbLine
 10
235.7883960482
 20
311.8369140625
 30
0.0
 11
234.5821882623
 21
311.329134678
 31
0.0
  0
LINE
  5
F9
330
1F
100
AcDbEntity
  8
0
  6
Continuous
 62
     7
100
AcDbLine
 10
234.5821882623
 20
317.544693447
 30
0.0
 11
235.7883960482
 21
317.0369140625
 31
0.0
  0
LINE
  5
FA
330
1F
100
AcDbEntity
  8
RUNDUNGEN
  6
Continuous
 62
     7
100
AcDbLine
 10
103.9741210938
 20
316.7369140625
 30
0.0
 11
103.9750302598
 21
314.4369390535
 31
0.0
  0
LINE
  5
FB
330
1F
100
AcDbEntity
  8
RUNDUNGEN
  6
Continuous
 62
     7
100
AcDbLine
 10
103.9750302598
 20
314.4369390535
 30
0.0
 11
103.9741210938
 21
312.1369140625
 31
0.0
  0
ARC
  5
FC
330
1F
100
AcDbEntity
  8
FASEN
  6
Continuous
 62
     7
100
AcDbCircle
 10
-3.5961193868
 20
294.3869140625
 30
0.0
 40
97.70581044213137
100
AcDbArc
 50
359.8827176822629
 51
0.11728231773712
  0
ARC
  5
FD
330
1F
100
AcDbEntity
  8
FASEN
  6
Continuous
 62
     7
100
AcDbCircle
 10
93.0181270095
 20
298.5063112194
 30
0.0
 40
12.92211935379987
100
AcDbArc
 50
219.3764519581992
 51
221.2968513343881
  0
ARC
  5
FE
330
1F
100
AcDbEntity
  8
FASEN
  6
Continuous
 62
     7
100
AcDbCircle
 10
90.1111314968
 20
286.5869140625
 30
0.0
 40
8.0
100
AcDbArc
 50
90.0
 51
152.2781454968997
  0
ARC
  5
FF
330
1F
100
AcDbEntity
  8
FASEN
  6
Continuous
 62
     7
100
AcDbCircle
 10
90.1111314968
 20
286.5869140625
 30
0.0
 40
7.599996372100009
100
AcDbArc
 50
90.0
 51
153.4982565746016
  0
ARC
  5
100
330
1F
100
AcDbEntity
  8
FASEN
  6
Continuous
 62
     7
100
AcDbCircle
 10
95.9015756307
 20
293.986249629
 30
0.0
 40
1.947545463826499
100
AcDbArc
 50
0.00156498996029
 51
5.91393926133208
  0
ARC
  5
101
330
1F
100
AcDbEntity
  8
VERERBUNG
  6
Continuous
 62
     7
100
AcDbCircle
 10
50.4741210938
 20
309.6669140625
 30
0.0
 40
1.5
100
AcDbArc
 50
270.0
 51
354.6670371752118
  0
ARC
  5
102
330
1F
100
AcDbEntity
  8
VERERBUNG
  6
Continuous
 62
     7
100
AcDbCircle
 10
47.1741210938
 20
292.8608357096
 30
0.0
 40
1.199999999999996
100
AcDbArc
 50
180.0
 51
267.131957266782
  0
ARC
  5
103
330
1F
100
AcDbEntity
  8
VERERBUNG
  6
Continuous
 62
     7
100
AcDbCircle
 10
95.0991210938
 20
285.9369140625
 30
0.0
 40
1.0
100
AcDbArc
 50
90.0
 51
180.0
  0
ARC
  5
104
330
1F
100
AcDbEntity
  8
VERERBUNG
  6
Continuous
 62
     7
100
AcDbCircle
 10
76.7995227538
 20
289.8164899128
 30
0.0
 40
0.5999999999999659
100
AcDbArc
 50
90.0
 51
104.999999993671
  0
ARC
  5
105
330
1F
100
AcDbEntity
  8
VERERBUNG
  6
Continuous
 62
     7
100
AcDbCircle
 10
77.6719514632
 20
289.8164899128
 30
0.0
 40
0.6000000000003367
100
AcDbArc
 50
59.74152092741424
 51
90.0
  0
ARC
  5
106
330
1F
100
AcDbEntity
  8
0
  6
Continuous
 62
     7
100
AcDbCircle
 10
-49.7744203788
 20
353.9019176667
 30
0.0
 40
156.0632957305418
100
AcDbArc
 50
335.8202227521907
 51
337.2043014055999
  0
ARC
  5
107
330
1F
100
AcDbEntity
  8
VERERBUNG
  6
Continuous
 62
     7
100
AcDbCircle
 10
84.9555549042
 20
377.2514619214
 30
0.0
 40
31.71385608949952
100
AcDbArc
 50
270.0335425168001
 51
279.1049739812998
  0
ARC
  5
108
330
1F
100
AcDbEntity
  8
0
  6
Continuous
 62
     7
100
AcDbCircle
 10
90.9416210937
 20
314.4369140625
 30
0.0
 40
8.017499999999984
100
AcDbArc
 50
90.0
 51
270.0
  0
ARC
  5
109
330
1F
100
AcDbEntity
  8
VERERBUNG
  6
Continuous
 62
     7
100
AcDbCircle
 10
50.4741210938
 20
319.2069140625
 30
0.0
 40
1.500000000000026
100
AcDbArc
 50
5.3329627698127
 51
90.0
  0
ARC
  5
10A
330
1F
100
AcDbEntity
  8
VERERBUNG
  6
Continuous
 62
     7
100
AcDbCircle
 10
47.1741210938
 20
336.0129924154
 30
0.0
 40
1.199999999965974
100
AcDbArc
 50
92.86804273321796
 51
180.0
  0
ARC
  5
10B
330
1F
100
AcDbEntity
  8
VERERBUNG
  6
Continuous
 62
     7
100
AcDbCircle
 10
95.0991210938
 20
342.9369140625
 30
0.0
 40
1.0
100
AcDbArc
 50
180.0
 51
270.0
  0
ARC
  5
10C
330
1F
100
AcDbEntity
  8
VERERBUNG
  6
Continuous
 62
     7
100
AcDbCircle
 10
76.7995227538
 20
339.0573382122
 30
0.0
 40
0.6000000000097712
100
AcDbArc
 50
255.0000000063304
 51
270.0
  0
ARC
  5
10D
330
1F
100
AcDbEntity
  8
VERERBUNG
  6
Continuous
 62
     7
100
AcDbCircle
 10
77.6719514632
 20
339.0573382122
 30
0.0
 40
0.6000000000000227
100
AcDbArc
 50
270.0
 51
300.258479072583
  0
ARC
  5
10E
330
1F
100
AcDbEntity
  8
VERERBUNG
  6
Continuous
 62
     7
100
AcDbCircle
 10
151.8577185003
 20
-554.0981478538
 30
0.0
 40
884.3221864331545
100
AcDbArc
 50
96.58318095120157
 51
96.8023740697
  0
ARC
  5
10F
330
1F
100
AcDbEntity
  8
FASEN
  6
Continuous
 62
     7
100
AcDbCircle
 10
195.5443615743
 20
294.3869140625
 30
0.0
 40
97.70581044213138
100
AcDbArc
 50
179.8827176822629
 51
180.1172823177371
  0
ARC
  5
110
330
1F
100
AcDbEntity
  8
RUNDUNGEN
  6
Continuous
 62
     7
100
AcDbCircle
 10
109.4741210938
 20
287.9369140625
 30
0.0
 40
5.5
100
AcDbArc
 50
90.0
 51
176.3880436984043
  0
ARC
  5
111
330
1F
100
AcDbEntity
  8
RUNDUNGEN
  6
Continuous
 62
     7
100
AcDbCircle
 10
204.2314804066
 20
296.4369140625
 30
0.0
 40
3.0
100
AcDbArc
 50
270.0
 51
314.9999999999996
  0
ARC
  5
112
330
1F
100
AcDbEntity
  8
FASEN
  6
Continuous
 62
     7
100
AcDbCircle
 10
96.0466665569
 20
293.986249629
 30
0.0
 40
1.947545463800026
100
AcDbArc
 50
174.086060739397
 51
179.9984350100397
  0
ARC
  5
113
330
1F
100
AcDbEntity
  8
RUNDUNGEN
  6
Continuous
 62
     7
100
AcDbCircle
 10
233.4996565075
 20
294.6869140625
 30
0.0
 40
1.25
100
AcDbArc
 50
270.0
 51
330.0000000015921
  0
ARC
  5
114
330
1F
100
AcDbEntity
  8
RUNDUNGEN
  6
Continuous
 62
     7
100
AcDbCircle
 10
219.2241210938
 20
294.6869140625
 30
0.0
 40
1.25
100
AcDbArc
 50
180.0
 51
270.0
  0
ARC
  5
115
330
1F
100
AcDbEntity
  8
RUNDUNGEN
  6
Continuous
 62
     7
100
AcDbCircle
 10
210.8883346561
 20
297.4369140625
 30
0.0
 40
1.0
100
AcDbArc
 50
90.0
 51
135.0000000000011
  0
ARC
  5
116
330
1F
100
AcDbEntity
  8
VERERBUNG
  6
Continuous
 62
     7
100
AcDbCircle
 10
96.8491210938
 20
285.9369140625
 30
0.0
 40
1.0
100
AcDbArc
 50
0.0
 51
90.0
  0
ARC
  5
117
330
1F
100
AcDbEntity
  8
VERERBUNG
  6
Continuous
 62
     7
100
AcDbCircle
 10
151.8577185003
 20
1182.9719759788
 30
0.0
 40
884.3221864331001
100
AcDbArc
 50
263.1976259303
 51
263.4168190487984
  0
ARC
  5
118
330
1F
100
AcDbEntity
  8
0
  6
Continuous
 62
     7
100
AcDbCircle
 10
241.7226625665
 20
353.9019176668
 30
0.0
 40
156.0632957307999
100
AcDbArc
 50
202.7956985943999
 51
204.1797772478128
  0
ARC
  5
119
330
1F
100
AcDbEntity
  8
0
  6
Continuous
 62
     7
100
AcDbCircle
 10
204.3282123638
 20
314.4369140625
 30
0.0
 40
31.56743824665203
100
AcDbArc
 50
355.2755757622955
 51
4.72442423770442
  0
ARC
  5
11A
330
1F
100
AcDbEntity
  8
RUNDUNGEN
  6
Continuous
 62
     7
100
AcDbCircle
 10
109.4741210938
 20
340.9369140625
 30
0.0
 40
5.5
100
AcDbArc
 50
180.0
 51
270.0
  0
ARC
  5
11B
330
1F
100
AcDbEntity
  8
RUNDUNGEN
  6
Continuous
 62
     7
100
AcDbCircle
 10
204.2314804066
 20
332.4369140625
 30
0.0
 40
3.00000000005704
100
AcDbArc
 50
44.99999999999962
 51
90.0
  0
ARC
  5
11C
330
1F
100
AcDbEntity
  8
RUNDUNGEN
  6
Continuous
 62
     7
100
AcDbCircle
 10
233.4996565075
 20
334.1869140625
 30
0.0
 40
1.250000000060161
100
AcDbArc
 50
29.99999999840793
 51
90.0
  0
ARC
  5
11D
330
1F
100
AcDbEntity
  8
RUNDUNGEN
  6
Continuous
 62
     7
100
AcDbCircle
 10
219.2241210938
 20
334.1869140625
 30
0.0
 40
1.25
100
AcDbArc
 50
90.0
 51
180.0
  0
ARC
  5
11E
330
1F
100
AcDbEntity
  8
RUNDUNGEN
  6
Continuous
 62
     7
100
AcDbCircle
 10
210.8883346561
 20
331.4369140625
 30
0.0
 40
1.00000000001904
100
AcDbArc
 50
225.0000000000012
 51
270.0
  0
ARC
  5
11F
330
1F
100
AcDbEntity
  8
VERERBUNG
  6
Continuous
 62
     7
100
AcDbCircle
 10
96.8491210938
 20
342.9369140625
 30
0.0
 40
1.0
100
AcDbArc
 50
270.0
 51
0.0
  0
CIRCLE
  5
120
330
1F
100
AcDbEntity
  8
VERERBUNG
  6
Continuous
 62
     7
100
AcDbCircle
 10
68.9741210938
 20
314.4369140625
 30
0.0
 40
3.749999999900012
  0
SPLINE
  5
121
330
1F
100
AcDbEntity
  8
0
  6
Continuous
 62
     7
100
AcDbSpline
210
0.0
220
0.0
230
1.0
 70
     8
 71
     3
 72
     9
 73
     5
 74
     3
 42
0.0000000001
 43
0.0000000001
 44
0.00000001
 40
0.0
 40
0.0
 40
0.0
 40
0.0
 40
0.9662538679679361
 40
1.932507732751249
 40
1.932507732751249
 40
1.932507732751249
 40
1.932507732751249
 10
234.5821882623
 20
298.5520036463
 30
0.0
 10
234.7832694466489
 20
298.8036082238114
 30
0.0
 10
235.1854318146842
 20
299.3068173780049
 30
0.0
 10
235.5874079705822
 20
299.8101752956115
 30
0.0
 10
235.7883960482
 20
300.061854254
 30
0.0
 11
234.5821882623
 21
298.5520036463
 31
0.0
 11
235.1853852623125
 21
299.3068545696875
 31
0.0
 11
235.7883960482
 21
300.061854254
 31
0.0
  0
SPLINE
  5
122
330
1F
100
AcDbEntity
  8
0
  6
Continuous
 62
     7
100
AcDbSpline
210
0.0
220
0.0
230
1.0
 70
     8
 71
     3
 72
     9
 73
     5
 74
     3
 42
0.0000000001
 43
0.0000000001
 44
0.00000001
 40
0.0
 40
0.0
 40
0.0
 40
0.0
 40
0.9662538647832687
 40
1.932507732751249
 40
1.932507732751249
 40
1.932507732751249
 40
1.932507732751249
 10
235.7883960482
 20
328.811973871
 30
0.0
 10
235.5874079705822
 20
329.0636528293886
 30
0.0
 10
235.1854318146842
 20
329.5670107469952
 30
0.0
 10
234.7832694466489
 20
330.0702199011886
 30
0.0
 10
234.5821882623
 20
330.3218244787
 30
0.0
 11
235.7883960482
 21
328.811973871
 31
0.0
 11
235.1853852623125
 21
329.5669735553125
 31
0.0
 11
234.5821882623
 21
330.3218244787
 31
0.0
  0
SPLINE
  5
123
330
1F
100
AcDbEntity
  8
0
  6
Continuous
 62
     7
100
AcDbSpline
210
0.0
220
0.0
230
1.0
 70
     8
 71
     3
 72
    13
 73
     9
 74
     7
 42
0.0000000001
 43
0.0000000001
 44
0.00000001
 40
0.0
 40
0.0
 40
0.0
 40
0.0
 40
0.162843796250016
 40
0.3257101175743152
 40
0.4830172069448715
 40
0.6409701381979809
 40
0.92642684074998
 40
1.20917892627198
 40
1.20917892627198
 40
1.20917892627198
 40
1.20917892627198
 10
233.4996565075
 20
298.1005954629
 30
0.0
 10
233.5539603009171
 20
298.1020802763188
 30
0.0
 10
233.6625753992256
 20
298.1050501085405
 30
0.0
 10
233.822163604226
 20
298.1287677034991
 30
0.0
 10
233.9774497378601
 20
298.1659957059021
 30
0.0
 10
234.1658608601524
 20
298.2337147664116
 30
0.0
 10
234.3841973125886
 20
298.3465577304364
 30
0.0
 10
234.5164010379017
 20
298.4837393312476
 30
0.0
 10
234.5821882623
 20
298.5520036463
 30
0.0
 11
233.4996565075
 21
298.1005954629
 31
0.0
 11
233.6623176888309
 21
298.1083053309363
 31
0.0
 11
233.8235349276985
 21
298.1314233004329
 31
0.0
 11
233.9763658370956
 21
298.1686823060433
 31
0.0
 11
234.1251401967872
 21
298.2217418800125
 31
0.0
 11
234.3752581549644
 21
298.3593156276141
 31
0.0
 11
234.5821882623
 21
298.5520036463
 31
0.0
  0
SPLINE
  5
124
330
1F
100
AcDbEntity
  8
0
  6
Continuous
 62
     7
100
AcDbSpline
210
0.0
220
0.0
230
1.0
 70
     8
 71
     3
 72
    13
 73
     9
 74
     7
 42
0.0000000001
 43
0.0000000001
 44
0.00000001
 40
0.0
 40
0.0
 40
0.0
 40
0.0
 40
0.2827523488481215
 40
0.5682093214757669
 40
0.7261621655766517
 40
0.8834691669313135
 40
1.046335307438631
 40
1.209178923398317
 40
1.209178923398317
 40
1.209178923398317
 40
1.209178923398317
 10
234.5821882623
 20
330.3218244787
 30
0.0
 10
234.5164009701205
 20
330.3900888521977
 30
0.0
 10
234.3841971076121
 20
330.5272705714798
 30
0.0
 10
234.1658604783226
 20
330.640113534846
 30
0.0
 10
233.977449305452
 20
330.7078325452587
 30
0.0
 10
233.8221632784199
 20
330.7450604818027
 30
0.0
 10
233.6625752185511
 20
330.768778026837
 30
0.0
 10
233.5539602407509
 20
330.7717478521387
 30
0.0
 10
233.4996565075
 20
330.7732326621
 30
0.0
 11
234.5821882623
 21
330.3218244787
 31
0.0
 11
234.3752579377527
 21
330.5145126505266
 31
0.0
 11
234.1251397009622
 21
330.6520864519807
 31
0.0
 11
233.9763654061267
 21
330.7051459483577
 31
0.0
 11
233.8235345729144
 21
330.742404894865
 31
0.0
 11
233.6623175091801
 21
330.7655228118264
 31
0.0
 11
233.4996565075
 21
330.7732326621
 31
0.0
  0
SPLINE
  5
125
330
1F
100
AcDbEntity
  8
0
  6
Continuous
 62
     7
100
AcDbSpline
210
0.0
220
0.0
230
1.0
 70
     8
 71
     3
 72
    11
 73
     7
 74
     5
 42
0.0000000001
 43
0.0000000001
 44
0.00000001
 40
0.0
 40
0.0
 40
0.0
 40
0.0
 40
0.652524950510928
 40
1.305495242843198
 40
1.958465532818531
 40
2.610990481002774
 40
2.610990481002774
 40
2.610990481002774
 40
2.610990481002774
 10
235.7883960482
 20
300.061854254
 30
0.0
 10
235.818814978003
 20
299.8463519271762
 30
0.0
 10
235.8796735982276
 20
299.4152001953231
 30
0.0
 10
235.9036418417856
 20
298.7618542524394
 30
0.0
 10
235.8796735979129
 20
298.1085083103566
 30
0.0
 10
235.8188149778986
 20
297.6773565800538
 30
0.0
 10
235.7883960482
 20
297.461854254
 30
0.0
 11
235.7883960482
 21
300.061854254
 31
0.0
 11
235.868440089528
 21
299.4142573404132
 31
0.0
 11
235.895650610475
 21
298.7618542516573
 31
0.0
 11
235.8684400893095
 21
298.1094511652694
 31
0.0
 11
235.7883960482
 21
297.461854254
 31
0.0
  0
SPLINE
  5
126
330
1F
100
AcDbEntity
  8
0
  6
Continuous
 62
     7
100
AcDbSpline
210
0.0
220
0.0
230
1.0
 70
     8
 71
     3
 72
    15
 73
    11
 74
     9
 42
0.0000000001
 43
0.0000000001
 44
0.00000001
 40
0.0
 40
0.0
 40
0.0
 40
0.0
 40
0.1595838697852772
 40
0.3194675130933883
 40
0.4808668843435785
 40
0.6421836149612574
 40
0.804899579883613
 40
0.9677041984786774
 40
1.131411205581091
 40
1.294843856283637
 40
1.294843856283637
 40
1.294843856283637
 40
1.294843856283637
 10
234.5821882623
 20
295.4442242618
 30
0.0
 10
234.5530847217245
 20
295.3996054570405
 30
0.0
 10
234.4948229704435
 20
295.3102840324321
 30
0.0
 10
234.3857250640364
 20
295.191899198505
 30
0.0
 10
234.26284081457
 20
295.0875293715804
 30
0.0
 10
234.1264107056385
 20
294.9996506921893
 30
0.0
 10
233.9794969708591
 20
294.9296280732216
 30
0.0
 10
233.8241117825852
 20
294.8790051274546
 30
0.0
 10
233.6632853946994
 20
294.8470151064689
 30
0.0
 10
233.5541689663215
 20
294.8430056051639
 30
0.0
 10
233.4996565075
 20
294.8410025358
 30
0.0
 11
234.5821882623
 21
295.4442242618
 31
0.0
 11
234.4913297435079
 21
295.3130307365842
 31
0.0
 11
234.3838608553131
 21
295.1946533001039
 31
0.0
 11
234.2606872148048
 21
295.0903555948373
 31
0.0
 11
234.1251397010028
 21
295.0028915503432
 31
0.0
 11
233.9782352364451
 21
294.9329232465646
 31
0.0
 11
233.8235345729459
 21
294.8821980206037
 31
0.0
 11
233.6627617645076
 21
294.8513420934373
 31
0.0
 11
233.4996565075
 21
294.8410025358
 31
0.0
  0
SPLINE
  5
127
330
1F
100
AcDbEntity
  8
0
  6
Continuous
 62
     7
100
AcDbSpline
210
0.0
220
0.0
230
1.0
 70
     8
 71
     3
 72
    13
 73
     9
 74
     7
 42
0.0000000001
 43
0.0000000001
 44
0.00000001
 40
0.0
 40
0.0
 40
0.0
 40
0.0
 40
0.1040133931213576
 40
0.2082044462204709
 40
0.3398684107298235
 40
0.4714656350447478
 40
0.7850253128941671
 40
1.098658437988041
 40
1.098658437988041
 40
1.098658437988041
 40
1.098658437988041
 10
234.5821882623
 20
311.329134678
 30
0.0
 10
234.5497822357482
 20
311.3167365698316
 30
0.0
 10
234.4849148315614
 20
311.291919176918
 30
0.0
 10
234.3751314590003
 20
311.2633174754714
 30
0.0
 10
234.2552818116692
 20
311.2379459707956
 30
0.0
 10
234.0653248511418
 20
311.2078510861464
 30
0.0
 10
233.8133262041817
 20
311.1822899887816
 30
0.0
 10
233.6042212354542
 20
311.1789775491613
 30
0.0
 10
233.4996565075
 20
311.1773211354
 30
0.0
 11
234.5821882623
 21
311.329134678
 31
0.0
 11
234.4843746424071
 21
311.2937612174388
 31
0.0
 11
234.3838608553806
 21
311.2663248517268
 31
0.0
 11
234.2550524094481
 21
311.2390524516347
 31
0.0
 11
234.1251397009894
 21
311.2180639398173
 31
0.0
 11
233.8131480097159
 21
311.186745316774
 31
0.0
 11
233.4996565075
 21
311.1773211354
 31
0.0
  0
SPLINE
  5
128
330
1F
100
AcDbEntity
  8
0
  6
Continuous
 62
     7
100
AcDbSpline
210
0.0
220
0.0
230
1.0
 70
     8
 71
     3
 72
     9
 73
     5
 74
     3
 42
0.0000000001
 43
0.0000000001
 44
0.00000001
 40
0.0
 40
0.0
 40
0.0
 40
0.0
 40
1.17534761472952
 40
2.350695232638079
 40
2.350695232638079
 40
2.350695232638079
 40
2.350695232638079
 10
235.7883960482
 20
297.461854254
 30
0.0
 10
235.5874176011369
 20
297.1255490005935
 30
0.0
 10
235.1854607064672
 20
296.4529384928708
 30
0.0
 10
234.7832790772036
 20
295.7804623391268
 30
0.0
 10
234.5821882623
 20
295.4442242618
 30
0.0
 11
235.7883960482
 21
297.461854254
 31
0.0
 11
235.1854045233625
 21
296.452972082275
 31
0.0
 11
234.5821882623
 21
295.4442242618
 31
0.0
  0
SPLINE
  5
129
330
1F
100
AcDbEntity
  8
0
  6
Continuous
 62
     7
100
AcDbSpline
210
0.0
220
0.0
230
1.0
 70
     8
 71
     3
 72
    13
 73
     9
 74
     7
 42
0.0000000001
 43
0.0000000001
 44
0.00000001
 40
0.0
 40
0.0
 40
0.0
 40
0.0
 40
0.3136333753919751
 40
0.6271933033636474
 40
0.7587904133146893
 40
0.8904542630499306
 40
0.9946451801319892
 40
1.098658437927765
 40
1.098658437927765
 40
1.098658437927765
 40
1.098658437927765
 10
233.4996565075
 20
317.6965069896
 30
0.0
 10
233.6042213189342
 20
317.6948505734665
 30
0.0
 10
233.8133264545628
 20
317.691538129103
 30
0.0
 10
234.0653252282818
 20
317.6659769955843
 30
0.0
 10
234.255282191498
 20
317.6358820837335
 30
0.0
 10
234.3751317164349
 20
317.6105105881786
 30
0.0
 10
234.4849149598514
 20
317.5819089033325
 30
0.0
 10
234.5497822784394
 20
317.5570915402786
 30
0.0
 10
234.5821882623
 20
317.544693447
 30
0.0
 11
233.4996565075
 21
317.6965069896
 31
0.0
 11
233.8131482596782
 21
317.6870827932938
 31
0.0
 11
234.1251401968406
 21
317.6557641155566
 31
0.0
 11
234.2550527894843
 21
317.6347756039354
 31
0.0
 11
234.3838611193574
 21
317.6075032097903
 31
0.0
 11
234.4843747716658
 21
317.5800668670671
 31
0.0
 11
234.5821882623
 21
317.544693447
 31
0.0
  0
SPLINE
  5
12A
330
1F
100
AcDbEntity
  8
0
  6
Continuous
 62
     7
100
AcDbSpline
210
0.0
220
0.0
230
1.0
 70
     8
 71
     3
 72
    11
 73
     7
 74
     5
 42
0.0000000001
 43
0.0000000001
 44
0.00000001
 40
0.0
 40
0.0
 40
0.0
 40
0.0
 40
0.6525249505108152
 40
1.305495242843085
 40
1.958465532818418
 40
2.610990481002718
 40
2.610990481002718
 40
2.610990481002718
 40
2.610990481002718
 10
235.7883960482
 20
331.411973871
 30
0.0
 10
235.818814978003
 20
331.1964715441762
 30
0.0
 10
235.8796735982276
 20
330.7653198123231
 30
0.0
 10
235.9036418417857
 20
330.1119738694396
 30
0.0
 10
235.8796735979128
 20
329.4586279273566
 30
0.0
 10
235.8188149778986
 20
329.0274761970537
 30
0.0
 10
235.7883960482
 20
328.811973871
 30
0.0
 11
235.7883960482
 21
331.411973871
 31
0.0
 11
235.868440089528
 21
330.7643769574133
 31
0.0
 11
235.895650610475
 21
330.1119738686573
 31
0.0
 11
235.8684400893095
 21
329.4595707822695
 31
0.0
 11
235.7883960482
 21
328.811973871
 31
0.0
  0
SPLINE
  5
12B
330
1F
100
AcDbEntity
  8
0
  6
Continuous
 62
     7
100
AcDbSpline
210
0.0
220
0.0
230
1.0
 70
     8
 71
     3
 72
    15
 73
    11
 74
     9
 42
0.0000000001
 43
0.0000000001
 44
0.00000001
 40
0.0
 40
0.0
 40
0.0
 40
0.0
 40
0.1634328331662983
 40
0.3271400237697126
 40
0.4899447427127493
 40
0.6526608072888896
 40
0.8139774373694741
 40
0.9753767073817623
 40
1.135260168056104
 40
1.294843856298883
 40
1.294843856298883
 40
1.294843856298883
 40
1.294843856298883
 10
233.4996565075
 20
334.0328255892
 30
0.0
 10
233.5541690272537
 20
334.0308225150742
 30
0.0
 10
233.6632855778419
 20
334.0268130042284
 30
0.0
 10
233.8241121129535
 20
333.9948229155665
 30
0.0
 10
233.9794974070404
 20
333.9441998802909
 30
0.0
 10
234.1264111446501
 20
333.8741771882184
 30
0.0
 10
234.2628411888658
 20
333.7862984726968
 30
0.0
 10
234.3857253057987
 20
333.681928688408
 30
0.0
 10
234.4948230769236
 20
333.5635439438886
 30
0.0
 10
234.5530847571501
 20
333.4742226185007
 30
0.0
 10
234.5821882623
 20
333.4296038632
 30
0.0
 11
233.4996565075
 21
334.0328255892
 31
0.0
 11
233.6627619458129
 21
334.0224860075097
 31
0.0
 11
233.8235349276958
 21
333.9916300104956
 31
0.0
 11
233.9782356701613
 21
333.9409047032937
 31
0.0
 11
234.1251401967701
 21
333.8709362980454
 31
0.0
 11
234.2606875908197
 21
333.7834722533932
 31
0.0
 11
234.3838611193427
 21
333.6791745725383
 31
0.0
 11
234.4913298575767
 21
333.5607972465862
 31
0.0
 11
234.5821882623
 21
333.4296038632
 31
0.0
  0
SPLINE
  5
12C
330
1F
100
AcDbEntity
  8
0
  6
Continuous
 62
     7
100
AcDbSpline
210
0.0
220
0.0
230
1.0
 70
     8
 71
     3
 72
     9
 73
     5
 74
     3
 42
0.0000000001
 43
0.0000000001
 44
0.00000001
 40
0.0
 40
0.0
 40
0.0
 40
0.0
 40
1.17534761790851
 40
2.350695232638079
 40
2.350695232638079
 40
2.350695232638079
 40
2.350695232638079
 10
234.5821882623
 20
333.4296038632
 30
0.0
 10
234.7832790772037
 20
333.0933657858732
 30
0.0
 10
235.1854607064672
 20
332.4208896321292
 30
0.0
 10
235.587417601137
 20
331.7482791244065
 30
0.0
 10
235.7883960482
 20
331.411973871
 30
0.0
 11
234.5821882623
 21
333.4296038632
 31
0.0
 11
235.1854045233625
 21
332.420856042725
 31
0.0
 11
235.7883960482
 21
331.411973871
 31
0.0
  0
SPLINE
  5
12D
330
1F
100
AcDbEntity
  8
VERERBUNG
  6
Continuous
 62
     7
100
AcDbSpline
210
0.0
220
0.0
230
1.0
 70
     8
 71
     3
 72
    13
 73
     9
 74
     7
 42
0.0000000001
 43
0.0000000001
 44
0.00000001
 40
0.0
 40
0.0
 40
0.0
 40
0.0
 40
0.9581451161981435
 40
1.916374757602192
 40
2.729668920850495
 40
3.542928077738485
 40
4.281951737047649
 40
5.020980281037363
 40
5.020980281037363
 40
5.020980281037363
 40
5.020980281037363
 10
84.9741210938
 20
345.5375571427
 30
0.0
 10
84.65472692746552
 20
345.5404006804021
 30
0.0
 10
84.01591041862866
 20
345.5460880066563
 30
0.0
 10
83.10684629739302
 20
345.5896957252966
 30
0.0
 10
82.24752819016946
 20
345.6532521114805
 30
0.0
 10
81.46288964727454
 20
345.732249127469
 30
0.0
 10
80.70475811979354
 20
345.825660187928
 30
0.0
 10
80.21766730571191
 20
345.8998293559378
 30
0.0
 10
79.9741210938
 20
345.9369140625
 30
0.0
 11
84.9741210938
 21
345.5375571427
 31
0.0
 11
84.01608970192859
 21
345.5523191169345
 31
0.0
 11
83.05887799000419
 21
345.5964754779721
 31
0.0
 11
82.24782665968739
 21
345.6568338706372
 31
0.0
 11
81.4386149116257
 21
345.7378696840848
 31
0.0
 11
80.70524867317442
 21
345.829138130541
 31
0.0
 11
79.9741210938
 21
345.9369140625
 31
0.0
  0
SPLINE
  5
12E
330
1F
100
AcDbEntity
  8
VERERBUNG
  6
Continuous
 62
     7
100
AcDbSpline
210
0.0
220
0.0
230
1.0
 70
     8
 71
     3
 72
    13
 73
     9
 74
     7
 42
0.0000000001
 43
0.0000000001
 44
0.00000001
 40
0.0
 40
0.0
 40
0.0
 40
0.0
 40
0.4765182419162901
 40
0.9529821706214265
 40
1.193158829987009
 40
1.433310795920347
 40
1.675484054954631
 40
1.91749373162603
 40
1.91749373162603
 40
1.91749373162603
 40
1.91749373162603
 10
51.4615281315
 20
323.7069140625
 30
0.0
 10
51.5333487441575
 20
323.5651158996573
 30
0.0
 10
51.67698178341003
 20
323.2815357360258
 30
0.0
 10
51.81140587729423
 20
322.9059217793964
 30
0.0
 10
51.89300057858632
 20
322.5974453202783
 30
0.0
 10
51.93840592396376
 20
322.3607718776314
 30
0.0
 10
51.96828166185066
 20
322.1208254270871
 30
0.0
 10
51.9721750549476
 20
321.9593914828142
 30
0.0
 10
51.9741210938
 20
321.8787017811
 30
0.0
 11
51.4615281315
 21
323.7069140625
 31
0.0
 11
51.66792198206831
 21
323.2774129410503
 31
0.0
 11
51.82935216849363
 21
322.8291293586297
 31
0.0
 11
51.89030838803973
 21
322.5968167093773
 31
0.0
 11
51.93569626181018
 21
322.3609928181868
 31
0.0
 11
51.96426641855059
 21
322.1205107325024
 31
0.0
 11
51.9741210938
 21
321.8787017811
 31
0.0
  0
SPLINE
  5
12F
330
1F
100
AcDbEntity
  8
VERERBUNG
  6
Continuous
 62
     7
100
AcDbSpline
210
0.0
220
0.0
230
1.0
 70
     8
 71
     3
 72
    19
 73
    15
 74
    13
 42
0.0000000001
 43
0.0000000001
 44
0.00000001
 40
0.0
 40
0.0
 40
0.0
 40
0.0
 40
0.0835832282562503
 40
0.1672705448546344
 40
0.2499538624042107
 40
0.3326148850032277
 40
0.4138475638583337
 40
0.4950848397559542
 40
0.5749375740068232
 40
0.6547985887984196
 40
0.8114954796845648
 40
0.9684466433334301
 40
1.123543258602142
 40
1.278502018092717
 40
1.278502018092717
 40
1.278502018092717
 40
1.278502018092717
 10
50.4741210938
 20
324.3932269444
 30
0.0
 10
50.5019197343716
 20
324.3954998251231
 30
0.0
 10
50.55755163387633
 20
324.4000484170462
 30
0.0
 10
50.64098303738656
 20
324.3946822890018
 30
0.0
 10
50.72289211078292
 20
324.3803781055842
 30
0.0
 10
50.80192858364209
 20
324.3571883143749
 30
0.0
 10
50.87762959163787
 20
324.3260836073559
 30
0.0
 10
50.94915922946294
 20
324.2883129583131
 30
0.0
 10
51.01670107162281
 20
324.2446776739229
 30
0.0
 10
51.10057051544801
 20
324.1805821871356
 30
0.0
 10
51.19615844549413
 20
324.0901589887839
 30
0.0
 10
51.29653272440084
 20
323.9701126485901
 30
0.0
 10
51.38557703562981
 20
323.8421139408034
 30
0.0
 10
51.43621860490469
 20
323.7519673283733
 30
0.0
 10
51.4615281315
 20
323.7069140625
 30
0.0
 11
50.4741210938
 21
324.3932269444
 31
0.0
 11
50.55756717047284
 21
324.3980132095042
 31
0.0
 11
50.64111285939561
 21
324.3931465040624
 31
0.0
 11
50.72255313351065
 21
324.3788632007655
 31
0.0
 11
50.80189796825668
 21
324.3556847224669
 31
0.0
 11
50.87707437572172
 21
324.3249072002367
 31
0.0
 11
50.94895873932555
 21
324.2870636636084
 31
0.0
 11
51.01608996927065
 21
324.2438218189045
 31
0.0
 11
51.07960672334893
 21
324.1954131044524
 31
0.0
 11
51.19384384284948
 21
324.0881573533637
 31
0.0
 11
51.29507756355696
 21
323.9682181956109
 31
0.0
 11
51.38348223452978
 21
323.8407836076138
 31
0.0
 11
51.4615281315
 21
323.7069140625
 31
0.0
  0
SPLINE
  5
130
330
1F
100
AcDbEntity
  8
VERERBUNG
  6
Continuous
 62
     7
100
AcDbSpline
210
0.0
220
0.0
230
1.0
 70
     8
 71
     3
 72
    13
 73
     9
 74
     7
 42
0.0000000001
 43
0.0000000001
 44
0.00000001
 40
0.0
 40
0.0
 40
0.0
 40
0.0
 40
0.2420096760832277
 40
0.4841829345456267
 40
0.7243349034544428
 40
0.9645115657962146
 40
1.440975492120525
 40
1.917493731639127
 40
1.917493731639127
 40
1.917493731639127
 40
1.917493731639127
 10
51.9741210938
 20
306.9951263439
 30
0.0
 10
51.97217505495431
 20
306.9144366423819
 30
0.0
 10
51.96828166187065
 20
306.7530026984962
 30
0.0
 10
51.93840592397567
 20
306.513056247345
 30
0.0
 10
51.89300057827571
 20
306.2763828029285
 30
0.0
 10
51.81140587644856
 20
305.9679063427134
 30
0.0
 10
51.67698178238123
 20
305.5922923868059
 30
0.0
 10
51.53334874381373
 20
305.3087122246183
 30
0.0
 10
51.4615281315
 20
305.1669140625
 30
0.0
 11
51.9741210938
 21
306.9951263439
 31
0.0
 11
51.96426641859077
 21
306.7533173930846
 31
0.0
 11
51.93569626198551
 21
306.5128353079601
 31
0.0
 11
51.89030838766428
 21
306.2770114138455
 31
0.0
 11
51.82935216718858
 21
306.0446987617601
 31
0.0
 11
51.66792198115109
 21
305.5964151817303
 31
0.0
 11
51.4615281315
 21
305.1669140625
 31
0.0
  0
SPLINE
  5
131
330
1F
100
AcDbEntity
  8
VERERBUNG
  6
Continuous
 62
     7
100
AcDbSpline
210
0.0
220
0.0
230
1.0
 70
     8
 71
     3
 72
    19
 73
    15
 74
    13
 42
0.0000000001
 43
0.0000000001
 44
0.00000001
 40
0.0
 40
0.0
 40
0.0
 40
0.0
 40
0.1549595547523669
 40
0.310056926668195
 40
0.4670093143437093
 40
0.6237075593951369
 40
0.7035716820666379
 40
0.783427437186644
 40
0.8646682251472956
 40
0.9459045180025015
 40
1.028561641654369
 40
1.11124095607338
 40
1.194923428853559
 40
1.278501866365305
 40
1.278501866365305
 40
1.278501866365305
 40
1.278501866365305
 10
51.4615281315
 20
305.1669140625
 30
0.0
 10
51.43621848164639
 20
305.1218605616951
 30
0.0
 10
51.38557667216779
 20
305.0317134906252
 30
0.0
 10
51.29653175211174
 20
304.9037140660331
 30
0.0
 10
51.19615635265246
 20
304.7836671974362
 30
0.0
 10
51.10056690565963
 20
304.6932428842247
 30
0.0
 10
51.01669561478096
 20
304.6291456969983
 30
0.0
 10
50.94915074987831
 20
304.5855090936649
 30
0.0
 10
50.8776170902307
 20
304.5477387233296
 30
0.0
 10
50.80191411937241
 20
304.5166359896343
 30
0.0
 10
50.72287867949511
 20
304.4934479598504
 30
0.0
 10
50.64097369246185
 20
304.4791451383592
 30
0.0
 10
50.55754681449076
 20
304.4737799420597
 30
0.0
 10
50.50191813379661
 20
304.4783283774528
 30
0.0
 10
50.4741210938
 20
304.4806011806
 30
0.0
 11
51.4615281315
 21
305.1669140625
 31
0.0
 11
51.38348183711536
 21
305.0330438285349
 31
0.0
 11
51.29507662081848
 21
304.9056086979519
 31
0.0
 11
51.19384180199126
 21
304.7856688653104
 31
0.0
 11
51.07960359723396
 21
304.6784122917309
 31
0.0
 11
51.01608439504491
 21
304.6300016622849
 31
0.0
 11
50.94895026352799
 21
304.5867587436593
 31
0.0
 11
50.87706189275616
 21
304.5489152795441
 31
0.0
 11
50.80188124960914
 21
304.5181385647608
 31
0.0
 11
50.72253972462804
 21
304.4949626612385
 31
0.0
 11
50.64110326024387
 21
304.4806808090685
 31
0.0
 11
50.55756237394046
 21
304.4758149518731
 31
0.0
 11
50.4741210938
 21
304.4806011806
 31
0.0
  0
SPLINE
  5
132
330
1F
100
AcDbEntity
  8
VERERBUNG
  6
Continuous
 62
     7
100
AcDbSpline
210
0.0
220
0.0
230
1.0
 70
     8
 71
     3
 72
    23
 73
    19
 74
    17
 42
0.0000000001
 43
0.0000000001
 44
0.00000001
 40
0.0
 40
0.0
 40
0.0
 40
0.0
 40
0.0664886891767441
 40
0.1330028506632337
 40
0.1940175413964725
 40
0.255029599147203
 40
0.3099753629663632
 40
0.3648861555762811
 40
0.4150633581078897
 40
0.4651526181800221
 40
0.514174037924809
 40
0.5632529905509074
 40
0.6152549116184942
 40
0.6673077698423655
 40
0.7243355356419285
 40
0.7813668340540456
 40
0.8435221576568106
 40
0.9056490098634086
 40
0.9056490098634086
 40
0.9056490098634086
 40
0.9056490098634086
 10
45.9741210938
 20
323.1897821842
 30
0.0
 10
45.97446968115369
 20
323.2119495315735
 30
0.0
 10
45.97516698940748
 20
323.2562927187955
 30
0.0
 10
45.98155404851974
 20
323.3207306256744
 30
0.0
 10
45.99244985180365
 20
323.3826940981154
 30
0.0
 10
46.00842415938338
 20
323.4396089297363
 30
0.0
 10
46.03005388636949
 20
323.4924479364768
 30
0.0
 10
46.0571449954995
 20
323.5386729798001
 30
0.0
 10
46.09053247800403
 20
323.5784942889617
 30
0.0
 10
46.12903465165481
 20
323.6105317115623
 30
0.0
 10
46.17291821933676
 20
323.6338935127336
 30
0.0
 10
46.22087580823008
 20
323.6490551608176
 30
0.0
 10
46.27175767791523
 20
323.655560287617
 30
0.0
 10
46.32559026740938
 20
323.6542816963017
 30
0.0
 10
46.38048125171881
 20
323.6460244527443
 30
0.0
 10
46.43734766564223
 20
323.6310168207859
 30
0.0
 10
46.49439356647278
 20
323.6107754335989
 30
0.0
 10
46.53201590888395
 20
323.5933929789698
 30
0.0
 10
46.5508227707
 20
323.5847037427
 30
0.0
 11
45.9741210938
 21
323.1897821842
 31
0.0
 11
45.97608679007391
 21
323.2562418097376
 31
0.0
 11
45.98259786635482
 21
323.3224365192235
 31
0.0
 11
45.9934407274437
 21
323.3824800438425
 31
0.0
 11
46.01013775378759
 21
323.4411629246703
 31
0.0
 11
46.03123169140342
 21
323.4918983438322
 31
0.0
 11
46.05926251787091
 21
323.5391155855199
 31
0.0
 11
46.09162483990318
 21
323.5774617948056
 31
0.0
 11
46.13027771446951
 21
323.609319121472
 31
0.0
 11
46.17347361768751
 21
323.6324969889101
 31
0.0
 11
46.22024626330658
 21
323.6473651835774
 31
0.0
 11
46.27179069600101
 21
323.6542478613216
 31
0.0
 11
46.32383462227217
 21
323.6532836063986
 31
0.0
 11
46.38025955749632
 21
323.6450136150418
 31
0.0
 11
46.43547342710013
 21
323.6307308421337
 31
0.0
 11
46.49403234493909
 21
323.6098948781844
 31
0.0
 11
46.5508227707
 21
323.5847037427
 31
0.0
  0
SPLINE
  5
133
330
1F
100
AcDbEntity
  8
VERERBUNG
  6
Continuous
 62
     7
100
AcDbSpline
210
0.0
220
0.0
230
1.0
 70
     8
 71
     3
 72
    23
 73
    19
 74
    17
 42
0.0000000001
 43
0.0000000001
 44
0.00000001
 40
0.0
 40
0.0
 40
0.0
 40
0.0
 40
0.0621269685144185
 40
0.1242824031428013
 40
0.181313530313597
 40
0.2383411404021574
 40
0.2903938962941848
 40
0.342395688457608
 40
0.3914747075171423
 40
0.4404962287401449
 40
0.4905855734433069
 40
0.5407628275873352
 40
0.5956736074377862
 40
0.6506193812921877
 40
0.7116314425807705
 40
0.7726461253335031
 40
0.8391602986852355
 40
0.9056490032216693
 40
0.9056490032216693
 40
0.9056490032216693
 40
0.9056490032216693
 10
46.5508227707
 20
305.2891243823
 30
0.0
 10
46.53201587395812
 20
305.2804351291508
 30
0.0
 10
46.4943934632944
 20
305.2630526415011
 30
0.0
 10
46.43734753872229
 20
305.2428112614199
 30
0.0
 10
46.38048118191479
 20
305.2278036950541
 30
0.0
 10
46.3255903443337
 20
305.2195464701961
 30
0.0
 10
46.27175789067672
 20
305.2182677594713
 30
0.0
 10
46.22087605661636
 20
305.2247727853289
 30
0.0
 10
46.17291847193763
 20
305.2399345188792
 30
0.0
 10
46.12903487744697
 20
305.2632964312829
 30
0.0
 10
46.09053258352765
 20
305.2953338189547
 30
0.0
 10
46.0571449721573
 20
305.3351550816998
 30
0.0
 10
46.0300538629641
 20
305.3813801511449
 30
0.0
 10
46.00842418585133
 20
305.4342191769932
 30
0.0
 10
45.99244987308798
 20
305.4911340070914
 30
0.0
 10
45.98155404568568
 20
305.5530974782332
 30
0.0
 10
45.97516698632326
 20
305.6175353920103
 30
0.0
 10
45.97446968013186
 20
305.6618785883068
 30
0.0
 10
45.9741210938
 20
305.6840459408
 30
0.0
 11
46.5508227707
 21
305.2891243823
 31
0.0
 11
46.49403223826834
 21
305.2639332004516
 31
0.0
 11
46.43547320890865
 21
305.2430972187302
 31
0.0
 11
46.38025949626624
 21
305.2288145228147
 31
0.0
 11
46.32383471765966
 21
305.220544536623
 31
0.0
 11
46.27179089549076
 21
305.219580187098
 31
0.0
 11
46.22024658106513
 21
305.2264627766251
 31
0.0
 11
46.17347388728409
 21
305.2413310390761
 31
0.0
 11
46.13027791959807
 21
305.2645090009944
 31
0.0
 11
46.09162493249363
 21
305.2963663241823
 31
0.0
 11
46.05926250267745
 21
305.3347125100399
 31
0.0
 11
46.03123167795862
 21
305.3819297379272
 31
0.0
 11
46.01013776959016
 21
305.4326651801171
 31
0.0
 11
45.99344074481298
 21
305.491348065069
 31
0.0
 11
45.98259786887211
 21
305.5513915788964
 31
0.0
 11
45.97608678773056
 21
305.6175862998267
 31
0.0
 11
45.9741210938
 21
305.6840459408
 31
0.0
  0
SPLINE
  5
134
330
1F
100
AcDbEntity
  8
VERERBUNG
  6
Continuous
 62
     7
100
AcDbSpline
210
0.0
220
0.0
230
1.0
 70
     8
 71
     3
 72
     9
 73
     5
 74
     3
 42
0.0000000001
 43
0.0000000001
 44
0.00000001
 40
0.0
 40
0.0
 40
0.0
 40
0.0
 40
0.077396305719156
 40
0.1547963632788681
 40
0.1547963632788681
 40
0.1547963632788681
 40
0.1547963632788681
 10
46.6457959042
 20
305.1669140625
 30
0.0
 10
46.6294581738462
 20
305.1868861958525
 30
0.0
 10
46.59678192115557
 20
305.2268314307209
 30
0.0
 10
46.56614273505523
 20
305.2683597295962
 30
0.0
 10
46.5508227707
 20
305.2891243823
 30
0.0
 11
46.6457959042
 21
305.1669140625
 31
0.0
 11
46.5972919551
 21
305.227226209375
 31
0.0
 11
46.5508227707
 21
305.2891243823
 31
0.0
  0
SPLINE
  5
135
330
1F
100
AcDbEntity
  8
VERERBUNG
  6
Continuous
 62
     7
100
AcDbSpline
210
0.0
220
0.0
230
1.0
 70
     8
 71
     3
 72
    15
 73
    11
 74
     9
 42
0.0000000001
 43
0.0000000001
 44
0.00000001
 40
0.0
 40
0.0
 40
0.0
 40
0.0
 40
0.0705890228530622
 40
0.1413178421759961
 40
0.2119756690486455
 40
0.28260667588657
 40
0.3532320942672121
 40
0.4238693692837636
 40
0.4944866364849785
 40
0.5650782700703765
 40
0.5650782700703765
 40
0.5650782700703765
 40
0.5650782700703765
 10
47.1140780294
 20
304.8748861312
 30
0.0
 10
47.09081296008083
 20
304.8786281715855
 30
0.0
 10
47.04423674665023
 20
304.8861196631976
 30
0.0
 10
46.97700273424741
 20
304.9087834680321
 30
0.0
 10
46.91281710704989
 20
304.938611555897
 30
0.0
 10
46.85224047667909
 20
304.9751958130965
 30
0.0
 10
46.79528488393085
 20
305.0171123206142
 30
0.0
 10
46.74198749478579
 20
305.0635435685646
 30
0.0
 10
46.69188729583395
 20
305.113408399345
 30
0.0
 10
46.66115784197467
 20
305.1490809999943
 30
0.0
 10
46.6457959042
 20
305.1669140625
 30
0.0
 11
47.1140780294
 21
304.8748861312
 31
0.0
 11
47.0447202814359
 21
304.8880129337314
 31
0.0
 11
46.97749116331094
 21
304.9099859071068
 31
0.0
 11
46.91340554975795
 21
304.9397443115315
 31
0.0
 11
46.85284142822887
 21
304.9760861099233
 31
0.0
 11
46.79589709422108
 21
305.0178628085225
 31
0.0
 11
46.74251415053819
 21
305.0641217097796
 31
0.0
 11
46.69254785150518
 21
305.1140232867879
 31
0.0
 11
46.6457959042
 21
305.1669140625
 31
0.0
  0
SPLINE
  5
136
330
1F
100
AcDbEntity
  8
VERERBUNG
  6
Continuous
 62
     7
100
AcDbSpline
210
0.0
220
0.0
230
1.0
 70
     8
 71
     3
 72
    15
 73
    11
 74
     9
 42
0.0000000001
 43
0.0000000001
 44
0.00000001
 40
0.0
 40
0.0
 40
0.0
 40
0.0
 40
0.0705917491155296
 40
0.1412091311110349
 40
0.2118461807736721
 40
0.2824713748881989
 40
0.3531025104631997
 40
0.4237604658486991
 40
0.4944892663218429
 40
0.5650782700701172
 40
0.5650782700701172
 40
0.5650782700701172
 40
0.5650782700701172
 10
46.6457959042
 20
323.7069140625
 30
0.0
 10
46.66115786646704
 20
323.7247471547408
 30
0.0
 10
46.69188736915069
 20
323.760419814675
 30
0.0
 10
46.74198757147705
 20
323.8102846450416
 30
0.0
 10
46.79528488626293
 20
323.8567158081645
 30
0.0
 10
46.85224039254911
 20
323.898632251198
 30
0.0
 10
46.91281702662035
 20
323.9352165240715
 30
0.0
 10
46.97700272488871
 20
323.9650446486604
 30
0.0
 10
47.04423676559173
 20
323.9877084637875
 30
0.0
 10
47.09081296642263
 20
323.9951999540809
 30
0.0
 10
47.1140780294
 20
323.9989419938
 30
0.0
 11
46.6457959042
 21
323.7069140625
 31
0.0
 11
46.69254792676688
 21
323.7598049258801
 31
0.0
 11
46.74251431109278
 21
323.8097065799338
 31
0.0
 11
46.79589709265231
 21
323.8559653241668
 31
0.0
 11
46.85284124487603
 21
323.8977418914173
 31
0.0
 11
46.91340547125183
 21
323.9340837652836
 31
0.0
 11
46.97749120013719
 21
323.9638422264752
 31
0.0
 11
47.04472030038983
 21
323.9858151938577
 31
0.0
 11
47.1140780294
 21
323.9989419938
 31
0.0
  0
SPLINE
  5
137
330
1F
100
AcDbEntity
  8
VERERBUNG
  6
Continuous
 62
     7
100
AcDbSpline
210
0.0
220
0.0
230
1.0
 70
     8
 71
     3
 72
     9
 73
     5
 74
     3
 42
0.0000000001
 43
0.0000000001
 44
0.00000001
 40
0.0
 40
0.0
 40
0.0
 40
0.0
 40
0.0774000575597121
 40
0.1547963632788681
 40
0.1547963632788681
 40
0.1547963632788681
 40
0.1547963632788681
 10
46.5508227707
 20
323.5847037427
 30
0.0
 10
46.56614273505522
 20
323.6054683954038
 30
0.0
 10
46.59678192115558
 20
323.646996694279
 30
0.0
 10
46.6294581738462
 20
323.6869419291475
 30
0.0
 10
46.6457959042
 20
323.7069140625
 30
0.0
 11
46.5508227707
 21
323.5847037427
 31
0.0
 11
46.5972919551
 21
323.646601915625
 31
0.0
 11
46.6457959042
 21
323.7069140625
 31
0.0
  0
SPLINE
  5
138
330
1F
100
AcDbEntity
  8
0
  6
Continuous
 62
     7
100
AcDbSpline
210
0.0
220
0.0
230
1.0
 70
     8
 71
     3
 72
    17
 73
    13
 74
    11
 42
0.0000000001
 43
0.0000000001
 44
0.00000001
 40
0.0
 40
0.0
 40
0.0
 40
0.0
 40
0.0680277950716403
 40
0.1360632351795963
 40
0.2040812641421916
 40
0.2721696697760341
 40
0.3403702855947903
 40
0.4083585485918184
 40
0.4424627524344198
 40
0.4765773021610282
 40
0.5107086427405227
 40
0.5447868110783134
 40
0.5447868110783134
 40
0.5447868110783134
 40
0.5447868110783134
 10
94.6832342032
 20
322.4544140625
 30
0.0
 10
94.69564282572537
 20
322.4354286956367
 30
0.0
 10
94.72046146527039
 20
322.3974558283142
 30
0.0
 10
94.76140301010102
 20
322.3430632970788
 30
0.0
 10
94.8056215467609
 20
322.2912683745932
 30
0.0
 10
94.85420164576048
 20
322.2433939711298
 30
0.0
 10
94.90753444693273
 20
322.2008135060167
 30
0.0
 10
94.95668953115332
 20
322.1718732738197
 30
0.0
 10
94.99865476893072
 20
322.1543541269884
 30
0.0
 10
95.03137917059317
 20
322.1445361559671
 30
0.0
 10
95.0650066350793
 20
322.1381551276726
 30
0.0
 10
95.08775551880375
 20
322.1373275358431
 30
0.0
 10
95.0991210938
 20
322.1369140625
 30
0.0
 11
94.6832342032
 21
322.4544140625
 31
0.0
 11
94.72107938643833
 21
322.3978851052483
 31
0.0
 11
94.76195061662325
 21
322.3434942636125
 31
0.0
 11
94.80632600172059
 21
322.2919454764161
 31
0.0
 11
94.8549675611272
 21
322.2443006479427
 31
0.0
 11
94.90853148201535
 21
322.202084177494
 31
0.0
 11
94.96735074854995
 21
322.1679858228463
 31
0.0
 11
94.99884988628192
 21
322.1549129103215
 31
0.0
 11
95.03152569161475
 21
322.1451101429112
 31
0.0
 11
95.06510741920815
 21
322.1390096526362
 31
0.0
 11
95.0991210938
 21
322.1369140625
 31
0.0
  0
SPLINE
  5
139
330
1F
100
AcDbEntity
  8
0
  6
Continuous
 62
     7
100
AcDbSpline
210
0.0
220
0.0
230
1.0
 70
     8
 71
     3
 72
    17
 73
    13
 74
    11
 42
0.0000000001
 43
0.0000000001
 44
0.00000001
 40
0.0
 40
0.0
 40
0.0
 40
0.0
 40
0.0340790970877439
 40
0.0682097421751426
 40
0.1023154066605307
 40
0.1364128755706706
 40
0.2043992839400445
 40
0.2725935679833253
 40
0.3406803506976991
 40
0.4086986202968871
 40
0.476746440725785
 40
0.5447862543274736
 40
0.5447862543274736
 40
0.5447862543274736
 40
0.5447862543274736
 10
95.0991210938
 20
306.7369140625
 30
0.0
 10
95.08775520337407
 20
306.7365027948204
 30
0.0
 10
95.06500623049057
 20
306.735679637378
 30
0.0
 10
95.03137886668917
 20
306.7293117532604
 30
0.0
 10
94.99866239222199
 20
306.7194837238154
 30
0.0
 10
94.95671142607263
 20
306.7019464896018
 30
0.0
 10
94.90756158624934
 20
306.6730106412857
 30
0.0
 10
94.85422035121186
 20
306.6304457424698
 30
0.0
 10
94.80563641986436
 20
306.5825784634389
 30
0.0
 10
94.76141351573423
 20
306.5307823519822
 30
0.0
 10
94.72046752335244
 20
306.4763828338673
 30
0.0
 10
94.69564482309619
 20
306.4384029080957
 30
0.0
 10
94.6832342032
 20
306.4194140625
 30
0.0
 11
95.0991210938
 21
306.7369140625
 31
0.0
 11
95.0651060235802
 21
306.7348260356184
 31
0.0
 11
95.03152362054597
 21
306.7287331594069
 31
0.0
 11
94.99885880062993
 21
306.7189246992911
 31
0.0
 11
94.9673711860945
 21
306.7058415988579
 31
0.0
 11
94.90855531929219
 21
306.671741077817
 31
0.0
 11
94.85498827921033
 21
306.6295387959706
 31
0.0
 11
94.80634190250142
 21
306.5819012056297
 31
0.0
 11
94.76196411866617
 21
306.5303541659364
 31
0.0
 11
94.72108550117566
 21
306.4759533893134
 31
0.0
 11
94.6832342032
 21
306.4194140625
 31
0.0
  0
SPLINE
  5
13A
330
1F
100
AcDbEntity
  8
0
  6
Continuous
 62
     7
100
AcDbSpline
210
0.0
220
0.0
230
1.0
 70
     8
 71
     3
 72
    17
 73
    13
 74
    11
 42
0.0000000001
 43
0.0000000001
 44
0.00000001
 40
0.0
 40
0.0
 40
0.0
 40
0.0
 40
0.0340781915491949
 40
0.0682095734771469
 40
0.1023243843955232
 40
0.1364288244667636
 40
0.2044171800477503
 40
0.2726179462966941
 40
0.3407061059542606
 40
0.4087238601413888
 40
0.4767591625872201
 40
0.5447868280161847
 40
0.5447868280161847
 40
0.5447868280161847
 40
0.5447868280161847
 10
96.8491210938
 20
322.1369140625
 30
0.0
 10
96.86048667646983
 20
322.1373275595518
 30
0.0
 10
96.88323558159031
 20
322.1381551990556
 30
0.0
 10
96.91686312441362
 20
322.1445363774556
 30
0.0
 10
96.94958772844336
 20
322.1543542738081
 30
0.0
 10
96.99155323458666
 20
322.1718733029306
 30
0.0
 10
97.04070841893783
 20
322.2008137237879
 30
0.0
 10
97.09404102754252
 20
322.243394420747
 30
0.0
 10
97.14262098027756
 20
322.2912687867254
 30
0.0
 10
97.18683938830368
 20
322.3430635306478
 30
0.0
 10
97.22778080476417
 20
322.3974559327557
 30
0.0
 10
97.25259938879842
 20
322.4354287297045
 30
0.0
 10
97.2650079843
 20
322.4544140625
 30
0.0
 11
96.8491210938
 21
322.1369140625
 31
0.0
 11
96.88313478663372
 21
322.1390097340097
 31
0.0
 11
96.91671654125608
 21
322.1451103068349
 31
0.0
 11
96.94939262331178
 21
322.1549130608095
 31
0.0
 11
96.98089202775307
 21
322.1679859469643
 31
0.0
 11
97.03971134207389
 21
322.2020844037833
 31
0.0
 11
97.0932752338179
 21
322.2443011542288
 31
0.0
 11
97.14191654663485
 21
322.2919458829298
 31
0.0
 11
97.18629174922728
 21
322.3434944646712
 31
0.0
 11
97.2271628848589
 21
322.3978852051614
 31
0.0
 11
97.2650079843
 21
322.4544140625
 31
0.0
  0
SPLINE
  5
13B
330
1F
100
AcDbEntity
  8
VERERBUNG
  6
Continuous
 62
     7
100
AcDbSpline
210
0.0
220
0.0
230
1.0
 70
     8
 71
     3
 72
    43
 73
    39
 74
    37
 42
0.0000000001
 43
0.0000000001
 44
0.00000001
 40
0.0
 40
0.0
 40
0.0
 40
0.0
 40
0.4175881290579675
 40
0.8356316531790571
 40
1.253282832059153
 40
1.670787328090161
 40
2.08807915454817
 40
2.505458237142287
 40
2.922766757530152
 40
3.339867556097952
 40
3.548612846012858
 40
3.757291312444606
 40
3.966036487539876
 40
4.174848410699581
 40
4.592416990854073
 40
5.010187344145723
 40
5.428059866850337
 40
5.845880990790505
 40
6.263484877137957
 40
6.681103578745718
 40
7.097989619701778
 40
7.514858051212897
 40
7.930683045128776
 40
8.346557961757458
 40
8.761608457051448
 40
9.176458234578536
 40
9.383846863112497
 40
9.591169424590186
 40
9.798492920775505
 40
10.00588294521744
 40
10.42072923638137
 40
10.83577763650983
 40
11.25173036427003
 40
11.66760664540123
 40
12.08452417586573
 40
12.50157511615805
 40
12.91952009632544
 40
13.33702821006139
 40
13.33702821006139
 40
13.33702821006139
 40
13.33702821006139
 10
64.7247473835
 20
314.4369140625
 30
0.0
 10
64.72866826292955
 20
314.5761693410833
 30
0.0
 10
64.73651429765049
 20
314.8548317612028
 30
0.0
 10
64.8006658977209
 20
315.2686838200034
 30
0.0
 10
64.90207635431008
 20
315.6744511320281
 30
0.0
 10
65.04352364731946
 20
316.068024365296
 30
0.0
 10
65.22290368771067
 20
316.4456325079312
 30
0.0
 10
65.43857098258667
 20
316.8037178475791
 30
0.0
 10
65.68849109045433
 20
317.138677533126
 30
0.0
 10
65.92316111543424
 20
317.3960950212036
 30
0.0
 10
66.1253295007573
 20
317.5873046019287
 30
0.0
 10
66.28391305685278
 20
317.7231459368194
 30
0.0
 10
66.44899454237527
 20
317.8510480697411
 30
0.0
 10
66.67724508401697
 20
318.0105674388564
 30
0.0
 10
66.97700421202484
 20
318.1886345624325
 30
0.0
 10
67.35585694527457
 20
318.3661762397822
 30
0.0
 10
67.75039945878005
 20
318.5057278744308
 30
0.0
 10
68.15661236085697
 20
318.6061070037572
 30
0.0
 10
68.5706084859452
 20
318.6662769367603
 30
0.0
 10
68.98818403009167
 20
318.6858605158186
 30
0.0
 10
69.40542734765889
 20
318.664551981926
 30
0.0
 10
69.81802822320203
 20
318.6028387286005
 30
0.0
 10
70.22229008646437
 20
318.5011692391664
 30
0.0
 10
70.61415540083792
 20
318.3607818751798
 30
0.0
 10
70.99006074851707
 20
318.1828147022494
 30
0.0
 10
71.28717705876063
 20
318.0047928841366
 30
0.0
 10
71.51331997728796
 20
317.8455007553397
 30
0.0
 10
71.67683561928894
 20
317.7178676584354
 30
0.0
 10
71.83389996920087
 20
317.5823738801171
 30
0.0
 10
72.03422993517904
 20
317.3916330605495
 30
0.0
 10
72.26679082627567
 20
317.1349528067283
 30
0.0
 10
72.5146101684008
 20
316.8009078985298
 30
0.0
 10
72.72850998352077
 20
316.4437517495531
 30
0.0
 10
72.90661035557275
 20
316.0668126635844
 30
0.0
 10
73.04716476609468
 20
315.6738503874915
 30
0.0
 10
73.14801419656595
 20
315.2683856690051
 30
0.0
 10
73.21169888346193
 20
314.8547375417
 30
0.0
 10
73.21956420143738
 20
314.5761399951241
 30
0.0
 10
73.223494804
 20
314.4369140625
 30
0.0
 11
64.7247473835
 21
314.4369140625
 31
0.0
 11
64.7452323364913
 21
314.853999440128
 31
0.0
 11
64.80690403708977
 21
315.2674688941447
 31
0.0
 11
64.90877504258724
 21
315.672505689336
 31
0.0
 11
65.04987823236854
 21
316.0654432085928
 31
0.0
 11
65.22894260746337
 21
316.4423628525496
 31
0.0
 11
65.44429949996847
 21
316.7998914632057
 31
0.0
 11
65.69381521691272
 21
317.1343885606312
 31
0.0
 11
65.97484052711948
 21
317.4426057749284
 31
0.0
 11
66.12649441608812
 21
317.5860480769956
 31
0.0
 11
66.28497582003598
 21
317.7218064909338
 31
0.0
 11
66.44998957054266
 21
317.8496540965793
 31
0.0
 11
66.62114783925738
 21
317.9692670820961
 31
0.0
 11
66.98012350680632
 21
318.1825743469513
 31
0.0
 11
67.3584276624119
 21
318.3598256768221
 31
0.0
 11
67.75237005391953
 21
318.4992058669668
 31
0.0
 11
68.15799446597211
 21
318.599422272598
 31
0.0
 11
68.57125200402729
 21
318.6595156427237
 31
0.0
 11
68.98841384860802
 21
318.6790444767532
 31
0.0
 11
69.4047585615394
 21
318.6578065117352
 31
0.0
 11
69.81703471527685
 21
318.5961002539489
 31
0.0
 11
70.22030490744467
 21
318.494692277566
 31
0.0
 11
70.61179915064412
 21
318.3543918719265
 31
0.0
 11
70.98694360785606
 21
318.1768149875442
 31
0.0
 11
71.34277617458382
 21
317.9635463251246
 31
0.0
 11
71.51232853694688
 21
317.8441225433126
 31
0.0
 11
71.67576021773314
 21
317.7165579313975
 31
0.0
 11
71.83274194408544
 21
317.5811335256873
 31
0.0
 11
71.98293644556179
 21
317.4381222185668
 31
0.0
 11
72.2615020315077
 21
317.1307158757255
 31
0.0
 11
72.50875696324516
 21
316.797353950514
 31
0.0
 11
72.72250681269264
 21
316.4405239159145
 31
0.0
 11
72.90019706726635
 21
316.0645195879646
 31
0.0
 11
73.04050072899531
 21
315.6719191425827
 31
0.0
 11
73.1417534472401
 21
315.2673460665547
 31
0.0
 11
73.20305853366004
 21
314.8539217169741
 31
0.0
 11
73.223494804
 21
314.4369140625
 31
0.0
  0
SPLINE
  5
13C
330
1F
100
AcDbEntity
  8
VERERBUNG
  6
Continuous
 62
     7
100
AcDbSpline
210
0.0
220
0.0
230
1.0
 70
     8
 71
     3
 72
    43
 73
    39
 74
    37
 42
0.0000000001
 43
0.0000000001
 44
0.00000001
 40
0.0
 40
0.0
 40
0.0
 40
0.0
 40
0.41750351093135
 40
0.8354555648370086
 40
1.252511183718288
 40
1.669422664489122
 40
2.085295425780436
 40
2.50125132659384
 40
2.916298094076111
 40
3.331138757720673
 40
3.538526232961015
 40
3.745847790923727
 40
3.953170095075998
 40
4.160558348169745
 40
4.575407544414135
 40
4.990456744673184
 40
5.40633239447214
 40
5.822158816104738
 40
6.23902728054196
 40
6.655913113587788
 40
7.073532178577715
 40
7.491136194379926
 40
7.908956414466751
 40
8.326828662534751
 40
8.74460019996432
 40
9.1621693493962
 40
9.370981458445753
 40
9.579726706221921
 40
9.788406630770723
 40
9.99715392649554
 40
10.41425933407885
 40
10.83156890842475
 40
11.2489451085535
 40
11.66624011603398
 40
12.08375102630009
 40
12.50139861936395
 40
12.91943544780601
 40
13.33702799558857
 40
13.33702799558857
 40
13.33702799558857
 40
13.33702799558857
 10
73.223494804
 20
314.4369140625
 30
0.0
 10
73.21959022450392
 20
314.2976878555994
 30
0.0
 10
73.21177687064477
 20
314.019085864764
 30
0.0
 10
73.14798727616952
 20
313.6054485816468
 30
0.0
 10
73.04715061135818
 20
313.1999830654931
 30
0.0
 10
72.90662473453641
 20
312.8070108104664
 30
0.0
 10
72.72851268607843
 20
312.4300784922956
 30
0.0
 10
72.51459915539158
 20
312.0729323058896
 30
0.0
 10
72.26679701230691
 20
311.7388774446008
 30
0.0
 10
72.03424894191477
 20
311.4821889202788
 30
0.0
 10
71.8339164309594
 20
311.2914554168855
 30
0.0
 10
71.67684776420018
 20
311.1559690866852
 30
0.0
 10
71.51332938817505
 20
311.0283409779817
 30
0.0
 10
71.28718512359407
 20
310.869051606464
 30
0.0
 10
70.99007304593076
 20
310.691024869998
 30
0.0
 10
70.61417251994953
 20
310.5130479362369
 30
0.0
 10
70.2223069116069
 20
310.3726596706271
 30
0.0
 10
69.81804374374573
 20
310.2709925392543
 30
0.0
 10
69.40544264021472
 20
310.2092786640599
 30
0.0
 10
68.988199393795
 20
310.1879679648685
 30
0.0
 10
68.57062363148204
 20
310.2075490529533
 30
0.0
 10
68.15662737759475
 20
310.2677178487067
 30
0.0
 10
67.7504153001172
 20
310.3680990804883
 30
0.0
 10
67.3558728708602
 20
310.5076501933961
 30
0.0
 10
66.97701583255207
 20
310.6851834140278
 30
0.0
 10
66.67725290143343
 20
310.8632459761144
 30
0.0
 10
66.44900330394901
 20
311.0227673015299
 30
0.0
 10
66.28392413945437
 20
311.1506734516776
 30
0.0
 10
66.12534446675618
 20
311.2865211577899
 30
0.0
 10
65.92317855758779
 20
311.4777370569192
 30
0.0
 10
65.68849765362043
 20
311.7351471430858
 30
0.0
 10
65.438562691911
 20
312.0700978657755
 30
0.0
 10
65.22290713721108
 20
312.4281916472586
 30
0.0
 10
65.04353667540144
 20
312.8058058559815
 30
0.0
 10
64.90206400913968
 20
313.1993707499204
 30
0.0
 10
64.80064369001958
 20
313.6051383783217
 30
0.0
 10
64.73659172022892
 20
314.0190009668577
 30
0.0
 10
64.7286940960947
 20
314.2976590821826
 30
0.0
 10
64.7247473835
 20
314.4369140625
 30
0.0
 11
73.223494804
 21
314.4369140625
 31
0.0
 11
73.2031064214877
 21
314.0199086722488
 31
0.0
 11
73.14174587872671
 21
313.6064853986466
 31
0.0
 11
73.04048801781002
 21
313.2019087868126
 31
0.0
 11
72.90020508716778
 21
312.8093073576647
 31
0.0
 11
72.72251032228289
 21
312.4333090543221
 31
0.0
 11
72.50875012459551
 21
312.0764815199219
 31
0.0
 11
72.26150681634932
 21
311.7431130065242
 31
0.0
 11
71.9829538386679
 21
311.4357028329159
 31
0.0
 11
71.83275827277295
 21
311.2926963405037
 31
0.0
 11
71.67577315228942
 21
311.1572788366762
 31
0.0
 11
71.51233827674781
 21
311.029718736113
 31
0.0
 11
71.34278498348974
 21
310.9102969279429
 31
0.0
 11
70.98695572983223
 21
310.6970238685421
 31
0.0
 11
70.6118161446409
 21
310.5194397187478
 31
0.0
 11
70.22032185372308
 21
310.3791372730298
 31
0.0
 11
69.81704990759265
 21
310.2777304172855
 31
0.0
 11
69.40477376566851
 21
310.2160238581334
 31
0.0
 11
68.9884293599578
 21
310.1947839516431
 31
0.0
 11
68.57126704873731
 21
310.2143105883283
 31
0.0
 11
68.15800926817819
 21
310.2744031903812
 31
0.0
 11
67.75238602704309
 21
310.3746205669406
 31
0.0
 11
67.35844338328812
 21
310.5139992207465
 31
0.0
 11
66.98013494579591
 21
310.6912442026458
 31
0.0
 11
66.62115615899249
 21
310.9045473324456
 31
0.0
 11
66.44999861857954
 21
311.0241616846176
 31
0.0
 11
66.28498759931769
 21
311.1520129340886
 31
0.0
 11
66.1265092846009
 21
311.2877771954913
 31
0.0
 11
65.97485652309713
 21
311.4312236084848
 31
0.0
 11
65.69382051091469
 21
311.739437302035
 31
0.0
 11
65.44429484400341
 21
312.073928292038
 31
0.0
 11
65.22894677730199
 21
312.4314588538113
 31
0.0
 11
65.04988587687241
 21
312.8083836701944
 31
0.0
 11
64.90876417403749
 21
313.2013213563231
 31
0.0
 11
64.8068997883679
 21
313.6063561189352
 31
0.0
 11
64.74528061572796
 21
314.0198266348091
 31
0.0
 11
64.7247473835
 21
314.4369140625
 31
0.0
  0
SPLINE
  5
13D
330
1F
100
AcDbEntity
  8
0
  6
Continuous
 62
     7
100
AcDbSpline
210
0.0
220
0.0
230
1.0
 70
     8
 71
     3
 72
    17
 73
    13
 74
    11
 42
0.0000000001
 43
0.0000000001
 44
0.00000001
 40
0.0
 40
0.0
 40
0.0
 40
0.0
 40
0.0680405843733904
 40
0.1360892263916124
 40
0.2041088007280139
 40
0.2721966989084773
 40
0.3403905143233197
 40
0.4083768376540194
 40
0.4424735707235851
 40
0.4765783279409092
 40
0.5107080465916181
 40
0.5447863433143415
 40
0.5447863433143415
 40
0.5447863433143415
 40
0.5447863433143415
 10
97.2650079843
 20
306.4194140625
 30
0.0
 10
97.25259721209778
 20
306.4384031158346
 30
0.0
 10
97.22777419795884
 20
306.4763834712654
 30
0.0
 10
97.18682760665027
 20
306.5307837425551
 30
0.0
 10
97.1426042028882
 20
306.5825808465488
 30
0.0
 10
97.09401954114723
 20
306.6304483757995
 30
0.0
 10
97.0406769668704
 20
306.6730119553567
 30
0.0
 10
96.9915272464151
 20
306.7019468880649
 30
0.0
 10
96.9495773459317
 20
306.7194850929562
 30
0.0
 10
96.9168618377074
 20
306.72931354956
 30
0.0
 10
96.88323511463551
 20
306.7356801893798
 30
0.0
 10
96.86048671741683
 20
306.7365029782264
 30
0.0
 10
96.8491210938
 20
306.7369140625
 30
0.0
 11
97.2650079843
 21
306.4194140625
 31
0.0
 11
97.22715622552147
 21
306.4759540083723
 31
0.0
 11
97.1862771327284
 21
306.5303554555308
 31
0.0
 11
97.14189858631799
 21
306.5819035603593
 31
0.0
 11
97.09325106008627
 21
306.6295415711297
 31
0.0
 11
97.03968349053376
 21
306.6717424236456
 31
0.0
 11
96.98086748790888
 21
306.7058425408779
 31
0.0
 11
96.94938084583605
 21
306.7189260639889
 31
0.0
 11
96.91671702011077
 21
306.728734680295
 31
0.0
 11
96.8831354027611
 21
306.7348266973138
 31
0.0
 11
96.8491210938
 21
306.7369140625
 31
0.0
  0
SPLINE
  5
13E
330
1F
100
AcDbEntity
  8
VERERBUNG
  6
Continuous
 62
     7
100
AcDbSpline
210
0.0
220
0.0
230
1.0
 70
     8
 71
     3
 72
    11
 73
     7
 74
     5
 42
0.0000000001
 43
0.0000000001
 44
0.00000001
 40
0.0
 40
0.0
 40
0.0
 40
0.0
 40
0.4891002096562723
 40
0.9783817006614163
 40
1.283670603045255
 40
1.588797103092484
 40
1.588797103092484
 40
1.588797103092484
 40
1.588797103092484
 10
46.9741210938
 20
322.0667957424
 30
0.0
 10
46.96335033617628
 20
322.2299489357023
 30
0.0
 10
46.94180482882776
 20
322.5563157938221
 30
0.0
 10
46.81829129882932
 20
322.968934696316
 30
0.0
 10
46.68551089539515
 20
323.3106499007008
 30
0.0
 10
46.59571084850575
 20
323.4933686663617
 30
0.0
 10
46.5508227708093
 20
323.584703742831
 30
0.0
 11
46.9741210938
 21
322.0667957424
 31
0.0
 11
46.9236671898537
 21
322.5532866659149
 31
0.0
 11
46.79319895623019
 21
323.024852586498
 31
0.0
 11
46.68146493849076
 21
323.3089596494136
 31
0.0
 11
46.5508227708093
 21
323.584703742831
 31
0.0
  0
SPLINE
  5
13F
330
1F
100
AcDbEntity
  8
VERERBUNG
  6
Continuous
 62
     7
100
AcDbSpline
210
0.0
220
0.0
230
1.0
 70
     8
 71
     3
 72
    11
 73
     7
 74
     5
 42
0.0000000001
 43
0.0000000001
 44
0.00000001
 40
0.0
 40
0.0
 40
0.0
 40
0.0
 40
0.5427795451560431
 40
1.085508812756566
 40
1.337448492045618
 40
1.589025708812329
 40
1.589025708812329
 40
1.589025708812329
 40
1.589025708812329
 10
46.5508227707
 20
305.2891243823
 30
0.0
 10
46.62855310818574
 20
305.4527447392715
 30
0.0
 10
46.78400658301234
 20
305.779970297095
 30
0.0
 10
46.90792810511773
 20
306.210583193446
 30
0.0
 10
46.96548247059006
 20
306.5552162194929
 30
0.0
 10
46.97124293497589
 20
306.7231339540789
 30
0.0
 10
46.9741210938
 20
306.8070323826
 30
0.0
 11
46.5508227707
 21
305.2891243823
 31
0.0
 11
46.77029364543754
 21
305.7855538030455
 31
0.0
 11
46.92091768857914
 21
306.3069629087752
 31
0.0
 11
46.96000996689909
 21
306.5558512286619
 31
0.0
 11
46.9741210938
 21
306.8070323826
 31
0.0
  0
DIMENSION
  5
14A
330
1F
100
AcDbEntity
  8
1
100
AcDbDimension
  2
*D2
 10
248.921859579691
 20
326.9369140625
 30
0.0
 11
245.171859579691
 21
313.936030400265
 31
0.0
 70
    32
  1
<>
 71
     5
 42
-1.0
 53
90.0
  3
ME10_DIM_10
100
AcDbAlignedDimension
 13
225.9741210938
 23
301.9369140625
 33
0.0
 14
225.9741210938
 24
326.9369140625
 34
0.0
 50
90.0
100
AcDbRotatedDimension
  0
DIMENSION
  5
155
330
1F
100
AcDbEntity
  8
1
100
AcDbDimension
  2
*D3
 10
257.838551460086
 20
335.4369140625
 30
0.0
 11
254.088551460086
 21
314.368713332995
 31
0.0
 70
    32
  1
<>
 71
     5
 42
-1.0
 53
90.0
  3
ME10_DIM_11
100
AcDbAlignedDimension
 13
233.4996565075
 23
293.4369140625
 33
0.0
 14
233.4996565075
 24
335.4369140625
 34
0.0
 50
90.0
100
AcDbRotatedDimension
  0
DIMENSION
  5
160
330
1F
100
AcDbEntity
  8
1
100
AcDbDimension
  2
*D4
 10
225.9741210938
 20
353.506123240536
 30
0.0
 11
166.793428943267
 21
357.256123240536
 31
0.0
 70
    32
  1
<>
 71
     5
 42
-1.0
 53
0.00013888888889
  3
ME10_DIM_12
100
AcDbAlignedDimension
 13
103.9741210938
 23
345.936865157
 33
0.0
 14
225.9741210938
 24
330.4369140625
 34
0.0
100
AcDbRotatedDimension
  0
DIMENSION
  5
16B
330
1F
100
AcDbEntity
  8
1
100
AcDbDimension
  2
*D5
 10
225.9741210938
 20
361.174842560343
 30
0.0
 11
153.906265401195
 21
364.924842560343
 31
0.0
 70
    32
  1
<>
 71
     5
 42
-1.0
 53
0.00013888888889
  3
ME10_DIM_13
100
AcDbAlignedDimension
 13
77.9741210938
 23
345.9369140625
 33
0.0
 14
225.9741210938
 24
330.4369140625
 34
0.0
100
AcDbRotatedDimension
  0
DIMENSION
  5
176
330
1F
100
AcDbEntity
  8
1
100
AcDbDimension
  2
*D6
 10
225.9741210938
 20
377.430178662184
 30
0.0
 11
139.508681996708
 21
381.180178662184
 31
0.0
 70
    32
  1
<>
 71
     5
 42
-1.0
 53
0.00013888888889
  3
ME10_DIM_14
100
AcDbAlignedDimension
 13
45.9741210938
 23
336.0129412426
 33
0.0
 14
225.9741210938
 24
330.4369140625
 34
0.0
100
AcDbRotatedDimension
  0
DIMENSION
  5
181
330
1F
100
AcDbEntity
  8
1
100
AcDbDimension
  2
*D7
 10
77.9741210938
 20
369.999167872771
 30
0.0
 11
158.08620897024
 21
373.749167872771
 31
0.0
 70
    32
  1
<>
 71
     5
 42
-1.0
 53
0.00013888888889
  3
ME10_DIM_15
100
AcDbAlignedDimension
 13
237.9741210938
 23
328.9369140625
 33
0.0
 14
77.9741210938
 24
345.9369140625
 34
0.0
100
AcDbRotatedDimension
  0
INSERT
  5
188
330
1F
100
AcDbEntity
  8
1
100
AcDbBlockReference
  2
*D8
 10
0.0
 20
0.0
 30
0.0
  0
ENDSEC
  0
SECTION
  2
OBJECTS
  0
DICTIONARY
  5
C
330
0
100
AcDbDictionary
281
     1
  3
ACAD_GROUP
350
D
  3
ACAD_LAYOUT
350
1A
  3
ACAD_MLEADERSTYLE
350
18B
  3
ACAD_MLINESTYLE
350
17
  3
ACAD_PLOTSETTINGS
350
19
  3
ACAD_PLOTSTYLENAME
350
E
  3
ACAD_SCALELIST
350
4C
  3
ACAD_VISUALSTYLE
350
2A
  3
AcDbVariableDictionary
350
189
  0
DICTIONARY
  5
D
102
{ACAD_REACTORS
330
C
102
}
330
C
100
AcDbDictionary
281
     1
  0
DICTIONARY
  5
1A
102
{ACAD_REACTORS
330
C
102
}
330
C
100
AcDbDictionary
281
     1
  3
Layout1
350
1E
  3
Layout2
350
26
  3
Model
350
22
  0
DICTIONARY
  5
18B
102
{ACAD_REACTORS
330
C
102
}
330
C
100
AcDbDictionary
281
     1
  0
DICTIONARY
  5
17
102
{ACAD_REACTORS
330
C
102
}
330
C
100
AcDbDictionary
281
     1
  3
Standard
350
18
  0
DICTIONARY
  5
19
102
{ACAD_REACTORS
330
C
102
}
330
C
100
AcDbDictionary
281
     1
  0
ACDBDICTIONARYWDFLT
  5
E
102
{ACAD_REACTORS
330
C
102
}
330
C
100
AcDbDictionary
281
     1
  3
Normal
350
F
100
AcDbDictionaryWithDefault
340
F
  0
DICTIONARY
  5
4C
102
{ACAD_REACTORS
330
C
102
}
330
C
100
AcDbDictionary
281
     1
  3
A0
350
4D
  3
A1
350
4E
  3
A2
350
4F
  3
A3
350
50
  3
A4
350
51
  3
A5
350
52
  3
A6
350
53
  3
A7
350
54
  3
A8
350
55
  3
A9
350
56
  3
B0
350
57
  3
B1
350
58
  3
B2
350
59
  3
B3
350
5A
  3
B4
350
5B
  3
B5
350
5C
  3
B6
350
5D
  3
B7
350
5E
  3
B8
350
5F
  3
B9
350
60
  3
C0
350
61
  3
C1
350
62
  3
C2
350
63
  3
C3
350
64
  3
C4
350
65
  3
C5
350
66
  3
C6
350
67
  3
C7
350
68
  3
C8
350
69
  3
C9
350
6A
  3
D0
350
6B
  3
D1
350
6C
  3
D2
350
6D
  0
DICTIONARY
  5
2A
102
{ACAD_REACTORS
330
C
102
}
330
C
100
AcDbDictionary
281
     1
  3
2dWireframe
350
2F
  3
3D Hidden
350
31
  3
3dWireframe
350
30
  3
Basic
350
32
  3
Brighten
350
36
  3
ColorChange
350
3A
  3
Conceptual
350
34
  3
Dim
350
35
  3
Facepattern
350
39
  3
Flat
350
2B
  3
FlatWithEdges
350
2C
  3
Gouraud
350
2D
  3
GouraudWithEdges
350
2E
  3
Linepattern
350
38
  3
Realistic
350
33
  3
Thicken
350
37
  0
DICTIONARY
  5
189
102
{ACAD_REACTORS
330
C
102
}
330
C
100
AcDbDictionary
281
     1
  3
CANNOSCALE
350
18C
  0
LAYOUT
  5
1E
102
{ACAD_REACTORS
330
1A
102
}
330
1A
100
AcDbPlotSettings
  1

  2
none_device
  4

  6

 40
0.0
 41
0.0
 42
0.0
 43
0.0
 44
0.0
 45
0.0
 46
0.0
 47
0.0
 48
0.0
 49
0.0
140
0.0
141
0.0
142
1.0
143
1.0
 70
   688
 72
     0
 73
     0
 74
     5
  7

 75
    16
147
1.0
148
0.0
149
0.0
100
AcDbLayout
  1
Layout1
 70
     1
 71
     1
 10
0.0
 20
0.0
 11
12.0
 21
9.0
 12
0.0
 22
0.0
 32
0.0
 14
1.00000000000000E+20
 24
1.00000000000000E+20
 34
1.00000000000000E+20
 15
-1.00000000000000E+20
 25
-1.00000000000000E+20
 35
-1.00000000000000E+20
146
0.0
 13
0.0
 23
0.0
 33
0.0
 16
1.0
 26
0.0
 36
0.0
 17
0.0
 27
1.0
 37
0.0
 76
     0
330
1B
  0
LAYOUT
  5
26
102
{ACAD_REACTORS
330
1A
102
}
330
1A
100
AcDbPlotSettings
  1

  2
none_device
  4

  6

 40
0.0
 41
0.0
 42
0.0
 43
0.0
 44
0.0
 45
0.0
 46
0.0
 47
0.0
 48
0.0
 49
0.0
140
0.0
141
0.0
142
1.0
143
1.0
 70
   688
 72
     0
 73
     0
 74
     5
  7

 75
    16
147
1.0
148
0.0
149
0.0
100
AcDbLayout
  1
Layout2
 70
     1
 71
     2
 10
0.0
 20
0.0
 11
0.0
 21
0.0
 12
0.0
 22
0.0
 32
0.0
 14
0.0
 24
0.0
 34
0.0
 15
0.0
 25
0.0
 35
0.0
146
0.0
 13
0.0
 23
0.0
 33
0.0
 16
1.0
 26
0.0
 36
0.0
 17
0.0
 27
1.0
 37
0.0
 76
     0
330
23
  0
LAYOUT
  5
22
102
{ACAD_REACTORS
330
1A
102
}
330
1A
100
AcDbPlotSettings
  1

  2
none_device
  4

  6

 40
0.0
 41
0.0
 42
0.0
 43
0.0
 44
0.0
 45
0.0
 46
0.0
 47
0.0
 48
0.0
 49
0.0
140
0.0
141
0.0
142
1.0
143
1.0
 70
  1712
 72
     0
 73
     0
 74
     0
  7

 75
     0
147
1.0
148
0.0
149
0.0
100
AcDbLayout
  1
Model
 70
     1
 71
     0
 10
0.0
 20
0.0
 11
12.0
 21
9.0
 12
0.0
 22
0.0
 32
0.0
 14
23.7967218166178
 24
275.1614124853848
 34
0.0
 15
259.838551460086
 25
383.930799402691
 35
0.0
146
0.0
 13
0.0
 23
0.0
 33
0.0
 16
1.0
 26
0.0
 36
0.0
 17
0.0
 27
1.0
 37
0.0
 76
     0
330
1F
331
29
  0
MLINESTYLE
  5
18
102
{ACAD_REACTORS
330
17
102
}
330
17
100
AcDbMlineStyle
  2
Standard
 70
     0
  3

 62
   256
 51
90.0
 52
90.0
 71
     2
 49
0.5
 62
   256
  6
BYLAYER
 49
-0.5
 62
   256
  6
BYLAYER
  0
ACDBPLACEHOLDER
  5
F
102
{ACAD_REACTORS
330
E
102
}
330
E
  0
SCALE
  5
4D
102
{ACAD_REACTORS
330
4C
102
}
330
4C
100
AcDbScale
 70
     0
300
1:1
140
1.0
141
1.0
290
     1
  0
SCALE
  5
4E
102
{ACAD_REACTORS
330
4C
102
}
330
4C
100
AcDbScale
 70
     0
300
1:2
140
1.0
141
2.0
290
     0
  0
SCALE
  5
4F
102
{ACAD_REACTORS
330
4C
102
}
330
4C
100
AcDbScale
 70
     0
300
1:4
140
1.0
141
4.0
290
     0
  0
SCALE
  5
50
102
{ACAD_REACTORS
330
4C
102
}
330
4C
100
AcDbScale
 70
     0
300
1:5
140
1.0
141
5.0
290
     0
  0
SCALE
  5
51
102
{ACAD_REACTORS
330
4C
102
}
330
4C
100
AcDbScale
 70
     0
300
1:8
140
1.0
141
8.0
290
     0
  0
SCALE
  5
52
102
{ACAD_REACTORS
330
4C
102
}
330
4C
100
AcDbScale
 70
     0
300
1:10
140
1.0
141
10.0
290
     0
  0
SCALE
  5
53
102
{ACAD_REACTORS
330
4C
102
}
330
4C
100
AcDbScale
 70
     0
300
1:16
140
1.0
141
16.0
290
     0
  0
SCALE
  5
54
102
{ACAD_REACTORS
330
4C
102
}
330
4C
100
AcDbScale
 70
     0
300
1:20
140
1.0
141
20.0
290
     0
  0
SCALE
  5
55
102
{ACAD_REACTORS
330
4C
102
}
330
4C
100
AcDbScale
 70
     0
300
1:30
140
1.0
141
30.0
290
     0
  0
SCALE
  5
56
102
{ACAD_REACTORS
330
4C
102
}
330
4C
100
AcDbScale
 70
     0
300
1:40
140
1.0
141
40.0
290
     0
  0
SCALE
  5
57
102
{ACAD_REACTORS
330
4C
102
}
330
4C
100
AcDbScale
 70
     0
300
1:50
140
1.0
141
50.0
290
     0
  0
SCALE
  5
58
102
{ACAD_REACTORS
330
4C
102
}
330
4C
100
AcDbScale
 70
     0
300
1:100
140
1.0
141
100.0
290
     0
  0
SCALE
  5
59
102
{ACAD_REACTORS
330
4C
102
}
330
4C
100
AcDbScale
 70
     0
300
2:1
140
2.0
141
1.0
290
     0
  0
SCALE
  5
5A
102
{ACAD_REACTORS
330
4C
102
}
330
4C
100
AcDbScale
 70
     0
300
4:1
140
4.0
141
1.0
290
     0
  0
SCALE
  5
5B
102
{ACAD_REACTORS
330
4C
102
}
330
4C
100
AcDbScale
 70
     0
300
8:1
140
8.0
141
1.0
290
     0
  0
SCALE
  5
5C
102
{ACAD_REACTORS
330
4C
102
}
330
4C
100
AcDbScale
 70
     0
300
10:1
140
10.0
141
1.0
290
     0
  0
SCALE
  5
5D
102
{ACAD_REACTORS
330
4C
102
}
330
4C
100
AcDbScale
 70
     0
300
100:1
140
100.0
141
1.0
290
     0
  0
SCALE
  5
5E
102
{ACAD_REACTORS
330
4C
102
}
330
4C
100
AcDbScale
 70
     0
300
1/128" = 1'-0"
140
0.0078125
141
12.0
290
     0
  0
SCALE
  5
5F
102
{ACAD_REACTORS
330
4C
102
}
330
4C
100
AcDbScale
 70
     0
300
1/64" = 1'-0"
140
0.015625
141
12.0
290
     0
  0
SCALE
  5
60
102
{ACAD_REACTORS
330
4C
102
}
330
4C
100
AcDbScale
 70
     0
300
1/32" = 1'-0"
140
0.03125
141
12.0
290
     0
  0
SCALE
  5
61
102
{ACAD_REACTORS
330
4C
102
}
330
4C
100
AcDbScale
 70
     0
300
1/16" = 1'-0"
140
0.0625
141
12.0
290
     0
  0
SCALE
  5
62
102
{ACAD_REACTORS
330
4C
102
}
330
4C
100
AcDbScale
 70
     0
300
3/32" = 1'-0"
140
0.09375
141
12.0
290
     0
  0
SCALE
  5
63
102
{ACAD_REACTORS
330
4C
102
}
330
4C
100
AcDbScale
 70
     0
300
1/8" = 1'-0"
140
0.125
141
12.0
290
     0
  0
SCALE
  5
64
102
{ACAD_REACTORS
330
4C
102
}
330
4C
100
AcDbScale
 70
     0
300
3/16" = 1'-0"
140
0.1875
141
12.0
290
     0
  0
SCALE
  5
65
102
{ACAD_REACTORS
330
4C
102
}
330
4C
100
AcDbScale
 70
     0
300
1/4" = 1'-0"
140
0.25
141
12.0
290
     0
  0
SCALE
  5
66
102
{ACAD_REACTORS
330
4C
102
}
330
4C
100
AcDbScale
 70
     0
300
3/8" = 1'-0"
140
0.375
141
12.0
290
     0
  0
SCALE
  5
67
102
{ACAD_REACTORS
330
4C
102
}
330
4C
100
AcDbScale
 70
     0
300
1/2" = 1'-0"
140
0.5
141
12.0
290
     0
  0
SCALE
  5
68
102
{ACAD_REACTORS
330
4C
102
}
330
4C
100
AcDbScale
 70
     0
300
3/4" = 1'-0"
140
0.75
141
12.0
290
     0
  0
SCALE
  5
69
102
{ACAD_REACTORS
330
4C
102
}
330
4C
100
AcDbScale
 70
     0
300
1" = 1'-0"
140
1.0
141
12.0
290
     0
  0
SCALE
  5
6A
102
{ACAD_REACTORS
330
4C
102
}
330
4C
100
AcDbScale
 70
     0
300
1-1/2" = 1'-0"
140
1.5
141
12.0
290
     0
  0
SCALE
  5
6B
102
{ACAD_REACTORS
330
4C
102
}
330
4C
100
AcDbScale
 70
     0
300
3" = 1'-0"
140
3.0
141
12.0
290
     0
  0
SCALE
  5
6C
102
{ACAD_REACTORS
330
4C
102
}
330
4C
100
AcDbScale
 70
     0
300
6" = 1'-0"
140
6.0
141
12.0
290
     0
  0
SCALE
  5
6D
102
{ACAD_REACTORS
330
4C
102
}
330
4C
100
AcDbScale
 70
     0
300
1'-0" = 1'-0"
140
12.0
141
12.0
290
     0
  0
VISUALSTYLE
  5
2F
102
{ACAD_REACTORS
330
2A
102
}
330
2A
100
AcDbVisualStyle
  2
2dWireframe
 70
     4
 71
     0
 72
     2
 73
     0
 90
        0
 40
-0.6
 41
-30.0
 62
     5
 63
     7
 74
     1
 91
        4
 64
     7
 65
   257
 75
     1
175
     1
 42
1.0
 92
        0
 66
   257
 43
1.0
 76
     1
 77
     6
 78
     2
 67
     7
 79
     5
170
     0
171
     0
290
     0
174
     0
 93
        1
 44
0.0
173
     0
291
     0
 45
0.0
1001
ACAD
1000
AcDbSavedByObjectVersion
1070
     0
  0
VISUALSTYLE
  5
31
102
{ACAD_REACTORS
330
2A
102
}
330
2A
100
AcDbVisualStyle
  2
3D Hidden
 70
     6
 71
     1
 72
     2
 73
     2
 90
        0
 40
-0.6
 41
-30.0
 62
     5
 63
     7
 74
     2
 91
        2
 64
     7
 65
   257
 75
     2
175
     1
 42
40.0
 92
        0
 66
   257
 43
1.0
 76
     1
 77
     6
 78
     2
 67
     7
 79
     3
170
     0
171
     0
290
     0
174
     0
 93
        1
 44
0.0
173
     0
291
     0
 45
0.0
1001
ACAD
1000
AcDbSavedByObjectVersion
1070
     0
  0
VISUALSTYLE
  5
30
102
{ACAD_REACTORS
330
2A
102
}
330
2A
100
AcDbVisualStyle
  2
3dWireframe
 70
     5
 71
     0
 72
     2
 73
     0
 90
        0
 40
-0.6
 41
-30.0
 62
     5
 63
     7
 74
     1
 91
        4
 64
     7
 65
   257
 75
     1
175
     1
 42
1.0
 92
        0
 66
   257
 43
1.0
 76
     1
 77
     6
 78
     2
 67
     7
 79
     5
170
     0
171
     0
290
     0
174
     0
 93
        1
 44
0.0
173
     0
291
     0
 45
0.0
1001
ACAD
1000
AcDbSavedByObjectVersion
1070
     0
  0
VISUALSTYLE
  5
32
102
{ACAD_REACTORS
330
2A
102
}
330
2A
100
AcDbVisualStyle
  2
Basic
 70
     7
 71
     1
 72
     0
 73
     1
 90
        0
 40
-0.6
 41
-30.0
 62
     5
 63
     7
 74
     0
 91
        4
 64
     7
 65
   257
 75
     1
175
     1
 42
1.0
 92
        8
 66
     7
 43
1.0
 76
     1
 77
     6
 78
     2
 67
     7
 79
     5
170
     0
171
     0
290
     0
174
     0
 93
        1
 44
0.0
173
     0
291
     1
 45
0.0
1001
ACAD
1000
AcDbSavedByObjectVersion
1070
     0
  0
VISUALSTYLE
  5
36
102
{ACAD_REACTORS
330
2A
102
}
330
2A
100
AcDbVisualStyle
  2
Brighten
 70
    12
 71
     2
 72
     2
 73
     0
 90
        0
 40
-0.6
 41
-30.0
 62
     5
 63
     7
 74
     1
 91
        4
 64
     7
 65
   257
 75
     1
175
     1
 42
1.0
 92
        8
 66
     7
 43
1.0
 76
     1
 77
     6
 78
     2
 67
     7
 79
     5
170
     0
171
     0
290
     0
174
     0
 93
        1
 44
50.0
173
     0
291
     1
 45
0.0
1001
ACAD
1000
AcDbSavedByObjectVersion
1070
     0
  0
VISUALSTYLE
  5
3A
102
{ACAD_REACTORS
330
2A
102
}
330
2A
100
AcDbVisualStyle
  2
ColorChange
 70
    16
 71
     2
 72
     2
 73
     3
 90
        0
 40
-0.6
 41
-30.0
 62
     5
 63
     8
 74
     1
 91
        4
 64
     7
 65
   257
 75
     1
175
     1
 42
1.0
 92
        8
 66
     8
 43
1.0
 76
     1
 77
     6
 78
     2
 67
     7
 79
     5
170
     0
171
     0
290
     0
174
     0
 93
        1
 44
0.0
173
     0
291
     1
 45
0.0
1001
ACAD
1000
AcDbSavedByObjectVersion
1070
     0
  0
VISUALSTYLE
  5
34
102
{ACAD_REACTORS
330
2A
102
}
330
2A
100
AcDbVisualStyle
  2
Conceptual
 70
     9
 71
     3
 72
     2
 73
     0
 90
        0
 40
-0.6
 41
-30.0
 62
     5
 63
     7
 74
     2
 91
        2
 64
     7
 65
   257
 75
     1
175
     1
 42
40.0
 92
        8
 66
     7
 43
1.0
 76
     1
 77
     6
 78
     2
 67
     7
 79
     3
170
     0
171
     0
290
     0
174
     0
 93
        1
 44
0.0
173
     0
291
     0
 45
0.0
1001
ACAD
1000
AcDbSavedByObjectVersion
1070
     0
  0
VISUALSTYLE
  5
35
102
{ACAD_REACTORS
330
2A
102
}
330
2A
100
AcDbVisualStyle
  2
Dim
 70
    11
 71
     2
 72
     2
 73
     0
 90
        0
 40
-0.6
 41
-30.0
 62
     5
 63
     7
 74
     1
 91
        4
 64
     7
 65
   257
 75
     1
175
     1
 42
1.0
 92
        8
 66
     7
 43
1.0
 76
     1
 77
     6
 78
     2
 67
     7
 79
     5
170
     0
171
     0
290
     0
174
     0
 93
        1
 44
-50.0
173
     0
291
     1
 45
0.0
1001
ACAD
1000
AcDbSavedByObjectVersion
1070
     0
  0
VISUALSTYLE
  5
39
102
{ACAD_REACTORS
330
2A
102
}
330
2A
100
AcDbVisualStyle
  2
Facepattern
 70
    15
 71
     2
 72
     2
 73
     0
 90
        0
 40
-0.6
 41
-30.0
 62
     5
 63
     7
 74
     1
 91
        4
 64
     7
 65
   257
 75
     1
175
     1
 42
1.0
 92
        8
 66
     7
 43
1.0
 76
     1
 77
     6
 78
     2
 67
     7
 79
     5
170
     0
171
     0
290
     0
174
     0
 93
        1
 44
0.0
173
     0
291
     1
 45
0.0
1001
ACAD
1000
AcDbSavedByObjectVersion
1070
     0
  0
VISUALSTYLE
  5
2B
102
{ACAD_REACTORS
330
2A
102
}
330
2A
100
AcDbVisualStyle
  2
Flat
 70
     0
 71
     2
 72
     1
 73
     1
 90
        2
 40
-0.6
 41
30.0
 62
     5
 63
     7
 74
     0
 91
        4
 64
     7
 65
   257
 75
     1
175
     1
 42
1.0
 92
        8
 66
     7
 43
1.0
 76
     1
 77
     6
 78
     2
 67
     7
 79
     5
170
     0
171
     0
290
     0
174
     0
 93
       13
 44
0.0
173
     0
291
     1
 45
0.0
1001
ACAD
1000
AcDbSavedByObjectVersion
1070
     0
  0
VISUALSTYLE
  5
2C
102
{ACAD_REACTORS
330
2A
102
}
330
2A
100
AcDbVisualStyle
  2
FlatWithEdges
 70
     1
 71
     2
 72
     1
 73
     1
 90
        2
 40
-0.6
 41
30.0
 62
     5
 63
     7
 74
     1
 91
        4
 64
     7
 65
   257
 75
     1
175
     1
 42
1.0
 92
        0
 66
   257
 43
1.0
 76
     1
 77
     6
 78
     2
 67
     7
 79
     5
170
     0
171
     0
290
     0
174
     0
 93
       13
 44
0.0
173
     0
291
     1
 45
0.0
1001
ACAD
1000
AcDbSavedByObjectVersion
1070
     0
  0
VISUALSTYLE
  5
2D
102
{ACAD_REACTORS
330
2A
102
}
330
2A
100
AcDbVisualStyle
  2
Gouraud
 70
     2
 71
     2
 72
     2
 73
     1
 90
        2
 40
-0.6
 41
30.0
 62
     5
 63
     7
 74
     0
 91
        4
 64
     7
 65
   257
 75
     1
175
     1
 42
1.0
 92
        0
 66
     7
 43
1.0
 76
     1
 77
     6
 78
     2
 67
     7
 79
     5
170
     0
171
     0
290
     0
174
     0
 93
       13
 44
0.0
173
     0
291
     1
 45
0.0
1001
ACAD
1000
AcDbSavedByObjectVersion
1070
     0
  0
VISUALSTYLE
  5
2E
102
{ACAD_REACTORS
330
2A
102
}
330
2A
100
AcDbVisualStyle
  2
GouraudWithEdges
 70
     3
 71
     2
 72
     2
 73
     1
 90
        2
 40
-0.6
 41
30.0
 62
     5
 63
     7
 74
     1
 91
        4
 64
     7
 65
   257
 75
     1
175
     1
 42
1.0
 92
        0
 66
   257
 43
1.0
 76
     1
 77
     6
 78
     2
 67
     7
 79
     5
170
     0
171
     0
290
     0
174
     0
 93
       13
 44
0.0
173
     0
291
     1
 45
0.0
1001
ACAD
1000
AcDbSavedByObjectVersion
1070
     0
  0
VISUALSTYLE
  5
38
102
{ACAD_REACTORS
330
2A
102
}
330
2A
100
AcDbVisualStyle
  2
Linepattern
 70
    14
 71
     2
 72
     2
 73
     0
 90
        0
 40
-0.6
 41
-30.0
 62
     5
 63
     7
 74
     1
 91
        4
 64
     7
 65
   257
 75
     7
175
     7
 42
1.0
 92
        8
 66
     7
 43
1.0
 76
     1
 77
     6
 78
     2
 67
     7
 79
     5
170
     0
171
     0
290
     0
174
     0
 93
        1
 44
0.0
173
     0
291
     1
 45
0.0
1001
ACAD
1000
AcDbSavedByObjectVersion
1070
     0
  0
VISUALSTYLE
  5
33
102
{ACAD_REACTORS
330
2A
102
}
330
2A
100
AcDbVisualStyle
  2
Realistic
 70
     8
 71
     2
 72
     2
 73
     0
 90
        0
 40
-0.6
 41
-30.0
 62
     5
 63
     7
 74
     1
 91
        0
 64
     7
 65
   257
 75
     1
175
     1
 42
1.0
 92
        8
 66
     8
 43
1.0
 76
     1
 77
     6
 78
     2
 67
     7
 79
     5
170
     0
171
     0
290
     0
174
     0
 93
       13
 44
0.0
173
     0
291
     0
 45
0.0
1001
ACAD
1000
AcDbSavedByObjectVersion
1070
     0
  0
VISUALSTYLE
  5
37
102
{ACAD_REACTORS
330
2A
102
}
330
2A
100
AcDbVisualStyle
  2
Thicken
 70
    13
 71
     2
 72
     2
 73
     0
 90
        0
 40
-0.6
 41
-30.0
 62
     5
 63
     7
 74
     1
 91
        4
 64
     7
 65
   257
 75
     1
175
     1
 42
1.0
 92
       12
 66
     7
 43
1.0
 76
     1
 77
     6
 78
     2
 67
     7
 79
     5
170
     0
171
     0
290
     0
174
     0
 93
        1
 44
0.0
173
     0
291
     1
 45
0.0
1001
ACAD
1000
AcDbSavedByObjectVersion
1070
     0
  0
DICTIONARYVAR
  5
18C
102
{ACAD_REACTORS
330
189
102
}
330
189
100
DictionaryVariables
280
     0
  1
1:1
  0
ENDSEC
  0
EOF
