  0
SECTION
  2
HEADER
  9
$ACADVER
  1
AC1015
  9
$ACADMAINTVER
 70
     6
  9
$DWGCODEPAGE
  3
ANSI_1252
  9
$INSBASE
 10
0.0
 20
0.0
 30
0.0
  9
$EXTMIN
 10
8.3387762963109
 20
266.0335599447918
 30
0.0
  9
$EXTMAX
 10
243.671286240587
 20
374.802946862098
 30
0.0
  9
$LIMMIN
 10
0.0
 20
0.0
  9
$LIMMAX
 10
12.0
 20
9.0
  9
$ORTHOMODE
 70
     0
  9
$REGENMODE
 70
     1
  9
$FILLMODE
 70
     1
  9
$QTEXTMODE
 70
     0
  9
$MIRRTEXT
 70
     1
  9
$LTSCALE
 40
1.0
  9
$ATTMODE
 70
     1
  9
$TEXTSIZE
 40
0.2
  9
$TRACEWID
 40
0.05
  9
$TEXTSTYLE
  7
Standard
  9
$CLAYER
  8
0
  9
$CELTYPE
  6
ByLayer
  9
$CECOLOR
 62
   256
  9
$CELTSCALE
 40
1.0
  9
$DISPSILH
 70
     0
  9
$DIMSCALE
 40
1.0
  9
$DIMASZ
 40
0.18
  9
$DIMEXO
 40
0.0625
  9
$DIMDLI
 40
0.38
  9
$DIMRND
 40
0.0
  9
$DIMDLE
 40
0.0
  9
$DIMEXE
 40
0.18
  9
$DIMTP
 40
0.0
  9
$DIMTM
 40
0.0
  9
$DIMTXT
 40
0.18
  9
$DIMCEN
 40
0.09
  9
$DIMTSZ
 40
0.0
  9
$DIMTOL
 70
     0
  9
$DIMLIM
 70
     0
  9
$DIMTIH
 70
     1
  9
$DIMTOH
 70
     1
  9
$DIMSE1
 70
     0
  9
$DIMSE2
 70
     0
  9
$DIMTAD
 70
     0
  9
$DIMZIN
 70
     0
  9
$DIMBLK
  1

  9
$DIMASO
 70
     1
  9
$DIMSHO
 70
     1
  9
$DIMPOST
  1

  9
$DIMAPOST
  1

  9
$DIMALT
 70
     0
  9
$DIMALTD
 70
     2
  9
$DIMALTF
 40
25.4
  9
$DIMLFAC
 40
1.0
  9
$DIMTOFL
 70
     0
  9
$DIMTVP
 40
0.0
  9
$DIMTIX
 70
     0
  9
$DIMSOXD
 70
     0
  9
$DIMSAH
 70
     0
  9
$DIMBLK1
  1

  9
$DIMBLK2
  1

  9
$DIMSTYLE
  2
Standard
  9
$DIMCLRD
 70
     0
  9
$DIMCLRE
 70
     0
  9
$DIMCLRT
 70
     0
  9
$DIMTFAC
 40
1.0
  9
$DIMGAP
 40
0.09
  9
$DIMJUST
 70
     0
  9
$DIMSD1
 70
     0
  9
$DIMSD2
 70
     0
  9
$DIMTOLJ
 70
     1
  9
$DIMTZIN
 70
     0
  9
$DIMALTZ
 70
     0
  9
$DIMALTTZ
 70
     0
  9
$DIMUPT
 70
     0
  9
$DIMDEC
 70
     4
  9
$DIMTDEC
 70
     4
  9
$DIMALTU
 70
     2
  9
$DIMALTTD
 70
     2
  9
$DIMTXSTY
  7
Standard
  9
$DIMAUNIT
 70
     0
  9
$DIMADEC
 70
     0
  9
$DIMALTRND
 40
0.0
  9
$DIMAZIN
 70
     0
  9
$DIMDSEP
 70
    46
  9
$DIMATFIT
 70
     3
  9
$DIMFRAC
 70
     0
  9
$DIMLDRBLK
  1

  9
$DIMLUNIT
 70
     2
  9
$DIMLWD
 70
    -2
  9
$DIMLWE
 70
    -2
  9
$DIMTMOVE
 70
     0
  9
$LUNITS
 70
     2
  9
$LUPREC
 70
     4
  9
$SKETCHINC
 40
0.1
  9
$FILLETRAD
 40
0.5
  9
$AUNITS
 70
     0
  9
$AUPREC
 70
     0
  9
$MENU
  1
.
  9
$ELEVATION
 40
0.0
  9
$PELEVATION
 40
0.0
  9
$THICKNESS
 40
0.0
  9
$LIMCHECK
 70
     0
  9
$CHAMFERA
 40
0.5
  9
$CHAMFERB
 40
0.5
  9
$CHAMFERC
 40
1.0
  9
$CHAMFERD
 40
0.0
  9
$SKPOLY
 70
     0
  9
$TDCREATE
 40
2456749.751105162
  9
$TDUCREATE
 40
2456749.667771829
  9
$TDUPDATE
 40
2456749.751105173
  9
$TDUUPDATE
 40
2456749.66777184
  9
$TDINDWG
 40
0.0000000116
  9
$TDUSRTIMER
 40
0.0000000116
  9
$USRTIMER
 70
     1
  9
$ANGBASE
 50
0.0
  9
$ANGDIR
 70
     0
  9
$PDMODE
 70
     0
  9
$PDSIZE
 40
0.0
  9
$PLINEWID
 40
0.0
  9
$SPLFRAME
 70
     0
  9
$SPLINETYPE
 70
     6
  9
$SPLINESEGS
 70
     8
  9
$HANDSEED
  5
182
  9
$SURFTAB1
 70
     6
  9
$SURFTAB2
 70
     6
  9
$SURFTYPE
 70
     6
  9
$SURFU
 70
     6
  9
$SURFV
 70
     6
  9
$UCSBASE
  2

  9
$UCSNAME
  2

  9
$UCSORG
 10
0.0
 20
0.0
 30
0.0
  9
$UCSXDIR
 10
1.0
 20
0.0
 30
0.0
  9
$UCSYDIR
 10
0.0
 20
1.0
 30
0.0
  9
$UCSORTHOREF
  2

  9
$UCSORTHOVIEW
 70
     0
  9
$UCSORGTOP
 10
0.0
 20
0.0
 30
0.0
  9
$UCSORGBOTTOM
 10
0.0
 20
0.0
 30
0.0
  9
$UCSORGLEFT
 10
0.0
 20
0.0
 30
0.0
  9
$UCSORGRIGHT
 10
0.0
 20
0.0
 30
0.0
  9
$UCSORGFRONT
 10
0.0
 20
0.0
 30
0.0
  9
$UCSORGBACK
 10
0.0
 20
0.0
 30
0.0
  9
$PUCSBASE
  2

  9
$PUCSNAME
  2

  9
$PUCSORG
 10
0.0
 20
0.0
 30
0.0
  9
$PUCSXDIR
 10
1.0
 20
0.0
 30
0.0
  9
$PUCSYDIR
 10
0.0
 20
1.0
 30
0.0
  9
$PUCSORTHOREF
  2

  9
$PUCSORTHOVIEW
 70
     0
  9
$PUCSORGTOP
 10
0.0
 20
0.0
 30
0.0
  9
$PUCSORGBOTTOM
 10
0.0
 20
0.0
 30
0.0
  9
$PUCSORGLEFT
 10
0.0
 20
0.0
 30
0.0
  9
$PUCSORGRIGHT
 10
0.0
 20
0.0
 30
0.0
  9
$PUCSORGFRONT
 10
0.0
 20
0.0
 30
0.0
  9
$PUCSORGBACK
 10
0.0
 20
0.0
 30
0.0
  9
$USERI1
 70
     0
  9
$USERI2
 70
     0
  9
$USERI3
 70
     0
  9
$USERI4
 70
     0
  9
$USERI5
 70
     0
  9
$USERR1
 40
16.5
  9
$USERR2
 40
0.0
  9
$USERR3
 40
0.0
  9
$USERR4
 40
0.0
  9
$USERR5
 40
0.0
  9
$WORLDVIEW
 70
     1
  9
$SHADEDGE
 70
     3
  9
$SHADEDIF
 70
    70
  9
$TILEMODE
 70
     1
  9
$MAXACTVP
 70
    64
  9
$PINSBASE
 10
0.0
 20
0.0
 30
0.0
  9
$PLIMCHECK
 70
     0
  9
$PEXTMIN
 10
1.00000000000000E+20
 20
1.00000000000000E+20
 30
1.00000000000000E+20
  9
$PEXTMAX
 10
-1.00000000000000E+20
 20
-1.00000000000000E+20
 30
-1.00000000000000E+20
  9
$PLIMMIN
 10
0.0
 20
0.0
  9
$PLIMMAX
 10
12.0
 20
9.0
  9
$UNITMODE
 70
     0
  9
$VISRETAIN
 70
     1
  9
$PLINEGEN
 70
     0
  9
$PSLTSCALE
 70
     1
  9
$TREEDEPTH
 70
  3020
  9
$CMLSTYLE
  2
Standard
  9
$CMLJUST
 70
     0
  9
$CMLSCALE
 40
1.0
  9
$PROXYGRAPHICS
 70
     1
  9
$MEASUREMENT
 70
     1
  9
$CELWEIGHT
370
    -1
  9
$ENDCAPS
280
     0
  9
$JOINSTYLE
280
     0
  9
$LWDISPLAY
290
     0
  9
$INSUNITS
 70
     1
  9
$HYPERLINKBASE
  1

  9
$STYLESHEET
  1

  9
$XEDIT
290
     1
  9
$CEPSNTYPE
380
     0
  9
$PSTYLEMODE
290
     1
  9
$FINGERPRINTGUID
  2
{1CF5FCA3-39A1-42F7-9241-9084263EA31D}
  9
$VERSIONGUID
  2
{FAEB1C32-E019-11D5-929B-00C0DF256EC4}
  9
$EXTNAMES
290
     1
  9
$PSVPSCALE
 40
0.0
  9
$OLESTARTUP
290
     0
  0
ENDSEC
  0
SECTION
  2
CLASSES
  0
CLASS
  1
ACDBDICTIONARYWDFLT
  2
AcDbDictionaryWithDefault
  3
ObjectDBX Classes
 90
        0
280
     0
281
     0
  0
CLASS
  1
VISUALSTYLE
  2
AcDbVisualStyle
  3
ObjectDBX Classes
 90
     4095
280
     0
281
     0
  0
CLASS
  1
SCALE
  2
AcDbScale
  3
ObjectDBX Classes
 90
     1153
280
     0
281
     0
  0
CLASS
  1

  2
exOdDbPolyline
  3

 90
        0
280
     0
281
     1
  0
CLASS
  1

  2
exOdDbCircle
  3

 90
        0
280
     0
281
     1
  0
CLASS
  1

  2
exOdDbSpline
  3

 90
        0
280
     0
281
     1
  0
CLASS
  1
DICTIONARYVAR
  2
AcDbDictionaryVar
  3
ObjectDBX Classes
 90
        0
280
     0
281
     0
  0
CLASS
  1
ACDBPLACEHOLDER
  2
AcDbPlaceHolder
  3
ObjectDBX Classes
 90
        0
280
     0
281
     0
  0
CLASS
  1
LAYOUT
  2
AcDbLayout
  3
ObjectDBX Classes
 90
        0
280
     0
281
     0
  0
ENDSEC
  0
SECTION
  2
TABLES
  0
TABLE
  2
VPORT
  5
8
330
0
100
AcDbSymbolTable
 70
     1
  0
VPORT
  5
29
330
8
100
AcDbSymbolTableRecord
100
AcDbViewportTableRecord
  2
*Active
 70
     0
 10
0.0
 20
0.0
 11
1.0
 21
1.0
 12
126.0050312684489
 22
320.4182534034449
 13
0.0
 23
0.0
 14
0.5
 24
0.5
 15
0.5
 25
0.5
 16
0.0
 26
0.0
 36
1.0
 17
0.0
 27
0.0
 37
0.0
 40
161.5206976330631
 41
1.60267857142857
 42
50.0
 43
0.0
 44
0.0
 50
0.0
 51
0.0
 71
     0
 72
   100
 73
     1
 74
     3
 75
     0
 76
     0
 77
     0
 78
     0
281
     0
 65
     1
110
0.0
120
0.0
130
0.0
111
1.0
121
0.0
131
0.0
112
0.0
122
1.0
132
0.0
 79
     0
146
0.0
  0
ENDTAB
  0
TABLE
  2
LTYPE
  5
5
330
0
100
AcDbSymbolTable
 70
     8
  0
LTYPE
  5
14
330
5
100
AcDbSymbolTableRecord
100
AcDbLinetypeTableRecord
  2
ByBlock
 70
     0
  3

 72
    65
 73
     0
 40
0.0
  0
LTYPE
  5
15
330
5
100
AcDbSymbolTableRecord
100
AcDbLinetypeTableRecord
  2
ByLayer
 70
     0
  3

 72
    65
 73
     0
 40
0.0
  0
LTYPE
  5
16
330
5
100
AcDbSymbolTableRecord
100
AcDbLinetypeTableRecord
  2
Continuous
 70
     0
  3
Solid line
 72
    65
 73
     0
 40
0.0
  0
LTYPE
  5
3B
330
5
100
AcDbSymbolTableRecord
100
AcDbLinetypeTableRecord
  2
DASHED
 70
     0
  3
Dashed
 72
    65
 73
     2
 40
15.0
 49
7.0
 74
     0
 49
-8.0
 74
     0
  0
LTYPE
  5
3C
330
5
100
AcDbSymbolTableRecord
100
AcDbLinetypeTableRecord
  2
DOTTED
 70
     0
  3
Dotted
 72
    65
 73
     2
 40
1.0
 49
0.0
 74
     0
 49
-1.0
 74
     0
  0
LTYPE
  5
3D
330
5
100
AcDbSymbolTableRecord
100
AcDbLinetypeTableRecord
  2
DOT_CENTER
 70
     0
  3
Dot_Center
 72
    65
 73
     4
 40
14.0
 49
12.0
 74
     0
 49
-1.0
 74
     0
 49
0.0
 74
     0
 49
-1.0
 74
     0
  0
LTYPE
  5
3E
330
5
100
AcDbSymbolTableRecord
100
AcDbLinetypeTableRecord
  2
LONG_DASHED
 70
     0
  3
Long_Dashed
 72
    65
 73
     2
 40
15.0
 49
10.0
 74
     0
 49
-5.0
 74
     0
  0
LTYPE
  5
3F
330
5
100
AcDbSymbolTableRecord
100
AcDbLinetypeTableRecord
  2
DASH_CENTER
 70
     0
  3
Dash_Center
 72
    65
 73
     4
 40
14.0
 49
11.0
 74
     0
 49
-1.0
 74
     0
 49
1.0
 74
     0
 49
-1.0
 74
     0
  0
LTYPE
  5
40
330
5
100
AcDbSymbolTableRecord
100
AcDbLinetypeTableRecord
  2
PHANTOM
 70
     0
  3
Phantom
 72
    65
 73
     6
 40
13.0
 49
10.0
 74
     0
 49
-1.0
 74
     0
 49
0.0
 74
     0
 49
-1.0
 74
     0
 49
0.0
 74
     0
 49
-1.0
 74
     0
  0
LTYPE
  5
41
330
5
100
AcDbSymbolTableRecord
100
AcDbLinetypeTableRecord
  2
CENTER_DASH_DASH
 70
     0
  3
Center_Dash_Dash
 72
    65
 73
     6
 40
14.0
 49
9.0
 74
     0
 49
-1.0
 74
     0
 49
1.0
 74
     0
 49
-1.0
 74
     0
 49
1.0
 74
     0
 49
-1.0
 74
     0
  0
ENDTAB
  0
TABLE
  2
LAYER
  5
2
330
0
100
AcDbSymbolTable
 70
     8
  0
LAYER
  5
10
330
2
100
AcDbSymbolTableRecord
100
AcDbLayerTableRecord
  2
0
 70
     0
 62
     7
  6
Continuous
370
    -3
390
F
  0
LAYER
  5
42
330
2
100
AcDbSymbolTableRecord
100
AcDbLayerTableRecord
  2
1
 70
     0
 62
     7
  6
Continuous
370
    -3
390
F
  0
LAYER
  5
43
330
2
100
AcDbSymbolTableRecord
100
AcDbLayerTableRecord
  2
BEZUGSACHSEN
 70
     0
 62
     7
  6
Continuous
370
    -3
390
F
  0
LAYER
  5
44
330
2
100
AcDbSymbolTableRecord
100
AcDbLayerTableRecord
  2
BG_STARTBEZUEGE
 70
     0
 62
     7
  6
Continuous
370
    -3
390
F
  0
LAYER
  5
45
330
2
100
AcDbSymbolTableRecord
100
AcDbLayerTableRecord
  2
DEFAULT_2
 70
     0
 62
     7
  6
Continuous
370
    -3
390
F
  0
LAYER
  5
46
330
2
100
AcDbSymbolTableRecord
100
AcDbLayerTableRecord
  2
FASEN
 70
     0
 62
     7
  6
Continuous
370
    -3
390
F
  0
LAYER
  5
47
330
2
100
AcDbSymbolTableRecord
100
AcDbLayerTableRecord
  2
RUNDUNGEN
 70
     0
 62
     7
  6
Continuous
370
    -3
390
F
  0
LAYER
  5
48
330
2
100
AcDbSymbolTableRecord
100
AcDbLayerTableRecord
  2
VERERBUNG
 70
     0
 62
     7
  6
Continuous
370
    -3
390
F
  0
ENDTAB
  0
TABLE
  2
STYLE
  5
3
330
0
100
AcDbSymbolTable
 70
     2
  0
STYLE
  5
11
330
3
100
AcDbSymbolTableRecord
100
AcDbTextStyleTableRecord
  2
Standard
 70
     0
 40
0.0
 41
1.0
 50
0.0
 71
     0
 42
0.2
  3
txt
  4

  0
STYLE
  5
6F
330
3
100
AcDbSymbolTableRecord
100
AcDbTextStyleTableRecord
  2
CONVERTER_11
 70
     0
 40
0.0
 41
0.72
 50
0.0
 71
     0
 42
0.2
  3
txt.shx
  4

  0
ENDTAB
  0
TABLE
  2
VIEW
  5
6
330
0
100
AcDbSymbolTable
 70
     0
  0
ENDTAB
  0
TABLE
  2
UCS
  5
7
330
0
100
AcDbSymbolTable
 70
     0
  0
ENDTAB
  0
TABLE
  2
APPID
  5
9
330
0
100
AcDbSymbolTable
 70
     1
  0
APPID
  5
12
330
9
100
AcDbSymbolTableRecord
100
AcDbRegAppTableRecord
  2
ACAD
 70
     0
  0
ENDTAB
  0
TABLE
  2
DIMSTYLE
  5
A
330
0
100
AcDbSymbolTable
 70
     7
100
AcDbDimStyleTable
  0
DIMSTYLE
105
27
330
A
100
AcDbSymbolTableRecord
100
AcDbDimStyleTableRecord
  2
Standard
 70
     0
340
11
  0
DIMSTYLE
105
13E
102
{ACAD_REACTORS
330
13F
102
}
330
A
100
AcDbSymbolTableRecord
100
AcDbDimStyleTableRecord
  2
ME10_DIM_10
 70
     0
  3
ER<>
 41
3.5
 42
2.0
 44
2.0
 71
     1
 73
     0
 74
     0
 77
     1
 78
     8
140
3.5
146
0.7
147
2.0
172
     1
173
     1
176
     2
177
     2
178
     3
271
     2
272
     0
340
6F
  0
DIMSTYLE
105
149
102
{ACAD_REACTORS
330
14A
102
}
330
A
100
AcDbSymbolTableRecord
100
AcDbDimStyleTableRecord
  2
ME10_DIM_11
 70
     0
  3
\U+2300<>
 41
3.5
 42
2.0
 44
2.0
 71
     1
 73
     0
 74
     0
 77
     1
 78
     8
140
3.5
146
0.7
147
2.0
172
     1
173
     1
176
     2
177
     2
178
     3
271
     2
272
     0
340
6F
  0
DIMSTYLE
105
154
102
{ACAD_REACTORS
330
155
102
}
330
A
100
AcDbSymbolTableRecord
100
AcDbDimStyleTableRecord
  2
ME10_DIM_12
 70
     0
  3
<>
 41
3.5
 42
2.0
 44
2.0
 71
     1
 73
     0
 74
     0
 77
     1
 78
     8
140
3.5
146
0.7
147
2.0
172
     1
173
     1
176
     2
177
     2
178
     3
271
     2
272
     0
340
6F
  0
DIMSTYLE
105
15F
102
{ACAD_REACTORS
330
160
102
}
330
A
100
AcDbSymbolTableRecord
100
AcDbDimStyleTableRecord
  2
ME10_DIM_13
 70
     0
  3
<>
 41
3.5
 42
2.0
 44
2.0
 71
     1
 73
     0
 74
     0
 77
     1
 78
     8
140
3.5
146
0.7
147
2.0
172
     1
173
     1
176
     2
177
     2
178
     3
271
     2
272
     0
340
6F
  0
DIMSTYLE
105
16A
102
{ACAD_REACTORS
330
16B
102
}
330
A
100
AcDbSymbolTableRecord
100
AcDbDimStyleTableRecord
  2
ME10_DIM_14
 70
     0
  3
<>
 41
3.5
 42
2.0
 44
2.0
 71
     1
 73
     0
 74
     0
 77
     1
 78
     8
140
3.5
146
0.7
147
2.0
172
     1
173
     1
176
     2
177
     2
178
     3
271
     2
272
     0
340
6F
  0
DIMSTYLE
105
175
102
{ACAD_REACTORS
330
176
102
}
330
A
100
AcDbSymbolTableRecord
100
AcDbDimStyleTableRecord
  2
ME10_DIM_15
 70
     0
  3
<>
 41
3.5
 42
2.0
 44
2.0
 71
     1
 73
     0
 74
     0
 77
     1
 78
     8
140
3.5
146
0.7
147
2.0
172
     1
173
     1
176
     2
177
     2
178
     3
271
     2
272
     0
340
6F
  0
ENDTAB
  0
TABLE
  2
BLOCK_RECORD
  5
1
330
0
100
AcDbSymbolTable
 70
     9
  0
BLOCK_RECORD
  5
1F
330
1
100
AcDbSymbolTableRecord
100
AcDbBlockTableRecord
  2
*Model_Space
340
22
  0
BLOCK_RECORD
  5
1B
330
1
100
AcDbSymbolTableRecord
100
AcDbBlockTableRecord
  2
*Paper_Space
340
1E
  0
BLOCK_RECORD
  5
23
330
1
100
AcDbSymbolTableRecord
100
AcDbBlockTableRecord
  2
*Paper_Space0
340
26
  0
BLOCK_RECORD
  5
49
330
1
100
AcDbSymbolTableRecord
100
AcDbBlockTableRecord
  2
Urheberrecht_DE-EN
340
0
102
{BLKREFS
331
6E
102
}
  0
BLOCK_RECORD
  5
135
330
1
100
AcDbSymbolTableRecord
100
AcDbBlockTableRecord
  2
*D2
340
0
  0
BLOCK_RECORD
  5
140
330
1
100
AcDbSymbolTableRecord
100
AcDbBlockTableRecord
  2
*D3
340
0
  0
BLOCK_RECORD
  5
14B
330
1
100
AcDbSymbolTableRecord
100
AcDbBlockTableRecord
  2
*D4
340
0
  0
BLOCK_RECORD
  5
156
330
1
100
AcDbSymbolTableRecord
100
AcDbBlockTableRecord
  2
*D5
340
0
  0
BLOCK_RECORD
  5
161
330
1
100
AcDbSymbolTableRecord
100
AcDbBlockTableRecord
  2
*D6
340
0
  0
BLOCK_RECORD
  5
16C
330
1
100
AcDbSymbolTableRecord
100
AcDbBlockTableRecord
  2
*D7
340
0
  0
BLOCK_RECORD
  5
177
330
1
100
AcDbSymbolTableRecord
100
AcDbBlockTableRecord
  2
*D8
340
0
102
{BLKREFS
331
17D
102
}
  0
ENDTAB
  0
ENDSEC
  0
SECTION
  2
BLOCKS
  0
BLOCK
  5
20
330
1F
100
AcDbEntity
  8
0
100
AcDbBlockBegin
  2
*Model_Space
 70
     0
 10
0.0
 20
0.0
 30
0.0
  3
*Model_Space
  1

  0
ENDBLK
  5
21
330
1F
100
AcDbEntity
  8
0
100
AcDbBlockEnd
  0
BLOCK
  5
1C
330
1B
100
AcDbEntity
 67
     1
  8
0
100
AcDbBlockBegin
  2
*Paper_Space
 70
     0
 10
0.0
 20
0.0
 30
0.0
  3
*Paper_Space
  1

  0
ENDBLK
  5
1D
330
1B
100
AcDbEntity
 67
     1
  8
0
100
AcDbBlockEnd
  0
BLOCK
  5
24
330
23
100
AcDbEntity
  8
0
100
AcDbBlockBegin
  2
*Paper_Space0
 70
     0
 10
0.0
 20
0.0
 30
0.0
  3
*Paper_Space0
  1

  0
ENDBLK
  5
25
330
23
100
AcDbEntity
  8
0
100
AcDbBlockEnd
  0
BLOCK
  5
4A
330
49
100
AcDbEntity
  8
0
100
AcDbBlockBegin
  2
Urheberrecht_DE-EN
 70
     0
 10
22.3387762963109
 20
322.322946862098
 30
0.0
  3
Urheberrecht_DE-EN
  1

  0
MTEXT
  5
70
330
49
100
AcDbEntity
  8
1
 62
     1
100
AcDbMText
 10
22.3387762963109
 20
322.322946862098
 30
0.0
 40
2.0
 41
0.0
 71
     7
 72
     1
  1
We own the copyright of this document. It \Pdetermined and may neither be copied or \Pmade accessible to outsiders without our\Ppermission.
  7
CONVERTER_11
 11
0.0
 21
1.0
 31
0.0
 73
     1
 44
0.90036014405762
  0
MTEXT
  5
71
330
49
100
AcDbEntity
  8
1
 62
     1
100
AcDbMText
 10
22.3387762963109
 20
266.0335599447918
 30
0.0
 40
2.0
 41
0.0
 71
     7
 72
     1
  1
F\U+00fcr diese Unterlage behalten wir das Ur-\Pheberrecht. Sie darf nur f\U+00fcr den von uns \Pbestimmten Zweck benutzt und ohne unsere \PZustimmung weder vervielf\U+00e4ltigt noch\PDritten zug\U+00e4nglich gemacht werden.
  7
CONVERTER_11
 11
0.0
 21
1.0
 31
0.0
 73
     1
 44
0.90036014405762
  0
ENDBLK
  5
4B
330
49
100
AcDbEntity
  8
0
100
AcDbBlockEnd
  0
BLOCK
  5
13C
330
135
100
AcDbEntity
  8
0
100
AcDbBlockBegin
  2
*D2
 70
     1
 10
0.0
 20
0.0
 30
0.0
  3
*D2
  1

  0
LINE
  5
136
330
135
100
AcDbEntity
  8
1
  6
Continuous
 62
     2
100
AcDbLine
 10
233.046216856298
 20
314.8668945313
 30
0.0
 11
233.046216856298
 21
298.8668945313
 31
0.0
  0
LINE
  5
137
330
135
100
AcDbEntity
  8
1
  6
Continuous
 62
     2
100
AcDbLine
 10
212.92890625
 20
314.8668945313
 30
0.0
 11
235.046216856298
 21
314.8668945313
 31
0.0
  0
LINE
  5
138
330
135
100
AcDbEntity
  8
1
  6
Continuous
 62
     2
100
AcDbLine
 10
212.92890625
 20
298.8668945313
 30
0.0
 11
235.046216856298
 21
298.8668945313
 31
0.0
  0
SOLID
  5
139
330
135
100
AcDbEntity
  8
1
 62
     2
100
AcDbTrace
 10
233.5070005978539
 20
311.3668945313
 30
0.0
 11
232.5854331147421
 21
311.3668945313
 31
0.0
 12
233.046216856298
 22
314.8668945313
 32
0.0
 13
233.046216856298
 23
314.8668945313
 33
0.0
  0
SOLID
  5
13A
330
135
100
AcDbEntity
  8
1
 62
     2
100
AcDbTrace
 10
232.5854331147421
 20
302.3668945313
 30
0.0
 11
233.5070005978539
 21
302.3668945313
 31
0.0
 12
233.046216856298
 22
298.8668945313
 32
0.0
 13
233.046216856298
 23
298.8668945313
 33
0.0
  0
MTEXT
  5
13B
330
135
100
AcDbEntity
  8
1
 62
     3
100
AcDbMText
 10
231.046216856298
 20
302.858769398158
 30
0.0
 40
3.5
 41
0.0
 71
     7
 72
     1
  1
\C3;ER\C3;\C3;16\C2;\H2.45;\S^ ;\C3;
  7
CONVERTER_11
 11
0.0
 21
1.0
 31
0.0
 73
     1
 44
0.60024009603842
  0
ENDBLK
  5
13D
330
135
100
AcDbEntity
  8
0
100
AcDbBlockEnd
  0
BLOCK
  5
147
330
140
100
AcDbEntity
  8
0
100
AcDbBlockBegin
  2
*D3
 70
     1
 10
0.0
 20
0.0
 30
0.0
  3
*D3
  1

  0
LINE
  5
141
330
140
100
AcDbEntity
  8
1
  6
Continuous
 62
     2
100
AcDbLine
 10
241.671286240587
 20
320.8668945312
 30
0.0
 11
241.671286240587
 21
292.8668945313
 31
0.0
  0
LINE
  5
142
330
140
100
AcDbEntity
  8
1
  6
Continuous
 62
     2
100
AcDbLine
 10
219.761139297
 20
320.8668945312
 30
0.0
 11
243.671286240587
 21
320.8668945312
 31
0.0
  0
LINE
  5
143
330
140
100
AcDbEntity
  8
1
  6
Continuous
 62
     2
100
AcDbLine
 10
219.761139297
 20
292.8668945313
 30
0.0
 11
243.671286240587
 21
292.8668945313
 31
0.0
  0
SOLID
  5
144
330
140
100
AcDbEntity
  8
1
 62
     2
100
AcDbTrace
 10
242.1320699821429
 20
317.3668945312
 30
0.0
 11
241.2105024990311
 21
317.3668945312
 31
0.0
 12
241.671286240587
 22
320.8668945312
 32
0.0
 13
241.671286240587
 23
320.8668945312
 33
0.0
  0
SOLID
  5
145
330
140
100
AcDbEntity
  8
1
 62
     2
100
AcDbTrace
 10
241.2105024990311
 20
296.3668945313
 30
0.0
 11
242.1320699821429
 21
296.3668945313
 31
0.0
 12
241.671286240587
 22
292.8668945313
 32
0.0
 13
241.671286240587
 23
292.8668945313
 33
0.0
  0
MTEXT
  5
146
330
140
100
AcDbEntity
  8
1
 62
     3
100
AcDbMText
 10
239.671286240587
 20
298.431939063831
 30
0.0
 40
3.5
 41
0.0
 71
     7
 72
     1
  1
\C3;%%c\C3;\C3;28\C2;\H2.45;\S^ ;\C3;
  7
CONVERTER_11
 11
0.0
 21
1.0
 31
0.0
 73
     1
 44
0.60024009603842
  0
ENDBLK
  5
148
330
140
100
AcDbEntity
  8
0
100
AcDbBlockEnd
  0
BLOCK
  5
152
330
14B
100
AcDbEntity
  8
0
100
AcDbBlockBegin
  2
*D4
 70
     1
 10
0.0
 20
0.0
 30
0.0
  3
*D4
  1

  0
LINE
  5
14C
330
14B
100
AcDbEntity
  8
1
  6
Continuous
 62
     2
100
AcDbLine
 10
210.92890625
 20
345.34746968705
 30
0.0
 11
87.52890625
 21
345.34746968705
 31
0.0
  0
LINE
  5
14D
330
14B
100
AcDbEntity
  8
1
  6
Continuous
 62
     2
100
AcDbLine
 10
210.92890625
 20
319.8668945313
 30
0.0
 11
210.92890625
 21
347.34746968705
 31
0.0
  0
LINE
  5
14E
330
14B
100
AcDbEntity
  8
1
  6
Continuous
 62
     2
100
AcDbLine
 10
87.52890625
 20
340.3668456257
 30
0.0
 11
87.52890625
 21
347.34746968705
 31
0.0
  0
SOLID
  5
14F
330
14B
100
AcDbEntity
  8
1
 62
     2
100
AcDbTrace
 10
207.42890625
 20
344.8866859454942
 30
0.0
 11
207.42890625
 21
345.8082534286059
 31
0.0
 12
210.92890625
 22
345.34746968705
 32
0.0
 13
210.92890625
 23
345.34746968705
 33
0.0
  0
SOLID
  5
150
330
14B
100
AcDbEntity
  8
1
 62
     2
100
AcDbTrace
 10
91.02890625
 20
345.8082534286059
 30
0.0
 11
91.02890625
 21
344.8866859454942
 31
0.0
 12
87.52890625
 22
345.34746968705
 32
0.0
 13
87.52890625
 23
345.34746968705
 33
0.0
  0
MTEXT
  5
151
330
14B
100
AcDbEntity
  8
1
 62
     3
100
AcDbMText
 10
148.725214717894
 20
347.34746968705
 30
0.0
 40
3.5
 41
0.0
 71
     7
 72
     1
  1
\C3;\C3;\C3;123.4\C2;\H2.45;\S^ ;\C3;
  7
CONVERTER_11
 11
0.9999999999970619
 21
2.424068405545306E-6
 31
0.0
 73
     1
 44
0.60024009603842
  0
ENDBLK
  5
153
330
14B
100
AcDbEntity
  8
0
100
AcDbBlockEnd
  0
BLOCK
  5
15D
330
156
100
AcDbEntity
  8
0
100
AcDbBlockBegin
  2
*D5
 70
     1
 10
0.0
 20
0.0
 30
0.0
  3
*D5
  1

  0
LINE
  5
157
330
156
100
AcDbEntity
  8
1
  6
Continuous
 62
     2
100
AcDbLine
 10
210.92890625
 20
352.001291882498
 30
0.0
 11
61.52890625000001
 21
352.001291882498
 31
0.0
  0
LINE
  5
158
330
156
100
AcDbEntity
  8
1
  6
Continuous
 62
     2
100
AcDbLine
 10
210.92890625
 20
319.8668945313
 30
0.0
 11
210.92890625
 21
354.001291882498
 31
0.0
  0
LINE
  5
159
330
156
100
AcDbEntity
  8
1
  6
Continuous
 62
     2
100
AcDbLine
 10
61.52890625000001
 20
340.3668945313
 30
0.0
 11
61.52890625000001
 21
354.001291882498
 31
0.0
  0
SOLID
  5
15A
330
156
100
AcDbEntity
  8
1
 62
     2
100
AcDbTrace
 10
207.42890625
 20
351.5405081409421
 30
0.0
 11
207.42890625
 21
352.4620756240539
 31
0.0
 12
210.92890625
 22
352.001291882498
 32
0.0
 13
210.92890625
 23
352.001291882498
 33
0.0
  0
SOLID
  5
15B
330
156
100
AcDbEntity
  8
1
 62
     2
100
AcDbTrace
 10
65.02890625
 20
352.4620756240539
 30
0.0
 11
65.02890625
 21
351.5405081409421
 31
0.0
 12
61.52890625000001
 22
352.001291882498
 32
0.0
 13
61.52890625000001
 23
352.001291882498
 33
0.0
  0
MTEXT
  5
15C
330
156
100
AcDbEntity
  8
1
 62
     3
100
AcDbMText
 10
132.032292367913
 20
354.001291882498
 30
0.0
 40
3.5
 41
0.0
 71
     7
 72
     1
  1
\C3;\C3;\C3;149.4\C2;\H2.45;\S^ ;\C3;
  7
CONVERTER_11
 11
0.9999999999970619
 21
2.424068405545306E-6
 31
0.0
 73
     1
 44
0.60024009603842
  0
ENDBLK
  5
15E
330
156
100
AcDbEntity
  8
0
100
AcDbBlockEnd
  0
BLOCK
  5
168
330
161
100
AcDbEntity
  8
0
100
AcDbBlockBegin
  2
*D6
 70
     1
 10
0.0
 20
0.0
 30
0.0
  3
*D6
  1

  0
LINE
  5
162
330
161
100
AcDbEntity
  8
1
  6
Continuous
 62
     2
100
AcDbLine
 10
221.52890625
 20
360.172652473398
 30
0.0
 11
61.52890625000001
 21
360.172652473398
 31
0.0
  0
LINE
  5
163
330
161
100
AcDbEntity
  8
1
  6
Continuous
 62
     2
100
AcDbLine
 10
221.52890625
 20
319.6168945313
 30
0.0
 11
221.52890625
 21
362.172652473398
 31
0.0
  0
LINE
  5
164
330
161
100
AcDbEntity
  8
1
  6
Continuous
 62
     2
100
AcDbLine
 10
61.52890625000001
 20
340.3668945313
 30
0.0
 11
61.52890625000001
 21
362.172652473398
 31
0.0
  0
SOLID
  5
165
330
161
100
AcDbEntity
  8
1
 62
     2
100
AcDbTrace
 10
218.02890625
 20
359.7118687318421
 30
0.0
 11
218.02890625
 21
360.6334362149539
 31
0.0
 12
221.52890625
 22
360.172652473398
 32
0.0
 13
221.52890625
 23
360.172652473398
 33
0.0
  0
SOLID
  5
166
330
161
100
AcDbEntity
  8
1
 62
     2
100
AcDbTrace
 10
65.02890625
 20
360.6334362149539
 30
0.0
 11
65.02890625
 21
359.7118687318421
 31
0.0
 12
61.52890625000001
 22
360.172652473398
 32
0.0
 13
61.52890625000001
 23
360.172652473398
 33
0.0
  0
MTEXT
  5
167
330
161
100
AcDbEntity
  8
1
 62
     3
100
AcDbMText
 10
145.887599531536
 20
362.172652473398
 30
0.0
 40
3.5
 41
0.0
 71
     7
 72
     1
  1
\C3;\C3;\C3;160\C2;\H2.45;\S^ ;\C3;
  7
CONVERTER_11
 11
0.9999999999970619
 21
2.424068405545306E-6
 31
0.0
 73
     1
 44
0.60024009603842
  0
ENDBLK
  5
169
330
161
100
AcDbEntity
  8
0
100
AcDbBlockEnd
  0
BLOCK
  5
173
330
16C
100
AcDbEntity
  8
0
100
AcDbBlockBegin
  2
*D7
 70
     1
 10
0.0
 20
0.0
 30
0.0
  3
*D7
  1

  0
LINE
  5
16D
330
16C
100
AcDbEntity
  8
1
  6
Continuous
 62
     2
100
AcDbLine
 10
210.92890625
 20
367.469159520231
 30
0.0
 11
29.52890625000001
 21
367.469159520231
 31
0.0
  0
LINE
  5
16E
330
16C
100
AcDbEntity
  8
1
  6
Continuous
 62
     2
100
AcDbLine
 10
210.92890625
 20
319.8668945313
 30
0.0
 11
210.92890625
 21
369.469159520231
 31
0.0
  0
LINE
  5
16F
330
16C
100
AcDbEntity
  8
1
  6
Continuous
 62
     2
100
AcDbLine
 10
29.52890625000001
 20
330.4429217114
 30
0.0
 11
29.52890625000001
 21
369.469159520231
 31
0.0
  0
SOLID
  5
170
330
16C
100
AcDbEntity
  8
1
 62
     2
100
AcDbTrace
 10
207.42890625
 20
367.0083757786751
 30
0.0
 11
207.42890625
 21
367.9299432617869
 31
0.0
 12
210.92890625
 22
367.469159520231
 32
0.0
 13
210.92890625
 23
367.469159520231
 33
0.0
  0
SOLID
  5
171
330
16C
100
AcDbEntity
  8
1
 62
     2
100
AcDbTrace
 10
33.02890625000001
 20
367.9299432617869
 30
0.0
 11
33.02890625000001
 21
367.0083757786751
 31
0.0
 12
29.52890625000001
 22
367.469159520231
 32
0.0
 13
29.52890625000001
 23
367.469159520231
 33
0.0
  0
MTEXT
  5
172
330
16C
100
AcDbEntity
  8
1
 62
     3
100
AcDbMText
 10
124.197376042922
 20
369.469159520231
 30
0.0
 40
3.5
 41
0.0
 71
     7
 72
     1
  1
\C3;\C3;\C3;181.4\C2;\H2.45;\S^ ;\C3;
  7
CONVERTER_11
 11
0.9999999999970619
 21
2.424068405545306E-6
 31
0.0
 73
     1
 44
0.60024009603842
  0
ENDBLK
  5
174
330
16C
100
AcDbEntity
  8
0
100
AcDbBlockEnd
  0
BLOCK
  5
17B
330
177
100
AcDbEntity
  8
0
100
AcDbBlockBegin
  2
*D8
 70
     1
 10
0.0
 20
0.0
 30
0.0
  3
*D8
  1

  0
LINE
  5
178
330
177
100
AcDbEntity
  8
1
  6
Continuous
 62
     2
100
AcDbLine
 10
98.52401244923342
 20
334.6008827782343
 30
0.0
 11
89.53716248009276
 21
327.3167230568329
 31
0.0
  0
SOLID
  5
179
330
177
100
AcDbEntity
  8
1
 62
     2
100
AcDbTrace
 10
91.96603093747142
 20
329.8785426588411
 30
0.0
 11
92.54631695485037
 21
329.1626133578878
 31
0.0
 12
89.53716248009276
 22
327.3167230568329
 32
0.0
 13
89.53716248009276
 23
327.3167230568329
 33
0.0
  0
MTEXT
  5
17A
330
177
100
AcDbEntity
  8
1
 62
     3
100
AcDbMText
 10
91.50036245457959
 20
331.4824311187406
 30
0.0
 40
3.5
 41
0.0
 71
     7
 72
     1
  1
\C3; R\C3;\C3;9\C2;\H2.45;\S^ ;\C3;
  7
CONVERTER_11
 11
0.7768604188766016
 21
0.6296728432947311
 31
0.0
 73
     1
 44
0.60024009603842
  0
ENDBLK
  5
17C
330
177
100
AcDbEntity
  8
0
100
AcDbBlockEnd
  0
ENDSEC
  0
SECTION
  2
ENTITIES
  0
INSERT
  5
6E
330
1F
100
AcDbEntity
  8
0
100
AcDbBlockReference
  2
Urheberrecht_DE-EN
 10
22.3387762963109
 20
322.322946862098
 30
0.0
  0
LINE
  5
72
330
1F
100
AcDbEntity
  8
VERERBUNG
  6
Continuous
 62
     7
100
AcDbLine
 10
29.52890625
 20
285.2908672544
 30
0.0
 11
29.52890625
 21
299.5968945313
 31
0.0
  0
LINE
  5
73
330
1F
100
AcDbEntity
  8
VERERBUNG
  6
Continuous
 62
     7
100
AcDbLine
 10
29.52890625
 20
314.1368945312
 30
0.0
 11
29.52890625
 21
328.4429217114
 31
0.0
  0
LINE
  5
74
330
1F
100
AcDbEntity
  8
VERERBUNG
  6
Continuous
 62
     7
100
AcDbLine
 10
30.52890625
 20
299.2370128514
 30
0.0
 11
30.52890625
 21
300.5968945312
 31
0.0
  0
LINE
  5
75
330
1F
100
AcDbEntity
  8
VERERBUNG
  6
Continuous
 62
     7
100
AcDbLine
 10
30.52890625
 20
313.1368945313
 30
0.0
 11
30.52890625
 21
314.4967762111
 31
0.0
  0
LINE
  5
76
330
1F
100
AcDbEntity
  8
VERERBUNG
  6
Continuous
 62
     9
100
AcDbLine
 10
30.6688631857
 20
329.6414697888
 30
0.0
 11
30.6688631857
 21
316.4289224626
 31
0.0
  0
LINE
  5
77
330
1F
100
AcDbEntity
  8
VERERBUNG
  6
Continuous
 62
     9
100
AcDbLine
 10
30.6688631857
 20
297.3048665999
 30
0.0
 11
30.6688631857
 21
284.0923192737
 31
0.0
  0
LINE
  5
78
330
1F
100
AcDbEntity
  8
VERERBUNG
  6
Continuous
 62
     9
100
AcDbLine
 10
34.02890625
 20
296.9105816493
 30
0.0
 11
34.02890625
 21
300.5968945312
 31
0.0
  0
LINE
  5
79
330
1F
100
AcDbEntity
  8
VERERBUNG
  6
Continuous
 62
     9
100
AcDbLine
 10
34.02890625
 20
313.1368945313
 30
0.0
 11
34.02890625
 21
316.8232074132
 31
0.0
  0
LINE
  5
7A
330
1F
100
AcDbEntity
  8
VERERBUNG
  6
Continuous
 62
     7
100
AcDbLine
 10
35.52890625
 20
314.3086822498
 30
0.0
 11
35.52890625
 21
299.4251068127
 31
0.0
  0
LWPOLYLINE
  5
7B
330
1F
100
AcDbEntity
  8
BEZUGSACHSEN
  6
DOT_CENTER
 62
     7
100
AcDbPolyline
 90
        2
 70
     0
 43
0.25
 10
52.52890625
 20
300.1168945313
 10
52.52890625
 20
313.6168945313
  0
LINE
  5
7C
330
1F
100
AcDbEntity
  8
VERERBUNG
  6
Continuous
 62
     7
100
AcDbLine
 10
59.52890625
 20
331.0873186809
 30
0.0
 11
59.52890625
 21
282.6464703816
 31
0.0
  0
LINE
  5
7D
330
1F
100
AcDbEntity
  8
VERERBUNG
  6
Continuous
 62
     9
100
AcDbLine
 10
60.199016483
 20
282.8260258774
 30
0.0
 11
60.199016483
 21
330.9077631851
 31
0.0
  0
LINE
  5
7E
330
1F
100
AcDbEntity
  8
VERERBUNG
  6
Continuous
 62
     9
100
AcDbLine
 10
60.3543079101
 20
282.8464703816
 30
0.0
 11
60.3543079101
 21
330.8873186809
 31
0.0
  0
LINE
  5
7F
330
1F
100
AcDbEntity
  8
VERERBUNG
  6
Continuous
 62
     9
100
AcDbLine
 10
61.2267366195
 20
282.8464703816
 30
0.0
 11
61.2267366195
 21
330.8873186809
 31
0.0
  0
LINE
  5
80
330
1F
100
AcDbEntity
  8
VERERBUNG
  6
Continuous
 62
     7
100
AcDbLine
 10
61.52890625
 20
338.3668945313
 30
0.0
 11
61.52890625
 21
275.3668945313
 31
0.0
  0
LINE
  5
81
330
1F
100
AcDbEntity
  8
VERERBUNG
  6
Continuous
 62
     7
100
AcDbLine
 10
29.52890625
 20
299.5968945313
 30
0.0
 11
30.52890625
 21
300.5968945312
 31
0.0
  0
LINE
  5
82
330
1F
100
AcDbEntity
  8
VERERBUNG
  6
Continuous
 62
     7
100
AcDbLine
 10
30.52890625
 20
313.1368945313
 30
0.0
 11
29.52890625
 21
314.1368945312
 31
0.0
  0
LWPOLYLINE
  5
83
330
1F
100
AcDbEntity
  8
BEZUGSACHSEN
  6
DOT_CENTER
 62
     7
100
AcDbPolyline
 90
        2
 70
     0
 43
0.25
 10
68.52890625
 20
330.3675376114
 10
68.52890625
 20
341.3668945313
  0
LINE
  5
84
330
1F
100
AcDbEntity
  8
VERERBUNG
  6
Continuous
 62
     7
100
AcDbLine
 10
81.40390625
 20
335.7644897954
 30
0.0
 11
82.9064053248
 21
338.3668945313
 31
0.0
  0
LINE
  5
85
330
1F
100
AcDbEntity
  8
FASEN
  6
Continuous
 62
     9
100
AcDbLine
 10
73.665916653
 20
286.6168945313
 30
0.0
 11
73.665916653
 21
287.0168945313
 31
0.0
  0
LINE
  5
86
330
1F
100
AcDbEntity
  8
0
  6
Continuous
 62
     7
100
AcDbLine
 10
76.1514071752
 20
338.3668945312
 30
0.0
 11
76.1514071752
 21
314.8843945312
 31
0.0
  0
LINE
  5
87
330
1F
100
AcDbEntity
  8
0
  6
Continuous
 62
     7
100
AcDbLine
 10
76.1514071752
 20
298.8493945313
 30
0.0
 11
76.1514071752
 21
287.0168945313
 31
0.0
  0
LINE
  5
88
330
1F
100
AcDbEntity
  8
0
  6
Continuous
 62
     7
100
AcDbLine
 10
76.1514071752
 20
282.4082048689
 30
0.0
 11
76.1514071752
 21
275.3668945313
 31
0.0
  0
LINE
  5
89
330
1F
100
AcDbEntity
  8
0
  6
Continuous
 62
     7
100
AcDbLine
 10
77.65390625
 20
335.7644672589
 30
0.0
 11
77.65390625
 21
314.8843945312
 31
0.0
  0
LINE
  5
8A
330
1F
100
AcDbEntity
  8
0
  6
Continuous
 62
     7
100
AcDbLine
 10
77.65390625
 20
298.8493945313
 30
0.0
 11
77.65390625
 21
287.0168945313
 31
0.0
  0
LINE
  5
8B
330
1F
100
AcDbEntity
  8
0
  6
Continuous
 62
     7
100
AcDbLine
 10
77.65390625
 20
277.9693055798
 30
0.0
 11
77.65390625
 21
286.4162832934
 31
0.0
  0
LINE
  5
8C
330
1F
100
AcDbEntity
  8
0
  6
Continuous
 62
     9
100
AcDbLine
 10
78.65390625
 20
279.3668945313
 30
0.0
 11
78.65390625
 21
299.1668945313
 31
0.0
  0
LINE
  5
8D
330
1F
100
AcDbEntity
  8
0
  6
Continuous
 62
     9
100
AcDbLine
 10
78.65390625
 20
314.5668945312
 30
0.0
 11
78.65390625
 21
334.3668945313
 31
0.0
  0
LINE
  5
8E
330
1F
100
AcDbEntity
  8
VERERBUNG
  6
Continuous
 62
     7
100
AcDbLine
 10
81.40390625
 20
277.9692992671
 30
0.0
 11
82.9064053248
 21
275.3668945313
 31
0.0
  0
LINE
  5
8F
330
1F
100
AcDbEntity
  8
0
  6
Continuous
 62
     9
100
AcDbLine
 10
80.40390625
 20
279.3668945313
 30
0.0
 11
80.40390625
 21
299.1668945313
 31
0.0
  0
LINE
  5
90
330
1F
100
AcDbEntity
  8
0
  6
Continuous
 62
     9
100
AcDbLine
 10
80.40390625
 20
314.5668945312
 30
0.0
 11
80.40390625
 21
334.3668945313
 31
0.0
  0
LINE
  5
91
330
1F
100
AcDbEntity
  8
0
  6
Continuous
 62
     7
100
AcDbLine
 10
81.40390625
 20
277.9693055798
 30
0.0
 11
81.40390625
 21
286.4162832934
 31
0.0
  0
LINE
  5
92
330
1F
100
AcDbEntity
  8
0
  6
Continuous
 62
     7
100
AcDbLine
 10
81.40390625
 20
287.0168945313
 30
0.0
 11
81.40390625
 21
298.8493945313
 31
0.0
  0
LINE
  5
93
330
1F
100
AcDbEntity
  8
0
  6
Continuous
 62
     7
100
AcDbLine
 10
81.40390625
 20
314.8843945312
 30
0.0
 11
81.40390625
 21
335.7644672589
 31
0.0
  0
LINE
  5
94
330
1F
100
AcDbEntity
  8
0
  6
Continuous
 62
     7
100
AcDbLine
 10
82.9064053248
 20
338.3668945313
 30
0.0
 11
82.9064053248
 21
314.8843945312
 31
0.0
  0
LINE
  5
95
330
1F
100
AcDbEntity
  8
0
  6
Continuous
 62
     7
100
AcDbLine
 10
82.9064053248
 20
298.8493945312
 30
0.0
 11
82.9064053248
 21
287.0168945313
 31
0.0
  0
LINE
  5
96
330
1F
100
AcDbEntity
  8
0
  6
Continuous
 62
     7
100
AcDbLine
 10
82.9064053248
 20
282.4082048689
 30
0.0
 11
82.9064053248
 21
275.3668945313
 31
0.0
  0
LINE
  5
97
330
1F
100
AcDbEntity
  8
VERERBUNG
  6
Continuous
 62
     9
100
AcDbLine
 10
29.52890625
 20
298.6903067447
 30
0.0
 11
30.52890625
 21
299.2370128514
 31
0.0
  0
LINE
  5
98
330
1F
100
AcDbEntity
  8
0
  6
Continuous
 62
     7
100
AcDbLine
 10
87.52890625
 20
282.4082048689
 30
0.0
 11
87.52890625
 21
275.366933593
 31
0.0
  0
LINE
  5
99
330
1F
100
AcDbEntity
  8
FASEN
  6
Continuous
 62
     7
100
AcDbLine
 10
87.52890625
 20
282.4082048689
 30
0.0
 11
87.52890625
 21
287.0168945313
 31
0.0
  0
LINE
  5
9A
330
1F
100
AcDbEntity
  8
0
  6
Continuous
 62
     7
100
AcDbLine
 10
87.52890625
 20
287.0168945313
 30
0.0
 11
87.52890625
 21
338.3668456257
 31
0.0
  0
LINE
  5
9B
330
1F
100
AcDbEntity
  8
VERERBUNG
  6
Continuous
 62
     9
100
AcDbLine
 10
30.52890625
 20
314.4967762111
 30
0.0
 11
29.52890625
 21
315.0434823178
 31
0.0
  0
LINE
  5
9C
330
1F
100
AcDbEntity
  8
RUNDUNGEN
  6
Continuous
 62
     9
100
AcDbLine
 10
95.3148300037
 20
324.0660424501
 30
0.0
 11
95.3148300037
 21
289.6677466124
 31
0.0
  0
LINE
  5
9D
330
1F
100
AcDbEntity
  8
VERERBUNG
  6
Continuous
 62
     7
100
AcDbLine
 10
76.1514071752
 20
275.3668945313
 30
0.0
 11
77.65390625
 21
277.9692992671
 31
0.0
  0
LINE
  5
9E
330
1F
100
AcDbEntity
  8
VERERBUNG
  6
Continuous
 62
     7
100
AcDbLine
 10
76.1514071752
 20
275.3668945313
 30
0.0
 11
61.52890625
 21
275.3668945313
 31
0.0
  0
LINE
  5
9F
330
1F
100
AcDbEntity
  8
VERERBUNG
  6
Continuous
 62
     7
100
AcDbLine
 10
82.9064053248
 20
275.3668945313
 30
0.0
 11
87.52890625
 21
275.3668945313
 31
0.0
  0
LINE
  5
A0
330
1F
100
AcDbEntity
  8
VERERBUNG
  6
Continuous
 62
     7
100
AcDbLine
 10
78.65390625
 20
279.3668945313
 30
0.0
 11
80.40390625
 21
279.3668945313
 31
0.0
  0
LINE
  5
A1
330
1F
100
AcDbEntity
  8
FASEN
  6
Continuous
 62
     7
100
AcDbLine
 10
66.8645186942
 20
282.4082048689
 30
0.0
 11
76.1514071752
 21
282.4082048689
 31
0.0
  0
LINE
  5
A2
330
1F
100
AcDbEntity
  8
0
  6
Continuous
 62
     7
100
AcDbLine
 10
82.9064053248
 20
282.4082048689
 30
0.0
 11
87.52890625
 21
282.4082048689
 31
0.0
  0
LINE
  5
A3
330
1F
100
AcDbEntity
  8
VERERBUNG
  6
Continuous
 62
     7
100
AcDbLine
 10
61.2267366195
 20
282.8464703816
 30
0.0
 11
60.3543079101
 21
282.8464703816
 31
0.0
  0
LINE
  5
A4
330
1F
100
AcDbEntity
  8
VERERBUNG
  6
Continuous
 62
     7
100
AcDbLine
 10
59.52890625
 20
282.6464703816
 30
0.0
 11
30.6688631857
 21
284.0923192737
 31
0.0
  0
LINE
  5
A5
330
1F
100
AcDbEntity
  8
VERERBUNG
  6
Continuous
 62
     7
100
AcDbLine
 10
76.1514071752
 20
338.3668945312
 30
0.0
 11
77.65390625
 21
335.7644897954
 31
0.0
  0
LINE
  5
A6
330
1F
100
AcDbEntity
  8
FASEN
  6
Continuous
 62
     7
100
AcDbLine
 10
73.665916653
 20
286.6168945313
 30
0.0
 11
77.6642715153
 21
286.6168945313
 31
0.0
  0
LINE
  5
A7
330
1F
100
AcDbEntity
  8
FASEN
  6
Continuous
 62
     7
100
AcDbLine
 10
81.3935409847
 20
286.6168945313
 30
0.0
 11
87.52890625
 21
286.6168945313
 31
0.0
  0
LINE
  5
A8
330
1F
100
AcDbEntity
  8
0
  6
Continuous
 62
     7
100
AcDbLine
 10
73.665916653
 20
287.0168945313
 30
0.0
 11
77.65390625
 21
287.0168945313
 31
0.0
  0
LINE
  5
A9
330
1F
100
AcDbEntity
  8
FASEN
  6
Continuous
 62
     7
100
AcDbLine
 10
77.65390625
 20
287.0168945313
 30
0.0
 11
77.6642715153
 21
287.0168945313
 31
0.0
  0
LINE
  5
AA
330
1F
100
AcDbEntity
  8
FASEN
  6
Continuous
 62
     7
100
AcDbLine
 10
81.3935409847
 20
287.0168945313
 30
0.0
 11
81.40390625
 21
287.0168945313
 31
0.0
  0
LINE
  5
AB
330
1F
100
AcDbEntity
  8
0
  6
Continuous
 62
     7
100
AcDbLine
 10
81.40390625
 20
287.0168945313
 30
0.0
 11
87.52890625
 21
287.0168945313
 31
0.0
  0
LINE
  5
AC
330
1F
100
AcDbEntity
  8
0
  6
Continuous
 62
     7
100
AcDbLine
 10
142.52890625
 20
292.8668945313
 30
0.0
 11
193.5146926876
 21
292.8668945313
 31
0.0
  0
LINE
  5
AD
330
1F
100
AcDbEntity
  8
0
  6
Continuous
 62
     7
100
AcDbLine
 10
204.97890625
 20
292.8668945313
 30
0.0
 11
217.761139297
 21
292.8668945313
 31
0.0
  0
LINE
  5
AE
330
1F
100
AcDbEntity
  8
0
  6
Continuous
 62
     7
100
AcDbLine
 10
210.72890625
 20
292.8891969307
 30
0.0
 11
217.761139297
 21
292.8891969307
 31
0.0
  0
LINE
  5
AF
330
1F
100
AcDbEntity
  8
RUNDUNGEN
  6
Continuous
 62
     7
100
AcDbLine
 10
203.72890625
 20
295.8668945313
 30
0.0
 11
197.3431198124
 21
295.8668945313
 31
0.0
  0
LINE
  5
B0
330
1F
100
AcDbEntity
  8
0
  6
Continuous
 62
     7
100
AcDbLine
 10
197.3431198124
 20
295.8668945313
 30
0.0
 11
203.72890625
 21
295.8668945313
 31
0.0
  0
LWPOLYLINE
  5
B1
330
1F
100
AcDbEntity
  8
DEFAULT_2
  6
DASHED
 62
     8
100
AcDbPolyline
 90
        2
 70
     0
 43
0.35
 10
203.72890625
 20
295.8668945313
 10
210.92890625
 20
295.8668945313
  0
LINE
  5
B2
330
1F
100
AcDbEntity
  8
VERERBUNG
  6
Continuous
 62
     9
100
AcDbLine
 10
35.0163132877
 20
297.5968945313
 30
0.0
 11
30.2005810604
 21
297.5968945313
 31
0.0
  0
LINE
  5
B3
330
1F
100
AcDbEntity
  8
VERERBUNG
  6
Continuous
 62
     7
100
AcDbLine
 10
60.199016483
 20
282.8260258774
 30
0.0
 11
59.52890625
 21
282.6464703816
 31
0.0
  0
LWPOLYLINE
  5
B4
330
1F
100
AcDbEntity
  8
DEFAULT_2
  6
DASHED
 62
     8
100
AcDbPolyline
 90
        2
 70
     0
 43
0.35
 10
210.92890625
 20
314.8668945313
 10
191.3616395134
 20
312.1168945313
  0
LINE
  5
B5
330
1F
100
AcDbEntity
  8
0
  6
Continuous
 62
     7
100
AcDbLine
 10
87.52890625
 20
298.8493945313
 30
0.0
 11
80.8197931405
 21
298.8493945313
 31
0.0
  0
LINE
  5
B6
330
1F
100
AcDbEntity
  8
0
  6
Continuous
 62
     7
100
AcDbLine
 10
74.49640625
 20
298.8493945313
 30
0.0
 11
78.2380193595
 21
298.8493945313
 31
0.0
  0
LINE
  5
B7
330
1F
100
AcDbEntity
  8
0
  6
Continuous
 62
     7
100
AcDbLine
 10
78.65390625
 20
299.1668945313
 30
0.0
 11
80.40390625
 21
299.1668945313
 31
0.0
  0
LINE
  5
B8
330
1F
100
AcDbEntity
  8
0
  6
Continuous
 62
     7
100
AcDbLine
 10
210.72890625
 20
299.1939570372
 30
0.0
 11
217.761139297
 21
299.1939570372
 31
0.0
  0
LINE
  5
B9
330
1F
100
AcDbEntity
  8
0
  6
Continuous
 62
     7
100
AcDbLine
 10
210.72890625
 20
300.5621344248
 30
0.0
 11
217.761139297
 21
300.5621344248
 31
0.0
  0
LINE
  5
BA
330
1F
100
AcDbEntity
  8
VERERBUNG
  6
Continuous
 62
     7
100
AcDbLine
 10
34.02890625
 20
300.5968945312
 30
0.0
 11
30.52890625
 21
300.5968945312
 31
0.0
  0
LWPOLYLINE
  5
BB
330
1F
100
AcDbEntity
  8
DEFAULT_2
  6
DASHED
 62
     8
100
AcDbPolyline
 90
        2
 70
     0
 43
0.35
 10
191.3616395134
 20
301.6168945313
 10
188.92890625
 20
301.6168945313
  0
LWPOLYLINE
  5
BC
330
1F
100
AcDbEntity
  8
BG_STARTBEZUEGE
  6
DOT_CENTER
 62
     7
100
AcDbPolyline
 90
        2
 70
     0
 43
0.25
 10
224.52890625
 20
306.8668945313
 10
26.52890625
 20
306.8668945313
  0
LWPOLYLINE
  5
BD
330
1F
100
AcDbEntity
  8
DEFAULT_2
  6
DASHED
 62
     8
100
AcDbPolyline
 90
        2
 70
     0
 43
0.35
 10
191.3616395134
 20
312.1168945313
 10
188.92890625
 20
312.1168945313
  0
LWPOLYLINE
  5
BE
330
1F
100
AcDbEntity
  8
DEFAULT_2
  6
DASHED
 62
     8
100
AcDbPolyline
 90
        2
 70
     0
 43
0.35
 10
210.92890625
 20
298.8668945313
 10
191.3616395134
 20
301.6168945313
  0
LINE
  5
BF
330
1F
100
AcDbEntity
  8
VERERBUNG
  6
Continuous
 62
     7
100
AcDbLine
 10
34.02890625
 20
313.1368945313
 30
0.0
 11
30.52890625
 21
313.1368945313
 31
0.0
  0
LINE
  5
C0
330
1F
100
AcDbEntity
  8
0
  6
Continuous
 62
     7
100
AcDbLine
 10
210.72890625
 20
313.1716546377
 30
0.0
 11
217.761139297
 21
313.1716546377
 31
0.0
  0
LINE
  5
C1
330
1F
100
AcDbEntity
  8
0
  6
Continuous
 62
     7
100
AcDbLine
 10
210.72890625
 20
314.5398320253
 30
0.0
 11
217.761139297
 21
314.5398320253
 31
0.0
  0
LINE
  5
C2
330
1F
100
AcDbEntity
  8
0
  6
Continuous
 62
     7
100
AcDbLine
 10
78.65390625
 20
314.5668945312
 30
0.0
 11
80.40390625
 21
314.5668945312
 31
0.0
  0
LINE
  5
C3
330
1F
100
AcDbEntity
  8
0
  6
Continuous
 62
     7
100
AcDbLine
 10
74.49640625
 20
314.8843945313
 30
0.0
 11
78.2380193595
 21
314.8843945312
 31
0.0
  0
LINE
  5
C4
330
1F
100
AcDbEntity
  8
0
  6
Continuous
 62
     7
100
AcDbLine
 10
80.8197931405
 20
314.8843945312
 30
0.0
 11
87.52890625
 21
314.8843945313
 31
0.0
  0
LINE
  5
C5
330
1F
100
AcDbEntity
  8
VERERBUNG
  6
Continuous
 62
     9
100
AcDbLine
 10
30.2005810604
 20
316.1368945313
 30
0.0
 11
35.0163132877
 21
316.1368945313
 31
0.0
  0
LINE
  5
C6
330
1F
100
AcDbEntity
  8
RUNDUNGEN
  6
Continuous
 62
     7
100
AcDbLine
 10
203.72890625
 20
317.8668945313
 30
0.0
 11
197.3431198124
 21
317.8668945313
 31
0.0
  0
LINE
  5
C7
330
1F
100
AcDbEntity
  8
0
  6
Continuous
 62
     7
100
AcDbLine
 10
197.3431198124
 20
317.8668945313
 30
0.0
 11
203.72890625
 21
317.8668945313
 31
0.0
  0
LWPOLYLINE
  5
C8
330
1F
100
AcDbEntity
  8
DEFAULT_2
  6
DASHED
 62
     8
100
AcDbPolyline
 90
        2
 70
     0
 43
0.35
 10
203.72890625
 20
317.8668945313
 10
210.92890625
 20
317.8668945313
  0
LINE
  5
C9
330
1F
100
AcDbEntity
  8
VERERBUNG
  6
Continuous
 62
     7
100
AcDbLine
 10
60.199016483
 20
330.9077631851
 30
0.0
 11
59.52890625
 21
331.0873186809
 31
0.0
  0
LINE
  5
CA
330
1F
100
AcDbEntity
  8
0
  6
Continuous
 62
     9
100
AcDbLine
 10
142.52890625
 20
320.8668945312
 30
0.0
 11
142.52890625
 21
292.8668945313
 31
0.0
  0
LINE
  5
CB
330
1F
100
AcDbEntity
  8
0
  6
Continuous
 62
     7
100
AcDbLine
 10
210.72890625
 20
320.8445921318
 30
0.0
 11
217.761139297
 21
320.8445921318
 31
0.0
  0
LINE
  5
CC
330
1F
100
AcDbEntity
  8
RUNDUNGEN
  6
Continuous
 62
     7
100
AcDbLine
 10
217.761139297
 20
320.8668945312
 30
0.0
 11
204.97890625
 21
320.8668945312
 31
0.0
  0
LINE
  5
CD
330
1F
100
AcDbEntity
  8
0
  6
Continuous
 62
     7
100
AcDbLine
 10
193.5146926876
 20
320.8668945313
 30
0.0
 11
142.52890625
 21
320.8668945312
 31
0.0
  0
LINE
  5
CE
330
1F
100
AcDbEntity
  8
0
  6
Continuous
 62
     7
100
AcDbLine
 10
204.97890625
 20
320.8668945312
 30
0.0
 11
217.761139297
 21
320.8668945312
 31
0.0
  0
LINE
  5
CF
330
1F
100
AcDbEntity
  8
VERERBUNG
  6
Continuous
 62
     7
100
AcDbLine
 10
61.2267366195
 20
330.8873186809
 30
0.0
 11
60.3543079101
 21
330.8873186809
 31
0.0
  0
LINE
  5
D0
330
1F
100
AcDbEntity
  8
VERERBUNG
  6
Continuous
 62
     7
100
AcDbLine
 10
59.52890625
 20
331.0873186809
 30
0.0
 11
30.6688631857
 21
329.6414697888
 31
0.0
  0
LINE
  5
D1
330
1F
100
AcDbEntity
  8
VERERBUNG
  6
Continuous
 62
     7
100
AcDbLine
 10
78.65390625
 20
334.3668945313
 30
0.0
 11
80.40390625
 21
334.3668945313
 31
0.0
  0
LINE
  5
D2
330
1F
100
AcDbEntity
  8
VERERBUNG
  6
Continuous
 62
     7
100
AcDbLine
 10
76.1514071752
 20
338.3668945312
 30
0.0
 11
73.52890625
 21
338.3668945313
 31
0.0
  0
LINE
  5
D3
330
1F
100
AcDbEntity
  8
VERERBUNG
  6
Continuous
 62
     7
100
AcDbLine
 10
63.52890625
 20
338.3668945313
 30
0.0
 11
61.52890625
 21
338.3668945313
 31
0.0
  0
LINE
  5
D4
330
1F
100
AcDbEntity
  8
VERERBUNG
  6
Continuous
 62
     7
100
AcDbLine
 10
82.9064053248
 20
338.3668945313
 30
0.0
 11
87.52890625
 21
338.3668945313
 31
0.0
  0
LINE
  5
D5
330
1F
100
AcDbEntity
  8
0
  6
Continuous
 62
     7
100
AcDbLine
 10
194.2217994688
 20
293.1597877501
 30
0.0
 11
196.6360130312
 21
295.5740013124
 31
0.0
  0
LINE
  5
D6
330
1F
100
AcDbEntity
  8
0
  6
Continuous
 62
     7
100
AcDbLine
 10
194.2217994688
 20
320.5740013124
 30
0.0
 11
196.6360130312
 21
318.1597877501
 31
0.0
  0
LINE
  5
D7
330
1F
100
AcDbEntity
  8
RUNDUNGEN
  6
Continuous
 62
     7
100
AcDbLine
 10
196.6360130312
 20
318.1597877501
 30
0.0
 11
194.2217994688
 21
320.5740013124
 31
0.0
  0
LWPOLYLINE
  5
D8
330
1F
100
AcDbEntity
  8
DEFAULT_2
  6
DASHED
 62
     8
100
AcDbPolyline
 90
        2
 70
     0
 43
0.35
 10
188.92890625
 20
312.1168945313
 10
188.92890625
 20
301.6168945313
  0
LWPOLYLINE
  5
D9
330
1F
100
AcDbEntity
  8
DEFAULT_2
  6
DASHED
 62
     8
100
AcDbPolyline
 90
        2
 70
     0
 43
0.35
 10
191.3616395134
 20
312.1168945313
 10
191.3616395134
 20
301.6168945313
  0
LINE
  5
DA
330
1F
100
AcDbEntity
  8
RUNDUNGEN
  6
Continuous
 62
     9
100
AcDbLine
 10
193.5146926876
 20
292.8668945313
 30
0.0
 11
193.5146926876
 21
320.8668945313
 31
0.0
  0
LINE
  5
DB
330
1F
100
AcDbEntity
  8
RUNDUNGEN
  6
Continuous
 62
     9
100
AcDbLine
 10
194.2217994688
 20
293.1597877501
 30
0.0
 11
194.2217994688
 21
320.5740013124
 31
0.0
  0
LINE
  5
DC
330
1F
100
AcDbEntity
  8
RUNDUNGEN
  6
Continuous
 62
     9
100
AcDbLine
 10
196.6360130312
 20
318.1597877501
 30
0.0
 11
196.6360130312
 21
295.5740013124
 31
0.0
  0
LINE
  5
DD
330
1F
100
AcDbEntity
  8
RUNDUNGEN
  6
Continuous
 62
     9
100
AcDbLine
 10
197.3431198124
 20
317.8668945313
 30
0.0
 11
197.3431198124
 21
295.8668945313
 31
0.0
  0
LINE
  5
DE
330
1F
100
AcDbEntity
  8
RUNDUNGEN
  6
Continuous
 62
     7
100
AcDbLine
 10
221.52890625
 20
296.1168945313
 30
0.0
 11
218.6450227735
 21
293.2330110548
 31
0.0
  0
LINE
  5
DF
330
1F
100
AcDbEntity
  8
0
  6
Continuous
 62
     7
100
AcDbLine
 10
218.6450227735
 20
293.2330110548
 30
0.0
 11
221.52890625
 21
296.1168945313
 31
0.0
  0
LINE
  5
E0
330
1F
100
AcDbEntity
  8
RUNDUNGEN
  6
Continuous
 62
     7
100
AcDbLine
 10
203.72890625
 20
294.1168945313
 30
0.0
 11
203.72890625
 21
319.6168945313
 31
0.0
  0
LINE
  5
E1
330
1F
100
AcDbEntity
  8
RUNDUNGEN
  6
Continuous
 62
     9
100
AcDbLine
 10
204.97890625
 20
292.8668945313
 30
0.0
 11
204.97890625
 21
320.8668945312
 31
0.0
  0
LINE
  5
E2
330
1F
100
AcDbEntity
  8
0
  6
Continuous
 62
     7
100
AcDbLine
 10
218.6450227735
 20
320.5007780077
 30
0.0
 11
221.52890625
 21
317.6168945313
 31
0.0
  0
LINE
  5
E3
330
1F
100
AcDbEntity
  8
RUNDUNGEN
  6
Continuous
 62
     7
100
AcDbLine
 10
221.52890625
 20
317.6168945313
 30
0.0
 11
218.6450227735
 21
320.5007780077
 31
0.0
  0
LINE
  5
E4
330
1F
100
AcDbEntity
  8
0
  6
Continuous
 62
     7
100
AcDbLine
 10
210.72890625
 20
320.8445921318
 30
0.0
 11
210.72890625
 21
314.5398320253
 31
0.0
  0
LINE
  5
E5
330
1F
100
AcDbEntity
  8
0
  6
Continuous
 62
     7
100
AcDbLine
 10
210.72890625
 20
313.1716546377
 30
0.0
 11
210.72890625
 21
300.5621344248
 31
0.0
  0
LINE
  5
E6
330
1F
100
AcDbEntity
  8
0
  6
Continuous
 62
     7
100
AcDbLine
 10
210.72890625
 20
299.1939570372
 30
0.0
 11
210.72890625
 21
292.8891969307
 31
0.0
  0
LWPOLYLINE
  5
E7
330
1F
100
AcDbEntity
  8
DEFAULT_2
  6
DASHED
 62
     8
100
AcDbPolyline
 90
        2
 70
     0
 43
0.35
 10
210.92890625
 20
317.8668945313
 10
210.92890625
 20
295.8668945313
  0
LINE
  5
E8
330
1F
100
AcDbEntity
  8
0
  6
Continuous
 62
     9
100
AcDbLine
 10
217.761139297
 20
292.8668945313
 30
0.0
 11
217.761139297
 21
292.8891969307
 31
0.0
  0
LINE
  5
E9
330
1F
100
AcDbEntity
  8
0
  6
Continuous
 62
     9
100
AcDbLine
 10
217.761139297
 20
299.1939570372
 30
0.0
 11
217.761139297
 21
300.5621344248
 31
0.0
  0
LINE
  5
EA
330
1F
100
AcDbEntity
  8
0
  6
Continuous
 62
     9
100
AcDbLine
 10
217.761139297
 20
313.1716546377
 30
0.0
 11
217.761139297
 21
314.5398320253
 31
0.0
  0
LINE
  5
EB
330
1F
100
AcDbEntity
  8
0
  6
Continuous
 62
     9
100
AcDbLine
 10
217.761139297
 20
320.8445921318
 30
0.0
 11
217.761139297
 21
320.8668945312
 31
0.0
  0
LINE
  5
EC
330
1F
100
AcDbEntity
  8
0
  6
Continuous
 62
     9
100
AcDbLine
 10
218.6450227735
 20
293.2330110548
 30
0.0
 11
218.6450227735
 21
293.31977709
 31
0.0
  0
LINE
  5
ED
330
1F
100
AcDbEntity
  8
0
  6
Continuous
 62
     9
100
AcDbLine
 10
218.6450227735
 20
298.7633768779
 30
0.0
 11
218.6450227735
 21
301.4232947434
 31
0.0
  0
LINE
  5
EE
330
1F
100
AcDbEntity
  8
0
  6
Continuous
 62
     9
100
AcDbLine
 10
218.6450227735
 20
312.3104943191
 30
0.0
 11
218.6450227735
 21
314.9704121846
 31
0.0
  0
LINE
  5
EF
330
1F
100
AcDbEntity
  8
0
  6
Continuous
 62
     9
100
AcDbLine
 10
218.6450227735
 20
320.4140119725
 30
0.0
 11
218.6450227735
 21
320.5007780077
 31
0.0
  0
LINE
  5
F0
330
1F
100
AcDbEntity
  8
0
  6
Continuous
 62
     7
100
AcDbLine
 10
221.52890625
 20
317.6168945313
 30
0.0
 11
221.52890625
 21
296.1168945313
 31
0.0
  0
ARC
  5
F1
330
1F
100
AcDbEntity
  8
FASEN
  6
Continuous
 62
     7
100
AcDbCircle
 10
-20.0413342305
 20
286.8168945313
 30
0.0
 40
97.70581044213137
100
AcDbArc
 50
359.8827176822629
 51
0.11728231773712
  0
ARC
  5
F2
330
1F
100
AcDbEntity
  8
FASEN
  6
Continuous
 62
     7
100
AcDbCircle
 10
76.5729121657
 20
290.936291688
 30
0.0
 40
12.92211935370016
100
AcDbArc
 50
219.3764519582008
 51
221.2968513337217
  0
ARC
  5
F3
330
1F
100
AcDbEntity
  8
FASEN
  6
Continuous
 62
     7
100
AcDbCircle
 10
73.665916653
 20
279.0168945312
 30
0.0
 40
8.000000000099988
100
AcDbArc
 50
90.0
 51
152.2781454969
  0
ARC
  5
F4
330
1F
100
AcDbEntity
  8
FASEN
  6
Continuous
 62
     7
100
AcDbCircle
 10
73.665916653
 20
279.0168945312
 30
0.0
 40
7.599996372199996
100
AcDbArc
 50
90.0
 51
153.4982565739271
  0
ARC
  5
F5
330
1F
100
AcDbEntity
  8
FASEN
  6
Continuous
 62
     7
100
AcDbCircle
 10
79.4563607869
 20
286.4162300978
 30
0.0
 40
1.947545463826496
100
AcDbArc
 50
0.00156498701871
 51
5.91393926133046
  0
ARC
  5
F6
330
1F
100
AcDbEntity
  8
VERERBUNG
  6
Continuous
 62
     7
100
AcDbCircle
 10
34.02890625
 20
302.0968945313
 30
0.0
 40
1.500000000099988
100
AcDbArc
 50
270.0
 51
354.6670371752118
  0
ARC
  5
F7
330
1F
100
AcDbEntity
  8
VERERBUNG
  6
Continuous
 62
     7
100
AcDbCircle
 10
30.72890625
 20
285.2908161784
 30
0.0
 40
1.200000000000003
100
AcDbArc
 50
180.0
 51
267.1319572717895
  0
ARC
  5
F8
330
1F
100
AcDbEntity
  8
VERERBUNG
  6
Continuous
 62
     7
100
AcDbCircle
 10
78.65390625
 20
278.3668945313
 30
0.0
 40
1.0
100
AcDbArc
 50
90.0
 51
180.0
  0
ARC
  5
F9
330
1F
100
AcDbEntity
  8
VERERBUNG
  6
Continuous
 62
     7
100
AcDbCircle
 10
60.3543079101
 20
282.2464703816
 30
0.0
 40
0.6000000000000227
100
AcDbArc
 50
90.0
 51
105.0000000028924
  0
ARC
  5
FA
330
1F
100
AcDbEntity
  8
VERERBUNG
  6
Continuous
 62
     7
100
AcDbCircle
 10
61.2267366195
 20
282.2464703816
 30
0.0
 40
0.6000000000003822
100
AcDbArc
 50
59.74152092741755
 51
90.0
  0
ARC
  5
FB
330
1F
100
AcDbEntity
  8
0
  6
Continuous
 62
     7
100
AcDbCircle
 10
-66.2196352225
 20
346.3318981355
 30
0.0
 40
156.0632957304505
100
AcDbArc
 50
335.8202227521756
 51
337.2043014056001
  0
ARC
  5
FC
330
1F
100
AcDbEntity
  8
VERERBUNG
  6
Continuous
 62
     7
100
AcDbCircle
 10
68.510340065
 20
369.6814423905
 30
0.0
 40
31.71385608959989
100
AcDbArc
 50
270.0335425085
 51
279.1049739730001
  0
ARC
  5
FD
330
1F
100
AcDbEntity
  8
0
  6
Continuous
 62
     7
100
AcDbCircle
 10
74.49640625
 20
306.8668945312
 30
0.0
 40
8.017500000100029
100
AcDbArc
 50
90.0
 51
270.0
  0
ARC
  5
FE
330
1F
100
AcDbEntity
  8
VERERBUNG
  6
Continuous
 62
     7
100
AcDbCircle
 10
34.02890625
 20
311.6368945313
 30
0.0
 40
1.500000000000033
100
AcDbArc
 50
5.33296276981268
 51
90.0
  0
ARC
  5
FF
330
1F
100
AcDbEntity
  8
VERERBUNG
  6
Continuous
 62
     7
100
AcDbCircle
 10
30.72890625
 20
328.4429728841
 30
0.0
 40
1.200000000060833
100
AcDbArc
 50
92.86804272821051
 51
180.0
  0
ARC
  5
100
330
1F
100
AcDbEntity
  8
VERERBUNG
  6
Continuous
 62
     7
100
AcDbCircle
 10
78.65390625
 20
335.3668945313
 30
0.0
 40
1.0
100
AcDbArc
 50
180.0
 51
270.0
  0
ARC
  5
101
330
1F
100
AcDbEntity
  8
VERERBUNG
  6
Continuous
 62
     7
100
AcDbCircle
 10
60.3543079101
 20
331.4873186809
 30
0.0
 40
0.6000000000355948
100
AcDbArc
 50
254.9999999971062
 51
270.0
  0
ARC
  5
102
330
1F
100
AcDbEntity
  8
VERERBUNG
  6
Continuous
 62
     7
100
AcDbCircle
 10
61.2267366195
 20
331.4873186809
 30
0.0
 40
0.5999999999999659
100
AcDbArc
 50
270.0
 51
300.2584790725852
  0
ARC
  5
103
330
1F
100
AcDbEntity
  8
VERERBUNG
  6
Continuous
 62
     7
100
AcDbCircle
 10
135.4125036565
 20
-561.668167385
 30
0.0
 40
884.3221864331545
100
AcDbArc
 50
96.58318095120157
 51
96.8023740697
  0
ARC
  5
104
330
1F
100
AcDbEntity
  8
0
  6
Continuous
 62
     7
100
AcDbCircle
 10
142.52890625
 20
-57.1331054687
 30
0.0
 40
350.0
100
AcDbArc
 50
90.0
 51
97.75268479939717
  0
ARC
  5
105
330
1F
100
AcDbEntity
  8
RUNDUNGEN
  6
Continuous
 62
     7
100
AcDbCircle
 10
142.52890625
 20
-57.1331054687
 30
0.0
 40
350.0
100
AcDbArc
 50
90.0
 51
97.75268479939717
  0
ARC
  5
106
330
1F
100
AcDbEntity
  8
FASEN
  6
Continuous
 62
     7
100
AcDbCircle
 10
179.0991467305
 20
286.8168945313
 30
0.0
 40
97.70581044213137
100
AcDbArc
 50
179.8827176822629
 51
180.1172823177372
  0
ARC
  5
107
330
1F
100
AcDbEntity
  8
RUNDUNGEN
  6
Continuous
 62
     7
100
AcDbCircle
 10
96.52890625
 20
280.750010416
 30
0.0
 40
9.000000000022897
100
AcDbArc
 50
97.7526847991616
 51
180.0
  0
ARC
  5
108
330
1F
100
AcDbEntity
  8
FASEN
  6
Continuous
 62
     7
100
AcDbCircle
 10
79.6014517131
 20
286.4162300978
 30
0.0
 40
1.947545463813446
100
AcDbArc
 50
174.0860607386696
 51
179.9984350129813
  0
ARC
  5
109
330
1F
100
AcDbEntity
  8
RUNDUNGEN
  6
Continuous
 62
     7
100
AcDbCircle
 10
217.761139297
 20
294.1168945313
 30
0.0
 40
1.25
100
AcDbArc
 50
270.0
 51
315.0
  0
ARC
  5
10A
330
1F
100
AcDbEntity
  8
RUNDUNGEN
  6
Continuous
 62
     7
100
AcDbCircle
 10
204.97890625
 20
294.1168945313
 30
0.0
 40
1.25
100
AcDbArc
 50
180.0
 51
270.0
  0
ARC
  5
10B
330
1F
100
AcDbEntity
  8
RUNDUNGEN
  6
Continuous
 62
     7
100
AcDbCircle
 10
197.3431198124
 20
294.8668945313
 30
0.0
 40
1.0
100
AcDbArc
 50
90.0
 51
135.0000000040498
  0
ARC
  5
10C
330
1F
100
AcDbEntity
  8
VERERBUNG
  6
Continuous
 62
     7
100
AcDbCircle
 10
80.40390625
 20
278.3668945313
 30
0.0
 40
1.0
100
AcDbArc
 50
0.0
 51
90.0
  0
ARC
  5
10D
330
1F
100
AcDbEntity
  8
RUNDUNGEN
  6
Continuous
 62
     7
100
AcDbCircle
 10
193.5146926876
 20
293.8668945313
 30
0.0
 40
1.0
100
AcDbArc
 50
270.0
 51
315.0000000000011
  0
ARC
  5
10E
330
1F
100
AcDbEntity
  8
VERERBUNG
  6
Continuous
 62
     7
100
AcDbCircle
 10
135.4125036565
 20
1175.4019564475
 30
0.0
 40
884.3221864331001
100
AcDbArc
 50
263.1976259303
 51
263.4168190487984
  0
ARC
  5
10F
330
1F
100
AcDbEntity
  8
0
  6
Continuous
 62
     7
100
AcDbCircle
 10
142.52890625
 20
670.8668945313
 30
0.0
 40
350.000000000054
100
AcDbArc
 50
262.247315200605
 51
270.0
  0
ARC
  5
110
330
1F
100
AcDbEntity
  8
RUNDUNGEN
  6
Continuous
 62
     7
100
AcDbCircle
 10
142.52890625
 20
670.8668945313
 30
0.0
 40
350.000000000054
100
AcDbArc
 50
262.247315200605
 51
270.0
  0
ARC
  5
111
330
1F
100
AcDbEntity
  8
0
  6
Continuous
 62
     7
100
AcDbCircle
 10
225.2774477227
 20
346.3318981355
 30
0.0
 40
156.0632957307001
100
AcDbArc
 50
202.7956985944001
 51
204.1797772477943
  0
ARC
  5
112
330
1F
100
AcDbEntity
  8
RUNDUNGEN
  6
Continuous
 62
     7
100
AcDbCircle
 10
96.52890625
 20
332.9837786465
 30
0.0
 40
9.0
100
AcDbArc
 50
180.0
 51
262.2473152008385
  0
ARC
  5
113
330
1F
100
AcDbEntity
  8
RUNDUNGEN
  6
Continuous
 62
     7
100
AcDbCircle
 10
217.761139297
 20
319.6168945313
 30
0.0
 40
1.249999999953063
100
AcDbArc
 50
44.99999999675926
 51
90.0
  0
ARC
  5
114
330
1F
100
AcDbEntity
  8
RUNDUNGEN
  6
Continuous
 62
     7
100
AcDbCircle
 10
204.97890625
 20
319.6168945313
 30
0.0
 40
1.249999999900012
100
AcDbArc
 50
90.0
 51
180.0
  0
ARC
  5
115
330
1F
100
AcDbEntity
  8
RUNDUNGEN
  6
Continuous
 62
     7
100
AcDbCircle
 10
197.3431198124
 20
318.8668945313
 30
0.0
 40
1.000000000019
100
AcDbArc
 50
224.9999999999988
 51
270.0
  0
ARC
  5
116
330
1F
100
AcDbEntity
  8
VERERBUNG
  6
Continuous
 62
     7
100
AcDbCircle
 10
80.40390625
 20
335.3668945313
 30
0.0
 40
1.0
100
AcDbArc
 50
270.0
 51
0.0
  0
ARC
  5
117
330
1F
100
AcDbEntity
  8
RUNDUNGEN
  6
Continuous
 62
     7
100
AcDbCircle
 10
193.5146926876
 20
319.8668945313
 30
0.0
 40
0.9999999999483382
100
AcDbArc
 50
44.99999999595023
 51
90.0
  0
CIRCLE
  5
118
330
1F
100
AcDbEntity
  8
VERERBUNG
  6
Continuous
 62
     7
100
AcDbCircle
 10
52.52890625
 20
306.8668945313
 30
0.0
 40
3.75
  0
SPLINE
  5
119
330
1F
100
AcDbEntity
  8
0
  6
Continuous
 62
     7
100
AcDbSpline
210
0.0
220
0.0
230
1.0
 70
     8
 71
     3
 72
    23
 73
    19
 74
    17
 42
0.0000000001
 43
0.0000000001
 44
0.00000001
 40
0.0
 40
0.0
 40
0.0
 40
0.0
 40
0.4045796683661324
 40
0.8092579137925843
 40
1.192148523236273
 40
1.575003113695506
 40
1.938545534847436
 40
2.302005654230921
 40
2.653694253940177
 40
3.005361369065062
 40
3.357028596454381
 40
3.708717297696277
 40
4.072176790095251
 40
4.435718602132616
 40
4.818572840214912
 40
5.201463089199434
 40
5.606141105579805
 40
6.010720543460206
 40
6.010720543460206
 40
6.010720543460206
 40
6.010720543460206
 10
218.6450227735
 20
320.4140119725
 30
0.0
 10
218.7277620524333
 20
320.307476970718
 30
0.0
 10
218.8932607699754
 20
320.0943810095783
 30
0.0
 10
219.1148324846829
 20
319.7640875620335
 30
0.0
 10
219.3118277913773
 20
319.4270252941699
 30
0.0
 10
219.4766332840796
 20
319.0881032100806
 30
0.0
 10
219.6097057107805
 20
318.7424051128696
 30
0.0
 10
219.7065235171858
 20
318.3954569330146
 30
0.0
 10
219.7652618694487
 20
318.0440513458772
 30
0.0
 10
219.7853530764784
 20
317.6922108730107
 30
0.0
 10
219.7652620418436
 20
317.3403703530758
 30
0.0
 10
219.7065236848814
 20
316.9889648933695
 30
0.0
 10
219.6097055741556
 20
316.642017182133
 30
0.0
 10
219.4766328681665
 20
316.2963197646457
 30
0.0
 10
219.3118273044052
 20
315.9573982123881
 30
0.0
 10
219.1148320628358
 20
315.6203362761203
 30
0.0
 10
218.8932605849475
 20
315.2900430010068
 30
0.0
 10
218.7277619906603
 20
315.0769471374165
 30
0.0
 10
218.6450227735
 20
314.9704121846
 30
0.0
 11
218.6450227735
 21
320.4140119725
 31
0.0
 11
218.8894688475634
 21
320.0916289318012
 31
0.0
 11
219.1152330404591
 21
319.7557792458886
 31
0.0
 11
219.3075503372353
 21
319.424691227137
 31
0.0
 11
219.4743384887096
 21
319.0800764422489
 31
0.0
 11
219.6042353544599
 21
318.7405327834283
 31
0.0
 11
219.7011710890421
 21
318.3902375911358
 31
0.0
 11
219.7589296292636
 21
318.0433243135044
 31
0.0
 11
219.7786561725461
 21
317.6922109082485
 31
0.0
 11
219.758929765755
 21
317.3410973828827
 31
0.0
 11
219.7011711483851
 21
316.9941840151657
 31
0.0
 11
219.6042352205644
 21
316.6438895268956
 31
0.0
 11
219.4743381548166
 21
316.3043465967534
 31
0.0
 11
219.3075498824587
 21
315.9597322618492
 31
0.0
 11
219.1152326742111
 21
315.6286446085318
 31
0.0
 11
218.8894686573956
 21
315.2927950802413
 31
0.0
 11
218.6450227735
 21
314.9704121846
 31
0.0
  0
SPLINE
  5
11A
330
1F
100
AcDbEntity
  8
0
  6
Continuous
 62
     7
100
AcDbSpline
210
0.0
220
0.0
230
1.0
 70
     8
 71
     3
 72
    23
 73
    19
 74
    17
 42
0.0000000001
 43
0.0000000001
 44
0.00000001
 40
0.0
 40
0.0
 40
0.0
 40
0.0
 40
0.4045796683678536
 40
0.8092579138074675
 40
1.192148523280303
 40
1.575003113769111
 40
1.938545534931606
 40
2.302005654302326
 40
2.653694253978836
 40
3.005361369070804
 40
3.357028596445651
 40
3.708717297685585
 40
4.072176790084504
 40
4.435718602121869
 40
4.818572840206826
 40
5.201463089209289
 40
5.606141105618674
 40
6.01072054345233
 40
6.01072054345233
 40
6.01072054345233
 40
6.01072054345233
 10
218.6450227735
 20
298.7633768779
 30
0.0
 10
218.7277620524335
 20
298.6568418761174
 30
0.0
 10
218.8932607699787
 20
298.4437459149738
 30
0.0
 10
219.114832484688
 20
298.1134524674122
 30
0.0
 10
219.3118277913772
 20
297.7763901995175
 30
0.0
 10
219.4766332840757
 20
297.437468115401
 30
0.0
 10
219.6097057107768
 20
297.0917700181808
 30
0.0
 10
219.7065235171834
 20
296.7448218383383
 30
0.0
 10
219.7652618694491
 20
296.3934162512279
 30
0.0
 10
219.7853530764785
 20
296.041575778388
 30
0.0
 10
219.7652620418427
 20
295.6897352584697
 30
0.0
 10
219.7065236848811
 20
295.3383297987688
 30
0.0
 10
219.6097055741556
 20
294.9913820875329
 30
0.0
 10
219.4766328681661
 20
294.645684670045
 30
0.0
 10
219.311827304402
 20
294.3067631177809
 30
0.0
 10
219.1148320628299
 20
293.9697011814966
 30
0.0
 10
218.8932605849745
 20
293.6394079063598
 30
0.0
 10
218.7277619906641
 20
293.4263120427941
 30
0.0
 10
218.6450227735
 20
293.31977709
 30
0.0
 11
218.6450227735
 21
298.7633768779
 31
0.0
 11
218.8894688475634
 21
298.440993837199
 31
0.0
 11
219.1152330404591
 21
298.1051441512706
 31
0.0
 11
219.3075503372353
 21
297.7740561324852
 31
0.0
 11
219.4743384887096
 21
297.4294413475643
 31
0.0
 11
219.6042353544599
 21
297.0898976887324
 31
0.0
 11
219.7011710890421
 21
296.7396024964531
 31
0.0
 11
219.7589296292636
 21
296.3926892188549
 31
0.0
 11
219.7786561725461
 21
296.041575813632
 31
0.0
 11
219.758929765755
 21
295.6904622882807
 31
0.0
 11
219.7011711483851
 21
295.3435489205657
 31
0.0
 11
219.6042352205644
 21
294.9932544322956
 31
0.0
 11
219.4743381548166
 21
294.6537115021534
 31
0.0
 11
219.3075498824587
 21
294.3090971672463
 31
0.0
 11
219.1152326742111
 21
293.9780095139081
 31
0.0
 11
218.8894686573956
 21
293.6421599855827
 31
0.0
 11
218.6450227735
 21
293.31977709
 31
0.0
  0
SPLINE
  5
11B
330
1F
100
AcDbEntity
  8
0
  6
Continuous
 62
     7
100
AcDbSpline
210
0.0
220
0.0
230
1.0
 70
     8
 71
     3
 72
    19
 73
    15
 74
    13
 42
0.0000000001
 43
0.0000000001
 44
0.00000001
 40
0.0
 40
0.0
 40
0.0
 40
0.0
 40
1.398113192505524
 40
2.796206055151698
 40
3.495623481933925
 40
4.194871600838749
 40
4.89420881479598
 40
5.593605921804493
 40
6.293003243729448
 40
6.992340665379938
 40
7.691587395696503
 40
8.391003447597637
 40
9.789095198798938
 40
11.18720725145513
 40
11.18720725145513
 40
11.18720725145513
 40
11.18720725145513
 10
218.6450227735
 20
312.3104943191
 30
0.0
 10
218.8092161720669
 20
311.8741114847209
 30
0.0
 10
219.1376005816768
 20
311.0013521613728
 30
0.0
 10
219.4355669908167
 20
309.8724233916961
 30
0.0
 10
219.6115879787118
 20
308.9567133570271
 30
0.0
 10
219.7074631276418
 20
308.2636074185182
 30
0.0
 10
219.7656028595662
 20
307.5663596811675
 30
0.0
 10
219.7851830601973
 20
306.8668921200311
 30
0.0
 10
219.7656030527317
 20
306.1674244822863
 30
0.0
 10
219.7074633094434
 20
305.4701770616156
 30
0.0
 10
219.6115878241968
 20
304.7770720252564
 30
0.0
 10
219.435566418219
 20
303.8613633903206
 30
0.0
 10
219.1376001281013
 20
302.7324358633116
 30
0.0
 10
218.8092160197631
 20
301.8596772288854
 30
0.0
 10
218.6450227735
 20
301.4232947434
 30
0.0
 11
218.6450227735
 21
312.3104943191
 31
0.0
 11
219.1150935832466
 21
310.9937734174347
 31
0.0
 11
219.4743384886438
 21
309.6426232590406
 31
0.0
 11
219.6055692038428
 21
308.9556274539042
 31
0.0
 11
219.7011710890349
 21
308.2629455562487
 31
0.0
 11
219.7591745649242
 21
307.566017916095
 31
0.0
 11
219.7786561725261
 21
306.8668921904511
 31
0.0
 11
219.7591747171435
 21
306.1677662455656
 31
0.0
 11
219.7011711483841
 21
305.4708384047299
 31
0.0
 11
219.605569054777
 21
304.7781579375906
 31
0.0
 11
219.4743381547979
 21
304.0911635674917
 31
0.0
 11
219.1150931921465
 21
302.74001457438
 31
0.0
 11
218.6450227735
 21
301.4232947434
 31
0.0
  0
SPLINE
  5
11C
330
1F
100
AcDbEntity
  8
0
  6
Continuous
 62
     7
100
AcDbSpline
210
0.0
220
0.0
230
1.0
 70
     8
 71
     3
 72
    13
 73
     9
 74
     7
 42
0.0000000001
 43
0.0000000001
 44
0.00000001
 40
0.0
 40
0.0
 40
0.0
 40
0.0
 40
0.1575825052190744
 40
0.3154116526081944
 40
0.4501675781014294
 40
0.5849883929289821
 40
0.8008613045653797
 40
1.016388169386992
 40
1.016388169386992
 40
1.016388169386992
 40
1.016388169386992
 10
217.761139297
 20
320.8445921318
 30
0.0
 10
217.8137079009471
 20
320.8424386493418
 30
0.0
 10
217.9189273872295
 20
320.838128313876
 30
0.0
 10
218.066163159487
 20
320.8055283382201
 30
0.0
 10
218.2008157012745
 20
320.7580835672527
 30
0.0
 10
218.3456345352711
 20
320.685273850307
 30
0.0
 10
218.5014406670981
 20
320.5756586062263
 30
0.0
 10
218.5971876724813
 20
320.467865361668
 30
0.0
 10
218.6450227735
 20
320.4140119725
 30
0.0
 11
217.761139297
 21
320.8445921318
 31
0.0
 11
217.9183313698223
 21
320.8335061860599
 31
0.0
 11
218.072686101045
 21
320.8005720591589
 31
0.0
 11
218.1996684911974
 21
320.755465163381
 31
0.0
 11
218.3202552626938
 21
320.6951701996539
 31
0.0
 11
218.4957865080573
 21
320.5695123472152
 31
0.0
 11
218.6450227735
 21
320.4140119725
 31
0.0
  0
SPLINE
  5
11D
330
1F
100
AcDbEntity
  8
0
  6
Continuous
 62
     7
100
AcDbSpline
210
0.0
220
0.0
230
1.0
 70
     8
 71
     3
 72
    13
 73
     9
 74
     7
 42
0.0000000001
 43
0.0000000001
 44
0.00000001
 40
0.0
 40
0.0
 40
0.0
 40
0.0
 40
0.2155274325756454
 40
0.4314008860704822
 40
0.5662218746564418
 40
0.7009779940439707
 40
0.8588063974940472
 40
1.016388139839395
 40
1.016388139839395
 40
1.016388139839395
 40
1.016388139839395
 10
218.6450227735
 20
314.9704121846
 30
0.0
 10
218.5971875513846
 20
314.9165586489549
 30
0.0
 10
218.5014403095632
 20
314.8087651179058
 30
0.0
 10
218.3456337489819
 20
314.6991496964121
 30
0.0
 10
218.2008144817288
 20
314.6263401537642
 30
0.0
 10
218.0661619645566
 20
314.5788957087518
 30
0.0
 10
217.9189266290186
 20
314.546295854196
 30
0.0
 10
217.8137076461048
 20
314.5419855113221
 30
0.0
 10
217.761139297
 20
314.5398320253
 30
0.0
 11
218.6450227735
 21
314.9704121846
 31
0.0
 11
218.4957861124806
 21
314.814911402607
 31
0.0
 11
218.3202543285443
 21
314.6892533716183
 31
0.0
 11
218.199667283941
 21
314.6289585655639
 31
0.0
 11
218.0726846268218
 21
314.5838518420816
 31
0.0
 11
217.9183306067136
 21
314.5509179475039
 31
0.0
 11
217.761139297
 21
314.5398320253
 31
0.0
  0
SPLINE
  5
11E
330
1F
100
AcDbEntity
  8
0
  6
Continuous
 62
     7
100
AcDbSpline
210
0.0
220
0.0
230
1.0
 70
     8
 71
     3
 72
    19
 73
    15
 74
    13
 42
0.0000000001
 43
0.0000000001
 44
0.00000001
 40
0.0
 40
0.0
 40
0.0
 40
0.0
 40
0.0817347759848597
 40
0.1636547659946929
 40
0.245479781663964
 40
0.3272650968701579
 40
0.4089294291344975
 40
0.4906100324152139
 40
0.5722196572292338
 40
0.6538277052674915
 40
0.8167607586121403
 40
0.9799185439408612
 40
1.142995920532936
 40
1.305956007053597
 40
1.305956007053597
 40
1.305956007053597
 40
1.305956007053597
 10
217.761139297
 20
313.1716546377
 30
0.0
 10
217.7884047102843
 20
313.1704621133393
 30
0.0
 10
217.8429973212878
 20
313.1680743623136
 30
0.0
 10
217.9231839329132
 20
313.1498469510093
 30
0.0
 10
218.0003129427482
 20
313.1219984349204
 30
0.0
 10
218.073396048153
 20
313.0849026712182
 30
0.0
 10
218.1419675747165
 20
313.0402221005221
 30
0.0
 10
218.2059354232935
 20
312.9893067888697
 30
0.0
 10
218.2655153471731
 20
312.933384806339
 30
0.0
 10
218.3392878856069
 20
312.8534311193303
 30
0.0
 10
218.4219610696757
 20
312.7451535983727
 30
0.0
 10
218.5073527816439
 20
312.6060410048524
 30
0.0
 10
218.5822010779276
 20
312.4609561001659
 30
0.0
 10
218.6240872310754
 20
312.3606362162914
 30
0.0
 10
218.6450227735
 20
312.3104943191
 30
0.0
 11
217.761139297
 21
313.1716546377
 31
0.0
 11
217.8426525897871
 21
313.1656415931886
 31
0.0
 11
217.9227018281085
 21
313.1482345771498
 31
0.0
 11
217.9996637811273
 21
313.1204462526804
 31
0.0
 11
218.072686101098
 21
313.0836144923441
 31
0.0
 11
218.1412038911208
 21
313.0391805456977
 31
0.0
 11
218.2052243434437
 21
312.9884547865938
 31
0.0
 11
218.2648182545682
 21
312.9326990997164
 31
0.0
 11
218.3202552627187
 21
312.8728107733754
 31
0.0
 11
218.4196185142162
 21
312.7436824491236
 31
0.0
 11
218.5056073627591
 21
312.6050232235393
 31
0.0
 11
218.5802179528575
 21
312.4600146355132
 31
0.0
 11
218.6450227735
 21
312.3104943191
 31
0.0
  0
SPLINE
  5
11F
330
1F
100
AcDbEntity
  8
0
  6
Continuous
 62
     7
100
AcDbSpline
210
0.0
220
0.0
230
1.0
 70
     8
 71
     3
 72
    19
 73
    15
 74
    13
 42
0.0000000001
 43
0.0000000001
 44
0.00000001
 40
0.0
 40
0.0
 40
0.0
 40
0.0
 40
0.1629604598340945
 40
0.3260382022106204
 40
0.4891963539547662
 40
0.6521298047316302
 40
0.7337380768177012
 40
0.8153478915682407
 40
0.8970282629286951
 40
0.9786924259956526
 40
1.060477265136824
 40
1.142301714351456
 40
1.224221473960502
 40
1.305956089343526
 40
1.305956089343526
 40
1.305956089343526
 40
1.305956089343526
 10
218.6450227735
 20
301.4232947434
 30
0.0
 10
218.6240871845988
 20
301.3731527307123
 30
0.0
 10
218.5822009394661
 20
301.2728326181614
 30
0.0
 10
218.5073524555211
 20
301.1277473934274
 30
0.0
 10
218.421960455703
 20
300.9886345317276
 30
0.0
 10
218.3392869959064
 20
300.880356808744
 30
0.0
 10
218.2655142486302
 20
300.8004029455425
 30
0.0
 10
218.2059341531991
 20
300.7444810452323
 30
0.0
 10
218.1419660424189
 20
300.6935661680477
 30
0.0
 10
218.0733945999969
 20
300.6488860389362
 30
0.0
 10
218.0003120521588
 20
300.6117901203354
 30
0.0
 10
217.9231835507333
 20
300.5839413670167
 30
0.0
 10
217.8429971378844
 20
300.5657144633348
 30
0.0
 10
217.788404656911
 20
300.5633268706072
 30
0.0
 10
217.761139297
 20
300.5621344248
 30
0.0
 11
218.6450227735
 21
301.4232947434
 31
0.0
 11
218.5802178049785
 21
301.2737740842111
 31
0.0
 11
218.5056070207735
 21
301.1287651846948
 31
0.0
 11
218.4196179006972
 21
300.9901056963463
 31
0.0
 11
218.3202543285331
 21
300.8609771173684
 31
0.0
 11
218.264817128212
 21
300.8010886636112
 31
0.0
 11
218.2052229355297
 21
300.7453329996642
 31
0.0
 11
218.1412024036794
 21
300.6946077143799
 31
0.0
 11
218.0726846268548
 21
300.6501740583471
 31
0.0
 11
217.999662852374
 21
300.6133422736356
 31
0.0
 11
217.9227015189874
 21
300.5855539010199
 31
0.0
 11
217.8426524489565
 21
300.5681471953696
 31
0.0
 11
217.761139297
 21
300.5621344248
 31
0.0
  0
SPLINE
  5
120
330
1F
100
AcDbEntity
  8
0
  6
Continuous
 62
     7
100
AcDbSpline
210
0.0
220
0.0
230
1.0
 70
     8
 71
     3
 72
    13
 73
     9
 74
     7
 42
0.0000000001
 43
0.0000000001
 44
0.00000001
 40
0.0
 40
0.0
 40
0.0
 40
0.0
 40
0.1575825052190744
 40
0.3154116526081825
 40
0.4501675781020644
 40
0.5849883929354133
 40
0.8008613045945094
 40
1.016388169377283
 40
1.016388169377283
 40
1.016388169377283
 40
1.016388169377283
 10
217.761139297
 20
299.1939570372
 30
0.0
 10
217.8137079009471
 20
299.1918035547417
 30
0.0
 10
217.9189273872296
 20
299.1874932192761
 30
0.0
 10
218.0661631594872
 20
299.1548932436201
 30
0.0
 10
218.2008157012766
 20
299.1074484726518
 30
0.0
 10
218.3456345352782
 20
299.0346387556901
 30
0.0
 10
218.5014406670695
 20
298.9250235115713
 30
0.0
 10
218.5971876724764
 20
298.8172302670446
 30
0.0
 10
218.6450227735
 20
298.7633768779
 30
0.0
 11
217.761139297
 21
299.1939570372
 31
0.0
 11
217.9183313698223
 21
299.1828710914598
 31
0.0
 11
218.072686101045
 21
299.1499369645589
 31
0.0
 11
218.1996684911974
 21
299.1048300687791
 31
0.0
 11
218.3202552626938
 21
299.0445351050391
 31
0.0
 11
218.4957865080573
 21
298.9188772525613
 31
0.0
 11
218.6450227735
 21
298.7633768779
 31
0.0
  0
SPLINE
  5
121
330
1F
100
AcDbEntity
  8
0
  6
Continuous
 62
     7
100
AcDbSpline
210
0.0
220
0.0
230
1.0
 70
     8
 71
     3
 72
    13
 73
     9
 74
     7
 42
0.0000000001
 43
0.0000000001
 44
0.00000001
 40
0.0
 40
0.0
 40
0.0
 40
0.0
 40
0.2155274325756044
 40
0.4314008860705073
 40
0.5662218746564416
 40
0.7009779940439894
 40
0.8588063974940541
 40
1.016388139839402
 40
1.016388139839402
 40
1.016388139839402
 40
1.016388139839402
 10
218.6450227735
 20
293.31977709
 30
0.0
 10
218.5971875513846
 20
293.265923554355
 30
0.0
 10
218.5014403095632
 20
293.1581300233061
 30
0.0
 10
218.3456337489819
 20
293.0485146018119
 30
0.0
 10
218.2008144817288
 20
292.9757050591645
 30
0.0
 10
218.0661619645566
 20
292.9282606141516
 30
0.0
 10
217.9189266290187
 20
292.8956607595962
 30
0.0
 10
217.8137076461048
 20
292.891350416722
 30
0.0
 10
217.761139297
 20
292.8891969307
 30
0.0
 11
218.6450227735
 21
293.31977709
 31
0.0
 11
218.4957861124806
 21
293.1642763080071
 31
0.0
 11
218.3202543285443
 21
293.0386182770183
 31
0.0
 11
218.199667283941
 21
292.978323470964
 31
0.0
 11
218.0726846268218
 21
292.9332167474815
 31
0.0
 11
217.9183306067136
 21
292.9002828529039
 31
0.0
 11
217.761139297
 21
292.8891969307
 31
0.0
  0
SPLINE
  5
122
330
1F
100
AcDbEntity
  8
VERERBUNG
  6
Continuous
 62
     7
100
AcDbSpline
210
0.0
220
0.0
230
1.0
 70
     8
 71
     3
 72
    13
 73
     9
 74
     7
 42
0.0000000001
 43
0.0000000001
 44
0.00000001
 40
0.0
 40
0.0
 40
0.0
 40
0.0
 40
0.958145116170592
 40
1.916374757543963
 40
2.729668920807494
 40
3.542928077726986
 40
4.281951737053958
 40
5.020980281049306
 40
5.020980281049306
 40
5.020980281049306
 40
5.020980281049306
 10
68.52890625
 20
337.9675376114
 30
0.0
 10
68.20951208367471
 20
337.9703811491021
 30
0.0
 10
67.57069557485725
 20
337.9760684753559
 30
0.0
 10
66.66163145363608
 20
338.0196761939984
 30
0.0
 10
65.80231334640709
 20
338.0832325801813
 30
0.0
 10
65.01767480349193
 20
338.1622295961874
 30
0.0
 10
64.2595432759999
 20
338.2556406567065
 30
0.0
 10
63.77245246191269
 20
338.3298098247307
 30
0.0
 10
63.52890625
 20
338.3668945313
 30
0.0
 11
68.52890625
 21
337.9675376114
 31
0.0
 11
67.57087485815616
 21
337.9822995856345
 31
0.0
 11
66.61366314626247
 21
338.0264559466722
 31
0.0
 11
65.80261181593065
 21
338.0868143393405
 31
0.0
 11
64.99340006783972
 21
338.1678501528123
 31
0.0
 11
64.26003382937617
 21
338.2591185993141
 31
0.0
 11
63.52890625
 21
338.3668945313
 31
0.0
  0
SPLINE
  5
123
330
1F
100
AcDbEntity
  8
VERERBUNG
  6
Continuous
 62
     7
100
AcDbSpline
210
0.0
220
0.0
230
1.0
 70
     8
 71
     3
 72
    43
 73
    39
 74
    37
 42
0.0000000001
 43
0.0000000001
 44
0.00000001
 40
0.0
 40
0.0
 40
0.0
 40
0.0
 40
0.4175881289718683
 40
0.8356316530854095
 40
1.253282831965199
 40
1.670787328004736
 40
2.088079154497501
 40
2.505458237112244
 40
2.922766757469103
 40
3.339867556013099
 40
3.548612845940555
 40
3.757291312396031
 40
3.966036487518201
 40
4.174848410702301
 40
4.592416990881856
 40
5.010187344177246
 40
5.428059866881893
 40
5.845880990822055
 40
6.263484877169182
 40
6.68110357877626
 40
7.097989619731809
 40
7.514858051231228
 40
7.930683045110796
 40
8.34655796170348
 40
8.761608456998644
 40
9.176458234565441
 40
9.383846863126168
 40
9.59116942462453
 40
9.798492920816912
 40
10.00588294525176
 40
10.42072923636741
 40
10.83577763644113
 40
11.25173036417901
 40
11.66760664531997
 40
12.08452417581695
 40
12.50157511614694
 40
12.91952009632328
 40
13.3370282099754
 40
13.3370282099754
 40
13.3370282099754
 40
13.3370282099754
 10
48.2795325397
 20
306.8668945313
 30
0.0
 10
48.28345341913789
 20
307.0061498098545
 30
0.0
 10
48.29129945387621
 20
307.2848122299426
 30
0.0
 10
48.35545105399137
 20
307.6986642887039
 30
0.0
 10
48.45686151056049
 20
308.1044316007319
 30
0.0
 10
48.59830880355064
 20
308.4980048340233
 30
0.0
 10
48.77768884395816
 20
308.8756129766747
 30
0.0
 10
48.99335613884237
 20
309.2336983163268
 30
0.0
 10
49.2432762466959
 20
309.5686580018696
 30
0.0
 10
49.47794627165557
 20
309.8260754899455
 30
0.0
 10
49.68011465696143
 20
310.0172850706948
 30
0.0
 10
49.83869821306334
 20
310.1531264056109
 30
0.0
 10
50.00377969861187
 20
310.2810285385404
 30
0.0
 10
50.23203024028791
 20
310.4405479076507
 30
0.0
 10
50.53178936831514
 20
310.6186150312277
 30
0.0
 10
50.91064210157334
 20
310.7961567085816
 30
0.0
 10
51.30518461508005
 20
310.9357083432309
 30
0.0
 10
51.71139751715687
 20
311.0360874725571
 30
0.0
 10
52.12539364224487
 20
311.0962574055601
 30
0.0
 10
52.54296918639218
 20
311.1158409846059
 30
0.0
 10
52.96021250395366
 20
311.0945324506763
 30
0.0
 10
53.37281337947582
 20
311.0328191973282
 30
0.0
 10
53.77707524271415
 20
310.9311497079169
 30
0.0
 10
54.16894055706899
 20
310.7907623439448
 30
0.0
 10
54.54484590473454
 20
310.6127951709799
 30
0.0
 10
54.84196221498635
 20
310.4347733528398
 30
0.0
 10
55.0681051335479
 20
310.2754812240414
 30
0.0
 10
55.23162077557409
 20
310.1478481271399
 30
0.0
 10
55.38868512549564
 20
310.0123543488219
 30
0.0
 10
55.58901509146267
 20
309.8216135292658
 30
0.0
 10
55.82157598253418
 20
309.5649332754712
 30
0.0
 10
56.06939532462593
 20
309.2308883673
 30
0.0
 10
56.28329513972818
 20
308.8737322183388
 30
0.0
 10
56.46139551177698
 20
308.4967931323612
 30
0.0
 10
56.60194992229566
 20
308.1038308562389
 30
0.0
 10
56.70279935278032
 20
307.6983661377304
 30
0.0
 10
56.76648403973584
 20
307.284718010447
 30
0.0
 10
56.77434935772897
 20
307.0061204638961
 30
0.0
 10
56.7782799603
 20
306.8668945313
 30
0.0
 11
48.2795325397
 21
306.8668945313
 31
0.0
 11
48.30001749271734
 21
307.2839799088405
 31
0.0
 11
48.3616891933481
 21
307.6974493628447
 31
0.0
 11
48.46356019883618
 21
308.1024861580381
 31
0.0
 11
48.60466338860188
 21
308.4954236773095
 31
0.0
 11
48.78372776371297
 21
308.8723433212971
 31
0.0
 11
48.99908465623181
 21
309.229871931969
 31
0.0
 11
49.24860037315149
 21
309.5643690293742
 31
0.0
 11
49.52962568332616
 21
309.8725862436684
 31
0.0
 11
49.68127957229051
 21
310.0160285457584
 31
0.0
 11
49.83976097624848
 21
310.1517869597213
 31
0.0
 11
50.00477472678069
 21
310.2796345653777
 31
0.0
 11
50.17593299552406
 21
310.3992475508961
 31
0.0
 11
50.53490866310216
 21
310.6125548157513
 31
0.0
 11
50.91321281871189
 21
310.7898061456221
 31
0.0
 11
51.30715521021954
 21
310.9291863357668
 31
0.0
 11
51.71277962227212
 21
311.0294027413979
 31
0.0
 11
52.12603716032729
 21
311.0894961115215
 31
0.0
 11
52.54319900490802
 21
311.1090249455364
 31
0.0
 11
52.95954371783729
 21
311.0877869804872
 31
0.0
 11
53.37181987156011
 21
311.0260807226821
 31
0.0
 11
53.7750900636946
 21
310.9246727463156
 31
0.0
 11
54.16658430686071
 21
310.7843723406898
 31
0.0
 11
54.54172876406231
 21
310.6067954562828
 31
0.0
 11
54.89756133081714
 21
310.3935267938313
 31
0.0
 11
55.06711369320886
 21
310.2741030120134
 31
0.0
 11
55.23054537402064
 21
310.1465384000974
 31
0.0
 11
55.38752710038305
 21
310.0111139943881
 31
0.0
 11
55.53772160185513
 21
309.8681026872734
 31
0.0
 11
55.8162871877669
 21
309.5606963444664
 31
0.0
 11
56.06354211946521
 21
309.227334419294
 31
0.0
 11
56.27729196889515
 21
308.8705043847099
 31
0.0
 11
56.45498222346635
 21
308.4945000567481
 31
0.0
 11
56.59528588519844
 21
308.1018996113328
 31
0.0
 11
56.69653860346506
 21
307.6973265352714
 31
0.0
 11
56.75784368993189
 21
307.2839021856887
 31
0.0
 11
56.7782799603
 21
306.8668945313
 31
0.0
  0
SPLINE
  5
124
330
1F
100
AcDbEntity
  8
VERERBUNG
  6
Continuous
 62
     7
100
AcDbSpline
210
0.0
220
0.0
230
1.0
 70
     8
 71
     3
 72
    13
 73
     9
 74
     7
 42
0.0000000001
 43
0.0000000001
 44
0.00000001
 40
0.0
 40
0.0
 40
0.0
 40
0.0
 40
0.4765182419764727
 40
0.9529821706518746
 40
1.193158830003217
 40
1.433310795930584
 40
1.675484054975977
 40
1.917493731734721
 40
1.917493731734721
 40
1.917493731734721
 40
1.917493731734721
 10
35.0163132877
 20
316.1368945313
 30
0.0
 10
35.08813390036434
 20
315.9950963684389
 30
0.0
 10
35.23176693961697
 20
315.7115162047975
 30
0.0
 10
35.36619103356444
 20
315.3359022481843
 30
0.0
 10
35.4477857348247
 20
315.0274257890738
 30
0.0
 10
35.49319108017477
 20
314.7907523464251
 30
0.0
 10
35.52306681805373
 20
314.5508058958491
 30
0.0
 10
35.52696021114843
 20
314.3893719515435
 30
0.0
 10
35.52890625
 20
314.3086822498
 30
0.0
 11
35.0163132877
 21
316.1368945313
 31
0.0
 11
35.22270713830021
 21
315.7073934097988
 31
0.0
 11
35.38413732474936
 21
315.2591098274185
 31
0.0
 11
35.44509354427662
 21
315.0267971781759
 31
0.0
 11
35.49048141802285
 21
314.7909732869867
 31
0.0
 11
35.51905157475216
 21
314.5504912012898
 31
0.0
 11
35.52890625
 21
314.3086822498
 31
0.0
  0
SPLINE
  5
125
330
1F
100
AcDbEntity
  8
VERERBUNG
  6
Continuous
 62
     7
100
AcDbSpline
210
0.0
220
0.0
230
1.0
 70
     8
 71
     3
 72
    19
 73
    15
 74
    13
 42
0.0000000001
 43
0.0000000001
 44
0.00000001
 40
0.0
 40
0.0
 40
0.0
 40
0.0
 40
0.0835832282533553
 40
0.167270544867289
 40
0.2499538624494683
 40
0.3326148850762467
 40
0.4138475639303375
 40
0.4950848398043076
 40
0.574937574025913
 40
0.6547985887934322
 40
0.8114954796609705
 40
0.9684466433214971
 40
1.12354325860968
 40
1.278502018070332
 40
1.278502018070332
 40
1.278502018070332
 40
1.278502018070332
 10
34.02890625
 20
316.8232074132
 30
0.0
 10
34.05670489057285
 20
316.8254802938874
 30
0.0
 10
34.1123367900862
 20
316.8300288857396
 30
0.0
 10
34.19576819360855
 20
316.8246627577025
 30
0.0
 10
34.27767726703117
 20
316.8103585742838
 30
0.0
 10
34.35671373991514
 20
316.7871687830928
 30
0.0
 10
34.43241474792751
 20
316.7560640761117
 30
0.0
 10
34.50394438575096
 20
316.7182934271025
 30
0.0
 10
34.57148622788701
 20
316.6746581427212
 30
0.0
 10
34.65535567167751
 20
316.6105626559282
 30
0.0
 10
34.75094360170502
 20
316.5201394575731
 30
0.0
 10
34.85131788062051
 20
316.4000931173842
 30
0.0
 10
34.94036219189915
 20
316.2720944096288
 30
0.0
 10
34.99100376113049
 20
316.1819477971769
 30
0.0
 10
35.0163132877
 20
316.1368945313
 30
0.0
 11
34.02890625
 21
316.8232074132
 31
0.0
 11
34.11235232667496
 21
316.8279936782166
 31
0.0
 11
34.19589801561259
 21
316.8231269727625
 31
0.0
 11
34.27733828976109
 21
316.8088436694676
 31
0.0
 11
34.35668312454041
 21
316.785665191184
 31
0.0
 11
34.43185953201808
 21
316.7548876689874
 31
0.0
 11
34.50374389561266
 21
316.7170441323922
 31
0.0
 11
34.57087512553203
 21
316.6738022877024
 31
0.0
 11
34.6343918795816
 21
316.6253935732524
 31
0.0
 11
34.74862899905673
 21
316.5181378221638
 31
0.0
 11
34.84986271978222
 21
316.3981986644109
 31
0.0
 11
34.93826739078929
 21
316.2707640764139
 31
0.0
 11
35.0163132877
 21
316.1368945313
 31
0.0
  0
SPLINE
  5
126
330
1F
100
AcDbEntity
  8
VERERBUNG
  6
Continuous
 62
     7
100
AcDbSpline
210
0.0
220
0.0
230
1.0
 70
     8
 71
     3
 72
    13
 73
     9
 74
     7
 42
0.0000000001
 43
0.0000000001
 44
0.00000001
 40
0.0
 40
0.0
 40
0.0
 40
0.0
 40
0.2420096761428504
 40
0.4841829345764518
 40
0.7243349034836759
 40
0.96451156583995
 40
1.44097549214603
 40
1.91749373167379
 40
1.91749373167379
 40
1.91749373167379
 40
1.91749373167379
 10
35.52890625
 20
299.4251068127
 30
0.0
 10
35.52696021116269
 20
299.344417111162
 30
0.0
 10
35.5230668180965
 20
299.1829831672658
 30
0.0
 10
35.49319108025564
 20
298.9430367160984
 30
0.0
 10
35.44778573457321
 20
298.7063632716829
 30
0.0
 10
35.36619103275482
 20
298.3978868114676
 30
0.0
 10
35.2317669386802
 20
298.0222728555574
 30
0.0
 10
35.08813390004809
 20
297.7386926934048
 30
0.0
 10
35.0163132877
 20
297.5968945313
 30
0.0
 11
35.52890625
 21
299.4251068127
 31
0.0
 11
35.51905157481899
 21
299.1832978618238
 31
0.0
 11
35.4904814182607
 21
298.9428157767227
 31
0.0
 11
35.44509354396119
 21
298.7069918826055
 31
0.0
 11
35.38413732348857
 21
298.4746792305043
 31
0.0
 11
35.22270713743859
 21
298.0263956504984
 31
0.0
 11
35.0163132877
 21
297.5968945313
 31
0.0
  0
SPLINE
  5
127
330
1F
100
AcDbEntity
  8
VERERBUNG
  6
Continuous
 62
     7
100
AcDbSpline
210
0.0
220
0.0
230
1.0
 70
     8
 71
     3
 72
    19
 73
    15
 74
    13
 42
0.0000000001
 43
0.0000000001
 44
0.00000001
 40
0.0
 40
0.0
 40
0.0
 40
0.0
 40
0.1549595547453144
 40
0.3100569267092808
 40
0.4670093143901851
 40
0.6237075594223793
 40
0.70357168209457
 40
0.7834274372215144
 40
0.8646682251851171
 40
0.9459045180279853
 40
1.028561641651756
 40
1.111240956062846
 40
1.194923428877852
 40
1.278501866414083
 40
1.278501866414083
 40
1.278501866414083
 40
1.278501866414083
 10
35.0163132877
 20
297.5968945313
 30
0.0
 10
34.99100363787142
 20
297.5518410304833
 30
0.0
 10
34.94036182843388
 20
297.4616939593737
 30
0.0
 10
34.85131690835906
 20
297.3336945347741
 30
0.0
 10
34.75094150892234
 20
297.2136476661452
 30
0.0
 10
34.6553520619253
 20
297.1232233529392
 30
0.0
 10
34.57148077101633
 20
297.0591261657583
 30
0.0
 10
34.50393590608961
 20
297.0154895624564
 30
0.0
 10
34.43240224643766
 20
296.9777191921328
 30
0.0
 10
34.35669927559344
 20
296.9466164584373
 30
0.0
 10
34.27766383573478
 20
296.9234284286472
 30
0.0
 10
34.19575884870618
 20
296.909125607139
 30
0.0
 10
34.11233197072137
 20
296.9037604107819
 30
0.0
 10
34.05670329000569
 20
296.9083088461605
 30
0.0
 10
34.02890625
 20
296.9105816493
 30
0.0
 11
35.0163132877
 21
297.5968945313
 31
0.0
 11
34.93826699337733
 21
297.4630242973069
 31
0.0
 11
34.84986177706343
 21
297.3355891666772
 31
0.0
 11
34.74862695824914
 21
297.2156493340177
 31
0.0
 11
34.63438875349441
 21
297.1083927604635
 31
0.0
 11
34.57086955128267
 21
297.0599821310462
 31
0.0
 11
34.50373541974087
 21
297.0167392124465
 31
0.0
 11
34.43184704895981
 21
296.9788957483424
 31
0.0
 11
34.35666640582542
 21
296.9481190335608
 31
0.0
 11
34.2773248808745
 21
296.9249431300354
 31
0.0
 11
34.19588841650217
 21
296.9106612778438
 31
0.0
 11
34.11234753016661
 21
296.9057954206015
 31
0.0
 11
34.02890625
 21
296.9105816493
 31
0.0
  0
SPLINE
  5
128
330
1F
100
AcDbEntity
  8
VERERBUNG
  6
Continuous
 62
     7
100
AcDbSpline
210
0.0
220
0.0
230
1.0
 70
     8
 71
     3
 72
    43
 73
    39
 74
    37
 42
0.0000000001
 43
0.0000000001
 44
0.00000001
 40
0.0
 40
0.0
 40
0.0
 40
0.0
 40
0.4175035109935225
 40
0.8354555648601123
 40
1.252511183716905
 40
1.669422664497555
 40
2.085295425820109
 40
2.501251326670999
 40
2.916298094184947
 40
3.331138757832378
 40
3.53852623305718
 40
3.745847791003861
 40
3.953170095148786
 40
4.160558348236825
 40
4.575407544451961
 40
4.990456744675599
 40
5.40633239445875
 40
5.822158816092478
 40
6.239027280534601
 40
6.655913113582137
 40
7.073532178573467
 40
7.491136194389806
 40
7.908956414506554
 40
8.326828662589499
 40
8.744600199996812
 40
9.162169349401104
 40
9.37098145844676
 40
9.579726706228945
 40
9.788406630795068
 40
9.997153926543765
 40
10.4142593341702
 40
10.83156890853413
 40
11.24894510865399
 40
11.6662401161144
 40
12.08375102635732
 40
12.50139861941233
 40
12.91943544788347
 40
13.33702799569499
 40
13.33702799569499
 40
13.33702799569499
 40
13.33702799569499
 10
56.7782799603
 20
306.8668945313
 30
0.0
 10
56.77437538077706
 20
306.7276683243801
 30
0.0
 10
56.76656202686512
 20
306.44906633354
 30
0.0
 10
56.70277243245243
 20
306.0354290504168
 30
0.0
 10
56.60193576765208
 20
305.6299635342765
 30
0.0
 10
56.46140989083231
 20
305.2369912792437
 30
0.0
 10
56.2832978423769
 20
304.860058961043
 30
0.0
 10
56.06938431167771
 20
304.5029127746042
 30
0.0
 10
55.8215821685557
 20
304.1688579133121
 30
0.0
 10
55.58903409813176
 20
303.9121693890098
 30
0.0
 10
55.38870158715966
 20
303.7214358856481
 30
0.0
 10
55.23163292039628
 20
303.5859495554727
 30
0.0
 10
55.06811454437438
 20
303.4583214467811
 30
0.0
 10
54.84197027980731
 20
303.2990320752687
 30
0.0
 10
54.54485820217382
 20
303.1210053387991
 30
0.0
 10
54.16895767622437
 20
302.9430284050326
 30
0.0
 10
53.77709206789855
 20
302.8026401394247
 30
0.0
 10
53.3728289000441
 20
302.7009730080415
 30
0.0
 10
52.96022779651658
 20
302.6392591328101
 30
0.0
 10
52.54298455009558
 20
302.617948433581
 30
0.0
 10
52.1254087877755
 20
302.6375295216537
 30
0.0
 10
51.71141253387314
 20
302.6976983174087
 30
0.0
 10
51.30520045637465
 20
302.7980795491865
 30
0.0
 10
50.91065802710704
 20
302.9376306620881
 30
0.0
 10
50.53180098881394
 20
303.1151638827261
 30
0.0
 10
50.23203805772008
 20
303.2932264448186
 30
0.0
 10
50.00378846024509
 20
303.452747770233
 30
0.0
 10
49.83870929574979
 20
303.5806539203907
 30
0.0
 10
49.6801296230537
 20
303.7165016265297
 30
0.0
 10
49.47796371388274
 20
303.907717525697
 30
0.0
 10
49.24328280988897
 20
304.1651276118758
 30
0.0
 10
48.99334784814626
 20
304.5000783345635
 30
0.0
 10
48.77769229346336
 20
304.858172116054
 30
0.0
 10
48.59832183167693
 20
305.2357863247673
 30
0.0
 10
48.45684916538821
 20
305.6293512186764
 30
0.0
 10
48.35542884624388
 20
306.035118847074
 30
0.0
 10
48.29137687651454
 20
306.4489814356335
 30
0.0
 10
48.28347925232322
 20
306.7276395509745
 30
0.0
 10
48.2795325397
 20
306.8668945313
 30
0.0
 11
56.7782799603
 21
306.8668945313
 31
0.0
 11
56.75789157772834
 21
306.4498891409895
 31
0.0
 11
56.69653103500175
 21
306.0364658674216
 31
0.0
 11
56.59527317410689
 21
305.6318892556074
 31
0.0
 11
56.45499024346776
 21
305.239287826448
 31
0.0
 11
56.27729547858036
 21
304.863289523072
 31
0.0
 11
56.06353528087546
 21
304.5064619886385
 31
0.0
 11
55.81629197259012
 21
304.1730934752305
 31
0.0
 11
55.53773899487456
 21
303.8656833016493
 31
0.0
 11
55.38754342897379
 21
303.7226768092656
 31
0.0
 11
55.23055830848942
 21
303.5872593054637
 31
0.0
 11
55.06712343294866
 21
303.4596992049113
 31
0.0
 11
54.8975701396964
 21
303.3402773967429
 31
0.0
 11
54.54174088607304
 21
303.127004337342
 31
0.0
 11
54.16660130092085
 21
302.9494201875478
 31
0.0
 11
53.77510701002058
 21
302.8091177418277
 31
0.0
 11
53.37183506389264
 21
302.7077108860689
 31
0.0
 11
52.95955892196852
 21
302.6460043268835
 31
0.0
 11
52.54321451625781
 21
302.6247644203598
 31
0.0
 11
52.12605220503523
 21
302.6442910570304
 31
0.0
 11
51.71279442446153
 21
302.7043836590812
 31
0.0
 11
51.30717118329559
 21
302.8046010356406
 31
0.0
 11
50.91322853952479
 21
302.9439796894466
 31
0.0
 11
50.53492010205716
 21
303.1212246713458
 31
0.0
 11
50.17594131528583
 21
303.3345278011457
 31
0.0
 11
50.0047837748787
 21
303.4541421533191
 31
0.0
 11
49.83977275561769
 21
303.5819934028011
 31
0.0
 11
49.68129444090006
 21
303.7177576642294
 31
0.0
 11
49.52964167939047
 21
303.8612040772515
 31
0.0
 11
49.24860566717594
 21
304.1694177708308
 31
0.0
 11
48.99908000024006
 21
304.503908760838
 31
0.0
 11
48.78373193355239
 21
304.8614393226091
 31
0.0
 11
48.60467103313907
 21
305.2383641389778
 31
0.0
 11
48.46354933028853
 21
305.6313018250763
 31
0.0
 11
48.36168494460957
 21
306.0363365876768
 31
0.0
 11
48.30006577198941
 21
306.4498071035831
 31
0.0
 11
48.2795325397
 21
306.8668945313
 31
0.0
  0
SPLINE
  5
129
330
1F
100
AcDbEntity
  8
VERERBUNG
  6
Continuous
 62
     7
100
AcDbSpline
210
0.0
220
0.0
230
1.0
 70
     8
 71
     3
 72
    23
 73
    19
 74
    17
 42
0.0000000001
 43
0.0000000001
 44
0.00000001
 40
0.0
 40
0.0
 40
0.0
 40
0.0
 40
0.0664886891184482
 40
0.1330028506402381
 40
0.1940175413911907
 40
0.2550295991330584
 40
0.3099753629360962
 40
0.3648861555487249
 40
0.4150633581041727
 40
0.4651526181972068
 40
0.5141740379484534
 40
0.5632529905751683
 40
0.6152549116425109
 40
0.6673077698666134
 40
0.7243355356676862
 40
0.7813668340638668
 40
0.8435221576227903
 40
0.905649009871772
 40
0.905649009871772
 40
0.905649009871772
 40
0.905649009871772
 10
29.52890625
 20
315.619762653
 30
0.0
 10
29.52925483735459
 20
315.641930000354
 30
0.0
 10
29.52995214561067
 20
315.6862731875682
 30
0.0
 10
29.53633920471896
 20
315.7507110944458
 30
0.0
 10
29.54723500800048
 20
315.8126745669022
 30
0.0
 10
29.5632093155955
 20
315.8695893985177
 30
0.0
 10
29.58483904262687
 20
315.9224284052327
 30
0.0
 10
29.6119301517959
 20
315.9686534485349
 30
0.0
 10
29.64531763430297
 20
316.0084747577116
 30
0.0
 10
29.68381980794823
 20
316.0405121803463
 30
0.0
 10
29.7277033756342
 20
316.0638739815325
 30
0.0
 10
29.77566096452979
 20
316.0790356296176
 30
0.0
 10
29.82654283421528
 20
316.085540756417
 30
0.0
 10
29.88037542371068
 20
316.0842621650904
 30
0.0
 10
29.93526640801045
 20
316.0760049214983
 30
0.0
 10
29.99213282190838
 20
316.0609972895236
 30
0.0
 10
30.04917872273821
 20
316.0407559023561
 30
0.0
 10
30.08680106516373
 20
316.0233734477596
 30
0.0
 10
30.105607927
 20
316.0146842115
 30
0.0
 11
29.52890625
 21
315.619762653
 31
0.0
 11
29.5308719462739
 21
315.6862222784793
 31
0.0
 11
29.53738302255482
 21
315.7524169880006
 31
0.0
 11
29.54822588364612
 21
315.8124605126372
 31
0.0
 11
29.56492291000696
 21
315.871143393451
 31
0.0
 11
29.58601684765654
 21
315.9218788125814
 31
0.0
 11
29.61404767415653
 21
315.969096054253
 31
0.0
 11
29.64640999620138
 21
316.0074422635592
 31
0.0
 11
29.6850628707695
 21
316.0392995902563
 31
0.0
 11
29.72825877398751
 21
316.062477457708
 31
0.0
 11
29.77503141960658
 21
316.0773456523775
 31
0.0
 11
29.82657585230101
 21
316.0842283301197
 31
0.0
 11
29.87861977857217
 21
316.0832640751841
 31
0.0
 11
29.93504471379345
 21
316.0749940837974
 31
0.0
 11
29.99025858337724
 21
316.0607113108755
 31
0.0
 11
30.04881750118079
 21
316.0398753469576
 31
0.0
 11
30.105607927
 21
316.0146842115
 31
0.0
  0
SPLINE
  5
12A
330
1F
100
AcDbEntity
  8
VERERBUNG
  6
Continuous
 62
     7
100
AcDbSpline
210
0.0
220
0.0
230
1.0
 70
     8
 71
     3
 72
    23
 73
    19
 74
    17
 42
0.0000000001
 43
0.0000000001
 44
0.00000001
 40
0.0
 40
0.0
 40
0.0
 40
0.0
 40
0.0621269684789266
 40
0.1242824031031263
 40
0.1813135302745268
 40
0.2383411403654789
 40
0.2903938962603138
 40
0.3423956884368656
 40
0.3914747075331356
 40
0.4404962287928806
 40
0.4905855734957664
 40
0.5407628276189194
 40
0.5956736074660999
 40
0.6506193813298086
 40
0.7116314426102515
 40
0.7726461253572361
 40
0.8391602987292098
 40
0.9056490032052024
 40
0.9056490032052024
 40
0.9056490032052024
 40
0.9056490032052024
 10
30.105607927
 20
297.719104851
 30
0.0
 10
30.08680103025555
 20
297.7104155978854
 30
0.0
 10
30.04917861957724
 20
297.6930331103008
 30
0.0
 10
29.99213269502157
 20
297.6727917302185
 30
0.0
 10
29.93526633821348
 20
297.6577841638542
 30
0.0
 10
29.8803755006338
 20
297.6495269389823
 30
0.0
 10
29.8265430469721
 20
297.6482482282186
 30
0.0
 10
29.77566121288934
 20
297.6547532540563
 30
0.0
 10
29.72770362818673
 20
297.6699149876313
 30
0.0
 10
29.68382003367723
 20
297.693276900047
 30
0.0
 10
29.64531773973478
 20
297.725314287698
 30
0.0
 10
29.61193012836139
 20
297.7651355504335
 30
0.0
 10
29.58483901920822
 20
297.8113606198983
 30
0.0
 10
29.56320934212997
 20
297.8641996457576
 30
0.0
 10
29.5472350293404
 20
297.921114475845
 30
0.0
 10
29.53633920189761
 20
297.9830779469826
 30
0.0
 10
29.52995214252626
 20
298.0475158607439
 30
0.0
 10
29.52925483633273
 20
298.091859057027
 30
0.0
 10
29.52890625
 20
298.1140264095
 30
0.0
 11
30.105607927
 21
297.719104851
 31
0.0
 11
30.04881739456834
 21
297.6939136692391
 31
0.0
 11
29.99025836520866
 21
297.6730776875302
 31
0.0
 11
29.93504465256624
 21
297.6587949916124
 31
0.0
 11
29.87861987395967
 21
297.6505250054041
 31
0.0
 11
29.82657605178854
 21
297.6495606558477
 31
0.0
 11
29.77503173734739
 21
297.6564432453579
 31
0.0
 11
29.72825904353348
 21
297.6713115078267
 31
0.0
 11
29.68506307581482
 21
297.6944894697619
 31
0.0
 11
29.64641008869753
 21
297.7263467929337
 31
0.0
 11
29.61404765889182
 21
297.7646929787729
 31
0.0
 11
29.58601683420372
 21
297.8119102066747
 31
0.0
 11
29.56492292585655
 21
297.8626456488835
 31
0.0
 11
29.54822590106356
 21
297.9213285338224
 31
0.0
 11
29.53738302509113
 21
297.9813720476383
 31
0.0
 11
29.53087194393294
 21
298.0475667685872
 31
0.0
 11
29.52890625
 21
298.1140264095
 31
0.0
  0
SPLINE
  5
12B
330
1F
100
AcDbEntity
  8
VERERBUNG
  6
Continuous
 62
     7
100
AcDbSpline
210
0.0
220
0.0
230
1.0
 70
     8
 71
     3
 72
     9
 73
     5
 74
     3
 42
0.0000000001
 43
0.0000000001
 44
0.00000001
 40
0.0
 40
0.0
 40
0.0
 40
0.0
 40
0.0773963057015317
 40
0.1547963631387976
 40
0.1547963631387976
 40
0.1547963631387976
 40
0.1547963631387976
 10
30.2005810604
 20
297.5968945313
 30
0.0
 10
30.18424333004925
 20
297.6168666646475
 30
0.0
 10
30.15156707738685
 20
297.6568118994788
 30
0.0
 10
30.1209278913254
 20
297.6983401983248
 30
0.0
 10
30.105607927
 20
297.719104851
 30
0.0
 11
30.2005810604
 21
297.5968945313
 31
0.0
 11
30.1520771113125
 21
297.6572066781625
 31
0.0
 11
30.105607927
 21
297.719104851
 31
0.0
  0
SPLINE
  5
12C
330
1F
100
AcDbEntity
  8
VERERBUNG
  6
Continuous
 62
     7
100
AcDbSpline
210
0.0
220
0.0
230
1.0
 70
     8
 71
     3
 72
    15
 73
    11
 74
     9
 42
0.0000000001
 43
0.0000000001
 44
0.00000001
 40
0.0
 40
0.0
 40
0.0
 40
0.0
 40
0.0705890229248825
 40
0.1413178422228513
 40
0.2119756691079479
 40
0.2826066759673134
 40
0.3532320943217522
 40
0.423869369294285
 40
0.4944866364925405
 40
0.5650782701984775
 40
0.5650782701984775
 40
0.5650782701984775
 40
0.5650782701984775
 10
30.6688631857
 20
297.3048665999
 30
0.0
 10
30.64559811636137
 20
297.3086086403106
 30
0.0
 10
30.59902190292379
 20
297.3161001319679
 30
0.0
 10
30.53178789049164
 20
297.3387639367693
 30
0.0
 10
30.46760226329626
 20
297.3685920246512
 30
0.0
 10
30.407025632927
 20
297.405176281856
 30
0.0
 10
30.3500700401876
 20
297.4470927893582
 30
0.0
 10
30.29677265105825
 20
297.4935240372898
 30
0.0
 10
30.24667245209245
 20
297.5433888680908
 30
0.0
 10
30.21594299820313
 20
297.5790614687659
 30
0.0
 10
30.2005810604
 20
297.5968945313
 30
0.0
 11
30.6688631857
 21
297.3048665999
 31
0.0
 11
30.59950543767444
 21
297.3179934024928
 31
0.0
 11
30.53227631956927
 21
297.3399663758485
 31
0.0
 11
30.46819070600692
 21
297.3697247802825
 31
0.0
 11
30.40762658446221
 21
297.4060665786899
 31
0.0
 11
30.35068225047316
 21
297.4478432772704
 31
0.0
 11
30.29729930682153
 21
297.4941021784963
 31
0.0
 11
30.24733300779059
 21
297.5440037555025
 31
0.0
 11
30.2005810604
 21
297.5968945313
 31
0.0
  0
SPLINE
  5
12D
330
1F
100
AcDbEntity
  8
VERERBUNG
  6
Continuous
 62
     7
100
AcDbSpline
210
0.0
220
0.0
230
1.0
 70
     8
 71
     3
 72
    15
 73
    11
 74
     9
 42
0.0000000001
 43
0.0000000001
 44
0.00000001
 40
0.0
 40
0.0
 40
0.0
 40
0.0
 40
0.0705917491273903
 40
0.1412091311457302
 40
0.2118461808008796
 40
0.2824713748974761
 40
0.3531025104650571
 40
0.4237604658496403
 40
0.4944892663266792
 40
0.5650782700912323
 40
0.5650782700912323
 40
0.5650782700912323
 40
0.5650782700912323
 10
30.2005810604
 20
316.1368945313
 30
0.0
 10
30.21594302270378
 20
316.1547276235136
 30
0.0
 10
30.24667252546332
 20
316.190400283396
 30
0.0
 10
30.2967727277618
 20
316.2402651138001
 30
0.0
 10
30.35007004255954
 20
316.2866962769111
 30
0.0
 10
30.4070255488541
 20
316.3286127199141
 30
0.0
 10
30.46760218292317
 20
316.3651969927724
 30
0.0
 10
30.53178788119033
 20
316.395025117363
 30
0.0
 10
30.59902192189873
 20
316.4176889324823
 30
0.0
 10
30.64559812272361
 20
316.4251804228458
 30
0.0
 10
30.6688631857
 20
316.4289224626
 30
0.0
 11
30.2005810604
 21
316.1368945313
 31
0.0
 11
30.24733308305438
 21
316.1897853946186
 31
0.0
 11
30.29729946739278
 21
316.2396870486921
 31
0.0
 11
30.35068224895231
 21
316.2859457929137
 31
0.0
 11
30.40762640117602
 21
316.3277223601339
 31
0.0
 11
30.46819062755183
 21
316.3640642339857
 31
0.0
 11
30.53227635643718
 21
316.3938226951752
 31
0.0
 11
30.59950545668983
 21
316.4157956625701
 31
0.0
 11
30.6688631857
 21
316.4289224626
 31
0.0
  0
SPLINE
  5
12E
330
1F
100
AcDbEntity
  8
0
  6
Continuous
 62
     7
100
AcDbSpline
210
0.0
220
0.0
230
1.0
 70
     8
 71
     3
 72
    17
 73
    13
 74
    11
 42
0.0000000001
 43
0.0000000001
 44
0.00000001
 40
0.0
 40
0.0
 40
0.0
 40
0.0
 40
0.0680277950048391
 40
0.1360632351005001
 40
0.2040812640417472
 40
0.2721696696647526
 40
0.3403702855045483
 40
0.4083585485194826
 40
0.44246275235081
 40
0.4765773020548068
 40
0.5107086426193354
 40
0.5447868109593165
 40
0.5447868109593165
 40
0.5447868109593165
 40
0.5447868109593165
 10
78.2380193595
 20
314.8843945312
 30
0.0
 10
78.25042798202126
 20
314.865409164361
 30
0.0
 10
78.275246621568
 20
314.8274362970719
 30
0.0
 10
78.3161881663132
 20
314.7730437658154
 30
0.0
 10
78.36040670296478
 20
314.7212488433391
 30
0.0
 10
78.4089868019889
 20
314.6733744399053
 30
0.0
 10
78.46231960319275
 20
314.6307939748181
 30
0.0
 10
78.51147468741078
 20
314.6018537426058
 30
0.0
 10
78.55343992516232
 20
314.5843345957285
 30
0.0
 10
78.58616432680651
 20
314.5745166246913
 30
0.0
 10
78.61979179128889
 20
314.5681355964567
 30
0.0
 10
78.64254067500502
 20
314.5673080045711
 30
0.0
 10
78.65390625
 20
314.5668945312
 30
0.0
 11
78.2380193595
 21
314.8843945312
 31
0.0
 11
78.27586454271021
 21
314.8278655740098
 31
0.0
 11
78.31673577284826
 21
314.7734747323541
 31
0.0
 11
78.36111115792622
 21
314.7219259451692
 31
0.0
 11
78.40975271734722
 21
314.6742811167261
 31
0.0
 11
78.46331663827036
 21
314.6320646462878
 31
0.0
 11
78.52213590481
 21
314.597966291613
 31
0.0
 11
78.55363504251915
 21
314.5848933790627
 31
0.0
 11
78.58631084782728
 21
314.5750906116488
 31
0.0
 11
78.61989257540972
 21
314.5689901213971
 31
0.0
 11
78.65390625
 21
314.5668945312
 31
0.0
  0
SPLINE
  5
12F
330
1F
100
AcDbEntity
  8
VERERBUNG
  6
Continuous
 62
     7
100
AcDbSpline
210
0.0
220
0.0
230
1.0
 70
     8
 71
     3
 72
     9
 73
     5
 74
     3
 42
0.0000000001
 43
0.0000000001
 44
0.00000001
 40
0.0
 40
0.0
 40
0.0
 40
0.0
 40
0.0774000574472669
 40
0.1547963632169701
 40
0.1547963632169701
 40
0.1547963632169701
 40
0.1547963632169701
 10
30.105607927
 20
316.0146842115
 30
0.0
 10
30.1209278913285
 20
316.0354488641768
 30
0.0
 10
30.15156707740767
 20
316.0769771630418
 30
0.0
 10
30.18424333005209
 20
316.1169223979209
 30
0.0
 10
30.2005810604
 20
316.1368945313
 30
0.0
 11
30.105607927
 21
316.0146842115
 31
0.0
 11
30.1520771113125
 21
316.07658238435
 31
0.0
 11
30.2005810604
 21
316.1368945313
 31
0.0
  0
SPLINE
  5
130
330
1F
100
AcDbEntity
  8
0
  6
Continuous
 62
     7
100
AcDbSpline
210
0.0
220
0.0
230
1.0
 70
     8
 71
     3
 72
    17
 73
    13
 74
    11
 42
0.0000000001
 43
0.0000000001
 44
0.00000001
 40
0.0
 40
0.0
 40
0.0
 40
0.0
 40
0.0340790970019758
 40
0.0682097420878643
 40
0.102315406597953
 40
0.1364128755368
 40
0.2043992839467087
 40
0.2725935680060447
 40
0.3406803507089344
 40
0.4086986202859166
 40
0.4767464406892071
 40
0.5447862542333223
 40
0.5447862542333223
 40
0.5447862542333223
 40
0.5447862542333223
 10
78.65390625
 20
299.1668945313
 30
0.0
 10
78.6425403596028
 20
299.1664832636189
 30
0.0
 10
78.61979138674866
 20
299.1656601061729
 30
0.0
 10
78.5861640229686
 20
299.1592922220568
 30
0.0
 10
78.55344754848267
 20
299.1494641926148
 30
0.0
 10
78.51149658230017
 20
299.1319269583983
 30
0.0
 10
78.46234674245898
 20
299.1029911100524
 30
0.0
 10
78.40900550743552
 20
299.0604262111947
 30
0.0
 10
78.36042157611699
 20
299.0125589321431
 30
0.0
 10
78.31619867200553
 20
298.9607628206995
 30
0.0
 10
78.27525267957832
 20
298.9063633026612
 30
0.0
 10
78.25042997936954
 20
298.8683833768908
 30
0.0
 10
78.2380193595
 20
298.8493945313
 30
0.0
 11
78.65390625
 21
299.1668945313
 31
0.0
 11
78.61989117986614
 21
299.1648065044183
 31
0.0
 11
78.58630877683345
 21
299.1587136282068
 31
0.0
 11
78.55364395689186
 21
299.1489051680903
 31
0.0
 11
78.52215634232775
 21
299.1358220676512
 31
0.0
 11
78.46334047549843
 21
299.1017215465761
 31
0.0
 11
78.40977343542698
 21
299.0595192646906
 31
0.0
 11
78.36112705874828
 21
299.0118816743352
 31
0.0
 11
78.31674927492449
 21
298.9603346346614
 31
0.0
 11
78.2758706574142
 21
298.9059338580852
 31
0.0
 11
78.2380193595
 21
298.8493945313
 31
0.0
  0
SPLINE
  5
131
330
1F
100
AcDbEntity
  8
0
  6
Continuous
 62
     7
100
AcDbSpline
210
0.0
220
0.0
230
1.0
 70
     8
 71
     3
 72
    17
 73
    13
 74
    11
 42
0.0000000001
 43
0.0000000001
 44
0.00000001
 40
0.0
 40
0.0
 40
0.0
 40
0.0
 40
0.0340781916136721
 40
0.0682095735124248
 40
0.1023243844272376
 40
0.1364288245154845
 40
0.204417180093137
 40
0.2726179463235749
 40
0.3407061059920285
 40
0.4087238602004956
 40
0.4767591626412113
 40
0.5447868280154174
 40
0.5447868280154174
 40
0.5447868280154174
 40
0.5447868280154174
 10
80.40390625
 20
314.5668945312
 30
0.0
 10
80.41527183268951
 20
314.5673080282784
 30
0.0
 10
80.43802073781805
 20
314.5681356678343
 30
0.0
 10
80.47164828065968
 20
314.5745168461747
 30
0.0
 10
80.50437288469054
 20
314.5843347425131
 30
0.0
 10
80.54633839084245
 20
314.6018537716225
 30
0.0
 10
80.59549357519258
 20
314.630794192483
 30
0.0
 10
80.6488261837703
 20
314.6733748894709
 30
0.0
 10
80.69740613648162
 20
314.7212492554792
 30
0.0
 10
80.74162454451125
 20
314.7730439994075
 30
0.0
 10
80.78256596103338
 20
314.8274364014545
 30
0.0
 10
80.8073845450245
 20
314.8654091984088
 30
0.0
 10
80.8197931405
 20
314.8843945312
 30
0.0
 11
80.40390625
 21
314.5668945312
 31
0.0
 11
80.43791994289467
 21
314.5689902027692
 31
0.0
 11
80.47150169749361
 21
314.5750907755599
 31
0.0
 11
80.50417777955214
 21
314.5848935295126
 31
0.0
 11
80.53567718401314
 21
314.5979664156643
 31
0.0
 11
80.59449649832888
 21
314.6320648724854
 31
0.0
 11
80.64806039003791
 21
314.6742816229454
 31
0.0
 11
80.69670170284047
 21
314.7219263516767
 31
0.0
 11
80.74107690545227
 21
314.7734749334295
 31
0.0
 11
80.78194804111827
 21
314.8278656738875
 31
0.0
 11
80.8197931405
 21
314.8843945312
 31
0.0
  0
SPLINE
  5
132
330
1F
100
AcDbEntity
  8
0
  6
Continuous
 62
     7
100
AcDbSpline
210
0.0
220
0.0
230
1.0
 70
     8
 71
     3
 72
    17
 73
    13
 74
    11
 42
0.0000000001
 43
0.0000000001
 44
0.00000001
 40
0.0
 40
0.0
 40
0.0
 40
0.0
 40
0.0680405843175725
 40
0.1360892263218121
 40
0.2041088006591694
 40
0.2721966988394643
 40
0.3403905142609902
 40
0.4083768376179264
 40
0.442473570701689
 40
0.4765783279269276
 40
0.5107080465795808
 40
0.5447863433023947
 40
0.5447863433023947
 40
0.5447863433023947
 40
0.5447863433023947
 10
80.8197931405
 20
298.8493945313
 30
0.0
 10
80.8073823683241
 20
298.8683835846301
 30
0.0
 10
80.78255935423016
 20
298.9063639400635
 30
0.0
 10
80.7416127628746
 20
298.9607642112902
 30
0.0
 10
80.69738935913979
 20
299.0125613152981
 30
0.0
 10
80.64880469741743
 20
299.0604288445741
 30
0.0
 10
80.59546212310123
 20
299.1029924241031
 30
0.0
 10
80.54631240262061
 20
299.1319273567924
 30
0.0
 10
80.50436250213488
 20
299.1494655617175
 30
0.0
 10
80.47164699391043
 20
299.15929401835
 30
0.0
 10
80.43802027083636
 20
299.1656606581799
 30
0.0
 10
80.41527187361692
 20
299.1664834470265
 30
0.0
 10
80.40390625
 20
299.1668945313
 30
0.0
 11
80.8197931405
 21
298.8493945313
 31
0.0
 11
80.78194138178291
 21
298.9059344771463
 31
0.0
 11
80.74106228897008
 21
298.9603359242724
 31
0.0
 11
80.69668374256864
 21
299.0118840291099
 31
0.0
 11
80.64803621634962
 21
299.0595220398931
 31
0.0
 11
80.59446864677253
 21
299.1017228923886
 31
0.0
 11
80.53565264411557
 21
299.1358230096179
 31
0.0
 11
80.50416600203688
 21
299.1489065327517
 31
0.0
 11
80.47150217631076
 21
299.1587151490826
 31
0.0
 11
80.43792055896111
 21
299.1648071661123
 31
0.0
 11
80.40390625
 21
299.1668945313
 31
0.0
  0
SPLINE
  5
133
330
1F
100
AcDbEntity
  8
VERERBUNG
  6
Continuous
 62
     7
100
AcDbSpline
210
0.0
220
0.0
230
1.0
 70
     8
 71
     3
 72
    11
 73
     7
 74
     5
 42
0.0000000001
 43
0.0000000001
 44
0.00000001
 40
0.0
 40
0.0
 40
0.0
 40
0.0
 40
0.5427795452359002
 40
1.085508812848929
 40
1.337448492135818
 40
1.58902570889745
 40
1.58902570889745
 40
1.58902570889745
 40
1.58902570889745
 10
30.105607927
 20
297.719104851
 30
0.0
 10
30.1833382644846
 20
297.8827252080015
 30
0.0
 10
30.3387917392993
 20
298.2099507658647
 30
0.0
 10
30.46271326141299
 20
298.6405636622404
 30
0.0
 10
30.52026762689642
 20
298.9851966882913
 30
0.0
 10
30.52602809121134
 20
299.1531144228786
 30
0.0
 10
30.52890625
 20
299.2370128514
 30
0.0
 11
30.105607927
 21
297.719104851
 31
0.0
 11
30.32507880173754
 21
298.2155342718328
 31
0.0
 11
30.47570284487914
 21
298.7369433775756
 31
0.0
 11
30.5147951231866
 21
298.9858316974621
 31
0.0
 11
30.52890625
 21
299.2370128514
 31
0.0
  0
SPLINE
  5
134
330
1F
100
AcDbEntity
  8
VERERBUNG
  6
Continuous
 62
     7
100
AcDbSpline
210
0.0
220
0.0
230
1.0
 70
     8
 71
     3
 72
    11
 73
     7
 74
     5
 42
0.0000000001
 43
0.0000000001
 44
0.00000001
 40
0.0
 40
0.0
 40
0.0
 40
0.0
 40
0.4891002097433437
 40
0.9783817007602638
 40
1.283670603128876
 40
1.588797103076692
 40
1.588797103076692
 40
1.588797103076692
 40
1.588797103076692
 10
30.52890625
 20
314.4967762111
 30
0.0
 10
30.51813549237842
 20
314.6599294044318
 30
0.0
 10
30.49658998503586
 20
314.9862962625857
 30
0.0
 10
30.37307645503052
 20
315.3989151651059
 30
0.0
 10
30.24029605161568
 20
315.7406303694631
 30
0.0
 10
30.15049600470227
 20
315.9233491350702
 30
0.0
 10
30.105607927
 20
316.0146842115
 30
0.0
 11
30.52890625
 21
314.4967762111
 31
0.0
 11
30.4784523460537
 21
314.9832671347024
 31
0.0
 11
30.3479841124302
 21
315.4548330552977
 31
0.0
 11
30.23625009468959
 21
315.7389401181965
 31
0.0
 11
30.105607927
 21
316.0146842115
 31
0.0
  0
DIMENSION
  5
13F
330
1F
100
AcDbEntity
  8
1
100
AcDbDimension
  2
*D2
 10
233.046216856298
 20
314.8668945313
 30
0.0
 11
229.296216856298
 21
307.023769398158
 31
0.0
 70
    32
  1
<>
 71
     5
 42
-1.0
 53
90.0
  3
ME10_DIM_10
100
AcDbAlignedDimension
 13
210.92890625
 23
298.8668945313
 33
0.0
 14
210.92890625
 24
314.8668945313
 34
0.0
 50
90.0
100
AcDbRotatedDimension
  0
DIMENSION
  5
14A
330
1F
100
AcDbEntity
  8
1
100
AcDbDimension
  2
*D3
 10
241.671286240587
 20
320.8668945312
 30
0.0
 11
237.921286240587
 21
307.286939063831
 31
0.0
 70
    32
  1
<>
 71
     5
 42
-1.0
 53
90.0
  3
ME10_DIM_11
100
AcDbAlignedDimension
 13
217.761139297
 23
292.8668945313
 33
0.0
 14
217.761139297
 24
320.8668945312
 34
0.0
 50
90.0
100
AcDbRotatedDimension
  0
DIMENSION
  5
155
330
1F
100
AcDbEntity
  8
1
100
AcDbDimension
  2
*D4
 10
210.92890625
 20
345.34746968705
 30
0.0
 11
153.380214717894
 21
349.09746968705
 31
0.0
 70
    32
  1
<>
 71
     5
 42
-1.0
 53
0.00013888888889
  3
ME10_DIM_12
100
AcDbAlignedDimension
 13
87.52890625
 23
338.3668456257
 33
0.0
 14
210.92890625
 24
317.8668945313
 34
0.0
100
AcDbRotatedDimension
  0
DIMENSION
  5
160
330
1F
100
AcDbEntity
  8
1
100
AcDbDimension
  2
*D5
 10
210.92890625
 20
352.001291882498
 30
0.0
 11
136.687292367913
 21
355.751291882498
 31
0.0
 70
    32
  1
<>
 71
     5
 42
-1.0
 53
0.00013888888889
  3
ME10_DIM_13
100
AcDbAlignedDimension
 13
61.52890625
 23
338.3668945313
 33
0.0
 14
210.92890625
 24
317.8668945313
 34
0.0
100
AcDbRotatedDimension
  0
DIMENSION
  5
16B
330
1F
100
AcDbEntity
  8
1
100
AcDbDimension
  2
*D6
 10
221.52890625
 20
360.172652473398
 30
0.0
 11
148.827599531536
 21
363.922652473398
 31
0.0
 70
    32
  1
<>
 71
     5
 42
-1.0
 53
0.00013888888889
  3
ME10_DIM_14
100
AcDbAlignedDimension
 13
61.52890625
 23
338.3668945313
 33
0.0
 14
221.52890625
 24
317.6168945313
 34
0.0
100
AcDbRotatedDimension
  0
DIMENSION
  5
176
330
1F
100
AcDbEntity
  8
1
100
AcDbDimension
  2
*D7
 10
210.92890625
 20
367.469159520231
 30
0.0
 11
128.432376042922
 21
371.219159520231
 31
0.0
 70
    32
  1
<>
 71
     5
 42
-1.0
 53
0.00013888888889
  3
ME10_DIM_15
100
AcDbAlignedDimension
 13
29.52890625
 23
328.4429217114
 33
0.0
 14
210.92890625
 24
317.8668945313
 34
0.0
100
AcDbRotatedDimension
  0
INSERT
  5
17D
330
1F
100
AcDbEntity
  8
1
100
AcDbBlockReference
  2
*D8
 10
0.0
 20
0.0
 30
0.0
  0
ENDSEC
  0
SECTION
  2
OBJECTS
  0
DICTIONARY
  5
C
330
0
100
AcDbDictionary
281
     1
  3
ACAD_GROUP
350
D
  3
ACAD_LAYOUT
350
1A
  3
ACAD_MLEADERSTYLE
350
180
  3
ACAD_MLINESTYLE
350
17
  3
ACAD_PLOTSETTINGS
350
19
  3
ACAD_PLOTSTYLENAME
350
E
  3
ACAD_SCALELIST
350
4C
  3
ACAD_VISUALSTYLE
350
2A
  3
AcDbVariableDictionary
350
17E
  0
DICTIONARY
  5
D
102
{ACAD_REACTORS
330
C
102
}
330
C
100
AcDbDictionary
281
     1
  0
DICTIONARY
  5
1A
102
{ACAD_REACTORS
330
C
102
}
330
C
100
AcDbDictionary
281
     1
  3
Layout1
350
1E
  3
Layout2
350
26
  3
Model
350
22
  0
DICTIONARY
  5
180
102
{ACAD_REACTORS
330
C
102
}
330
C
100
AcDbDictionary
281
     1
  0
DICTIONARY
  5
17
102
{ACAD_REACTORS
330
C
102
}
330
C
100
AcDbDictionary
281
     1
  3
Standard
350
18
  0
DICTIONARY
  5
19
102
{ACAD_REACTORS
330
C
102
}
330
C
100
AcDbDictionary
281
     1
  0
ACDBDICTIONARYWDFLT
  5
E
102
{ACAD_REACTORS
330
C
102
}
330
C
100
AcDbDictionary
281
     1
  3
Normal
350
F
100
AcDbDictionaryWithDefault
340
F
  0
DICTIONARY
  5
4C
102
{ACAD_REACTORS
330
C
102
}
330
C
100
AcDbDictionary
281
     1
  3
A0
350
4D
  3
A1
350
4E
  3
A2
350
4F
  3
A3
350
50
  3
A4
350
51
  3
A5
350
52
  3
A6
350
53
  3
A7
350
54
  3
A8
350
55
  3
A9
350
56
  3
B0
350
57
  3
B1
350
58
  3
B2
350
59
  3
B3
350
5A
  3
B4
350
5B
  3
B5
350
5C
  3
B6
350
5D
  3
B7
350
5E
  3
B8
350
5F
  3
B9
350
60
  3
C0
350
61
  3
C1
350
62
  3
C2
350
63
  3
C3
350
64
  3
C4
350
65
  3
C5
350
66
  3
C6
350
67
  3
C7
350
68
  3
C8
350
69
  3
C9
350
6A
  3
D0
350
6B
  3
D1
350
6C
  3
D2
350
6D
  0
DICTIONARY
  5
2A
102
{ACAD_REACTORS
330
C
102
}
330
C
100
AcDbDictionary
281
     1
  3
2dWireframe
350
2F
  3
3D Hidden
350
31
  3
3dWireframe
350
30
  3
Basic
350
32
  3
Brighten
350
36
  3
ColorChange
350
3A
  3
Conceptual
350
34
  3
Dim
350
35
  3
Facepattern
350
39
  3
Flat
350
2B
  3
FlatWithEdges
350
2C
  3
Gouraud
350
2D
  3
GouraudWithEdges
350
2E
  3
Linepattern
350
38
  3
Realistic
350
33
  3
Thicken
350
37
  0
DICTIONARY
  5
17E
102
{ACAD_REACTORS
330
C
102
}
330
C
100
AcDbDictionary
281
     1
  3
CANNOSCALE
350
181
  0
LAYOUT
  5
1E
102
{ACAD_REACTORS
330
1A
102
}
330
1A
100
AcDbPlotSettings
  1

  2
none_device
  4

  6

 40
0.0
 41
0.0
 42
0.0
 43
0.0
 44
0.0
 45
0.0
 46
0.0
 47
0.0
 48
0.0
 49
0.0
140
0.0
141
0.0
142
1.0
143
1.0
 70
   688
 72
     0
 73
     0
 74
     5
  7

 75
    16
147
1.0
148
0.0
149
0.0
100
AcDbLayout
  1
Layout1
 70
     1
 71
     1
 10
0.0
 20
0.0
 11
12.0
 21
9.0
 12
0.0
 22
0.0
 32
0.0
 14
1.00000000000000E+20
 24
1.00000000000000E+20
 34
1.00000000000000E+20
 15
-1.00000000000000E+20
 25
-1.00000000000000E+20
 35
-1.00000000000000E+20
146
0.0
 13
0.0
 23
0.0
 33
0.0
 16
1.0
 26
0.0
 36
0.0
 17
0.0
 27
1.0
 37
0.0
 76
     0
330
1B
  0
LAYOUT
  5
26
102
{ACAD_REACTORS
330
1A
102
}
330
1A
100
AcDbPlotSettings
  1

  2
none_device
  4

  6

 40
0.0
 41
0.0
 42
0.0
 43
0.0
 44
0.0
 45
0.0
 46
0.0
 47
0.0
 48
0.0
 49
0.0
140
0.0
141
0.0
142
1.0
143
1.0
 70
   688
 72
     0
 73
     0
 74
     5
  7

 75
    16
147
1.0
148
0.0
149
0.0
100
AcDbLayout
  1
Layout2
 70
     1
 71
     2
 10
0.0
 20
0.0
 11
0.0
 21
0.0
 12
0.0
 22
0.0
 32
0.0
 14
0.0
 24
0.0
 34
0.0
 15
0.0
 25
0.0
 35
0.0
146
0.0
 13
0.0
 23
0.0
 33
0.0
 16
1.0
 26
0.0
 36
0.0
 17
0.0
 27
1.0
 37
0.0
 76
     0
330
23
  0
LAYOUT
  5
22
102
{ACAD_REACTORS
330
1A
102
}
330
1A
100
AcDbPlotSettings
  1

  2
none_device
  4

  6

 40
0.0
 41
0.0
 42
0.0
 43
0.0
 44
0.0
 45
0.0
 46
0.0
 47
0.0
 48
0.0
 49
0.0
140
0.0
141
0.0
142
1.0
143
1.0
 70
  1712
 72
     0
 73
     0
 74
     0
  7

 75
     0
147
1.0
148
0.0
149
0.0
100
AcDbLayout
  1
Model
 70
     1
 71
     0
 10
0.0
 20
0.0
 11
12.0
 21
9.0
 12
0.0
 22
0.0
 32
0.0
 14
8.3387762963109
 24
266.0335599447918
 34
0.0
 15
243.671286240587
 25
374.802946862098
 35
0.0
146
0.0
 13
0.0
 23
0.0
 33
0.0
 16
1.0
 26
0.0
 36
0.0
 17
0.0
 27
1.0
 37
0.0
 76
     0
330
1F
331
29
  0
MLINESTYLE
  5
18
102
{ACAD_REACTORS
330
17
102
}
330
17
100
AcDbMlineStyle
  2
Standard
 70
     0
  3

 62
   256
 51
90.0
 52
90.0
 71
     2
 49
0.5
 62
   256
  6
BYLAYER
 49
-0.5
 62
   256
  6
BYLAYER
  0
ACDBPLACEHOLDER
  5
F
102
{ACAD_REACTORS
330
E
102
}
330
E
  0
SCALE
  5
4D
102
{ACAD_REACTORS
330
4C
102
}
330
4C
100
AcDbScale
 70
     0
300
1:1
140
1.0
141
1.0
290
     1
  0
SCALE
  5
4E
102
{ACAD_REACTORS
330
4C
102
}
330
4C
100
AcDbScale
 70
     0
300
1:2
140
1.0
141
2.0
290
     0
  0
SCALE
  5
4F
102
{ACAD_REACTORS
330
4C
102
}
330
4C
100
AcDbScale
 70
     0
300
1:4
140
1.0
141
4.0
290
     0
  0
SCALE
  5
50
102
{ACAD_REACTORS
330
4C
102
}
330
4C
100
AcDbScale
 70
     0
300
1:5
140
1.0
141
5.0
290
     0
  0
SCALE
  5
51
102
{ACAD_REACTORS
330
4C
102
}
330
4C
100
AcDbScale
 70
     0
300
1:8
140
1.0
141
8.0
290
     0
  0
SCALE
  5
52
102
{ACAD_REACTORS
330
4C
102
}
330
4C
100
AcDbScale
 70
     0
300
1:10
140
1.0
141
10.0
290
     0
  0
SCALE
  5
53
102
{ACAD_REACTORS
330
4C
102
}
330
4C
100
AcDbScale
 70
     0
300
1:16
140
1.0
141
16.0
290
     0
  0
SCALE
  5
54
102
{ACAD_REACTORS
330
4C
102
}
330
4C
100
AcDbScale
 70
     0
300
1:20
140
1.0
141
20.0
290
     0
  0
SCALE
  5
55
102
{ACAD_REACTORS
330
4C
102
}
330
4C
100
AcDbScale
 70
     0
300
1:30
140
1.0
141
30.0
290
     0
  0
SCALE
  5
56
102
{ACAD_REACTORS
330
4C
102
}
330
4C
100
AcDbScale
 70
     0
300
1:40
140
1.0
141
40.0
290
     0
  0
SCALE
  5
57
102
{ACAD_REACTORS
330
4C
102
}
330
4C
100
AcDbScale
 70
     0
300
1:50
140
1.0
141
50.0
290
     0
  0
SCALE
  5
58
102
{ACAD_REACTORS
330
4C
102
}
330
4C
100
AcDbScale
 70
     0
300
1:100
140
1.0
141
100.0
290
     0
  0
SCALE
  5
59
102
{ACAD_REACTORS
330
4C
102
}
330
4C
100
AcDbScale
 70
     0
300
2:1
140
2.0
141
1.0
290
     0
  0
SCALE
  5
5A
102
{ACAD_REACTORS
330
4C
102
}
330
4C
100
AcDbScale
 70
     0
300
4:1
140
4.0
141
1.0
290
     0
  0
SCALE
  5
5B
102
{ACAD_REACTORS
330
4C
102
}
330
4C
100
AcDbScale
 70
     0
300
8:1
140
8.0
141
1.0
290
     0
  0
SCALE
  5
5C
102
{ACAD_REACTORS
330
4C
102
}
330
4C
100
AcDbScale
 70
     0
300
10:1
140
10.0
141
1.0
290
     0
  0
SCALE
  5
5D
102
{ACAD_REACTORS
330
4C
102
}
330
4C
100
AcDbScale
 70
     0
300
100:1
140
100.0
141
1.0
290
     0
  0
SCALE
  5
5E
102
{ACAD_REACTORS
330
4C
102
}
330
4C
100
AcDbScale
 70
     0
300
1/128" = 1'-0"
140
0.0078125
141
12.0
290
     0
  0
SCALE
  5
5F
102
{ACAD_REACTORS
330
4C
102
}
330
4C
100
AcDbScale
 70
     0
300
1/64" = 1'-0"
140
0.015625
141
12.0
290
     0
  0
SCALE
  5
60
102
{ACAD_REACTORS
330
4C
102
}
330
4C
100
AcDbScale
 70
     0
300
1/32" = 1'-0"
140
0.03125
141
12.0
290
     0
  0
SCALE
  5
61
102
{ACAD_REACTORS
330
4C
102
}
330
4C
100
AcDbScale
 70
     0
300
1/16" = 1'-0"
140
0.0625
141
12.0
290
     0
  0
SCALE
  5
62
102
{ACAD_REACTORS
330
4C
102
}
330
4C
100
AcDbScale
 70
     0
300
3/32" = 1'-0"
140
0.09375
141
12.0
290
     0
  0
SCALE
  5
63
102
{ACAD_REACTORS
330
4C
102
}
330
4C
100
AcDbScale
 70
     0
300
1/8" = 1'-0"
140
0.125
141
12.0
290
     0
  0
SCALE
  5
64
102
{ACAD_REACTORS
330
4C
102
}
330
4C
100
AcDbScale
 70
     0
300
3/16" = 1'-0"
140
0.1875
141
12.0
290
     0
  0
SCALE
  5
65
102
{ACAD_REACTORS
330
4C
102
}
330
4C
100
AcDbScale
 70
     0
300
1/4" = 1'-0"
140
0.25
141
12.0
290
     0
  0
SCALE
  5
66
102
{ACAD_REACTORS
330
4C
102
}
330
4C
100
AcDbScale
 70
     0
300
3/8" = 1'-0"
140
0.375
141
12.0
290
     0
  0
SCALE
  5
67
102
{ACAD_REACTORS
330
4C
102
}
330
4C
100
AcDbScale
 70
     0
300
1/2" = 1'-0"
140
0.5
141
12.0
290
     0
  0
SCALE
  5
68
102
{ACAD_REACTORS
330
4C
102
}
330
4C
100
AcDbScale
 70
     0
300
3/4" = 1'-0"
140
0.75
141
12.0
290
     0
  0
SCALE
  5
69
102
{ACAD_REACTORS
330
4C
102
}
330
4C
100
AcDbScale
 70
     0
300
1" = 1'-0"
140
1.0
141
12.0
290
     0
  0
SCALE
  5
6A
102
{ACAD_REACTORS
330
4C
102
}
330
4C
100
AcDbScale
 70
     0
300
1-1/2" = 1'-0"
140
1.5
141
12.0
290
     0
  0
SCALE
  5
6B
102
{ACAD_REACTORS
330
4C
102
}
330
4C
100
AcDbScale
 70
     0
300
3" = 1'-0"
140
3.0
141
12.0
290
     0
  0
SCALE
  5
6C
102
{ACAD_REACTORS
330
4C
102
}
330
4C
100
AcDbScale
 70
     0
300
6" = 1'-0"
140
6.0
141
12.0
290
     0
  0
SCALE
  5
6D
102
{ACAD_REACTORS
330
4C
102
}
330
4C
100
AcDbScale
 70
     0
300
1'-0" = 1'-0"
140
12.0
141
12.0
290
     0
  0
VISUALSTYLE
  5
2F
102
{ACAD_REACTORS
330
2A
102
}
330
2A
100
AcDbVisualStyle
  2
2dWireframe
 70
     4
 71
     0
 72
     2
 73
     0
 90
        0
 40
-0.6
 41
-30.0
 62
     5
 63
     7
 74
     1
 91
        4
 64
     7
 65
   257
 75
     1
175
     1
 42
1.0
 92
        0
 66
   257
 43
1.0
 76
     1
 77
     6
 78
     2
 67
     7
 79
     5
170
     0
171
     0
290
     0
174
     0
 93
        1
 44
0.0
173
     0
291
     0
 45
0.0
1001
ACAD
1000
AcDbSavedByObjectVersion
1070
     0
  0
VISUALSTYLE
  5
31
102
{ACAD_REACTORS
330
2A
102
}
330
2A
100
AcDbVisualStyle
  2
3D Hidden
 70
     6
 71
     1
 72
     2
 73
     2
 90
        0
 40
-0.6
 41
-30.0
 62
     5
 63
     7
 74
     2
 91
        2
 64
     7
 65
   257
 75
     2
175
     1
 42
40.0
 92
        0
 66
   257
 43
1.0
 76
     1
 77
     6
 78
     2
 67
     7
 79
     3
170
     0
171
     0
290
     0
174
     0
 93
        1
 44
0.0
173
     0
291
     0
 45
0.0
1001
ACAD
1000
AcDbSavedByObjectVersion
1070
     0
  0
VISUALSTYLE
  5
30
102
{ACAD_REACTORS
330
2A
102
}
330
2A
100
AcDbVisualStyle
  2
3dWireframe
 70
     5
 71
     0
 72
     2
 73
     0
 90
        0
 40
-0.6
 41
-30.0
 62
     5
 63
     7
 74
     1
 91
        4
 64
     7
 65
   257
 75
     1
175
     1
 42
1.0
 92
        0
 66
   257
 43
1.0
 76
     1
 77
     6
 78
     2
 67
     7
 79
     5
170
     0
171
     0
290
     0
174
     0
 93
        1
 44
0.0
173
     0
291
     0
 45
0.0
1001
ACAD
1000
AcDbSavedByObjectVersion
1070
     0
  0
VISUALSTYLE
  5
32
102
{ACAD_REACTORS
330
2A
102
}
330
2A
100
AcDbVisualStyle
  2
Basic
 70
     7
 71
     1
 72
     0
 73
     1
 90
        0
 40
-0.6
 41
-30.0
 62
     5
 63
     7
 74
     0
 91
        4
 64
     7
 65
   257
 75
     1
175
     1
 42
1.0
 92
        8
 66
     7
 43
1.0
 76
     1
 77
     6
 78
     2
 67
     7
 79
     5
170
     0
171
     0
290
     0
174
     0
 93
        1
 44
0.0
173
     0
291
     1
 45
0.0
1001
ACAD
1000
AcDbSavedByObjectVersion
1070
     0
  0
VISUALSTYLE
  5
36
102
{ACAD_REACTORS
330
2A
102
}
330
2A
100
AcDbVisualStyle
  2
Brighten
 70
    12
 71
     2
 72
     2
 73
     0
 90
        0
 40
-0.6
 41
-30.0
 62
     5
 63
     7
 74
     1
 91
        4
 64
     7
 65
   257
 75
     1
175
     1
 42
1.0
 92
        8
 66
     7
 43
1.0
 76
     1
 77
     6
 78
     2
 67
     7
 79
     5
170
     0
171
     0
290
     0
174
     0
 93
        1
 44
50.0
173
     0
291
     1
 45
0.0
1001
ACAD
1000
AcDbSavedByObjectVersion
1070
     0
  0
VISUALSTYLE
  5
3A
102
{ACAD_REACTORS
330
2A
102
}
330
2A
100
AcDbVisualStyle
  2
ColorChange
 70
    16
 71
     2
 72
     2
 73
     3
 90
        0
 40
-0.6
 41
-30.0
 62
     5
 63
     8
 74
     1
 91
        4
 64
     7
 65
   257
 75
     1
175
     1
 42
1.0
 92
        8
 66
     8
 43
1.0
 76
     1
 77
     6
 78
     2
 67
     7
 79
     5
170
     0
171
     0
290
     0
174
     0
 93
        1
 44
0.0
173
     0
291
     1
 45
0.0
1001
ACAD
1000
AcDbSavedByObjectVersion
1070
     0
  0
VISUALSTYLE
  5
34
102
{ACAD_REACTORS
330
2A
102
}
330
2A
100
AcDbVisualStyle
  2
Conceptual
 70
     9
 71
     3
 72
     2
 73
     0
 90
        0
 40
-0.6
 41
-30.0
 62
     5
 63
     7
 74
     2
 91
        2
 64
     7
 65
   257
 75
     1
175
     1
 42
40.0
 92
        8
 66
     7
 43
1.0
 76
     1
 77
     6
 78
     2
 67
     7
 79
     3
170
     0
171
     0
290
     0
174
     0
 93
        1
 44
0.0
173
     0
291
     0
 45
0.0
1001
ACAD
1000
AcDbSavedByObjectVersion
1070
     0
  0
VISUALSTYLE
  5
35
102
{ACAD_REACTORS
330
2A
102
}
330
2A
100
AcDbVisualStyle
  2
Dim
 70
    11
 71
     2
 72
     2
 73
     0
 90
        0
 40
-0.6
 41
-30.0
 62
     5
 63
     7
 74
     1
 91
        4
 64
     7
 65
   257
 75
     1
175
     1
 42
1.0
 92
        8
 66
     7
 43
1.0
 76
     1
 77
     6
 78
     2
 67
     7
 79
     5
170
     0
171
     0
290
     0
174
     0
 93
        1
 44
-50.0
173
     0
291
     1
 45
0.0
1001
ACAD
1000
AcDbSavedByObjectVersion
1070
     0
  0
VISUALSTYLE
  5
39
102
{ACAD_REACTORS
330
2A
102
}
330
2A
100
AcDbVisualStyle
  2
Facepattern
 70
    15
 71
     2
 72
     2
 73
     0
 90
        0
 40
-0.6
 41
-30.0
 62
     5
 63
     7
 74
     1
 91
        4
 64
     7
 65
   257
 75
     1
175
     1
 42
1.0
 92
        8
 66
     7
 43
1.0
 76
     1
 77
     6
 78
     2
 67
     7
 79
     5
170
     0
171
     0
290
     0
174
     0
 93
        1
 44
0.0
173
     0
291
     1
 45
0.0
1001
ACAD
1000
AcDbSavedByObjectVersion
1070
     0
  0
VISUALSTYLE
  5
2B
102
{ACAD_REACTORS
330
2A
102
}
330
2A
100
AcDbVisualStyle
  2
Flat
 70
     0
 71
     2
 72
     1
 73
     1
 90
        2
 40
-0.6
 41
30.0
 62
     5
 63
     7
 74
     0
 91
        4
 64
     7
 65
   257
 75
     1
175
     1
 42
1.0
 92
        8
 66
     7
 43
1.0
 76
     1
 77
     6
 78
     2
 67
     7
 79
     5
170
     0
171
     0
290
     0
174
     0
 93
       13
 44
0.0
173
     0
291
     1
 45
0.0
1001
ACAD
1000
AcDbSavedByObjectVersion
1070
     0
  0
VISUALSTYLE
  5
2C
102
{ACAD_REACTORS
330
2A
102
}
330
2A
100
AcDbVisualStyle
  2
FlatWithEdges
 70
     1
 71
     2
 72
     1
 73
     1
 90
        2
 40
-0.6
 41
30.0
 62
     5
 63
     7
 74
     1
 91
        4
 64
     7
 65
   257
 75
     1
175
     1
 42
1.0
 92
        0
 66
   257
 43
1.0
 76
     1
 77
     6
 78
     2
 67
     7
 79
     5
170
     0
171
     0
290
     0
174
     0
 93
       13
 44
0.0
173
     0
291
     1
 45
0.0
1001
ACAD
1000
AcDbSavedByObjectVersion
1070
     0
  0
VISUALSTYLE
  5
2D
102
{ACAD_REACTORS
330
2A
102
}
330
2A
100
AcDbVisualStyle
  2
Gouraud
 70
     2
 71
     2
 72
     2
 73
     1
 90
        2
 40
-0.6
 41
30.0
 62
     5
 63
     7
 74
     0
 91
        4
 64
     7
 65
   257
 75
     1
175
     1
 42
1.0
 92
        0
 66
     7
 43
1.0
 76
     1
 77
     6
 78
     2
 67
     7
 79
     5
170
     0
171
     0
290
     0
174
     0
 93
       13
 44
0.0
173
     0
291
     1
 45
0.0
1001
ACAD
1000
AcDbSavedByObjectVersion
1070
     0
  0
VISUALSTYLE
  5
2E
102
{ACAD_REACTORS
330
2A
102
}
330
2A
100
AcDbVisualStyle
  2
GouraudWithEdges
 70
     3
 71
     2
 72
     2
 73
     1
 90
        2
 40
-0.6
 41
30.0
 62
     5
 63
     7
 74
     1
 91
        4
 64
     7
 65
   257
 75
     1
175
     1
 42
1.0
 92
        0
 66
   257
 43
1.0
 76
     1
 77
     6
 78
     2
 67
     7
 79
     5
170
     0
171
     0
290
     0
174
     0
 93
       13
 44
0.0
173
     0
291
     1
 45
0.0
1001
ACAD
1000
AcDbSavedByObjectVersion
1070
     0
  0
VISUALSTYLE
  5
38
102
{ACAD_REACTORS
330
2A
102
}
330
2A
100
AcDbVisualStyle
  2
Linepattern
 70
    14
 71
     2
 72
     2
 73
     0
 90
        0
 40
-0.6
 41
-30.0
 62
     5
 63
     7
 74
     1
 91
        4
 64
     7
 65
   257
 75
     7
175
     7
 42
1.0
 92
        8
 66
     7
 43
1.0
 76
     1
 77
     6
 78
     2
 67
     7
 79
     5
170
     0
171
     0
290
     0
174
     0
 93
        1
 44
0.0
173
     0
291
     1
 45
0.0
1001
ACAD
1000
AcDbSavedByObjectVersion
1070
     0
  0
VISUALSTYLE
  5
33
102
{ACAD_REACTORS
330
2A
102
}
330
2A
100
AcDbVisualStyle
  2
Realistic
 70
     8
 71
     2
 72
     2
 73
     0
 90
        0
 40
-0.6
 41
-30.0
 62
     5
 63
     7
 74
     1
 91
        0
 64
     7
 65
   257
 75
     1
175
     1
 42
1.0
 92
        8
 66
     8
 43
1.0
 76
     1
 77
     6
 78
     2
 67
     7
 79
     5
170
     0
171
     0
290
     0
174
     0
 93
       13
 44
0.0
173
     0
291
     0
 45
0.0
1001
ACAD
1000
AcDbSavedByObjectVersion
1070
     0
  0
VISUALSTYLE
  5
37
102
{ACAD_REACTORS
330
2A
102
}
330
2A
100
AcDbVisualStyle
  2
Thicken
 70
    13
 71
     2
 72
     2
 73
     0
 90
        0
 40
-0.6
 41
-30.0
 62
     5
 63
     7
 74
     1
 91
        4
 64
     7
 65
   257
 75
     1
175
     1
 42
1.0
 92
       12
 66
     7
 43
1.0
 76
     1
 77
     6
 78
     2
 67
     7
 79
     5
170
     0
171
     0
290
     0
174
     0
 93
        1
 44
0.0
173
     0
291
     1
 45
0.0
1001
ACAD
1000
AcDbSavedByObjectVersion
1070
     0
  0
DICTIONARYVAR
  5
181
102
{ACAD_REACTORS
330
17E
102
}
330
17E
100
DictionaryVariables
280
     0
  1
1:1
  0
ENDSEC
  0
EOF
