  0
SECTION
  2
HEADER
  9
$ACADVER
  1
AC1015
  9
$ACADMAINTVER
 70
     6
  9
$DWGCODEPAGE
  3
ANSI_1252
  9
$INSBASE
 10
0.0
 20
0.0
 30
0.0
  9
$EXTMIN
 10
1.2411291340331
 20
45.3617788462
 30
0.0
  9
$EXTMAX
 10
260.182453873065
 20
178.33316213192
 30
0.0
  9
$LIMMIN
 10
0.0
 20
0.0
  9
$LIMMAX
 10
12.0
 20
9.0
  9
$ORTHOMODE
 70
     0
  9
$REGENMODE
 70
     1
  9
$FILLMODE
 70
     1
  9
$QTEXTMODE
 70
     0
  9
$MIRRTEXT
 70
     1
  9
$LTSCALE
 40
1.0
  9
$ATTMODE
 70
     1
  9
$TEXTSIZE
 40
0.2
  9
$TRACEWID
 40
0.05
  9
$TEXTSTYLE
  7
Standard
  9
$CLAYER
  8
0
  9
$CELTYPE
  6
ByLayer
  9
$CECOLOR
 62
   256
  9
$CELTSCALE
 40
1.0
  9
$DISPSILH
 70
     0
  9
$DIMSCALE
 40
1.0
  9
$DIMASZ
 40
0.18
  9
$DIMEXO
 40
0.0625
  9
$DIMDLI
 40
0.38
  9
$DIMRND
 40
0.0
  9
$DIMDLE
 40
0.0
  9
$DIMEXE
 40
0.18
  9
$DIMTP
 40
0.0
  9
$DIMTM
 40
0.0
  9
$DIMTXT
 40
0.18
  9
$DIMCEN
 40
0.09
  9
$DIMTSZ
 40
0.0
  9
$DIMTOL
 70
     0
  9
$DIMLIM
 70
     0
  9
$DIMTIH
 70
     1
  9
$DIMTOH
 70
     1
  9
$DIMSE1
 70
     0
  9
$DIMSE2
 70
     0
  9
$DIMTAD
 70
     0
  9
$DIMZIN
 70
     0
  9
$DIMBLK
  1

  9
$DIMASO
 70
     1
  9
$DIMSHO
 70
     1
  9
$DIMPOST
  1

  9
$DIMAPOST
  1

  9
$DIMALT
 70
     0
  9
$DIMALTD
 70
     2
  9
$DIMALTF
 40
25.4
  9
$DIMLFAC
 40
1.0
  9
$DIMTOFL
 70
     0
  9
$DIMTVP
 40
0.0
  9
$DIMTIX
 70
     0
  9
$DIMSOXD
 70
     0
  9
$DIMSAH
 70
     0
  9
$DIMBLK1
  1

  9
$DIMBLK2
  1

  9
$DIMSTYLE
  2
Standard
  9
$DIMCLRD
 70
     0
  9
$DIMCLRE
 70
     0
  9
$DIMCLRT
 70
     0
  9
$DIMTFAC
 40
1.0
  9
$DIMGAP
 40
0.09
  9
$DIMJUST
 70
     0
  9
$DIMSD1
 70
     0
  9
$DIMSD2
 70
     0
  9
$DIMTOLJ
 70
     1
  9
$DIMTZIN
 70
     0
  9
$DIMALTZ
 70
     0
  9
$DIMALTTZ
 70
     0
  9
$DIMUPT
 70
     0
  9
$DIMDEC
 70
     4
  9
$DIMTDEC
 70
     4
  9
$DIMALTU
 70
     2
  9
$DIMALTTD
 70
     2
  9
$DIMTXSTY
  7
Standard
  9
$DIMAUNIT
 70
     0
  9
$DIMADEC
 70
     0
  9
$DIMALTRND
 40
0.0
  9
$DIMAZIN
 70
     0
  9
$DIMDSEP
 70
    46
  9
$DIMATFIT
 70
     3
  9
$DIMFRAC
 70
     0
  9
$DIMLDRBLK
  1

  9
$DIMLUNIT
 70
     2
  9
$DIMLWD
 70
    -2
  9
$DIMLWE
 70
    -2
  9
$DIMTMOVE
 70
     0
  9
$LUNITS
 70
     2
  9
$LUPREC
 70
     4
  9
$SKETCHINC
 40
0.1
  9
$FILLETRAD
 40
0.5
  9
$AUNITS
 70
     0
  9
$AUPREC
 70
     0
  9
$MENU
  1
.
  9
$ELEVATION
 40
0.0
  9
$PELEVATION
 40
0.0
  9
$THICKNESS
 40
0.0
  9
$LIMCHECK
 70
     0
  9
$CHAMFERA
 40
0.5
  9
$CHAMFERB
 40
0.5
  9
$CHAMFERC
 40
1.0
  9
$CHAMFERD
 40
0.0
  9
$SKPOLY
 70
     0
  9
$TDCREATE
 40
2456748.733079769
  9
$TDUCREATE
 40
2456748.649746435
  9
$TDUPDATE
 40
2456748.73307978
  9
$TDUUPDATE
 40
2456748.649746447
  9
$TDINDWG
 40
0.0000000116
  9
$TDUSRTIMER
 40
0.0000000116
  9
$USRTIMER
 70
     1
  9
$ANGBASE
 50
0.0
  9
$ANGDIR
 70
     0
  9
$PDMODE
 70
     0
  9
$PDSIZE
 40
0.0
  9
$PLINEWID
 40
0.0
  9
$SPLFRAME
 70
     0
  9
$SPLINETYPE
 70
     6
  9
$SPLINESEGS
 70
     8
  9
$HANDSEED
  5
18F
  9
$SURFTAB1
 70
     6
  9
$SURFTAB2
 70
     6
  9
$SURFTYPE
 70
     6
  9
$SURFU
 70
     6
  9
$SURFV
 70
     6
  9
$UCSBASE
  2

  9
$UCSNAME
  2

  9
$UCSORG
 10
0.0
 20
0.0
 30
0.0
  9
$UCSXDIR
 10
1.0
 20
0.0
 30
0.0
  9
$UCSYDIR
 10
0.0
 20
1.0
 30
0.0
  9
$UCSORTHOREF
  2

  9
$UCSORTHOVIEW
 70
     0
  9
$UCSORGTOP
 10
0.0
 20
0.0
 30
0.0
  9
$UCSORGBOTTOM
 10
0.0
 20
0.0
 30
0.0
  9
$UCSORGLEFT
 10
0.0
 20
0.0
 30
0.0
  9
$UCSORGRIGHT
 10
0.0
 20
0.0
 30
0.0
  9
$UCSORGFRONT
 10
0.0
 20
0.0
 30
0.0
  9
$UCSORGBACK
 10
0.0
 20
0.0
 30
0.0
  9
$PUCSBASE
  2

  9
$PUCSNAME
  2

  9
$PUCSORG
 10
0.0
 20
0.0
 30
0.0
  9
$PUCSXDIR
 10
1.0
 20
0.0
 30
0.0
  9
$PUCSYDIR
 10
0.0
 20
1.0
 30
0.0
  9
$PUCSORTHOREF
  2

  9
$PUCSORTHOVIEW
 70
     0
  9
$PUCSORGTOP
 10
0.0
 20
0.0
 30
0.0
  9
$PUCSORGBOTTOM
 10
0.0
 20
0.0
 30
0.0
  9
$PUCSORGLEFT
 10
0.0
 20
0.0
 30
0.0
  9
$PUCSORGRIGHT
 10
0.0
 20
0.0
 30
0.0
  9
$PUCSORGFRONT
 10
0.0
 20
0.0
 30
0.0
  9
$PUCSORGBACK
 10
0.0
 20
0.0
 30
0.0
  9
$USERI1
 70
     0
  9
$USERI2
 70
     0
  9
$USERI3
 70
     0
  9
$USERI4
 70
     0
  9
$USERI5
 70
     0
  9
$USERR1
 40
16.5
  9
$USERR2
 40
0.0
  9
$USERR3
 40
0.0
  9
$USERR4
 40
0.0
  9
$USERR5
 40
0.0
  9
$WORLDVIEW
 70
     1
  9
$SHADEDGE
 70
     3
  9
$SHADEDIF
 70
    70
  9
$TILEMODE
 70
     1
  9
$MAXACTVP
 70
    64
  9
$PINSBASE
 10
0.0
 20
0.0
 30
0.0
  9
$PLIMCHECK
 70
     0
  9
$PEXTMIN
 10
1.00000000000000E+20
 20
1.00000000000000E+20
 30
1.00000000000000E+20
  9
$PEXTMAX
 10
-1.00000000000000E+20
 20
-1.00000000000000E+20
 30
-1.00000000000000E+20
  9
$PLIMMIN
 10
0.0
 20
0.0
  9
$PLIMMAX
 10
12.0
 20
9.0
  9
$UNITMODE
 70
     0
  9
$VISRETAIN
 70
     1
  9
$PLINEGEN
 70
     0
  9
$PSLTSCALE
 70
     1
  9
$TREEDEPTH
 70
  3020
  9
$CMLSTYLE
  2
Standard
  9
$CMLJUST
 70
     0
  9
$CMLSCALE
 40
1.0
  9
$PROXYGRAPHICS
 70
     1
  9
$MEASUREMENT
 70
     1
  9
$CELWEIGHT
370
    -1
  9
$ENDCAPS
280
     0
  9
$JOINSTYLE
280
     0
  9
$LWDISPLAY
290
     0
  9
$INSUNITS
 70
     1
  9
$HYPERLINKBASE
  1

  9
$STYLESHEET
  1

  9
$XEDIT
290
     1
  9
$CEPSNTYPE
380
     0
  9
$PSTYLEMODE
290
     1
  9
$FINGERPRINTGUID
  2
{92AFE57D-B139-4AC6-8E03-396AB25B6A3F}
  9
$VERSIONGUID
  2
{FAEB1C32-E019-11D5-929B-00C0DF256EC4}
  9
$EXTNAMES
290
     1
  9
$PSVPSCALE
 40
0.0
  9
$OLESTARTUP
290
     0
  0
ENDSEC
  0
SECTION
  2
CLASSES
  0
CLASS
  1
ACDBDICTIONARYWDFLT
  2
AcDbDictionaryWithDefault
  3
ObjectDBX Classes
 90
        0
280
     0
281
     0
  0
CLASS
  1
VISUALSTYLE
  2
AcDbVisualStyle
  3
ObjectDBX Classes
 90
     4095
280
     0
281
     0
  0
CLASS
  1
SCALE
  2
AcDbScale
  3
ObjectDBX Classes
 90
     1153
280
     0
281
     0
  0
CLASS
  1

  2
exOdDbPolyline
  3

 90
        0
280
     0
281
     1
  0
CLASS
  1

  2
exOdDbCircle
  3

 90
        0
280
     0
281
     1
  0
CLASS
  1

  2
exOdDbSpline
  3

 90
        0
280
     0
281
     1
  0
CLASS
  1
DICTIONARYVAR
  2
AcDbDictionaryVar
  3
ObjectDBX Classes
 90
        0
280
     0
281
     0
  0
CLASS
  1
ACDBPLACEHOLDER
  2
AcDbPlaceHolder
  3
ObjectDBX Classes
 90
        0
280
     0
281
     0
  0
CLASS
  1
LAYOUT
  2
AcDbLayout
  3
ObjectDBX Classes
 90
        0
280
     0
281
     0
  0
ENDSEC
  0
SECTION
  2
TABLES
  0
TABLE
  2
VPORT
  5
8
330
0
100
AcDbSymbolTable
 70
     1
  0
VPORT
  5
29
330
8
100
AcDbSymbolTableRecord
100
AcDbViewportTableRecord
  2
*Active
 70
     0
 10
0.0
 20
0.0
 11
1.0
 21
1.0
 12
130.7117915035491
 22
111.84747048906
 13
0.0
 23
0.0
 14
0.5
 24
0.5
 15
0.5
 25
0.5
 16
0.0
 26
0.0
 36
1.0
 17
0.0
 27
0.0
 37
0.0
 40
177.7246306843941
 41
1.60267857142857
 42
50.0
 43
0.0
 44
0.0
 50
0.0
 51
0.0
 71
     0
 72
   100
 73
     1
 74
     3
 75
     0
 76
     0
 77
     0
 78
     0
281
     0
 65
     1
110
0.0
120
0.0
130
0.0
111
1.0
121
0.0
131
0.0
112
0.0
122
1.0
132
0.0
 79
     0
146
0.0
  0
ENDTAB
  0
TABLE
  2
LTYPE
  5
5
330
0
100
AcDbSymbolTable
 70
     8
  0
LTYPE
  5
14
330
5
100
AcDbSymbolTableRecord
100
AcDbLinetypeTableRecord
  2
ByBlock
 70
     0
  3

 72
    65
 73
     0
 40
0.0
  0
LTYPE
  5
15
330
5
100
AcDbSymbolTableRecord
100
AcDbLinetypeTableRecord
  2
ByLayer
 70
     0
  3

 72
    65
 73
     0
 40
0.0
  0
LTYPE
  5
16
330
5
100
AcDbSymbolTableRecord
100
AcDbLinetypeTableRecord
  2
Continuous
 70
     0
  3
Solid line
 72
    65
 73
     0
 40
0.0
  0
LTYPE
  5
3B
330
5
100
AcDbSymbolTableRecord
100
AcDbLinetypeTableRecord
  2
DASHED
 70
     0
  3
Dashed
 72
    65
 73
     2
 40
15.0
 49
7.0
 74
     0
 49
-8.0
 74
     0
  0
LTYPE
  5
3C
330
5
100
AcDbSymbolTableRecord
100
AcDbLinetypeTableRecord
  2
DOTTED
 70
     0
  3
Dotted
 72
    65
 73
     2
 40
1.0
 49
0.0
 74
     0
 49
-1.0
 74
     0
  0
LTYPE
  5
3D
330
5
100
AcDbSymbolTableRecord
100
AcDbLinetypeTableRecord
  2
DOT_CENTER
 70
     0
  3
Dot_Center
 72
    65
 73
     4
 40
14.0
 49
12.0
 74
     0
 49
-1.0
 74
     0
 49
0.0
 74
     0
 49
-1.0
 74
     0
  0
LTYPE
  5
3E
330
5
100
AcDbSymbolTableRecord
100
AcDbLinetypeTableRecord
  2
LONG_DASHED
 70
     0
  3
Long_Dashed
 72
    65
 73
     2
 40
15.0
 49
10.0
 74
     0
 49
-5.0
 74
     0
  0
LTYPE
  5
3F
330
5
100
AcDbSymbolTableRecord
100
AcDbLinetypeTableRecord
  2
DASH_CENTER
 70
     0
  3
Dash_Center
 72
    65
 73
     4
 40
14.0
 49
11.0
 74
     0
 49
-1.0
 74
     0
 49
1.0
 74
     0
 49
-1.0
 74
     0
  0
LTYPE
  5
40
330
5
100
AcDbSymbolTableRecord
100
AcDbLinetypeTableRecord
  2
PHANTOM
 70
     0
  3
Phantom
 72
    65
 73
     6
 40
13.0
 49
10.0
 74
     0
 49
-1.0
 74
     0
 49
0.0
 74
     0
 49
-1.0
 74
     0
 49
0.0
 74
     0
 49
-1.0
 74
     0
  0
LTYPE
  5
41
330
5
100
AcDbSymbolTableRecord
100
AcDbLinetypeTableRecord
  2
CENTER_DASH_DASH
 70
     0
  3
Center_Dash_Dash
 72
    65
 73
     6
 40
14.0
 49
9.0
 74
     0
 49
-1.0
 74
     0
 49
1.0
 74
     0
 49
-1.0
 74
     0
 49
1.0
 74
     0
 49
-1.0
 74
     0
  0
ENDTAB
  0
TABLE
  2
LAYER
  5
2
330
0
100
AcDbSymbolTable
 70
     7
  0
LAYER
  5
10
330
2
100
AcDbSymbolTableRecord
100
AcDbLayerTableRecord
  2
0
 70
     0
 62
     7
  6
Continuous
370
    -3
390
F
  0
LAYER
  5
42
330
2
100
AcDbSymbolTableRecord
100
AcDbLayerTableRecord
  2
1
 70
     0
 62
     7
  6
Continuous
370
    -3
390
F
  0
LAYER
  5
43
330
2
100
AcDbSymbolTableRecord
100
AcDbLayerTableRecord
  2
BEZUGSACHSEN
 70
     0
 62
     7
  6
Continuous
370
    -3
390
F
  0
LAYER
  5
44
330
2
100
AcDbSymbolTableRecord
100
AcDbLayerTableRecord
  2
BG_STARTBEZUEGE
 70
     0
 62
     7
  6
Continuous
370
    -3
390
F
  0
LAYER
  5
45
330
2
100
AcDbSymbolTableRecord
100
AcDbLayerTableRecord
  2
DEFAULT_2
 70
     0
 62
     7
  6
Continuous
370
    -3
390
F
  0
LAYER
  5
46
330
2
100
AcDbSymbolTableRecord
100
AcDbLayerTableRecord
  2
FASEN
 70
     0
 62
     7
  6
Continuous
370
    -3
390
F
  0
LAYER
  5
47
330
2
100
AcDbSymbolTableRecord
100
AcDbLayerTableRecord
  2
RUNDUNGEN
 70
     0
 62
     7
  6
Continuous
370
    -3
390
F
  0
ENDTAB
  0
TABLE
  2
STYLE
  5
3
330
0
100
AcDbSymbolTable
 70
     2
  0
STYLE
  5
11
330
3
100
AcDbSymbolTableRecord
100
AcDbTextStyleTableRecord
  2
Standard
 70
     0
 40
0.0
 41
1.0
 50
0.0
 71
     0
 42
0.2
  3
txt
  4

  0
STYLE
  5
6E
330
3
100
AcDbSymbolTableRecord
100
AcDbTextStyleTableRecord
  2
CONVERTER_11
 70
     0
 40
0.0
 41
0.72
 50
0.0
 71
     0
 42
0.2
  3
txt.shx
  4

  0
ENDTAB
  0
TABLE
  2
VIEW
  5
6
330
0
100
AcDbSymbolTable
 70
     0
  0
ENDTAB
  0
TABLE
  2
UCS
  5
7
330
0
100
AcDbSymbolTable
 70
     0
  0
ENDTAB
  0
TABLE
  2
APPID
  5
9
330
0
100
AcDbSymbolTable
 70
     1
  0
APPID
  5
12
330
9
100
AcDbSymbolTableRecord
100
AcDbRegAppTableRecord
  2
ACAD
 70
     0
  0
ENDTAB
  0
TABLE
  2
DIMSTYLE
  5
A
330
0
100
AcDbSymbolTable
 70
     7
100
AcDbDimStyleTable
  0
DIMSTYLE
105
27
330
A
100
AcDbSymbolTableRecord
100
AcDbDimStyleTableRecord
  2
Standard
 70
     0
340
11
  0
DIMSTYLE
105
14B
102
{ACAD_REACTORS
330
14C
102
}
330
A
100
AcDbSymbolTableRecord
100
AcDbDimStyleTableRecord
  2
ME10_DIM_10
 70
     0
  3
ER<>
 41
3.5
 42
2.0
 44
2.0
 71
     1
 73
     0
 74
     0
 77
     1
 78
     8
140
3.5
146
0.7
147
2.0
172
     1
173
     1
176
     2
177
     2
178
     3
271
     2
272
     0
340
6E
  0
DIMSTYLE
105
156
102
{ACAD_REACTORS
330
157
102
}
330
A
100
AcDbSymbolTableRecord
100
AcDbDimStyleTableRecord
  2
ME10_DIM_11
 70
     0
  3
\U+2300<>
 41
3.5
 42
2.0
 44
2.0
 71
     1
 73
     0
 74
     0
 77
     1
 78
     8
140
3.5
146
0.7
147
2.0
172
     1
173
     1
176
     2
177
     2
178
     3
271
     2
272
     0
340
6E
  0
DIMSTYLE
105
161
102
{ACAD_REACTORS
330
162
102
}
330
A
100
AcDbSymbolTableRecord
100
AcDbDimStyleTableRecord
  2
ME10_DIM_12
 70
     0
  3
<>
 41
3.5
 42
2.0
 44
2.0
 71
     1
 73
     0
 74
     0
 77
     1
 78
     8
140
3.5
146
0.7
147
2.0
172
     1
173
     1
176
     2
177
     2
178
     3
271
     2
272
     0
340
6E
  0
DIMSTYLE
105
16C
102
{ACAD_REACTORS
330
16D
102
}
330
A
100
AcDbSymbolTableRecord
100
AcDbDimStyleTableRecord
  2
ME10_DIM_13
 70
     0
  3
<>
 41
3.5
 42
2.0
 44
2.0
 71
     1
 73
     0
 74
     0
 77
     1
 78
     8
140
3.5
146
0.7
147
2.0
172
     1
173
     1
176
     2
177
     2
178
     3
271
     2
272
     0
340
6E
  0
DIMSTYLE
105
177
102
{ACAD_REACTORS
330
178
102
}
330
A
100
AcDbSymbolTableRecord
100
AcDbDimStyleTableRecord
  2
ME10_DIM_14
 70
     0
  3
<>
 41
3.5
 42
2.0
 44
2.0
 71
     1
 73
     0
 74
     0
 77
     1
 78
     8
140
3.5
146
0.7
147
2.0
172
     1
173
     1
176
     2
177
     2
178
     3
271
     2
272
     0
340
6E
  0
DIMSTYLE
105
182
102
{ACAD_REACTORS
330
183
102
}
330
A
100
AcDbSymbolTableRecord
100
AcDbDimStyleTableRecord
  2
ME10_DIM_15
 70
     0
  3
<>
 41
3.5
 42
2.0
 44
2.0
 71
     1
 73
     0
 74
     0
 77
     1
 78
     8
140
3.5
146
0.7
147
2.0
172
     1
173
     1
176
     2
177
     2
178
     3
271
     2
272
     0
340
6E
  0
ENDTAB
  0
TABLE
  2
BLOCK_RECORD
  5
1
330
0
100
AcDbSymbolTable
 70
     9
  0
BLOCK_RECORD
  5
1F
330
1
100
AcDbSymbolTableRecord
100
AcDbBlockTableRecord
  2
*Model_Space
340
22
  0
BLOCK_RECORD
  5
1B
330
1
100
AcDbSymbolTableRecord
100
AcDbBlockTableRecord
  2
*Paper_Space
340
1E
  0
BLOCK_RECORD
  5
23
330
1
100
AcDbSymbolTableRecord
100
AcDbBlockTableRecord
  2
*Paper_Space0
340
26
  0
BLOCK_RECORD
  5
48
330
1
100
AcDbSymbolTableRecord
100
AcDbBlockTableRecord
  2
Urheberrecht_DE-EN
340
0
102
{BLKREFS
331
6D
102
}
  0
BLOCK_RECORD
  5
142
330
1
100
AcDbSymbolTableRecord
100
AcDbBlockTableRecord
  2
*D2
340
0
  0
BLOCK_RECORD
  5
14D
330
1
100
AcDbSymbolTableRecord
100
AcDbBlockTableRecord
  2
*D3
340
0
  0
BLOCK_RECORD
  5
158
330
1
100
AcDbSymbolTableRecord
100
AcDbBlockTableRecord
  2
*D4
340
0
  0
BLOCK_RECORD
  5
163
330
1
100
AcDbSymbolTableRecord
100
AcDbBlockTableRecord
  2
*D5
340
0
  0
BLOCK_RECORD
  5
16E
330
1
100
AcDbSymbolTableRecord
100
AcDbBlockTableRecord
  2
*D6
340
0
  0
BLOCK_RECORD
  5
179
330
1
100
AcDbSymbolTableRecord
100
AcDbBlockTableRecord
  2
*D7
340
0
  0
BLOCK_RECORD
  5
184
330
1
100
AcDbSymbolTableRecord
100
AcDbBlockTableRecord
  2
*D8
340
0
102
{BLKREFS
331
18A
102
}
  0
ENDTAB
  0
ENDSEC
  0
SECTION
  2
BLOCKS
  0
BLOCK
  5
20
330
1F
100
AcDbEntity
  8
0
100
AcDbBlockBegin
  2
*Model_Space
 70
     0
 10
0.0
 20
0.0
 30
0.0
  3
*Model_Space
  1

  0
ENDBLK
  5
21
330
1F
100
AcDbEntity
  8
0
100
AcDbBlockEnd
  0
BLOCK
  5
1C
330
1B
100
AcDbEntity
 67
     1
  8
0
100
AcDbBlockBegin
  2
*Paper_Space
 70
     0
 10
0.0
 20
0.0
 30
0.0
  3
*Paper_Space
  1

  0
ENDBLK
  5
1D
330
1B
100
AcDbEntity
 67
     1
  8
0
100
AcDbBlockEnd
  0
BLOCK
  5
24
330
23
100
AcDbEntity
  8
0
100
AcDbBlockBegin
  2
*Paper_Space0
 70
     0
 10
0.0
 20
0.0
 30
0.0
  3
*Paper_Space0
  1

  0
ENDBLK
  5
25
330
23
100
AcDbEntity
  8
0
100
AcDbBlockEnd
  0
BLOCK
  5
49
330
48
100
AcDbEntity
  8
0
100
AcDbBlockBegin
  2
Urheberrecht_DE-EN
 70
     0
 10
15.2411291340331
 20
111.978550458865
 30
0.0
  3
Urheberrecht_DE-EN
  1

  0
MTEXT
  5
6F
330
48
100
AcDbEntity
  8
1
 62
     1
100
AcDbMText
 10
15.2411291340331
 20
111.978550458865
 30
0.0
 40
2.0
 41
0.0
 71
     7
 72
     1
  1
We own the copyright of this document. It \Pdetermined and may neither be copied or \Pmade accessible to outsiders without our\Ppermission.
  7
CONVERTER_11
 11
0.0
 21
1.0
 31
0.0
 73
     1
 44
0.90036014405762
  0
MTEXT
  5
70
330
48
100
AcDbEntity
  8
1
 62
     1
100
AcDbMText
 10
15.2411291340331
 20
55.68916354155881
 30
0.0
 40
2.0
 41
0.0
 71
     7
 72
     1
  1
F\U+00fcr diese Unterlage behalten wir das Ur-\Pheberrecht. Sie darf nur f\U+00fcr den von uns \Pbestimmten Zweck benutzt und ohne unsere \PZustimmung weder vervielf\U+00e4ltigt noch\PDritten zug\U+00e4nglich gemacht werden.
  7
CONVERTER_11
 11
0.0
 21
1.0
 31
0.0
 73
     1
 44
0.90036014405762
  0
ENDBLK
  5
4A
330
48
100
AcDbEntity
  8
0
100
AcDbBlockEnd
  0
BLOCK
  5
149
330
142
100
AcDbEntity
  8
0
100
AcDbBlockBegin
  2
*D2
 70
     1
 10
0.0
 20
0.0
 30
0.0
  3
*D2
  1

  0
LINE
  5
143
330
142
100
AcDbEntity
  8
1
  6
Continuous
 62
     2
100
AcDbLine
 10
248.925863025028
 20
115.3617788462
 30
0.0
 11
248.925863025028
 21
75.3617788462
 31
0.0
  0
LINE
  5
144
330
142
100
AcDbEntity
  8
1
  6
Continuous
 62
     2
100
AcDbLine
 10
223.0470049376
 20
115.3617788462
 30
0.0
 11
250.925863025028
 21
115.3617788462
 31
0.0
  0
LINE
  5
145
330
142
100
AcDbEntity
  8
1
  6
Continuous
 62
     2
100
AcDbLine
 10
223.0470049376
 20
75.3617788462
 30
0.0
 11
250.925863025028
 21
75.3617788462
 31
0.0
  0
SOLID
  5
146
330
142
100
AcDbEntity
  8
1
 62
     2
100
AcDbTrace
 10
249.3866467665839
 20
111.8617788462
 30
0.0
 11
248.4650792834721
 21
111.8617788462
 31
0.0
 12
248.925863025028
 22
115.3617788462
 32
0.0
 13
248.925863025028
 23
115.3617788462
 33
0.0
  0
SOLID
  5
147
330
142
100
AcDbEntity
  8
1
 62
     2
100
AcDbTrace
 10
248.4650792834721
 20
78.8617788462
 30
0.0
 11
249.3866467665839
 21
78.8617788462
 31
0.0
 12
248.925863025028
 22
75.3617788462
 32
0.0
 13
248.925863025028
 23
75.3617788462
 33
0.0
  0
MTEXT
  5
148
330
142
100
AcDbEntity
  8
1
 62
     3
100
AcDbMText
 10
246.925863025028
 20
90.1186219933205
 30
0.0
 40
3.5
 41
0.0
 71
     7
 72
     1
  1
\C3;ER\C3;\C3;40\C2;\H2.45;\S^ ;\C3;
  7
CONVERTER_11
 11
0.0
 21
1.0
 31
0.0
 73
     1
 44
0.60024009603842
  0
ENDBLK
  5
14A
330
142
100
AcDbEntity
  8
0
100
AcDbBlockEnd
  0
BLOCK
  5
154
330
14D
100
AcDbEntity
  8
0
100
AcDbBlockBegin
  2
*D3
 70
     1
 10
0.0
 20
0.0
 30
0.0
  3
*D3
  1

  0
LINE
  5
14E
330
14D
100
AcDbEntity
  8
1
  6
Continuous
 62
     2
100
AcDbLine
 10
258.182453873065
 20
126.8617788461
 30
0.0
 11
258.182453873065
 21
63.8617788462
 31
0.0
  0
LINE
  5
14F
330
14D
100
AcDbEntity
  8
1
  6
Continuous
 62
     2
100
AcDbLine
 10
220.0470049376
 20
126.8617788461
 30
0.0
 11
260.182453873065
 21
126.8617788461
 31
0.0
  0
LINE
  5
150
330
14D
100
AcDbEntity
  8
1
  6
Continuous
 62
     2
100
AcDbLine
 10
220.0470049376
 20
63.8617788462
 30
0.0
 11
260.182453873065
 21
63.8617788462
 31
0.0
  0
SOLID
  5
151
330
14D
100
AcDbEntity
  8
1
 62
     2
100
AcDbTrace
 10
258.6432376146209
 20
123.3617788461
 30
0.0
 11
257.7216701315091
 21
123.3617788461
 31
0.0
 12
258.182453873065
 22
126.8617788461
 32
0.0
 13
258.182453873065
 23
126.8617788461
 33
0.0
  0
SOLID
  5
152
330
14D
100
AcDbEntity
  8
1
 62
     2
100
AcDbTrace
 10
257.7216701315091
 20
67.3617788462
 30
0.0
 11
258.6432376146209
 21
67.3617788462
 31
0.0
 12
258.182453873065
 22
63.8617788462
 32
0.0
 13
258.182453873065
 23
63.8617788462
 33
0.0
  0
MTEXT
  5
153
330
14D
100
AcDbEntity
  8
1
 62
     3
100
AcDbMText
 10
256.182453873065
 20
86.4096274992621
 30
0.0
 40
3.5
 41
0.0
 71
     7
 72
     1
  1
\C3;%%c\C3;\C3;63\C2;\H2.45;\S^ ;\C3;
  7
CONVERTER_11
 11
0.0
 21
1.0
 31
0.0
 73
     1
 44
0.60024009603842
  0
ENDBLK
  5
155
330
14D
100
AcDbEntity
  8
0
100
AcDbBlockEnd
  0
BLOCK
  5
15F
330
158
100
AcDbEntity
  8
0
100
AcDbBlockBegin
  2
*D4
 70
     1
 10
0.0
 20
0.0
 30
0.0
  3
*D4
  1

  0
LINE
  5
159
330
158
100
AcDbEntity
  8
1
  6
Continuous
 62
     2
100
AcDbLine
 10
221.0470049376
 20
151.750202547139
 30
0.0
 11
105.0470049376
 21
151.750202547139
 31
0.0
  0
LINE
  5
15A
330
158
100
AcDbEntity
  8
1
  6
Continuous
 62
     2
100
AcDbLine
 10
221.0470049376
 20
122.3617788462
 30
0.0
 11
221.0470049376
 21
153.750202547139
 31
0.0
  0
LINE
  5
15B
330
158
100
AcDbEntity
  8
1
  6
Continuous
 62
     2
100
AcDbLine
 10
105.0470049376
 20
147.3617419759
 30
0.0
 11
105.0470049376
 21
153.750202547139
 31
0.0
  0
SOLID
  5
15C
330
158
100
AcDbEntity
  8
1
 62
     2
100
AcDbTrace
 10
217.5470049376
 20
151.2894188055831
 30
0.0
 11
217.5470049376
 21
152.2109862886949
 31
0.0
 12
221.0470049376
 22
151.750202547139
 32
0.0
 13
221.0470049376
 23
151.750202547139
 33
0.0
  0
SOLID
  5
15D
330
158
100
AcDbEntity
  8
1
 62
     2
100
AcDbTrace
 10
108.5470049376
 20
152.2109862886949
 30
0.0
 11
108.5470049376
 21
151.2894188055831
 31
0.0
 12
105.0470049376
 22
151.750202547139
 32
0.0
 13
105.0470049376
 23
151.750202547139
 33
0.0
  0
MTEXT
  5
15E
330
158
100
AcDbEntity
  8
1
 62
     3
100
AcDbMText
 10
159.765233067271
 20
153.750202547139
 30
0.0
 40
3.5
 41
0.0
 71
     7
 72
     1
  1
\C3;\C3;\C3;116\C2;\H2.45;\S^ ;\C3;
  7
CONVERTER_11
 11
0.9999999999970619
 21
2.424068405545306E-6
 31
0.0
 73
     1
 44
0.60024009603842
  0
ENDBLK
  5
160
330
158
100
AcDbEntity
  8
0
100
AcDbBlockEnd
  0
BLOCK
  5
16A
330
163
100
AcDbEntity
  8
0
100
AcDbBlockBegin
  2
*D5
 70
     1
 10
0.0
 20
0.0
 30
0.0
  3
*D5
  1

  0
LINE
  5
164
330
163
100
AcDbEntity
  8
1
  6
Continuous
 62
     2
100
AcDbLine
 10
221.0470049376
 20
158.721181119526
 30
0.0
 11
76.0470049376
 21
158.721181119526
 31
0.0
  0
LINE
  5
165
330
163
100
AcDbEntity
  8
1
  6
Continuous
 62
     2
100
AcDbLine
 10
221.0470049376
 20
122.3617788462
 30
0.0
 11
221.0470049376
 21
160.721181119526
 31
0.0
  0
LINE
  5
166
330
163
100
AcDbEntity
  8
1
  6
Continuous
 62
     2
100
AcDbLine
 10
76.0470049376
 20
147.3617788462
 30
0.0
 11
76.0470049376
 21
160.721181119526
 31
0.0
  0
SOLID
  5
167
330
163
100
AcDbEntity
  8
1
 62
     2
100
AcDbTrace
 10
217.5470049376
 20
158.2603973779701
 30
0.0
 11
217.5470049376
 21
159.1819648610819
 31
0.0
 12
221.0470049376
 22
158.721181119526
 32
0.0
 13
221.0470049376
 23
158.721181119526
 33
0.0
  0
SOLID
  5
168
330
163
100
AcDbEntity
  8
1
 62
     2
100
AcDbTrace
 10
79.5470049376
 20
159.1819648610819
 30
0.0
 11
79.5470049376
 21
158.2603973779701
 31
0.0
 12
76.0470049376
 22
158.721181119526
 32
0.0
 13
76.0470049376
 23
158.721181119526
 33
0.0
  0
MTEXT
  5
169
330
163
100
AcDbEntity
  8
1
 62
     3
100
AcDbMText
 10
145.573299790115
 20
160.721181119526
 30
0.0
 40
3.5
 41
0.0
 71
     7
 72
     1
  1
\C3;\C3;\C3;145\C2;\H2.45;\S^ ;\C3;
  7
CONVERTER_11
 11
0.9999999999970619
 21
2.424068405545306E-6
 31
0.0
 73
     1
 44
0.60024009603842
  0
ENDBLK
  5
16B
330
163
100
AcDbEntity
  8
0
100
AcDbBlockEnd
  0
BLOCK
  5
175
330
16E
100
AcDbEntity
  8
0
100
AcDbBlockBegin
  2
*D6
 70
     1
 10
0.0
 20
0.0
 30
0.0
  3
*D6
  1

  0
LINE
  5
16F
330
16E
100
AcDbEntity
  8
1
  6
Continuous
 62
     2
100
AcDbLine
 10
221.0470049376
 20
172.83316213192
 30
0.0
 11
26.04700493759999
 21
172.83316213192
 31
0.0
  0
LINE
  5
170
330
16E
100
AcDbEntity
  8
1
  6
Continuous
 62
     2
100
AcDbLine
 10
221.0470049376
 20
122.3617788462
 30
0.0
 11
221.0470049376
 21
174.83316213192
 31
0.0
  0
LINE
  5
171
330
16E
100
AcDbEntity
  8
1
  6
Continuous
 62
     2
100
AcDbLine
 10
26.04700493759999
 20
130.9619704087
 30
0.0
 11
26.04700493759999
 21
174.83316213192
 31
0.0
  0
SOLID
  5
172
330
16E
100
AcDbEntity
  8
1
 62
     2
100
AcDbTrace
 10
217.5470049376
 20
172.3723783903641
 30
0.0
 11
217.5470049376
 21
173.2939458734759
 31
0.0
 12
221.0470049376
 22
172.83316213192
 32
0.0
 13
221.0470049376
 23
172.83316213192
 33
0.0
  0
SOLID
  5
173
330
16E
100
AcDbEntity
  8
1
 62
     2
100
AcDbTrace
 10
29.54700493759999
 20
173.2939458734759
 30
0.0
 11
29.54700493759999
 21
172.3723783903641
 31
0.0
 12
26.04700493759999
 22
172.83316213192
 32
0.0
 13
26.04700493759999
 23
172.83316213192
 33
0.0
  0
MTEXT
  5
174
330
16E
100
AcDbEntity
  8
1
 62
     3
100
AcDbMText
 10
125.680507278668
 20
174.83316213192
 30
0.0
 40
3.5
 41
0.0
 71
     7
 72
     1
  1
\C3;\C3;\C3;195\C2;\H2.45;\S^ ;\C3;
  7
CONVERTER_11
 11
0.9999999999970619
 21
2.424068405545306E-6
 31
0.0
 73
     1
 44
0.60024009603842
  0
ENDBLK
  5
176
330
16E
100
AcDbEntity
  8
0
100
AcDbBlockEnd
  0
BLOCK
  5
180
330
179
100
AcDbEntity
  8
0
100
AcDbBlockBegin
  2
*D7
 70
     1
 10
0.0
 20
0.0
 30
0.0
  3
*D7
  1

  0
LINE
  5
17A
330
179
100
AcDbEntity
  8
1
  6
Continuous
 62
     2
100
AcDbLine
 10
76.0470049376
 20
166.032207427152
 30
0.0
 11
236.0470049376
 21
166.032207427152
 31
0.0
  0
LINE
  5
17B
330
179
100
AcDbEntity
  8
1
  6
Continuous
 62
     2
100
AcDbLine
 10
76.0470049376
 20
147.3617788462
 30
0.0
 11
76.0470049376
 21
168.032207427152
 31
0.0
  0
LINE
  5
17C
330
179
100
AcDbEntity
  8
1
  6
Continuous
 62
     2
100
AcDbLine
 10
236.0470049376
 20
122.8617788462
 30
0.0
 11
236.0470049376
 21
168.032207427152
 31
0.0
  0
SOLID
  5
17D
330
179
100
AcDbEntity
  8
1
 62
     2
100
AcDbTrace
 10
79.5470049376
 20
166.4929911687079
 30
0.0
 11
79.5470049376
 21
165.5714236855961
 31
0.0
 12
76.0470049376
 22
166.032207427152
 32
0.0
 13
76.0470049376
 23
166.032207427152
 33
0.0
  0
SOLID
  5
17E
330
179
100
AcDbEntity
  8
1
 62
     2
100
AcDbTrace
 10
232.5470049376
 20
165.5714236855961
 30
0.0
 11
232.5470049376
 21
166.4929911687079
 31
0.0
 12
236.0470049376
 22
166.032207427152
 32
0.0
 13
236.0470049376
 23
166.032207427152
 33
0.0
  0
MTEXT
  5
17F
330
179
100
AcDbEntity
  8
1
 62
     3
100
AcDbMText
 10
158.665137596794
 20
168.032207427152
 30
0.0
 40
3.5
 41
0.0
 71
     7
 72
     1
  1
\C3;\C3;\C3;160\C2;\H2.45;\S^ ;\C3;
  7
CONVERTER_11
 11
0.9999999999970619
 21
2.424068405545306E-6
 31
0.0
 73
     1
 44
0.60024009603842
  0
ENDBLK
  5
181
330
179
100
AcDbEntity
  8
0
100
AcDbBlockEnd
  0
BLOCK
  5
188
330
184
100
AcDbEntity
  8
0
100
AcDbBlockBegin
  2
*D8
 70
     1
 10
0.0
 20
0.0
 30
0.0
  3
*D8
  1

  0
LINE
  5
185
330
184
100
AcDbEntity
  8
1
  6
Continuous
 62
     2
100
AcDbLine
 10
116.3299575275099
 20
137.4202121666678
 30
0.0
 11
105.6542840072711
 21
131.6158896418314
 31
0.0
  0
SOLID
  5
186
330
184
100
AcDbEntity
  8
1
 62
     2
100
AcDbTrace
 10
108.5090901960374
 20
133.6925223202471
 30
0.0
 11
108.9492871209065
 21
132.8828845658997
 31
0.0
 12
105.6542840072711
 22
131.6158896418314
 32
0.0
 13
105.6542840072711
 23
131.6158896418314
 33
0.0
  0
MTEXT
  5
187
330
184
100
AcDbEntity
  8
1
 62
     3
100
AcDbMText
 10
108.8558374948258
 20
135.6330552801495
 30
0.0
 40
3.5
 41
0.0
 71
     7
 72
     1
  1
\C3; R\C3;\C3;5\C2;\H2.45;\S^ ;\C3;
  7
CONVERTER_11
 11
0.878544186057392
 21
0.4776610860691444
 31
0.0
 73
     1
 44
0.60024009603842
  0
ENDBLK
  5
189
330
184
100
AcDbEntity
  8
0
100
AcDbBlockEnd
  0
ENDSEC
  0
SECTION
  2
ENTITIES
  0
INSERT
  5
6D
330
1F
100
AcDbEntity
  8
0
100
AcDbBlockReference
  2
Urheberrecht_DE-EN
 10
15.2411291340331
 20
111.978550458865
 30
0.0
  0
LINE
  5
71
330
1F
100
AcDbEntity
  8
BEZUGSACHSEN
  6
Continuous
 62
     7
100
AcDbLine
 10
26.0470049376
 20
61.7615872832
 30
0.0
 11
26.0470049376
 21
83.3517788462
 31
0.0
  0
LINE
  5
72
330
1F
100
AcDbEntity
  8
BEZUGSACHSEN
  6
Continuous
 62
     7
100
AcDbLine
 10
26.0470049376
 20
107.3717788462
 30
0.0
 11
26.0470049376
 21
128.9619704087
 31
0.0
  0
LINE
  5
73
330
1F
100
AcDbEntity
  8
BEZUGSACHSEN
  6
Continuous
 62
     9
100
AcDbLine
 10
27.9469304529
 20
130.9594651145
 30
0.0
 11
27.9469304529
 21
111.0383112324
 31
0.0
  0
LINE
  5
74
330
1F
100
AcDbEntity
  8
BEZUGSACHSEN
  6
Continuous
 62
     9
100
AcDbLine
 10
27.9469304529
 20
79.6852464599
 30
0.0
 11
27.9469304529
 21
59.7640925778
 31
0.0
  0
LINE
  5
75
330
1F
100
AcDbEntity
  8
BEZUGSACHSEN
  6
Continuous
 62
     7
100
AcDbLine
 10
28.0470049376
 20
82.9581388978
 30
0.0
 11
28.0470049376
 21
85.3517788462
 31
0.0
  0
LINE
  5
76
330
1F
100
AcDbEntity
  8
BEZUGSACHSEN
  6
Continuous
 62
     7
100
AcDbLine
 10
28.0470049376
 20
105.3717788462
 30
0.0
 11
28.0470049376
 21
107.7654187945
 31
0.0
  0
LINE
  5
77
330
1F
100
AcDbEntity
  8
BEZUGSACHSEN
  6
Continuous
 62
     9
100
AcDbLine
 10
34.0470049376
 20
79.0031312587
 30
0.0
 11
34.0470049376
 21
85.3517788462
 31
0.0
  0
LINE
  5
78
330
1F
100
AcDbEntity
  8
BEZUGSACHSEN
  6
Continuous
 62
     9
100
AcDbLine
 10
34.0470049376
 20
105.3717788462
 30
0.0
 11
34.0470049376
 21
111.7204264336
 31
0.0
  0
LINE
  5
79
330
1F
100
AcDbEntity
  8
BEZUGSACHSEN
  6
Continuous
 62
     7
100
AcDbLine
 10
36.0470049376
 20
108.2314343719
 30
0.0
 11
36.0470049376
 21
82.4921233204
 31
0.0
  0
LINE
  5
7A
330
1F
100
AcDbEntity
  8
BEZUGSACHSEN
  6
Continuous
 62
     7
100
AcDbLine
 10
27.3139578646
 20
80.3517788462
 30
0.0
 11
27.1928476132
 21
80.1194428507
 31
0.0
  0
LINE
  5
7B
330
1F
100
AcDbEntity
  8
BEZUGSACHSEN
  6
Continuous
 62
     7
100
AcDbLine
 10
27.1928476132
 20
110.6041148416
 30
0.0
 11
27.3139578646
 21
110.3717788462
 31
0.0
  0
LWPOLYLINE
  5
7C
330
1F
100
AcDbEntity
  8
BEZUGSACHSEN
  6
DOT_CENTER
 62
     7
100
AcDbPolyline
 90
        2
 70
     0
 43
0.25
 10
61.0470049376
 20
86.3617788462
 10
61.0470049376
 20
104.3617788462
  0
LINE
  5
7D
330
1F
100
AcDbEntity
  8
BEZUGSACHSEN
  6
Continuous
 62
     7
100
AcDbLine
 10
26.0470049376
 20
83.3517788462
 30
0.0
 11
28.0470049376
 21
85.3517788462
 31
0.0
  0
LINE
  5
7E
330
1F
100
AcDbEntity
  8
BEZUGSACHSEN
  6
Continuous
 62
     7
100
AcDbLine
 10
28.0470049376
 20
105.3717788462
 30
0.0
 11
26.0470049376
 21
107.3717788462
 31
0.0
  0
LINE
  5
7F
330
1F
100
AcDbEntity
  8
BEZUGSACHSEN
  6
Continuous
 62
     7
100
AcDbLine
 10
73.5470049376
 20
133.2440288462
 30
0.0
 11
73.5470049376
 21
57.4795288462
 31
0.0
  0
LINE
  5
80
330
1F
100
AcDbEntity
  8
BEZUGSACHSEN
  6
Continuous
 62
     9
100
AcDbLine
 10
74.1662485516
 20
57.6454546724
 30
0.0
 11
74.1662485516
 21
133.0781030199
 31
0.0
  0
LINE
  5
81
330
1F
100
AcDbEntity
  8
BEZUGSACHSEN
  6
Continuous
 62
     9
100
AcDbLine
 10
74.4250675967
 20
57.6795288462
 30
0.0
 11
74.4250675967
 21
133.0440288462
 31
0.0
  0
LINE
  5
82
330
1F
100
AcDbEntity
  8
BEZUGSACHSEN
  6
Continuous
 62
     9
100
AcDbLine
 10
75.3464336489
 20
57.6795288462
 30
0.0
 11
75.3464336489
 21
133.0440288462
 31
0.0
  0
LINE
  5
83
330
1F
100
AcDbEntity
  8
BEZUGSACHSEN
  6
Continuous
 62
     7
100
AcDbLine
 10
76.0470049376
 20
145.3617788462
 30
0.0
 11
76.0470049376
 21
45.3617788462
 31
0.0
  0
LWPOLYLINE
  5
84
330
1F
100
AcDbEntity
  8
BEZUGSACHSEN
  6
DOT_CENTER
 62
     7
100
AcDbPolyline
 90
        2
 70
     0
 43
0.25
 10
83.0470049376
 20
137.5111507015
 10
83.0470049376
 20
148.3617788462
  0
LINE
  5
85
330
1F
100
AcDbEntity
  8
BEZUGSACHSEN
  6
Continuous
 62
     7
100
AcDbLine
 10
97.9220049376
 20
142.9843741103
 30
0.0
 11
99.2946002018
 21
145.3617788462
 31
0.0
  0
LINE
  5
86
330
1F
100
AcDbEntity
  8
BEZUGSACHSEN
  6
Continuous
 62
     7
100
AcDbLine
 10
92.7994096734
 20
45.3617788462
 30
0.0
 11
76.0470049376
 21
45.3617788462
 31
0.0
  0
LINE
  5
87
330
1F
100
AcDbEntity
  8
BEZUGSACHSEN
  6
Continuous
 62
     7
100
AcDbLine
 10
99.2946002018
 20
45.3617788462
 30
0.0
 11
105.0470049376
 21
45.3617788462
 31
0.0
  0
LINE
  5
88
330
1F
100
AcDbEntity
  8
BEZUGSACHSEN
  6
Continuous
 62
     7
100
AcDbLine
 10
95.1720049376
 20
49.3617788462
 30
0.0
 11
96.9220049376
 21
49.3617788462
 31
0.0
  0
LINE
  5
89
330
1F
100
AcDbEntity
  8
BEZUGSACHSEN
  6
Continuous
 62
     7
100
AcDbLine
 10
97.9220049376
 20
47.739183582
 30
0.0
 11
99.2946002018
 21
45.3617788462
 31
0.0
  0
LINE
  5
8A
330
1F
100
AcDbEntity
  8
FASEN
  6
Continuous
 62
     9
100
AcDbLine
 10
88.9800711929
 20
63.6117788462
 30
0.0
 11
88.9800711929
 21
64.0117788462
 31
0.0
  0
LINE
  5
8B
330
1F
100
AcDbEntity
  8
FASEN
  6
Continuous
 62
     9
100
AcDbLine
 10
91.0180049376
 20
105.3827788462
 30
0.0
 11
91.0180049376
 21
104.9827788462
 31
0.0
  0
LINE
  5
8C
330
1F
100
AcDbEntity
  8
FASEN
  6
Continuous
 62
     9
100
AcDbLine
 10
91.0180049376
 20
85.3407788462
 30
0.0
 11
91.0180049376
 21
85.7407788462
 31
0.0
  0
LINE
  5
8D
330
1F
100
AcDbEntity
  8
0
  6
Continuous
 62
     7
100
AcDbLine
 10
92.7994096734
 20
145.3617788462
 30
0.0
 11
92.7994096734
 21
105.3827788462
 31
0.0
  0
LINE
  5
8E
330
1F
100
AcDbEntity
  8
0
  6
Continuous
 62
     7
100
AcDbLine
 10
92.7994096734
 20
85.3407788462
 30
0.0
 11
92.7994096734
 21
64.0117788462
 31
0.0
  0
LINE
  5
8F
330
1F
100
AcDbEntity
  8
0
  6
Continuous
 62
     7
100
AcDbLine
 10
92.7994096734
 20
56.4108160853
 30
0.0
 11
92.7994096734
 21
45.3617788462
 31
0.0
  0
LINE
  5
90
330
1F
100
AcDbEntity
  8
FASEN
  6
Continuous
 62
     7
100
AcDbLine
 10
81.3905541278
 20
56.4108160853
 30
0.0
 11
92.7994096734
 21
56.4108160853
 31
0.0
  0
LINE
  5
91
330
1F
100
AcDbEntity
  8
FASEN
  6
Continuous
 62
     7
100
AcDbLine
 10
99.2946002018
 20
56.4108160853
 30
0.0
 11
104.5970049376
 21
56.4108160853
 31
0.0
  0
LINE
  5
92
330
1F
100
AcDbEntity
  8
BEZUGSACHSEN
  6
Continuous
 62
     7
100
AcDbLine
 10
73.5470049376
 20
57.4795288462
 30
0.0
 11
27.9469304529
 21
59.7640925778
 31
0.0
  0
LINE
  5
93
330
1F
100
AcDbEntity
  8
0
  6
Continuous
 62
     7
100
AcDbLine
 10
94.1720049376
 20
142.9843407343
 30
0.0
 11
94.1720049376
 21
105.3827788462
 31
0.0
  0
LINE
  5
94
330
1F
100
AcDbEntity
  8
0
  6
Continuous
 62
     7
100
AcDbLine
 10
94.1720049376
 20
85.3407788462
 30
0.0
 11
94.1720049376
 21
64.0117788462
 31
0.0
  0
LINE
  5
95
330
1F
100
AcDbEntity
  8
0
  6
Continuous
 62
     7
100
AcDbLine
 10
94.1720049376
 20
47.7392198501
 30
0.0
 11
94.1720049376
 21
60.3449614579
 31
0.0
  0
LINE
  5
96
330
1F
100
AcDbEntity
  8
0
  6
Continuous
 62
     9
100
AcDbLine
 10
95.1720049376
 20
49.3617788462
 30
0.0
 11
95.1720049376
 21
61.6990769344
 31
0.0
  0
LINE
  5
97
330
1F
100
AcDbEntity
  8
0
  6
Continuous
 62
     9
100
AcDbLine
 10
95.1720049376
 20
64.0117788462
 30
0.0
 11
95.1720049376
 21
85.3407788462
 31
0.0
  0
LINE
  5
98
330
1F
100
AcDbEntity
  8
0
  6
Continuous
 62
     9
100
AcDbLine
 10
95.1720049376
 20
105.3827788462
 30
0.0
 11
95.1720049376
 21
141.3617788462
 31
0.0
  0
LINE
  5
99
330
1F
100
AcDbEntity
  8
0
  6
Continuous
 62
     9
100
AcDbLine
 10
96.9220049376
 20
49.3617788462
 30
0.0
 11
96.9220049376
 21
61.6990769344
 31
0.0
  0
LINE
  5
9A
330
1F
100
AcDbEntity
  8
0
  6
Continuous
 62
     9
100
AcDbLine
 10
96.9220049376
 20
64.0117788462
 30
0.0
 11
96.9220049376
 21
85.3407788462
 31
0.0
  0
LINE
  5
9B
330
1F
100
AcDbEntity
  8
0
  6
Continuous
 62
     9
100
AcDbLine
 10
96.9220049376
 20
105.3827788462
 30
0.0
 11
96.9220049376
 21
141.3617788462
 31
0.0
  0
LINE
  5
9C
330
1F
100
AcDbEntity
  8
0
  6
Continuous
 62
     7
100
AcDbLine
 10
97.9220049376
 20
47.7392198501
 30
0.0
 11
97.9220049376
 21
60.3449614579
 31
0.0
  0
LINE
  5
9D
330
1F
100
AcDbEntity
  8
0
  6
Continuous
 62
     7
100
AcDbLine
 10
97.9220049376
 20
64.0117788462
 30
0.0
 11
97.9220049376
 21
85.3407788462
 31
0.0
  0
LINE
  5
9E
330
1F
100
AcDbEntity
  8
0
  6
Continuous
 62
     7
100
AcDbLine
 10
97.9220049376
 20
105.3827788462
 30
0.0
 11
97.9220049376
 21
142.9843407343
 31
0.0
  0
LINE
  5
9F
330
1F
100
AcDbEntity
  8
0
  6
Continuous
 62
     7
100
AcDbLine
 10
99.2946002018
 20
145.3617788462
 30
0.0
 11
99.2946002018
 21
105.3827788462
 31
0.0
  0
LINE
  5
A0
330
1F
100
AcDbEntity
  8
0
  6
Continuous
 62
     7
100
AcDbLine
 10
99.2946002018
 20
85.3407788462
 30
0.0
 11
99.2946002018
 21
64.0117788462
 31
0.0
  0
LINE
  5
A1
330
1F
100
AcDbEntity
  8
0
  6
Continuous
 62
     7
100
AcDbLine
 10
99.2946002018
 20
56.4108160853
 30
0.0
 11
99.2946002018
 21
45.3617788462
 31
0.0
  0
LINE
  5
A2
330
1F
100
AcDbEntity
  8
BEZUGSACHSEN
  6
Continuous
 62
     9
100
AcDbLine
 10
26.0470049376
 20
81.9155948771
 30
0.0
 11
28.0470049376
 21
82.9581388978
 31
0.0
  0
LINE
  5
A3
330
1F
100
AcDbEntity
  8
BEZUGSACHSEN
  6
Continuous
 62
     7
100
AcDbLine
 10
75.3464336489
 20
57.6795288462
 30
0.0
 11
74.4250675967
 21
57.6795288462
 31
0.0
  0
LINE
  5
A4
330
1F
100
AcDbEntity
  8
0
  6
Continuous
 62
     7
100
AcDbLine
 10
95.1720049376
 20
61.6990769344
 30
0.0
 11
96.9220049376
 21
61.6990769344
 31
0.0
  0
LINE
  5
A5
330
1F
100
AcDbEntity
  8
FASEN
  6
Continuous
 62
     7
100
AcDbLine
 10
88.9800711929
 20
63.6117788462
 30
0.0
 11
104.5970049376
 21
63.6117788462
 31
0.0
  0
LINE
  5
A6
330
1F
100
AcDbEntity
  8
BEZUGSACHSEN
  6
Continuous
 62
     7
100
AcDbLine
 10
211.7970049376
 20
63.8617788462
 30
0.0
 11
218.0470049376
 21
63.8617788462
 31
0.0
  0
LINE
  5
A7
330
1F
100
AcDbEntity
  8
0
  6
Continuous
 62
     7
100
AcDbLine
 10
88.9800711929
 20
64.0117788462
 30
0.0
 11
104.9970049376
 21
64.0117788462
 31
0.0
  0
LINE
  5
A8
330
1F
100
AcDbEntity
  8
FASEN
  6
Continuous
 62
     7
100
AcDbLine
 10
218.288552276
 20
64.1133261846
 30
0.0
 11
231.861215486
 21
64.1133261846
 31
0.0
  0
LINE
  5
A9
330
1F
100
AcDbEntity
  8
0
  6
Continuous
 62
     7
100
AcDbLine
 10
160.0470049376
 20
65.3617788462
 30
0.0
 11
192.8043642505
 21
65.3617788462
 31
0.0
  0
LINE
  5
AA
330
1F
100
AcDbEntity
  8
BEZUGSACHSEN
  6
Continuous
 62
     9
100
AcDbLine
 10
28.0470049376
 20
107.7654187945
 30
0.0
 11
26.0470049376
 21
108.8079628152
 31
0.0
  0
LINE
  5
AB
330
1F
100
AcDbEntity
  8
FASEN
  6
Continuous
 62
     7
100
AcDbLine
 10
104.5970049376
 20
63.6117788462
 30
0.0
 11
104.5970049376
 21
56.4108160853
 31
0.0
  0
LINE
  5
AC
330
1F
100
AcDbEntity
  8
FASEN
  6
Continuous
 62
     7
100
AcDbLine
 10
104.9970049376
 20
64.0117788462
 30
0.0
 11
104.9970049376
 21
56.7361720548
 31
0.0
  0
LINE
  5
AD
330
1F
100
AcDbEntity
  8
0
  6
Continuous
 62
     7
100
AcDbLine
 10
105.0470049376
 20
145.3617419759
 30
0.0
 11
105.0470049376
 21
105.3827788462
 31
0.0
  0
LINE
  5
AE
330
1F
100
AcDbEntity
  8
0
  6
Continuous
 62
     7
100
AcDbLine
 10
105.0470049376
 20
85.3407788462
 30
0.0
 11
105.0470049376
 21
45.3618158416
 31
0.0
  0
LINE
  5
AF
330
1F
100
AcDbEntity
  8
FASEN
  6
Continuous
 62
     7
100
AcDbLine
 10
105.0470049376
 20
85.3407788462
 30
0.0
 11
105.0470049376
 21
105.3827788462
 31
0.0
  0
LINE
  5
B0
330
1F
100
AcDbEntity
  8
0
  6
Continuous
 62
     7
100
AcDbLine
 10
234.0583127624
 20
66.6117788462
 30
0.0
 11
234.1706165628
 21
66.6117788462
 31
0.0
  0
LINE
  5
B1
330
1F
100
AcDbEntity
  8
RUNDUNGEN
  6
Continuous
 62
     7
100
AcDbLine
 10
210.5470049376
 20
70.3617788462
 30
0.0
 11
199.4612185
 21
70.3617788462
 31
0.0
  0
LINE
  5
B2
330
1F
100
AcDbEntity
  8
0
  6
Continuous
 62
     7
100
AcDbLine
 10
199.4612185
 20
70.3617788462
 30
0.0
 11
210.5470049376
 21
70.3617788462
 31
0.0
  0
LWPOLYLINE
  5
B3
330
1F
100
AcDbEntity
  8
DEFAULT_2
  6
DASHED
 62
     8
100
AcDbPolyline
 90
        2
 70
     0
 43
0.35
 10
210.5470049376
 20
70.3617788462
 10
221.0470049376
 20
70.3617788462
  0
LINE
  5
B4
330
1F
100
AcDbEntity
  8
RUNDUNGEN
  6
Continuous
 62
     9
100
AcDbLine
 10
109.3223672565
 20
129.0569837131
 30
0.0
 11
109.3223672565
 21
61.6665739792
 31
0.0
  0
LINE
  5
B5
330
1F
100
AcDbEntity
  8
BEZUGSACHSEN
  6
Continuous
 62
     7
100
AcDbLine
 10
74.1662485516
 20
57.6454546724
 30
0.0
 11
73.5470049376
 21
57.4795288462
 31
0.0
  0
LINE
  5
B6
330
1F
100
AcDbEntity
  8
FASEN
  6
Continuous
 62
     7
100
AcDbLine
 10
218.288552276
 20
76.2968905599
 30
0.0
 11
231.861215486
 21
76.2968905599
 31
0.0
  0
LINE
  5
B7
330
1F
100
AcDbEntity
  8
RUNDUNGEN
  6
Continuous
 62
     7
100
AcDbLine
 10
234.0583127624
 20
78.0855937435
 30
0.0
 11
221.905381556
 21
78.0855937435
 31
0.0
  0
LWPOLYLINE
  5
B8
330
1F
100
AcDbEntity
  8
DEFAULT_2
  6
DASHED
 62
     8
100
AcDbPolyline
 90
        2
 70
     0
 43
0.35
 10
187.2489987563
 20
80.1117788462
 10
183.0470049376
 20
80.1117788462
  0
LINE
  5
B9
330
1F
100
AcDbEntity
  8
BEZUGSACHSEN
  6
Continuous
 62
     9
100
AcDbLine
 10
35.6008508845
 20
80.3517788462
 30
0.0
 11
27.3139578646
 21
80.3517788462
 31
0.0
  0
LINE
  5
BA
330
1F
100
AcDbEntity
  8
BEZUGSACHSEN
  6
Continuous
 62
     7
100
AcDbLine
 10
92.7994096734
 20
45.3617788462
 30
0.0
 11
94.1720049376
 21
47.739183582
 31
0.0
  0
LINE
  5
BB
330
1F
100
AcDbEntity
  8
FASEN
  6
Continuous
 62
     7
100
AcDbLine
 10
218.288552276
 20
83.1782144708
 30
0.0
 11
231.861215486
 21
83.1782144708
 31
0.0
  0
LINE
  5
BC
330
1F
100
AcDbEntity
  8
0
  6
Continuous
 62
     7
100
AcDbLine
 10
91.0180049376
 20
85.3407788462
 30
0.0
 11
105.0470049376
 21
85.3407788462
 31
0.0
  0
LINE
  5
BD
330
1F
100
AcDbEntity
  8
BEZUGSACHSEN
  6
Continuous
 62
     7
100
AcDbLine
 10
34.0470049376
 20
85.3517788462
 30
0.0
 11
28.0470049376
 21
85.3517788462
 31
0.0
  0
LINE
  5
BE
330
1F
100
AcDbEntity
  8
FASEN
  6
Continuous
 62
     7
100
AcDbLine
 10
91.0180049376
 20
85.7407788462
 30
0.0
 11
105.0470049376
 21
85.7407788462
 31
0.0
  0
LWPOLYLINE
  5
BF
330
1F
100
AcDbEntity
  8
DEFAULT_2
  6
DASHED
 62
     8
100
AcDbPolyline
 90
        2
 70
     0
 43
0.35
 10
221.0470049376
 20
75.3617788462
 10
187.2489987563
 20
80.1117788462
  0
LINE
  5
C0
330
1F
100
AcDbEntity
  8
BEZUGSACHSEN
  6
Continuous
 62
     7
100
AcDbLine
 10
92.7994096734
 20
145.3617788462
 30
0.0
 11
94.1720049376
 21
142.9843741103
 31
0.0
  0
LWPOLYLINE
  5
C1
330
1F
100
AcDbEntity
  8
BG_STARTBEZUEGE
  6
DOT_CENTER
 62
     7
100
AcDbPolyline
 90
        2
 70
     0
 43
0.25
 10
239.0470049376
 20
95.3617788462
 10
23.0470049376
 20
95.3617788462
  0
LINE
  5
C2
330
1F
100
AcDbEntity
  8
FASEN
  6
Continuous
 62
     7
100
AcDbLine
 10
104.9970049376
 20
64.0117788462
 30
0.0
 11
104.5970049376
 21
63.6117788462
 31
0.0
  0
LWPOLYLINE
  5
C3
330
1F
100
AcDbEntity
  8
DEFAULT_2
  6
DASHED
 62
     8
100
AcDbPolyline
 90
        2
 70
     0
 43
0.35
 10
221.0470049376
 20
115.3617788462
 10
187.2489987563
 20
110.6117788462
  0
LINE
  5
C4
330
1F
100
AcDbEntity
  8
FASEN
  6
Continuous
 62
     7
100
AcDbLine
 10
105.0470049376
 20
104.9827788462
 30
0.0
 11
91.0180049376
 21
104.9827788462
 31
0.0
  0
LINE
  5
C5
330
1F
100
AcDbEntity
  8
BEZUGSACHSEN
  6
Continuous
 62
     7
100
AcDbLine
 10
34.0470049376
 20
105.3717788462
 30
0.0
 11
28.0470049376
 21
105.3717788462
 31
0.0
  0
LINE
  5
C6
330
1F
100
AcDbEntity
  8
0
  6
Continuous
 62
     7
100
AcDbLine
 10
91.0180049376
 20
105.3827788462
 30
0.0
 11
105.0470049376
 21
105.3827788462
 31
0.0
  0
LINE
  5
C7
330
1F
100
AcDbEntity
  8
FASEN
  6
Continuous
 62
     7
100
AcDbLine
 10
218.288552276
 20
107.5453432215
 30
0.0
 11
231.861215486
 21
107.5453432215
 31
0.0
  0
LINE
  5
C8
330
1F
100
AcDbEntity
  8
BEZUGSACHSEN
  6
Continuous
 62
     9
100
AcDbLine
 10
27.3139578646
 20
110.3717788462
 30
0.0
 11
35.6008508845
 21
110.3717788462
 31
0.0
  0
LWPOLYLINE
  5
C9
330
1F
100
AcDbEntity
  8
DEFAULT_2
  6
DASHED
 62
     8
100
AcDbPolyline
 90
        2
 70
     0
 43
0.35
 10
187.2489987563
 20
110.6117788462
 10
183.0470049376
 20
110.6117788462
  0
LINE
  5
CA
330
1F
100
AcDbEntity
  8
RUNDUNGEN
  6
Continuous
 62
     7
100
AcDbLine
 10
234.0583127624
 20
112.6379639488
 30
0.0
 11
221.905381556
 21
112.6379639488
 31
0.0
  0
LINE
  5
CB
330
1F
100
AcDbEntity
  8
FASEN
  6
Continuous
 62
     7
100
AcDbLine
 10
218.288552276
 20
114.4266671324
 30
0.0
 11
231.861215486
 21
114.4266671324
 31
0.0
  0
LINE
  5
CC
330
1F
100
AcDbEntity
  8
BEZUGSACHSEN
  6
Continuous
 62
     7
100
AcDbLine
 10
74.1662485516
 20
133.0781030199
 30
0.0
 11
73.5470049376
 21
133.2440288462
 31
0.0
  0
LINE
  5
CD
330
1F
100
AcDbEntity
  8
0
  6
Continuous
 62
     9
100
AcDbLine
 10
160.0470049376
 20
125.3617788462
 30
0.0
 11
160.0470049376
 21
65.3617788462
 31
0.0
  0
LINE
  5
CE
330
1F
100
AcDbEntity
  8
RUNDUNGEN
  6
Continuous
 62
     7
100
AcDbLine
 10
210.5470049376
 20
120.3617788462
 30
0.0
 11
199.4612185
 21
120.3617788462
 31
0.0
  0
LINE
  5
CF
330
1F
100
AcDbEntity
  8
0
  6
Continuous
 62
     7
100
AcDbLine
 10
199.4612185
 20
120.3617788462
 30
0.0
 11
210.5470049376
 21
120.3617788462
 31
0.0
  0
LWPOLYLINE
  5
D0
330
1F
100
AcDbEntity
  8
DEFAULT_2
  6
DASHED
 62
     8
100
AcDbPolyline
 90
        2
 70
     0
 43
0.35
 10
210.5470049376
 20
120.3617788462
 10
221.0470049376
 20
120.3617788462
  0
LINE
  5
D1
330
1F
100
AcDbEntity
  8
0
  6
Continuous
 62
     7
100
AcDbLine
 10
234.1706165628
 20
124.1117788461
 30
0.0
 11
234.0583127624
 21
124.1117788461
 31
0.0
  0
LINE
  5
D2
330
1F
100
AcDbEntity
  8
0
  6
Continuous
 62
     7
100
AcDbLine
 10
192.8043642505
 20
125.3617788462
 30
0.0
 11
160.0470049376
 21
125.3617788462
 31
0.0
  0
LINE
  5
D3
330
1F
100
AcDbEntity
  8
FASEN
  6
Continuous
 62
     7
100
AcDbLine
 10
218.288552276
 20
126.6102315077
 30
0.0
 11
231.861215486
 21
126.6102315077
 31
0.0
  0
LINE
  5
D4
330
1F
100
AcDbEntity
  8
0
  6
Continuous
 62
     7
100
AcDbLine
 10
218.0470049376
 20
126.8617788461
 30
0.0
 11
211.7970049376
 21
126.8617788461
 31
0.0
  0
LINE
  5
D5
330
1F
100
AcDbEntity
  8
BEZUGSACHSEN
  6
Continuous
 62
     7
100
AcDbLine
 10
211.7970049376
 20
126.8617788461
 30
0.0
 11
218.0470049376
 21
126.8617788461
 31
0.0
  0
LINE
  5
D6
330
1F
100
AcDbEntity
  8
BEZUGSACHSEN
  6
Continuous
 62
     7
100
AcDbLine
 10
75.3464336489
 20
133.0440288462
 30
0.0
 11
74.4250675967
 21
133.0440288462
 31
0.0
  0
LINE
  5
D7
330
1F
100
AcDbEntity
  8
BEZUGSACHSEN
  6
Continuous
 62
     7
100
AcDbLine
 10
73.5470049376
 20
133.2440288462
 30
0.0
 11
27.9469304529
 21
130.9594651145
 31
0.0
  0
LINE
  5
D8
330
1F
100
AcDbEntity
  8
BEZUGSACHSEN
  6
Continuous
 62
     7
100
AcDbLine
 10
95.1720049376
 20
141.3617788462
 30
0.0
 11
96.9220049376
 21
141.3617788462
 31
0.0
  0
LWPOLYLINE
  5
D9
330
1F
100
AcDbEntity
  8
DEFAULT_2
  6
DASHED
 62
     8
100
AcDbPolyline
 90
        2
 70
     0
 43
0.35
 10
183.0470049376
 20
110.6117788462
 10
183.0470049376
 20
80.1117788462
  0
LINE
  5
DA
330
1F
100
AcDbEntity
  8
BEZUGSACHSEN
  6
Continuous
 62
     7
100
AcDbLine
 10
92.7994096734
 20
145.3617788462
 30
0.0
 11
88.0470049376
 21
145.3617788462
 31
0.0
  0
LINE
  5
DB
330
1F
100
AcDbEntity
  8
BEZUGSACHSEN
  6
Continuous
 62
     7
100
AcDbLine
 10
78.0470049376
 20
145.3617788462
 30
0.0
 11
76.0470049376
 21
145.3617788462
 31
0.0
  0
LINE
  5
DC
330
1F
100
AcDbEntity
  8
BEZUGSACHSEN
  6
Continuous
 62
     7
100
AcDbLine
 10
99.2946002018
 20
145.3617788462
 30
0.0
 11
105.0470049376
 21
145.3617788462
 31
0.0
  0
LWPOLYLINE
  5
DD
330
1F
100
AcDbEntity
  8
DEFAULT_2
  6
DASHED
 62
     8
100
AcDbPolyline
 90
        2
 70
     0
 43
0.35
 10
187.2489987563
 20
110.6117788462
 10
187.2489987563
 20
80.1117788462
  0
LINE
  5
DE
330
1F
100
AcDbEntity
  8
RUNDUNGEN
  6
Continuous
 62
     9
100
AcDbLine
 10
192.8043642505
 20
65.3617788462
 30
0.0
 11
192.8043642505
 21
125.3617788462
 31
0.0
  0
LINE
  5
DF
330
1F
100
AcDbEntity
  8
RUNDUNGEN
  6
Continuous
 62
     9
100
AcDbLine
 10
194.9256845941
 20
66.2404585026
 30
0.0
 11
194.9256845941
 21
124.4830991897
 31
0.0
  0
LINE
  5
E0
330
1F
100
AcDbEntity
  8
RUNDUNGEN
  6
Continuous
 62
     9
100
AcDbLine
 10
198.7541117188
 20
120.654672065
 30
0.0
 11
198.7541117188
 21
70.0688856273
 31
0.0
  0
LINE
  5
E1
330
1F
100
AcDbEntity
  8
RUNDUNGEN
  6
Continuous
 62
     9
100
AcDbLine
 10
199.4612185
 20
120.3617788462
 30
0.0
 11
199.4612185
 21
70.3617788462
 31
0.0
  0
LINE
  5
E2
330
1F
100
AcDbEntity
  8
0
  6
Continuous
 62
     7
100
AcDbLine
 10
194.9256845941
 20
66.2404585026
 30
0.0
 11
198.7541117188
 21
70.0688856273
 31
0.0
  0
LINE
  5
E3
330
1F
100
AcDbEntity
  8
RUNDUNGEN
  6
Continuous
 62
     7
100
AcDbLine
 10
219.9961932468
 20
77.5194323706
 30
0.0
 11
218.288552276
 21
76.2968905599
 31
0.0
  0
LINE
  5
E4
330
1F
100
AcDbEntity
  8
RUNDUNGEN
  6
Continuous
 62
     7
100
AcDbLine
 10
218.288552276
 20
114.4266671324
 30
0.0
 11
219.9961932468
 21
113.2041253217
 31
0.0
  0
LINE
  5
E5
330
1F
100
AcDbEntity
  8
RUNDUNGEN
  6
Continuous
 62
     7
100
AcDbLine
 10
198.7541117188
 20
120.654672065
 30
0.0
 11
194.9256845941
 21
124.4830991897
 31
0.0
  0
LINE
  5
E6
330
1F
100
AcDbEntity
  8
0
  6
Continuous
 62
     7
100
AcDbLine
 10
194.9256845941
 20
124.4830991897
 30
0.0
 11
198.7541117188
 21
120.654672065
 31
0.0
  0
LINE
  5
E7
330
1F
100
AcDbEntity
  8
RUNDUNGEN
  6
Continuous
 62
     7
100
AcDbLine
 10
210.5470049376
 20
65.1117788462
 30
0.0
 11
210.5470049376
 21
125.6117788461
 31
0.0
  0
LINE
  5
E8
330
1F
100
AcDbEntity
  8
RUNDUNGEN
  6
Continuous
 62
     9
100
AcDbLine
 10
211.7970049376
 20
63.8617788462
 30
0.0
 11
211.7970049376
 21
126.8617788461
 31
0.0
  0
LINE
  5
E9
330
1F
100
AcDbEntity
  8
FASEN
  6
Continuous
 62
     7
100
AcDbLine
 10
218.0470049376
 20
63.8717788462
 30
0.0
 11
218.288552276
 21
64.1133261846
 31
0.0
  0
LINE
  5
EA
330
1F
100
AcDbEntity
  8
FASEN
  6
Continuous
 62
     7
100
AcDbLine
 10
218.288552276
 20
126.6102315077
 30
0.0
 11
218.0470049376
 21
126.8517788461
 31
0.0
  0
LINE
  5
EB
330
1F
100
AcDbEntity
  8
FASEN
  6
Continuous
 62
     7
100
AcDbLine
 10
218.0470049376
 20
126.8617788461
 30
0.0
 11
218.0470049376
 21
126.8517788461
 31
0.0
  0
LINE
  5
EC
330
1F
100
AcDbEntity
  8
FASEN
  6
Continuous
 62
     7
100
AcDbLine
 10
218.0470049376
 20
63.8717788462
 30
0.0
 11
218.0470049376
 21
63.8617788462
 31
0.0
  0
LINE
  5
ED
330
1F
100
AcDbEntity
  8
RUNDUNGEN
  6
Continuous
 62
     9
100
AcDbLine
 10
219.9961932468
 20
77.5194323706
 30
0.0
 11
219.9961932468
 21
83.1782144708
 31
0.0
  0
LINE
  5
EE
330
1F
100
AcDbEntity
  8
RUNDUNGEN
  6
Continuous
 62
     9
100
AcDbLine
 10
219.9961932468
 20
107.5453432215
 30
0.0
 11
219.9961932468
 21
113.2041253217
 31
0.0
  0
LWPOLYLINE
  5
EF
330
1F
100
AcDbEntity
  8
DEFAULT_2
  6
DASHED
 62
     8
100
AcDbPolyline
 90
        2
 70
     0
 43
0.35
 10
221.0470049376
 20
120.3617788462
 10
221.0470049376
 20
70.3617788462
  0
LINE
  5
F0
330
1F
100
AcDbEntity
  8
RUNDUNGEN
  6
Continuous
 62
     9
100
AcDbLine
 10
221.905381556
 20
78.0855937435
 30
0.0
 11
221.905381556
 21
83.1782144708
 31
0.0
  0
LINE
  5
F1
330
1F
100
AcDbEntity
  8
RUNDUNGEN
  6
Continuous
 62
     9
100
AcDbLine
 10
221.905381556
 20
107.5453432215
 30
0.0
 11
221.905381556
 21
112.6379639488
 31
0.0
  0
LINE
  5
F2
330
1F
100
AcDbEntity
  8
0
  6
Continuous
 62
     9
100
AcDbLine
 10
231.861215486
 20
64.1133261846
 30
0.0
 11
231.861215486
 21
76.2968905599
 31
0.0
  0
LINE
  5
F3
330
1F
100
AcDbEntity
  8
0
  6
Continuous
 62
     9
100
AcDbLine
 10
231.861215486
 20
83.1782144708
 30
0.0
 11
231.861215486
 21
107.5453432215
 31
0.0
  0
LINE
  5
F4
330
1F
100
AcDbEntity
  8
0
  6
Continuous
 62
     9
100
AcDbLine
 10
231.861215486
 20
114.4266671324
 30
0.0
 11
231.861215486
 21
126.6102315077
 31
0.0
  0
LINE
  5
F5
330
1F
100
AcDbEntity
  8
0
  6
Continuous
 62
     9
100
AcDbLine
 10
232.9437472408
 20
64.7240860028
 30
0.0
 11
232.9437472408
 21
76.7341484068
 31
0.0
  0
LINE
  5
F6
330
1F
100
AcDbEntity
  8
0
  6
Continuous
 62
     9
100
AcDbLine
 10
232.9437472408
 20
83.3517164422
 30
0.0
 11
232.9437472408
 21
107.3718412501
 31
0.0
  0
LINE
  5
F7
330
1F
100
AcDbEntity
  8
0
  6
Continuous
 62
     9
100
AcDbLine
 10
232.9437472408
 20
113.9894092855
 30
0.0
 11
232.9437472408
 21
125.9994716895
 31
0.0
  0
LINE
  5
F8
330
1F
100
AcDbEntity
  8
BEZUGSACHSEN
  6
Continuous
 62
     7
100
AcDbLine
 10
236.0470049376
 20
120.8617788462
 30
0.0
 11
236.0470049376
 21
69.8617788462
 31
0.0
  0
LINE
  5
F9
330
1F
100
AcDbEntity
  8
0
  6
Continuous
 62
     7
100
AcDbLine
 10
236.0470049376
 20
69.8617788462
 30
0.0
 11
234.1706165628
 21
66.6117788462
 31
0.0
  0
LINE
  5
FA
330
1F
100
AcDbEntity
  8
BEZUGSACHSEN
  6
Continuous
 62
     7
100
AcDbLine
 10
234.1706165628
 20
66.6117788462
 30
0.0
 11
236.0470049376
 21
69.8617788462
 31
0.0
  0
LINE
  5
FB
330
1F
100
AcDbEntity
  8
BEZUGSACHSEN
  6
Continuous
 62
     7
100
AcDbLine
 10
234.1706165628
 20
124.1117788461
 30
0.0
 11
236.0470049376
 21
120.8617788462
 31
0.0
  0
LINE
  5
FC
330
1F
100
AcDbEntity
  8
0
  6
Continuous
 62
     7
100
AcDbLine
 10
236.0470049376
 20
120.8617788462
 30
0.0
 11
234.1706165628
 21
124.1117788461
 31
0.0
  0
LINE
  5
FD
330
1F
100
AcDbEntity
  8
0
  6
Continuous
 62
     7
100
AcDbLine
 10
232.9437472408
 20
83.3517164422
 30
0.0
 11
234.058312762392
 21
83.8879639488942
 31
0.0
  0
LINE
  5
FE
330
1F
100
AcDbEntity
  8
0
  6
Continuous
 62
     7
100
AcDbLine
 10
234.058312762292
 20
106.835593743406
 30
0.0
 11
232.9437472408
 21
107.3718412501
 31
0.0
  0
ARC
  5
FF
330
1F
100
AcDbEntity
  8
FASEN
  6
Continuous
 62
     7
100
AcDbCircle
 10
93.7998864377
 20
71.195312018
 30
0.0
 40
19.30214621129997
100
AcDbArc
 50
228.5120350855001
 51
229.9916611025957
  0
ARC
  5
100
330
1F
100
AcDbEntity
  8
FASEN
  6
Continuous
 62
     7
100
AcDbCircle
 10
88.9800711929
 20
56.0117788462
 30
0.0
 40
8.0
100
AcDbArc
 50
90.0
 51
174.8048049324
  0
ARC
  5
101
330
1F
100
AcDbEntity
  8
FASEN
  6
Continuous
 62
     7
100
AcDbCircle
 10
88.9800711929
 20
56.0117788462
 30
0.0
 40
7.599980211799995
100
AcDbArc
 50
90.0
 51
176.9903069154
  0
ARC
  5
102
330
1F
100
AcDbEntity
  8
BEZUGSACHSEN
  6
Continuous
 62
     7
100
AcDbCircle
 10
34.0470049376
 20
87.3517788462
 30
0.0
 40
2.0
100
AcDbArc
 50
270.0
 51
355.2355361865
  0
ARC
  5
103
330
1F
100
AcDbEntity
  8
BEZUGSACHSEN
  6
Continuous
 62
     7
100
AcDbCircle
 10
28.0470049376
 20
61.7615872831
 30
0.0
 40
2.0
100
AcDbArc
 50
180.0
 51
267.1318795137018
  0
ARC
  5
104
330
1F
100
AcDbEntity
  8
BEZUGSACHSEN
  6
Continuous
 62
     7
100
AcDbCircle
 10
95.1720049376
 20
48.3617788462
 30
0.0
 40
1.0
100
AcDbArc
 50
90.0
 51
180.0
  0
ARC
  5
105
330
1F
100
AcDbEntity
  8
BEZUGSACHSEN
  6
Continuous
 62
     7
100
AcDbCircle
 10
74.42506759702923
 20
56.67952884624334
 30
0.0
 40
0.9999999999566569
100
AcDbArc
 50
90.00000001886308
 51
105.0000000200443
  0
ARC
  5
106
330
1F
100
AcDbEntity
  8
BEZUGSACHSEN
  6
Continuous
 62
     7
100
AcDbCircle
 10
75.3464336489
 20
56.6795288462
 30
0.0
 40
1.000000000000031
100
AcDbArc
 50
45.49026120129916
 51
90.0
  0
ARC
  5
107
330
1F
100
AcDbEntity
  8
0
  6
Continuous
 62
     7
100
AcDbCircle
 10
-151.1447838223
 20
166.1793534791
 30
0.0
 40
267.5030866024999
100
AcDbArc
 50
335.7734949145001
 51
336.5002085551
  0
ARC
  5
108
330
1F
100
AcDbEntity
  8
BEZUGSACHSEN
  6
Continuous
 62
     7
100
AcDbCircle
 10
83.0622129488
 20
195.414548613
 30
0.0
 40
50.30340021039984
100
AcDbArc
 50
264.2781515102
 51
269.9826780125999
  0
ARC
  5
109
330
1F
100
AcDbEntity
  8
BEZUGSACHSEN
  6
Continuous
 62
     7
100
AcDbCircle
 10
83.0317969366
 20
195.4145484122
 30
0.0
 40
50.30340000959739
100
AcDbArc
 50
270.017321976058
 51
275.7218485011658
  0
ARC
  5
10A
330
1F
100
AcDbEntity
  8
0
  6
Continuous
 62
     7
100
AcDbCircle
 10
91.0180049376
 20
95.3617788462
 30
0.0
 40
10.021
100
AcDbArc
 50
90.0
 51
270.0
  0
ARC
  5
10B
330
1F
100
AcDbEntity
  8
FASEN
  6
Continuous
 62
     7
100
AcDbCircle
 10
91.0180049376
 20
95.3617788462
 30
0.0
 40
9.620999207600008
100
AcDbArc
 50
90.0
 51
270.0
  0
ARC
  5
10C
330
1F
100
AcDbEntity
  8
BEZUGSACHSEN
  6
Continuous
 62
     7
100
AcDbCircle
 10
34.0470049376
 20
103.3717788462
 30
0.0
 40
1.999999999999983
100
AcDbArc
 50
4.76446378498838
 51
90.0
  0
ARC
  5
10D
330
1F
100
AcDbEntity
  8
BEZUGSACHSEN
  6
Continuous
 62
     7
100
AcDbCircle
 10
28.0470049376
 20
128.9619704092
 30
0.0
 40
2.000000000047375
100
AcDbArc
 50
92.86812048629822
 51
180.0000000143238
  0
ARC
  5
10E
330
1F
100
AcDbEntity
  8
BEZUGSACHSEN
  6
Continuous
 62
     7
100
AcDbCircle
 10
95.1720049376
 20
142.3617788462
 30
0.0
 40
1.0
100
AcDbArc
 50
180.0
 51
270.0
  0
ARC
  5
10F
330
1F
100
AcDbEntity
  8
BEZUGSACHSEN
  6
Continuous
 62
     7
100
AcDbCircle
 10
74.4250675967
 20
134.0440288462
 30
0.0
 40
1.000000000009914
100
AcDbArc
 50
255.0000000003019
 51
270.0
  0
ARC
  5
110
330
1F
100
AcDbEntity
  8
BEZUGSACHSEN
  6
Continuous
 62
     7
100
AcDbCircle
 10
75.3464336489
 20
134.0440288462
 30
0.0
 40
1.0
100
AcDbArc
 50
270.0
 51
314.5097387987131
  0
ARC
  5
111
330
1F
100
AcDbEntity
  8
BEZUGSACHSEN
  6
Continuous
 62
     7
100
AcDbCircle
 10
212.377051539
 20
-1510.6809804721
 30
0.0
 40
1632.1727637265
100
AcDbArc
 50
96.2726189838
 51
96.48809068979999
  0
ARC
  5
112
330
1F
100
AcDbEntity
  8
0
  6
Continuous
 62
     7
100
AcDbCircle
 10
160.0470049376
 20
-284.6382211538
 30
0.0
 40
350.0
100
AcDbArc
 50
90.0
 51
98.33308299628142
  0
ARC
  5
113
330
1F
100
AcDbEntity
  8
RUNDUNGEN
  6
Continuous
 62
     7
100
AcDbCircle
 10
160.0470049376
 20
-284.6382211538
 30
0.0
 40
350.0
100
AcDbArc
 50
90.0
 51
98.33308299628142
  0
ARC
  5
114
330
1F
100
AcDbEntity
  8
0
  6
Continuous
 62
     7
100
AcDbCircle
 10
196.6386736313
 20
80.9867788462
 30
0.0
 40
37.53193663670818
100
AcDbArc
 50
355.5666650637921
 51
4.43333493620004
  0
ARC
  5
115
330
1F
100
AcDbEntity
  8
RUNDUNGEN
  6
Continuous
 62
     7
100
AcDbCircle
 10
110.0470049376
 20
56.7193626201
 30
0.0
 40
5.000000000047807
100
AcDbArc
 50
98.3330829955223
 51
179.8244486289995
  0
ARC
  5
116
330
1F
100
AcDbEntity
  8
RUNDUNGEN
  6
Continuous
 62
     7
100
AcDbCircle
 10
192.8043642505
 20
68.3617788462
 30
0.0
 40
3.0
100
AcDbArc
 50
270.0
 51
315.0000000000003
  0
ARC
  5
117
330
1F
100
AcDbEntity
  8
RUNDUNGEN
  6
Continuous
 62
     7
100
AcDbCircle
 10
211.7970049376
 20
65.1117788462
 30
0.0
 40
1.25
100
AcDbArc
 50
180.0
 51
270.0
  0
ARC
  5
118
330
1F
100
AcDbEntity
  8
RUNDUNGEN
  6
Continuous
 62
     7
100
AcDbCircle
 10
199.4612185
 20
69.3617788462
 30
0.0
 40
1.0
100
AcDbArc
 50
90.0
 51
135.0000000040509
  0
ARC
  5
119
330
1F
100
AcDbEntity
  8
BEZUGSACHSEN
  6
Continuous
 62
     7
100
AcDbCircle
 10
96.9220049376
 20
48.3617788462
 30
0.0
 40
1.0
100
AcDbArc
 50
0.0
 51
90.0
  0
ARC
  5
11A
330
1F
100
AcDbEntity
  8
BEZUGSACHSEN
  6
Continuous
 62
     7
100
AcDbCircle
 10
212.377051539
 20
1701.4045381645
 30
0.0
 40
1632.1727637265
100
AcDbArc
 50
263.5119093102
 51
263.7273810162
  0
ARC
  5
11B
330
1F
100
AcDbEntity
  8
0
  6
Continuous
 62
     7
100
AcDbCircle
 10
160.0470049376
 20
475.3617788462
 30
0.0
 40
350.0000000000818
100
AcDbArc
 50
261.666917003721
 51
270.0
  0
ARC
  5
11C
330
1F
100
AcDbEntity
  8
RUNDUNGEN
  6
Continuous
 62
     7
100
AcDbCircle
 10
160.0470049376
 20
475.3617788462
 30
0.0
 40
350.0000000000818
100
AcDbArc
 50
261.666917003721
 51
270.0
  0
ARC
  5
11D
330
1F
100
AcDbEntity
  8
0
  6
Continuous
 62
     7
100
AcDbCircle
 10
343.2387936979
 20
166.1793534792
 30
0.0
 40
267.5030866029
100
AcDbArc
 50
203.4997914449
 51
204.2265050855144
  0
ARC
  5
11E
330
1F
100
AcDbEntity
  8
0
  6
Continuous
 62
     7
100
AcDbCircle
 10
196.6386736312
 20
109.7367788461
 30
0.0
 40
37.53193663669975
100
AcDbArc
 50
355.5666650638003
 51
4.43333493619615
  0
ARC
  5
11F
330
1F
100
AcDbEntity
  8
RUNDUNGEN
  6
Continuous
 62
     7
100
AcDbCircle
 10
110.0470049376
 20
134.0041950722
 30
0.0
 40
5.0
100
AcDbArc
 50
180.0
 51
261.6669170044777
  0
ARC
  5
120
330
1F
100
AcDbEntity
  8
RUNDUNGEN
  6
Continuous
 62
     7
100
AcDbCircle
 10
192.8043642505
 20
122.3617788462
 30
0.0
 40
2.999999999986378
100
AcDbArc
 50
44.99999999864932
 51
90.0
  0
ARC
  5
121
330
1F
100
AcDbEntity
  8
RUNDUNGEN
  6
Continuous
 62
     7
100
AcDbCircle
 10
211.7970049376
 20
125.6117788461
 30
0.0
 40
1.25
100
AcDbArc
 50
90.0
 51
180.0
  0
ARC
  5
122
330
1F
100
AcDbEntity
  8
RUNDUNGEN
  6
Continuous
 62
     7
100
AcDbCircle
 10
199.4612185
 20
121.3617788462
 30
0.0
 40
1.00000000001902
100
AcDbArc
 50
225.0
 51
270.0
  0
ARC
  5
123
330
1F
100
AcDbEntity
  8
BEZUGSACHSEN
  6
Continuous
 62
     7
100
AcDbCircle
 10
96.9220049376
 20
142.3617788462
 30
0.0
 40
1.0
100
AcDbArc
 50
270.0
 51
0.0
  0
CIRCLE
  5
124
330
1F
100
AcDbEntity
  8
BEZUGSACHSEN
  6
Continuous
 62
     7
100
AcDbCircle
 10
61.0470049376
 20
95.3617788462
 30
0.0
 40
5.999999999999993
  0
SPLINE
  5
125
330
1F
100
AcDbEntity
  8
0
  6
Continuous
 62
     7
100
AcDbSpline
210
0.0
220
0.0
230
1.0
 70
     8
 71
     3
 72
     9
 73
     5
 74
     3
 42
0.0000000001
 43
0.0000000001
 44
0.00000001
 40
0.0
 40
0.0
 40
0.0
 40
0.0
 40
1.096088572941466
 40
2.192177144173957
 40
2.192177144173957
 40
2.192177144173957
 40
2.192177144173957
 10
232.9437472408
 20
64.7240860028
 30
0.0
 10
233.1295602187006
 20
65.03867074022736
 30
0.0
 10
233.5011861742119
 20
65.66784021459156
 30
0.0
 10
233.8726038997671
 20
66.29713263582737
 30
0.0
 10
234.0583127624
 20
66.6117788462
 30
0.0
 11
232.9437472408
 21
64.7240860028
 31
0.0
 11
233.5011341170125
 21
65.6678709518
 31
0.0
 11
234.0583127624
 21
66.6117788462
 31
0.0
  0
SPLINE
  5
126
330
1F
100
AcDbEntity
  8
0
  6
Continuous
 62
     7
100
AcDbSpline
210
0.0
220
0.0
230
1.0
 70
     8
 71
     3
 72
     9
 73
     5
 74
     3
 42
0.0000000001
 43
0.0000000001
 44
0.00000001
 40
0.0
 40
0.0
 40
0.0
 40
0.0
 40
1.096088571232491
 40
2.192177144173957
 40
2.192177144173957
 40
2.192177144173957
 40
2.192177144173957
 10
234.0583127624
 20
124.1117788461
 30
0.0
 10
233.8726038997671
 20
124.4264250564726
 30
0.0
 10
233.5011861742119
 20
125.0557174777084
 30
0.0
 10
233.1295602187006
 20
125.6848869520726
 30
0.0
 10
232.9437472408
 20
125.9994716895
 30
0.0
 11
234.0583127624
 21
124.1117788461
 31
0.0
 11
233.5011341170125
 21
125.0556867405
 31
0.0
 11
232.9437472408
 21
125.9994716895
 31
0.0
  0
SPLINE
  5
127
330
1F
100
AcDbEntity
  8
0
  6
Continuous
 62
     7
100
AcDbSpline
210
0.0
220
0.0
230
1.0
 70
     8
 71
     3
 72
    15
 73
    11
 74
     9
 42
0.0000000001
 43
0.0000000001
 44
0.00000001
 40
0.0
 40
0.0
 40
0.0
 40
0.0
 40
0.1606438688868134
 40
0.3215838473511786
 40
0.483663008463905
 40
0.6456583149786378
 40
0.8087330952109869
 40
0.9718971338470344
 40
1.135785310286405
 40
1.299392018562232
 40
1.299392018562232
 40
1.299392018562232
 40
1.299392018562232
 10
232.9437472408
 20
125.9994716895
 30
0.0
 10
232.914712049001
 20
126.0445553823866
 30
0.0
 10
232.8565881457857
 20
126.134805869453
 30
0.0
 10
232.7476460420879
 20
126.2545969619117
 30
0.0
 10
232.6248341470136
 20
126.3602956786262
 30
0.0
 10
232.4884627480872
 20
126.4493286858243
 30
0.0
 10
232.3414903655212
 20
126.5203265646522
 30
0.0
 10
232.1860178154651
 20
126.5716712396299
 30
0.0
 10
232.0250233804689
 20
126.6041263503364
 30
0.0
 10
231.9157868227379
 20
126.608197621608
 30
0.0
 10
231.861215486
 20
126.6102315077
 30
0.0
 11
232.9437472408
 21
125.9994716895
 31
0.0
 11
232.8530705332211
 21
126.1320770714178
 31
0.0
 11
232.7456599049683
 21
126.2519296208544
 31
0.0
 11
232.6226465905732
 21
126.357463401932
 31
0.0
 11
232.48706229475
 21
126.4461165353167
 31
0.0
 11
232.3401983033724
 21
126.5169991988141
 31
0.0
 11
232.185359418565
 21
126.5684523158783
 31
0.0
 11
232.0244854312013
 21
126.59973960669
 31
0.0
 11
231.861215486
 21
126.6102315077
 31
0.0
  0
SPLINE
  5
128
330
1F
100
AcDbEntity
  8
0
  6
Continuous
 62
     7
100
AcDbSpline
210
0.0
220
0.0
230
1.0
 70
     8
 71
     3
 72
    15
 73
    11
 74
     9
 42
0.0000000001
 43
0.0000000001
 44
0.00000001
 40
0.0
 40
0.0
 40
0.0
 40
0.0
 40
0.1621933692836711
 40
0.3244177201044602
 40
0.4763198201586397
 40
0.6281840631118158
 40
0.7603937868530147
 40
0.8927011547089696
 40
0.9982495284277675
 40
1.103579871249192
 40
1.103579871249192
 40
1.103579871249192
 40
1.103579871249192
 10
231.861215486
 20
83.1782144708
 30
0.0
 10
231.9152831714659
 20
83.17876833878131
 30
0.0
 10
232.0234288701936
 20
83.1798761805416
 30
0.0
 10
232.1819999888553
 20
83.1889126727455
 30
0.0
 10
232.336707951897
 20
83.20317342379425
 30
0.0
 10
232.4807527987344
 20
83.2227619760445
 30
0.0
 10
232.6173829273914
 20
83.24757648138365
 30
0.0
 10
232.7372906676803
 20
83.27664239891004
 30
0.0
 10
232.8470868721132
 20
83.30945076175567
 30
0.0
 10
232.9115493341633
 20
83.33763759632579
 30
0.0
 10
232.9437472408
 20
83.3517164422
 30
0.0
 11
231.861215486
 21
83.1782144708
 31
0.0
 11
232.0233825131049
 21
83.18113754444816
 31
0.0
 11
232.1853600405502
 21
83.19008296796683
 31
0.0
 11
232.3365988512552
 21
83.20426288818582
 31
0.0
 11
232.4870631621633
 21
83.22483567192295
 31
0.0
 11
232.6170786767601
 21
83.24882268957509
 31
0.0
 11
232.7456603654346
 21
83.27999942652085
 31
0.0
 11
232.8464039772641
 21
83.31148249927787
 31
0.0
 11
232.9437472408
 21
83.3517164422
 31
0.0
  0
SPLINE
  5
129
330
1F
100
AcDbEntity
  8
0
  6
Continuous
 62
     7
100
AcDbSpline
210
0.0
220
0.0
230
1.0
 70
     8
 71
     3
 72
    15
 73
    11
 74
     9
 42
0.0000000001
 43
0.0000000001
 44
0.00000001
 40
0.0
 40
0.0
 40
0.0
 40
0.0
 40
0.1053305807196812
 40
0.2108791937719437
 40
0.343186762370974
 40
0.4753966860385937
 40
0.6272608018012279
 40
0.779162774637358
 40
0.9413868135220023
 40
1.103579871011039
 40
1.103579871011039
 40
1.103579871011039
 40
1.103579871011039
 10
232.9437472408
 20
107.3718412501
 30
0.0
 10
232.9115492602916
 20
107.3859201254206
 30
0.0
 10
232.8470866500572
 20
107.4141070190703
 30
0.0
 10
232.7372902188821
 20
107.446915415918
 30
0.0
 10
232.6173822636858
 20
107.4759813516554
 30
0.0
 10
232.4807520384058
 20
107.5007958360524
 30
0.0
 10
232.3367072051925
 20
107.5203843519946
 30
0.0
 10
232.1819994277941
 20
107.5346450593641
 30
0.0
 10
232.0234285582952
 20
107.5436815184581
 30
0.0
 10
231.9152830675155
 20
107.5447893557517
 30
0.0
 10
231.861215486
 20
107.5453432215
 30
0.0
 11
232.9437472408
 21
107.3718412501
 31
0.0
 11
232.846403753026
 21
107.4120752732984
 31
0.0
 11
232.745659904932
 21
107.4435583924019
 31
0.0
 11
232.6170780126269
 21
107.4747351414278
 31
0.0
 11
232.4870622948353
 21
107.4987221596528
 31
0.0
 11
232.3365981050179
 21
107.5192948901221
 31
0.0
 11
232.185359418481
 21
107.5334747718602
 31
0.0
 11
232.0233822014714
 21
107.5424201596027
 31
0.0
 11
231.861215486
 21
107.5453432215
 31
0.0
  0
SPLINE
  5
12A
330
1F
100
AcDbEntity
  8
0
  6
Continuous
 62
     7
100
AcDbSpline
210
0.0
220
0.0
230
1.0
 70
     8
 71
     3
 72
    15
 73
    11
 74
     9
 42
0.0000000001
 43
0.0000000001
 44
0.00000001
 40
0.0
 40
0.0
 40
0.0
 40
0.0
 40
0.1636070284454416
 40
0.3274955269049593
 40
0.4906597416814601
 40
0.6537346967569131
 40
0.8157298268383061
 40
0.9778088103496443
 40
1.13874846829004
 40
1.299392018488861
 40
1.299392018488861
 40
1.299392018488861
 40
1.299392018488861
 10
231.861215486
 20
64.1133261846
 30
0.0
 10
231.91578692966
 20
64.11536007921612
 30
0.0
 10
232.0250237018524
 20
64.11943136756663
 30
0.0
 10
232.1860183947703
 20
64.15188659881024
 30
0.0
 10
232.3414911296269
 20
64.20323143235635
 30
0.0
 10
232.4884635162005
 20
64.27422944012189
 30
0.0
 10
232.6248348008518
 20
64.36326251048193
 30
0.0
 10
232.7476464636117
 20
64.46896115109492
 30
0.0
 10
232.8565883310665
 20
64.58875208495553
 30
0.0
 10
232.9147121106481
 20
64.67900239711254
 30
0.0
 10
232.9437472408
 20
64.7240860028
 30
0.0
 11
231.861215486
 21
64.1133261846
 31
0.0
 11
232.0244857492721
 21
64.12381812854844
 31
0.0
 11
232.1853600405304
 21
64.15510554358158
 31
0.0
 11
232.3401990631171
 21
64.20655880458625
 31
0.0
 11
232.4870631621581
 21
64.27744164726168
 31
0.0
 11
232.6226472474872
 21
64.3660947801762
 31
0.0
 11
232.7456603655406
 21
64.47162851735462
 31
0.0
 11
232.8530707318826
 21
64.59148087110806
 31
0.0
 11
232.9437472408
 21
64.7240860028
 31
0.0
  0
SPLINE
  5
12B
330
1F
100
AcDbEntity
  8
0
  6
Continuous
 62
     7
100
AcDbSpline
210
0.0
220
0.0
230
1.0
 70
     8
 71
     3
 72
     9
 73
     5
 74
     3
 42
0.0000000001
 43
0.0000000001
 44
0.00000001
 40
0.0
 40
0.0
 40
0.0
 40
0.0
 40
0.8758796779583949
 40
1.751759357607283
 40
1.751759357607283
 40
1.751759357607283
 40
1.751759357607283
 10
234.0583127624
 20
78.0855937435
 30
0.0
 10
233.8725936274686
 20
77.86031839316632
 30
0.0
 10
233.5011553572475
 20
77.40976769206424
 30
0.0
 10
233.1295499464021
 20
76.95935483536631
 30
0.0
 10
232.9437472408
 20
76.7341484068
 30
0.0
 11
234.0583127624
 21
78.0855937435
 31
0.0
 11
233.50111357245
 21
77.40980215360001
 31
0.0
 11
232.9437472408
 21
76.7341484068
 31
0.0
  0
SPLINE
  5
12C
330
1F
100
AcDbEntity
  8
0
  6
Continuous
 62
     7
100
AcDbSpline
210
0.0
220
0.0
230
1.0
 70
     8
 71
     3
 72
     9
 73
     5
 74
     3
 42
0.0000000001
 43
0.0000000001
 44
0.00000001
 40
0.0
 40
0.0
 40
0.0
 40
0.0
 40
0.875879679648877
 40
1.751759357607283
 40
1.751759357607283
 40
1.751759357607283
 40
1.751759357607283
 10
232.9437472408
 20
113.9894092855
 30
0.0
 10
233.1295499464021
 20
113.7642028569337
 30
0.0
 10
233.5011553572476
 20
113.3137900002358
 30
0.0
 10
233.8725936274687
 20
112.8632392991337
 30
0.0
 10
234.0583127624
 20
112.6379639488
 30
0.0
 11
232.9437472408
 21
113.9894092855
 31
0.0
 11
233.50111357245
 21
113.3137555387
 31
0.0
 11
234.0583127624
 21
112.6379639488
 31
0.0
  0
SPLINE
  5
12D
330
1F
100
AcDbEntity
  8
0
  6
Continuous
 62
     7
100
AcDbSpline
210
0.0
220
0.0
230
1.0
 70
     8
 71
     3
 72
    13
 73
     9
 74
     7
 42
0.0000000001
 43
0.0000000001
 44
0.00000001
 40
0.0
 40
0.0
 40
0.0
 40
0.0
 40
0.1629301771208943
 40
0.3258682961128604
 40
0.482813868516623
 40
0.6404252305061
 40
0.922665370143193
 40
1.202130561243945
 40
1.202130561243945
 40
1.202130561243945
 40
1.202130561243945
 10
231.861215486
 20
114.4266671324
 30
0.0
 10
231.9155469460852
 20
114.4252294303703
 30
0.0
 10
232.0242125145889
 20
114.4223539562314
 30
0.0
 10
232.1838169399751
 20
114.3993619182311
 30
0.0
 10
232.3391439655668
 20
114.3632739607755
 30
0.0
 10
232.5269541320298
 20
114.2978368206232
 30
0.0
 10
232.7447786422401
 20
114.1893004676442
 30
0.0
 10
232.877643167992
 20
114.0558198716618
 30
0.0
 10
232.9437472408
 20
113.9894092855
 30
0.0
 11
231.861215486
 21
114.4266671324
 31
0.0
 11
232.0239741650917
 21
114.4191935123285
 31
0.0
 11
232.1853600405599
 21
114.3967562705194
 31
0.0
 11
232.3380974374078
 21
114.360656404851
 31
0.0
 11
232.4870631621654
 21
114.309172870827
 31
0.0
 11
232.736218790512
 21
114.1765796233157
 31
0.0
 11
232.9437472408
 21
113.9894092855
 31
0.0
  0
SPLINE
  5
12E
330
1F
100
AcDbEntity
  8
0
  6
Continuous
 62
     7
100
AcDbSpline
210
0.0
220
0.0
230
1.0
 70
     8
 71
     3
 72
    13
 73
     9
 74
     7
 42
0.0000000001
 43
0.0000000001
 44
0.00000001
 40
0.0
 40
0.0
 40
0.0
 40
0.0
 40
0.2794656496605221
 40
0.5617062599126034
 40
0.7193174719156137
 40
0.8762628928079047
 40
1.039200695082546
 40
1.202130556458424
 40
1.202130556458424
 40
1.202130556458424
 40
1.202130556458424
 10
232.9437472408
 20
76.7341484068
 30
0.0
 10
232.8776430483675
 20
76.66773772077339
 30
0.0
 10
232.7447782804046
 20
76.53425692228689
 30
0.0
 10
232.5269534629824
 20
76.42572057316134
 30
0.0
 10
232.3391432090921
 20
76.36028351768046
 30
0.0
 10
232.1838163697826
 20
76.32419567161924
 30
0.0
 10
232.0242121981738
 20
76.30120371841042
 30
0.0
 10
231.9155468407215
 20
76.2983282560466
 30
0.0
 10
231.861215486
 20
76.2968905599
 30
0.0
 11
232.9437472408
 21
76.7341484068
 31
0.0
 11
232.7362184084169
 21
76.54697780796062
 31
0.0
 11
232.4870622947963
 21
76.41438447056795
 31
0.0
 11
232.3380966832811
 21
76.36290106804876
 31
0.0
 11
232.185359418534
 21
76.32680130216801
 31
0.0
 11
232.0239738504018
 21
76.30436414974761
 31
0.0
 11
231.861215486
 21
76.2968905599
 31
0.0
  0
SPLINE
  5
12F
330
1F
100
AcDbEntity
  8
BEZUGSACHSEN
  6
Continuous
 62
     7
100
AcDbSpline
210
0.0
220
0.0
230
1.0
 70
     8
 71
     3
 72
    27
 73
    23
 74
    21
 42
0.0000000001
 43
0.0000000001
 44
0.00000001
 40
0.0
 40
0.0
 40
0.0
 40
0.0
 40
0.1219765139516533
 40
0.2439857714748821
 40
0.3566831398307458
 40
0.4694418149413825
 40
0.5721317672392559
 40
0.6745445880580934
 40
0.7225206520876595
 40
0.7704888797598833
 40
0.817141293603388
 40
0.86378987342691
 40
0.9102318000827267
 40
0.9566751324137075
 40
1.004175175749072
 40
1.051683100139051
 40
1.15367238873877
 40
1.256049376665421
 40
1.370745138059424
 40
1.485385401813239
 40
1.611534903846433
 40
1.737631875976415
 40
1.737631875976415
 40
1.737631875976415
 40
1.737631875976415
 10
27.1928476132
 20
80.1194428507
 30
0.0
 10
27.15759259559662
 20
80.09916332543511
 30
0.0
 10
27.08707309647622
 20
80.05859883103697
 30
0.0
 10
26.9794206932911
 20
80.00780297014572
 30
0.0
 10
26.87126267742669
 20
79.966051334279
 30
0.0
 10
26.76568345647803
 20
79.9366367491371
 30
0.0
 10
26.66085191135125
 20
79.91972216174405
 30
0.0
 10
26.57612424150608
 20
79.91785693852009
 30
0.0
 10
26.51030030508742
 20
79.92481224653845
 30
0.0
 10
26.46359310185379
 20
79.93400937368985
 30
0.0
 10
26.41841248453762
 20
79.9475428186773
 30
0.0
 10
26.37527287388231
 20
79.96533607748462
 30
0.0
 10
26.33431839730384
 20
79.98756443518872
 30
0.0
 10
26.29567097083304
 20
80.01409946689051
 30
0.0
 10
26.25976489220093
 20
80.04479474442081
 30
0.0
 10
26.21432557067076
 20
80.09233221753833
 30
0.0
 10
26.16578243061245
 20
80.16150158464453
 30
0.0
 10
26.11955672168047
 20
80.2576596393573
 30
0.0
 10
26.08559084787866
 20
80.36323507231933
 30
0.0
 10
26.06263542365885
 20
80.47965276320117
 30
0.0
 10
26.04919086529469
 20
80.60140007187475
 30
0.0
 10
26.04773347899882
 20
80.68550343541949
 30
0.0
 10
26.0470049376
 20
80.72754636
 30
0.0
 11
27.1928476132
 21
80.1194428507
 31
0.0
 11
27.08630298913945
 21
80.06005839953983
 31
0.0
 11
26.97601009997079
 21
80.00788812524308
 31
0.0
 11
26.87069209212116
 21
79.96777810084863
 31
0.0
 11
26.76196836359775
 21
79.93788379254966
 31
0.0
 11
26.66050421151105
 21
79.9220644327565
 31
0.0
 11
26.55810467092855
 21
79.92041520367447
 31
0.0
 11
26.5104008146929
 21
79.92551861625996
 31
0.0
 11
26.46335004440743
 21
79.93485541879393
 31
0.0
 11
26.4186704769638
 21
79.9482786810828
 31
0.0
 11
26.37556434036642
 21
79.96610986127926
 31
0.0
 11
26.33474174756956
 21
79.98825412619924
 31
0.0
 11
26.2964544910234
 21
80.01454231944592
 31
0.0
 11
26.26031739401356
 21
80.0453702992137
 31
0.0
 11
26.22746489364668
 21
80.0796881677298
 31
0.0
 11
26.1682924994237
 21
80.16275707136406
 31
0.0
 11
26.1233927758491
 21
80.25476284552991
 31
0.0
 11
26.08775461626903
 21
80.36378137268697
 31
0.0
 11
26.06490305287164
 21
80.47612101895595
 31
0.0
 11
26.05113629653221
 21
80.60151708461638
 31
0.0
 11
26.0470049376
 21
80.72754636
 31
0.0
  0
SPLINE
  5
130
330
1F
100
AcDbEntity
  8
BEZUGSACHSEN
  6
Continuous
 62
     7
100
AcDbSpline
210
0.0
220
0.0
230
1.0
 70
     8
 71
     3
 72
    15
 73
    11
 74
     9
 42
0.0000000001
 43
0.0000000001
 44
0.00000001
 40
0.0
 40
0.0
 40
0.0
 40
0.0
 40
0.1110371613065768
 40
0.2222522336999915
 40
0.3333980191780516
 40
0.4445069474990763
 40
0.5556201065532537
 40
0.6667525642479741
 40
0.7778876033612343
 40
0.8889820915882161
 40
0.8889820915882161
 40
0.8889820915882161
 40
0.8889820915882161
 10
27.9469304529
 20
79.6852464599
 30
0.0
 10
27.91028872603949
 20
79.69077861271464
 30
0.0
 10
27.83694656251923
 20
79.70185178232519
 30
0.0
 10
27.73043001250654
 20
79.73487034584898
 30
0.0
 10
27.62801710474272
 20
79.77846063333173
 30
0.0
 10
27.53056713911468
 20
79.83224014118247
 30
0.0
 10
27.43826234338482
 20
79.89433527655653
 30
0.0
 10
27.3512657152584
 20
79.96362195019104
 30
0.0
 10
27.26901295977819
 20
80.03850390176996
 30
0.0
 10
27.21823297340075
 20
80.09246648329452
 30
0.0
 10
27.1928476132
 20
80.1194428507
 30
0.0
 11
27.9469304529
 21
79.6852464599
 31
0.0
 11
27.83758816784916
 21
79.70457301910966
 31
0.0
 11
27.73109621424649
 21
79.73663945242176
 31
0.0
 11
27.62882803361745
 21
79.78016651136628
 31
0.0
 11
27.53142516715977
 21
79.8336256131028
 31
0.0
 11
27.43915340037315
 21
79.89552920887132
 31
0.0
 11
27.35205629696438
 21
79.96455469496937
 31
0.0
 11
27.27001639247784
 21
80.03952436210578
 31
0.0
 11
27.1928476132
 21
80.1194428507
 31
0.0
  0
SPLINE
  5
131
330
1F
100
AcDbEntity
  8
BEZUGSACHSEN
  6
Continuous
 62
     7
100
AcDbSpline
210
0.0
220
0.0
230
1.0
 70
     8
 71
     3
 72
    15
 73
    11
 74
     9
 42
0.0000000001
 43
0.0000000001
 44
0.00000001
 40
0.0
 40
0.0
 40
0.0
 40
0.0
 40
0.1110944831353131
 40
0.222229518160546
 40
0.3333620402237673
 40
0.4444752610525404
 40
0.5555842178285559
 40
0.6667300353886604
 40
0.7779450181442576
 40
0.8889820871539347
 40
0.8889820871539347
 40
0.8889820871539347
 40
0.8889820871539347
 10
27.1928476132
 20
110.6041148416
 30
0.0
 10
27.21823297277734
 20
110.6310912072749
 30
0.0
 10
27.26901295813748
 20
110.685053785582
 30
0.0
 10
27.35126572740154
 20
110.759935748986
 30
0.0
 10
27.43826237934928
 20
110.8292224579157
 30
0.0
 10
27.53056721976709
 20
110.8913176210111
 30
0.0
 10
27.62801724174344
 20
110.9450971131191
 30
0.0
 10
27.73043015559536
 20
110.9886873586953
 30
0.0
 10
27.83694665416376
 20
111.021705914542
 30
0.0
 10
27.91028875687996
 20
111.0327790811536
 30
0.0
 10
27.9469304529
 20
111.0383112324
 30
0.0
 11
27.1928476132
 21
110.6041148416
 31
0.0
 11
27.2700163903144
 21
110.6840333252053
 31
0.0
 11
27.35205629057828
 21
110.7590029909025
 31
0.0
 11
27.43915343918935
 21
110.8280285235984
 31
0.0
 11
27.53142526076192
 21
110.8899321485862
 31
0.0
 11
27.62882816882405
 21
110.9433912336597
 31
0.0
 11
27.73109639219099
 21
110.9869182741112
 31
0.0
 11
27.83758826028108
 21
111.0189846805206
 31
0.0
 11
27.9469304529
 21
111.0383112324
 31
0.0
  0
SPLINE
  5
132
330
1F
100
AcDbEntity
  8
BEZUGSACHSEN
  6
Continuous
 62
     7
100
AcDbSpline
210
0.0
220
0.0
230
1.0
 70
     8
 71
     3
 72
    27
 73
    23
 74
    21
 42
0.0000000001
 43
0.0000000001
 44
0.00000001
 40
0.0
 40
0.0
 40
0.0
 40
0.0
 40
0.1260969825534525
 40
0.2522464959256717
 40
0.366886795260587
 40
0.4815825894063837
 40
0.5839596007024929
 40
0.6859489161761109
 40
0.733456841101873
 40
0.7809568849469006
 40
0.8274002264955815
 40
0.8738421607715233
 40
0.9204907319516741
 40
0.9671431399761815
 40
1.015111401849364
 40
1.063087497146613
 40
1.165500418749986
 40
1.268190478990284
 40
1.380949153938526
 40
1.493646517813504
 40
1.615655563765864
 40
1.73763186761461
 40
1.73763186761461
 40
1.73763186761461
 40
1.73763186761461
 10
26.0470049376
 20
109.9960113323
 30
0.0
 10
26.04773347908388
 20
110.0380542603613
 30
0.0
 10
26.04919086555519
 20
110.1221576311731
 30
0.0
 10
26.06263542756407
 20
110.2439049587324
 30
0.0
 10
26.08559086086569
 20
110.3603226751097
 30
0.0
 10
26.11955676120214
 20
110.4658981329055
 30
0.0
 10
26.16578252005468
 20
110.5620561951769
 30
0.0
 10
26.21432568860597
 20
110.6312255608654
 30
0.0
 10
26.2597650141673
 20
110.6787630424933
 30
0.0
 10
26.29567109225942
 20
110.7094583259762
 30
0.0
 10
26.3343185233523
 20
110.7359933616887
 30
0.0
 10
26.37527301055743
 20
110.7582217075834
 30
0.0
 10
26.41841263672945
 20
110.7760149244598
 30
0.0
 10
26.46359327133065
 20
110.7895483315206
 30
0.0
 10
26.51030049430055
 20
110.7987454568564
 30
0.0
 10
26.57612448548999
 20
110.8057007772324
 30
0.0
 10
26.66085223749378
 20
110.8038355205623
 30
0.0
 10
26.76568384099747
 20
110.7869208595804
 30
0.0
 10
26.87126308335966
 20
110.7575062267075
 30
0.0
 10
26.97942102145794
 20
110.7157545892564
 30
0.0
 10
27.08707328272376
 20
110.6649587621372
 30
0.0
 10
27.1575926575376
 20
110.6243943339041
 30
0.0
 10
27.1928476132
 20
110.6041148416
 30
0.0
 11
26.0470049376
 21
109.9960113323
 31
0.0
 11
26.05113629719397
 21
110.122040618091
 31
0.0
 11
26.064903056363
 21
110.2474366948479
 31
0.0
 11
26.08775463246497
 21
110.3597763748424
 31
0.0
 11
26.12339282183866
 21
110.4687949267173
 31
0.0
 11
26.1682925866388
 21
110.5608007067684
 31
0.0
 11
26.22746501559295
 21
110.6438696186575
 31
0.0
 11
26.26031751575447
 21
110.6781874881119
 31
0.0
 11
26.29645461068128
 21
110.7090154711068
 31
0.0
 11
26.33474187554272
 21
110.7353036685276
 31
0.0
 11
26.37556448347999
 21
110.7574479215178
 31
0.0
 11
26.41867062709657
 21
110.7752790621334
 31
0.0
 11
26.4633501991307
 21
110.7887022889188
 31
0.0
 11
26.51040100486182
 21
110.7980390885411
 31
0.0
 11
26.5581048921128
 21
110.8031425051532
 31
0.0
 11
26.66050453297244
 21
110.8014932437563
 31
0.0
 11
26.76196878330758
 21
110.7856738134226
 31
0.0
 11
26.87069249976441
 21
110.7557794618508
 31
0.0
 11
26.97601049206172
 21
110.7156694092102
 31
0.0
 11
27.08630317796712
 21
110.663499199991
 31
0.0
 11
27.1928476132
 21
110.6041148416
 31
0.0
  0
SPLINE
  5
133
330
1F
100
AcDbEntity
  8
BEZUGSACHSEN
  6
Continuous
 62
     7
100
AcDbSpline
210
0.0
220
0.0
230
1.0
 70
     8
 71
     3
 72
    47
 73
    43
 74
    41
 42
0.0000000001
 43
0.0000000001
 44
0.00000001
 40
0.0
 40
0.0
 40
0.0
 40
0.0
 40
0.6366022431822028
 40
1.273595002171261
 40
1.592921746398857
 40
1.912076344884405
 40
2.231392290413819
 40
2.550826842715997
 40
3.189774321146216
 40
3.829081696996274
 40
4.468337152521952
 40
5.107221744801725
 40
5.426176341291728
 40
5.745033356831399
 40
6.06335673159449
 40
6.38178021489112
 40
7.017059195670334
 40
7.652639340990914
 40
8.28753221424173
 40
8.922347946511762
 40
9.559226748598263
 40
10.19613435939711
 40
10.83451785505967
 40
11.47287689977228
 40
12.11234487369878
 40
12.7518958895361
 40
13.39354300522381
 40
14.0348795735701
 40
14.35615205774283
 40
14.67732107716704
 40
14.99840882479271
 40
15.31959604130014
 40
15.96011121035112
 40
16.60099592094682
 40
17.23809108082899
 40
17.87482555205276
 40
18.19205670338237
 40
18.50917199106128
 40
18.82571084634761
 40
19.1424158183336
 40
19.77338974998893
 40
20.40398930742515
 40
20.40398930742515
 40
20.40398930742515
 40
20.40398930742515
 10
54.5475893433
 20
95.3617788267
 30
0.0
 10
54.55359498718671
 20
95.57405863639524
 30
0.0
 10
54.56560995904844
 20
95.99874847622092
 30
0.0
 10
54.64687530425647
 20
96.52489123733653
 30
0.0
 10
54.73959490085755
 20
96.93986561346085
 30
0.0
 10
54.82488786500166
 20
97.24768958915074
 30
0.0
 10
54.92512647844163
 20
97.55098226592597
 30
0.0
 10
55.07861202759682
 20
97.94841962846323
 30
0.0
 10
55.30708397436975
 20
98.43051920535189
 30
0.0
 10
55.63669893491909
 20
98.97933507820888
 30
0.0
 10
56.0189261520122
 20
99.49287061757093
 30
0.0
 10
56.37778084914094
 20
99.88737337965922
 30
0.0
 10
56.68673420270612
 20
100.1802466777044
 30
0.0
 10
56.92862931167983
 20
100.3879684988091
 30
0.0
 10
57.18027256516893
 20
100.5834778959164
 30
0.0
 10
57.52756667233275
 20
100.8269730985543
 30
0.0
 10
57.98330700709455
 20
101.0988551685777
 30
0.0
 10
58.5587864317794
 20
101.3701842811029
 30
0.0
 10
59.1578971969372
 20
101.5839679119524
 30
0.0
 10
59.77534759939857
 20
101.7386576433619
 30
0.0
 10
60.40561816110026
 20
101.8324646270264
 30
0.0
 10
61.04321209583158
 20
101.8645913518323
 30
0.0
 10
61.6813907400651
 20
101.8341617788829
 30
0.0
 10
62.31440316126042
 20
101.7414905237057
 30
0.0
 10
62.9356368456899
 20
101.5869985624425
 30
0.0
 10
63.53977259764628
 20
101.3719614298843
 30
0.0
 10
64.12025167120788
 20
101.0980380641754
 30
0.0
 10
64.57988069542996
 20
100.8228711861409
 30
0.0
 10
64.92977968411338
 20
100.5762614872996
 30
0.0
 10
65.18291131328644
 20
100.3783572949227
 30
0.0
 10
65.42590995264788
 20
100.1681787654947
 30
0.0
 10
65.7351542961443
 20
99.87265942531329
 30
0.0
 10
66.09347448694247
 20
99.47518844256156
 30
0.0
 10
66.47342490528291
 20
98.959521681036
 30
0.0
 10
66.79989793485217
 20
98.40992552457425
 30
0.0
 10
67.02526907481158
 20
97.92881998286717
 30
0.0
 10
67.17636005796355
 20
97.53282979524715
 30
0.0
 10
67.27477297551309
 20
97.23140344445235
 30
0.0
 10
67.35843975368235
 20
96.92570807651659
 30
0.0
 10
67.44925911112124
 20
96.51415605879393
 30
0.0
 10
67.52877408680047
 20
95.99273084228548
 30
0.0
 10
67.54054637141576
 20
95.57205455314478
 30
0.0
 10
67.546430767
 20
95.3617788268
 30
0.0
 11
54.5475893433
 21
95.3617788267
 31
0.0
 11
54.57883801433981
 21
95.99761366105784
 31
0.0
 11
54.67227921671342
 21
96.62771565018616
 31
0.0
 11
54.74221972374785
 21
96.93928890811239
 31
0.0
 11
54.82736106272399
 21
97.24687728587043
 31
0.0
 11
54.92758560086194
 21
97.55005663052368
 31
0.0
 11
55.04266549061398
 21
97.84804161702326
 31
0.0
 11
55.3162613848583
 21
98.42544889689162
 31
0.0
 11
55.64548089853644
 21
98.97347118898367
 31
0.0
 11
56.02710515388382
 21
99.4863166483083
 31
0.0
 11
56.45703979001263
 21
99.95889439948718
 31
0.0
 11
56.68851205107376
 21
100.1783314678721
 31
0.0
 11
56.93041445210103
 21
100.3860645291216
 31
0.0
 11
57.18178825925553
 21
100.5813616873119
 31
0.0
 11
57.44251753754744
 21
100.7641559929019
 31
0.0
 11
57.98805118175726
 21
101.0896900563347
 31
0.0
 11
58.56296100187598
 21
101.3606897239669
 31
0.0
 11
59.16090718962285
 21
101.5741125837165
 31
0.0
 11
59.77669972184633
 21
101.7283545079632
 31
0.0
 11
60.40663200382398
 21
101.8221624429664
 31
0.0
 11
61.04273512556164
 21
101.8541643680507
 31
0.0
 11
61.68039608458036
 21
101.823800098297
 31
0.0
 11
62.31201361749093
 21
101.7312713887721
 31
0.0
 11
62.93258648961334
 21
101.5769710321185
 31
0.0
 11
63.53508729674972
 21
101.3624523167146
 31
0.0
 11
64.11539449309583
 21
101.0886739776531
 31
0.0
 11
64.66561948113878
 21
100.7591818587316
 31
0.0
 11
64.92822678530904
 21
100.5741050830872
 31
0.0
 11
65.1812472427256
 21
100.3762915669498
 31
0.0
 11
65.42409554410087
 21
100.1662390873299
 31
0.0
 11
65.65629797950945
 21
99.94433086973059
 31
0.0
 11
66.08521403724119
 21
99.46863065194184
 31
0.0
 11
66.46532469589664
 21
98.95263733856282
 31
0.0
 11
66.79076384158269
 21
98.40493339919374
 31
0.0
 11
67.06084469967827
 21
97.82831644060253
 31
0.0
 11
67.17393514485667
 21
97.53192792094757
 31
0.0
 11
67.27237924819501
 21
97.23047997486469
 31
0.0
 11
67.35586205357063
 21
96.92514824033223
 31
0.0
 11
67.42441147701467
 21
96.61595086675649
 31
0.0
 11
67.51583855493921
 21
95.99163588867991
 31
0.0
 11
67.546430767
 21
95.3617788268
 31
0.0
  0
SPLINE
  5
134
330
1F
100
AcDbEntity
  8
0
  6
Continuous
 62
     7
100
AcDbSpline
210
0.0
220
0.0
230
1.0
 70
     8
 71
     3
 72
    19
 73
    15
 74
    13
 42
0.0000000001
 43
0.0000000001
 44
0.00000001
 40
0.0
 40
0.0
 40
0.0
 40
0.0
 40
0.1159638160000636
 40
0.2322191967866127
 40
0.348335568675157
 40
0.4644089766978499
 40
0.5804847760498375
 40
0.6965670370119351
 40
0.8126291299680928
 40
0.9287241177799835
 40
1.160429553148101
 40
1.392722689940271
 40
1.625028291376965
 40
1.856795134137385
 40
1.856795134137385
 40
1.856795134137385
 40
1.856795134137385
 10
95.1720049376
 20
61.6990769344
 30
0.0
 10
95.1333153905278
 20
61.69725351438262
 30
0.0
 10
95.0558390202682
 20
61.69360208977064
 30
0.0
 10
94.94247105825073
 20
61.66544341621155
 30
0.0
 10
94.83445142992218
 20
61.62194356300786
 30
0.0
 10
94.73356090812968
 20
61.56377363407061
 30
0.0
 10
94.64080709992483
 20
61.493541622733
 30
0.0
 10
94.55667757253535
 20
61.41324013804889
 30
0.0
 10
94.48129475173126
 20
61.32471255672246
 30
0.0
 10
94.39250898423771
 20
61.19790990616492
 30
0.0
 10
94.30232521725925
 20
61.02575267399543
 30
0.0
 10
94.22723343663509
 20
60.8054923483736
 30
0.0
 10
94.18056756323523
 20
60.57707181103653
 30
0.0
 10
94.17485693625314
 20
60.42227167123053
 30
0.0
 10
94.1720049376
 20
60.3449614579
 30
0.0
 11
95.1720049376
 21
61.6990769344
 31
0.0
 11
95.0564099044958
 21
61.68983599597711
 31
0.0
 11
94.94332451436475
 21
61.66287290823229
 31
0.0
 11
94.8356175178032
 21
61.61948840970748
 31
0.0
 11
94.73491601517173
 21
61.5617628225059
 31
0.0
 11
94.64224568874823
 21
61.49186431182245
 31
0.0
 11
94.55813141493796
 21
61.41186506025443
 31
0.0
 11
94.48275610261602
 21
61.32360990905217
 31
0.0
 11
94.41603024359323
 21
61.22860619368949
 31
0.0
 11
94.30792659699284
 21
61.02366471333271
 31
0.0
 11
94.23197690516858
 21
60.80413852876115
 31
0.0
 11
94.1868933242715
 21
60.57624960144707
 31
0.0
 11
94.1720049376
 21
60.3449614579
 31
0.0
  0
SPLINE
  5
135
330
1F
100
AcDbEntity
  8
0
  6
Continuous
 62
     7
100
AcDbSpline
210
0.0
220
0.0
230
1.0
 70
     8
 71
     3
 72
    19
 73
    15
 74
    13
 42
0.0000000001
 43
0.0000000001
 44
0.00000001
 40
0.0
 40
0.0
 40
0.0
 40
0.0
 40
0.2317668197500823
 40
0.4640724028542997
 40
0.6963664518832996
 40
0.9280727903108374
 40
1.044168501244245
 40
1.16023131553063
 40
1.276313911523189
 40
1.392390051228103
 40
1.508462883856411
 40
1.624578659543172
 40
1.740832696868887
 40
1.856795195333664
 40
1.856795195333664
 40
1.856795195333664
 40
1.856795195333664
 10
97.9220049376
 20
60.3449614579
 30
0.0
 10
97.91915293950274
 20
60.42227166358872
 30
0.0
 10
97.91344231357554
 20
60.57707178967155
 30
0.0
 10
97.86677639279091
 20
60.80549261312676
 30
0.0
 10
97.79168438858426
 20
61.02575350323068
 30
0.0
 10
97.7015000662447
 20
61.19791141761049
 30
0.0
 10
97.61271360845478
 20
61.32471454520622
 30
0.0
 10
97.53733017047222
 20
61.41324238506917
 30
0.0
 10
97.45320005551082
 20
61.49354393143318
 30
0.0
 10
97.36044597944664
 20
61.56377564723111
 30
0.0
 10
97.25955551790466
 20
61.62194511542897
 30
0.0
 10
97.15153652458233
 20
61.66544431666181
 30
0.0
 10
97.0381695255956
 20
61.69360228082856
 30
0.0
 10
96.9606940444439
 20
61.69725357789684
 30
0.0
 10
96.9220049376
 20
61.6990769344
 30
0.0
 11
97.9220049376
 21
60.3449614579
 31
0.0
 11
97.90711655497779
 21
60.57624957864977
 31
0.0
 11
97.86203298969104
 21
60.80413849036429
 31
0.0
 11
97.78608295875954
 21
61.02366552290422
 31
0.0
 11
97.67797869215772
 21
61.22860769721196
 31
0.0
 11
97.61125223962281
 21
61.32361187937906
 31
0.0
 11
97.53587622994417
 21
61.41186738359834
 31
0.0
 11
97.45176146533912
 21
61.49186660526836
 31
0.0
 11
97.3590906292871
 21
61.56176500549479
 31
0.0
 11
97.25838943574661
 21
61.61948997490908
 31
0.0
 11
97.15068284652102
 21
61.6628738889871
 31
0.0
 11
97.03759867181331
 21
61.6898362817816
 31
0.0
 11
96.9220049376
 21
61.6990769344
 31
0.0
  0
SPLINE
  5
136
330
1F
100
AcDbEntity
  8
BEZUGSACHSEN
  6
Continuous
 62
     7
100
AcDbSpline
210
0.0
220
0.0
230
1.0
 70
     8
 71
     3
 72
    11
 73
     7
 74
     5
 42
0.0000000001
 43
0.0000000001
 44
0.00000001
 40
0.0
 40
0.0
 40
0.0
 40
0.0
 40
0.5462907431867622
 40
1.093000863684045
 40
1.646070107214062
 40
2.198197048811282
 40
2.198197048811282
 40
2.198197048811282
 40
2.198197048811282
 10
35.6008508845
 20
110.3717788462
 30
0.0
 10
35.66392168636396
 20
110.2008472169449
 30
0.0
 10
35.7901117083812
 20
109.858852737381
 30
0.0
 10
35.92974902142004
 20
109.3275786081475
 30
0.0
 10
36.0272373854322
 20
108.7841542031822
 30
0.0
 10
36.04041949994739
 20
108.4155695626091
 30
0.0
 10
36.0470049376
 20
108.2314343719
 30
0.0
 11
35.6008508845
 21
110.3717788462
 31
0.0
 11
35.78170221712919
 21
109.856292307503
 31
0.0
 11
35.92219370182751
 21
109.3279419516014
 31
0.0
 11
36.01426035505793
 21
108.7825894788814
 31
0.0
 11
36.0470049376
 21
108.2314343719
 31
0.0
  0
SPLINE
  5
137
330
1F
100
AcDbEntity
  8
BEZUGSACHSEN
  6
Continuous
 62
     7
100
AcDbSpline
210
0.0
220
0.0
230
1.0
 70
     8
 71
     3
 72
    19
 73
    15
 74
    13
 42
0.0000000001
 43
0.0000000001
 44
0.00000001
 40
0.0
 40
0.0
 40
0.0
 40
0.0
 40
0.1462385988600036
 40
0.2927479275616245
 40
0.4364790706692042
 40
0.5801659236668035
 40
0.7203799972984474
 40
0.8606059382821263
 40
0.9980411883967749
 40
1.135484020424728
 40
1.405415631068605
 40
1.675815514066264
 40
1.943997429502126
 40
2.211934834728989
 40
2.211934834728989
 40
2.211934834728989
 40
2.211934834728989
 10
34.0470049376
 20
111.7204264336
 30
0.0
 10
34.09571974296719
 20
111.7237345109117
 30
0.0
 10
34.19323953886229
 20
111.7303567897406
 30
0.0
 10
34.33857579918989
 20
111.7139974769919
 30
0.0
 10
34.47923273629736
 20
111.6788257109193
 30
0.0
 10
34.61208486973192
 20
111.6260200243038
 30
0.0
 10
34.73653933279792
 20
111.5583482365946
 30
0.0
 10
34.85134188996942
 20
111.4790480352233
 30
0.0
 10
34.95745182773515
 20
111.3899633956432
 30
0.0
 10
35.08655429288299
 20
111.2620158600644
 30
0.0
 10
35.2295941427612
 20
111.0862135711558
 30
0.0
 10
35.37450174445635
 20
110.858528105277
 30
0.0
 10
35.49913849289889
 20
110.6198654858068
 30
0.0
 10
35.56695706406728
 20
110.4544492453738
 30
0.0
 10
35.6008508845
 20
110.3717788462
 30
0.0
 11
34.0470049376
 21
111.7204264336
 31
0.0
 11
34.19313879950441
 21
111.7259601666474
 31
0.0
 11
34.33884816034855
 21
111.710670772971
 31
0.0
 11
34.4782782418743
 21
111.6757724368397
 31
0.0
 11
34.61191057878507
 21
111.6229679838445
 31
0.0
 11
34.73522436960243
 21
111.5562319707883
 31
0.0
 11
34.85075548093013
 21
111.4767594796977
 31
0.0
 11
34.95616803069299
 21
111.3885742069671
 31
0.0
 11
35.05395653436049
 21
111.2919929426022
 31
0.0
 11
35.22520493022176
 21
111.0833375776107
 31
0.0
 11
35.37154735075232
 21
110.8559612536928
 31
0.0
 11
35.4954149765591
 21
110.618099211652
 31
0.0
 11
35.6008508845
 21
110.3717788462
 31
0.0
  0
SPLINE
  5
138
330
1F
100
AcDbEntity
  8
BEZUGSACHSEN
  6
Continuous
 62
     7
100
AcDbSpline
210
0.0
220
0.0
230
1.0
 70
     8
 71
     3
 72
    11
 73
     7
 74
     5
 42
0.0000000001
 43
0.0000000001
 44
0.00000001
 40
0.0
 40
0.0
 40
0.0
 40
0.0
 40
0.5521269407067898
 40
1.105196183364637
 40
1.651906304756664
 40
2.198197048721927
 40
2.198197048721927
 40
2.198197048721927
 40
2.198197048721927
 10
36.0470049376
 20
82.4921233204
 30
0.0
 10
36.0404194999722
 20
82.30798812998799
 30
0.0
 10
36.02723738550645
 20
81.93940349000293
 30
0.0
 10
35.92974902170567
 20
81.39597908529906
 30
0.0
 10
35.7901117086934
 20
80.8647049557764
 30
0.0
 10
35.66392168646355
 20
80.52271047569545
 30
0.0
 10
35.6008508845
 20
80.3517788462
 30
0.0
 11
36.0470049376
 21
82.4921233204
 31
0.0
 11
36.01426035517319
 21
81.94096821430378
 31
0.0
 11
35.92219370222982
 21
81.39561574241984
 31
0.0
 11
35.7817022173964
 21
80.86726538562826
 31
0.0
 11
35.6008508845
 21
80.3517788462
 31
0.0
  0
SPLINE
  5
139
330
1F
100
AcDbEntity
  8
BEZUGSACHSEN
  6
Continuous
 62
     7
100
AcDbSpline
210
0.0
220
0.0
230
1.0
 70
     8
 71
     3
 72
    19
 73
    15
 74
    13
 42
0.0000000001
 43
0.0000000001
 44
0.00000001
 40
0.0
 40
0.0
 40
0.0
 40
0.0
 40
0.2679411643267606
 40
0.5361267937201373
 40
0.8065304774172257
 40
1.07646599327073
 40
1.213913376167249
 40
1.351353104874884
 40
1.491586367043114
 40
1.631807897533011
 40
1.775491562751294
 40
1.919219204737279
 40
2.065713007383593
 40
2.211936409394601
 40
2.211936409394601
 40
2.211936409394601
 40
2.211936409394601
 10
35.6008508845
 20
80.3517788462
 30
0.0
 10
35.56695664073446
 20
80.26910726648515
 30
0.0
 10
35.4991372286585
 20
80.10368867887965
 30
0.0
 10
35.37449872237842
 20
79.86502270518747
 30
0.0
 10
35.2295879230432
 20
79.63733470916124
 30
0.0
 10
35.08654429151665
 20
79.46153021784804
 30
0.0
 10
34.95743790461493
 20
79.33358049873976
 30
0.0
 10
34.85132280555251
 20
79.2444934779491
 30
0.0
 10
34.73651337790618
 20
79.16519183764223
 30
0.0
 10
34.61205376567207
 20
79.09752137021435
 30
0.0
 10
34.47920021053503
 20
79.04471868353235
 30
0.0
 10
34.33854941165753
 20
79.00955241952602
 30
0.0
 10
34.19322402853467
 20
78.99320021758291
 30
0.0
 10
34.09571460945676
 20
78.99982295093446
 30
0.0
 10
34.0470049376
 20
79.0031312587
 30
0.0
 11
35.6008508845
 21
80.3517788462
 31
0.0
 11
35.49541362486856
 21
80.1054549703329
 31
0.0
 11
35.37154410930444
 21
79.86758972502155
 31
0.0
 11
35.22519862299116
 21
79.64021085442737
 31
0.0
 11
35.05394643186266
 21
79.43155355224796
 31
0.0
 11
34.95615399318335
 21
79.33496979583802
 31
0.0
 11
34.85073700392865
 21
79.24678285007107
 31
0.0
 11
34.73519836021522
 21
79.16730839110969
 31
0.0
 11
34.61187635032186
 21
79.10057189817822
 31
0.0
 11
34.47824566212201
 21
79.0477719472143
 31
0.0
 11
34.33881796091423
 21
79.01287852080236
 31
0.0
 11
34.19312352238355
 21
78.99759569400204
 31
0.0
 11
34.0470049376
 21
79.0031312587
 31
0.0
  0
SPLINE
  5
13A
330
1F
100
AcDbEntity
  8
BEZUGSACHSEN
  6
Continuous
 62
     7
100
AcDbSpline
210
0.0
220
0.0
230
1.0
 70
     8
 71
     3
 72
    47
 73
    43
 74
    41
 42
0.0000000001
 43
0.0000000001
 44
0.00000001
 40
0.0
 40
0.0
 40
0.0
 40
0.0
 40
0.6302393214806613
 40
1.260854867359805
 40
1.577476088434155
 40
1.893930800251747
 40
2.210999113892155
 40
2.52818347223258
 40
3.164887038287306
 40
3.801951183445371
 40
4.442851001662361
 40
5.083381259820702
 40
5.404527292339267
 40
5.725573838781437
 40
6.046670710052127
 40
6.367871027174179
 40
7.009090242556152
 40
7.650619763955891
 40
8.290330346487602
 40
8.929958764478323
 40
9.568647011364872
 40
10.20735923016784
 40
10.8444570581855
 40
11.48152626497131
 40
12.11643462223007
 40
12.75141965579725
 40
13.38691908738442
 40
14.02211738533195
 40
14.34050449145842
 40
14.65879153795455
 40
14.97761586871915
 40
15.29653774948037
 40
15.93537694102998
 40
16.57458694068566
 40
17.21386274994168
 40
17.85277859077562
 40
18.17219860085072
 40
18.49150024078426
 40
18.81067156638673
 40
19.1300145242564
 40
19.76719627025968
 40
20.40398968281481
 40
20.40398968281481
 40
20.40398968281481
 40
20.40398968281481
 10
67.5464185755
 20
95.3617788649
 30
0.0
 10
67.54054937372956
 20
95.1516228430046
 30
0.0
 10
67.52880746654047
 20
94.73118534556437
 30
0.0
 10
67.44936072403037
 20
94.21002190329281
 30
0.0
 10
67.35862921893334
 20
93.79863043587254
 30
0.0
 10
67.27502383661167
 20
93.49299259559037
 30
0.0
 10
67.1766718952359
 20
93.1916087494051
 30
0.0
 10
67.02565308438015
 20
92.79563556980699
 30
0.0
 10
66.80037049677827
 20
92.31452876111503
 30
0.0
 10
66.47399246203433
 20
91.76489453610428
 30
0.0
 10
66.09412540000238
 20
91.24916667343808
 30
0.0
 10
65.73587096072386
 20
90.85164127123463
 30
0.0
 10
65.42669022305778
 20
90.55608791629945
 30
0.0
 10
65.18376526702832
 20
90.34590300786574
 30
0.0
 10
64.93071636370163
 20
90.14799354355065
 30
0.0
 10
64.58093385523777
 20
89.90137019209129
 30
0.0
 10
64.12144861748544
 20
89.6261635828181
 30
0.0
 10
63.54105291052938
 20
89.352123476106
 30
0.0
 10
62.93689860269956
 20
89.1369349987491
 30
0.0
 10
62.3154834552939
 20
88.9822731597088
 30
0.0
 10
61.68221424385127
 20
88.88946278667727
 30
0.0
 10
61.04375477941019
 20
88.85895203686937
 30
0.0
 10
60.4059217658553
 20
88.89105377925102
 30
0.0
 10
59.77549177886215
 20
88.98486684162752
 30
0.0
 10
59.15791810936497
 20
89.13958065791681
 30
0.0
 10
58.55877469793208
 20
89.3533772299902
 30
0.0
 10
57.98331747646588
 20
89.6246985984467
 30
0.0
 10
57.52763208351078
 20
89.8965434820955
 30
0.0
 10
57.18037618576022
 20
90.14000403468704
 30
0.0
 10
56.92875660445544
 20
90.33548656100663
 30
0.0
 10
56.68688155418126
 20
90.54317961969538
 30
0.0
 10
56.37794527049866
 20
90.83601716781813
 30
0.0
 10
56.01910251360402
 20
91.2304748167437
 30
0.0
 10
55.63687560835839
 20
91.74395948269418
 30
0.0
 10
55.3072511631072
 20
92.29272726142244
 30
0.0
 10
55.07876371718781
 20
92.77479067791731
 30
0.0
 10
54.92526221721904
 20
93.17220023708036
 30
0.0
 10
54.82500541429282
 20
93.47548260036469
 30
0.0
 10
54.73968892137179
 20
93.78330647207463
 30
0.0
 10
54.64692646601742
 20
94.19834733918476
 30
0.0
 10
54.56563409912194
 20
94.72462013826555
 30
0.0
 10
54.55359429958234
 20
95.1494357879618
 30
0.0
 10
54.5475762348
 20
95.3617788666
 30
0.0
 11
67.5464185755
 21
95.3617788649
 31
0.0
 11
67.51587899672317
 21
94.73227990821418
 31
0.0
 11
67.42454772120759
 21
94.10831311036581
 31
0.0
 11
67.35605298250218
 21
93.79918939984802
 31
0.0
 11
67.27263415764124
 21
93.49392740697898
 31
0.0
 11
67.17424741379119
 21
93.1925101477695
 31
0.0
 11
67.06121678268705
 21
92.89614889252849
 31
0.0
 11
66.79123664617474
 21
92.31951889251496
 31
0.0
 11
66.46590002432139
 21
91.77179012065153
 31
0.0
 11
66.08586352952943
 21
91.25572341990751
 31
0.0
 11
65.65701303186871
 21
90.77994378365503
 31
0.0
 11
65.42487589749871
 21
90.55802685088761
 31
0.0
 11
65.18209340416236
 21
90.34796127562163
 31
0.0
 11
64.92916379586403
 21
90.15014870275054
 31
0.0
 11
64.66664940002968
 21
89.96506538178662
 31
0.0
 11
64.11659121843087
 21
89.63552315530983
 31
0.0
 11
63.53645038677988
 21
89.36166782438
 31
0.0
 11
62.93384507648832
 21
89.14696694079664
 31
0.0
 11
62.31314580616704
 21
88.99251005709141
 31
0.0
 11
61.68121699224464
 21
88.89983508287695
 31
0.0
 11
61.04323086506347
 21
88.86938840863193
 31
0.0
 11
60.4069358769386
 21
88.90136231286638
 31
0.0
 11
59.77681260283093
 21
88.99518040100784
 31
0.0
 11
59.16092869458949
 21
89.14943873526005
 31
0.0
 11
58.56289622477051
 21
89.36289401839105
 31
0.0
 11
57.9880604762238
 21
89.6338615251891
 31
0.0
 11
57.44259378868242
 21
89.95935034296642
 31
0.0
 11
57.18189149590551
 21
90.14211977117708
 31
0.0
 11
56.93054224409718
 21
90.3373893222664
 31
0.0
 11
56.68865894574761
 21
90.54509445909991
 31
0.0
 11
56.45720311444742
 21
90.76450130535912
 31
0.0
 11
56.0272800835672
 21
91.23702823599749
 31
0.0
 11
55.6456589441094
 21
91.74981935290451
 31
0.0
 11
55.31642746993036
 21
92.29779763414368
 31
0.0
 11
55.04281316278632
 21
92.87516117871039
 31
0.0
 11
54.92772091032636
 21
93.17312580120787
 31
0.0
 11
54.82748122189948
 21
93.47628506979177
 31
0.0
 11
54.74231414168224
 21
93.7838836776139
 31
0.0
 11
54.67235111420855
 21
94.0954684967686
 31
0.0
 11
54.57886221726833
 21
94.7257544664591
 31
0.0
 11
54.5475762348
 21
95.3617788666
 31
0.0
  0
SPLINE
  5
13B
330
1F
100
AcDbEntity
  8
RUNDUNGEN
  6
Continuous
 62
     7
100
AcDbSpline
210
0.0
220
0.0
230
1.0
 70
     8
 71
     3
 72
    13
 73
     9
 74
     7
 42
0.0000000001
 43
0.0000000001
 44
0.00000001
 40
0.0
 40
0.0
 40
0.0
 40
0.0
 40
0.4663350255889678
 40
0.932661778338747
 40
1.157625267027845
 40
1.382612551958813
 40
1.702270910738001
 40
2.021668295212836
 40
2.021668295212836
 40
2.021668295212836
 40
2.021668295212836
 10
221.905381556
 20
78.0855937435
 30
0.0
 10
221.7498420732481
 20
78.08007709130293
 30
0.0
 10
221.4387658670335
 20
78.06904388477483
 30
0.0
 10
221.0585252685122
 20
77.99384680052356
 30
0.0
 10
220.7653699244411
 20
77.90767973397755
 30
0.0
 10
220.5249524188293
 20
77.81783806625843
 30
0.0
 10
220.2629828634844
 20
77.69588499953468
 30
0.0
 10
220.0850989045821
 20
77.57823389832728
 30
0.0
 10
219.9961932468
 20
77.5194323706
 30
0.0
 11
221.905381556
 21
78.0855937435
 31
0.0
 11
221.4399452477545
 21
78.05665589531054
 31
0.0
 11
220.9819271690079
 21
77.96901983040866
 31
0.0
 11
220.7662270167693
 21
77.90512917720034
 31
0.0
 11
220.5553815559881
 21
77.82662140657493
 31
0.0
 11
220.2668748826458
 21
77.68897924089023
 31
0.0
 11
219.9961932468
 21
77.5194323706
 31
0.0
  0
SPLINE
  5
13C
330
1F
100
AcDbEntity
  8
RUNDUNGEN
  6
Continuous
 62
     7
100
AcDbSpline
210
0.0
220
0.0
230
1.0
 70
     8
 71
     3
 72
    13
 73
     9
 74
     7
 42
0.0000000001
 43
0.0000000001
 44
0.00000001
 40
0.0
 40
0.0
 40
0.0
 40
0.0
 40
0.4307837678762699
 40
0.8616138580902856
 40
1.090255743276177
 40
1.31889080912011
 40
1.670307948846044
 40
2.021585355941768
 40
2.021585355941768
 40
2.021585355941768
 40
2.021585355941768
 10
219.9961932468
 20
113.2041253217
 30
0.0
 10
220.1172116012561
 20
113.1262978905474
 30
0.0
 10
220.3592613233168
 20
112.9706346594299
 30
0.0
 10
220.6990950468999
 20
112.8360724861152
 30
0.0
 10
220.9828447073552
 20
112.751553728393
 30
0.0
 10
221.246083506421
 20
112.6927345191159
 30
0.0
 10
221.5539285714897
 20
112.6473621748374
 30
0.0
 10
221.7882460927119
 20
112.6410962754824
 30
0.0
 10
221.905381556
 20
112.6379639488
 30
0.0
 11
219.9961932468
 21
113.2041253217
 31
0.0
 11
220.3658766260124
 21
112.9829718595978
 31
0.0
 11
220.7643122492816
 21
112.8190706065706
 31
0.0
 11
220.9835341457096
 21
112.7541177637701
 31
0.0
 11
221.2065701342033
 21
112.7038291848471
 31
0.0
 11
221.5544865425308
 21
112.6543501093743
 31
0.0
 11
221.905381556
 21
112.6379639488
 31
0.0
  0
SPLINE
  5
13D
330
1F
100
AcDbEntity
  8
FASEN
  6
Continuous
 62
     7
100
AcDbSpline
210
0.0
220
0.0
230
1.0
 70
     8
 71
     3
 72
     9
 73
     5
 74
     3
 42
0.0000000001
 43
0.0000000001
 44
0.00000001
 40
0.0
 40
0.0
 40
0.0
 40
0.0
 40
3.455417107874408
 40
6.898724895997707
 40
6.898724895997707
 40
6.898724895997707
 40
6.898724895997707
 10
218.288552276
 20
114.4266671324
 30
0.0
 10
218.165988978183
 20
113.2777513754173
 30
0.0
 10
217.9212918989043
 20
110.983946173713
 30
0.0
 10
218.1662754900579
 20
108.6902021372717
 30
0.0
 10
218.288552276
 20
107.5453432215
 30
0.0
 11
218.288552276
 21
114.4266671324
 31
0.0
 11
218.0437126951546
 21
110.9799352064965
 31
0.0
 11
218.288552276
 21
107.5453432215
 31
0.0
  0
SPLINE
  5
13E
330
1F
100
AcDbEntity
  8
FASEN
  6
Continuous
 62
     7
100
AcDbSpline
210
0.0
220
0.0
230
1.0
 70
     8
 71
     3
 72
     9
 73
     5
 74
     3
 42
0.0000000001
 43
0.0000000001
 44
0.00000001
 40
0.0
 40
0.0
 40
0.0
 40
0.0
 40
3.458343190210456
 40
6.900750852727589
 40
6.900750852727589
 40
6.900750852727589
 40
6.900750852727589
 10
218.288552275709
 20
83.1782144700873
 30
0.0
 10
218.1589931511388
 20
82.02865621034556
 30
0.0
 10
217.9004718910489
 20
79.73483668322976
 30
0.0
 10
218.1593914505162
 20
77.44110700641431
 30
0.0
 10
218.288552275839
 20
76.2968905604472
 30
0.0
 11
218.288552275709
 21
83.1782144700873
 31
0.0
 11
218.0298332456519
 21
79.7295622573002
 31
0.0
 11
218.288552275839
 21
76.2968905604472
 31
0.0
  0
SPLINE
  5
13F
330
1F
100
AcDbEntity
  8
BEZUGSACHSEN
  6
Continuous
 62
     7
100
AcDbSpline
210
0.0
220
0.0
230
1.0
 70
     8
 71
     3
 72
    11
 73
     7
 74
     5
 42
0.0000000001
 43
0.0000000001
 44
0.00000001
 40
0.0
 40
0.0
 40
0.0
 40
0.0
 40
0.9140556660005955
 40
1.828030949186168
 40
2.279806974871419
 40
2.730944124762803
 40
2.730944124762803
 40
2.730944124762803
 40
2.730944124762803
 10
27.3139578644854
 20
80.3517788463847
 30
0.0
 10
27.44661257144877
 20
80.62649544405136
 30
0.0
 10
27.71191031961034
 20
81.17590448057874
 30
0.0
 10
27.92726553292308
 20
81.90861540168368
 30
0.0
 10
28.03095974658538
 20
82.50656060778977
 30
0.0
 10
28.04165906410649
 20
82.80768382321654
 30
0.0
 10
28.0470049376
 20
82.9581388978
 30
0.0
 11
27.3139578644854
 21
80.3517788463847
 31
0.0
 11
27.6887653942609
 21
81.18545568795545
 31
0.0
 11
27.94805675465877
 21
82.06187956297094
 31
0.0
 11
28.02077372815738
 21
82.50776499573273
 31
0.0
 11
28.0470049376
 21
82.9581388978
 31
0.0
  0
SPLINE
  5
140
330
1F
100
AcDbEntity
  8
BEZUGSACHSEN
  6
Continuous
 62
     7
100
AcDbSpline
210
0.0
220
0.0
230
1.0
 70
     8
 71
     3
 72
    11
 73
     7
 74
     5
 42
0.0000000001
 43
0.0000000001
 44
0.00000001
 40
0.0
 40
0.0
 40
0.0
 40
0.0
 40
0.8249192367595183
 40
1.650116892030061
 40
2.190492152392582
 40
2.730585915477331
 40
2.730585915477331
 40
2.730585915477331
 40
2.730585915477331
 10
28.0470049376
 20
107.7654187945
 30
0.0
 10
28.02927163326374
 20
108.0406090865063
 30
0.0
 10
27.99379903942323
 20
108.5910825500008
 30
0.0
 10
27.78536422278239
 20
109.295816135187
 30
0.0
 10
27.55513779180064
 20
109.8880298602707
 30
0.0
 10
27.39433720899877
 20
110.210557193716
 30
0.0
 10
27.3139578644854
 20
110.371778846015
 30
0.0
 11
28.0470049376
 21
107.7654187945
 31
0.0
 11
27.96342948348429
 21
108.5860934502834
 31
0.0
 11
27.74546804137248
 21
109.3819853901952
 31
0.0
 11
27.54753296281326
 21
109.8848045691131
 31
0.0
 11
27.3139578644854
 21
110.371778846015
 31
0.0
  0
SPLINE
  5
141
330
1F
100
AcDbEntity
  8
FASEN
  6
Continuous
 62
     7
100
AcDbSpline
210
0.0
220
0.0
230
1.0
 70
    24
 71
     3
 72
     9
 73
     5
 74
     3
 42
0.0000000001
 43
0.0000000001
 44
0.00000001
 40
0.0
 40
0.0
 40
0.0
 40
0.0
 40
0.2578063726613022
 40
0.5156127453225935
 40
0.5156127453225935
 40
0.5156127453225935
 40
0.5156127453225935
 10
104.597004938881
 20
56.4108160863442
 30
0.0
 10
104.6636716050747
 20
56.46504208088184
 30
0.0
 10
104.797004937462
 20
56.57349406995715
 30
0.0
 10
104.9303382698493
 20
56.68194605903246
 30
0.0
 10
104.997004936043
 20
56.7361720535701
 30
0.0
 11
104.597004938881
 21
56.4108160863442
 31
0.0
 11
104.797004937462
 21
56.57349406995715
 31
0.0
 11
104.997004936043
 21
56.7361720535701
 31
0.0
  0
DIMENSION
  5
14C
330
1F
100
AcDbEntity
  8
1
100
AcDbDimension
  2
*D2
 10
248.925863025028
 20
115.3617788462
 30
0.0
 11
245.175863025028
 21
94.7036219933205
 31
0.0
 70
    32
  1
<>
 71
     5
 42
-1.0
 53
90.0
  3
ME10_DIM_10
100
AcDbAlignedDimension
 13
221.0470049376
 23
75.3617788462
 33
0.0
 14
221.0470049376
 24
115.3617788462
 34
0.0
 50
90.0
100
AcDbRotatedDimension
  0
DIMENSION
  5
157
330
1F
100
AcDbEntity
  8
1
100
AcDbDimension
  2
*D3
 10
258.182453873065
 20
126.8617788461
 30
0.0
 11
254.432453873065
 21
95.2646274992621
 31
0.0
 70
    32
  1
<>
 71
     5
 42
-1.0
 53
90.0
  3
ME10_DIM_11
100
AcDbAlignedDimension
 13
218.0470049376
 23
63.8617788462
 33
0.0
 14
218.0470049376
 24
126.8617788461
 34
0.0
 50
90.0
100
AcDbRotatedDimension
  0
DIMENSION
  5
162
330
1F
100
AcDbEntity
  8
1
100
AcDbDimension
  2
*D4
 10
221.0470049376
 20
151.750202547139
 30
0.0
 11
162.285233067271
 21
155.500202547139
 31
0.0
 70
    32
  1
<>
 71
     5
 42
-1.0
 53
0.00013888888889
  3
ME10_DIM_12
100
AcDbAlignedDimension
 13
105.0470049376
 23
145.3617419759
 33
0.0
 14
221.0470049376
 24
120.3617788462
 34
0.0
100
AcDbRotatedDimension
  0
DIMENSION
  5
16D
330
1F
100
AcDbEntity
  8
1
100
AcDbDimension
  2
*D5
 10
221.0470049376
 20
158.721181119526
 30
0.0
 11
148.513299790115
 21
162.471181119526
 31
0.0
 70
    32
  1
<>
 71
     5
 42
-1.0
 53
0.00013888888889
  3
ME10_DIM_13
100
AcDbAlignedDimension
 13
76.0470049376
 23
145.3617788462
 33
0.0
 14
221.0470049376
 24
120.3617788462
 34
0.0
100
AcDbRotatedDimension
  0
DIMENSION
  5
178
330
1F
100
AcDbEntity
  8
1
100
AcDbDimension
  2
*D6
 10
221.0470049376
 20
172.83316213192
 30
0.0
 11
128.620507278668
 21
176.58316213192
 31
0.0
 70
    32
  1
<>
 71
     5
 42
-1.0
 53
0.00013888888889
  3
ME10_DIM_14
100
AcDbAlignedDimension
 13
26.0470049376
 23
128.9619704087
 33
0.0
 14
221.0470049376
 24
120.3617788462
 34
0.0
100
AcDbRotatedDimension
  0
DIMENSION
  5
183
330
1F
100
AcDbEntity
  8
1
100
AcDbDimension
  2
*D7
 10
76.0470049376
 20
166.032207427152
 30
0.0
 11
161.605137596794
 21
169.782207427152
 31
0.0
 70
    32
  1
<>
 71
     5
 42
-1.0
 53
0.00013888888889
  3
ME10_DIM_15
100
AcDbAlignedDimension
 13
236.0470049376
 23
120.8617788462
 33
0.0
 14
76.0470049376
 24
145.3617788462
 34
0.0
100
AcDbRotatedDimension
  0
INSERT
  5
18A
330
1F
100
AcDbEntity
  8
1
100
AcDbBlockReference
  2
*D8
 10
0.0
 20
0.0
 30
0.0
  0
ENDSEC
  0
SECTION
  2
OBJECTS
  0
DICTIONARY
  5
C
330
0
100
AcDbDictionary
281
     1
  3
ACAD_GROUP
350
D
  3
ACAD_LAYOUT
350
1A
  3
ACAD_MLEADERSTYLE
350
18D
  3
ACAD_MLINESTYLE
350
17
  3
ACAD_PLOTSETTINGS
350
19
  3
ACAD_PLOTSTYLENAME
350
E
  3
ACAD_SCALELIST
350
4B
  3
ACAD_VISUALSTYLE
350
2A
  3
AcDbVariableDictionary
350
18B
  0
DICTIONARY
  5
D
102
{ACAD_REACTORS
330
C
102
}
330
C
100
AcDbDictionary
281
     1
  0
DICTIONARY
  5
1A
102
{ACAD_REACTORS
330
C
102
}
330
C
100
AcDbDictionary
281
     1
  3
Layout1
350
1E
  3
Layout2
350
26
  3
Model
350
22
  0
DICTIONARY
  5
18D
102
{ACAD_REACTORS
330
C
102
}
330
C
100
AcDbDictionary
281
     1
  0
DICTIONARY
  5
17
102
{ACAD_REACTORS
330
C
102
}
330
C
100
AcDbDictionary
281
     1
  3
Standard
350
18
  0
DICTIONARY
  5
19
102
{ACAD_REACTORS
330
C
102
}
330
C
100
AcDbDictionary
281
     1
  0
ACDBDICTIONARYWDFLT
  5
E
102
{ACAD_REACTORS
330
C
102
}
330
C
100
AcDbDictionary
281
     1
  3
Normal
350
F
100
AcDbDictionaryWithDefault
340
F
  0
DICTIONARY
  5
4B
102
{ACAD_REACTORS
330
C
102
}
330
C
100
AcDbDictionary
281
     1
  3
A0
350
4C
  3
A1
350
4D
  3
A2
350
4E
  3
A3
350
4F
  3
A4
350
50
  3
A5
350
51
  3
A6
350
52
  3
A7
350
53
  3
A8
350
54
  3
A9
350
55
  3
B0
350
56
  3
B1
350
57
  3
B2
350
58
  3
B3
350
59
  3
B4
350
5A
  3
B5
350
5B
  3
B6
350
5C
  3
B7
350
5D
  3
B8
350
5E
  3
B9
350
5F
  3
C0
350
60
  3
C1
350
61
  3
C2
350
62
  3
C3
350
63
  3
C4
350
64
  3
C5
350
65
  3
C6
350
66
  3
C7
350
67
  3
C8
350
68
  3
C9
350
69
  3
D0
350
6A
  3
D1
350
6B
  3
D2
350
6C
  0
DICTIONARY
  5
2A
102
{ACAD_REACTORS
330
C
102
}
330
C
100
AcDbDictionary
281
     1
  3
2dWireframe
350
2F
  3
3D Hidden
350
31
  3
3dWireframe
350
30
  3
Basic
350
32
  3
Brighten
350
36
  3
ColorChange
350
3A
  3
Conceptual
350
34
  3
Dim
350
35
  3
Facepattern
350
39
  3
Flat
350
2B
  3
FlatWithEdges
350
2C
  3
Gouraud
350
2D
  3
GouraudWithEdges
350
2E
  3
Linepattern
350
38
  3
Realistic
350
33
  3
Thicken
350
37
  0
DICTIONARY
  5
18B
102
{ACAD_REACTORS
330
C
102
}
330
C
100
AcDbDictionary
281
     1
  3
CANNOSCALE
350
18E
  0
LAYOUT
  5
1E
102
{ACAD_REACTORS
330
1A
102
}
330
1A
100
AcDbPlotSettings
  1

  2
none_device
  4

  6

 40
0.0
 41
0.0
 42
0.0
 43
0.0
 44
0.0
 45
0.0
 46
0.0
 47
0.0
 48
0.0
 49
0.0
140
0.0
141
0.0
142
1.0
143
1.0
 70
   688
 72
     0
 73
     0
 74
     5
  7

 75
    16
147
1.0
148
0.0
149
0.0
100
AcDbLayout
  1
Layout1
 70
     1
 71
     1
 10
0.0
 20
0.0
 11
12.0
 21
9.0
 12
0.0
 22
0.0
 32
0.0
 14
1.00000000000000E+20
 24
1.00000000000000E+20
 34
1.00000000000000E+20
 15
-1.00000000000000E+20
 25
-1.00000000000000E+20
 35
-1.00000000000000E+20
146
0.0
 13
0.0
 23
0.0
 33
0.0
 16
1.0
 26
0.0
 36
0.0
 17
0.0
 27
1.0
 37
0.0
 76
     0
330
1B
  0
LAYOUT
  5
26
102
{ACAD_REACTORS
330
1A
102
}
330
1A
100
AcDbPlotSettings
  1

  2
none_device
  4

  6

 40
0.0
 41
0.0
 42
0.0
 43
0.0
 44
0.0
 45
0.0
 46
0.0
 47
0.0
 48
0.0
 49
0.0
140
0.0
141
0.0
142
1.0
143
1.0
 70
   688
 72
     0
 73
     0
 74
     5
  7

 75
    16
147
1.0
148
0.0
149
0.0
100
AcDbLayout
  1
Layout2
 70
     1
 71
     2
 10
0.0
 20
0.0
 11
0.0
 21
0.0
 12
0.0
 22
0.0
 32
0.0
 14
0.0
 24
0.0
 34
0.0
 15
0.0
 25
0.0
 35
0.0
146
0.0
 13
0.0
 23
0.0
 33
0.0
 16
1.0
 26
0.0
 36
0.0
 17
0.0
 27
1.0
 37
0.0
 76
     0
330
23
  0
LAYOUT
  5
22
102
{ACAD_REACTORS
330
1A
102
}
330
1A
100
AcDbPlotSettings
  1

  2
none_device
  4

  6

 40
0.0
 41
0.0
 42
0.0
 43
0.0
 44
0.0
 45
0.0
 46
0.0
 47
0.0
 48
0.0
 49
0.0
140
0.0
141
0.0
142
1.0
143
1.0
 70
  1712
 72
     0
 73
     0
 74
     0
  7

 75
     0
147
1.0
148
0.0
149
0.0
100
AcDbLayout
  1
Model
 70
     1
 71
     0
 10
0.0
 20
0.0
 11
12.0
 21
9.0
 12
0.0
 22
0.0
 32
0.0
 14
1.2411291340331
 24
45.3617788462
 34
0.0
 15
260.182453873065
 25
178.33316213192
 35
0.0
146
0.0
 13
0.0
 23
0.0
 33
0.0
 16
1.0
 26
0.0
 36
0.0
 17
0.0
 27
1.0
 37
0.0
 76
     0
330
1F
331
29
  0
MLINESTYLE
  5
18
102
{ACAD_REACTORS
330
17
102
}
330
17
100
AcDbMlineStyle
  2
Standard
 70
     0
  3

 62
   256
 51
90.0
 52
90.0
 71
     2
 49
0.5
 62
   256
  6
BYLAYER
 49
-0.5
 62
   256
  6
BYLAYER
  0
ACDBPLACEHOLDER
  5
F
102
{ACAD_REACTORS
330
E
102
}
330
E
  0
SCALE
  5
4C
102
{ACAD_REACTORS
330
4B
102
}
330
4B
100
AcDbScale
 70
     0
300
1:1
140
1.0
141
1.0
290
     1
  0
SCALE
  5
4D
102
{ACAD_REACTORS
330
4B
102
}
330
4B
100
AcDbScale
 70
     0
300
1:2
140
1.0
141
2.0
290
     0
  0
SCALE
  5
4E
102
{ACAD_REACTORS
330
4B
102
}
330
4B
100
AcDbScale
 70
     0
300
1:4
140
1.0
141
4.0
290
     0
  0
SCALE
  5
4F
102
{ACAD_REACTORS
330
4B
102
}
330
4B
100
AcDbScale
 70
     0
300
1:5
140
1.0
141
5.0
290
     0
  0
SCALE
  5
50
102
{ACAD_REACTORS
330
4B
102
}
330
4B
100
AcDbScale
 70
     0
300
1:8
140
1.0
141
8.0
290
     0
  0
SCALE
  5
51
102
{ACAD_REACTORS
330
4B
102
}
330
4B
100
AcDbScale
 70
     0
300
1:10
140
1.0
141
10.0
290
     0
  0
SCALE
  5
52
102
{ACAD_REACTORS
330
4B
102
}
330
4B
100
AcDbScale
 70
     0
300
1:16
140
1.0
141
16.0
290
     0
  0
SCALE
  5
53
102
{ACAD_REACTORS
330
4B
102
}
330
4B
100
AcDbScale
 70
     0
300
1:20
140
1.0
141
20.0
290
     0
  0
SCALE
  5
54
102
{ACAD_REACTORS
330
4B
102
}
330
4B
100
AcDbScale
 70
     0
300
1:30
140
1.0
141
30.0
290
     0
  0
SCALE
  5
55
102
{ACAD_REACTORS
330
4B
102
}
330
4B
100
AcDbScale
 70
     0
300
1:40
140
1.0
141
40.0
290
     0
  0
SCALE
  5
56
102
{ACAD_REACTORS
330
4B
102
}
330
4B
100
AcDbScale
 70
     0
300
1:50
140
1.0
141
50.0
290
     0
  0
SCALE
  5
57
102
{ACAD_REACTORS
330
4B
102
}
330
4B
100
AcDbScale
 70
     0
300
1:100
140
1.0
141
100.0
290
     0
  0
SCALE
  5
58
102
{ACAD_REACTORS
330
4B
102
}
330
4B
100
AcDbScale
 70
     0
300
2:1
140
2.0
141
1.0
290
     0
  0
SCALE
  5
59
102
{ACAD_REACTORS
330
4B
102
}
330
4B
100
AcDbScale
 70
     0
300
4:1
140
4.0
141
1.0
290
     0
  0
SCALE
  5
5A
102
{ACAD_REACTORS
330
4B
102
}
330
4B
100
AcDbScale
 70
     0
300
8:1
140
8.0
141
1.0
290
     0
  0
SCALE
  5
5B
102
{ACAD_REACTORS
330
4B
102
}
330
4B
100
AcDbScale
 70
     0
300
10:1
140
10.0
141
1.0
290
     0
  0
SCALE
  5
5C
102
{ACAD_REACTORS
330
4B
102
}
330
4B
100
AcDbScale
 70
     0
300
100:1
140
100.0
141
1.0
290
     0
  0
SCALE
  5
5D
102
{ACAD_REACTORS
330
4B
102
}
330
4B
100
AcDbScale
 70
     0
300
1/128" = 1'-0"
140
0.0078125
141
12.0
290
     0
  0
SCALE
  5
5E
102
{ACAD_REACTORS
330
4B
102
}
330
4B
100
AcDbScale
 70
     0
300
1/64" = 1'-0"
140
0.015625
141
12.0
290
     0
  0
SCALE
  5
5F
102
{ACAD_REACTORS
330
4B
102
}
330
4B
100
AcDbScale
 70
     0
300
1/32" = 1'-0"
140
0.03125
141
12.0
290
     0
  0
SCALE
  5
60
102
{ACAD_REACTORS
330
4B
102
}
330
4B
100
AcDbScale
 70
     0
300
1/16" = 1'-0"
140
0.0625
141
12.0
290
     0
  0
SCALE
  5
61
102
{ACAD_REACTORS
330
4B
102
}
330
4B
100
AcDbScale
 70
     0
300
3/32" = 1'-0"
140
0.09375
141
12.0
290
     0
  0
SCALE
  5
62
102
{ACAD_REACTORS
330
4B
102
}
330
4B
100
AcDbScale
 70
     0
300
1/8" = 1'-0"
140
0.125
141
12.0
290
     0
  0
SCALE
  5
63
102
{ACAD_REACTORS
330
4B
102
}
330
4B
100
AcDbScale
 70
     0
300
3/16" = 1'-0"
140
0.1875
141
12.0
290
     0
  0
SCALE
  5
64
102
{ACAD_REACTORS
330
4B
102
}
330
4B
100
AcDbScale
 70
     0
300
1/4" = 1'-0"
140
0.25
141
12.0
290
     0
  0
SCALE
  5
65
102
{ACAD_REACTORS
330
4B
102
}
330
4B
100
AcDbScale
 70
     0
300
3/8" = 1'-0"
140
0.375
141
12.0
290
     0
  0
SCALE
  5
66
102
{ACAD_REACTORS
330
4B
102
}
330
4B
100
AcDbScale
 70
     0
300
1/2" = 1'-0"
140
0.5
141
12.0
290
     0
  0
SCALE
  5
67
102
{ACAD_REACTORS
330
4B
102
}
330
4B
100
AcDbScale
 70
     0
300
3/4" = 1'-0"
140
0.75
141
12.0
290
     0
  0
SCALE
  5
68
102
{ACAD_REACTORS
330
4B
102
}
330
4B
100
AcDbScale
 70
     0
300
1" = 1'-0"
140
1.0
141
12.0
290
     0
  0
SCALE
  5
69
102
{ACAD_REACTORS
330
4B
102
}
330
4B
100
AcDbScale
 70
     0
300
1-1/2" = 1'-0"
140
1.5
141
12.0
290
     0
  0
SCALE
  5
6A
102
{ACAD_REACTORS
330
4B
102
}
330
4B
100
AcDbScale
 70
     0
300
3" = 1'-0"
140
3.0
141
12.0
290
     0
  0
SCALE
  5
6B
102
{ACAD_REACTORS
330
4B
102
}
330
4B
100
AcDbScale
 70
     0
300
6" = 1'-0"
140
6.0
141
12.0
290
     0
  0
SCALE
  5
6C
102
{ACAD_REACTORS
330
4B
102
}
330
4B
100
AcDbScale
 70
     0
300
1'-0" = 1'-0"
140
12.0
141
12.0
290
     0
  0
VISUALSTYLE
  5
2F
102
{ACAD_REACTORS
330
2A
102
}
330
2A
100
AcDbVisualStyle
  2
2dWireframe
 70
     4
 71
     0
 72
     2
 73
     0
 90
        0
 40
-0.6
 41
-30.0
 62
     5
 63
     7
 74
     1
 91
        4
 64
     7
 65
   257
 75
     1
175
     1
 42
1.0
 92
        0
 66
   257
 43
1.0
 76
     1
 77
     6
 78
     2
 67
     7
 79
     5
170
     0
171
     0
290
     0
174
     0
 93
        1
 44
0.0
173
     0
291
     0
 45
0.0
1001
ACAD
1000
AcDbSavedByObjectVersion
1070
     0
  0
VISUALSTYLE
  5
31
102
{ACAD_REACTORS
330
2A
102
}
330
2A
100
AcDbVisualStyle
  2
3D Hidden
 70
     6
 71
     1
 72
     2
 73
     2
 90
        0
 40
-0.6
 41
-30.0
 62
     5
 63
     7
 74
     2
 91
        2
 64
     7
 65
   257
 75
     2
175
     1
 42
40.0
 92
        0
 66
   257
 43
1.0
 76
     1
 77
     6
 78
     2
 67
     7
 79
     3
170
     0
171
     0
290
     0
174
     0
 93
        1
 44
0.0
173
     0
291
     0
 45
0.0
1001
ACAD
1000
AcDbSavedByObjectVersion
1070
     0
  0
VISUALSTYLE
  5
30
102
{ACAD_REACTORS
330
2A
102
}
330
2A
100
AcDbVisualStyle
  2
3dWireframe
 70
     5
 71
     0
 72
     2
 73
     0
 90
        0
 40
-0.6
 41
-30.0
 62
     5
 63
     7
 74
     1
 91
        4
 64
     7
 65
   257
 75
     1
175
     1
 42
1.0
 92
        0
 66
   257
 43
1.0
 76
     1
 77
     6
 78
     2
 67
     7
 79
     5
170
     0
171
     0
290
     0
174
     0
 93
        1
 44
0.0
173
     0
291
     0
 45
0.0
1001
ACAD
1000
AcDbSavedByObjectVersion
1070
     0
  0
VISUALSTYLE
  5
32
102
{ACAD_REACTORS
330
2A
102
}
330
2A
100
AcDbVisualStyle
  2
Basic
 70
     7
 71
     1
 72
     0
 73
     1
 90
        0
 40
-0.6
 41
-30.0
 62
     5
 63
     7
 74
     0
 91
        4
 64
     7
 65
   257
 75
     1
175
     1
 42
1.0
 92
        8
 66
     7
 43
1.0
 76
     1
 77
     6
 78
     2
 67
     7
 79
     5
170
     0
171
     0
290
     0
174
     0
 93
        1
 44
0.0
173
     0
291
     1
 45
0.0
1001
ACAD
1000
AcDbSavedByObjectVersion
1070
     0
  0
VISUALSTYLE
  5
36
102
{ACAD_REACTORS
330
2A
102
}
330
2A
100
AcDbVisualStyle
  2
Brighten
 70
    12
 71
     2
 72
     2
 73
     0
 90
        0
 40
-0.6
 41
-30.0
 62
     5
 63
     7
 74
     1
 91
        4
 64
     7
 65
   257
 75
     1
175
     1
 42
1.0
 92
        8
 66
     7
 43
1.0
 76
     1
 77
     6
 78
     2
 67
     7
 79
     5
170
     0
171
     0
290
     0
174
     0
 93
        1
 44
50.0
173
     0
291
     1
 45
0.0
1001
ACAD
1000
AcDbSavedByObjectVersion
1070
     0
  0
VISUALSTYLE
  5
3A
102
{ACAD_REACTORS
330
2A
102
}
330
2A
100
AcDbVisualStyle
  2
ColorChange
 70
    16
 71
     2
 72
     2
 73
     3
 90
        0
 40
-0.6
 41
-30.0
 62
     5
 63
     8
 74
     1
 91
        4
 64
     7
 65
   257
 75
     1
175
     1
 42
1.0
 92
        8
 66
     8
 43
1.0
 76
     1
 77
     6
 78
     2
 67
     7
 79
     5
170
     0
171
     0
290
     0
174
     0
 93
        1
 44
0.0
173
     0
291
     1
 45
0.0
1001
ACAD
1000
AcDbSavedByObjectVersion
1070
     0
  0
VISUALSTYLE
  5
34
102
{ACAD_REACTORS
330
2A
102
}
330
2A
100
AcDbVisualStyle
  2
Conceptual
 70
     9
 71
     3
 72
     2
 73
     0
 90
        0
 40
-0.6
 41
-30.0
 62
     5
 63
     7
 74
     2
 91
        2
 64
     7
 65
   257
 75
     1
175
     1
 42
40.0
 92
        8
 66
     7
 43
1.0
 76
     1
 77
     6
 78
     2
 67
     7
 79
     3
170
     0
171
     0
290
     0
174
     0
 93
        1
 44
0.0
173
     0
291
     0
 45
0.0
1001
ACAD
1000
AcDbSavedByObjectVersion
1070
     0
  0
VISUALSTYLE
  5
35
102
{ACAD_REACTORS
330
2A
102
}
330
2A
100
AcDbVisualStyle
  2
Dim
 70
    11
 71
     2
 72
     2
 73
     0
 90
        0
 40
-0.6
 41
-30.0
 62
     5
 63
     7
 74
     1
 91
        4
 64
     7
 65
   257
 75
     1
175
     1
 42
1.0
 92
        8
 66
     7
 43
1.0
 76
     1
 77
     6
 78
     2
 67
     7
 79
     5
170
     0
171
     0
290
     0
174
     0
 93
        1
 44
-50.0
173
     0
291
     1
 45
0.0
1001
ACAD
1000
AcDbSavedByObjectVersion
1070
     0
  0
VISUALSTYLE
  5
39
102
{ACAD_REACTORS
330
2A
102
}
330
2A
100
AcDbVisualStyle
  2
Facepattern
 70
    15
 71
     2
 72
     2
 73
     0
 90
        0
 40
-0.6
 41
-30.0
 62
     5
 63
     7
 74
     1
 91
        4
 64
     7
 65
   257
 75
     1
175
     1
 42
1.0
 92
        8
 66
     7
 43
1.0
 76
     1
 77
     6
 78
     2
 67
     7
 79
     5
170
     0
171
     0
290
     0
174
     0
 93
        1
 44
0.0
173
     0
291
     1
 45
0.0
1001
ACAD
1000
AcDbSavedByObjectVersion
1070
     0
  0
VISUALSTYLE
  5
2B
102
{ACAD_REACTORS
330
2A
102
}
330
2A
100
AcDbVisualStyle
  2
Flat
 70
     0
 71
     2
 72
     1
 73
     1
 90
        2
 40
-0.6
 41
30.0
 62
     5
 63
     7
 74
     0
 91
        4
 64
     7
 65
   257
 75
     1
175
     1
 42
1.0
 92
        8
 66
     7
 43
1.0
 76
     1
 77
     6
 78
     2
 67
     7
 79
     5
170
     0
171
     0
290
     0
174
     0
 93
       13
 44
0.0
173
     0
291
     1
 45
0.0
1001
ACAD
1000
AcDbSavedByObjectVersion
1070
     0
  0
VISUALSTYLE
  5
2C
102
{ACAD_REACTORS
330
2A
102
}
330
2A
100
AcDbVisualStyle
  2
FlatWithEdges
 70
     1
 71
     2
 72
     1
 73
     1
 90
        2
 40
-0.6
 41
30.0
 62
     5
 63
     7
 74
     1
 91
        4
 64
     7
 65
   257
 75
     1
175
     1
 42
1.0
 92
        0
 66
   257
 43
1.0
 76
     1
 77
     6
 78
     2
 67
     7
 79
     5
170
     0
171
     0
290
     0
174
     0
 93
       13
 44
0.0
173
     0
291
     1
 45
0.0
1001
ACAD
1000
AcDbSavedByObjectVersion
1070
     0
  0
VISUALSTYLE
  5
2D
102
{ACAD_REACTORS
330
2A
102
}
330
2A
100
AcDbVisualStyle
  2
Gouraud
 70
     2
 71
     2
 72
     2
 73
     1
 90
        2
 40
-0.6
 41
30.0
 62
     5
 63
     7
 74
     0
 91
        4
 64
     7
 65
   257
 75
     1
175
     1
 42
1.0
 92
        0
 66
     7
 43
1.0
 76
     1
 77
     6
 78
     2
 67
     7
 79
     5
170
     0
171
     0
290
     0
174
     0
 93
       13
 44
0.0
173
     0
291
     1
 45
0.0
1001
ACAD
1000
AcDbSavedByObjectVersion
1070
     0
  0
VISUALSTYLE
  5
2E
102
{ACAD_REACTORS
330
2A
102
}
330
2A
100
AcDbVisualStyle
  2
GouraudWithEdges
 70
     3
 71
     2
 72
     2
 73
     1
 90
        2
 40
-0.6
 41
30.0
 62
     5
 63
     7
 74
     1
 91
        4
 64
     7
 65
   257
 75
     1
175
     1
 42
1.0
 92
        0
 66
   257
 43
1.0
 76
     1
 77
     6
 78
     2
 67
     7
 79
     5
170
     0
171
     0
290
     0
174
     0
 93
       13
 44
0.0
173
     0
291
     1
 45
0.0
1001
ACAD
1000
AcDbSavedByObjectVersion
1070
     0
  0
VISUALSTYLE
  5
38
102
{ACAD_REACTORS
330
2A
102
}
330
2A
100
AcDbVisualStyle
  2
Linepattern
 70
    14
 71
     2
 72
     2
 73
     0
 90
        0
 40
-0.6
 41
-30.0
 62
     5
 63
     7
 74
     1
 91
        4
 64
     7
 65
   257
 75
     7
175
     7
 42
1.0
 92
        8
 66
     7
 43
1.0
 76
     1
 77
     6
 78
     2
 67
     7
 79
     5
170
     0
171
     0
290
     0
174
     0
 93
        1
 44
0.0
173
     0
291
     1
 45
0.0
1001
ACAD
1000
AcDbSavedByObjectVersion
1070
     0
  0
VISUALSTYLE
  5
33
102
{ACAD_REACTORS
330
2A
102
}
330
2A
100
AcDbVisualStyle
  2
Realistic
 70
     8
 71
     2
 72
     2
 73
     0
 90
        0
 40
-0.6
 41
-30.0
 62
     5
 63
     7
 74
     1
 91
        0
 64
     7
 65
   257
 75
     1
175
     1
 42
1.0
 92
        8
 66
     8
 43
1.0
 76
     1
 77
     6
 78
     2
 67
     7
 79
     5
170
     0
171
     0
290
     0
174
     0
 93
       13
 44
0.0
173
     0
291
     0
 45
0.0
1001
ACAD
1000
AcDbSavedByObjectVersion
1070
     0
  0
VISUALSTYLE
  5
37
102
{ACAD_REACTORS
330
2A
102
}
330
2A
100
AcDbVisualStyle
  2
Thicken
 70
    13
 71
     2
 72
     2
 73
     0
 90
        0
 40
-0.6
 41
-30.0
 62
     5
 63
     7
 74
     1
 91
        4
 64
     7
 65
   257
 75
     1
175
     1
 42
1.0
 92
       12
 66
     7
 43
1.0
 76
     1
 77
     6
 78
     2
 67
     7
 79
     5
170
     0
171
     0
290
     0
174
     0
 93
        1
 44
0.0
173
     0
291
     1
 45
0.0
1001
ACAD
1000
AcDbSavedByObjectVersion
1070
     0
  0
DICTIONARYVAR
  5
18E
102
{ACAD_REACTORS
330
18B
102
}
330
18B
100
DictionaryVariables
280
     0
  1
1:1
  0
ENDSEC
  0
EOF
