  0
SECTION
  2
HEADER
  9
$ACADVER
  1
AC1015
  9
$ACADMAINTVER
 70
     6
  9
$DWGCODEPAGE
  3
ANSI_1252
  9
$INSBASE
 10
0.0
 20
0.0
 30
0.0
  9
$EXTMIN
 10
-15.21440898911911
 20
233.9572069058
 30
0.0
  9
$EXTMAX
 10
243.954019633609
 20
368.816219403846
 30
0.0
  9
$LIMMIN
 10
0.0
 20
0.0
  9
$LIMMAX
 10
12.0
 20
9.0
  9
$ORTHOMODE
 70
     0
  9
$REGENMODE
 70
     1
  9
$FILLMODE
 70
     1
  9
$QTEXTMODE
 70
     0
  9
$MIRRTEXT
 70
     1
  9
$LTSCALE
 40
1.0
  9
$ATTMODE
 70
     1
  9
$TEXTSIZE
 40
0.2
  9
$TRACEWID
 40
0.05
  9
$TEXTSTYLE
  7
Standard
  9
$CLAYER
  8
0
  9
$CELTYPE
  6
ByLayer
  9
$CECOLOR
 62
   256
  9
$CELTSCALE
 40
1.0
  9
$DISPSILH
 70
     0
  9
$DIMSCALE
 40
1.0
  9
$DIMASZ
 40
0.18
  9
$DIMEXO
 40
0.0625
  9
$DIMDLI
 40
0.38
  9
$DIMRND
 40
0.0
  9
$DIMDLE
 40
0.0
  9
$DIMEXE
 40
0.18
  9
$DIMTP
 40
0.0
  9
$DIMTM
 40
0.0
  9
$DIMTXT
 40
0.18
  9
$DIMCEN
 40
0.09
  9
$DIMTSZ
 40
0.0
  9
$DIMTOL
 70
     0
  9
$DIMLIM
 70
     0
  9
$DIMTIH
 70
     1
  9
$DIMTOH
 70
     1
  9
$DIMSE1
 70
     0
  9
$DIMSE2
 70
     0
  9
$DIMTAD
 70
     0
  9
$DIMZIN
 70
     0
  9
$DIMBLK
  1

  9
$DIMASO
 70
     1
  9
$DIMSHO
 70
     1
  9
$DIMPOST
  1

  9
$DIMAPOST
  1

  9
$DIMALT
 70
     0
  9
$DIMALTD
 70
     2
  9
$DIMALTF
 40
25.4
  9
$DIMLFAC
 40
1.0
  9
$DIMTOFL
 70
     0
  9
$DIMTVP
 40
0.0
  9
$DIMTIX
 70
     0
  9
$DIMSOXD
 70
     0
  9
$DIMSAH
 70
     0
  9
$DIMBLK1
  1

  9
$DIMBLK2
  1

  9
$DIMSTYLE
  2
Standard
  9
$DIMCLRD
 70
     0
  9
$DIMCLRE
 70
     0
  9
$DIMCLRT
 70
     0
  9
$DIMTFAC
 40
1.0
  9
$DIMGAP
 40
0.09
  9
$DIMJUST
 70
     0
  9
$DIMSD1
 70
     0
  9
$DIMSD2
 70
     0
  9
$DIMTOLJ
 70
     1
  9
$DIMTZIN
 70
     0
  9
$DIMALTZ
 70
     0
  9
$DIMALTTZ
 70
     0
  9
$DIMUPT
 70
     0
  9
$DIMDEC
 70
     4
  9
$DIMTDEC
 70
     4
  9
$DIMALTU
 70
     2
  9
$DIMALTTD
 70
     2
  9
$DIMTXSTY
  7
Standard
  9
$DIMAUNIT
 70
     0
  9
$DIMADEC
 70
     0
  9
$DIMALTRND
 40
0.0
  9
$DIMAZIN
 70
     0
  9
$DIMDSEP
 70
    46
  9
$DIMATFIT
 70
     3
  9
$DIMFRAC
 70
     0
  9
$DIMLDRBLK
  1

  9
$DIMLUNIT
 70
     2
  9
$DIMLWD
 70
    -2
  9
$DIMLWE
 70
    -2
  9
$DIMTMOVE
 70
     0
  9
$LUNITS
 70
     2
  9
$LUPREC
 70
     4
  9
$SKETCHINC
 40
0.1
  9
$FILLETRAD
 40
0.5
  9
$AUNITS
 70
     0
  9
$AUPREC
 70
     0
  9
$MENU
  1
.
  9
$ELEVATION
 40
0.0
  9
$PELEVATION
 40
0.0
  9
$THICKNESS
 40
0.0
  9
$LIMCHECK
 70
     0
  9
$CHAMFERA
 40
0.5
  9
$CHAMFERB
 40
0.5
  9
$CHAMFERC
 40
1.0
  9
$CHAMFERD
 40
0.0
  9
$SKPOLY
 70
     0
  9
$TDCREATE
 40
2456748.733200208
  9
$TDUCREATE
 40
2456748.649866875
  9
$TDUPDATE
 40
2456748.73320022
  9
$TDUUPDATE
 40
2456748.649866886
  9
$TDINDWG
 40
0.0000000116
  9
$TDUSRTIMER
 40
0.0000000116
  9
$USRTIMER
 70
     1
  9
$ANGBASE
 50
0.0
  9
$ANGDIR
 70
     0
  9
$PDMODE
 70
     0
  9
$PDSIZE
 40
0.0
  9
$PLINEWID
 40
0.0
  9
$SPLFRAME
 70
     0
  9
$SPLINETYPE
 70
     6
  9
$SPLINESEGS
 70
     8
  9
$HANDSEED
  5
18B
  9
$SURFTAB1
 70
     6
  9
$SURFTAB2
 70
     6
  9
$SURFTYPE
 70
     6
  9
$SURFU
 70
     6
  9
$SURFV
 70
     6
  9
$UCSBASE
  2

  9
$UCSNAME
  2

  9
$UCSORG
 10
0.0
 20
0.0
 30
0.0
  9
$UCSXDIR
 10
1.0
 20
0.0
 30
0.0
  9
$UCSYDIR
 10
0.0
 20
1.0
 30
0.0
  9
$UCSORTHOREF
  2

  9
$UCSORTHOVIEW
 70
     0
  9
$UCSORGTOP
 10
0.0
 20
0.0
 30
0.0
  9
$UCSORGBOTTOM
 10
0.0
 20
0.0
 30
0.0
  9
$UCSORGLEFT
 10
0.0
 20
0.0
 30
0.0
  9
$UCSORGRIGHT
 10
0.0
 20
0.0
 30
0.0
  9
$UCSORGFRONT
 10
0.0
 20
0.0
 30
0.0
  9
$UCSORGBACK
 10
0.0
 20
0.0
 30
0.0
  9
$PUCSBASE
  2

  9
$PUCSNAME
  2

  9
$PUCSORG
 10
0.0
 20
0.0
 30
0.0
  9
$PUCSXDIR
 10
1.0
 20
0.0
 30
0.0
  9
$PUCSYDIR
 10
0.0
 20
1.0
 30
0.0
  9
$PUCSORTHOREF
  2

  9
$PUCSORTHOVIEW
 70
     0
  9
$PUCSORGTOP
 10
0.0
 20
0.0
 30
0.0
  9
$PUCSORGBOTTOM
 10
0.0
 20
0.0
 30
0.0
  9
$PUCSORGLEFT
 10
0.0
 20
0.0
 30
0.0
  9
$PUCSORGRIGHT
 10
0.0
 20
0.0
 30
0.0
  9
$PUCSORGFRONT
 10
0.0
 20
0.0
 30
0.0
  9
$PUCSORGBACK
 10
0.0
 20
0.0
 30
0.0
  9
$USERI1
 70
     0
  9
$USERI2
 70
     0
  9
$USERI3
 70
     0
  9
$USERI4
 70
     0
  9
$USERI5
 70
     0
  9
$USERR1
 40
16.5
  9
$USERR2
 40
0.0
  9
$USERR3
 40
0.0
  9
$USERR4
 40
0.0
  9
$USERR5
 40
0.0
  9
$WORLDVIEW
 70
     1
  9
$SHADEDGE
 70
     3
  9
$SHADEDIF
 70
    70
  9
$TILEMODE
 70
     1
  9
$MAXACTVP
 70
    64
  9
$PINSBASE
 10
0.0
 20
0.0
 30
0.0
  9
$PLIMCHECK
 70
     0
  9
$PEXTMIN
 10
1.00000000000000E+20
 20
1.00000000000000E+20
 30
1.00000000000000E+20
  9
$PEXTMAX
 10
-1.00000000000000E+20
 20
-1.00000000000000E+20
 30
-1.00000000000000E+20
  9
$PLIMMIN
 10
0.0
 20
0.0
  9
$PLIMMAX
 10
12.0
 20
9.0
  9
$UNITMODE
 70
     0
  9
$VISRETAIN
 70
     1
  9
$PLINEGEN
 70
     0
  9
$PSLTSCALE
 70
     1
  9
$TREEDEPTH
 70
  3020
  9
$CMLSTYLE
  2
Standard
  9
$CMLJUST
 70
     0
  9
$CMLSCALE
 40
1.0
  9
$PROXYGRAPHICS
 70
     1
  9
$MEASUREMENT
 70
     1
  9
$CELWEIGHT
370
    -1
  9
$ENDCAPS
280
     0
  9
$JOINSTYLE
280
     0
  9
$LWDISPLAY
290
     0
  9
$INSUNITS
 70
     1
  9
$HYPERLINKBASE
  1

  9
$STYLESHEET
  1

  9
$XEDIT
290
     1
  9
$CEPSNTYPE
380
     0
  9
$PSTYLEMODE
290
     1
  9
$FINGERPRINTGUID
  2
{C894A8A7-2F27-4344-9E95-5820D98B36ED}
  9
$VERSIONGUID
  2
{FAEB1C32-E019-11D5-929B-00C0DF256EC4}
  9
$EXTNAMES
290
     1
  9
$PSVPSCALE
 40
0.0
  9
$OLESTARTUP
290
     0
  0
ENDSEC
  0
SECTION
  2
CLASSES
  0
CLASS
  1
ACDBDICTIONARYWDFLT
  2
AcDbDictionaryWithDefault
  3
ObjectDBX Classes
 90
        0
280
     0
281
     0
  0
CLASS
  1
VISUALSTYLE
  2
AcDbVisualStyle
  3
ObjectDBX Classes
 90
     4095
280
     0
281
     0
  0
CLASS
  1
SCALE
  2
AcDbScale
  3
ObjectDBX Classes
 90
     1153
280
     0
281
     0
  0
CLASS
  1

  2
exOdDbPolyline
  3

 90
        0
280
     0
281
     1
  0
CLASS
  1

  2
exOdDbCircle
  3

 90
        0
280
     0
281
     1
  0
CLASS
  1

  2
exOdDbSpline
  3

 90
        0
280
     0
281
     1
  0
CLASS
  1
DICTIONARYVAR
  2
AcDbDictionaryVar
  3
ObjectDBX Classes
 90
        0
280
     0
281
     0
  0
CLASS
  1
ACDBPLACEHOLDER
  2
AcDbPlaceHolder
  3
ObjectDBX Classes
 90
        0
280
     0
281
     0
  0
CLASS
  1
LAYOUT
  2
AcDbLayout
  3
ObjectDBX Classes
 90
        0
280
     0
281
     0
  0
ENDSEC
  0
SECTION
  2
TABLES
  0
TABLE
  2
VPORT
  5
8
330
0
100
AcDbSymbolTable
 70
     1
  0
VPORT
  5
29
330
8
100
AcDbSymbolTableRecord
100
AcDbViewportTableRecord
  2
*Active
 70
     0
 10
0.0
 20
0.0
 11
1.0
 21
1.0
 12
114.3698053222449
 22
301.386713154823
 13
0.0
 23
0.0
 14
0.5
 24
0.5
 15
0.5
 25
0.5
 16
0.0
 26
0.0
 36
1.0
 17
0.0
 27
0.0
 37
0.0
 40
177.8805036563795
 41
1.60267857142857
 42
50.0
 43
0.0
 44
0.0
 50
0.0
 51
0.0
 71
     0
 72
   100
 73
     1
 74
     3
 75
     0
 76
     0
 77
     0
 78
     0
281
     0
 65
     1
110
0.0
120
0.0
130
0.0
111
1.0
121
0.0
131
0.0
112
0.0
122
1.0
132
0.0
 79
     0
146
0.0
  0
ENDTAB
  0
TABLE
  2
LTYPE
  5
5
330
0
100
AcDbSymbolTable
 70
     8
  0
LTYPE
  5
14
330
5
100
AcDbSymbolTableRecord
100
AcDbLinetypeTableRecord
  2
ByBlock
 70
     0
  3

 72
    65
 73
     0
 40
0.0
  0
LTYPE
  5
15
330
5
100
AcDbSymbolTableRecord
100
AcDbLinetypeTableRecord
  2
ByLayer
 70
     0
  3

 72
    65
 73
     0
 40
0.0
  0
LTYPE
  5
16
330
5
100
AcDbSymbolTableRecord
100
AcDbLinetypeTableRecord
  2
Continuous
 70
     0
  3
Solid line
 72
    65
 73
     0
 40
0.0
  0
LTYPE
  5
3B
330
5
100
AcDbSymbolTableRecord
100
AcDbLinetypeTableRecord
  2
DASHED
 70
     0
  3
Dashed
 72
    65
 73
     2
 40
15.0
 49
7.0
 74
     0
 49
-8.0
 74
     0
  0
LTYPE
  5
3C
330
5
100
AcDbSymbolTableRecord
100
AcDbLinetypeTableRecord
  2
DOTTED
 70
     0
  3
Dotted
 72
    65
 73
     2
 40
1.0
 49
0.0
 74
     0
 49
-1.0
 74
     0
  0
LTYPE
  5
3D
330
5
100
AcDbSymbolTableRecord
100
AcDbLinetypeTableRecord
  2
DOT_CENTER
 70
     0
  3
Dot_Center
 72
    65
 73
     4
 40
14.0
 49
12.0
 74
     0
 49
-1.0
 74
     0
 49
0.0
 74
     0
 49
-1.0
 74
     0
  0
LTYPE
  5
3E
330
5
100
AcDbSymbolTableRecord
100
AcDbLinetypeTableRecord
  2
LONG_DASHED
 70
     0
  3
Long_Dashed
 72
    65
 73
     2
 40
15.0
 49
10.0
 74
     0
 49
-5.0
 74
     0
  0
LTYPE
  5
3F
330
5
100
AcDbSymbolTableRecord
100
AcDbLinetypeTableRecord
  2
DASH_CENTER
 70
     0
  3
Dash_Center
 72
    65
 73
     4
 40
14.0
 49
11.0
 74
     0
 49
-1.0
 74
     0
 49
1.0
 74
     0
 49
-1.0
 74
     0
  0
LTYPE
  5
40
330
5
100
AcDbSymbolTableRecord
100
AcDbLinetypeTableRecord
  2
PHANTOM
 70
     0
  3
Phantom
 72
    65
 73
     6
 40
13.0
 49
10.0
 74
     0
 49
-1.0
 74
     0
 49
0.0
 74
     0
 49
-1.0
 74
     0
 49
0.0
 74
     0
 49
-1.0
 74
     0
  0
LTYPE
  5
41
330
5
100
AcDbSymbolTableRecord
100
AcDbLinetypeTableRecord
  2
CENTER_DASH_DASH
 70
     0
  3
Center_Dash_Dash
 72
    65
 73
     6
 40
14.0
 49
9.0
 74
     0
 49
-1.0
 74
     0
 49
1.0
 74
     0
 49
-1.0
 74
     0
 49
1.0
 74
     0
 49
-1.0
 74
     0
  0
ENDTAB
  0
TABLE
  2
LAYER
  5
2
330
0
100
AcDbSymbolTable
 70
     7
  0
LAYER
  5
10
330
2
100
AcDbSymbolTableRecord
100
AcDbLayerTableRecord
  2
0
 70
     0
 62
     7
  6
Continuous
370
    -3
390
F
  0
LAYER
  5
42
330
2
100
AcDbSymbolTableRecord
100
AcDbLayerTableRecord
  2
1
 70
     0
 62
     7
  6
Continuous
370
    -3
390
F
  0
LAYER
  5
43
330
2
100
AcDbSymbolTableRecord
100
AcDbLayerTableRecord
  2
BEZUGSACHSEN
 70
     0
 62
     7
  6
Continuous
370
    -3
390
F
  0
LAYER
  5
44
330
2
100
AcDbSymbolTableRecord
100
AcDbLayerTableRecord
  2
BG_STARTBEZUEGE
 70
     0
 62
     7
  6
Continuous
370
    -3
390
F
  0
LAYER
  5
45
330
2
100
AcDbSymbolTableRecord
100
AcDbLayerTableRecord
  2
DEFAULT_2
 70
     0
 62
     7
  6
Continuous
370
    -3
390
F
  0
LAYER
  5
46
330
2
100
AcDbSymbolTableRecord
100
AcDbLayerTableRecord
  2
FASEN
 70
     0
 62
     7
  6
Continuous
370
    -3
390
F
  0
LAYER
  5
47
330
2
100
AcDbSymbolTableRecord
100
AcDbLayerTableRecord
  2
RUNDUNGEN
 70
     0
 62
     7
  6
Continuous
370
    -3
390
F
  0
ENDTAB
  0
TABLE
  2
STYLE
  5
3
330
0
100
AcDbSymbolTable
 70
     2
  0
STYLE
  5
11
330
3
100
AcDbSymbolTableRecord
100
AcDbTextStyleTableRecord
  2
Standard
 70
     0
 40
0.0
 41
1.0
 50
0.0
 71
     0
 42
0.2
  3
txt
  4

  0
STYLE
  5
6E
330
3
100
AcDbSymbolTableRecord
100
AcDbTextStyleTableRecord
  2
CONVERTER_11
 70
     0
 40
0.0
 41
0.72
 50
0.0
 71
     0
 42
0.2
  3
txt.shx
  4

  0
ENDTAB
  0
TABLE
  2
VIEW
  5
6
330
0
100
AcDbSymbolTable
 70
     0
  0
ENDTAB
  0
TABLE
  2
UCS
  5
7
330
0
100
AcDbSymbolTable
 70
     0
  0
ENDTAB
  0
TABLE
  2
APPID
  5
9
330
0
100
AcDbSymbolTable
 70
     1
  0
APPID
  5
12
330
9
100
AcDbSymbolTableRecord
100
AcDbRegAppTableRecord
  2
ACAD
 70
     0
  0
ENDTAB
  0
TABLE
  2
DIMSTYLE
  5
A
330
0
100
AcDbSymbolTable
 70
     7
100
AcDbDimStyleTable
  0
DIMSTYLE
105
27
330
A
100
AcDbSymbolTableRecord
100
AcDbDimStyleTableRecord
  2
Standard
 70
     0
340
11
  0
DIMSTYLE
105
147
102
{ACAD_REACTORS
330
148
102
}
330
A
100
AcDbSymbolTableRecord
100
AcDbDimStyleTableRecord
  2
ME10_DIM_10
 70
     0
  3
\U+2300<>
 41
3.5
 42
2.0
 44
2.0
 71
     1
 73
     0
 74
     0
 77
     1
 78
     8
140
3.5
146
0.7
147
2.0
172
     1
173
     1
176
     2
177
     2
178
     3
271
     2
272
     0
340
6E
  0
DIMSTYLE
105
152
102
{ACAD_REACTORS
330
153
102
}
330
A
100
AcDbSymbolTableRecord
100
AcDbDimStyleTableRecord
  2
ME10_DIM_11
 70
     0
  3
ER<>
 41
3.5
 42
2.0
 44
2.0
 71
     1
 73
     0
 74
     0
 77
     1
 78
     8
140
3.5
146
0.7
147
2.0
172
     1
173
     1
176
     2
177
     2
178
     3
271
     2
272
     0
340
6E
  0
DIMSTYLE
105
15D
102
{ACAD_REACTORS
330
15E
102
}
330
A
100
AcDbSymbolTableRecord
100
AcDbDimStyleTableRecord
  2
ME10_DIM_12
 70
     0
  3
<>
 41
3.5
 42
2.0
 44
2.0
 71
     1
 73
     0
 74
     0
 77
     1
 78
     8
140
3.5
146
0.7
147
2.0
172
     1
173
     1
176
     2
177
     2
178
     3
271
     2
272
     0
340
6E
  0
DIMSTYLE
105
168
102
{ACAD_REACTORS
330
169
102
}
330
A
100
AcDbSymbolTableRecord
100
AcDbDimStyleTableRecord
  2
ME10_DIM_13
 70
     0
  3
<>
 41
3.5
 42
2.0
 44
2.0
 71
     1
 73
     0
 74
     0
 77
     1
 78
     8
140
3.5
146
0.7
147
2.0
172
     1
173
     1
176
     2
177
     2
178
     3
271
     2
272
     0
340
6E
  0
DIMSTYLE
105
173
102
{ACAD_REACTORS
330
174
102
}
330
A
100
AcDbSymbolTableRecord
100
AcDbDimStyleTableRecord
  2
ME10_DIM_14
 70
     0
  3
<>
 41
3.5
 42
2.0
 44
2.0
 71
     1
 73
     0
 74
     0
 77
     1
 78
     8
140
3.5
146
0.7
147
2.0
172
     1
173
     1
176
     2
177
     2
178
     3
271
     2
272
     0
340
6E
  0
DIMSTYLE
105
17E
102
{ACAD_REACTORS
330
17F
102
}
330
A
100
AcDbSymbolTableRecord
100
AcDbDimStyleTableRecord
  2
ME10_DIM_15
 70
     0
  3
<>
 41
3.5
 42
2.0
 44
2.0
 71
     1
 73
     0
 74
     0
 77
     1
 78
     8
140
3.5
146
0.7
147
2.0
172
     1
173
     1
176
     2
177
     2
178
     3
271
     2
272
     0
340
6E
  0
ENDTAB
  0
TABLE
  2
BLOCK_RECORD
  5
1
330
0
100
AcDbSymbolTable
 70
     9
  0
BLOCK_RECORD
  5
1F
330
1
100
AcDbSymbolTableRecord
100
AcDbBlockTableRecord
  2
*Model_Space
340
22
  0
BLOCK_RECORD
  5
1B
330
1
100
AcDbSymbolTableRecord
100
AcDbBlockTableRecord
  2
*Paper_Space
340
1E
  0
BLOCK_RECORD
  5
23
330
1
100
AcDbSymbolTableRecord
100
AcDbBlockTableRecord
  2
*Paper_Space0
340
26
  0
BLOCK_RECORD
  5
48
330
1
100
AcDbSymbolTableRecord
100
AcDbBlockTableRecord
  2
Urheberrecht_DE-EN
340
0
102
{BLKREFS
331
6D
102
}
  0
BLOCK_RECORD
  5
13E
330
1
100
AcDbSymbolTableRecord
100
AcDbBlockTableRecord
  2
*D2
340
0
  0
BLOCK_RECORD
  5
149
330
1
100
AcDbSymbolTableRecord
100
AcDbBlockTableRecord
  2
*D3
340
0
  0
BLOCK_RECORD
  5
154
330
1
100
AcDbSymbolTableRecord
100
AcDbBlockTableRecord
  2
*D4
340
0
  0
BLOCK_RECORD
  5
15F
330
1
100
AcDbSymbolTableRecord
100
AcDbBlockTableRecord
  2
*D5
340
0
  0
BLOCK_RECORD
  5
16A
330
1
100
AcDbSymbolTableRecord
100
AcDbBlockTableRecord
  2
*D6
340
0
  0
BLOCK_RECORD
  5
175
330
1
100
AcDbSymbolTableRecord
100
AcDbBlockTableRecord
  2
*D7
340
0
  0
BLOCK_RECORD
  5
180
330
1
100
AcDbSymbolTableRecord
100
AcDbBlockTableRecord
  2
*D8
340
0
102
{BLKREFS
331
186
102
}
  0
ENDTAB
  0
ENDSEC
  0
SECTION
  2
BLOCKS
  0
BLOCK
  5
20
330
1F
100
AcDbEntity
  8
0
100
AcDbBlockBegin
  2
*Model_Space
 70
     0
 10
0.0
 20
0.0
 30
0.0
  3
*Model_Space
  1

  0
ENDBLK
  5
21
330
1F
100
AcDbEntity
  8
0
100
AcDbBlockEnd
  0
BLOCK
  5
1C
330
1B
100
AcDbEntity
 67
     1
  8
0
100
AcDbBlockBegin
  2
*Paper_Space
 70
     0
 10
0.0
 20
0.0
 30
0.0
  3
*Paper_Space
  1

  0
ENDBLK
  5
1D
330
1B
100
AcDbEntity
 67
     1
  8
0
100
AcDbBlockEnd
  0
BLOCK
  5
24
330
23
100
AcDbEntity
  8
0
100
AcDbBlockBegin
  2
*Paper_Space0
 70
     0
 10
0.0
 20
0.0
 30
0.0
  3
*Paper_Space0
  1

  0
ENDBLK
  5
25
330
23
100
AcDbEntity
  8
0
100
AcDbBlockEnd
  0
BLOCK
  5
49
330
48
100
AcDbEntity
  8
0
100
AcDbBlockBegin
  2
Urheberrecht_DE-EN
 70
     0
 10
-1.21440898911911
 20
300.364084318046
 30
0.0
  3
Urheberrecht_DE-EN
  1

  0
MTEXT
  5
6F
330
48
100
AcDbEntity
  8
1
 62
     1
100
AcDbMText
 10
-1.21440898911911
 20
300.364084318046
 30
0.0
 40
2.0
 41
0.0
 71
     7
 72
     1
  1
We own the copyright of this document. It \Pdetermined and may neither be copied or \Pmade accessible to outsiders without our\Ppermission.
  7
CONVERTER_11
 11
0.0
 21
1.0
 31
0.0
 73
     1
 44
0.90036014405762
  0
MTEXT
  5
70
330
48
100
AcDbEntity
  8
1
 62
     1
100
AcDbMText
 10
-1.21440898911911
 20
244.0746974007398
 30
0.0
 40
2.0
 41
0.0
 71
     7
 72
     1
  1
F\U+00fcr diese Unterlage behalten wir das Ur-\Pheberrecht. Sie darf nur f\U+00fcr den von uns \Pbestimmten Zweck benutzt und ohne unsere \PZustimmung weder vervielf\U+00e4ltigt noch\PDritten zug\U+00e4nglich gemacht werden.
  7
CONVERTER_11
 11
0.0
 21
1.0
 31
0.0
 73
     1
 44
0.90036014405762
  0
ENDBLK
  5
4A
330
48
100
AcDbEntity
  8
0
100
AcDbBlockEnd
  0
BLOCK
  5
145
330
13E
100
AcDbEntity
  8
0
100
AcDbBlockBegin
  2
*D2
 70
     1
 10
0.0
 20
0.0
 30
0.0
  3
*D2
  1

  0
LINE
  5
13F
330
13E
100
AcDbEntity
  8
1
  6
Continuous
 62
     2
100
AcDbLine
 10
241.954019633609
 20
308.9572069058
 30
0.0
 11
241.954019633609
 21
258.9572069058
 31
0.0
  0
LINE
  5
140
330
13E
100
AcDbEntity
  8
1
  6
Continuous
 62
     2
100
AcDbLine
 10
202.0841809422
 20
308.9572069058
 30
0.0
 11
243.954019633609
 21
308.9572069058
 31
0.0
  0
LINE
  5
141
330
13E
100
AcDbEntity
  8
1
  6
Continuous
 62
     2
100
AcDbLine
 10
202.0841809422
 20
258.9572069058
 30
0.0
 11
243.954019633609
 21
258.9572069058
 31
0.0
  0
SOLID
  5
142
330
13E
100
AcDbEntity
  8
1
 62
     2
100
AcDbTrace
 10
242.4148033751649
 20
305.4572069058
 30
0.0
 11
241.4932358920531
 21
305.4572069058
 31
0.0
 12
241.954019633609
 22
308.9572069058
 32
0.0
 13
241.954019633609
 23
308.9572069058
 33
0.0
  0
SOLID
  5
143
330
13E
100
AcDbEntity
  8
1
 62
     2
100
AcDbTrace
 10
241.4932358920531
 20
262.4572069058
 30
0.0
 11
242.4148033751649
 21
262.4572069058
 31
0.0
 12
241.954019633609
 22
258.9572069058
 32
0.0
 13
241.954019633609
 23
258.9572069058
 33
0.0
  0
MTEXT
  5
144
330
13E
100
AcDbEntity
  8
1
 62
     3
100
AcDbMText
 10
239.954019633609
 20
275.164050828657
 30
0.0
 40
3.5
 41
0.0
 71
     7
 72
     1
  1
\C3;%%c\C3;\C3;50\C2;\H2.45;\S^ ;\C3;
  7
CONVERTER_11
 11
0.0
 21
1.0
 31
0.0
 73
     1
 44
0.60024009603842
  0
ENDBLK
  5
146
330
13E
100
AcDbEntity
  8
0
100
AcDbBlockEnd
  0
BLOCK
  5
150
330
149
100
AcDbEntity
  8
0
100
AcDbBlockBegin
  2
*D3
 70
     1
 10
0.0
 20
0.0
 30
0.0
  3
*D3
  1

  0
LINE
  5
14A
330
149
100
AcDbEntity
  8
1
  6
Continuous
 62
     2
100
AcDbLine
 10
232.24376675345
 20
299.9572069058
 30
0.0
 11
232.24376675345
 21
267.9572069058
 31
0.0
  0
LINE
  5
14B
330
149
100
AcDbEntity
  8
1
  6
Continuous
 62
     2
100
AcDbLine
 10
207.0841809422
 20
299.9572069058
 30
0.0
 11
234.24376675345
 21
299.9572069058
 31
0.0
  0
LINE
  5
14C
330
149
100
AcDbEntity
  8
1
  6
Continuous
 62
     2
100
AcDbLine
 10
207.0841809422
 20
267.9572069058
 30
0.0
 11
234.24376675345
 21
267.9572069058
 31
0.0
  0
SOLID
  5
14D
330
149
100
AcDbEntity
  8
1
 62
     2
100
AcDbTrace
 10
232.7045504950059
 20
296.4572069058
 30
0.0
 11
231.7829830118941
 21
296.4572069058
 31
0.0
 12
232.24376675345
 22
299.9572069058
 32
0.0
 13
232.24376675345
 23
299.9572069058
 33
0.0
  0
SOLID
  5
14E
330
149
100
AcDbEntity
  8
1
 62
     2
100
AcDbTrace
 10
231.7829830118941
 20
271.4572069058
 30
0.0
 11
232.7045504950059
 21
271.4572069058
 31
0.0
 12
232.24376675345
 22
267.9572069058
 32
0.0
 13
232.24376675345
 23
267.9572069058
 33
0.0
  0
MTEXT
  5
14F
330
149
100
AcDbEntity
  8
1
 62
     3
100
AcDbMText
 10
230.24376675345
 20
279.225228186073
 30
0.0
 40
3.5
 41
0.0
 71
     7
 72
     1
  1
\C3;ER\C3;\C3;32\C2;\H2.45;\S^ ;\C3;
  7
CONVERTER_11
 11
0.0
 21
1.0
 31
0.0
 73
     1
 44
0.60024009603842
  0
ENDBLK
  5
151
330
149
100
AcDbEntity
  8
0
100
AcDbBlockEnd
  0
BLOCK
  5
15B
330
154
100
AcDbEntity
  8
0
100
AcDbBlockBegin
  2
*D4
 70
     1
 10
0.0
 20
0.0
 30
0.0
  3
*D4
  1

  0
LINE
  5
155
330
154
100
AcDbEntity
  8
1
  6
Continuous
 62
     2
100
AcDbLine
 10
205.0841809422
 20
340.17205209289
 30
0.0
 11
87.0841809422
 21
340.17205209289
 31
0.0
  0
LINE
  5
156
330
154
100
AcDbEntity
  8
1
  6
Continuous
 62
     2
100
AcDbLine
 10
205.0841809422
 20
305.9572069058
 30
0.0
 11
205.0841809422
 21
342.17205209289
 31
0.0
  0
LINE
  5
157
330
154
100
AcDbEntity
  8
1
  6
Continuous
 62
     2
100
AcDbLine
 10
87.0841809422
 20
335.9571700356
 30
0.0
 11
87.0841809422
 21
342.17205209289
 31
0.0
  0
SOLID
  5
158
330
154
100
AcDbEntity
  8
1
 62
     2
100
AcDbTrace
 10
201.5841809422
 20
339.7112683513341
 30
0.0
 11
201.5841809422
 21
340.6328358344459
 31
0.0
 12
205.0841809422
 22
340.17205209289
 32
0.0
 13
205.0841809422
 23
340.17205209289
 33
0.0
  0
SOLID
  5
159
330
154
100
AcDbEntity
  8
1
 62
     2
100
AcDbTrace
 10
90.5841809422
 20
340.6328358344459
 30
0.0
 11
90.5841809422
 21
339.7112683513341
 31
0.0
 12
87.0841809422
 22
340.17205209289
 32
0.0
 13
87.0841809422
 23
340.17205209289
 33
0.0
  0
MTEXT
  5
15A
330
154
100
AcDbEntity
  8
1
 62
     3
100
AcDbMText
 10
144.20310846251
 20
342.17205209289
 30
0.0
 40
3.5
 41
0.0
 71
     7
 72
     1
  1
\C3;\C3;\C3;118\C2;\H2.45;\S^ ;\C3;
  7
CONVERTER_11
 11
0.9999999999970619
 21
2.424068405545306E-6
 31
0.0
 73
     1
 44
0.60024009603842
  0
ENDBLK
  5
15C
330
154
100
AcDbEntity
  8
0
100
AcDbBlockEnd
  0
BLOCK
  5
166
330
15F
100
AcDbEntity
  8
0
100
AcDbBlockBegin
  2
*D5
 70
     1
 10
0.0
 20
0.0
 30
0.0
  3
*D5
  1

  0
LINE
  5
160
330
15F
100
AcDbEntity
  8
1
  6
Continuous
 62
     2
100
AcDbLine
 10
205.0841809422
 20
347.393032293908
 30
0.0
 11
58.08418094219999
 21
347.393032293908
 31
0.0
  0
LINE
  5
161
330
15F
100
AcDbEntity
  8
1
  6
Continuous
 62
     2
100
AcDbLine
 10
205.0841809422
 20
305.9572069058
 30
0.0
 11
205.0841809422
 21
349.393032293908
 31
0.0
  0
LINE
  5
162
330
15F
100
AcDbEntity
  8
1
  6
Continuous
 62
     2
100
AcDbLine
 10
58.08418094219999
 20
335.9572069058
 30
0.0
 11
58.08418094219999
 21
349.393032293908
 31
0.0
  0
SOLID
  5
163
330
15F
100
AcDbEntity
  8
1
 62
     2
100
AcDbTrace
 10
201.5841809422
 20
346.9322485523521
 30
0.0
 11
201.5841809422
 21
347.8538160354639
 31
0.0
 12
205.0841809422
 22
347.393032293908
 32
0.0
 13
205.0841809422
 23
347.393032293908
 33
0.0
  0
SOLID
  5
164
330
15F
100
AcDbEntity
  8
1
 62
     2
100
AcDbTrace
 10
61.58418094219999
 20
347.8538160354639
 30
0.0
 11
61.58418094219999
 21
346.9322485523521
 31
0.0
 12
58.08418094219999
 22
347.393032293908
 32
0.0
 13
58.08418094219999
 23
347.393032293908
 33
0.0
  0
MTEXT
  5
165
330
15F
100
AcDbEntity
  8
1
 62
     3
100
AcDbMText
 10
133.59967484569
 20
349.393032293908
 30
0.0
 40
3.5
 41
0.0
 71
     7
 72
     1
  1
\C3;\C3;\C3;147\C2;\H2.45;\S^ ;\C3;
  7
CONVERTER_11
 11
0.9999999999970619
 21
2.424068405545306E-6
 31
0.0
 73
     1
 44
0.60024009603842
  0
ENDBLK
  5
167
330
15F
100
AcDbEntity
  8
0
100
AcDbBlockEnd
  0
BLOCK
  5
171
330
16A
100
AcDbEntity
  8
0
100
AcDbBlockBegin
  2
*D6
 70
     1
 10
0.0
 20
0.0
 30
0.0
  3
*D6
  1

  0
LINE
  5
16B
330
16A
100
AcDbEntity
  8
1
  6
Continuous
 62
     2
100
AcDbLine
 10
58.08418094219999
 20
355.539779187365
 30
0.0
 11
218.0841809422
 21
355.539779187365
 31
0.0
  0
LINE
  5
16C
330
16A
100
AcDbEntity
  8
1
  6
Continuous
 62
     2
100
AcDbLine
 10
58.08418094219999
 20
335.9572069058
 30
0.0
 11
58.08418094219999
 21
357.539779187365
 31
0.0
  0
LINE
  5
16D
330
16A
100
AcDbEntity
  8
1
  6
Continuous
 62
     2
100
AcDbLine
 10
218.0841809422
 20
304.2072069058
 30
0.0
 11
218.0841809422
 21
357.539779187365
 31
0.0
  0
SOLID
  5
16E
330
16A
100
AcDbEntity
  8
1
 62
     2
100
AcDbTrace
 10
61.58418094219999
 20
356.0005629289209
 30
0.0
 11
61.58418094219999
 21
355.0789954458091
 31
0.0
 12
58.08418094219999
 22
355.539779187365
 32
0.0
 13
58.08418094219999
 23
355.539779187365
 33
0.0
  0
SOLID
  5
16F
330
16A
100
AcDbEntity
  8
1
 62
     2
100
AcDbTrace
 10
214.5841809422
 20
355.0789954458091
 30
0.0
 11
214.5841809422
 21
356.0005629289209
 31
0.0
 12
218.0841809422
 22
355.539779187365
 32
0.0
 13
218.0841809422
 23
355.539779187365
 33
0.0
  0
MTEXT
  5
170
330
16A
100
AcDbEntity
  8
1
 62
     3
100
AcDbMText
 10
139.154275000319
 20
357.539779187365
 30
0.0
 40
3.5
 41
0.0
 71
     7
 72
     1
  1
\C3;\C3;\C3;160\C2;\H2.45;\S^ ;\C3;
  7
CONVERTER_11
 11
0.9999999999970619
 21
2.424068405545306E-6
 31
0.0
 73
     1
 44
0.60024009603842
  0
ENDBLK
  5
172
330
16A
100
AcDbEntity
  8
0
100
AcDbBlockEnd
  0
BLOCK
  5
17C
330
175
100
AcDbEntity
  8
0
100
AcDbBlockBegin
  2
*D7
 70
     1
 10
0.0
 20
0.0
 30
0.0
  3
*D7
  1

  0
LINE
  5
176
330
175
100
AcDbEntity
  8
1
  6
Continuous
 62
     2
100
AcDbLine
 10
205.0841809422
 20
363.316219403846
 30
0.0
 11
8.08418094219999
 21
363.316219403846
 31
0.0
  0
LINE
  5
177
330
175
100
AcDbEntity
  8
1
  6
Continuous
 62
     2
100
AcDbLine
 10
205.0841809422
 20
305.9572069058
 30
0.0
 11
205.0841809422
 21
365.316219403846
 31
0.0
  0
LINE
  5
178
330
175
100
AcDbEntity
  8
1
  6
Continuous
 62
     2
100
AcDbLine
 10
8.08418094219999
 20
319.5573984683
 30
0.0
 11
8.08418094219999
 21
365.316219403846
 31
0.0
  0
SOLID
  5
179
330
175
100
AcDbEntity
  8
1
 62
     2
100
AcDbTrace
 10
201.5841809422
 20
362.8554356622901
 30
0.0
 11
201.5841809422
 21
363.7770031454019
 31
0.0
 12
205.0841809422
 22
363.316219403846
 32
0.0
 13
205.0841809422
 23
363.316219403846
 33
0.0
  0
SOLID
  5
17A
330
175
100
AcDbEntity
  8
1
 62
     2
100
AcDbTrace
 10
11.58418094219999
 20
363.7770031454019
 30
0.0
 11
11.58418094219999
 21
362.8554356622901
 31
0.0
 12
8.08418094219999
 22
363.316219403846
 32
0.0
 13
8.08418094219999
 23
363.316219403846
 33
0.0
  0
MTEXT
  5
17B
330
175
100
AcDbEntity
  8
1
 62
     3
100
AcDbMText
 10
109.900047519271
 20
365.316219403846
 30
0.0
 40
3.5
 41
0.0
 71
     7
 72
     1
  1
\C3;\C3;\C3;197\C2;\H2.45;\S^ ;\C3;
  7
CONVERTER_11
 11
0.9999999999970619
 21
2.424068405545306E-6
 31
0.0
 73
     1
 44
0.60024009603842
  0
ENDBLK
  5
17D
330
175
100
AcDbEntity
  8
0
100
AcDbBlockEnd
  0
BLOCK
  5
184
330
180
100
AcDbEntity
  8
0
100
AcDbBlockBegin
  2
*D8
 70
     1
 10
0.0
 20
0.0
 30
0.0
  3
*D8
  1

  0
LINE
  5
181
330
180
100
AcDbEntity
  8
1
  6
Continuous
 62
     2
100
AcDbLine
 10
98.419719500319
 20
322.9164780075199
 30
0.0
 11
91.46918819911343
 21
312.6735326535791
 31
0.0
  0
SOLID
  5
182
330
180
100
AcDbEntity
  8
1
 62
     2
100
AcDbTrace
 10
93.05314760544486
 20
315.828432692499
 30
0.0
 11
93.8157237129496
 21
315.3109732195043
 31
0.0
 12
91.46918819911343
 22
312.6735326535791
 32
0.0
 13
91.46918819911343
 23
312.6735326535791
 33
0.0
  0
MTEXT
  5
183
330
180
100
AcDbEntity
  8
1
 62
     3
100
AcDbMText
 10
91.65512164557389
 20
316.5094337698407
 30
0.0
 40
3.5
 41
0.0
 71
     7
 72
     1
  1
\C3; R\C3;\C3;10\C2;\H2.45;\S^ ;\C3;
  7
CONVERTER_11
 11
0.5614992743096678
 21
0.8274772292635709
 31
0.0
 73
     1
 44
0.60024009603842
  0
ENDBLK
  5
185
330
180
100
AcDbEntity
  8
0
100
AcDbBlockEnd
  0
ENDSEC
  0
SECTION
  2
ENTITIES
  0
INSERT
  5
6D
330
1F
100
AcDbEntity
  8
0
100
AcDbBlockReference
  2
Urheberrecht_DE-EN
 10
-1.21440898911911
 20
300.364084318046
 30
0.0
  0
LINE
  5
71
330
1F
100
AcDbEntity
  8
BEZUGSACHSEN
  6
Continuous
 62
     7
100
AcDbLine
 10
8.0841809422
 20
250.3570153428
 30
0.0
 11
8.0841809422
 21
271.9472069058
 31
0.0
  0
LINE
  5
72
330
1F
100
AcDbEntity
  8
BEZUGSACHSEN
  6
Continuous
 62
     7
100
AcDbLine
 10
8.0841809422
 20
295.9672069058
 30
0.0
 11
8.0841809422
 21
317.5573984683
 31
0.0
  0
LINE
  5
73
330
1F
100
AcDbEntity
  8
BEZUGSACHSEN
  6
Continuous
 62
     9
100
AcDbLine
 10
9.9841064575
 20
319.5548931741
 30
0.0
 11
9.9841064575
 21
299.633739292
 31
0.0
  0
LINE
  5
74
330
1F
100
AcDbEntity
  8
BEZUGSACHSEN
  6
Continuous
 62
     9
100
AcDbLine
 10
9.9841064575
 20
268.2806745195
 30
0.0
 11
9.9841064575
 21
248.3595206375
 31
0.0
  0
LINE
  5
75
330
1F
100
AcDbEntity
  8
BEZUGSACHSEN
  6
Continuous
 62
     7
100
AcDbLine
 10
10.0841809422
 20
271.5535669574
 30
0.0
 11
10.0841809422
 21
273.9472069058
 31
0.0
  0
LINE
  5
76
330
1F
100
AcDbEntity
  8
BEZUGSACHSEN
  6
Continuous
 62
     7
100
AcDbLine
 10
10.0841809422
 20
293.9672069058
 30
0.0
 11
10.0841809422
 21
296.3608468542
 31
0.0
  0
LINE
  5
77
330
1F
100
AcDbEntity
  8
BEZUGSACHSEN
  6
Continuous
 62
     9
100
AcDbLine
 10
16.0841809422
 20
267.5985593183
 30
0.0
 11
16.0841809422
 21
273.9472069058
 31
0.0
  0
LINE
  5
78
330
1F
100
AcDbEntity
  8
BEZUGSACHSEN
  6
Continuous
 62
     9
100
AcDbLine
 10
16.0841809422
 20
293.9672069058
 30
0.0
 11
16.0841809422
 21
300.3158544932
 31
0.0
  0
LINE
  5
79
330
1F
100
AcDbEntity
  8
BEZUGSACHSEN
  6
Continuous
 62
     7
100
AcDbLine
 10
18.0841809422
 20
296.8268624316
 30
0.0
 11
18.0841809422
 21
271.08755138
 31
0.0
  0
LINE
  5
7A
330
1F
100
AcDbEntity
  8
BEZUGSACHSEN
  6
Continuous
 62
     7
100
AcDbLine
 10
9.3511338692
 20
268.9472069058
 30
0.0
 11
9.2300236178
 21
268.7148709103
 31
0.0
  0
LINE
  5
7B
330
1F
100
AcDbEntity
  8
BEZUGSACHSEN
  6
Continuous
 62
     7
100
AcDbLine
 10
9.2300236178
 20
299.1995429012
 30
0.0
 11
9.3511338692
 21
298.9672069058
 31
0.0
  0
LWPOLYLINE
  5
7C
330
1F
100
AcDbEntity
  8
BEZUGSACHSEN
  6
DOT_CENTER
 62
     7
100
AcDbPolyline
 90
        2
 70
     0
 43
0.25
 10
43.0841809422
 20
274.9572069058
 10
43.0841809422
 20
292.9572069058
  0
LINE
  5
7D
330
1F
100
AcDbEntity
  8
BEZUGSACHSEN
  6
Continuous
 62
     7
100
AcDbLine
 10
8.0841809422
 20
271.9472069058
 30
0.0
 11
10.0841809422
 21
273.9472069058
 31
0.0
  0
LINE
  5
7E
330
1F
100
AcDbEntity
  8
BEZUGSACHSEN
  6
Continuous
 62
     7
100
AcDbLine
 10
10.0841809422
 20
293.9672069058
 30
0.0
 11
8.0841809422
 21
295.9672069058
 31
0.0
  0
LINE
  5
7F
330
1F
100
AcDbEntity
  8
BEZUGSACHSEN
  6
Continuous
 62
     7
100
AcDbLine
 10
55.5841809422
 20
321.8394569058
 30
0.0
 11
55.5841809422
 21
246.0749569058
 31
0.0
  0
LINE
  5
80
330
1F
100
AcDbEntity
  8
BEZUGSACHSEN
  6
Continuous
 62
     9
100
AcDbLine
 10
56.2034245562
 20
246.2408827321
 30
0.0
 11
56.2034245562
 21
321.6735310795
 31
0.0
  0
LINE
  5
81
330
1F
100
AcDbEntity
  8
BEZUGSACHSEN
  6
Continuous
 62
     9
100
AcDbLine
 10
56.4622436013
 20
246.2749569058
 30
0.0
 11
56.4622436013
 21
321.6394569058
 31
0.0
  0
LINE
  5
82
330
1F
100
AcDbEntity
  8
BEZUGSACHSEN
  6
Continuous
 62
     9
100
AcDbLine
 10
57.3836096535
 20
246.2749569058
 30
0.0
 11
57.3836096535
 21
321.6394569058
 31
0.0
  0
LINE
  5
83
330
1F
100
AcDbEntity
  8
BEZUGSACHSEN
  6
Continuous
 62
     7
100
AcDbLine
 10
58.0841809422
 20
333.9572069058
 30
0.0
 11
58.0841809422
 21
233.9572069058
 31
0.0
  0
LWPOLYLINE
  5
84
330
1F
100
AcDbEntity
  8
BEZUGSACHSEN
  6
DOT_CENTER
 62
     7
100
AcDbPolyline
 90
        2
 70
     0
 43
0.25
 10
65.0841809422
 20
326.1065787611
 10
65.0841809422
 20
336.9572069058
  0
LINE
  5
85
330
1F
100
AcDbEntity
  8
BEZUGSACHSEN
  6
Continuous
 62
     7
100
AcDbLine
 10
79.9591809422
 20
331.57980217
 30
0.0
 11
81.3317762064
 21
333.9572069058
 31
0.0
  0
LINE
  5
86
330
1F
100
AcDbEntity
  8
BEZUGSACHSEN
  6
Continuous
 62
     7
100
AcDbLine
 10
74.836585678
 20
233.9572069058
 30
0.0
 11
58.0841809422
 21
233.9572069058
 31
0.0
  0
LINE
  5
87
330
1F
100
AcDbEntity
  8
BEZUGSACHSEN
  6
Continuous
 62
     7
100
AcDbLine
 10
81.3317762064
 20
233.9572069058
 30
0.0
 11
87.0841809422
 21
233.9572069058
 31
0.0
  0
LINE
  5
88
330
1F
100
AcDbEntity
  8
BEZUGSACHSEN
  6
Continuous
 62
     7
100
AcDbLine
 10
77.2091809422
 20
237.9572069058
 30
0.0
 11
78.9591809422
 21
237.9572069058
 31
0.0
  0
LINE
  5
89
330
1F
100
AcDbEntity
  8
BEZUGSACHSEN
  6
Continuous
 62
     7
100
AcDbLine
 10
79.9591809422
 20
236.3346116416
 30
0.0
 11
81.3317762064
 21
233.9572069058
 31
0.0
  0
LINE
  5
8A
330
1F
100
AcDbEntity
  8
FASEN
  6
Continuous
 62
     9
100
AcDbLine
 10
71.0172471975
 20
252.2072069058
 30
0.0
 11
71.0172471975
 21
252.6072069058
 31
0.0
  0
LINE
  5
8B
330
1F
100
AcDbEntity
  8
FASEN
  6
Continuous
 62
     9
100
AcDbLine
 10
73.0551809422
 20
293.9782069058
 30
0.0
 11
73.0551809422
 21
293.5782069058
 31
0.0
  0
LINE
  5
8C
330
1F
100
AcDbEntity
  8
FASEN
  6
Continuous
 62
     9
100
AcDbLine
 10
73.0551809422
 20
273.9362069058
 30
0.0
 11
73.0551809422
 21
274.3362069058
 31
0.0
  0
LINE
  5
8D
330
1F
100
AcDbEntity
  8
0
  6
Continuous
 62
     7
100
AcDbLine
 10
74.836585678
 20
333.9572069058
 30
0.0
 11
74.836585678
 21
293.9782069058
 31
0.0
  0
LINE
  5
8E
330
1F
100
AcDbEntity
  8
0
  6
Continuous
 62
     7
100
AcDbLine
 10
74.836585678
 20
273.9362069058
 30
0.0
 11
74.836585678
 21
252.6072069058
 31
0.0
  0
LINE
  5
8F
330
1F
100
AcDbEntity
  8
0
  6
Continuous
 62
     7
100
AcDbLine
 10
74.836585678
 20
245.0062441449
 30
0.0
 11
74.836585678
 21
233.9572069058
 31
0.0
  0
LINE
  5
90
330
1F
100
AcDbEntity
  8
FASEN
  6
Continuous
 62
     7
100
AcDbLine
 10
63.4277301324
 20
245.0062441449
 30
0.0
 11
74.836585678
 21
245.0062441449
 31
0.0
  0
LINE
  5
91
330
1F
100
AcDbEntity
  8
FASEN
  6
Continuous
 62
     7
100
AcDbLine
 10
81.3317762064
 20
245.0062441449
 30
0.0
 11
86.6341809422
 21
245.0062441449
 31
0.0
  0
LINE
  5
92
330
1F
100
AcDbEntity
  8
BEZUGSACHSEN
  6
Continuous
 62
     7
100
AcDbLine
 10
9.9841064575
 20
248.3595206375
 30
0.0
 11
55.5841809422
 21
246.0749569058
 31
0.0
  0
LINE
  5
93
330
1F
100
AcDbEntity
  8
0
  6
Continuous
 62
     7
100
AcDbLine
 10
76.2091809422
 20
331.5797687939
 30
0.0
 11
76.2091809422
 21
293.9782069058
 31
0.0
  0
LINE
  5
94
330
1F
100
AcDbEntity
  8
0
  6
Continuous
 62
     7
100
AcDbLine
 10
76.2091809422
 20
273.9362069058
 30
0.0
 11
76.2091809422
 21
252.6072069058
 31
0.0
  0
LINE
  5
95
330
1F
100
AcDbEntity
  8
0
  6
Continuous
 62
     7
100
AcDbLine
 10
76.2091809422
 20
236.3346479097
 30
0.0
 11
76.2091809422
 21
248.9403895176
 31
0.0
  0
LINE
  5
96
330
1F
100
AcDbEntity
  8
0
  6
Continuous
 62
     9
100
AcDbLine
 10
77.2091809422
 20
237.9572069058
 30
0.0
 11
77.2091809422
 21
250.294504994
 31
0.0
  0
LINE
  5
97
330
1F
100
AcDbEntity
  8
0
  6
Continuous
 62
     9
100
AcDbLine
 10
77.2091809422
 20
252.6072069058
 30
0.0
 11
77.2091809422
 21
273.9362069058
 31
0.0
  0
LINE
  5
98
330
1F
100
AcDbEntity
  8
0
  6
Continuous
 62
     9
100
AcDbLine
 10
77.2091809422
 20
293.9782069058
 30
0.0
 11
77.2091809422
 21
329.9572069058
 31
0.0
  0
LINE
  5
99
330
1F
100
AcDbEntity
  8
0
  6
Continuous
 62
     9
100
AcDbLine
 10
78.9591809422
 20
237.9572069058
 30
0.0
 11
78.9591809422
 21
250.294504994
 31
0.0
  0
LINE
  5
9A
330
1F
100
AcDbEntity
  8
0
  6
Continuous
 62
     9
100
AcDbLine
 10
78.9591809422
 20
252.6072069058
 30
0.0
 11
78.9591809422
 21
273.9362069058
 31
0.0
  0
LINE
  5
9B
330
1F
100
AcDbEntity
  8
0
  6
Continuous
 62
     9
100
AcDbLine
 10
78.9591809422
 20
293.9782069058
 30
0.0
 11
78.9591809422
 21
329.9572069058
 31
0.0
  0
LINE
  5
9C
330
1F
100
AcDbEntity
  8
0
  6
Continuous
 62
     7
100
AcDbLine
 10
79.9591809422
 20
236.3346479097
 30
0.0
 11
79.9591809422
 21
248.9403895176
 31
0.0
  0
LINE
  5
9D
330
1F
100
AcDbEntity
  8
0
  6
Continuous
 62
     7
100
AcDbLine
 10
79.9591809422
 20
252.6072069058
 30
0.0
 11
79.9591809422
 21
273.9362069058
 31
0.0
  0
LINE
  5
9E
330
1F
100
AcDbEntity
  8
0
  6
Continuous
 62
     7
100
AcDbLine
 10
79.9591809422
 20
293.9782069058
 30
0.0
 11
79.9591809422
 21
331.5797687939
 31
0.0
  0
LINE
  5
9F
330
1F
100
AcDbEntity
  8
0
  6
Continuous
 62
     7
100
AcDbLine
 10
81.3317762064
 20
333.9572069058
 30
0.0
 11
81.3317762064
 21
293.9782069058
 31
0.0
  0
LINE
  5
A0
330
1F
100
AcDbEntity
  8
0
  6
Continuous
 62
     7
100
AcDbLine
 10
81.3317762064
 20
273.9362069058
 30
0.0
 11
81.3317762064
 21
252.6072069058
 31
0.0
  0
LINE
  5
A1
330
1F
100
AcDbEntity
  8
0
  6
Continuous
 62
     7
100
AcDbLine
 10
81.3317762064
 20
245.0062441449
 30
0.0
 11
81.3317762064
 21
233.9572069058
 31
0.0
  0
LINE
  5
A2
330
1F
100
AcDbEntity
  8
BEZUGSACHSEN
  6
Continuous
 62
     9
100
AcDbLine
 10
8.0841809422
 20
270.5110229368
 30
0.0
 11
10.0841809422
 21
271.5535669574
 31
0.0
  0
LINE
  5
A3
330
1F
100
AcDbEntity
  8
BEZUGSACHSEN
  6
Continuous
 62
     7
100
AcDbLine
 10
57.3836096535
 20
246.2749569058
 30
0.0
 11
56.4622436013
 21
246.2749569058
 31
0.0
  0
LINE
  5
A4
330
1F
100
AcDbEntity
  8
0
  6
Continuous
 62
     7
100
AcDbLine
 10
77.2091809422
 20
250.294504994
 30
0.0
 11
78.9591809422
 21
250.294504994
 31
0.0
  0
LINE
  5
A5
330
1F
100
AcDbEntity
  8
FASEN
  6
Continuous
 62
     7
100
AcDbLine
 10
71.0172471975
 20
252.2072069058
 30
0.0
 11
86.6341809422
 21
252.2072069058
 31
0.0
  0
LINE
  5
A6
330
1F
100
AcDbEntity
  8
0
  6
Continuous
 62
     7
100
AcDbLine
 10
71.0172471975
 20
252.6072069058
 30
0.0
 11
87.0341809422
 21
252.6072069058
 31
0.0
  0
LINE
  5
A7
330
1F
100
AcDbEntity
  8
BEZUGSACHSEN
  6
Continuous
 62
     9
100
AcDbLine
 10
10.0841809422
 20
296.3608468542
 30
0.0
 11
8.0841809422
 21
297.4033908748
 31
0.0
  0
LINE
  5
A8
330
1F
100
AcDbEntity
  8
FASEN
  6
Continuous
 62
     7
100
AcDbLine
 10
86.6341809422
 20
252.2072069058
 30
0.0
 11
86.6341809422
 21
245.0062441449
 31
0.0
  0
LINE
  5
A9
330
1F
100
AcDbEntity
  8
FASEN
  6
Continuous
 62
     7
100
AcDbLine
 10
87.0341809422
 20
252.6072069058
 30
0.0
 11
87.0341809422
 21
245.3316001144
 31
0.0
  0
LINE
  5
AA
330
1F
100
AcDbEntity
  8
0
  6
Continuous
 62
     7
100
AcDbLine
 10
87.0841809422
 20
333.9571700356
 30
0.0
 11
87.0841809422
 21
293.9782069058
 31
0.0
  0
LINE
  5
AB
330
1F
100
AcDbEntity
  8
0
  6
Continuous
 62
     7
100
AcDbLine
 10
87.0841809422
 20
273.9362069058
 30
0.0
 11
87.0841809422
 21
233.9572439013
 31
0.0
  0
LINE
  5
AC
330
1F
100
AcDbEntity
  8
FASEN
  6
Continuous
 62
     7
100
AcDbLine
 10
87.0841809422
 20
273.9362069058
 30
0.0
 11
87.0841809422
 21
293.9782069058
 31
0.0
  0
LINE
  5
AD
330
1F
100
AcDbEntity
  8
BEZUGSACHSEN
  6
Continuous
 62
     7
100
AcDbLine
 10
196.8341809422
 20
258.9572069058
 30
0.0
 11
200.0841809422
 21
258.9572069058
 31
0.0
  0
LINE
  5
AE
330
1F
100
AcDbEntity
  8
FASEN
  6
Continuous
 62
     7
100
AcDbLine
 10
200.391260724
 20
259.2742866876
 30
0.0
 11
213.4653787887
 21
259.2742866876
 31
0.0
  0
LINE
  5
AF
330
1F
100
AcDbEntity
  8
0
  6
Continuous
 62
     7
100
AcDbLine
 10
142.0841809422
 20
259.9572069058
 30
0.0
 11
181.3415402551
 21
259.9572069058
 31
0.0
  0
LINE
  5
B0
330
1F
100
AcDbEntity
  8
RUNDUNGEN
  6
Continuous
 62
     9
100
AcDbLine
 10
95.7606515304
 20
311.036278418
 30
0.0
 11
95.7606515304
 21
256.8781353936
 31
0.0
  0
LINE
  5
B1
330
1F
100
AcDbEntity
  8
BEZUGSACHSEN
  6
Continuous
 62
     7
100
AcDbLine
 10
56.2034245562
 20
246.2408827321
 30
0.0
 11
55.5841809422
 21
246.0749569058
 31
0.0
  0
LINE
  5
B2
330
1F
100
AcDbEntity
  8
0
  6
Continuous
 62
     7
100
AcDbLine
 10
215.6585383197
 20
261.7572069058
 30
0.0
 11
215.8036473789
 21
261.7572069058
 31
0.0
  0
LINE
  5
B3
330
1F
100
AcDbEntity
  8
RUNDUNGEN
  6
Continuous
 62
     7
100
AcDbLine
 10
195.5841809422
 20
263.9572069058
 30
0.0
 11
186.9983945046
 21
263.9572069058
 31
0.0
  0
LINE
  5
B4
330
1F
100
AcDbEntity
  8
0
  6
Continuous
 62
     7
100
AcDbLine
 10
186.9983945046
 20
263.9572069058
 30
0.0
 11
195.5841809422
 21
263.9572069058
 31
0.0
  0
LWPOLYLINE
  5
B5
330
1F
100
AcDbEntity
  8
DEFAULT_2
  6
DASHED
 62
     8
100
AcDbPolyline
 90
        2
 70
     0
 43
0.35
 10
195.5841809422
 20
263.9572069058
 10
205.0841809422
 20
263.9572069058
  0
LINE
  5
B6
330
1F
100
AcDbEntity
  8
FASEN
  6
Continuous
 62
     7
100
AcDbLine
 10
200.391260724
 20
268.1784386745
 30
0.0
 11
213.4653787887
 21
268.1784386745
 31
0.0
  0
LINE
  5
B7
330
1F
100
AcDbEntity
  8
BEZUGSACHSEN
  6
Continuous
 62
     9
100
AcDbLine
 10
17.6380268891
 20
268.9472069058
 30
0.0
 11
9.3511338692
 21
268.9472069058
 31
0.0
  0
LINE
  5
B8
330
1F
100
AcDbEntity
  8
BEZUGSACHSEN
  6
Continuous
 62
     7
100
AcDbLine
 10
74.836585678
 20
233.9572069058
 30
0.0
 11
76.2091809422
 21
236.3346116416
 31
0.0
  0
LINE
  5
B9
330
1F
100
AcDbEntity
  8
RUNDUNGEN
  6
Continuous
 62
     7
100
AcDbLine
 10
215.6585383197
 20
269.9560218031
 30
0.0
 11
203.9925575606
 21
269.9560218031
 31
0.0
  0
LWPOLYLINE
  5
BA
330
1F
100
AcDbEntity
  8
DEFAULT_2
  6
DASHED
 62
     8
100
AcDbPolyline
 90
        2
 70
     0
 43
0.35
 10
174.8438596221
 20
272.2072069058
 10
171.0841809422
 20
272.2072069058
  0
LINE
  5
BB
330
1F
100
AcDbEntity
  8
0
  6
Continuous
 62
     7
100
AcDbLine
 10
73.0551809422
 20
273.9362069058
 30
0.0
 11
87.0841809422
 21
273.9362069058
 31
0.0
  0
LINE
  5
BC
330
1F
100
AcDbEntity
  8
BEZUGSACHSEN
  6
Continuous
 62
     7
100
AcDbLine
 10
16.0841809422
 20
273.9472069058
 30
0.0
 11
10.0841809422
 21
273.9472069058
 31
0.0
  0
LINE
  5
BD
330
1F
100
AcDbEntity
  8
FASEN
  6
Continuous
 62
     7
100
AcDbLine
 10
73.0551809422
 20
274.3362069058
 30
0.0
 11
87.0841809422
 21
274.3362069058
 31
0.0
  0
LINE
  5
BE
330
1F
100
AcDbEntity
  8
FASEN
  6
Continuous
 62
     7
100
AcDbLine
 10
200.391260724
 20
275.0530549188
 30
0.0
 11
213.4653787887
 21
275.0530549188
 31
0.0
  0
LINE
  5
BF
330
1F
100
AcDbEntity
  8
BEZUGSACHSEN
  6
Continuous
 62
     7
100
AcDbLine
 10
74.836585678
 20
333.9572069058
 30
0.0
 11
76.2091809422
 21
331.57980217
 31
0.0
  0
LWPOLYLINE
  5
C0
330
1F
100
AcDbEntity
  8
BG_STARTBEZUEGE
  6
DOT_CENTER
 62
     7
100
AcDbPolyline
 90
        2
 70
     0
 43
0.25
 10
221.0841809422
 20
283.9572069058
 10
5.0841809422
 20
283.9572069058
  0
LWPOLYLINE
  5
C1
330
1F
100
AcDbEntity
  8
DEFAULT_2
  6
DASHED
 62
     8
100
AcDbPolyline
 90
        2
 70
     0
 43
0.35
 10
205.0841809422
 20
267.9572069058
 10
174.8438596221
 20
272.2072069058
  0
LINE
  5
C2
330
1F
100
AcDbEntity
  8
FASEN
  6
Continuous
 62
     7
100
AcDbLine
 10
87.0341809422
 20
252.6072069058
 30
0.0
 11
86.6341809422
 21
252.2072069058
 31
0.0
  0
LWPOLYLINE
  5
C3
330
1F
100
AcDbEntity
  8
DEFAULT_2
  6
DASHED
 62
     8
100
AcDbPolyline
 90
        2
 70
     0
 43
0.35
 10
205.0841809422
 20
299.9572069058
 10
174.8438596221
 20
295.7072069058
  0
LINE
  5
C4
330
1F
100
AcDbEntity
  8
FASEN
  6
Continuous
 62
     7
100
AcDbLine
 10
200.391260724
 20
292.8613588927
 30
0.0
 11
213.4653787887
 21
292.8613588927
 31
0.0
  0
LINE
  5
C5
330
1F
100
AcDbEntity
  8
FASEN
  6
Continuous
 62
     7
100
AcDbLine
 10
87.0841809422
 20
293.5782069058
 30
0.0
 11
73.0551809422
 21
293.5782069058
 31
0.0
  0
LINE
  5
C6
330
1F
100
AcDbEntity
  8
BEZUGSACHSEN
  6
Continuous
 62
     7
100
AcDbLine
 10
16.0841809422
 20
293.9672069058
 30
0.0
 11
10.0841809422
 21
293.9672069058
 31
0.0
  0
LINE
  5
C7
330
1F
100
AcDbEntity
  8
0
  6
Continuous
 62
     7
100
AcDbLine
 10
73.0551809422
 20
293.9782069058
 30
0.0
 11
87.0841809422
 21
293.9782069058
 31
0.0
  0
LWPOLYLINE
  5
C8
330
1F
100
AcDbEntity
  8
DEFAULT_2
  6
DASHED
 62
     8
100
AcDbPolyline
 90
        2
 70
     0
 43
0.35
 10
174.8438596221
 20
295.7072069058
 10
171.0841809422
 20
295.7072069058
  0
LINE
  5
C9
330
1F
100
AcDbEntity
  8
RUNDUNGEN
  6
Continuous
 62
     7
100
AcDbLine
 10
215.6585383197
 20
297.9583920085
 30
0.0
 11
203.9925575606
 21
297.9583920085
 31
0.0
  0
LINE
  5
CA
330
1F
100
AcDbEntity
  8
BEZUGSACHSEN
  6
Continuous
 62
     9
100
AcDbLine
 10
9.3511338692
 20
298.9672069058
 30
0.0
 11
17.6380268891
 21
298.9672069058
 31
0.0
  0
LINE
  5
CB
330
1F
100
AcDbEntity
  8
FASEN
  6
Continuous
 62
     7
100
AcDbLine
 10
200.391260724
 20
299.735975137
 30
0.0
 11
213.4653787887
 21
299.735975137
 31
0.0
  0
LWPOLYLINE
  5
CC
330
1F
100
AcDbEntity
  8
RUNDUNGEN
  6
DASHED
 62
     8
100
AcDbPolyline
 90
        2
 70
     0
 43
0.35
 10
205.0841809422
 20
303.9572069058
 10
195.5841809422
 20
303.9572069058
  0
LINE
  5
CD
330
1F
100
AcDbEntity
  8
RUNDUNGEN
  6
Continuous
 62
     7
100
AcDbLine
 10
195.5841809422
 20
303.9572069058
 30
0.0
 11
186.9983945046
 21
303.9572069058
 31
0.0
  0
LINE
  5
CE
330
1F
100
AcDbEntity
  8
0
  6
Continuous
 62
     7
100
AcDbLine
 10
215.8036473789
 20
306.1572069058
 30
0.0
 11
215.6585383197
 21
306.1572069058
 31
0.0
  0
LINE
  5
CF
330
1F
100
AcDbEntity
  8
0
  6
Continuous
 62
     7
100
AcDbLine
 10
181.3415402551
 20
307.9572069058
 30
0.0
 11
142.0841809422
 21
307.9572069058
 31
0.0
  0
LINE
  5
D0
330
1F
100
AcDbEntity
  8
BEZUGSACHSEN
  6
Continuous
 62
     7
100
AcDbLine
 10
56.2034245562
 20
321.6735310795
 30
0.0
 11
55.5841809422
 21
321.8394569058
 31
0.0
  0
LINE
  5
D1
330
1F
100
AcDbEntity
  8
0
  6
Continuous
 62
     9
100
AcDbLine
 10
142.0841809422
 20
307.9572069058
 30
0.0
 11
142.0841809422
 21
259.9572069058
 31
0.0
  0
LINE
  5
D2
330
1F
100
AcDbEntity
  8
FASEN
  6
Continuous
 62
     7
100
AcDbLine
 10
200.391260724
 20
308.640127124
 30
0.0
 11
213.4653787887
 21
308.640127124
 31
0.0
  0
LINE
  5
D3
330
1F
100
AcDbEntity
  8
FASEN
  6
Continuous
 62
     7
100
AcDbLine
 10
200.0841809422
 20
308.9572069058
 30
0.0
 11
196.8341809422
 21
308.9572069058
 31
0.0
  0
LINE
  5
D4
330
1F
100
AcDbEntity
  8
BEZUGSACHSEN
  6
Continuous
 62
     7
100
AcDbLine
 10
57.3836096535
 20
321.6394569058
 30
0.0
 11
56.4622436013
 21
321.6394569058
 31
0.0
  0
LINE
  5
D5
330
1F
100
AcDbEntity
  8
BEZUGSACHSEN
  6
Continuous
 62
     7
100
AcDbLine
 10
55.5841809422
 20
321.8394569058
 30
0.0
 11
9.9841064575
 21
319.5548931741
 31
0.0
  0
LINE
  5
D6
330
1F
100
AcDbEntity
  8
BEZUGSACHSEN
  6
Continuous
 62
     7
100
AcDbLine
 10
77.2091809422
 20
329.9572069058
 30
0.0
 11
78.9591809422
 21
329.9572069058
 31
0.0
  0
LINE
  5
D7
330
1F
100
AcDbEntity
  8
BEZUGSACHSEN
  6
Continuous
 62
     7
100
AcDbLine
 10
74.836585678
 20
333.9572069058
 30
0.0
 11
70.0841809422
 21
333.9572069058
 31
0.0
  0
LINE
  5
D8
330
1F
100
AcDbEntity
  8
BEZUGSACHSEN
  6
Continuous
 62
     7
100
AcDbLine
 10
60.0841809422
 20
333.9572069058
 30
0.0
 11
58.0841809422
 21
333.9572069058
 31
0.0
  0
LINE
  5
D9
330
1F
100
AcDbEntity
  8
BEZUGSACHSEN
  6
Continuous
 62
     7
100
AcDbLine
 10
81.3317762064
 20
333.9572069058
 30
0.0
 11
87.0841809422
 21
333.9572069058
 31
0.0
  0
LWPOLYLINE
  5
DA
330
1F
100
AcDbEntity
  8
DEFAULT_2
  6
DASHED
 62
     8
100
AcDbPolyline
 90
        2
 70
     0
 43
0.35
 10
171.0841809422
 20
295.7072069058
 10
171.0841809422
 20
272.2072069058
  0
LWPOLYLINE
  5
DB
330
1F
100
AcDbEntity
  8
DEFAULT_2
  6
DASHED
 62
     8
100
AcDbPolyline
 90
        2
 70
     0
 43
0.35
 10
174.8438596221
 20
295.7072069058
 10
174.8438596221
 20
272.2072069058
  0
LINE
  5
DC
330
1F
100
AcDbEntity
  8
RUNDUNGEN
  6
Continuous
 62
     9
100
AcDbLine
 10
181.3415402551
 20
259.9572069058
 30
0.0
 11
181.3415402551
 21
307.9572069058
 31
0.0
  0
LINE
  5
DD
330
1F
100
AcDbEntity
  8
RUNDUNGEN
  6
Continuous
 62
     9
100
AcDbLine
 10
183.4628605986
 20
260.8358865622
 30
0.0
 11
183.4628605986
 21
307.0785272493
 31
0.0
  0
LINE
  5
DE
330
1F
100
AcDbEntity
  8
0
  6
Continuous
 62
     7
100
AcDbLine
 10
183.4628605986
 20
260.8358865622
 30
0.0
 11
186.2912877234
 21
263.664313687
 31
0.0
  0
LINE
  5
DF
330
1F
100
AcDbEntity
  8
RUNDUNGEN
  6
Continuous
 62
     7
100
AcDbLine
 10
202.0833692514
 20
269.3898604302
 30
0.0
 11
200.391260724
 21
268.1784386745
 31
0.0
  0
LINE
  5
E0
330
1F
100
AcDbEntity
  8
RUNDUNGEN
  6
Continuous
 62
     7
100
AcDbLine
 10
200.391260724
 20
299.735975137
 30
0.0
 11
202.0833692514
 21
298.5245533813
 31
0.0
  0
LINE
  5
E1
330
1F
100
AcDbEntity
  8
0
  6
Continuous
 62
     7
100
AcDbLine
 10
183.4628605986
 20
307.0785272493
 30
0.0
 11
186.2912877234
 21
304.2501001246
 31
0.0
  0
LINE
  5
E2
330
1F
100
AcDbEntity
  8
RUNDUNGEN
  6
Continuous
 62
     7
100
AcDbLine
 10
186.2912877234
 20
304.2501001246
 30
0.0
 11
183.4628605986
 21
307.0785272493
 31
0.0
  0
LINE
  5
E3
330
1F
100
AcDbEntity
  8
RUNDUNGEN
  6
Continuous
 62
     9
100
AcDbLine
 10
186.2912877234
 20
304.2501001246
 30
0.0
 11
186.2912877234
 21
263.664313687
 31
0.0
  0
LINE
  5
E4
330
1F
100
AcDbEntity
  8
RUNDUNGEN
  6
Continuous
 62
     9
100
AcDbLine
 10
186.9983945046
 20
303.9572069058
 30
0.0
 11
186.9983945046
 21
263.9572069058
 31
0.0
  0
LINE
  5
E5
330
1F
100
AcDbEntity
  8
RUNDUNGEN
  6
Continuous
 62
     7
100
AcDbLine
 10
195.5841809422
 20
260.2072069058
 30
0.0
 11
195.5841809422
 21
307.7072069058
 31
0.0
  0
LINE
  5
E6
330
1F
100
AcDbEntity
  8
RUNDUNGEN
  6
Continuous
 62
     9
100
AcDbLine
 10
196.8341809422
 20
258.9572069058
 30
0.0
 11
196.8341809422
 21
308.9572069058
 31
0.0
  0
LINE
  5
E7
330
1F
100
AcDbEntity
  8
FASEN
  6
Continuous
 62
     7
100
AcDbLine
 10
200.391260724
 20
259.2742866876
 30
0.0
 11
200.0841809422
 21
258.9672069058
 31
0.0
  0
LINE
  5
E8
330
1F
100
AcDbEntity
  8
FASEN
  6
Continuous
 62
     7
100
AcDbLine
 10
200.0841809422
 20
308.9472069058
 30
0.0
 11
200.391260724
 21
308.640127124
 31
0.0
  0
LINE
  5
E9
330
1F
100
AcDbEntity
  8
RUNDUNGEN
  6
Continuous
 62
     9
100
AcDbLine
 10
202.0833692514
 20
269.3898604302
 30
0.0
 11
202.0833692514
 21
275.0530549188
 31
0.0
  0
LINE
  5
EA
330
1F
100
AcDbEntity
  8
RUNDUNGEN
  6
Continuous
 62
     9
100
AcDbLine
 10
202.0833692514
 20
292.8613588927
 30
0.0
 11
202.0833692514
 21
298.5245533813
 31
0.0
  0
LINE
  5
EB
330
1F
100
AcDbEntity
  8
RUNDUNGEN
  6
Continuous
 62
     9
100
AcDbLine
 10
203.9925575606
 20
269.9560218031
 30
0.0
 11
203.9925575606
 21
275.0530549188
 31
0.0
  0
LINE
  5
EC
330
1F
100
AcDbEntity
  8
RUNDUNGEN
  6
Continuous
 62
     9
100
AcDbLine
 10
203.9925575606
 20
292.8613588927
 30
0.0
 11
203.9925575606
 21
297.9583920085
 31
0.0
  0
LWPOLYLINE
  5
ED
330
1F
100
AcDbEntity
  8
DEFAULT_2
  6
DASHED
 62
     8
100
AcDbPolyline
 90
        2
 70
     0
 43
0.35
 10
205.0841809422
 20
303.9572069058
 10
205.0841809422
 20
263.9572069058
  0
LINE
  5
EE
330
1F
100
AcDbEntity
  8
0
  6
Continuous
 62
     9
100
AcDbLine
 10
213.4653787887
 20
259.2742866876
 30
0.0
 11
213.4653787887
 21
268.1784386745
 31
0.0
  0
LINE
  5
EF
330
1F
100
AcDbEntity
  8
0
  6
Continuous
 62
     9
100
AcDbLine
 10
213.4653787887
 20
275.0530549188
 30
0.0
 11
213.4653787887
 21
292.8613588927
 31
0.0
  0
LINE
  5
F0
330
1F
100
AcDbEntity
  8
0
  6
Continuous
 62
     9
100
AcDbLine
 10
213.4653787887
 20
299.735975137
 30
0.0
 11
213.4653787887
 21
308.640127124
 31
0.0
  0
LINE
  5
F1
330
1F
100
AcDbEntity
  8
0
  6
Continuous
 62
     9
100
AcDbLine
 10
214.5479105434
 20
259.882970698
 30
0.0
 11
214.5479105434
 21
268.6142103999
 31
0.0
  0
LINE
  5
F2
330
1F
100
AcDbEntity
  8
0
  6
Continuous
 62
     9
100
AcDbLine
 10
214.5479105434
 20
275.2259672038
 30
0.0
 11
214.5479105434
 21
292.6884466077
 31
0.0
  0
LINE
  5
F3
330
1F
100
AcDbEntity
  8
0
  6
Continuous
 62
     9
100
AcDbLine
 10
214.5479105434
 20
299.3002034116
 30
0.0
 11
214.5479105434
 21
308.0314431136
 31
0.0
  0
LINE
  5
F4
330
1F
100
AcDbEntity
  8
0
  6
Continuous
 62
     7
100
AcDbLine
 10
218.0841809422
 20
265.7072069058
 30
0.0
 11
215.8036473789
 21
261.7572069058
 31
0.0
  0
LINE
  5
F5
330
1F
100
AcDbEntity
  8
BEZUGSACHSEN
  6
Continuous
 62
     7
100
AcDbLine
 10
215.8036473789
 20
261.7572069058
 30
0.0
 11
218.0841809422
 21
265.7072069058
 31
0.0
  0
LINE
  5
F6
330
1F
100
AcDbEntity
  8
BEZUGSACHSEN
  6
Continuous
 62
     7
100
AcDbLine
 10
215.8036473789
 20
306.1572069058
 30
0.0
 11
218.0841809422
 21
302.2072069058
 31
0.0
  0
LINE
  5
F7
330
1F
100
AcDbEntity
  8
0
  6
Continuous
 62
     7
100
AcDbLine
 10
218.0841809422
 20
302.2072069058
 30
0.0
 11
215.8036473789
 21
306.1572069058
 31
0.0
  0
LINE
  5
F8
330
1F
100
AcDbEntity
  8
BEZUGSACHSEN
  6
Continuous
 62
     7
100
AcDbLine
 10
218.0841809422
 20
302.2072069058
 30
0.0
 11
218.0841809422
 21
265.7072069058
 31
0.0
  0
LINE
  5
F9
330
1F
100
AcDbEntity
  8
0
  6
Continuous
 62
     7
100
AcDbLine
 10
214.5479105434
 20
259.882970698
 30
0.0
 11
215.6585383197
 21
261.7572069058
 31
0.0
  0
LINE
  5
FA
330
1F
100
AcDbEntity
  8
0
  6
Continuous
 62
     7
100
AcDbLine
 10
214.5479105434
 20
275.2259672038
 30
0.0
 11
215.658538319648
 21
275.758392008498
 31
0.0
  0
LINE
  5
FB
330
1F
100
AcDbEntity
  8
0
  6
Continuous
 62
     7
100
AcDbLine
 10
215.658538319648
 20
292.156021803102
 30
0.0
 11
214.5479105434
 21
292.6884466077
 31
0.0
  0
LINE
  5
FC
330
1F
100
AcDbEntity
  8
0
  6
Continuous
 62
     7
100
AcDbLine
 10
215.6585383197
 20
306.1572069058
 30
0.0
 11
214.5479105434
 21
308.0314431136
 31
0.0
  0
LINE
  5
FD
330
1F
100
AcDbEntity
  8
0
  6
Continuous
 62
     7
100
AcDbLine
 10
215.6585383197
 20
269.9560218031
 30
0.0
 11
214.5479105434
 21
268.6142103999
 31
0.0
  0
LINE
  5
FE
330
1F
100
AcDbEntity
  8
0
  6
Continuous
 62
     7
100
AcDbLine
 10
214.5479105434
 20
299.3002034116
 30
0.0
 11
215.6585383197
 21
297.9583920085
 31
0.0
  0
ARC
  5
FF
330
1F
100
AcDbEntity
  8
FASEN
  6
Continuous
 62
     7
100
AcDbCircle
 10
75.8370624425
 20
259.7907400778
 30
0.0
 40
19.30214621160038
100
AcDbArc
 50
228.5120350855009
 51
229.9916611025228
  0
ARC
  5
100
330
1F
100
AcDbEntity
  8
FASEN
  6
Continuous
 62
     7
100
AcDbCircle
 10
71.0172471975
 20
244.6072069058
 30
0.0
 40
8.0
100
AcDbArc
 50
90.0
 51
174.8048049323972
  0
ARC
  5
101
330
1F
100
AcDbEntity
  8
FASEN
  6
Continuous
 62
     7
100
AcDbCircle
 10
71.0172471975
 20
244.6072069058
 30
0.0
 40
7.599980211799988
100
AcDbArc
 50
90.0
 51
176.9903069153985
  0
ARC
  5
102
330
1F
100
AcDbEntity
  8
BEZUGSACHSEN
  6
Continuous
 62
     7
100
AcDbCircle
 10
16.0841809422
 20
275.9472069058
 30
0.0
 40
2.0
100
AcDbArc
 50
270.0
 51
355.2355361864949
  0
ARC
  5
103
330
1F
100
AcDbEntity
  8
BEZUGSACHSEN
  6
Continuous
 62
     7
100
AcDbCircle
 10
10.0841809422
 20
250.3570153427
 30
0.0
 40
2.0
100
AcDbArc
 50
179.9999999971356
 51
267.1318795127
  0
ARC
  5
104
330
1F
100
AcDbEntity
  8
BEZUGSACHSEN
  6
Continuous
 62
     7
100
AcDbCircle
 10
77.2091809422
 20
236.9572069058
 30
0.0
 40
1.0
100
AcDbArc
 50
90.0
 51
180.0
  0
ARC
  5
105
330
1F
100
AcDbEntity
  8
BEZUGSACHSEN
  6
Continuous
 62
     7
100
AcDbCircle
 10
56.4622436013
 20
245.2749569058
 30
0.0
 40
1.0
100
AcDbArc
 50
90.0
 51
104.9999999996985
  0
ARC
  5
106
330
1F
100
AcDbEntity
  8
BEZUGSACHSEN
  6
Continuous
 62
     7
100
AcDbCircle
 10
57.3836096535
 20
245.2749569058
 30
0.0
 40
0.9999999999998077
100
AcDbArc
 50
45.49026120128718
 51
90.0
  0
ARC
  5
107
330
1F
100
AcDbEntity
  8
0
  6
Continuous
 62
     7
100
AcDbCircle
 10
-169.1076078179
 20
354.7747815388
 30
0.0
 40
267.5030866026804
100
AcDbArc
 50
335.773494914468
 51
336.5002085551001
  0
ARC
  5
108
330
1F
100
AcDbEntity
  8
BEZUGSACHSEN
  6
Continuous
 62
     7
100
AcDbCircle
 10
65.0993889533
 20
384.0099766727
 30
0.0
 40
50.30340021045202
100
AcDbArc
 50
264.2781515102013
 51
269.9826780125999
  0
ARC
  5
109
330
1F
100
AcDbEntity
  8
BEZUGSACHSEN
  6
Continuous
 62
     7
100
AcDbCircle
 10
65.0689729411
 20
384.0099764719
 30
0.0
 40
50.30340000959742
100
AcDbArc
 50
270.017321976058
 51
275.7218485012678
  0
ARC
  5
10A
330
1F
100
AcDbEntity
  8
0
  6
Continuous
 62
     7
100
AcDbCircle
 10
73.0551809422
 20
283.9572069058
 30
0.0
 40
10.02100000000002
100
AcDbArc
 50
90.0
 51
270.0
  0
ARC
  5
10B
330
1F
100
AcDbEntity
  8
FASEN
  6
Continuous
 62
     7
100
AcDbCircle
 10
73.0551809422
 20
283.9572069058
 30
0.0
 40
9.620999207599993
100
AcDbArc
 50
90.0
 51
270.0
  0
ARC
  5
10C
330
1F
100
AcDbEntity
  8
BEZUGSACHSEN
  6
Continuous
 62
     7
100
AcDbCircle
 10
16.0841809422
 20
291.9672069058
 30
0.0
 40
1.999999999999983
100
AcDbArc
 50
4.76446378498716
 51
90.0
  0
ARC
  5
10D
330
1F
100
AcDbEntity
  8
BEZUGSACHSEN
  6
Continuous
 62
     7
100
AcDbCircle
 10
10.0841809422
 20
317.5573984688
 30
0.0
 40
2.000000000000095
100
AcDbArc
 50
92.86812048729995
 51
180.0000000143238
  0
ARC
  5
10E
330
1F
100
AcDbEntity
  8
BEZUGSACHSEN
  6
Continuous
 62
     7
100
AcDbCircle
 10
77.2091809422
 20
330.9572069058
 30
0.0
 40
1.0
100
AcDbArc
 50
180.0
 51
270.0
  0
ARC
  5
10F
330
1F
100
AcDbEntity
  8
BEZUGSACHSEN
  6
Continuous
 62
     7
100
AcDbCircle
 10
56.4622436013
 20
322.6394569058
 30
0.0
 40
1.000000000009916
100
AcDbArc
 50
255.0000000003015
 51
270.0
  0
ARC
  5
110
330
1F
100
AcDbEntity
  8
BEZUGSACHSEN
  6
Continuous
 62
     7
100
AcDbCircle
 10
57.3836096535
 20
322.6394569058
 30
0.0
 40
1.0
100
AcDbArc
 50
270.0
 51
314.5097387987128
  0
ARC
  5
111
330
1F
100
AcDbEntity
  8
BEZUGSACHSEN
  6
Continuous
 62
     7
100
AcDbCircle
 10
194.4142275404
 20
-1322.0855523842
 30
0.0
 40
1632.172763698
100
AcDbArc
 50
96.2726189838
 51
96.48809068979999
  0
ARC
  5
112
330
1F
100
AcDbEntity
  8
0
  6
Continuous
 62
     7
100
AcDbCircle
 10
142.0841809422
 20
-90.0427930942
 30
0.0
 40
350.0
100
AcDbArc
 50
90.0
 51
97.60558102239999
  0
ARC
  5
113
330
1F
100
AcDbEntity
  8
RUNDUNGEN
  6
Continuous
 62
     7
100
AcDbCircle
 10
142.0841809422
 20
-90.0427930942
 30
0.0
 40
350.0
100
AcDbArc
 50
90.0
 51
97.60558102239999
  0
ARC
  5
114
330
1F
100
AcDbEntity
  8
0
  6
Continuous
 62
     7
100
AcDbCircle
 10
186.7263172249
 20
272.8572069058
 30
0.0
 40
29.07731577155153
100
AcDbArc
 50
354.2737939479059
 51
5.72620605210037
  0
ARC
  5
115
330
1F
100
AcDbEntity
  8
RUNDUNGEN
  6
Continuous
 62
     7
100
AcDbCircle
 10
97.0841809422
 20
246.9661088654
 30
0.0
 40
9.999999999982027
100
AcDbArc
 50
97.60558102262947
 51
180.0
  0
ARC
  5
116
330
1F
100
AcDbEntity
  8
RUNDUNGEN
  6
Continuous
 62
     7
100
AcDbCircle
 10
181.3415402551
 20
262.9572069058
 30
0.0
 40
3.0
100
AcDbArc
 50
270.0
 51
314.9999999986501
  0
ARC
  5
117
330
1F
100
AcDbEntity
  8
RUNDUNGEN
  6
Continuous
 62
     7
100
AcDbCircle
 10
196.8341809422
 20
260.2072069058
 30
0.0
 40
1.25
100
AcDbArc
 50
180.0
 51
270.0
  0
ARC
  5
118
330
1F
100
AcDbEntity
  8
RUNDUNGEN
  6
Continuous
 62
     7
100
AcDbCircle
 10
186.9983945046
 20
262.9572069058
 30
0.0
 40
1.0
100
AcDbArc
 50
90.0
 51
134.9999999999989
  0
ARC
  5
119
330
1F
100
AcDbEntity
  8
BEZUGSACHSEN
  6
Continuous
 62
     7
100
AcDbCircle
 10
78.9591809422
 20
236.9572069058
 30
0.0
 40
1.0
100
AcDbArc
 50
0.0
 51
90.0
  0
ARC
  5
11A
330
1F
100
AcDbEntity
  8
BEZUGSACHSEN
  6
Continuous
 62
     7
100
AcDbCircle
 10
194.4142275457
 20
1889.9999662429
 30
0.0
 40
1632.1727637455
100
AcDbArc
 50
263.5119093102
 51
263.7273810162
  0
ARC
  5
11B
330
1F
100
AcDbEntity
  8
0
  6
Continuous
 62
     7
100
AcDbCircle
 10
142.0841809422
 20
657.9572069058
 30
0.0
 40
350.0000000000005
100
AcDbArc
 50
262.3944189776
 51
270.0
  0
ARC
  5
11C
330
1F
100
AcDbEntity
  8
RUNDUNGEN
  6
Continuous
 62
     7
100
AcDbCircle
 10
142.0841809422
 20
657.9572069058
 30
0.0
 40
350.0000000000005
100
AcDbArc
 50
262.3944189776
 51
270.0
  0
ARC
  5
11D
330
1F
100
AcDbEntity
  8
0
  6
Continuous
 62
     7
100
AcDbCircle
 10
325.2759697025
 20
354.7747815389
 30
0.0
 40
267.5030866028999
100
AcDbArc
 50
203.4997914449
 51
204.226505085534
  0
ARC
  5
11E
330
1F
100
AcDbEntity
  8
0
  6
Continuous
 62
     7
100
AcDbCircle
 10
186.7263172249
 20
295.0572069058
 30
0.0
 40
29.07731577149957
100
AcDbArc
 50
354.2737939478996
 51
5.72620605209416
  0
ARC
  5
11F
330
1F
100
AcDbEntity
  8
RUNDUNGEN
  6
Continuous
 62
     7
100
AcDbCircle
 10
97.0841809422
 20
320.9483049462
 30
0.0
 40
10.0
100
AcDbArc
 50
180.0
 51
262.3944189773705
  0
ARC
  5
120
330
1F
100
AcDbEntity
  8
RUNDUNGEN
  6
Continuous
 62
     7
100
AcDbCircle
 10
181.3415402551
 20
304.9572069058
 30
0.0
 40
2.999999999915676
100
AcDbArc
 50
45.00000000000039
 51
90.0
  0
ARC
  5
121
330
1F
100
AcDbEntity
  8
RUNDUNGEN
  6
Continuous
 62
     7
100
AcDbCircle
 10
196.8341809422
 20
307.7072069058
 30
0.0
 40
1.25
100
AcDbArc
 50
90.0
 51
180.0
  0
ARC
  5
122
330
1F
100
AcDbEntity
  8
RUNDUNGEN
  6
Continuous
 62
     7
100
AcDbCircle
 10
186.9983945046
 20
304.9572069058
 30
0.0
 40
1.000000000019
100
AcDbArc
 50
224.9999999999988
 51
270.0
  0
ARC
  5
123
330
1F
100
AcDbEntity
  8
BEZUGSACHSEN
  6
Continuous
 62
     7
100
AcDbCircle
 10
78.9591809422
 20
330.9572069058
 30
0.0
 40
1.0
100
AcDbArc
 50
270.0
 51
0.0
  0
CIRCLE
  5
124
330
1F
100
AcDbEntity
  8
BEZUGSACHSEN
  6
Continuous
 62
     7
100
AcDbCircle
 10
43.0841809422
 20
283.9572069058
 30
0.0
 40
6.0
  0
SPLINE
  5
125
330
1F
100
AcDbEntity
  8
0
  6
Continuous
 62
     7
100
AcDbSpline
210
0.0
220
0.0
230
1.0
 70
     8
 71
     3
 72
    15
 73
    11
 74
     9
 42
0.0000000001
 43
0.0000000001
 44
0.00000001
 40
0.0
 40
0.0
 40
0.0
 40
0.0
 40
0.1634444414992143
 40
0.327167882692693
 40
0.4901731095196215
 40
0.6530895450560543
 40
0.8149311210963497
 40
0.9768566426488855
 40
1.13764403955749
 40
1.298133687076152
 40
1.298133687076152
 40
1.298133687076152
 40
1.298133687076152
 10
213.4653787887
 20
259.2742866876
 30
0.0
 10
213.5198957310888
 20
259.2763093075299
 30
0.0
 10
213.6290226762979
 20
259.2803580000023
 30
0.0
 10
213.7898794113377
 20
259.3126446022794
 30
0.0
 10
213.9452635616587
 20
259.3637359753664
 30
0.0
 10
214.0922110741795
 20
259.4344168778858
 30
0.0
 10
214.2286244929157
 20
259.5230982342169
 30
0.0
 10
214.3515341052078
 20
259.628446481704
 30
0.0
 10
214.4606124669045
 20
259.7479080126485
 30
0.0
 10
214.5188291690334
 20
259.8379776274384
 30
0.0
 10
214.5479105434
 20
259.882970698
 30
0.0
 11
213.4653787887
 21
259.2742866876
 31
0.0
 11
213.6284897387216
 21
259.2847223687018
 31
0.0
 11
213.7892271853095
 21
259.3158485387298
 31
0.0
 11
213.943981452587
 21
259.3670522566839
 31
0.0
 11
214.090820548903
 21
259.4376216888836
 31
0.0
 11
214.2264460394803
 21
259.5259303636607
 31
0.0
 11
214.3495547956981
 21
259.6311164305733
 31
0.0
 11
214.4570959174529
 21
259.7506467369244
 31
0.0
 11
214.5479105434
 21
259.882970698
 31
0.0
  0
SPLINE
  5
126
330
1F
100
AcDbEntity
  8
0
  6
Continuous
 62
     7
100
AcDbSpline
210
0.0
220
0.0
230
1.0
 70
     8
 71
     3
 72
    15
 73
    11
 74
     9
 42
0.0000000001
 43
0.0000000001
 44
0.00000001
 40
0.0
 40
0.0
 40
0.0
 40
0.0
 40
0.1604898138208816
 40
0.3212773779995258
 40
0.4832029916871931
 40
0.6450446592607935
 40
0.8079610034327797
 40
0.9709661382580325
 40
1.13468941203104
 40
1.298133687045074
 40
1.298133687045074
 40
1.298133687045074
 40
1.298133687045074
 10
214.5479105434
 20
308.0314431136
 30
0.0
 10
214.518829136766
 20
308.0764362295975
 30
0.0
 10
214.460612369923
 20
308.1665059355282
 30
0.0
 10
214.3515338849039
 20
308.2859675488596
 30
0.0
 10
214.2286241516181
 20
308.3913158356266
 30
0.0
 10
214.0922106737351
 20
308.4799971587823
 30
0.0
 10
213.9452631637168
 20
308.5506779940721
 30
0.0
 10
213.7898791098958
 20
308.6017692848215
 30
0.0
 10
213.6290225091929
 20
308.6340558247862
 30
0.0
 10
213.5198956754911
 20
308.6381045084611
 30
0.0
 10
213.4653787887
 20
308.640127124
 30
0.0
 11
214.5479105434
 21
308.0314431136
 31
0.0
 11
214.4570958135069
 21
308.1637672050373
 31
0.0
 11
214.3495545548687
 21
308.2832976132397
 31
0.0
 11
214.2264456966007
 21
308.3884837025484
 31
0.0
 11
214.0908200967079
 21
308.4767923771886
 31
0.0
 11
213.9439810569261
 21
308.5473617160996
 31
0.0
 11
213.789226861811
 21
308.5985653592675
 31
0.0
 11
213.6284895733135
 21
308.629691465054
 31
0.0
 11
213.4653787887
 21
308.640127124
 31
0.0
  0
SPLINE
  5
127
330
1F
100
AcDbEntity
  8
0
  6
Continuous
 62
     7
100
AcDbSpline
210
0.0
220
0.0
230
1.0
 70
     8
 71
     3
 72
    15
 73
    11
 74
     9
 42
0.0000000001
 43
0.0000000001
 44
0.00000001
 40
0.0
 40
0.0
 40
0.0
 40
0.0
 40
0.1620441078739355
 40
0.3241189698519529
 40
0.4759570764463195
 40
0.6277574368857289
 40
0.760013333099557
 40
0.89236696461983
 40
0.9980122602191821
 40
1.103439792177924
 40
1.103439792177924
 40
1.103439792177924
 40
1.103439792177924
 10
213.4653787887
 20
275.0530549188
 30
0.0
 10
213.5193966901087
 20
275.05360593662
 30
0.0
 10
213.6274427449012
 20
275.054708076837
 30
0.0
 10
213.7858948185326
 20
275.0636989632139
 30
0.0
 10
213.9405160021865
 20
275.0778908361202
 30
0.0
 10
214.0845444567961
 20
275.097394568478
 30
0.0
 10
214.2212016405722
 20
275.1221109565373
 30
0.0
 10
214.3411971876901
 20
275.1510806667761
 30
0.0
 10
214.4511062413911
 20
275.1837890203471
 30
0.0
 10
214.5156646443452
 20
275.2119174826852
 30
0.0
 10
214.5479105434
 20
275.2259672038
 30
0.0
 11
213.4653787887
 21
275.0530549188
 31
0.0
 11
213.6273968024242
 21
275.0559628606049
 31
0.0
 11
213.7892271853476
 21
275.0648616272628
 31
0.0
 11
213.9404078983132
 21
275.0789755438482
 31
0.0
 11
214.0908205489624
 21
275.0994544098866
 31
0.0
 11
214.2208991758558
 21
275.1233536339086
 31
0.0
 11
214.3495547956574
 21
275.1544215477438
 31
0.0
 11
214.450426229736
 21
275.1858203099679
 31
0.0
 11
214.5479105434
 21
275.2259672038
 31
0.0
  0
SPLINE
  5
128
330
1F
100
AcDbEntity
  8
0
  6
Continuous
 62
     7
100
AcDbSpline
210
0.0
220
0.0
230
1.0
 70
     8
 71
     3
 72
    15
 73
    11
 74
     9
 42
0.0000000001
 43
0.0000000001
 44
0.00000001
 40
0.0
 40
0.0
 40
0.0
 40
0.0
 40
0.1054276563549795
 40
0.2110730771116699
 40
0.3434268129624858
 40
0.4756828130756781
 40
0.6274831067880138
 40
0.7793211466131986
 40
0.9413958463230268
 40
1.103439792070313
 40
1.103439792070313
 40
1.103439792070313
 40
1.103439792070313
 10
214.5479105434
 20
292.6884466077
 30
0.0
 10
214.515664605706
 20
292.7024963441796
 30
0.0
 10
214.4511061252394
 20
292.7306248373461
 30
0.0
 10
214.3411969531814
 20
292.7633332085843
 30
0.0
 10
214.2212012941066
 20
292.7923029282072
 30
0.0
 10
214.0845440603226
 20
292.8170193052751
 30
0.0
 10
213.9405156132244
 20
292.8365230186876
 30
0.0
 10
213.7858945265358
 20
292.850714868897
 30
0.0
 10
213.6274425826983
 20
292.859705738127
 30
0.0
 10
213.5193966360569
 20
292.8608078760345
 30
0.0
 10
213.4653787887
 20
292.8613588927
 30
0.0
 11
214.5479105434
 21
292.6884466077
 31
0.0
 11
214.4504261124524
 21
292.7285935434153
 31
0.0
 11
214.3495545548145
 21
292.7599923298018
 31
0.0
 11
214.2208988291673
 21
292.7910602497814
 31
0.0
 11
214.0908200966691
 21
292.8149594739865
 31
0.0
 11
213.9404075095846
 21
292.8354383122769
 31
0.0
 11
213.7892268618092
 21
292.8495522088388
 31
0.0
 11
213.6273966403805
 21
292.8584509569729
 31
0.0
 11
213.4653787887
 21
292.8613588927
 31
0.0
  0
SPLINE
  5
129
330
1F
100
AcDbEntity
  8
0
  6
Continuous
 62
     7
100
AcDbSpline
210
0.0
220
0.0
230
1.0
 70
     8
 71
     3
 72
    13
 73
     9
 74
     7
 42
0.0000000001
 43
0.0000000001
 44
0.00000001
 40
0.0
 40
0.0
 40
0.0
 40
0.0
 40
0.279357704543221
 40
0.5615026841049
 40
0.7190048980339301
 40
0.8758387376797936
 40
1.038619549052346
 40
1.201394281905237
 40
1.201394281905237
 40
1.201394281905237
 40
1.201394281905237
 10
214.5479105434
 20
268.6142103999
 30
0.0
 10
214.4817107536166
 20
268.547945426006
 30
0.0
 10
214.3486506695521
 20
268.4147543233499
 30
0.0
 10
214.1307245631824
 20
268.3066706213974
 30
0.0
 10
213.9429311864817
 20
268.2415150029509
 30
0.0
 10
213.7876944293141
 20
268.2056028081225
 30
0.0
 10
213.6282192250617
 20
268.1827285984889
 30
0.0
 10
213.5196582584986
 20
268.1798686313633
 30
0.0
 10
213.4653787887
 20
268.1784386745
 30
0.0
 11
214.5479105434
 21
268.6142103999
 31
0.0
 11
214.3401210867124
 21
268.4274906398928
 31
0.0
 11
214.0908200966817
 21
268.2953740025546
 31
0.0
 11
213.9418898434394
 21
268.2441223970993
 31
0.0
 11
213.7892268618073
 21
268.2081937553597
 31
0.0
 11
213.6279836709651
 21
268.1858727796165
 31
0.0
 11
213.4653787887
 21
268.1784386745
 31
0.0
  0
SPLINE
  5
12A
330
1F
100
AcDbEntity
  8
0
  6
Continuous
 62
     7
100
AcDbSpline
210
0.0
220
0.0
230
1.0
 70
     8
 71
     3
 72
    13
 73
     9
 74
     7
 42
0.0000000001
 43
0.0000000001
 44
0.00000001
 40
0.0
 40
0.0
 40
0.0
 40
0.0
 40
0.1627748970532507
 40
0.3255558730562561
 40
0.4823897920111182
 40
0.6398920844851179
 40
0.9220368188120833
 40
1.201394284402991
 40
1.201394284402991
 40
1.201394284402991
 40
1.201394284402991
 10
213.4653787887
 20
299.735975137
 30
0.0
 10
213.5196583132916
 20
299.7345451771131
 30
0.0
 10
213.6282193895842
 20
299.7316852039363
 30
0.0
 10
213.78769472601
 20
299.7088109504967
 30
0.0
 10
213.9429315804405
 20
299.6728986977846
 30
0.0
 10
214.1307249118821
 20
299.6077430351083
 30
0.0
 10
214.3486508583334
 20
299.4996593308749
 30
0.0
 10
214.4817108160282
 20
299.3664683335498
 30
0.0
 10
214.5479105434
 20
299.3002034116
 30
0.0
 11
213.4653787887
 21
299.735975137
 31
0.0
 11
213.627983834625
 21
299.7285410163101
 31
0.0
 11
213.789227185272
 21
299.7062199943664
 31
0.0
 11
213.9418902361663
 21
299.6702913007303
 31
0.0
 11
214.0908205488932
 21
299.6190396267514
 31
0.0
 11
214.3401212860118
 21
299.4869230358912
 31
0.0
 11
214.5479105434
 21
299.3002034116
 31
0.0
  0
SPLINE
  5
12B
330
1F
100
AcDbEntity
  8
BEZUGSACHSEN
  6
Continuous
 62
     7
100
AcDbSpline
210
0.0
220
0.0
230
1.0
 70
     8
 71
     3
 72
    47
 73
    43
 74
    41
 42
0.0000000001
 43
0.0000000001
 44
0.00000001
 40
0.0
 40
0.0
 40
0.0
 40
0.0
 40
0.6366022431821741
 40
1.27359500217123
 40
1.592921746400038
 40
1.912076344893217
 40
2.231392290438291
 40
2.550826842753556
 40
3.189774321180299
 40
3.829081697009378
 40
4.468337152510559
 40
5.107221744786843
 40
5.42617634129333
 40
5.745033356850542
 40
6.06335673161775
 40
6.381780214908627
 40
7.01705919567854
 40
7.652639341004077
 40
8.287532214273119
 40
8.922347946553273
 40
9.559226748619148
 40
10.19613435938665
 40
10.83451785503449
 40
11.47287689974292
 40
12.11234487366442
 40
12.75189588951279
 40
13.39354300524266
 40
14.03487957360982
 40
14.35615205776637
 40
14.6773210771649
 40
14.99840882476614
 40
15.31959604125669
 40
15.96011121031311
 40
16.60099592094748
 40
17.23809108086456
 40
17.87482555210508
 40
18.19205670343531
 40
18.50917199110404
 40
18.82571084636669
 40
19.14241581833207
 40
19.77338975000504
 40
20.40398930747563
 40
20.40398930747563
 40
20.40398930747563
 40
20.40398930747563
 10
36.5847653479
 20
283.9572068863
 30
0.0
 10
36.59077099178672
 20
284.1694866959952
 30
0.0
 10
36.60278596364844
 20
284.594176535821
 30
0.0
 10
36.68405130885648
 20
285.1203192969369
 30
0.0
 10
36.7767709054583
 20
285.5352936730641
 30
0.0
 10
36.86206386959363
 20
285.8431176487644
 30
0.0
 10
36.9623024830037
 20
286.146410325562
 30
0.0
 10
37.1157880321195
 20
286.5438476881241
 30
0.0
 10
37.34425997890586
 20
287.0259472650051
 30
0.0
 10
37.67387493948775
 20
287.5747631378219
 30
0.0
 10
38.05610215655808
 20
288.0882986771788
 30
0.0
 10
38.41495685367965
 20
288.4828014392702
 30
0.0
 10
38.72391020726925
 20
288.7756747373047
 30
0.0
 10
38.96580531625533
 20
288.9833965584137
 30
0.0
 10
39.21744856972719
 20
289.1789059555509
 30
0.0
 10
39.56474267685488
 20
289.4224011582345
 30
0.0
 10
40.02048301160099
 20
289.6942832282813
 30
0.0
 10
40.59596243629874
 20
289.9656123407931
 30
0.0
 10
41.19507320148372
 20
290.1793959716011
 30
0.0
 10
41.81252360395669
 20
290.334085702971
 30
0.0
 10
42.44279416564479
 20
290.4278926866263
 30
0.0
 10
43.08038810035389
 20
290.4600194114325
 30
0.0
 10
43.71856674457048
 20
290.4295898384821
 30
0.0
 10
44.35157916575887
 20
290.3369185833185
 30
0.0
 10
44.9728128501974
 20
290.1824266220905
 30
0.0
 10
45.57694860217815
 20
289.9673894895498
 30
0.0
 10
46.15742767575809
 20
289.6934661238197
 30
0.0
 10
46.61705669998383
 20
289.41829924576
 30
0.0
 10
46.96695568864726
 20
289.1716895469025
 30
0.0
 10
47.22008731779645
 20
288.9737853545315
 30
0.0
 10
47.46308595715064
 20
288.7636068251298
 30
0.0
 10
47.77233030065574
 20
288.4680874849744
 30
0.0
 10
48.13065049145304
 20
288.0706165022079
 30
0.0
 10
48.51060090979621
 20
287.5549497406529
 30
0.0
 10
48.83707393940779
 20
287.0053535841828
 30
0.0
 10
49.06244507940285
 20
286.5242480424722
 30
0.0
 10
49.21353606256169
 20
286.1282578548522
 30
0.0
 10
49.31194898011102
 20
285.826831504069
 30
0.0
 10
49.3956157582826
 20
285.5211361361528
 30
0.0
 10
49.48643511571656
 20
285.1095841184371
 30
0.0
 10
49.56595009132209
 20
284.5881589019092
 30
0.0
 10
49.57772237598959
 20
284.1674826127546
 30
0.0
 10
49.5836067716
 20
283.9572068864
 30
0.0
 11
36.5847653479
 21
283.9572068863
 31
0.0
 11
36.61601401893981
 21
284.5930417206578
 31
0.0
 11
36.70945522131341
 21
285.2231437097861
 31
0.0
 11
36.77939572834628
 21
285.534716967714
 31
0.0
 11
36.8645370673115
 21
285.8423053454829
 31
0.0
 11
36.96476160542475
 21
286.1454846901609
 31
0.0
 11
37.07984149515399
 21
286.4434696766833
 31
0.0
 11
37.3534373894008
 21
287.0208769565466
 31
0.0
 11
37.68265690309644
 21
287.5688992486037
 31
0.0
 11
38.06428115842632
 21
288.0817447079108
 31
0.0
 11
38.49421579455266
 21
288.5543224590872
 31
0.0
 11
38.72568805563505
 21
288.7737595274736
 31
0.0
 11
38.96759045667602
 21
288.9814925887341
 31
0.0
 11
39.21896426381586
 21
289.17678974695
 31
0.0
 11
39.47969354208067
 21
289.3595840525687
 31
0.0
 11
40.0252271862635
 21
289.6851181160285
 31
0.0
 11
40.60013700639264
 21
289.9561177836503
 31
0.0
 11
41.19808319417075
 21
290.1695406433665
 31
0.0
 11
41.81387572641301
 21
290.3237825675799
 31
0.0
 11
42.44380800837198
 21
290.4175905025685
 31
0.0
 11
43.07991113007837
 21
290.4495924276507
 31
0.0
 11
43.71757208908245
 21
290.4192281578991
 31
0.0
 11
44.34918962199093
 21
290.3266994483887
 31
0.0
 11
44.96976249411583
 21
290.1723990917659
 31
0.0
 11
45.57226330126963
 21
289.9578803763779
 31
0.0
 11
46.15257049765077
 21
289.6841020372919
 31
0.0
 11
46.7027954856988
 21
289.3546099183383
 31
0.0
 11
46.96540278984626
 21
289.1695331426896
 31
0.0
 11
47.21842324723811
 21
288.9717196265623
 31
0.0
 11
47.46127154860243
 21
288.7616671469671
 31
0.0
 11
47.69347398400946
 21
288.5397589293906
 31
0.0
 11
48.12239004174371
 21
288.0640587115968
 31
0.0
 11
48.50250070041678
 21
287.5480653981827
 31
0.0
 11
48.82793984614196
 21
287.0003614587962
 31
0.0
 11
49.09802070427165
 21
286.4237445002025
 31
0.0
 11
49.21111114945585
 21
286.1273559805491
 31
0.0
 11
49.30955525279501
 21
285.8259080344772
 31
0.0
 11
49.39303805816924
 21
285.5205762999689
 31
0.0
 11
49.46158748160349
 21
285.2113789264121
 31
0.0
 11
49.55301455948777
 21
284.5870639483118
 31
0.0
 11
49.5836067716
 21
283.9572068864
 31
0.0
  0
SPLINE
  5
12C
330
1F
100
AcDbEntity
  8
BEZUGSACHSEN
  6
Continuous
 62
     7
100
AcDbSpline
210
0.0
220
0.0
230
1.0
 70
     8
 71
     3
 72
    47
 73
    43
 74
    41
 42
0.0000000001
 43
0.0000000001
 44
0.00000001
 40
0.0
 40
0.0
 40
0.0
 40
0.0
 40
0.6302393214460731
 40
1.260854867303333
 40
1.577476088392064
 40
1.893930800226624
 40
2.210999113873285
 40
2.528183472209183
 40
3.164887038236375
 40
3.801951183384542
 40
4.442851001642131
 40
5.083381259846989
 40
5.404527292372737
 40
5.725573838807801
 40
6.046670710059033
 40
6.367871027162446
 40
7.009090242548767
 40
7.650619763980202
 40
8.290330346526371
 40
8.929958764505313
 40
9.568647011358854
 40
10.20735923012855
 40
10.84445705813378
 40
11.481526264932
 40
12.11643462222309
 40
12.75141965582163
 40
13.38691908741822
 40
14.02211738534256
 40
14.34050449144558
 40
14.65879153792153
 40
14.97761586867834
 40
15.2965377494424
 40
15.93537694101546
 40
16.57458694068852
 40
17.21386274992593
 40
17.85277859073131
 40
18.17219860080095
 40
18.49150024073368
 40
18.81067156633788
 40
19.13001452421916
 40
19.76719627026825
 40
20.40398968276948
 40
20.40398968276948
 40
20.40398968276948
 40
20.40398968276948
 10
49.58359458
 20
283.9572069245
 30
0.0
 10
49.57772537825579
 20
283.7470509026145
 30
0.0
 10
49.56598347111895
 20
283.3266134051898
 30
0.0
 10
49.48653672855644
 20
282.8054499629393
 30
0.0
 10
49.39580522349559
 20
282.3940584955091
 30
0.0
 10
49.31219984120388
 20
282.0884206552055
 30
0.0
 10
49.21384789983766
 20
281.7870368090101
 30
0.0
 10
49.06282908898314
 20
281.3910636294206
 30
0.0
 10
48.83754650137466
 20
280.9099568207467
 30
0.0
 10
48.51116846660366
 20
280.3603225957506
 30
0.0
 10
48.13130140454003
 20
279.8445947330765
 30
0.0
 10
47.77304696523981
 20
279.4470693308506
 30
0.0
 10
47.46386622756302
 20
279.1515159759042
 30
0.0
 10
47.22094127154286
 20
278.9413310674699
 30
0.0
 10
46.96789236823897
 20
278.7434216031504
 30
0.0
 10
46.6181098597955
 20
278.4967982516811
 30
0.0
 10
46.15862462203266
 20
278.2215916424121
 30
0.0
 10
45.57822891505361
 20
277.94755153571
 30
0.0
 10
44.9740746072122
 20
277.7323630583528
 30
0.0
 10
44.35265945981754
 20
277.5777012193108
 30
0.0
 10
43.71939024840153
 20
277.4848908462769
 30
0.0
 10
43.0809307839866
 20
277.4543800964693
 30
0.0
 10
42.44309777044288
 20
277.4864818388523
 30
0.0
 10
41.81266778343916
 20
277.5802949012296
 30
0.0
 10
41.19509411391554
 20
277.735008717517
 30
0.0
 10
40.59595070245516
 20
277.948805289586
 30
0.0
 10
40.02049348098046
 20
278.2201266580391
 30
0.0
 10
39.56480808804001
 20
278.4919715416897
 30
0.0
 10
39.21755219032121
 20
278.735432094288
 30
0.0
 10
38.96593260904086
 20
278.9309146206108
 30
0.0
 10
38.7240575587774
 20
279.138607679299
 30
0.0
 10
38.41512127509368
 20
279.4314452274297
 30
0.0
 10
38.05627851820618
 20
279.825902876382
 30
0.0
 10
37.67405161296978
 20
280.3393875423474
 30
0.0
 10
37.34442716770918
 20
280.8881553210575
 30
0.0
 10
37.11593972178486
 20
281.370218737531
 30
0.0
 10
36.96243822181827
 20
281.7676282966826
 30
0.0
 10
36.86218141889265
 20
282.0709106599654
 30
0.0
 10
36.77686492597019
 20
282.3787345316795
 30
0.0
 10
36.68410247060599
 20
282.7937753988068
 30
0.0
 10
36.60281010364943
 20
283.3200481978817
 30
0.0
 10
36.59077030415786
 20
283.7448638475782
 30
0.0
 10
36.5847522394
 20
283.9572069262
 30
0.0
 11
49.58359458
 21
283.9572069245
 31
0.0
 11
49.55305500127877
 21
283.3277079678461
 31
0.0
 11
49.46172372575195
 21
282.7037411700215
 31
0.0
 11
49.39322898706543
 21
282.3946174594848
 31
0.0
 11
49.30981016222868
 21
282.0893554665915
 31
0.0
 11
49.21142341838961
 21
281.7879382073719
 31
0.0
 11
49.09839278728708
 21
281.4915769521351
 31
0.0
 11
48.82841265077225
 21
280.9149469521532
 31
0.0
 11
48.50307602890153
 21
280.3672181803116
 31
0.0
 11
48.12303953407039
 21
279.851151479546
 31
0.0
 11
47.69418903637543
 21
279.3753718432617
 31
0.0
 11
47.46205190200111
 21
279.1534549104884
 31
0.0
 11
47.21926940867487
 21
278.9433893352216
 31
0.0
 11
46.96633980040125
 21
278.7455767623505
 31
0.0
 11
46.70382540458972
 21
278.5604934413866
 31
0.0
 11
46.15376722298581
 21
278.2309512149099
 31
0.0
 11
45.57362639129982
 21
277.9570958839799
 31
0.0
 11
44.97102108099291
 21
277.7423950003966
 31
0.0
 11
44.35032181068375
 21
277.5879381166914
 31
0.0
 11
43.71839299679471
 21
277.495263142477
 31
0.0
 11
43.08040686964686
 21
277.4648164682319
 31
0.0
 11
42.44411188153444
 21
277.4967903724664
 31
0.0
 11
41.8139886074142
 21
277.5906084606078
 31
0.0
 11
41.19810469913944
 21
277.7448667948601
 31
0.0
 11
40.60007222928717
 21
277.9583220779911
 31
0.0
 11
40.02523648073004
 21
278.2292895847891
 31
0.0
 11
39.47976979321565
 21
278.5547784025664
 31
0.0
 11
39.2190675004674
 21
278.7375478307771
 31
0.0
 11
38.96771824868463
 21
278.9328173818664
 31
0.0
 11
38.72583495034606
 21
279.1405225187008
 31
0.0
 11
38.49437911904742
 21
279.3599293649658
 31
0.0
 11
38.0644560881672
 21
279.8324562956358
 31
0.0
 11
37.6828349487094
 21
280.3452474125645
 31
0.0
 11
37.35360347453036
 21
280.893225693782
 31
0.0
 11
37.07998916738632
 21
281.4705892383171
 31
0.0
 11
36.96489691492636
 21
281.7685538608087
 31
0.0
 11
36.86465722649947
 21
282.0717131293918
 31
0.0
 11
36.77949014628084
 21
282.3793117372153
 31
0.0
 11
36.7095271187974
 21
282.6908965563797
 31
0.0
 11
36.6160382218169
 21
283.3211825261105
 31
0.0
 11
36.5847522394
 21
283.9572069262
 31
0.0
  0
SPLINE
  5
12D
330
1F
100
AcDbEntity
  8
BEZUGSACHSEN
  6
Continuous
 62
     7
100
AcDbSpline
210
0.0
220
0.0
230
1.0
 70
     8
 71
     3
 72
    27
 73
    23
 74
    21
 42
0.0000000001
 43
0.0000000001
 44
0.00000001
 40
0.0
 40
0.0
 40
0.0
 40
0.0
 40
0.1219765139516433
 40
0.2439857714749085
 40
0.3566831398333917
 40
0.4694418149629688
 40
0.5721317672948627
 40
0.6745445881156042
 40
0.7225206521222047
 40
0.7704888797708626
 40
0.8171412936045944
 40
0.863789873426779
 40
0.9102318000825926
 40
0.956675132413596
 40
1.004175175749492
 40
1.051683100142892
 40
1.153672388761919
 40
1.256049376711197
 40
1.370745138132343
 40
1.485385401913329
 40
1.611534903949032
 40
1.737631875993843
 40
1.737631875993843
 40
1.737631875993843
 40
1.737631875993843
 10
9.2300236178
 20
268.7148709103
 30
0.0
 10
9.19476860019661
 20
268.6945913850352
 30
0.0
 10
9.124249101076192
 20
268.654026890637
 30
0.0
 10
9.016596697890357
 20
268.6032310297452
 30
0.0
 10
8.908438682019078
 20
268.5614793938762
 30
0.0
 10
8.802859461050653
 20
268.5320648087349
 30
0.0
 10
8.69802791590492
 20
268.5151502213467
 30
0.0
 10
8.61330024605556
 20
268.5132849981185
 30
0.0
 10
8.5474763096518
 20
268.5202403061382
 30
0.0
 10
8.50076910643773
 20
268.5294374332916
 30
0.0
 10
8.455588489133687
 20
268.5429708782789
 30
0.0
 10
8.412448878481936
 20
268.5607641370849
 30
0.0
 10
8.371494401903815
 20
268.5829924947888
 30
0.0
 10
8.332846975432902
 20
268.6095275264906
 30
0.0
 10
8.296940896799821
 20
268.6402228040218
 30
0.0
 10
8.251501575261624
 20
268.687760277142
 30
0.0
 10
8.202958435174825
 20
268.7569296442454
 30
0.0
 10
8.156732726207627
 20
268.853087698969
 30
0.0
 10
8.122766852424993
 20
268.9586631319664
 30
0.0
 10
8.099811428247278
 20
269.0750808228752
 30
0.0
 10
8.086366869897546
 20
269.1968281315308
 30
0.0
 10
8.084909483599603
 20
269.280931495048
 30
0.0
 10
8.0841809422
 20
269.3229744196
 30
0.0
 11
9.2300236178
 21
268.7148709103
 31
0.0
 11
9.123478993739457
 21
268.6554864591399
 31
0.0
 11
9.013186104570789
 21
268.603316184843
 31
0.0
 11
8.907868096718355
 21
268.5632061604486
 31
0.0
 11
8.799144368175307
 21
268.5333118521496
 31
0.0
 11
8.697680216054163
 21
268.5174924923565
 31
0.0
 11
8.595280675469763
 21
268.5158432632745
 31
0.0
 11
8.547576819257216
 21
268.52094667586
 31
0.0
 11
8.500526048995766
 21
268.5302834783939
 31
0.0
 11
8.455846481562345
 21
268.5437067406828
 31
0.0
 11
8.41274034496641
 21
268.5615379208793
 31
0.0
 11
8.371917752169553
 21
268.5836821857993
 31
0.0
 11
8.333630495623403
 21
268.609970379046
 31
0.0
 11
8.297493398612847
 21
268.6407983588138
 31
0.0
 11
8.264640898240962
 21
268.6751162273298
 31
0.0
 11
8.20546850398714
 21
268.7581851309658
 31
0.0
 11
8.16056878038608
 21
268.8501909051439
 31
0.0
 11
8.124930620818589
 21
268.9592094323336
 31
0.0
 11
8.102079057452347
 21
269.0715490786367
 31
0.0
 11
8.088312301129793
 21
269.1969451443015
 31
0.0
 11
8.0841809422
 21
269.3229744196
 31
0.0
  0
SPLINE
  5
12E
330
1F
100
AcDbEntity
  8
BEZUGSACHSEN
  6
Continuous
 62
     7
100
AcDbSpline
210
0.0
220
0.0
230
1.0
 70
     8
 71
     3
 72
    15
 73
    11
 74
     9
 42
0.0000000001
 43
0.0000000001
 44
0.00000001
 40
0.0
 40
0.0
 40
0.0
 40
0.0
 40
0.1110371613952283
 40
0.2222522337959598
 40
0.3333980192388721
 40
0.4445069475161443
 40
0.5556201065517955
 40
0.6667525642571722
 40
0.7778876033936026
 40
0.8889820915779331
 40
0.8889820915779331
 40
0.8889820915779331
 40
0.8889820915779331
 10
9.9841064575
 20
268.2806745195
 30
0.0
 10
9.947464730610015
 20
268.28620667232
 30
0.0
 10
9.874122567057643
 20
268.2972798419372
 30
0.0
 10
9.767606017038858
 20
268.3302984055108
 30
0.0
 10
9.665193109296705
 20
268.3738886929791
 30
0.0
 10
9.567743143690038
 20
268.4276682008021
 30
0.0
 10
9.47543834797348
 20
268.4897633361653
 30
0.0
 10
9.388441719850706
 20
268.5590500098148
 30
0.0
 10
9.3061889644067
 20
268.6339319614267
 30
0.0
 10
9.25540897800524
 20
268.6878945429188
 30
0.0
 10
9.2300236178
 20
268.7148709103
 30
0.0
 11
9.9841064575
 21
268.2806745195
 31
0.0
 11
9.874764172363742
 21
268.3000010787357
 31
0.0
 11
9.768272218763148
 21
268.3320675120801
 31
0.0
 11
9.666004038167431
 21
268.3755945710132
 31
0.0
 11
9.568601171743095
 21
268.4290536727195
 31
0.0
 11
9.476329404971064
 21
268.4909572684765
 31
0.0
 11
9.389232301564375
 21
268.5599827545943
 31
0.0
 11
9.307192397077833
 21
268.6349524217651
 31
0.0
 11
9.2300236178
 21
268.7148709103
 31
0.0
  0
SPLINE
  5
12F
330
1F
100
AcDbEntity
  8
BEZUGSACHSEN
  6
Continuous
 62
     7
100
AcDbSpline
210
0.0
220
0.0
230
1.0
 70
     8
 71
     3
 72
    27
 73
    23
 74
    21
 42
0.0000000001
 43
0.0000000001
 44
0.00000001
 40
0.0
 40
0.0
 40
0.0
 40
0.0
 40
0.1260969825525912
 40
0.2522464959195272
 40
0.3668867952476225
 40
0.4815825893734658
 40
0.5839596006347358
 40
0.6859489160818355
 40
0.7334568410039982
 40
0.7809568848485725
 40
0.8274002263972228
 40
0.8738421606731614
 40
0.9204907318546665
 40
0.9671431398889363
 40
1.015111401786546
 40
1.063087497112365
 40
1.165500418746178
 40
1.268190478984851
 40
1.380949153928645
 40
1.49364651780981
 40
1.615655563782617
 40
1.73763186764555
 40
1.73763186764555
 40
1.73763186764555
 40
1.73763186764555
 10
8.0841809422
 20
298.591439392
 30
0.0
 10
8.084909483676274
 20
298.6334823200609
 30
0.0
 10
8.086366870132336
 20
298.7175856908706
 30
0.0
 10
8.099811432080715
 20
298.8393330184321
 30
0.0
 10
8.12276686536459
 20
298.9557507348034
 30
0.0
 10
8.156732765697976
 20
299.061326192579
 30
0.0
 10
8.20295852455639
 20
299.1574842548185
 30
0.0
 10
8.25150169311108
 20
299.2266536204771
 30
0.0
 10
8.296941018668463
 20
299.2741911020942
 30
0.0
 10
8.332847096759524
 20
299.3048863855765
 30
0.0
 10
8.371494527852319
 20
299.3314214212886
 30
0.0
 10
8.412449015057815
 20
299.3536497671836
 30
0.0
 10
8.455588641233351
 20
299.3714429840613
 30
0.0
 10
8.50076927584702
 20
299.3849763911223
 30
0.0
 10
8.547476498838538
 20
299.3941735164565
 30
0.0
 10
8.61330049005499
 20
299.4011288368374
 30
0.0
 10
8.698028242077257
 20
299.3992635802022
 30
0.0
 10
8.802859845597311
 20
299.3823489192644
 30
0.0
 10
8.908439087964688
 20
299.3529342864057
 30
0.0
 10
9.016597026065082
 20
299.3111826489362
 30
0.0
 10
9.12424928731966
 20
299.2603868217619
 30
0.0
 10
9.194768662136827
 20
299.219822393512
 30
0.0
 10
9.2300236178
 20
299.1995429012
 30
0.0
 11
8.0841809422
 21
298.591439392
 31
0.0
 11
8.088312301764644
 21
298.7174686777911
 31
0.0
 11
8.102079060885657
 21
298.842864754548
 31
0.0
 11
8.124930636967798
 21
298.9552044345395
 31
0.0
 11
8.16056882633866
 21
299.0642229863943
 31
0.0
 11
8.2054685911388
 21
299.1562287664067
 31
0.0
 11
8.264641020092943
 21
299.2392976782633
 31
0.0
 11
8.29749352025447
 21
299.2736155477127
 31
0.0
 11
8.333630615181283
 21
299.3044435307068
 31
0.0
 11
8.37191788004272
 21
299.3307317281276
 31
0.0
 11
8.412740487979985
 21
299.3528759811177
 31
0.0
 11
8.455846631598037
 21
299.3707071217334
 31
0.0
 11
8.500526203642378
 21
299.3841303485187
 31
0.0
 11
8.547577009398239
 21
299.3934671481418
 31
0.0
 11
8.595280896677405
 21
299.398570564759
 31
0.0
 11
8.697680537568019
 21
299.396921303395
 31
0.0
 11
8.799144787907583
 21
299.3811018731002
 31
0.0
 11
8.907868504364414
 21
299.3512075215452
 31
0.0
 11
9.01318649666172
 21
299.3110974688872
 31
0.0
 11
9.12347918256712
 21
299.2589272596201
 31
0.0
 11
9.2300236178
 21
299.1995429012
 31
0.0
  0
SPLINE
  5
130
330
1F
100
AcDbEntity
  8
BEZUGSACHSEN
  6
Continuous
 62
     7
100
AcDbSpline
210
0.0
220
0.0
230
1.0
 70
     8
 71
     3
 72
    15
 73
    11
 74
     9
 42
0.0000000001
 43
0.0000000001
 44
0.00000001
 40
0.0
 40
0.0
 40
0.0
 40
0.0
 40
0.1110944831359939
 40
0.2222295181505748
 40
0.3333620401960344
 40
0.4444752610264738
 40
0.555584217839257
 40
0.6667300354336816
 40
0.7779450181939304
 40
0.888982087201113
 40
0.888982087201113
 40
0.888982087201113
 40
0.888982087201113
 10
9.2300236178
 20
299.1995429012
 30
0.0
 10
9.255408977341204
 20
299.22651926691
 30
0.0
 10
9.306188962626473
 20
299.2804818452844
 30
0.0
 10
9.388441731899896
 20
299.355363808669
 30
0.0
 10
9.475438383856496
 20
299.4246505175722
 30
0.0
 10
9.567743224296754
 20
299.4867456806464
 30
0.0
 10
9.66519324629219
 20
299.5405251727676
 30
0.0
 10
9.767606160166773
 20
299.584115418359
 30
0.0
 10
9.87412265876134
 20
299.6171339741635
 30
0.0
 10
9.947464761479942
 20
299.6282071407609
 30
0.0
 10
9.9841064575
 20
299.633739292
 30
0.0
 11
9.2300236178
 21
299.1995429012
 31
0.0
 11
9.307192394826902
 21
299.2794613848907
 31
0.0
 11
9.38923229507828
 21
299.3544310505858
 31
0.0
 11
9.476329443691432
 21
299.4234565832505
 31
0.0
 11
9.5686012652786
 21
299.4853602082195
 31
0.0
 11
9.666004173374064
 21
299.5388192933087
 31
0.0
 11
9.768272396774337
 21
299.5823463337696
 31
0.0
 11
9.874764264878998
 21
299.6144127401467
 31
0.0
 11
9.9841064575
 21
299.633739292
 31
0.0
  0
SPLINE
  5
131
330
1F
100
AcDbEntity
  8
0
  6
Continuous
 62
     7
100
AcDbSpline
210
0.0
220
0.0
230
1.0
 70
     8
 71
     3
 72
    19
 73
    15
 74
    13
 42
0.0000000001
 43
0.0000000001
 44
0.00000001
 40
0.0
 40
0.0
 40
0.0
 40
0.0
 40
0.1159638160280997
 40
0.2322191968602439
 40
0.3483355687671688
 40
0.4644089767799139
 40
0.5804847761056133
 40
0.6965670370439561
 40
0.8126291299877676
 40
0.9287241177914889
 40
1.160429553145978
 40
1.39272268992843
 40
1.625028291356047
 40
1.856795134114616
 40
1.856795134114616
 40
1.856795134114616
 40
1.856795134114616
 10
77.2091809422
 20
250.294504994
 30
0.0
 10
77.17049139511863
 20
250.2926815739821
 30
0.0
 10
77.09301502483473
 20
250.2890301493686
 30
0.0
 10
76.97964706278434
 20
250.2608714758158
 30
0.0
 10
76.87162743443486
 20
250.2173716226143
 30
0.0
 10
76.77073691264916
 20
250.1592016936756
 30
0.0
 10
76.67798310447344
 20
250.0889696823321
 30
0.0
 10
76.59385357710912
 20
250.0086681976535
 30
0.0
 10
76.51847075629271
 20
249.9201406163585
 30
0.0
 10
76.42968498875794
 20
249.7933379658435
 30
0.0
 10
76.33950122175871
 20
249.6211807336932
 30
0.0
 10
76.26440944115295
 20
249.400920408074
 30
0.0
 10
76.217743567813
 20
249.1724998707321
 30
0.0
 10
76.2120329408458
 20
249.0176997309299
 30
0.0
 10
76.2091809422
 20
248.9403895176
 30
0.0
 11
77.2091809422
 21
250.294504994
 31
0.0
 11
77.09358590906768
 21
250.2852640555771
 31
0.0
 11
76.98050051888976
 21
250.2583009678323
 31
0.0
 11
76.8727935223084
 21
250.2149164693075
 31
0.0
 11
76.77209201968839
 21
250.1571908821059
 31
0.0
 11
76.67942169329666
 21
250.087292371424
 31
0.0
 11
76.59530741950879
 21
250.0072931198669
 31
0.0
 11
76.51993210717589
 21
249.9190379686902
 31
0.0
 11
76.45320624812648
 21
249.8240342533562
 31
0.0
 11
76.34510260150013
 21
249.6190927730285
 31
0.0
 11
76.26915290969357
 21
249.3995665884611
 31
0.0
 11
76.22406932884337
 21
249.171677661147
 31
0.0
 11
76.2091809422
 21
248.9403895176
 31
0.0
  0
SPLINE
  5
132
330
1F
100
AcDbEntity
  8
0
  6
Continuous
 62
     7
100
AcDbSpline
210
0.0
220
0.0
230
1.0
 70
     8
 71
     3
 72
    19
 73
    15
 74
    13
 42
0.0000000001
 43
0.0000000001
 44
0.00000001
 40
0.0
 40
0.0
 40
0.0
 40
0.0
 40
0.2317668196885047
 40
0.4640724028126674
 40
0.6963664518381305
 40
0.928072790254118
 40
1.044168501184934
 40
1.160231315461701
 40
1.276313911431612
 40
1.392390051118666
 40
1.508462883749364
 40
1.624578659438456
 40
1.740832696756675
 40
1.856795195219368
 40
1.856795195219368
 40
1.856795195219368
 40
1.856795195219368
 10
79.9591809422
 20
248.9403895176
 30
0.0
 10
79.95632894410103
 20
249.017699723268
 30
0.0
 10
79.95061831816939
 20
249.1724998493366
 30
0.0
 10
79.90395239737934
 20
249.4009206727765
 30
0.0
 10
79.82886039312646
 20
249.6211815628681
 30
0.0
 10
79.73867607074939
 20
249.7933394772201
 30
0.0
 10
79.64988961295678
 20
249.9201426048034
 30
0.0
 10
79.57450617498998
 20
250.0086704446637
 30
0.0
 10
79.49037606005928
 20
250.0889719910351
 30
0.0
 10
79.39762198402434
 20
250.1592037068502
 30
0.0
 10
79.29673152250494
 20
250.2173731750781
 30
0.0
 10
79.18871252918821
 20
250.2608723763297
 30
0.0
 10
79.07534553019184
 20
250.2890303404509
 30
0.0
 10
78.99787004904323
 20
250.2926816375042
 30
0.0
 10
78.9591809422
 20
250.294504994
 30
0.0
 11
79.9591809422
 21
248.9403895176
 31
0.0
 11
79.94429255957529
 21
249.1716776382879
 31
0.0
 11
79.89920899427104
 21
249.3995665500193
 31
0.0
 11
79.82325896330038
 21
249.619093582542
 31
0.0
 11
79.7151546966644
 21
249.8240357568186
 31
0.0
 11
79.64842824412572
 21
249.9190399389799
 31
0.0
 11
79.57305223446086
 21
250.0072954431983
 31
0.0
 11
79.48893746988912
 21
250.0872946648705
 31
0.0
 11
79.39626663387045
 21
250.1571930651115
 31
0.0
 11
79.29556544034452
 21
250.214918034556
 31
0.0
 11
79.18785885112102
 21
250.2583019486454
 31
0.0
 11
79.07477467641331
 21
250.2852643414076
 31
0.0
 11
78.9591809422
 21
250.294504994
 31
0.0
  0
SPLINE
  5
133
330
1F
100
AcDbEntity
  8
BEZUGSACHSEN
  6
Continuous
 62
     7
100
AcDbSpline
210
0.0
220
0.0
230
1.0
 70
     8
 71
     3
 72
    11
 73
     7
 74
     5
 42
0.0000000001
 43
0.0000000001
 44
0.00000001
 40
0.0
 40
0.0
 40
0.0
 40
0.0
 40
0.5462907431785029
 40
1.093000863669364
 40
1.646070107191167
 40
2.19819704870259
 40
2.19819704870259
 40
2.19819704870259
 40
2.19819704870259
 10
17.6380268891
 20
298.9672069058
 30
0.0
 10
17.70109769095689
 20
298.796275276545
 30
0.0
 10
17.8272877129602
 20
298.4542807969808
 30
0.0
 10
17.96692502595556
 20
297.923006667745
 30
0.0
 10
18.06441339000584
 20
297.3795822628218
 30
0.0
 10
18.07759550453892
 20
297.0109976222803
 30
0.0
 10
18.0841809422
 20
296.8268624316
 30
0.0
 11
17.6380268891
 21
298.9672069058
 31
0.0
 11
17.81887822170429
 21
298.4517203671031
 31
0.0
 11
17.95936970637751
 21
297.9233700112014
 31
0.0
 11
18.05143635963283
 21
297.3780175384939
 31
0.0
 11
18.0841809422
 21
296.8268624316
 31
0.0
  0
SPLINE
  5
134
330
1F
100
AcDbEntity
  8
BEZUGSACHSEN
  6
Continuous
 62
     7
100
AcDbSpline
210
0.0
220
0.0
230
1.0
 70
     8
 71
     3
 72
    19
 73
    15
 74
    13
 42
0.0000000001
 43
0.0000000001
 44
0.00000001
 40
0.0
 40
0.0
 40
0.0
 40
0.0
 40
0.1462385987779344
 40
0.2927479274823204
 40
0.4364790706284196
 40
0.5801659236551221
 40
0.7203799972779041
 40
0.860605938246363
 40
0.9980411883698885
 40
1.135484020416842
 40
1.405415631078843
 40
1.675815514078737
 40
1.943997429514585
 40
2.211934834741437
 40
2.211934834741437
 40
2.211934834741437
 40
2.211934834741437
 10
16.0841809422
 20
300.3158544932
 30
0.0
 10
16.13289574753833
 20
300.3191625705465
 30
0.0
 10
16.23041554340399
 20
300.3257848494471
 30
0.0
 10
16.37575180372058
 20
300.3094255366727
 30
0.0
 10
16.51640874084327
 20
300.2742537705701
 30
0.0
 10
16.64926087428753
 20
300.221448083925
 30
0.0
 10
16.77371533734492
 20
300.1537762961969
 30
0.0
 10
16.88851789450231
 20
300.0744760948149
 30
0.0
 10
16.99462783227675
 20
299.9853914552398
 30
0.0
 10
17.12373029745613
 20
299.8574439196709
 30
0.0
 10
17.266770147357
 20
299.6816416307622
 30
0.0
 10
17.41167774905603
 20
299.4539561648776
 30
0.0
 10
17.53631449749887
 20
299.2152935454068
 30
0.0
 10
17.60413306866728
 20
299.0498773049738
 30
0.0
 10
17.6380268891
 20
298.9672069058
 30
0.0
 11
16.0841809422
 21
300.3158544932
 31
0.0
 11
16.23031480401905
 21
300.3213882263328
 31
0.0
 11
16.3760241648657
 21
300.3060988326538
 31
0.0
 11
16.5154542464228
 21
300.2712004964891
 31
0.0
 11
16.64908658335172
 21
300.2183960434606
 31
0.0
 11
16.77240037415136
 21
300.1516600303904
 31
0.0
 11
16.88793148545922
 21
300.0721875392978
 31
0.0
 11
16.99334403523365
 21
299.9840022665672
 31
0.0
 11
17.09113253892783
 21
299.8874210022022
 31
0.0
 11
17.26238093481767
 21
299.6787656372107
 31
0.0
 11
17.40872335535233
 21
299.4513893132928
 31
0.0
 11
17.5325909811591
 21
299.213527271252
 31
0.0
 11
17.6380268891
 21
298.9672069058
 31
0.0
  0
SPLINE
  5
135
330
1F
100
AcDbEntity
  8
BEZUGSACHSEN
  6
Continuous
 62
     7
100
AcDbSpline
210
0.0
220
0.0
230
1.0
 70
     8
 71
     3
 72
    11
 73
     7
 74
     5
 42
0.0000000001
 43
0.0000000001
 44
0.00000001
 40
0.0
 40
0.0
 40
0.0
 40
0.0
 40
0.5521269407036405
 40
1.105196183339711
 40
1.651906304698612
 40
2.198197048720036
 40
2.198197048720036
 40
2.198197048720036
 40
2.198197048720036
 10
18.0841809422
 20
271.08755138
 30
0.0
 10
18.07759550457225
 20
270.9034161895891
 30
0.0
 10
18.06441339010679
 20
270.5348315496124
 30
0.0
 10
17.96692502630956
 20
269.9914071449269
 30
0.0
 10
17.82728771327705
 20
269.46013301541
 30
0.0
 10
17.70109769106154
 20
269.1181385353159
 30
0.0
 10
17.6380268891
 20
268.9472069058
 30
0.0
 11
18.0841809422
 21
271.08755138
 31
0.0
 11
18.05143635977319
 21
270.5363962739069
 31
0.0
 11
17.95936970682982
 21
269.9910438020451
 31
0.0
 11
17.81887822199641
 21
269.4626934452878
 31
0.0
 11
17.6380268891
 21
268.9472069058
 31
0.0
  0
SPLINE
  5
136
330
1F
100
AcDbEntity
  8
BEZUGSACHSEN
  6
Continuous
 62
     7
100
AcDbSpline
210
0.0
220
0.0
230
1.0
 70
     8
 71
     3
 72
    19
 73
    15
 74
    13
 42
0.0000000001
 43
0.0000000001
 44
0.00000001
 40
0.0
 40
0.0
 40
0.0
 40
0.0
 40
0.267941164334416
 40
0.5361267936840843
 40
0.8065304773471214
 40
1.076465993216705
 40
1.213913376149524
 40
1.351353104892712
 40
1.491586367075007
 40
1.631807897554709
 40
1.775491562744948
 40
1.91921920471928
 40
2.065713007385066
 40
2.21193640933483
 40
2.21193640933483
 40
2.21193640933483
 40
2.21193640933483
 10
17.6380268891
 20
268.9472069058
 30
0.0
 10
17.60413264530106
 20
268.8645353260964
 30
0.0
 10
17.53631323316475
 20
268.6991167385294
 30
0.0
 10
17.41167472689214
 20
268.4604507648627
 30
0.0
 10
17.26676392758853
 20
268.2327627688409
 30
0.0
 10
17.12372029607292
 20
268.0569582775104
 30
0.0
 10
16.99461390915313
 20
267.9290085583783
 30
0.0
 10
16.8884988100715
 20
267.8399215375661
 30
0.0
 10
16.77368938241647
 20
267.7606198972485
 30
0.0
 10
16.64922977019319
 20
267.6929494298184
 30
0.0
 10
16.51637621507692
 20
267.6401467431288
 30
0.0
 10
16.3757254162056
 20
267.6049804791236
 30
0.0
 10
16.23040003310017
 20
267.5886282771843
 30
0.0
 10
16.13289061403631
 20
267.5952510105355
 30
0.0
 10
16.0841809422
 20
267.5985593183
 30
0.0
 11
17.6380268891
 21
268.9472069058
 31
0.0
 11
17.53258962938354
 21
268.7008830299609
 31
0.0
 11
17.40872011382421
 21
268.4630177846964
 31
0.0
 11
17.26237462754594
 21
268.2356389141202
 31
0.0
 11
17.09112243642313
 21
268.0269816119153
 31
0.0
 11
16.99332999772113
 21
267.9303978554767
 31
0.0
 11
16.88791300844158
 21
267.842210909684
 31
0.0
 11
16.77237436471886
 21
267.7627364507113
 31
0.0
 11
16.64905235483798
 21
267.6959999577782
 31
0.0
 11
16.51542166666829
 21
267.6432000068143
 31
0.0
 11
16.37599396547252
 21
267.6083065804023
 31
0.0
 11
16.23029952692226
 21
267.593023753602
 31
0.0
 11
16.0841809422
 21
267.5985593183
 31
0.0
  0
SPLINE
  5
137
330
1F
100
AcDbEntity
  8
FASEN
  6
Continuous
 62
     7
100
AcDbSpline
210
0.0
220
0.0
230
1.0
 70
     8
 71
     3
 72
     9
 73
     5
 74
     3
 42
0.0000000001
 43
0.0000000001
 44
0.00000001
 40
0.0
 40
0.0
 40
0.0
 40
0.0
 40
3.456369483410609
 40
6.904431222696498
 40
6.904431222696498
 40
6.904431222696498
 40
6.904431222696498
 10
200.391260724
 20
275.0530549188
 30
0.0
 10
200.2308936538439
 20
273.9058889091224
 30
0.0
 10
199.910544972491
 20
271.6143142227786
 30
0.0
 10
200.2311507295921
 20
269.3228114417623
 30
0.0
 10
200.391260724
 20
268.1784386745
 30
0.0
 11
200.391260724
 21
275.0530549188
 31
0.0
 11
200.0707839687619
 21
271.6115749093848
 31
0.0
 11
200.391260724
 21
268.1784386745
 31
0.0
  0
SPLINE
  5
138
330
1F
100
AcDbEntity
  8
RUNDUNGEN
  6
Continuous
 62
     7
100
AcDbSpline
210
0.0
220
0.0
230
1.0
 70
     8
 71
     3
 72
    13
 73
     9
 74
     7
 42
0.0000000001
 43
0.0000000001
 44
0.00000001
 40
0.0
 40
0.0
 40
0.0
 40
0.0
 40
0.4663350255889394
 40
0.9326617783386533
 40
1.157625267027838
 40
1.382612551958722
 40
1.702270910737514
 40
2.021668295212824
 40
2.021668295212824
 40
2.021668295212824
 40
2.021668295212824
 10
203.9925575606
 20
269.9560218031
 30
0.0
 10
203.8370180778481
 20
269.9505051509028
 30
0.0
 10
203.5259418716335
 20
269.9394719443746
 30
0.0
 10
203.1457012731123
 20
269.8642748601239
 30
0.0
 10
202.8525459290411
 20
269.7781077935775
 30
0.0
 10
202.6121284234296
 20
269.6882661258584
 30
0.0
 10
202.3501588680847
 20
269.5663130591344
 30
0.0
 10
202.1722749091822
 20
269.4486619579272
 30
0.0
 10
202.0833692514
 20
269.3898604302
 30
0.0
 11
203.9925575606
 21
269.9560218031
 31
0.0
 11
203.5271212523545
 21
269.9270839549105
 31
0.0
 11
203.069103173608
 21
269.8394478900088
 31
0.0
 11
202.8534030213693
 21
269.7755572368004
 31
0.0
 11
202.6425575605882
 21
269.6970494661749
 31
0.0
 11
202.3540508872464
 21
269.5594073004902
 31
0.0
 11
202.0833692514
 21
269.3898604302
 31
0.0
  0
SPLINE
  5
139
330
1F
100
AcDbEntity
  8
RUNDUNGEN
  6
Continuous
 62
     7
100
AcDbSpline
210
0.0
220
0.0
230
1.0
 70
     8
 71
     3
 72
    13
 73
     9
 74
     7
 42
0.0000000001
 43
0.0000000001
 44
0.00000001
 40
0.0
 40
0.0
 40
0.0
 40
0.0
 40
0.430783767831179
 40
0.8616138580403143
 40
1.09025574322628
 40
1.318890809070238
 40
1.670307948796257
 40
2.021585355891926
 40
2.021585355891926
 40
2.021585355891926
 40
2.021585355891926
 10
202.0833692514
 20
298.5245533813
 30
0.0
 10
202.2043876058595
 20
298.4467259501819
 30
0.0
 10
202.446437327938
 20
298.291062719126
 30
0.0
 10
202.7862710515008
 20
298.156500545815
 30
0.0
 10
203.0700207119553
 20
298.0719817880936
 30
0.0
 10
203.333259511021
 20
298.013162578816
 30
0.0
 10
203.6411045760897
 20
297.9677902345373
 30
0.0
 10
203.8754220973119
 20
297.9615243351824
 30
0.0
 10
203.9925575606
 20
297.9583920085
 30
0.0
 11
202.0833692514
 21
298.5245533813
 31
0.0
 11
202.4530526306124
 21
298.3033999192857
 31
0.0
 11
202.8514882538816
 21
298.1394986662712
 31
0.0
 11
203.0707101503097
 21
298.0745458234706
 31
0.0
 11
203.2937461388033
 21
298.0242572445474
 31
0.0
 11
203.6416625471309
 21
297.9747781690743
 31
0.0
 11
203.9925575606
 21
297.9583920085
 31
0.0
  0
SPLINE
  5
13A
330
1F
100
AcDbEntity
  8
FASEN
  6
Continuous
 62
     7
100
AcDbSpline
210
0.0
220
0.0
230
1.0
 70
     8
 71
     3
 72
     9
 73
     5
 74
     3
 42
0.0000000001
 43
0.0000000001
 44
0.00000001
 40
0.0
 40
0.0
 40
0.0
 40
0.0
 40
3.453117627738979
 40
6.903420475428666
 40
6.903420475428666
 40
6.903420475428666
 40
6.903420475428666
 10
200.391260724
 20
299.735975137
 30
0.0
 10
200.2337247041564
 20
298.5897327041889
 30
0.0
 10
199.9187810786426
 20
296.2981821885309
 30
0.0
 10
200.2338103252423
 20
294.0066552111881
 30
0.0
 10
200.391260724
 20
292.8613588927
 30
0.0
 11
200.391260724
 21
299.735975137
 31
0.0
 11
200.0762743403096
 21
296.2972537279453
 31
0.0
 11
200.391260724
 21
292.8613588927
 31
0.0
  0
SPLINE
  5
13B
330
1F
100
AcDbEntity
  8
BEZUGSACHSEN
  6
Continuous
 62
     7
100
AcDbSpline
210
0.0
220
0.0
230
1.0
 70
     8
 71
     3
 72
    11
 73
     7
 74
     5
 42
0.0000000001
 43
0.0000000001
 44
0.00000001
 40
0.0
 40
0.0
 40
0.0
 40
0.0
 40
0.9140556660002769
 40
1.828030949185926
 40
2.279806974871054
 40
2.730944124762495
 40
2.730944124762495
 40
2.730944124762495
 40
2.730944124762495
 10
9.35113386908544
 20
268.947206905985
 30
0.0
 10
9.483788576048816
 20
269.2219235036516
 30
0.0
 10
9.74908632421043
 20
269.7713325401789
 30
0.0
 10
9.964441537522985
 20
270.5040434612836
 30
0.0
 10
10.0681357511854
 20
271.1019886673898
 30
0.0
 10
10.0788350687065
 20
271.4031118828165
 30
0.0
 10
10.0841809422
 20
271.5535669574
 30
0.0
 11
9.35113386908544
 21
268.947206905985
 31
0.0
 11
9.72594139886089
 21
269.7808837475554
 31
0.0
 11
9.985232759258746
 21
270.657307622571
 31
0.0
 11
10.05794973275737
 21
271.1031930553327
 31
0.0
 11
10.0841809422
 21
271.5535669574
 31
0.0
  0
SPLINE
  5
13C
330
1F
100
AcDbEntity
  8
BEZUGSACHSEN
  6
Continuous
 62
     7
100
AcDbSpline
210
0.0
220
0.0
230
1.0
 70
     8
 71
     3
 72
    11
 73
     7
 74
     5
 42
0.0000000001
 43
0.0000000001
 44
0.00000001
 40
0.0
 40
0.0
 40
0.0
 40
0.0
 40
0.8249192366726996
 40
1.650116891931491
 40
2.190492152293671
 40
2.730585915378212
 40
2.730585915378212
 40
2.730585915378212
 40
2.730585915378212
 10
10.0841809422
 20
296.3608468542
 30
0.0
 10
10.06644763786181
 20
296.636037146177
 30
0.0
 10
10.03097504401586
 20
297.186510609638
 30
0.0
 10
9.822540227380564
 20
297.8912441947909
 30
0.0
 10
9.592313796400743
 20
298.4834579198711
 30
0.0
 10
9.43151321359883
 20
298.805985253316
 30
0.0
 10
9.35113386908544
 20
298.967206905615
 30
0.0
 11
10.0841809422
 21
296.3608468542
 31
0.0
 11
10.00060548808428
 21
297.1815215098962
 31
0.0
 11
9.78264404597249
 21
297.9774134497958
 31
0.0
 11
9.584708967413297
 21
298.4802326287133
 31
0.0
 11
9.35113386908544
 21
298.967206905615
 31
0.0
  0
SPLINE
  5
13D
330
1F
100
AcDbEntity
  8
FASEN
  6
Continuous
 62
     7
100
AcDbSpline
210
0.0
220
0.0
230
1.0
 70
    24
 71
     3
 72
     9
 73
     5
 74
     3
 42
0.0000000001
 43
0.0000000001
 44
0.00000001
 40
0.0
 40
0.0
 40
0.0
 40
0.0
 40
0.2578063726613533
 40
0.5156127453227245
 40
0.5156127453227245
 40
0.5156127453227245
 40
0.5156127453227245
 10
86.6341809434811
 20
245.006244145944
 30
0.0
 10
86.70084760967478
 20
245.0604701404816
 30
0.0
 10
86.83418094206216
 20
245.168922129557
 30
0.0
 10
86.96751427444951
 20
245.2773741186323
 30
0.0
 10
87.0341809406432
 20
245.33160011317
 30
0.0
 11
86.6341809434811
 21
245.006244145944
 31
0.0
 11
86.83418094206215
 21
245.168922129557
 31
0.0
 11
87.0341809406432
 21
245.33160011317
 31
0.0
  0
DIMENSION
  5
148
330
1F
100
AcDbEntity
  8
1
100
AcDbDimension
  2
*D2
 10
241.954019633609
 20
308.9572069058
 30
0.0
 11
238.204019633609
 21
284.019050828657
 31
0.0
 70
    32
  1
<>
 71
     5
 42
-1.0
 53
90.0
  3
ME10_DIM_10
100
AcDbAlignedDimension
 13
200.0841809422
 23
258.9572069058
 33
0.0
 14
200.0841809422
 24
308.9572069058
 34
0.0
 50
90.0
100
AcDbRotatedDimension
  0
DIMENSION
  5
153
330
1F
100
AcDbEntity
  8
1
100
AcDbDimension
  2
*D3
 10
232.24376675345
 20
299.9572069058
 30
0.0
 11
228.49376675345
 21
283.810228186073
 31
0.0
 70
    32
  1
<>
 71
     5
 42
-1.0
 53
90.0
  3
ME10_DIM_11
100
AcDbAlignedDimension
 13
205.0841809422
 23
267.9572069058
 33
0.0
 14
205.0841809422
 24
299.9572069058
 34
0.0
 50
90.0
100
AcDbRotatedDimension
  0
DIMENSION
  5
15E
330
1F
100
AcDbEntity
  8
1
100
AcDbDimension
  2
*D4
 10
205.0841809422
 20
340.17205209289
 30
0.0
 11
146.72310846251
 21
343.92205209289
 31
0.0
 70
    32
  1
<>
 71
     5
 42
-1.0
 53
0.00013888888889
  3
ME10_DIM_12
100
AcDbAlignedDimension
 13
87.0841809422
 23
333.9571700356
 33
0.0
 14
205.0841809422
 24
303.9572069058
 34
0.0
100
AcDbRotatedDimension
  0
DIMENSION
  5
169
330
1F
100
AcDbEntity
  8
1
100
AcDbDimension
  2
*D5
 10
205.0841809422
 20
347.393032293908
 30
0.0
 11
136.53967484569
 21
351.143032293908
 31
0.0
 70
    32
  1
<>
 71
     5
 42
-1.0
 53
0.00013888888889
  3
ME10_DIM_13
100
AcDbAlignedDimension
 13
58.0841809422
 23
333.9572069058
 33
0.0
 14
205.0841809422
 24
303.9572069058
 34
0.0
100
AcDbRotatedDimension
  0
DIMENSION
  5
174
330
1F
100
AcDbEntity
  8
1
100
AcDbDimension
  2
*D6
 10
58.08418094219999
 20
355.539779187365
 30
0.0
 11
142.094275000319
 21
359.289779187365
 31
0.0
 70
    32
  1
<>
 71
     5
 42
-1.0
 53
0.00013888888889
  3
ME10_DIM_14
100
AcDbAlignedDimension
 13
218.0841809422
 23
302.2072069058
 33
0.0
 14
58.0841809422
 24
333.9572069058
 34
0.0
100
AcDbRotatedDimension
  0
DIMENSION
  5
17F
330
1F
100
AcDbEntity
  8
1
100
AcDbDimension
  2
*D7
 10
205.0841809422
 20
363.316219403846
 30
0.0
 11
112.840047519271
 21
367.066219403846
 31
0.0
 70
    32
  1
<>
 71
     5
 42
-1.0
 53
0.00013888888889
  3
ME10_DIM_15
100
AcDbAlignedDimension
 13
8.0841809422
 23
317.5573984683
 33
0.0
 14
205.0841809422
 24
303.9572069058
 34
0.0
100
AcDbRotatedDimension
  0
INSERT
  5
186
330
1F
100
AcDbEntity
  8
1
100
AcDbBlockReference
  2
*D8
 10
0.0
 20
0.0
 30
0.0
  0
ENDSEC
  0
SECTION
  2
OBJECTS
  0
DICTIONARY
  5
C
330
0
100
AcDbDictionary
281
     1
  3
ACAD_GROUP
350
D
  3
ACAD_LAYOUT
350
1A
  3
ACAD_MLEADERSTYLE
350
189
  3
ACAD_MLINESTYLE
350
17
  3
ACAD_PLOTSETTINGS
350
19
  3
ACAD_PLOTSTYLENAME
350
E
  3
ACAD_SCALELIST
350
4B
  3
ACAD_VISUALSTYLE
350
2A
  3
AcDbVariableDictionary
350
187
  0
DICTIONARY
  5
D
102
{ACAD_REACTORS
330
C
102
}
330
C
100
AcDbDictionary
281
     1
  0
DICTIONARY
  5
1A
102
{ACAD_REACTORS
330
C
102
}
330
C
100
AcDbDictionary
281
     1
  3
Layout1
350
1E
  3
Layout2
350
26
  3
Model
350
22
  0
DICTIONARY
  5
189
102
{ACAD_REACTORS
330
C
102
}
330
C
100
AcDbDictionary
281
     1
  0
DICTIONARY
  5
17
102
{ACAD_REACTORS
330
C
102
}
330
C
100
AcDbDictionary
281
     1
  3
Standard
350
18
  0
DICTIONARY
  5
19
102
{ACAD_REACTORS
330
C
102
}
330
C
100
AcDbDictionary
281
     1
  0
ACDBDICTIONARYWDFLT
  5
E
102
{ACAD_REACTORS
330
C
102
}
330
C
100
AcDbDictionary
281
     1
  3
Normal
350
F
100
AcDbDictionaryWithDefault
340
F
  0
DICTIONARY
  5
4B
102
{ACAD_REACTORS
330
C
102
}
330
C
100
AcDbDictionary
281
     1
  3
A0
350
4C
  3
A1
350
4D
  3
A2
350
4E
  3
A3
350
4F
  3
A4
350
50
  3
A5
350
51
  3
A6
350
52
  3
A7
350
53
  3
A8
350
54
  3
A9
350
55
  3
B0
350
56
  3
B1
350
57
  3
B2
350
58
  3
B3
350
59
  3
B4
350
5A
  3
B5
350
5B
  3
B6
350
5C
  3
B7
350
5D
  3
B8
350
5E
  3
B9
350
5F
  3
C0
350
60
  3
C1
350
61
  3
C2
350
62
  3
C3
350
63
  3
C4
350
64
  3
C5
350
65
  3
C6
350
66
  3
C7
350
67
  3
C8
350
68
  3
C9
350
69
  3
D0
350
6A
  3
D1
350
6B
  3
D2
350
6C
  0
DICTIONARY
  5
2A
102
{ACAD_REACTORS
330
C
102
}
330
C
100
AcDbDictionary
281
     1
  3
2dWireframe
350
2F
  3
3D Hidden
350
31
  3
3dWireframe
350
30
  3
Basic
350
32
  3
Brighten
350
36
  3
ColorChange
350
3A
  3
Conceptual
350
34
  3
Dim
350
35
  3
Facepattern
350
39
  3
Flat
350
2B
  3
FlatWithEdges
350
2C
  3
Gouraud
350
2D
  3
GouraudWithEdges
350
2E
  3
Linepattern
350
38
  3
Realistic
350
33
  3
Thicken
350
37
  0
DICTIONARY
  5
187
102
{ACAD_REACTORS
330
C
102
}
330
C
100
AcDbDictionary
281
     1
  3
CANNOSCALE
350
18A
  0
LAYOUT
  5
1E
102
{ACAD_REACTORS
330
1A
102
}
330
1A
100
AcDbPlotSettings
  1

  2
none_device
  4

  6

 40
0.0
 41
0.0
 42
0.0
 43
0.0
 44
0.0
 45
0.0
 46
0.0
 47
0.0
 48
0.0
 49
0.0
140
0.0
141
0.0
142
1.0
143
1.0
 70
   688
 72
     0
 73
     0
 74
     5
  7

 75
    16
147
1.0
148
0.0
149
0.0
100
AcDbLayout
  1
Layout1
 70
     1
 71
     1
 10
0.0
 20
0.0
 11
12.0
 21
9.0
 12
0.0
 22
0.0
 32
0.0
 14
1.00000000000000E+20
 24
1.00000000000000E+20
 34
1.00000000000000E+20
 15
-1.00000000000000E+20
 25
-1.00000000000000E+20
 35
-1.00000000000000E+20
146
0.0
 13
0.0
 23
0.0
 33
0.0
 16
1.0
 26
0.0
 36
0.0
 17
0.0
 27
1.0
 37
0.0
 76
     0
330
1B
  0
LAYOUT
  5
26
102
{ACAD_REACTORS
330
1A
102
}
330
1A
100
AcDbPlotSettings
  1

  2
none_device
  4

  6

 40
0.0
 41
0.0
 42
0.0
 43
0.0
 44
0.0
 45
0.0
 46
0.0
 47
0.0
 48
0.0
 49
0.0
140
0.0
141
0.0
142
1.0
143
1.0
 70
   688
 72
     0
 73
     0
 74
     5
  7

 75
    16
147
1.0
148
0.0
149
0.0
100
AcDbLayout
  1
Layout2
 70
     1
 71
     2
 10
0.0
 20
0.0
 11
0.0
 21
0.0
 12
0.0
 22
0.0
 32
0.0
 14
0.0
 24
0.0
 34
0.0
 15
0.0
 25
0.0
 35
0.0
146
0.0
 13
0.0
 23
0.0
 33
0.0
 16
1.0
 26
0.0
 36
0.0
 17
0.0
 27
1.0
 37
0.0
 76
     0
330
23
  0
LAYOUT
  5
22
102
{ACAD_REACTORS
330
1A
102
}
330
1A
100
AcDbPlotSettings
  1

  2
none_device
  4

  6

 40
0.0
 41
0.0
 42
0.0
 43
0.0
 44
0.0
 45
0.0
 46
0.0
 47
0.0
 48
0.0
 49
0.0
140
0.0
141
0.0
142
1.0
143
1.0
 70
  1712
 72
     0
 73
     0
 74
     0
  7

 75
     0
147
1.0
148
0.0
149
0.0
100
AcDbLayout
  1
Model
 70
     1
 71
     0
 10
0.0
 20
0.0
 11
12.0
 21
9.0
 12
0.0
 22
0.0
 32
0.0
 14
-15.21440898911911
 24
233.9572069058
 34
0.0
 15
243.954019633609
 25
368.816219403846
 35
0.0
146
0.0
 13
0.0
 23
0.0
 33
0.0
 16
1.0
 26
0.0
 36
0.0
 17
0.0
 27
1.0
 37
0.0
 76
     0
330
1F
331
29
  0
MLINESTYLE
  5
18
102
{ACAD_REACTORS
330
17
102
}
330
17
100
AcDbMlineStyle
  2
Standard
 70
     0
  3

 62
   256
 51
90.0
 52
90.0
 71
     2
 49
0.5
 62
   256
  6
BYLAYER
 49
-0.5
 62
   256
  6
BYLAYER
  0
ACDBPLACEHOLDER
  5
F
102
{ACAD_REACTORS
330
E
102
}
330
E
  0
SCALE
  5
4C
102
{ACAD_REACTORS
330
4B
102
}
330
4B
100
AcDbScale
 70
     0
300
1:1
140
1.0
141
1.0
290
     1
  0
SCALE
  5
4D
102
{ACAD_REACTORS
330
4B
102
}
330
4B
100
AcDbScale
 70
     0
300
1:2
140
1.0
141
2.0
290
     0
  0
SCALE
  5
4E
102
{ACAD_REACTORS
330
4B
102
}
330
4B
100
AcDbScale
 70
     0
300
1:4
140
1.0
141
4.0
290
     0
  0
SCALE
  5
4F
102
{ACAD_REACTORS
330
4B
102
}
330
4B
100
AcDbScale
 70
     0
300
1:5
140
1.0
141
5.0
290
     0
  0
SCALE
  5
50
102
{ACAD_REACTORS
330
4B
102
}
330
4B
100
AcDbScale
 70
     0
300
1:8
140
1.0
141
8.0
290
     0
  0
SCALE
  5
51
102
{ACAD_REACTORS
330
4B
102
}
330
4B
100
AcDbScale
 70
     0
300
1:10
140
1.0
141
10.0
290
     0
  0
SCALE
  5
52
102
{ACAD_REACTORS
330
4B
102
}
330
4B
100
AcDbScale
 70
     0
300
1:16
140
1.0
141
16.0
290
     0
  0
SCALE
  5
53
102
{ACAD_REACTORS
330
4B
102
}
330
4B
100
AcDbScale
 70
     0
300
1:20
140
1.0
141
20.0
290
     0
  0
SCALE
  5
54
102
{ACAD_REACTORS
330
4B
102
}
330
4B
100
AcDbScale
 70
     0
300
1:30
140
1.0
141
30.0
290
     0
  0
SCALE
  5
55
102
{ACAD_REACTORS
330
4B
102
}
330
4B
100
AcDbScale
 70
     0
300
1:40
140
1.0
141
40.0
290
     0
  0
SCALE
  5
56
102
{ACAD_REACTORS
330
4B
102
}
330
4B
100
AcDbScale
 70
     0
300
1:50
140
1.0
141
50.0
290
     0
  0
SCALE
  5
57
102
{ACAD_REACTORS
330
4B
102
}
330
4B
100
AcDbScale
 70
     0
300
1:100
140
1.0
141
100.0
290
     0
  0
SCALE
  5
58
102
{ACAD_REACTORS
330
4B
102
}
330
4B
100
AcDbScale
 70
     0
300
2:1
140
2.0
141
1.0
290
     0
  0
SCALE
  5
59
102
{ACAD_REACTORS
330
4B
102
}
330
4B
100
AcDbScale
 70
     0
300
4:1
140
4.0
141
1.0
290
     0
  0
SCALE
  5
5A
102
{ACAD_REACTORS
330
4B
102
}
330
4B
100
AcDbScale
 70
     0
300
8:1
140
8.0
141
1.0
290
     0
  0
SCALE
  5
5B
102
{ACAD_REACTORS
330
4B
102
}
330
4B
100
AcDbScale
 70
     0
300
10:1
140
10.0
141
1.0
290
     0
  0
SCALE
  5
5C
102
{ACAD_REACTORS
330
4B
102
}
330
4B
100
AcDbScale
 70
     0
300
100:1
140
100.0
141
1.0
290
     0
  0
SCALE
  5
5D
102
{ACAD_REACTORS
330
4B
102
}
330
4B
100
AcDbScale
 70
     0
300
1/128" = 1'-0"
140
0.0078125
141
12.0
290
     0
  0
SCALE
  5
5E
102
{ACAD_REACTORS
330
4B
102
}
330
4B
100
AcDbScale
 70
     0
300
1/64" = 1'-0"
140
0.015625
141
12.0
290
     0
  0
SCALE
  5
5F
102
{ACAD_REACTORS
330
4B
102
}
330
4B
100
AcDbScale
 70
     0
300
1/32" = 1'-0"
140
0.03125
141
12.0
290
     0
  0
SCALE
  5
60
102
{ACAD_REACTORS
330
4B
102
}
330
4B
100
AcDbScale
 70
     0
300
1/16" = 1'-0"
140
0.0625
141
12.0
290
     0
  0
SCALE
  5
61
102
{ACAD_REACTORS
330
4B
102
}
330
4B
100
AcDbScale
 70
     0
300
3/32" = 1'-0"
140
0.09375
141
12.0
290
     0
  0
SCALE
  5
62
102
{ACAD_REACTORS
330
4B
102
}
330
4B
100
AcDbScale
 70
     0
300
1/8" = 1'-0"
140
0.125
141
12.0
290
     0
  0
SCALE
  5
63
102
{ACAD_REACTORS
330
4B
102
}
330
4B
100
AcDbScale
 70
     0
300
3/16" = 1'-0"
140
0.1875
141
12.0
290
     0
  0
SCALE
  5
64
102
{ACAD_REACTORS
330
4B
102
}
330
4B
100
AcDbScale
 70
     0
300
1/4" = 1'-0"
140
0.25
141
12.0
290
     0
  0
SCALE
  5
65
102
{ACAD_REACTORS
330
4B
102
}
330
4B
100
AcDbScale
 70
     0
300
3/8" = 1'-0"
140
0.375
141
12.0
290
     0
  0
SCALE
  5
66
102
{ACAD_REACTORS
330
4B
102
}
330
4B
100
AcDbScale
 70
     0
300
1/2" = 1'-0"
140
0.5
141
12.0
290
     0
  0
SCALE
  5
67
102
{ACAD_REACTORS
330
4B
102
}
330
4B
100
AcDbScale
 70
     0
300
3/4" = 1'-0"
140
0.75
141
12.0
290
     0
  0
SCALE
  5
68
102
{ACAD_REACTORS
330
4B
102
}
330
4B
100
AcDbScale
 70
     0
300
1" = 1'-0"
140
1.0
141
12.0
290
     0
  0
SCALE
  5
69
102
{ACAD_REACTORS
330
4B
102
}
330
4B
100
AcDbScale
 70
     0
300
1-1/2" = 1'-0"
140
1.5
141
12.0
290
     0
  0
SCALE
  5
6A
102
{ACAD_REACTORS
330
4B
102
}
330
4B
100
AcDbScale
 70
     0
300
3" = 1'-0"
140
3.0
141
12.0
290
     0
  0
SCALE
  5
6B
102
{ACAD_REACTORS
330
4B
102
}
330
4B
100
AcDbScale
 70
     0
300
6" = 1'-0"
140
6.0
141
12.0
290
     0
  0
SCALE
  5
6C
102
{ACAD_REACTORS
330
4B
102
}
330
4B
100
AcDbScale
 70
     0
300
1'-0" = 1'-0"
140
12.0
141
12.0
290
     0
  0
VISUALSTYLE
  5
2F
102
{ACAD_REACTORS
330
2A
102
}
330
2A
100
AcDbVisualStyle
  2
2dWireframe
 70
     4
 71
     0
 72
     2
 73
     0
 90
        0
 40
-0.6
 41
-30.0
 62
     5
 63
     7
 74
     1
 91
        4
 64
     7
 65
   257
 75
     1
175
     1
 42
1.0
 92
        0
 66
   257
 43
1.0
 76
     1
 77
     6
 78
     2
 67
     7
 79
     5
170
     0
171
     0
290
     0
174
     0
 93
        1
 44
0.0
173
     0
291
     0
 45
0.0
1001
ACAD
1000
AcDbSavedByObjectVersion
1070
     0
  0
VISUALSTYLE
  5
31
102
{ACAD_REACTORS
330
2A
102
}
330
2A
100
AcDbVisualStyle
  2
3D Hidden
 70
     6
 71
     1
 72
     2
 73
     2
 90
        0
 40
-0.6
 41
-30.0
 62
     5
 63
     7
 74
     2
 91
        2
 64
     7
 65
   257
 75
     2
175
     1
 42
40.0
 92
        0
 66
   257
 43
1.0
 76
     1
 77
     6
 78
     2
 67
     7
 79
     3
170
     0
171
     0
290
     0
174
     0
 93
        1
 44
0.0
173
     0
291
     0
 45
0.0
1001
ACAD
1000
AcDbSavedByObjectVersion
1070
     0
  0
VISUALSTYLE
  5
30
102
{ACAD_REACTORS
330
2A
102
}
330
2A
100
AcDbVisualStyle
  2
3dWireframe
 70
     5
 71
     0
 72
     2
 73
     0
 90
        0
 40
-0.6
 41
-30.0
 62
     5
 63
     7
 74
     1
 91
        4
 64
     7
 65
   257
 75
     1
175
     1
 42
1.0
 92
        0
 66
   257
 43
1.0
 76
     1
 77
     6
 78
     2
 67
     7
 79
     5
170
     0
171
     0
290
     0
174
     0
 93
        1
 44
0.0
173
     0
291
     0
 45
0.0
1001
ACAD
1000
AcDbSavedByObjectVersion
1070
     0
  0
VISUALSTYLE
  5
32
102
{ACAD_REACTORS
330
2A
102
}
330
2A
100
AcDbVisualStyle
  2
Basic
 70
     7
 71
     1
 72
     0
 73
     1
 90
        0
 40
-0.6
 41
-30.0
 62
     5
 63
     7
 74
     0
 91
        4
 64
     7
 65
   257
 75
     1
175
     1
 42
1.0
 92
        8
 66
     7
 43
1.0
 76
     1
 77
     6
 78
     2
 67
     7
 79
     5
170
     0
171
     0
290
     0
174
     0
 93
        1
 44
0.0
173
     0
291
     1
 45
0.0
1001
ACAD
1000
AcDbSavedByObjectVersion
1070
     0
  0
VISUALSTYLE
  5
36
102
{ACAD_REACTORS
330
2A
102
}
330
2A
100
AcDbVisualStyle
  2
Brighten
 70
    12
 71
     2
 72
     2
 73
     0
 90
        0
 40
-0.6
 41
-30.0
 62
     5
 63
     7
 74
     1
 91
        4
 64
     7
 65
   257
 75
     1
175
     1
 42
1.0
 92
        8
 66
     7
 43
1.0
 76
     1
 77
     6
 78
     2
 67
     7
 79
     5
170
     0
171
     0
290
     0
174
     0
 93
        1
 44
50.0
173
     0
291
     1
 45
0.0
1001
ACAD
1000
AcDbSavedByObjectVersion
1070
     0
  0
VISUALSTYLE
  5
3A
102
{ACAD_REACTORS
330
2A
102
}
330
2A
100
AcDbVisualStyle
  2
ColorChange
 70
    16
 71
     2
 72
     2
 73
     3
 90
        0
 40
-0.6
 41
-30.0
 62
     5
 63
     8
 74
     1
 91
        4
 64
     7
 65
   257
 75
     1
175
     1
 42
1.0
 92
        8
 66
     8
 43
1.0
 76
     1
 77
     6
 78
     2
 67
     7
 79
     5
170
     0
171
     0
290
     0
174
     0
 93
        1
 44
0.0
173
     0
291
     1
 45
0.0
1001
ACAD
1000
AcDbSavedByObjectVersion
1070
     0
  0
VISUALSTYLE
  5
34
102
{ACAD_REACTORS
330
2A
102
}
330
2A
100
AcDbVisualStyle
  2
Conceptual
 70
     9
 71
     3
 72
     2
 73
     0
 90
        0
 40
-0.6
 41
-30.0
 62
     5
 63
     7
 74
     2
 91
        2
 64
     7
 65
   257
 75
     1
175
     1
 42
40.0
 92
        8
 66
     7
 43
1.0
 76
     1
 77
     6
 78
     2
 67
     7
 79
     3
170
     0
171
     0
290
     0
174
     0
 93
        1
 44
0.0
173
     0
291
     0
 45
0.0
1001
ACAD
1000
AcDbSavedByObjectVersion
1070
     0
  0
VISUALSTYLE
  5
35
102
{ACAD_REACTORS
330
2A
102
}
330
2A
100
AcDbVisualStyle
  2
Dim
 70
    11
 71
     2
 72
     2
 73
     0
 90
        0
 40
-0.6
 41
-30.0
 62
     5
 63
     7
 74
     1
 91
        4
 64
     7
 65
   257
 75
     1
175
     1
 42
1.0
 92
        8
 66
     7
 43
1.0
 76
     1
 77
     6
 78
     2
 67
     7
 79
     5
170
     0
171
     0
290
     0
174
     0
 93
        1
 44
-50.0
173
     0
291
     1
 45
0.0
1001
ACAD
1000
AcDbSavedByObjectVersion
1070
     0
  0
VISUALSTYLE
  5
39
102
{ACAD_REACTORS
330
2A
102
}
330
2A
100
AcDbVisualStyle
  2
Facepattern
 70
    15
 71
     2
 72
     2
 73
     0
 90
        0
 40
-0.6
 41
-30.0
 62
     5
 63
     7
 74
     1
 91
        4
 64
     7
 65
   257
 75
     1
175
     1
 42
1.0
 92
        8
 66
     7
 43
1.0
 76
     1
 77
     6
 78
     2
 67
     7
 79
     5
170
     0
171
     0
290
     0
174
     0
 93
        1
 44
0.0
173
     0
291
     1
 45
0.0
1001
ACAD
1000
AcDbSavedByObjectVersion
1070
     0
  0
VISUALSTYLE
  5
2B
102
{ACAD_REACTORS
330
2A
102
}
330
2A
100
AcDbVisualStyle
  2
Flat
 70
     0
 71
     2
 72
     1
 73
     1
 90
        2
 40
-0.6
 41
30.0
 62
     5
 63
     7
 74
     0
 91
        4
 64
     7
 65
   257
 75
     1
175
     1
 42
1.0
 92
        8
 66
     7
 43
1.0
 76
     1
 77
     6
 78
     2
 67
     7
 79
     5
170
     0
171
     0
290
     0
174
     0
 93
       13
 44
0.0
173
     0
291
     1
 45
0.0
1001
ACAD
1000
AcDbSavedByObjectVersion
1070
     0
  0
VISUALSTYLE
  5
2C
102
{ACAD_REACTORS
330
2A
102
}
330
2A
100
AcDbVisualStyle
  2
FlatWithEdges
 70
     1
 71
     2
 72
     1
 73
     1
 90
        2
 40
-0.6
 41
30.0
 62
     5
 63
     7
 74
     1
 91
        4
 64
     7
 65
   257
 75
     1
175
     1
 42
1.0
 92
        0
 66
   257
 43
1.0
 76
     1
 77
     6
 78
     2
 67
     7
 79
     5
170
     0
171
     0
290
     0
174
     0
 93
       13
 44
0.0
173
     0
291
     1
 45
0.0
1001
ACAD
1000
AcDbSavedByObjectVersion
1070
     0
  0
VISUALSTYLE
  5
2D
102
{ACAD_REACTORS
330
2A
102
}
330
2A
100
AcDbVisualStyle
  2
Gouraud
 70
     2
 71
     2
 72
     2
 73
     1
 90
        2
 40
-0.6
 41
30.0
 62
     5
 63
     7
 74
     0
 91
        4
 64
     7
 65
   257
 75
     1
175
     1
 42
1.0
 92
        0
 66
     7
 43
1.0
 76
     1
 77
     6
 78
     2
 67
     7
 79
     5
170
     0
171
     0
290
     0
174
     0
 93
       13
 44
0.0
173
     0
291
     1
 45
0.0
1001
ACAD
1000
AcDbSavedByObjectVersion
1070
     0
  0
VISUALSTYLE
  5
2E
102
{ACAD_REACTORS
330
2A
102
}
330
2A
100
AcDbVisualStyle
  2
GouraudWithEdges
 70
     3
 71
     2
 72
     2
 73
     1
 90
        2
 40
-0.6
 41
30.0
 62
     5
 63
     7
 74
     1
 91
        4
 64
     7
 65
   257
 75
     1
175
     1
 42
1.0
 92
        0
 66
   257
 43
1.0
 76
     1
 77
     6
 78
     2
 67
     7
 79
     5
170
     0
171
     0
290
     0
174
     0
 93
       13
 44
0.0
173
     0
291
     1
 45
0.0
1001
ACAD
1000
AcDbSavedByObjectVersion
1070
     0
  0
VISUALSTYLE
  5
38
102
{ACAD_REACTORS
330
2A
102
}
330
2A
100
AcDbVisualStyle
  2
Linepattern
 70
    14
 71
     2
 72
     2
 73
     0
 90
        0
 40
-0.6
 41
-30.0
 62
     5
 63
     7
 74
     1
 91
        4
 64
     7
 65
   257
 75
     7
175
     7
 42
1.0
 92
        8
 66
     7
 43
1.0
 76
     1
 77
     6
 78
     2
 67
     7
 79
     5
170
     0
171
     0
290
     0
174
     0
 93
        1
 44
0.0
173
     0
291
     1
 45
0.0
1001
ACAD
1000
AcDbSavedByObjectVersion
1070
     0
  0
VISUALSTYLE
  5
33
102
{ACAD_REACTORS
330
2A
102
}
330
2A
100
AcDbVisualStyle
  2
Realistic
 70
     8
 71
     2
 72
     2
 73
     0
 90
        0
 40
-0.6
 41
-30.0
 62
     5
 63
     7
 74
     1
 91
        0
 64
     7
 65
   257
 75
     1
175
     1
 42
1.0
 92
        8
 66
     8
 43
1.0
 76
     1
 77
     6
 78
     2
 67
     7
 79
     5
170
     0
171
     0
290
     0
174
     0
 93
       13
 44
0.0
173
     0
291
     0
 45
0.0
1001
ACAD
1000
AcDbSavedByObjectVersion
1070
     0
  0
VISUALSTYLE
  5
37
102
{ACAD_REACTORS
330
2A
102
}
330
2A
100
AcDbVisualStyle
  2
Thicken
 70
    13
 71
     2
 72
     2
 73
     0
 90
        0
 40
-0.6
 41
-30.0
 62
     5
 63
     7
 74
     1
 91
        4
 64
     7
 65
   257
 75
     1
175
     1
 42
1.0
 92
       12
 66
     7
 43
1.0
 76
     1
 77
     6
 78
     2
 67
     7
 79
     5
170
     0
171
     0
290
     0
174
     0
 93
        1
 44
0.0
173
     0
291
     1
 45
0.0
1001
ACAD
1000
AcDbSavedByObjectVersion
1070
     0
  0
DICTIONARYVAR
  5
18A
102
{ACAD_REACTORS
330
187
102
}
330
187
100
DictionaryVariables
280
     0
  1
1:1
  0
ENDSEC
  0
EOF
