  0
SECTION
  2
HEADER
  9
$ACADVER
  1
AC1015
  9
$ACADMAINTVER
 70
     6
  9
$DWGCODEPAGE
  3
ANSI_1252
  9
$INSBASE
 10
0.0
 20
0.0
 30
0.0
  9
$EXTMIN
 10
12.2168998956427
 20
244.6892732869
 30
0.0
  9
$EXTMAX
 10
268.895865523743
 20
382.004406488116
 30
0.0
  9
$LIMMIN
 10
0.0
 20
0.0
  9
$LIMMAX
 10
12.0
 20
9.0
  9
$ORTHOMODE
 70
     0
  9
$REGENMODE
 70
     1
  9
$FILLMODE
 70
     1
  9
$QTEXTMODE
 70
     0
  9
$MIRRTEXT
 70
     1
  9
$LTSCALE
 40
1.0
  9
$ATTMODE
 70
     1
  9
$TEXTSIZE
 40
0.2
  9
$TRACEWID
 40
0.05
  9
$TEXTSTYLE
  7
Standard
  9
$CLAYER
  8
0
  9
$CELTYPE
  6
ByLayer
  9
$CECOLOR
 62
   256
  9
$CELTSCALE
 40
1.0
  9
$DISPSILH
 70
     0
  9
$DIMSCALE
 40
1.0
  9
$DIMASZ
 40
0.18
  9
$DIMEXO
 40
0.0625
  9
$DIMDLI
 40
0.38
  9
$DIMRND
 40
0.0
  9
$DIMDLE
 40
0.0
  9
$DIMEXE
 40
0.18
  9
$DIMTP
 40
0.0
  9
$DIMTM
 40
0.0
  9
$DIMTXT
 40
0.18
  9
$DIMCEN
 40
0.09
  9
$DIMTSZ
 40
0.0
  9
$DIMTOL
 70
     0
  9
$DIMLIM
 70
     0
  9
$DIMTIH
 70
     1
  9
$DIMTOH
 70
     1
  9
$DIMSE1
 70
     0
  9
$DIMSE2
 70
     0
  9
$DIMTAD
 70
     0
  9
$DIMZIN
 70
     0
  9
$DIMBLK
  1

  9
$DIMASO
 70
     1
  9
$DIMSHO
 70
     1
  9
$DIMPOST
  1

  9
$DIMAPOST
  1

  9
$DIMALT
 70
     0
  9
$DIMALTD
 70
     2
  9
$DIMALTF
 40
25.4
  9
$DIMLFAC
 40
1.0
  9
$DIMTOFL
 70
     0
  9
$DIMTVP
 40
0.0
  9
$DIMTIX
 70
     0
  9
$DIMSOXD
 70
     0
  9
$DIMSAH
 70
     0
  9
$DIMBLK1
  1

  9
$DIMBLK2
  1

  9
$DIMSTYLE
  2
Standard
  9
$DIMCLRD
 70
     0
  9
$DIMCLRE
 70
     0
  9
$DIMCLRT
 70
     0
  9
$DIMTFAC
 40
1.0
  9
$DIMGAP
 40
0.09
  9
$DIMJUST
 70
     0
  9
$DIMSD1
 70
     0
  9
$DIMSD2
 70
     0
  9
$DIMTOLJ
 70
     1
  9
$DIMTZIN
 70
     0
  9
$DIMALTZ
 70
     0
  9
$DIMALTTZ
 70
     0
  9
$DIMUPT
 70
     0
  9
$DIMDEC
 70
     4
  9
$DIMTDEC
 70
     4
  9
$DIMALTU
 70
     2
  9
$DIMALTTD
 70
     2
  9
$DIMTXSTY
  7
Standard
  9
$DIMAUNIT
 70
     0
  9
$DIMADEC
 70
     0
  9
$DIMALTRND
 40
0.0
  9
$DIMAZIN
 70
     0
  9
$DIMDSEP
 70
    46
  9
$DIMATFIT
 70
     3
  9
$DIMFRAC
 70
     0
  9
$DIMLDRBLK
  1

  9
$DIMLUNIT
 70
     2
  9
$DIMLWD
 70
    -2
  9
$DIMLWE
 70
    -2
  9
$DIMTMOVE
 70
     0
  9
$LUNITS
 70
     2
  9
$LUPREC
 70
     4
  9
$SKETCHINC
 40
0.1
  9
$FILLETRAD
 40
0.5
  9
$AUNITS
 70
     0
  9
$AUPREC
 70
     0
  9
$MENU
  1
.
  9
$ELEVATION
 40
0.0
  9
$PELEVATION
 40
0.0
  9
$THICKNESS
 40
0.0
  9
$LIMCHECK
 70
     0
  9
$CHAMFERA
 40
0.5
  9
$CHAMFERB
 40
0.5
  9
$CHAMFERC
 40
1.0
  9
$CHAMFERD
 40
0.0
  9
$SKPOLY
 70
     0
  9
$TDCREATE
 40
2456748.733277431
  9
$TDUCREATE
 40
2456748.649944097
  9
$TDUPDATE
 40
2456748.733277442
  9
$TDUUPDATE
 40
2456748.649944109
  9
$TDINDWG
 40
0.0000000116
  9
$TDUSRTIMER
 40
0.0000000116
  9
$USRTIMER
 70
     1
  9
$ANGBASE
 50
0.0
  9
$ANGDIR
 70
     0
  9
$PDMODE
 70
     0
  9
$PDSIZE
 40
0.0
  9
$PLINEWID
 40
0.0
  9
$SPLFRAME
 70
     0
  9
$SPLINETYPE
 70
     6
  9
$SPLINESEGS
 70
     8
  9
$HANDSEED
  5
18D
  9
$SURFTAB1
 70
     6
  9
$SURFTAB2
 70
     6
  9
$SURFTYPE
 70
     6
  9
$SURFU
 70
     6
  9
$SURFV
 70
     6
  9
$UCSBASE
  2

  9
$UCSNAME
  2

  9
$UCSORG
 10
0.0
 20
0.0
 30
0.0
  9
$UCSXDIR
 10
1.0
 20
0.0
 30
0.0
  9
$UCSYDIR
 10
0.0
 20
1.0
 30
0.0
  9
$UCSORTHOREF
  2

  9
$UCSORTHOVIEW
 70
     0
  9
$UCSORGTOP
 10
0.0
 20
0.0
 30
0.0
  9
$UCSORGBOTTOM
 10
0.0
 20
0.0
 30
0.0
  9
$UCSORGLEFT
 10
0.0
 20
0.0
 30
0.0
  9
$UCSORGRIGHT
 10
0.0
 20
0.0
 30
0.0
  9
$UCSORGFRONT
 10
0.0
 20
0.0
 30
0.0
  9
$UCSORGBACK
 10
0.0
 20
0.0
 30
0.0
  9
$PUCSBASE
  2

  9
$PUCSNAME
  2

  9
$PUCSORG
 10
0.0
 20
0.0
 30
0.0
  9
$PUCSXDIR
 10
1.0
 20
0.0
 30
0.0
  9
$PUCSYDIR
 10
0.0
 20
1.0
 30
0.0
  9
$PUCSORTHOREF
  2

  9
$PUCSORTHOVIEW
 70
     0
  9
$PUCSORGTOP
 10
0.0
 20
0.0
 30
0.0
  9
$PUCSORGBOTTOM
 10
0.0
 20
0.0
 30
0.0
  9
$PUCSORGLEFT
 10
0.0
 20
0.0
 30
0.0
  9
$PUCSORGRIGHT
 10
0.0
 20
0.0
 30
0.0
  9
$PUCSORGFRONT
 10
0.0
 20
0.0
 30
0.0
  9
$PUCSORGBACK
 10
0.0
 20
0.0
 30
0.0
  9
$USERI1
 70
     0
  9
$USERI2
 70
     0
  9
$USERI3
 70
     0
  9
$USERI4
 70
     0
  9
$USERI5
 70
     0
  9
$USERR1
 40
16.5
  9
$USERR2
 40
0.0
  9
$USERR3
 40
0.0
  9
$USERR4
 40
0.0
  9
$USERR5
 40
0.0
  9
$WORLDVIEW
 70
     1
  9
$SHADEDGE
 70
     3
  9
$SHADEDIF
 70
    70
  9
$TILEMODE
 70
     1
  9
$MAXACTVP
 70
    64
  9
$PINSBASE
 10
0.0
 20
0.0
 30
0.0
  9
$PLIMCHECK
 70
     0
  9
$PEXTMIN
 10
1.00000000000000E+20
 20
1.00000000000000E+20
 30
1.00000000000000E+20
  9
$PEXTMAX
 10
-1.00000000000000E+20
 20
-1.00000000000000E+20
 30
-1.00000000000000E+20
  9
$PLIMMIN
 10
0.0
 20
0.0
  9
$PLIMMAX
 10
12.0
 20
9.0
  9
$UNITMODE
 70
     0
  9
$VISRETAIN
 70
     1
  9
$PLINEGEN
 70
     0
  9
$PSLTSCALE
 70
     1
  9
$TREEDEPTH
 70
  3020
  9
$CMLSTYLE
  2
Standard
  9
$CMLJUST
 70
     0
  9
$CMLSCALE
 40
1.0
  9
$PROXYGRAPHICS
 70
     1
  9
$MEASUREMENT
 70
     1
  9
$CELWEIGHT
370
    -1
  9
$ENDCAPS
280
     0
  9
$JOINSTYLE
280
     0
  9
$LWDISPLAY
290
     0
  9
$INSUNITS
 70
     1
  9
$HYPERLINKBASE
  1

  9
$STYLESHEET
  1

  9
$XEDIT
290
     1
  9
$CEPSNTYPE
380
     0
  9
$PSTYLEMODE
290
     1
  9
$FINGERPRINTGUID
  2
{89ABFB2D-F4E0-4738-91CE-8A20B24FFB02}
  9
$VERSIONGUID
  2
{FAEB1C32-E019-11D5-929B-00C0DF256EC4}
  9
$EXTNAMES
290
     1
  9
$PSVPSCALE
 40
0.0
  9
$OLESTARTUP
290
     0
  0
ENDSEC
  0
SECTION
  2
CLASSES
  0
CLASS
  1
ACDBDICTIONARYWDFLT
  2
AcDbDictionaryWithDefault
  3
ObjectDBX Classes
 90
        0
280
     0
281
     0
  0
CLASS
  1
VISUALSTYLE
  2
AcDbVisualStyle
  3
ObjectDBX Classes
 90
     4095
280
     0
281
     0
  0
CLASS
  1
SCALE
  2
AcDbScale
  3
ObjectDBX Classes
 90
     1153
280
     0
281
     0
  0
CLASS
  1

  2
exOdDbPolyline
  3

 90
        0
280
     0
281
     1
  0
CLASS
  1

  2
exOdDbCircle
  3

 90
        0
280
     0
281
     1
  0
CLASS
  1

  2
exOdDbSpline
  3

 90
        0
280
     0
281
     1
  0
CLASS
  1
DICTIONARYVAR
  2
AcDbDictionaryVar
  3
ObjectDBX Classes
 90
        0
280
     0
281
     0
  0
CLASS
  1
ACDBPLACEHOLDER
  2
AcDbPlaceHolder
  3
ObjectDBX Classes
 90
        0
280
     0
281
     0
  0
CLASS
  1
LAYOUT
  2
AcDbLayout
  3
ObjectDBX Classes
 90
        0
280
     0
281
     0
  0
ENDSEC
  0
SECTION
  2
TABLES
  0
TABLE
  2
VPORT
  5
8
330
0
100
AcDbSymbolTable
 70
     1
  0
VPORT
  5
29
330
8
100
AcDbSymbolTableRecord
100
AcDbViewportTableRecord
  2
*Active
 70
     0
 10
0.0
 20
0.0
 11
1.0
 21
1.0
 12
140.5563827096929
 22
313.346839887508
 13
0.0
 23
0.0
 14
0.5
 24
0.5
 15
0.5
 25
0.5
 16
0.0
 26
0.0
 36
1.0
 17
0.0
 27
0.0
 37
0.0
 40
176.1718583029636
 41
1.60267857142857
 42
50.0
 43
0.0
 44
0.0
 50
0.0
 51
0.0
 71
     0
 72
   100
 73
     1
 74
     3
 75
     0
 76
     0
 77
     0
 78
     0
281
     0
 65
     1
110
0.0
120
0.0
130
0.0
111
1.0
121
0.0
131
0.0
112
0.0
122
1.0
132
0.0
 79
     0
146
0.0
  0
ENDTAB
  0
TABLE
  2
LTYPE
  5
5
330
0
100
AcDbSymbolTable
 70
     8
  0
LTYPE
  5
14
330
5
100
AcDbSymbolTableRecord
100
AcDbLinetypeTableRecord
  2
ByBlock
 70
     0
  3

 72
    65
 73
     0
 40
0.0
  0
LTYPE
  5
15
330
5
100
AcDbSymbolTableRecord
100
AcDbLinetypeTableRecord
  2
ByLayer
 70
     0
  3

 72
    65
 73
     0
 40
0.0
  0
LTYPE
  5
16
330
5
100
AcDbSymbolTableRecord
100
AcDbLinetypeTableRecord
  2
Continuous
 70
     0
  3
Solid line
 72
    65
 73
     0
 40
0.0
  0
LTYPE
  5
3B
330
5
100
AcDbSymbolTableRecord
100
AcDbLinetypeTableRecord
  2
DASHED
 70
     0
  3
Dashed
 72
    65
 73
     2
 40
15.0
 49
7.0
 74
     0
 49
-8.0
 74
     0
  0
LTYPE
  5
3C
330
5
100
AcDbSymbolTableRecord
100
AcDbLinetypeTableRecord
  2
DOTTED
 70
     0
  3
Dotted
 72
    65
 73
     2
 40
1.0
 49
0.0
 74
     0
 49
-1.0
 74
     0
  0
LTYPE
  5
3D
330
5
100
AcDbSymbolTableRecord
100
AcDbLinetypeTableRecord
  2
DOT_CENTER
 70
     0
  3
Dot_Center
 72
    65
 73
     4
 40
14.0
 49
12.0
 74
     0
 49
-1.0
 74
     0
 49
0.0
 74
     0
 49
-1.0
 74
     0
  0
LTYPE
  5
3E
330
5
100
AcDbSymbolTableRecord
100
AcDbLinetypeTableRecord
  2
LONG_DASHED
 70
     0
  3
Long_Dashed
 72
    65
 73
     2
 40
15.0
 49
10.0
 74
     0
 49
-5.0
 74
     0
  0
LTYPE
  5
3F
330
5
100
AcDbSymbolTableRecord
100
AcDbLinetypeTableRecord
  2
DASH_CENTER
 70
     0
  3
Dash_Center
 72
    65
 73
     4
 40
14.0
 49
11.0
 74
     0
 49
-1.0
 74
     0
 49
1.0
 74
     0
 49
-1.0
 74
     0
  0
LTYPE
  5
40
330
5
100
AcDbSymbolTableRecord
100
AcDbLinetypeTableRecord
  2
PHANTOM
 70
     0
  3
Phantom
 72
    65
 73
     6
 40
13.0
 49
10.0
 74
     0
 49
-1.0
 74
     0
 49
0.0
 74
     0
 49
-1.0
 74
     0
 49
0.0
 74
     0
 49
-1.0
 74
     0
  0
LTYPE
  5
41
330
5
100
AcDbSymbolTableRecord
100
AcDbLinetypeTableRecord
  2
CENTER_DASH_DASH
 70
     0
  3
Center_Dash_Dash
 72
    65
 73
     6
 40
14.0
 49
9.0
 74
     0
 49
-1.0
 74
     0
 49
1.0
 74
     0
 49
-1.0
 74
     0
 49
1.0
 74
     0
 49
-1.0
 74
     0
  0
ENDTAB
  0
TABLE
  2
LAYER
  5
2
330
0
100
AcDbSymbolTable
 70
     7
  0
LAYER
  5
10
330
2
100
AcDbSymbolTableRecord
100
AcDbLayerTableRecord
  2
0
 70
     0
 62
     7
  6
Continuous
370
    -3
390
F
  0
LAYER
  5
42
330
2
100
AcDbSymbolTableRecord
100
AcDbLayerTableRecord
  2
1
 70
     0
 62
     7
  6
Continuous
370
    -3
390
F
  0
LAYER
  5
43
330
2
100
AcDbSymbolTableRecord
100
AcDbLayerTableRecord
  2
BEZUGSACHSEN
 70
     0
 62
     7
  6
Continuous
370
    -3
390
F
  0
LAYER
  5
44
330
2
100
AcDbSymbolTableRecord
100
AcDbLayerTableRecord
  2
BG_STARTBEZUEGE
 70
     0
 62
     7
  6
Continuous
370
    -3
390
F
  0
LAYER
  5
45
330
2
100
AcDbSymbolTableRecord
100
AcDbLayerTableRecord
  2
DEFAULT_2
 70
     0
 62
     7
  6
Continuous
370
    -3
390
F
  0
LAYER
  5
46
330
2
100
AcDbSymbolTableRecord
100
AcDbLayerTableRecord
  2
FASEN
 70
     0
 62
     7
  6
Continuous
370
    -3
390
F
  0
LAYER
  5
47
330
2
100
AcDbSymbolTableRecord
100
AcDbLayerTableRecord
  2
RUNDUNGEN
 70
     0
 62
     7
  6
Continuous
370
    -3
390
F
  0
ENDTAB
  0
TABLE
  2
STYLE
  5
3
330
0
100
AcDbSymbolTable
 70
     2
  0
STYLE
  5
11
330
3
100
AcDbSymbolTableRecord
100
AcDbTextStyleTableRecord
  2
Standard
 70
     0
 40
0.0
 41
1.0
 50
0.0
 71
     0
 42
0.2
  3
txt
  4

  0
STYLE
  5
6E
330
3
100
AcDbSymbolTableRecord
100
AcDbTextStyleTableRecord
  2
CONVERTER_11
 70
     0
 40
0.0
 41
0.72
 50
0.0
 71
     0
 42
0.2
  3
txt.shx
  4

  0
ENDTAB
  0
TABLE
  2
VIEW
  5
6
330
0
100
AcDbSymbolTable
 70
     0
  0
ENDTAB
  0
TABLE
  2
UCS
  5
7
330
0
100
AcDbSymbolTable
 70
     0
  0
ENDTAB
  0
TABLE
  2
APPID
  5
9
330
0
100
AcDbSymbolTable
 70
     1
  0
APPID
  5
12
330
9
100
AcDbSymbolTableRecord
100
AcDbRegAppTableRecord
  2
ACAD
 70
     0
  0
ENDTAB
  0
TABLE
  2
DIMSTYLE
  5
A
330
0
100
AcDbSymbolTable
 70
     7
100
AcDbDimStyleTable
  0
DIMSTYLE
105
27
330
A
100
AcDbSymbolTableRecord
100
AcDbDimStyleTableRecord
  2
Standard
 70
     0
340
11
  0
DIMSTYLE
105
149
102
{ACAD_REACTORS
330
14A
102
}
330
A
100
AcDbSymbolTableRecord
100
AcDbDimStyleTableRecord
  2
ME10_DIM_10
 70
     0
  3
<>
 41
3.5
 42
2.0
 44
2.0
 71
     1
 73
     0
 74
     0
 77
     1
 78
     8
140
3.5
146
0.7
147
2.0
172
     1
173
     1
176
     2
177
     2
178
     3
271
     2
272
     0
340
6E
  0
DIMSTYLE
105
154
102
{ACAD_REACTORS
330
155
102
}
330
A
100
AcDbSymbolTableRecord
100
AcDbDimStyleTableRecord
  2
ME10_DIM_11
 70
     0
  3
<>
 41
3.5
 42
2.0
 44
2.0
 71
     1
 73
     0
 74
     0
 77
     1
 78
     8
140
3.5
146
0.7
147
2.0
172
     1
173
     1
176
     2
177
     2
178
     3
271
     2
272
     0
340
6E
  0
DIMSTYLE
105
15F
102
{ACAD_REACTORS
330
160
102
}
330
A
100
AcDbSymbolTableRecord
100
AcDbDimStyleTableRecord
  2
ME10_DIM_12
 70
     0
  3
<>
 41
3.5
 42
2.0
 44
2.0
 71
     1
 73
     0
 74
     0
 77
     1
 78
     8
140
3.5
146
0.7
147
2.0
172
     1
173
     1
176
     2
177
     2
178
     3
271
     2
272
     0
340
6E
  0
DIMSTYLE
105
16A
102
{ACAD_REACTORS
330
16B
102
}
330
A
100
AcDbSymbolTableRecord
100
AcDbDimStyleTableRecord
  2
ME10_DIM_13
 70
     0
  3
<>
 41
3.5
 42
2.0
 44
2.0
 71
     1
 73
     0
 74
     0
 77
     1
 78
     8
140
3.5
146
0.7
147
2.0
172
     1
173
     1
176
     2
177
     2
178
     3
271
     2
272
     0
340
6E
  0
DIMSTYLE
105
175
102
{ACAD_REACTORS
330
176
102
}
330
A
100
AcDbSymbolTableRecord
100
AcDbDimStyleTableRecord
  2
ME10_DIM_14
 70
     0
  3
\U+2300<>
 41
3.5
 42
2.0
 44
2.0
 71
     1
 73
     0
 74
     0
 77
     1
 78
     8
140
3.5
146
0.7
147
2.0
172
     1
173
     1
176
     2
177
     2
178
     3
271
     2
272
     0
340
6E
  0
DIMSTYLE
105
180
102
{ACAD_REACTORS
330
181
102
}
330
A
100
AcDbSymbolTableRecord
100
AcDbDimStyleTableRecord
  2
ME10_DIM_15
 70
     0
  3
ER<>
 41
3.5
 42
2.0
 44
2.0
 71
     1
 73
     0
 74
     0
 77
     1
 78
     8
140
3.5
146
0.7
147
2.0
172
     1
173
     1
176
     2
177
     2
178
     3
271
     2
272
     0
340
6E
  0
ENDTAB
  0
TABLE
  2
BLOCK_RECORD
  5
1
330
0
100
AcDbSymbolTable
 70
     9
  0
BLOCK_RECORD
  5
1F
330
1
100
AcDbSymbolTableRecord
100
AcDbBlockTableRecord
  2
*Model_Space
340
22
  0
BLOCK_RECORD
  5
1B
330
1
100
AcDbSymbolTableRecord
100
AcDbBlockTableRecord
  2
*Paper_Space
340
1E
  0
BLOCK_RECORD
  5
23
330
1
100
AcDbSymbolTableRecord
100
AcDbBlockTableRecord
  2
*Paper_Space0
340
26
  0
BLOCK_RECORD
  5
48
330
1
100
AcDbSymbolTableRecord
100
AcDbBlockTableRecord
  2
Urheberrecht_DE-EN
340
0
102
{BLKREFS
331
6D
102
}
  0
BLOCK_RECORD
  5
140
330
1
100
AcDbSymbolTableRecord
100
AcDbBlockTableRecord
  2
*D2
340
0
  0
BLOCK_RECORD
  5
14B
330
1
100
AcDbSymbolTableRecord
100
AcDbBlockTableRecord
  2
*D3
340
0
  0
BLOCK_RECORD
  5
156
330
1
100
AcDbSymbolTableRecord
100
AcDbBlockTableRecord
  2
*D4
340
0
  0
BLOCK_RECORD
  5
161
330
1
100
AcDbSymbolTableRecord
100
AcDbBlockTableRecord
  2
*D5
340
0
  0
BLOCK_RECORD
  5
16C
330
1
100
AcDbSymbolTableRecord
100
AcDbBlockTableRecord
  2
*D6
340
0
  0
BLOCK_RECORD
  5
177
330
1
100
AcDbSymbolTableRecord
100
AcDbBlockTableRecord
  2
*D7
340
0
  0
BLOCK_RECORD
  5
182
330
1
100
AcDbSymbolTableRecord
100
AcDbBlockTableRecord
  2
*D8
340
0
102
{BLKREFS
331
188
102
}
  0
ENDTAB
  0
ENDSEC
  0
SECTION
  2
BLOCKS
  0
BLOCK
  5
20
330
1F
100
AcDbEntity
  8
0
100
AcDbBlockBegin
  2
*Model_Space
 70
     0
 10
0.0
 20
0.0
 30
0.0
  3
*Model_Space
  1

  0
ENDBLK
  5
21
330
1F
100
AcDbEntity
  8
0
100
AcDbBlockEnd
  0
BLOCK
  5
1C
330
1B
100
AcDbEntity
 67
     1
  8
0
100
AcDbBlockBegin
  2
*Paper_Space
 70
     0
 10
0.0
 20
0.0
 30
0.0
  3
*Paper_Space
  1

  0
ENDBLK
  5
1D
330
1B
100
AcDbEntity
 67
     1
  8
0
100
AcDbBlockEnd
  0
BLOCK
  5
24
330
23
100
AcDbEntity
  8
0
100
AcDbBlockBegin
  2
*Paper_Space0
 70
     0
 10
0.0
 20
0.0
 30
0.0
  3
*Paper_Space0
  1

  0
ENDBLK
  5
25
330
23
100
AcDbEntity
  8
0
100
AcDbBlockEnd
  0
BLOCK
  5
49
330
48
100
AcDbEntity
  8
0
100
AcDbBlockBegin
  2
Urheberrecht_DE-EN
 70
     0
 10
26.2168998956427
 20
313.308254778535
 30
0.0
  3
Urheberrecht_DE-EN
  1

  0
MTEXT
  5
6F
330
48
100
AcDbEntity
  8
1
 62
     1
100
AcDbMText
 10
26.2168998956427
 20
257.0188678612288
 30
0.0
 40
2.0
 41
0.0
 71
     7
 72
     1
  1
F\U+00fcr diese Unterlage behalten wir das Ur-\Pheberrecht. Sie darf nur f\U+00fcr den von uns \Pbestimmten Zweck benutzt und ohne unsere \PZustimmung weder vervielf\U+00e4ltigt noch\PDritten zug\U+00e4nglich gemacht werden.
  7
CONVERTER_11
 11
0.0
 21
1.0
 31
0.0
 73
     1
 44
0.90036014405762
  0
MTEXT
  5
70
330
48
100
AcDbEntity
  8
1
 62
     1
100
AcDbMText
 10
26.2168998956427
 20
313.308254778535
 30
0.0
 40
2.0
 41
0.0
 71
     7
 72
     1
  1
We own the copyright of this document. It \Pdetermined and may neither be copied or \Pmade accessible to outsiders without our\Ppermission.
  7
CONVERTER_11
 11
0.0
 21
1.0
 31
0.0
 73
     1
 44
0.90036014405762
  0
ENDBLK
  5
4A
330
48
100
AcDbEntity
  8
0
100
AcDbBlockEnd
  0
BLOCK
  5
147
330
140
100
AcDbEntity
  8
0
100
AcDbBlockBegin
  2
*D2
 70
     1
 10
0.0
 20
0.0
 30
0.0
  3
*D2
  1

  0
LINE
  5
141
330
140
100
AcDbEntity
  8
1
  6
Continuous
 62
     2
100
AcDbLine
 10
233.4509502141
 20
376.504406488116
 30
0.0
 11
35.4509502141
 21
376.504406488116
 31
0.0
  0
LINE
  5
142
330
140
100
AcDbEntity
  8
1
  6
Continuous
 62
     2
100
AcDbLine
 10
35.4509502141
 20
330.2894648495
 30
0.0
 11
35.4509502141
 21
378.504406488116
 31
0.0
  0
LINE
  5
143
330
140
100
AcDbEntity
  8
1
  6
Continuous
 62
     2
100
AcDbLine
 10
233.4509502141
 20
312.6892732869
 30
0.0
 11
233.4509502141
 21
378.504406488116
 31
0.0
  0
SOLID
  5
144
330
140
100
AcDbEntity
  8
1
 62
     2
100
AcDbTrace
 10
229.9509502141
 20
376.0436227465601
 30
0.0
 11
229.9509502141
 21
376.9651902296719
 31
0.0
 12
233.4509502141
 22
376.504406488116
 32
0.0
 13
233.4509502141
 23
376.504406488116
 33
0.0
  0
SOLID
  5
145
330
140
100
AcDbEntity
  8
1
 62
     2
100
AcDbTrace
 10
38.9509502141
 20
376.9651902296719
 30
0.0
 11
38.9509502141
 21
376.0436227465601
 31
0.0
 12
35.4509502141
 22
376.504406488116
 32
0.0
 13
35.4509502141
 23
376.504406488116
 33
0.0
  0
MTEXT
  5
146
330
140
100
AcDbEntity
  8
1
 62
     3
100
AcDbMText
 10
138.800086313157
 20
378.504406488116
 30
0.0
 40
3.5
 41
0.0
 71
     7
 72
     1
  1
\C3;\C3;\C3;198\C2;\H2.45;\S^ ;\C3;
  7
CONVERTER_11
 11
0.9999999999970619
 21
2.424068405545306E-6
 31
0.0
 73
     1
 44
0.60024009603842
  0
ENDBLK
  5
148
330
140
100
AcDbEntity
  8
0
100
AcDbBlockEnd
  0
BLOCK
  5
152
330
14B
100
AcDbEntity
  8
0
100
AcDbBlockBegin
  2
*D3
 70
     1
 10
0.0
 20
0.0
 30
0.0
  3
*D3
  1

  0
LINE
  5
14C
330
14B
100
AcDbEntity
  8
1
  6
Continuous
 62
     2
100
AcDbLine
 10
85.4509502141
 20
368.585478386916
 30
0.0
 11
245.4509502141
 21
368.585478386916
 31
0.0
  0
LINE
  5
14D
330
14B
100
AcDbEntity
  8
1
  6
Continuous
 62
     2
100
AcDbLine
 10
245.4509502141
 20
311.6892732869
 30
0.0
 11
245.4509502141
 21
370.585478386916
 31
0.0
  0
LINE
  5
14E
330
14B
100
AcDbEntity
  8
1
  6
Continuous
 62
     2
100
AcDbLine
 10
85.4509502141
 20
346.6892732869
 30
0.0
 11
85.4509502141
 21
370.585478386916
 31
0.0
  0
SOLID
  5
14F
330
14B
100
AcDbEntity
  8
1
 62
     2
100
AcDbTrace
 10
88.9509502141
 20
369.0462621284719
 30
0.0
 11
88.9509502141
 21
368.1246946453601
 31
0.0
 12
85.4509502141
 22
368.585478386916
 32
0.0
 13
85.4509502141
 23
368.585478386916
 33
0.0
  0
SOLID
  5
150
330
14B
100
AcDbEntity
  8
1
 62
     2
100
AcDbTrace
 10
241.9509502141
 20
368.1246946453601
 30
0.0
 11
241.9509502141
 21
369.0462621284719
 31
0.0
 12
245.4509502141
 22
368.585478386916
 32
0.0
 13
245.4509502141
 23
368.585478386916
 33
0.0
  0
MTEXT
  5
151
330
14B
100
AcDbEntity
  8
1
 62
     3
100
AcDbMText
 10
164.575420917064
 20
370.585478386916
 30
0.0
 40
3.5
 41
0.0
 71
     7
 72
     1
  1
\C3;\C3;\C3;160\C2;\H2.45;\S^ ;\C3;
  7
CONVERTER_11
 11
0.9999999999970619
 21
2.424068405545306E-6
 31
0.0
 73
     1
 44
0.60024009603842
  0
ENDBLK
  5
153
330
14B
100
AcDbEntity
  8
0
100
AcDbBlockEnd
  0
BLOCK
  5
15D
330
156
100
AcDbEntity
  8
0
100
AcDbBlockBegin
  2
*D4
 70
     1
 10
0.0
 20
0.0
 30
0.0
  3
*D4
  1

  0
LINE
  5
157
330
156
100
AcDbEntity
  8
1
  6
Continuous
 62
     2
100
AcDbLine
 10
233.4509502141
 20
360.200730985645
 30
0.0
 11
85.4509502141
 21
360.200730985645
 31
0.0
  0
LINE
  5
158
330
156
100
AcDbEntity
  8
1
  6
Continuous
 62
     2
100
AcDbLine
 10
85.4509502141
 20
346.6892732869
 30
0.0
 11
85.4509502141
 21
362.200730985645
 31
0.0
  0
LINE
  5
159
330
156
100
AcDbEntity
  8
1
  6
Continuous
 62
     2
100
AcDbLine
 10
233.4509502141
 20
312.6892732869
 30
0.0
 11
233.4509502141
 21
362.200730985645
 31
0.0
  0
SOLID
  5
15A
330
156
100
AcDbEntity
  8
1
 62
     2
100
AcDbTrace
 10
229.9509502141
 20
359.7399472440891
 30
0.0
 11
229.9509502141
 21
360.6615147272009
 31
0.0
 12
233.4509502141
 22
360.200730985645
 32
0.0
 13
233.4509502141
 23
360.200730985645
 33
0.0
  0
SOLID
  5
15B
330
156
100
AcDbEntity
  8
1
 62
     2
100
AcDbTrace
 10
88.9509502141
 20
360.6615147272009
 30
0.0
 11
88.9509502141
 21
359.7399472440891
 31
0.0
 12
85.4509502141
 22
360.200730985645
 32
0.0
 13
85.4509502141
 23
360.200730985645
 33
0.0
  0
MTEXT
  5
15C
330
156
100
AcDbEntity
  8
1
 62
     3
100
AcDbMText
 10
158.209223816099
 20
362.200730985645
 30
0.0
 40
3.5
 41
0.0
 71
     7
 72
     1
  1
\C3;\C3;\C3;148\C2;\H2.45;\S^ ;\C3;
  7
CONVERTER_11
 11
0.9999999999970619
 21
2.424068405545306E-6
 31
0.0
 73
     1
 44
0.60024009603842
  0
ENDBLK
  5
15E
330
156
100
AcDbEntity
  8
0
100
AcDbBlockEnd
  0
BLOCK
  5
168
330
161
100
AcDbEntity
  8
0
100
AcDbBlockBegin
  2
*D5
 70
     1
 10
0.0
 20
0.0
 30
0.0
  3
*D5
  1

  0
LINE
  5
162
330
161
100
AcDbEntity
  8
1
  6
Continuous
 62
     2
100
AcDbLine
 10
233.4509502141
 20
351.971256684397
 30
0.0
 11
114.4509502141
 21
351.971256684397
 31
0.0
  0
LINE
  5
163
330
161
100
AcDbEntity
  8
1
  6
Continuous
 62
     2
100
AcDbLine
 10
114.4509502141
 20
346.6892364167
 30
0.0
 11
114.4509502141
 21
353.971256684397
 31
0.0
  0
LINE
  5
164
330
161
100
AcDbEntity
  8
1
  6
Continuous
 62
     2
100
AcDbLine
 10
233.4509502141
 20
312.6892732869
 30
0.0
 11
233.4509502141
 21
353.971256684397
 31
0.0
  0
SOLID
  5
165
330
161
100
AcDbEntity
  8
1
 62
     2
100
AcDbTrace
 10
229.9509502141
 20
351.5104729428411
 30
0.0
 11
229.9509502141
 21
352.4320404259529
 31
0.0
 12
233.4509502141
 22
351.971256684397
 32
0.0
 13
233.4509502141
 23
351.971256684397
 33
0.0
  0
SOLID
  5
166
330
161
100
AcDbEntity
  8
1
 62
     2
100
AcDbTrace
 10
117.9509502141
 20
352.4320404259529
 30
0.0
 11
117.9509502141
 21
351.5104729428411
 31
0.0
 12
114.4509502141
 22
351.971256684397
 32
0.0
 13
114.4509502141
 23
351.971256684397
 33
0.0
  0
MTEXT
  5
167
330
161
100
AcDbEntity
  8
1
 62
     3
100
AcDbMText
 10
175.553991718665
 20
353.971256684397
 30
0.0
 40
3.5
 41
0.0
 71
     7
 72
     1
  1
\C3;\C3;\C3;119\C2;\H2.45;\S^ ;\C3;
  7
CONVERTER_11
 11
0.9999999999970619
 21
2.424068405545306E-6
 31
0.0
 73
     1
 44
0.60024009603842
  0
ENDBLK
  5
169
330
161
100
AcDbEntity
  8
0
100
AcDbBlockEnd
  0
BLOCK
  5
173
330
16C
100
AcDbEntity
  8
0
100
AcDbBlockBegin
  2
*D6
 70
     1
 10
0.0
 20
0.0
 30
0.0
  3
*D6
  1

  0
LINE
  5
16D
330
16C
100
AcDbEntity
  8
1
  6
Continuous
 62
     2
100
AcDbLine
 10
266.895865523743
 20
315.6892732869
 30
0.0
 11
266.895865523743
 21
273.6892732869
 31
0.0
  0
LINE
  5
16E
330
16C
100
AcDbEntity
  8
1
  6
Continuous
 62
     2
100
AcDbLine
 10
236.0509502141
 20
273.6892732869
 30
0.0
 11
268.895865523743
 21
273.6892732869
 31
0.0
  0
LINE
  5
16F
330
16C
100
AcDbEntity
  8
1
  6
Continuous
 62
     2
100
AcDbLine
 10
236.0509502141
 20
315.6892732869
 30
0.0
 11
268.895865523743
 21
315.6892732869
 31
0.0
  0
SOLID
  5
170
330
16C
100
AcDbEntity
  8
1
 62
     2
100
AcDbTrace
 10
267.3566492652989
 20
312.1892732869
 30
0.0
 11
266.4350817821871
 21
312.1892732869
 31
0.0
 12
266.895865523743
 22
315.6892732869
 32
0.0
 13
266.895865523743
 23
315.6892732869
 33
0.0
  0
SOLID
  5
171
330
16C
100
AcDbEntity
  8
1
 62
     2
100
AcDbTrace
 10
266.4350817821871
 20
277.1892732869
 30
0.0
 11
267.3566492652989
 21
277.1892732869
 31
0.0
 12
266.895865523743
 22
273.6892732869
 32
0.0
 13
266.895865523743
 23
273.6892732869
 33
0.0
  0
MTEXT
  5
172
330
16C
100
AcDbEntity
  8
1
 62
     3
100
AcDbMText
 10
264.895865523743
 20
286.833911028002
 30
0.0
 40
3.5
 41
0.0
 71
     7
 72
     1
  1
\C3;%%c\C3;\C3;42\C2;\H2.45;\S^ ;\C3;
  7
CONVERTER_11
 11
0.0
 21
1.0
 31
0.0
 73
     1
 44
0.60024009603842
  0
ENDBLK
  5
174
330
16C
100
AcDbEntity
  8
0
100
AcDbBlockEnd
  0
BLOCK
  5
17E
330
177
100
AcDbEntity
  8
0
100
AcDbBlockBegin
  2
*D7
 70
     1
 10
0.0
 20
0.0
 30
0.0
  3
*D7
  1

  0
LINE
  5
178
330
177
100
AcDbEntity
  8
1
  6
Continuous
 62
     2
100
AcDbLine
 10
257.190076621536
 20
307.1892732869
 30
0.0
 11
257.190076621536
 21
282.1892732869
 31
0.0
  0
LINE
  5
179
330
177
100
AcDbEntity
  8
1
  6
Continuous
 62
     2
100
AcDbLine
 10
235.4509502141
 20
282.1892732869
 30
0.0
 11
259.190076621536
 21
282.1892732869
 31
0.0
  0
LINE
  5
17A
330
177
100
AcDbEntity
  8
1
  6
Continuous
 62
     2
100
AcDbLine
 10
235.4509502141
 20
307.1892732869
 30
0.0
 11
259.190076621536
 21
307.1892732869
 31
0.0
  0
SOLID
  5
17B
330
177
100
AcDbEntity
  8
1
 62
     2
100
AcDbTrace
 10
257.6508603630919
 20
303.6892732869
 30
0.0
 11
256.7292928799802
 21
303.6892732869
 31
0.0
 12
257.190076621536
 22
307.1892732869
 32
0.0
 13
257.190076621536
 23
307.1892732869
 33
0.0
  0
SOLID
  5
17C
330
177
100
AcDbEntity
  8
1
 62
     2
100
AcDbTrace
 10
256.7292928799802
 20
285.6892732869
 30
0.0
 11
257.6508603630919
 21
285.6892732869
 31
0.0
 12
257.190076621536
 22
282.1892732869
 32
0.0
 13
257.190076621536
 23
282.1892732869
 33
0.0
  0
MTEXT
  5
17D
330
177
100
AcDbEntity
  8
1
 62
     3
100
AcDbMText
 10
255.190076621536
 20
290.018395163939
 30
0.0
 40
3.5
 41
0.0
 71
     7
 72
     1
  1
\C3;ER\C3;\C3;25\C2;\H2.45;\S^ ;\C3;
  7
CONVERTER_11
 11
0.0
 21
1.0
 31
0.0
 73
     1
 44
0.60024009603842
  0
ENDBLK
  5
17F
330
177
100
AcDbEntity
  8
0
100
AcDbBlockEnd
  0
BLOCK
  5
186
330
182
100
AcDbEntity
  8
0
100
AcDbBlockBegin
  2
*D8
 70
     1
 10
0.0
 20
0.0
 30
0.0
  3
*D8
  1

  0
LINE
  5
183
330
182
100
AcDbEntity
  8
1
  6
Continuous
 62
     2
100
AcDbLine
 10
127.9965196554874
 20
331.5511447321504
 30
0.0
 11
119.1331120722682
 21
322.1981964910507
 31
0.0
  0
SOLID
  5
184
330
182
100
AcDbEntity
  8
1
 62
     2
100
AcDbTrace
 10
121.206149006934
 20
325.0556148230409
 30
0.0
 11
121.8750662704572
 21
324.4217092145394
 31
0.0
 12
119.1331120722682
 22
322.1981964910507
 32
0.0
 13
119.1331120722682
 23
322.1981964910507
 33
0.0
  0
MTEXT
  5
185
330
182
100
AcDbEntity
  8
1
 62
     3
100
AcDbMText
 10
120.2853365954965
 20
326.3216461122722
 30
0.0
 40
3.5
 41
0.0
 71
     7
 72
     1
  1
\C3; R\C3;\C3;15\C2;\H2.45;\S^ ;\C3;
  7
CONVERTER_11
 11
0.6878558761221196
 21
0.725847293639834
 31
0.0
 73
     1
 44
0.60024009603842
  0
ENDBLK
  5
187
330
182
100
AcDbEntity
  8
0
100
AcDbBlockEnd
  0
ENDSEC
  0
SECTION
  2
ENTITIES
  0
INSERT
  5
6D
330
1F
100
AcDbEntity
  8
0
100
AcDbBlockReference
  2
Urheberrecht_DE-EN
 10
26.2168998956427
 20
313.308254778535
 30
0.0
  0
LINE
  5
71
330
1F
100
AcDbEntity
  8
RUNDUNGEN
  6
Continuous
 62
     7
100
AcDbLine
 10
234.0509499213
 20
307.8611694047
 30
0.0
 11
235.127477715953
 21
306.560156658201
 31
0.0
  0
LINE
  5
72
330
1F
100
AcDbEntity
  8
RUNDUNGEN
  6
Continuous
 62
     7
100
AcDbLine
 10
235.12747674367
 20
282.818389877545
 30
0.0
 11
234.050949872
 21
281.5173771692
 31
0.0
  0
LINE
  5
73
330
1F
100
AcDbEntity
  8
0
  6
Continuous
 62
     7
100
AcDbLine
 10
243.482147652943
 20
301.55038031335
 30
0.0
 11
242.3476925172
 21
302.0945770064
 31
0.0
  0
LINE
  5
74
330
1F
100
AcDbEntity
  8
0
  6
Continuous
 62
     7
100
AcDbLine
 10
242.3476925172
 20
287.2839695675
 30
0.0
 11
243.482147652943
 21
287.82816626055
 31
0.0
  0
LINE
  5
75
330
1F
100
AcDbEntity
  8
0
  6
Continuous
 62
     7
100
AcDbLine
 10
245.4509502141
 20
309.6892732869
 30
0.0
 11
245.4509502141
 21
279.6892732869
 31
0.0
  0
LINE
  5
76
330
1F
100
AcDbEntity
  8
0
  6
Continuous
 62
     9
100
AcDbLine
 10
242.3476925172
 20
307.4251912058
 30
0.0
 11
242.3476925172
 21
314.8304949253
 31
0.0
  0
LINE
  5
77
330
1F
100
AcDbEntity
  8
0
  6
Continuous
 62
     9
100
AcDbLine
 10
242.3476925172
 20
287.2839695675
 30
0.0
 11
242.3476925172
 21
302.0945770064
 31
0.0
  0
LINE
  5
78
330
1F
100
AcDbEntity
  8
0
  6
Continuous
 62
     9
100
AcDbLine
 10
242.3476925172
 20
274.5480516486
 30
0.0
 11
242.3476925172
 21
281.953355368
 31
0.0
  0
LINE
  5
79
330
1F
100
AcDbEntity
  8
0
  6
Continuous
 62
     7
100
AcDbLine
 10
243.5886802747
 20
312.9148194394
 30
0.0
 11
245.4509502141
 21
309.6892732869
 31
0.0
  0
LINE
  5
7A
330
1F
100
AcDbEntity
  8
0
  6
Continuous
 62
     7
100
AcDbLine
 10
245.4509502141
 20
279.6892732869
 30
0.0
 11
243.5886802747
 21
276.4637271345
 31
0.0
  0
LINE
  5
7B
330
1F
100
AcDbEntity
  8
0
  6
Continuous
 62
     9
100
AcDbLine
 10
241.2651607625
 20
307.8611694047
 30
0.0
 11
241.2651607625
 21
315.4394673369
 31
0.0
  0
LINE
  5
7C
330
1F
100
AcDbEntity
  8
0
  6
Continuous
 62
     9
100
AcDbLine
 10
241.2651607625
 20
287.1109753547
 30
0.0
 11
241.2651607625
 21
302.2675712192
 31
0.0
  0
LINE
  5
7D
330
1F
100
AcDbEntity
  8
0
  6
Continuous
 62
     9
100
AcDbLine
 10
241.2651607625
 20
273.9390792369
 30
0.0
 11
241.2651607625
 21
281.5173771692
 31
0.0
  0
LINE
  5
7E
330
1F
100
AcDbEntity
  8
FASEN
  6
Continuous
 62
     7
100
AcDbLine
 10
234.1951757466
 20
315.4394673369
 30
0.0
 11
234.0509502141
 21
315.6892732869
 31
0.0
  0
LINE
  5
7F
330
1F
100
AcDbEntity
  8
FASEN
  6
Continuous
 62
     7
100
AcDbLine
 10
234.1951757466
 20
273.9390792369
 30
0.0
 11
234.0509502141
 21
273.6892732869
 31
0.0
  0
LINE
  5
80
330
1F
100
AcDbEntity
  8
FASEN
  6
Continuous
 62
     7
100
AcDbLine
 10
234.0509502141
 20
315.4394673369
 30
0.0
 11
234.0509502141
 21
315.6892732869
 31
0.0
  0
LINE
  5
81
330
1F
100
AcDbEntity
  8
FASEN
  6
Continuous
 62
     7
100
AcDbLine
 10
234.0509499474
 20
302.2675712192
 30
0.0
 11
234.0509499213
 21
307.8611694047
 31
0.0
  0
LINE
  5
82
330
1F
100
AcDbEntity
  8
FASEN
  6
Continuous
 62
     7
100
AcDbLine
 10
234.050949872
 20
281.5173771692
 30
0.0
 11
234.0509499968
 21
287.1109753547
 31
0.0
  0
LINE
  5
83
330
1F
100
AcDbEntity
  8
FASEN
  6
Continuous
 62
     7
100
AcDbLine
 10
234.0509502141
 20
273.6892732869
 30
0.0
 11
234.0509502141
 21
273.9390792369
 31
0.0
  0
LWPOLYLINE
  5
84
330
1F
100
AcDbEntity
  8
DEFAULT_2
  6
DASHED
 62
     8
100
AcDbPolyline
 90
        2
 70
     0
 43
0.35
 10
233.4509502141
 20
310.6892732869
 10
233.4509502141
 20
278.6892732869
  0
LINE
  5
85
330
1F
100
AcDbEntity
  8
RUNDUNGEN
  6
Continuous
 62
     9
100
AcDbLine
 10
226.7009502141
 20
273.6892732869
 30
0.0
 11
226.7009502141
 21
315.6892732869
 31
0.0
  0
LINE
  5
86
330
1F
100
AcDbEntity
  8
RUNDUNGEN
  6
Continuous
 62
     7
100
AcDbLine
 10
225.4509502141
 20
314.4392732869
 30
0.0
 11
225.4509502141
 21
274.9392732869
 31
0.0
  0
LINE
  5
87
330
1F
100
AcDbEntity
  8
RUNDUNGEN
  6
Continuous
 62
     9
100
AcDbLine
 10
218.3651637765
 20
310.6892732869
 30
0.0
 11
218.3651637765
 21
278.6892732869
 31
0.0
  0
LINE
  5
88
330
1F
100
AcDbEntity
  8
RUNDUNGEN
  6
Continuous
 62
     9
100
AcDbLine
 10
217.6580569953
 20
310.9821665058
 30
0.0
 11
217.6580569953
 21
278.3963800681
 31
0.0
  0
LINE
  5
89
330
1F
100
AcDbEntity
  8
RUNDUNGEN
  6
Continuous
 62
     9
100
AcDbLine
 10
213.8296298706
 20
274.5679529434
 30
0.0
 11
213.8296298706
 21
314.8105936305
 31
0.0
  0
LINE
  5
8A
330
1F
100
AcDbEntity
  8
RUNDUNGEN
  6
Continuous
 62
     9
100
AcDbLine
 10
211.708309527
 20
273.6892732869
 30
0.0
 11
211.708309527
 21
315.6892732869
 31
0.0
  0
LINE
  5
8B
330
1F
100
AcDbEntity
  8
RUNDUNGEN
  6
Continuous
 62
     7
100
AcDbLine
 10
217.6580569953
 20
310.9821665058
 30
0.0
 11
213.8296298706
 21
314.8105936305
 31
0.0
  0
LINE
  5
8C
330
1F
100
AcDbEntity
  8
0
  6
Continuous
 62
     7
100
AcDbLine
 10
213.8296298706
 20
314.8105936305
 30
0.0
 11
217.6580569953
 21
310.9821665058
 31
0.0
  0
LINE
  5
8D
330
1F
100
AcDbEntity
  8
0
  6
Continuous
 62
     7
100
AcDbLine
 10
213.8296298706
 20
274.5679529434
 30
0.0
 11
217.6580569953
 21
278.3963800681
 31
0.0
  0
LWPOLYLINE
  5
8E
330
1F
100
AcDbEntity
  8
DEFAULT_2
  6
DASHED
 62
     8
100
AcDbPolyline
 90
        2
 70
     0
 43
0.35
 10
208.5471561858
 20
303.6892732869
 10
208.5471561858
 20
285.6892732869
  0
LWPOLYLINE
  5
8F
330
1F
100
AcDbEntity
  8
DEFAULT_2
  6
DASHED
 62
     8
100
AcDbPolyline
 90
        2
 70
     0
 43
0.35
 10
204.4509502141
 20
303.6892732869
 10
204.4509502141
 20
285.6892732869
  0
LINE
  5
90
330
1F
100
AcDbEntity
  8
BEZUGSACHSEN
  6
Continuous
 62
     7
100
AcDbLine
 10
108.6985454783
 20
344.6892732869
 30
0.0
 11
114.4509502141
 21
344.6892732869
 31
0.0
  0
LINE
  5
91
330
1F
100
AcDbEntity
  8
BEZUGSACHSEN
  6
Continuous
 62
     7
100
AcDbLine
 10
87.4509502141
 20
344.6892732869
 30
0.0
 11
85.4509502141
 21
344.6892732869
 31
0.0
  0
LINE
  5
92
330
1F
100
AcDbEntity
  8
BEZUGSACHSEN
  6
Continuous
 62
     7
100
AcDbLine
 10
102.2033549499
 20
344.6892732869
 30
0.0
 11
97.4509502141
 21
344.6892732869
 31
0.0
  0
LINE
  5
93
330
1F
100
AcDbEntity
  8
BEZUGSACHSEN
  6
Continuous
 62
     7
100
AcDbLine
 10
104.5759502141
 20
340.6892732869
 30
0.0
 11
106.3259502141
 21
340.6892732869
 31
0.0
  0
LINE
  5
94
330
1F
100
AcDbEntity
  8
BEZUGSACHSEN
  6
Continuous
 62
     7
100
AcDbLine
 10
82.9509502141
 20
332.5715232869
 30
0.0
 11
37.3508757294
 21
330.2869595553
 31
0.0
  0
LINE
  5
95
330
1F
100
AcDbEntity
  8
BEZUGSACHSEN
  6
Continuous
 62
     7
100
AcDbLine
 10
84.7503789255
 20
332.3715232869
 30
0.0
 11
83.8290128732
 21
332.3715232869
 31
0.0
  0
LINE
  5
96
330
1F
100
AcDbEntity
  8
0
  6
Continuous
 62
     9
100
AcDbLine
 10
169.4509502141
 20
315.6892732869
 30
0.0
 11
169.4509502141
 21
273.6892732869
 31
0.0
  0
LINE
  5
97
330
1F
100
AcDbEntity
  8
BEZUGSACHSEN
  6
Continuous
 62
     7
100
AcDbLine
 10
83.5701938281
 20
332.4055974606
 30
0.0
 11
82.9509502141
 21
332.5715232869
 31
0.0
  0
LINE
  5
98
330
1F
100
AcDbEntity
  8
0
  6
Continuous
 62
     7
100
AcDbLine
 10
226.7009502141
 20
315.6892732869
 30
0.0
 11
234.0509502141
 21
315.6892732869
 31
0.0
  0
LINE
  5
99
330
1F
100
AcDbEntity
  8
0
  6
Continuous
 62
     7
100
AcDbLine
 10
169.4509502141
 20
315.6892732869
 30
0.0
 11
211.708309527
 21
315.6892732869
 31
0.0
  0
LINE
  5
9A
330
1F
100
AcDbEntity
  8
RUNDUNGEN
  6
Continuous
 62
     7
100
AcDbLine
 10
211.708309527
 20
315.6892732869
 30
0.0
 11
169.4509502141
 21
315.6892732869
 31
0.0
  0
LINE
  5
9B
330
1F
100
AcDbEntity
  8
FASEN
  6
Continuous
 62
     7
100
AcDbLine
 10
234.0509502141
 20
315.6892732869
 30
0.0
 11
226.7009502141
 21
315.6892732869
 31
0.0
  0
LINE
  5
9C
330
1F
100
AcDbEntity
  8
FASEN
  6
Continuous
 62
     7
100
AcDbLine
 10
241.2651607625
 20
315.4394673369
 30
0.0
 11
234.0509502141
 21
315.4394673369
 31
0.0
  0
LINE
  5
9D
330
1F
100
AcDbEntity
  8
0
  6
Continuous
 62
     7
100
AcDbLine
 10
243.5886802747
 20
312.9148194394
 30
0.0
 11
243.482147653
 21
312.9148194394
 31
0.0
  0
LINE
  5
9E
330
1F
100
AcDbEntity
  8
0
  6
Continuous
 62
     7
100
AcDbLine
 10
218.3651637765
 20
310.6892732869
 30
0.0
 11
225.4509502141
 21
310.6892732869
 31
0.0
  0
LINE
  5
9F
330
1F
100
AcDbEntity
  8
RUNDUNGEN
  6
Continuous
 62
     7
100
AcDbLine
 10
225.4509502141
 20
310.6892732869
 30
0.0
 11
218.3651637765
 21
310.6892732869
 31
0.0
  0
LWPOLYLINE
  5
A0
330
1F
100
AcDbEntity
  8
RUNDUNGEN
  6
DASHED
 62
     8
100
AcDbPolyline
 90
        2
 70
     0
 43
0.35
 10
233.4509502141
 20
310.6892732869
 10
225.4509502141
 20
310.6892732869
  0
LINE
  5
A1
330
1F
100
AcDbEntity
  8
BEZUGSACHSEN
  6
Continuous
 62
     9
100
AcDbLine
 10
36.7179031411
 20
309.6992732869
 30
0.0
 11
45.004796161
 21
309.6992732869
 31
0.0
  0
LINE
  5
A2
330
1F
100
AcDbEntity
  8
FASEN
  6
Continuous
 62
     7
100
AcDbLine
 10
234.0509499213
 20
307.8611694047
 30
0.0
 11
241.2651607625
 21
307.8611694047
 31
0.0
  0
LINE
  5
A3
330
1F
100
AcDbEntity
  8
RUNDUNGEN
  6
Continuous
 62
     7
100
AcDbLine
 10
243.482147653
 20
306.053712413
 30
0.0
 11
236.3620885335
 21
306.0537124146
 31
0.0
  0
LINE
  5
A4
330
1F
100
AcDbEntity
  8
0
  6
Continuous
 62
     7
100
AcDbLine
 10
100.4219502141
 20
304.7102732869
 30
0.0
 11
114.4509502141
 21
304.7102732869
 31
0.0
  0
LINE
  5
A5
330
1F
100
AcDbEntity
  8
BEZUGSACHSEN
  6
Continuous
 62
     7
100
AcDbLine
 10
43.4509502141
 20
304.6992732869
 30
0.0
 11
37.4509502141
 21
304.6992732869
 31
0.0
  0
LINE
  5
A6
330
1F
100
AcDbEntity
  8
FASEN
  6
Continuous
 62
     7
100
AcDbLine
 10
114.4509502141
 20
304.3102732869
 30
0.0
 11
100.4219502141
 21
304.3102732869
 31
0.0
  0
LWPOLYLINE
  5
A7
330
1F
100
AcDbEntity
  8
DEFAULT_2
  6
DASHED
 62
     8
100
AcDbPolyline
 90
        2
 70
     0
 43
0.35
 10
204.4509502141
 20
303.6892732869
 10
208.5471561858
 20
303.6892732869
  0
LINE
  5
A8
330
1F
100
AcDbEntity
  8
FASEN
  6
Continuous
 62
     7
100
AcDbLine
 10
241.2651607625
 20
302.2675712192
 30
0.0
 11
234.0509499474
 21
302.2675712192
 31
0.0
  0
LINE
  5
A9
330
1F
100
AcDbEntity
  8
FASEN
  6
Continuous
 62
     7
100
AcDbLine
 10
114.4009502141
 20
263.3392732869
 30
0.0
 11
114.0009502141
 21
262.9392732869
 31
0.0
  0
LWPOLYLINE
  5
AA
330
1F
100
AcDbEntity
  8
DEFAULT_2
  6
DASHED
 62
     8
100
AcDbPolyline
 90
        2
 70
     0
 43
0.35
 10
208.5471561858
 20
285.6892732869
 10
233.4509502141
 20
282.1892732869
  0
LWPOLYLINE
  5
AB
330
1F
100
AcDbEntity
  8
BG_STARTBEZUEGE
  6
DOT_CENTER
 62
     7
100
AcDbPolyline
 90
        2
 70
     0
 43
0.25
 10
248.4509502141
 20
294.6892732869
 10
32.4509502141
 20
294.6892732869
  0
LWPOLYLINE
  5
AC
330
1F
100
AcDbEntity
  8
DEFAULT_2
  6
DASHED
 62
     8
100
AcDbPolyline
 90
        2
 70
     0
 43
0.35
 10
208.5471561858
 20
303.6892732869
 10
233.4509502141
 20
307.1892732869
  0
LINE
  5
AD
330
1F
100
AcDbEntity
  8
BEZUGSACHSEN
  6
Continuous
 62
     7
100
AcDbLine
 10
102.2033549499
 20
344.6892732869
 30
0.0
 11
103.5759502141
 21
342.3118685511
 31
0.0
  0
LINE
  5
AE
330
1F
100
AcDbEntity
  8
FASEN
  6
Continuous
 62
     7
100
AcDbLine
 10
234.0509499968
 20
287.1109753547
 30
0.0
 11
241.2651607625
 21
287.1109753547
 31
0.0
  0
LWPOLYLINE
  5
AF
330
1F
100
AcDbEntity
  8
DEFAULT_2
  6
DASHED
 62
     8
100
AcDbPolyline
 90
        2
 70
     0
 43
0.35
 10
204.4509502141
 20
285.6892732869
 10
208.5471561858
 20
285.6892732869
  0
LINE
  5
B0
330
1F
100
AcDbEntity
  8
FASEN
  6
Continuous
 62
     7
100
AcDbLine
 10
100.4219502141
 20
285.0682732869
 30
0.0
 11
114.4509502141
 21
285.0682732869
 31
0.0
  0
LINE
  5
B1
330
1F
100
AcDbEntity
  8
BEZUGSACHSEN
  6
Continuous
 62
     7
100
AcDbLine
 10
43.4509502141
 20
284.6792732869
 30
0.0
 11
37.4509502141
 21
284.6792732869
 31
0.0
  0
LINE
  5
B2
330
1F
100
AcDbEntity
  8
0
  6
Continuous
 62
     7
100
AcDbLine
 10
100.4219502141
 20
284.6682732869
 30
0.0
 11
114.4509502141
 21
284.6682732869
 31
0.0
  0
LINE
  5
B3
330
1F
100
AcDbEntity
  8
RUNDUNGEN
  6
Continuous
 62
     7
100
AcDbLine
 10
243.482147653
 20
283.3248341609
 30
0.0
 11
236.3620876929
 21
283.3248341607
 31
0.0
  0
LINE
  5
B4
330
1F
100
AcDbEntity
  8
FASEN
  6
Continuous
 62
     7
100
AcDbLine
 10
241.2651607625
 20
281.5173771692
 30
0.0
 11
234.050949872
 21
281.5173771692
 31
0.0
  0
LINE
  5
B5
330
1F
100
AcDbEntity
  8
BEZUGSACHSEN
  6
Continuous
 62
     7
100
AcDbLine
 10
102.2033549499
 20
244.6892732869
 30
0.0
 11
103.5759502141
 21
247.0666780227
 31
0.0
  0
LINE
  5
B6
330
1F
100
AcDbEntity
  8
BEZUGSACHSEN
  6
Continuous
 62
     9
100
AcDbLine
 10
45.004796161
 20
279.6792732869
 30
0.0
 11
36.7179031411
 21
279.6792732869
 31
0.0
  0
LWPOLYLINE
  5
B7
330
1F
100
AcDbEntity
  8
DEFAULT_2
  6
DASHED
 62
     8
100
AcDbPolyline
 90
        2
 70
     0
 43
0.35
 10
225.4509502141
 20
278.6892732869
 10
233.4509502141
 20
278.6892732869
  0
LINE
  5
B8
330
1F
100
AcDbEntity
  8
0
  6
Continuous
 62
     7
100
AcDbLine
 10
218.3651637765
 20
278.6892732869
 30
0.0
 11
225.4509502141
 21
278.6892732869
 31
0.0
  0
LINE
  5
B9
330
1F
100
AcDbEntity
  8
RUNDUNGEN
  6
Continuous
 62
     7
100
AcDbLine
 10
225.4509502141
 20
278.6892732869
 30
0.0
 11
218.3651637765
 21
278.6892732869
 31
0.0
  0
LINE
  5
BA
330
1F
100
AcDbEntity
  8
0
  6
Continuous
 62
     7
100
AcDbLine
 10
243.482147653
 20
276.4637271345
 30
0.0
 11
243.5886802747
 21
276.4637271345
 31
0.0
  0
LINE
  5
BB
330
1F
100
AcDbEntity
  8
FASEN
  6
Continuous
 62
     7
100
AcDbLine
 10
234.0509502141
 20
273.9390792369
 30
0.0
 11
241.2651607625
 21
273.9390792369
 31
0.0
  0
LINE
  5
BC
330
1F
100
AcDbEntity
  8
0
  6
Continuous
 62
     7
100
AcDbLine
 10
226.7009502141
 20
273.6892732869
 30
0.0
 11
234.0509502141
 21
273.6892732869
 31
0.0
  0
LINE
  5
BD
330
1F
100
AcDbEntity
  8
0
  6
Continuous
 62
     7
100
AcDbLine
 10
169.4509502141
 20
273.6892732869
 30
0.0
 11
211.708309527
 21
273.6892732869
 31
0.0
  0
LINE
  5
BE
330
1F
100
AcDbEntity
  8
RUNDUNGEN
  6
Continuous
 62
     7
100
AcDbLine
 10
211.708309527
 20
273.6892732869
 30
0.0
 11
169.4509502141
 21
273.6892732869
 31
0.0
  0
LINE
  5
BF
330
1F
100
AcDbEntity
  8
BEZUGSACHSEN
  6
Continuous
 62
     7
100
AcDbLine
 10
83.5701938281
 20
256.9729491132
 30
0.0
 11
82.9509502141
 21
256.8070232869
 31
0.0
  0
LINE
  5
C0
330
1F
100
AcDbEntity
  8
RUNDUNGEN
  6
Continuous
 62
     9
100
AcDbLine
 10
127.6599054379806
 20
318.1932178035027
 30
0.0
 11
127.6599054379805
 21
271.18532877028
 31
0.0
  0
LINE
  5
C1
330
1F
100
AcDbEntity
  8
0
  6
Continuous
 62
     7
100
AcDbLine
 10
114.4509502141
 20
344.6892364167
 30
0.0
 11
114.4509502141
 21
333.0859058956482
 31
0.0
  0
LINE
  5
C2
330
1F
100
AcDbEntity
  8
FASEN
  6
Continuous
 62
     7
100
AcDbLine
 10
114.4009502141
 20
263.3392732869
 30
0.0
 11
114.4009502141
 21
256.0636664956
 31
0.0
  0
LINE
  5
C3
330
1F
100
AcDbEntity
  8
FASEN
  6
Continuous
 62
     7
100
AcDbLine
 10
114.0009502141
 20
262.9392732869
 30
0.0
 11
114.0009502141
 21
255.7383105261
 31
0.0
  0
LINE
  5
C4
330
1F
100
AcDbEntity
  8
BEZUGSACHSEN
  6
Continuous
 62
     9
100
AcDbLine
 10
37.4509502141
 20
307.0929132353
 30
0.0
 11
35.4509502141
 21
308.135457256
 31
0.0
  0
LINE
  5
C5
330
1F
100
AcDbEntity
  8
0
  6
Continuous
 62
     7
100
AcDbLine
 10
98.3840164694
 20
263.3392732869
 30
0.0
 11
114.4009502141
 21
263.3392732869
 31
0.0
  0
LINE
  5
C6
330
1F
100
AcDbEntity
  8
FASEN
  6
Continuous
 62
     7
100
AcDbLine
 10
98.3840164694
 20
262.9392732869
 30
0.0
 11
114.0009502141
 21
262.9392732869
 31
0.0
  0
LINE
  5
C7
330
1F
100
AcDbEntity
  8
0
  6
Continuous
 62
     7
100
AcDbLine
 10
104.5759502141
 20
261.0265713752
 30
0.0
 11
106.3259502141
 21
261.0265713752
 31
0.0
  0
LINE
  5
C8
330
1F
100
AcDbEntity
  8
BEZUGSACHSEN
  6
Continuous
 62
     7
100
AcDbLine
 10
84.7503789255
 20
257.0070232869
 30
0.0
 11
83.8290128732
 21
257.0070232869
 31
0.0
  0
LINE
  5
C9
330
1F
100
AcDbEntity
  8
BEZUGSACHSEN
  6
Continuous
 62
     9
100
AcDbLine
 10
35.4509502141
 20
281.2430893179
 30
0.0
 11
37.4509502141
 21
282.2856333386
 31
0.0
  0
LINE
  5
CA
330
1F
100
AcDbEntity
  8
0
  6
Continuous
 62
     7
100
AcDbLine
 10
108.6985454783
 20
255.7383105261
 30
0.0
 11
108.6985454783
 21
244.6892732869
 31
0.0
  0
LINE
  5
CB
330
1F
100
AcDbEntity
  8
0
  6
Continuous
 62
     7
100
AcDbLine
 10
108.6985454783
 20
284.6682732869
 30
0.0
 11
108.6985454783
 21
263.3392732869
 31
0.0
  0
LINE
  5
CC
330
1F
100
AcDbEntity
  8
0
  6
Continuous
 62
     7
100
AcDbLine
 10
108.6985454783
 20
344.6892732869
 30
0.0
 11
108.6985454783
 21
304.7102732869
 31
0.0
  0
LINE
  5
CD
330
1F
100
AcDbEntity
  8
0
  6
Continuous
 62
     7
100
AcDbLine
 10
107.3259502141
 20
304.7102732869
 30
0.0
 11
107.3259502141
 21
342.3118351751
 31
0.0
  0
LINE
  5
CE
330
1F
100
AcDbEntity
  8
0
  6
Continuous
 62
     7
100
AcDbLine
 10
107.3259502141
 20
263.3392732869
 30
0.0
 11
107.3259502141
 21
284.6682732869
 31
0.0
  0
LINE
  5
CF
330
1F
100
AcDbEntity
  8
0
  6
Continuous
 62
     7
100
AcDbLine
 10
107.3259502141
 20
247.0667142909
 30
0.0
 11
107.3259502141
 21
259.6724558987
 31
0.0
  0
LINE
  5
D0
330
1F
100
AcDbEntity
  8
0
  6
Continuous
 62
     9
100
AcDbLine
 10
106.3259502141
 20
304.7102732869
 30
0.0
 11
106.3259502141
 21
340.6892732869
 31
0.0
  0
LINE
  5
D1
330
1F
100
AcDbEntity
  8
0
  6
Continuous
 62
     9
100
AcDbLine
 10
106.3259502141
 20
263.3392732869
 30
0.0
 11
106.3259502141
 21
284.6682732869
 31
0.0
  0
LINE
  5
D2
330
1F
100
AcDbEntity
  8
0
  6
Continuous
 62
     9
100
AcDbLine
 10
106.3259502141
 20
248.6892732869
 30
0.0
 11
106.3259502141
 21
261.0265713752
 31
0.0
  0
LINE
  5
D3
330
1F
100
AcDbEntity
  8
0
  6
Continuous
 62
     9
100
AcDbLine
 10
104.5759502141
 20
304.7102732869
 30
0.0
 11
104.5759502141
 21
340.6892732869
 31
0.0
  0
LINE
  5
D4
330
1F
100
AcDbEntity
  8
0
  6
Continuous
 62
     9
100
AcDbLine
 10
104.5759502141
 20
263.3392732869
 30
0.0
 11
104.5759502141
 21
284.6682732869
 31
0.0
  0
LINE
  5
D5
330
1F
100
AcDbEntity
  8
0
  6
Continuous
 62
     9
100
AcDbLine
 10
104.5759502141
 20
248.6892732869
 30
0.0
 11
104.5759502141
 21
261.0265713752
 31
0.0
  0
LINE
  5
D6
330
1F
100
AcDbEntity
  8
0
  6
Continuous
 62
     7
100
AcDbLine
 10
103.5759502141
 20
247.0667142909
 30
0.0
 11
103.5759502141
 21
259.6724558987
 31
0.0
  0
LINE
  5
D7
330
1F
100
AcDbEntity
  8
0
  6
Continuous
 62
     7
100
AcDbLine
 10
103.5759502141
 20
284.6682732869
 30
0.0
 11
103.5759502141
 21
263.3392732869
 31
0.0
  0
LINE
  5
D8
330
1F
100
AcDbEntity
  8
0
  6
Continuous
 62
     7
100
AcDbLine
 10
103.5759502141
 20
342.3118351751
 30
0.0
 11
103.5759502141
 21
304.7102732869
 31
0.0
  0
LINE
  5
D9
330
1F
100
AcDbEntity
  8
BEZUGSACHSEN
  6
Continuous
 62
     7
100
AcDbLine
 10
82.9509502141
 20
256.8070232869
 30
0.0
 11
37.3508757294
 21
259.0915870186
 31
0.0
  0
LINE
  5
DA
330
1F
100
AcDbEntity
  8
FASEN
  6
Continuous
 62
     7
100
AcDbLine
 10
108.6985454783
 20
255.7383105261
 30
0.0
 11
114.0009502141
 21
255.7383105261
 31
0.0
  0
LINE
  5
DB
330
1F
100
AcDbEntity
  8
FASEN
  6
Continuous
 62
     7
100
AcDbLine
 10
90.7944994043
 20
255.7383105261
 30
0.0
 11
102.2033549499
 21
255.7383105261
 31
0.0
  0
LINE
  5
DC
330
1F
100
AcDbEntity
  8
0
  6
Continuous
 62
     7
100
AcDbLine
 10
102.2033549499
 20
255.7383105261
 30
0.0
 11
102.2033549499
 21
244.6892732869
 31
0.0
  0
LINE
  5
DD
330
1F
100
AcDbEntity
  8
0
  6
Continuous
 62
     7
100
AcDbLine
 10
102.2033549499
 20
284.6682732869
 30
0.0
 11
102.2033549499
 21
263.3392732869
 31
0.0
  0
LINE
  5
DE
330
1F
100
AcDbEntity
  8
0
  6
Continuous
 62
     7
100
AcDbLine
 10
102.2033549499
 20
344.6892732869
 30
0.0
 11
102.2033549499
 21
304.7102732869
 31
0.0
  0
LINE
  5
DF
330
1F
100
AcDbEntity
  8
FASEN
  6
Continuous
 62
     9
100
AcDbLine
 10
100.4219502141
 20
284.6682732869
 30
0.0
 11
100.4219502141
 21
285.0682732869
 31
0.0
  0
LINE
  5
E0
330
1F
100
AcDbEntity
  8
FASEN
  6
Continuous
 62
     9
100
AcDbLine
 10
100.4219502141
 20
304.7102732869
 30
0.0
 11
100.4219502141
 21
304.3102732869
 31
0.0
  0
LINE
  5
E1
330
1F
100
AcDbEntity
  8
FASEN
  6
Continuous
 62
     9
100
AcDbLine
 10
98.3840164694
 20
262.9392732869
 30
0.0
 11
98.3840164694
 21
263.3392732869
 31
0.0
  0
LINE
  5
E2
330
1F
100
AcDbEntity
  8
BEZUGSACHSEN
  6
Continuous
 62
     7
100
AcDbLine
 10
107.3259502141
 20
247.0666780227
 30
0.0
 11
108.6985454783
 21
244.6892732869
 31
0.0
  0
LINE
  5
E3
330
1F
100
AcDbEntity
  8
BEZUGSACHSEN
  6
Continuous
 62
     7
100
AcDbLine
 10
104.5759502141
 20
248.6892732869
 30
0.0
 11
106.3259502141
 21
248.6892732869
 31
0.0
  0
LINE
  5
E4
330
1F
100
AcDbEntity
  8
BEZUGSACHSEN
  6
Continuous
 62
     7
100
AcDbLine
 10
108.6985454783
 20
244.6892732869
 30
0.0
 11
114.4509502141
 21
244.6892732869
 31
0.0
  0
LINE
  5
E5
330
1F
100
AcDbEntity
  8
BEZUGSACHSEN
  6
Continuous
 62
     7
100
AcDbLine
 10
102.2033549499
 20
244.6892732869
 30
0.0
 11
85.4509502141
 21
244.6892732869
 31
0.0
  0
LINE
  5
E6
330
1F
100
AcDbEntity
  8
BEZUGSACHSEN
  6
Continuous
 62
     7
100
AcDbLine
 10
107.3259502141
 20
342.3118685511
 30
0.0
 11
108.6985454783
 21
344.6892732869
 31
0.0
  0
LWPOLYLINE
  5
E7
330
1F
100
AcDbEntity
  8
BEZUGSACHSEN
  6
DOT_CENTER
 62
     7
100
AcDbPolyline
 90
        2
 70
     0
 43
0.25
 10
92.4509502141
 20
336.8386451423
 10
92.4509502141
 20
347.6892732869
  0
LINE
  5
E8
330
1F
100
AcDbEntity
  8
BEZUGSACHSEN
  6
Continuous
 62
     7
100
AcDbLine
 10
85.4509502141
 20
344.6892732869
 30
0.0
 11
85.4509502141
 21
244.6892732869
 31
0.0
  0
LINE
  5
E9
330
1F
100
AcDbEntity
  8
BEZUGSACHSEN
  6
Continuous
 62
     9
100
AcDbLine
 10
84.7503789255
 20
257.0070232869
 30
0.0
 11
84.7503789255
 21
332.3715232869
 31
0.0
  0
LINE
  5
EA
330
1F
100
AcDbEntity
  8
BEZUGSACHSEN
  6
Continuous
 62
     9
100
AcDbLine
 10
83.8290128732
 20
257.0070232869
 30
0.0
 11
83.8290128732
 21
332.3715232869
 31
0.0
  0
LINE
  5
EB
330
1F
100
AcDbEntity
  8
BEZUGSACHSEN
  6
Continuous
 62
     9
100
AcDbLine
 10
83.5701938281
 20
256.9729491132
 30
0.0
 11
83.5701938281
 21
332.4055974606
 31
0.0
  0
LINE
  5
EC
330
1F
100
AcDbEntity
  8
BEZUGSACHSEN
  6
Continuous
 62
     7
100
AcDbLine
 10
82.9509502141
 20
332.5715232869
 30
0.0
 11
82.9509502141
 21
256.8070232869
 31
0.0
  0
LINE
  5
ED
330
1F
100
AcDbEntity
  8
BEZUGSACHSEN
  6
Continuous
 62
     7
100
AcDbLine
 10
37.4509502141
 20
304.6992732869
 30
0.0
 11
35.4509502141
 21
306.6992732869
 31
0.0
  0
LINE
  5
EE
330
1F
100
AcDbEntity
  8
BEZUGSACHSEN
  6
Continuous
 62
     7
100
AcDbLine
 10
35.4509502141
 20
282.6792732869
 30
0.0
 11
37.4509502141
 21
284.6792732869
 31
0.0
  0
LWPOLYLINE
  5
EF
330
1F
100
AcDbEntity
  8
BEZUGSACHSEN
  6
DOT_CENTER
 62
     7
100
AcDbPolyline
 90
        2
 70
     0
 43
0.25
 10
70.4509502141
 20
285.6892732869
 10
70.4509502141
 20
303.6892732869
  0
LINE
  5
F0
330
1F
100
AcDbEntity
  8
BEZUGSACHSEN
  6
Continuous
 62
     7
100
AcDbLine
 10
36.5967928897
 20
309.9316092824
 30
0.0
 11
36.7179031411
 21
309.6992732869
 31
0.0
  0
LINE
  5
F1
330
1F
100
AcDbEntity
  8
BEZUGSACHSEN
  6
Continuous
 62
     7
100
AcDbLine
 10
36.7179031411
 20
279.6792732869
 30
0.0
 11
36.5967928897
 21
279.4469372915
 31
0.0
  0
LINE
  5
F2
330
1F
100
AcDbEntity
  8
BEZUGSACHSEN
  6
Continuous
 62
     7
100
AcDbLine
 10
45.4509502141
 20
307.5589288127
 30
0.0
 11
45.4509502141
 21
281.8196177611
 31
0.0
  0
LINE
  5
F3
330
1F
100
AcDbEntity
  8
BEZUGSACHSEN
  6
Continuous
 62
     9
100
AcDbLine
 10
43.4509502141
 20
304.6992732869
 30
0.0
 11
43.4509502141
 21
311.0479208744
 31
0.0
  0
LINE
  5
F4
330
1F
100
AcDbEntity
  8
BEZUGSACHSEN
  6
Continuous
 62
     9
100
AcDbLine
 10
43.4509502141
 20
278.3306256995
 30
0.0
 11
43.4509502141
 21
284.6792732869
 31
0.0
  0
LINE
  5
F5
330
1F
100
AcDbEntity
  8
BEZUGSACHSEN
  6
Continuous
 62
     7
100
AcDbLine
 10
37.4509502141
 20
304.6992732869
 30
0.0
 11
37.4509502141
 21
307.0929132353
 31
0.0
  0
LINE
  5
F6
330
1F
100
AcDbEntity
  8
BEZUGSACHSEN
  6
Continuous
 62
     7
100
AcDbLine
 10
37.4509502141
 20
282.2856333386
 30
0.0
 11
37.4509502141
 21
284.6792732869
 31
0.0
  0
LINE
  5
F7
330
1F
100
AcDbEntity
  8
BEZUGSACHSEN
  6
Continuous
 62
     9
100
AcDbLine
 10
37.3508757294
 20
279.0127409007
 30
0.0
 11
37.3508757294
 21
259.0915870186
 31
0.0
  0
LINE
  5
F8
330
1F
100
AcDbEntity
  8
BEZUGSACHSEN
  6
Continuous
 62
     9
100
AcDbLine
 10
37.3508757294
 20
330.2869595553
 30
0.0
 11
37.3508757294
 21
310.3658056732
 31
0.0
  0
LINE
  5
F9
330
1F
100
AcDbEntity
  8
BEZUGSACHSEN
  6
Continuous
 62
     7
100
AcDbLine
 10
35.4509502141
 20
306.6992732869
 30
0.0
 11
35.4509502141
 21
328.2894648495
 31
0.0
  0
LINE
  5
FA
330
1F
100
AcDbEntity
  8
BEZUGSACHSEN
  6
Continuous
 62
     7
100
AcDbLine
 10
35.4509502141
 20
261.089081724
 30
0.0
 11
35.4509502141
 21
282.6792732869
 31
0.0
  0
LINE
  5
FB
330
1F
100
AcDbEntity
  8
0
  6
Continuous
 62
     7
100
AcDbLine
 10
114.4509502141
 20
256.2926406781344
 30
0.0
 11
114.4509502141
 21
244.6893102824
 31
0.0
  0
LWPOLYLINE
  5
FC
330
1F
100
AcDbEntity
  8
1
  6
Continuous
 62
     7
100
AcDbPolyline
 90
        2
 70
     0
 43
0.5
 10
114.4509502141
 20
256.2926406781344
 10
114.4509502141
 20
333.0859058956482
  0
ARC
  5
FD
330
1F
100
AcDbEntity
  8
BEZUGSACHSEN
  6
Continuous
 62
     7
100
AcDbCircle
 10
106.3259502141
 20
341.6892732869
 30
0.0
 40
1.0
100
AcDbArc
 50
270.0
 51
0.0
  0
ARC
  5
FE
330
1F
100
AcDbEntity
  8
RUNDUNGEN
  6
Continuous
 62
     7
100
AcDbCircle
 10
218.3651637765
 20
311.6892732869
 30
0.0
 40
0.999999999948298
100
AcDbArc
 50
224.9999999959479
 51
270.0
  0
ARC
  5
FF
330
1F
100
AcDbEntity
  8
RUNDUNGEN
  6
Continuous
 62
     7
100
AcDbCircle
 10
226.7009502141
 20
314.4392732869
 30
0.0
 40
1.25
100
AcDbArc
 50
90.0
 51
180.0
  0
ARC
  5
100
330
1F
100
AcDbEntity
  8
RUNDUNGEN
  6
Continuous
 62
     7
100
AcDbCircle
 10
211.708309527
 20
312.6892732869
 30
0.0
 40
3.00000000005708
100
AcDbArc
 50
45.00000000000039
 51
90.0
  0
ARC
  5
101
330
1F
100
AcDbEntity
  8
0
  6
Continuous
 62
     7
100
AcDbCircle
 10
219.7378025789
 20
303.8020463632
 30
0.0
 40
23.85086839080033
100
AcDbArc
 50
354.5828651965991
 51
5.41713480326834
  0
ARC
  5
102
330
1F
100
AcDbEntity
  8
RUNDUNGEN
  6
Continuous
 62
     9
100
AcDbCircle
 10
211.3385189221
 20
304.1565452822
 30
0.0
 40
23.91007963479989
100
AcDbArc
 50
355.4689191685004
 51
5.7695250236002
  0
ARC
  5
103
330
1F
100
AcDbEntity
  8
RUNDUNGEN
  6
Continuous
 62
     9
100
AcDbCircle
 10
210.828572213
 20
303.8034153589
 30
0.0
 40
25.63248511930008
100
AcDbArc
 50
356.5648740346995
 51
5.03652763720088
  0
ARC
  5
104
330
1F
100
AcDbEntity
  8
0
  6
Continuous
 62
     7
100
AcDbCircle
 10
352.6427389741
 20
365.5068479199
 30
0.0
 40
267.5030866025001
100
AcDbArc
 50
203.4997914449001
 51
204.2265050855213
  0
ARC
  5
105
330
1F
100
AcDbEntity
  8
0
  6
Continuous
 62
     7
100
AcDbCircle
 10
169.4509502141
 20
665.6892732869
 30
0.0
 40
349.9999999999999
100
AcDbArc
 50
263.1423515846494
 51
270.0
  0
ARC
  5
106
330
1F
100
AcDbEntity
  8
BEZUGSACHSEN
  6
Continuous
 62
     7
100
AcDbCircle
 10
221.7809968176
 20
1900.7320326238
 30
0.0
 40
1632.1727637452
100
AcDbArc
 50
263.5119093102
 51
263.7273810162
  0
ARC
  5
107
330
1F
100
AcDbEntity
  8
BEZUGSACHSEN
  6
Continuous
 62
     7
100
AcDbCircle
 10
106.3259502141
 20
247.6892732869
 30
0.0
 40
1.0
100
AcDbArc
 50
0.0
 51
90.0
  0
ARC
  5
108
330
1F
100
AcDbEntity
  8
RUNDUNGEN
  6
Continuous
 62
     7
100
AcDbCircle
 10
218.3651637765
 20
277.6892732869
 30
0.0
 40
1.0
100
AcDbArc
 50
90.0
 51
135.0000000000011
  0
ARC
  5
109
330
1F
100
AcDbEntity
  8
RUNDUNGEN
  6
Continuous
 62
     7
100
AcDbCircle
 10
226.7009502141
 20
274.9392732869
 30
0.0
 40
1.25
100
AcDbArc
 50
180.0
 51
270.0
  0
ARC
  5
10A
330
1F
100
AcDbEntity
  8
RUNDUNGEN
  6
Continuous
 62
     7
100
AcDbCircle
 10
211.708309527
 20
276.6892732869
 30
0.0
 40
3.0
100
AcDbArc
 50
270.0
 51
315.0000000013499
  0
ARC
  5
10B
330
1F
100
AcDbEntity
  8
0
  6
Continuous
 62
     7
100
AcDbCircle
 10
219.7378025789
 20
285.5765002107
 30
0.0
 40
23.85086839085234
100
AcDbArc
 50
354.5828651967318
 51
5.41713480340089
  0
ARC
  5
10C
330
1F
100
AcDbEntity
  8
RUNDUNGEN
  6
Continuous
 62
     9
100
AcDbCircle
 10
211.3387135285
 20
285.2220111944
 30
0.0
 40
23.90988604619992
100
AcDbArc
 50
354.2304041615988
 51
4.53095858429908
  0
ARC
  5
10D
330
1F
100
AcDbEntity
  8
RUNDUNGEN
  6
Continuous
 62
     9
100
AcDbCircle
 10
210.8286842018
 20
285.5751442837
 30
0.0
 40
25.63237385590717
100
AcDbArc
 50
354.9634211201504
 51
3.43512918410034
  0
ARC
  5
10E
330
1F
100
AcDbEntity
  8
0
  6
Continuous
 62
     7
100
AcDbCircle
 10
169.4509502141
 20
-76.3107267131
 30
0.0
 40
350.0
100
AcDbArc
 50
90.0
 51
96.85764841535104
  0
ARC
  5
10F
330
1F
100
AcDbEntity
  8
BEZUGSACHSEN
  6
Continuous
 62
     7
100
AcDbCircle
 10
221.7809968123
 20
-1311.353486003
 30
0.0
 40
1632.172763698
100
AcDbArc
 50
96.2726189838
 51
96.48809068979999
  0
ARC
  5
110
330
1F
100
AcDbEntity
  8
BEZUGSACHSEN
  6
Continuous
 62
     7
100
AcDbCircle
 10
84.7503789255
 20
333.3715232869
 30
0.0
 40
1.0
100
AcDbArc
 50
270.0
 51
314.5097387987131
  0
ARC
  5
111
330
1F
100
AcDbEntity
  8
BEZUGSACHSEN
  6
Continuous
 62
     7
100
AcDbCircle
 10
83.8290128732
 20
333.3715232869
 30
0.0
 40
1.000000000009914
100
AcDbArc
 50
255.0000000003019
 51
270.0
  0
ARC
  5
112
330
1F
100
AcDbEntity
  8
BEZUGSACHSEN
  6
Continuous
 62
     7
100
AcDbCircle
 10
104.5759502141
 20
341.6892732869
 30
0.0
 40
1.0
100
AcDbArc
 50
180.0
 51
270.0
  0
ARC
  5
113
330
1F
100
AcDbEntity
  8
BEZUGSACHSEN
  6
Continuous
 62
     7
100
AcDbCircle
 10
37.4509502141
 20
328.28946485
 30
0.0
 40
2.000000000047347
100
AcDbArc
 50
92.86812048629807
 51
180.0000000143238
  0
ARC
  5
114
330
1F
100
AcDbEntity
  8
BEZUGSACHSEN
  6
Continuous
 62
     7
100
AcDbCircle
 10
43.4509502141
 20
302.6992732869
 30
0.0
 40
1.999999999999992
100
AcDbArc
 50
4.76446378498877
 51
90.0
  0
ARC
  5
115
330
1F
100
AcDbEntity
  8
FASEN
  6
Continuous
 62
     7
100
AcDbCircle
 10
100.4219502141
 20
294.6892732869
 30
0.0
 40
9.620999207599993
100
AcDbArc
 50
90.0
 51
270.0
  0
ARC
  5
116
330
1F
100
AcDbEntity
  8
0
  6
Continuous
 62
     7
100
AcDbCircle
 10
100.4219502141
 20
294.6892732869
 30
0.0
 40
10.02100000000002
100
AcDbArc
 50
90.0
 51
270.0
  0
ARC
  5
117
330
1F
100
AcDbEntity
  8
BEZUGSACHSEN
  6
Continuous
 62
     7
100
AcDbCircle
 10
92.4357422131
 20
394.7420428531
 30
0.0
 40
50.30340000969736
100
AcDbArc
 50
270.017321976058
 51
275.7218485011431
  0
ARC
  5
118
330
1F
100
AcDbEntity
  8
BEZUGSACHSEN
  6
Continuous
 62
     7
100
AcDbCircle
 10
92.4661582253
 20
394.7420430538
 30
0.0
 40
50.3034002103998
100
AcDbArc
 50
264.2781515102
 51
269.9826780125999
  0
ARC
  5
119
330
1F
100
AcDbEntity
  8
0
  6
Continuous
 62
     7
100
AcDbCircle
 10
-141.7408385451
 20
365.5068479196
 30
0.0
 40
267.5030866016955
100
AcDbArc
 50
335.7734949144669
 51
336.5002085551001
  0
ARC
  5
11A
330
1F
100
AcDbEntity
  8
BEZUGSACHSEN
  6
Continuous
 62
     7
100
AcDbCircle
 10
84.7503789255
 20
256.0070232869
 30
0.0
 40
0.9999999999998127
100
AcDbArc
 50
45.49026120128689
 51
90.0
  0
ARC
  5
11B
330
1F
100
AcDbEntity
  8
BEZUGSACHSEN
  6
Continuous
 62
     7
100
AcDbCircle
 10
83.8290128732
 20
256.0070232869
 30
0.0
 40
1.0
100
AcDbArc
 50
90.0
 51
104.9999999996981
  0
ARC
  5
11C
330
1F
100
AcDbEntity
  8
BEZUGSACHSEN
  6
Continuous
 62
     7
100
AcDbCircle
 10
104.5759502141
 20
247.6892732869
 30
0.0
 40
1.0
100
AcDbArc
 50
90.0
 51
180.0
  0
ARC
  5
11D
330
1F
100
AcDbEntity
  8
BEZUGSACHSEN
  6
Continuous
 62
     7
100
AcDbCircle
 10
37.4509502141
 20
261.0890817239
 30
0.0
 40
2.0
100
AcDbArc
 50
179.9999999971356
 51
267.131879513702
  0
ARC
  5
11E
330
1F
100
AcDbEntity
  8
BEZUGSACHSEN
  6
Continuous
 62
     7
100
AcDbCircle
 10
43.4509502141
 20
286.6792732869
 30
0.0
 40
2.0
100
AcDbArc
 50
270.0
 51
355.235536186493
  0
ARC
  5
11F
330
1F
100
AcDbEntity
  8
FASEN
  6
Continuous
 62
     7
100
AcDbCircle
 10
98.3840164694
 20
255.3392732869
 30
0.0
 40
7.599980211799988
100
AcDbArc
 50
90.0
 51
176.9903069153985
  0
ARC
  5
120
330
1F
100
AcDbEntity
  8
FASEN
  6
Continuous
 62
     7
100
AcDbCircle
 10
98.3840164694
 20
255.3392732869
 30
0.0
 40
7.999999999999972
100
AcDbArc
 50
90.0
 51
174.804804932397
  0
ARC
  5
121
330
1F
100
AcDbEntity
  8
FASEN
  6
Continuous
 62
     7
100
AcDbCircle
 10
103.2038317142
 20
270.5228064587
 30
0.0
 40
19.30214621120011
100
AcDbArc
 50
228.5120350855002
 51
229.9916611024049
  0
CIRCLE
  5
122
330
1F
100
AcDbEntity
  8
BEZUGSACHSEN
  6
Continuous
 62
     7
100
AcDbCircle
 10
70.4509502141
 20
294.6892732869
 30
0.0
 40
6.0
  0
SPLINE
  5
123
330
1F
100
AcDbEntity
  8
FASEN
  6
Continuous
 62
     7
100
AcDbSpline
210
0.0
220
0.0
230
1.0
 70
    24
 71
     3
 72
     9
 73
     5
 74
     3
 42
0.0000000001
 43
0.0000000001
 44
0.00000001
 40
0.0
 40
0.0
 40
0.0
 40
0.0
 40
0.2578063726614822
 40
0.5156127453229643
 40
0.5156127453229643
 40
0.5156127453229643
 40
0.5156127453229643
 10
114.000950215182
 20
255.738310526884
 30
0.0
 10
114.067616881376
 20
255.7925365214213
 30
0.0
 10
114.200950213764
 20
255.900988510496
 30
0.0
 10
114.334283546152
 20
256.0094404995706
 30
0.0
 10
114.400950212346
 20
256.063666494108
 30
0.0
 11
114.000950215182
 21
255.738310526884
 31
0.0
 11
114.200950213764
 21
255.900988510496
 31
0.0
 11
114.400950212346
 21
256.063666494108
 31
0.0
  0
SPLINE
  5
124
330
1F
100
AcDbEntity
  8
BEZUGSACHSEN
  6
Continuous
 62
     7
100
AcDbSpline
210
0.0
220
0.0
230
1.0
 70
     8
 71
     3
 72
    11
 73
     7
 74
     5
 42
0.0000000001
 43
0.0000000001
 44
0.00000001
 40
0.0
 40
0.0
 40
0.0
 40
0.0
 40
0.8249192366724182
 40
1.650116891930987
 40
2.190492152293479
 40
2.730585915378248
 40
2.730585915378248
 40
2.730585915378248
 40
2.730585915378248
 10
37.4509502141
 20
307.0929132353
 30
0.0
 10
37.4332169097618
 20
307.3681035272768
 30
0.0
 10
37.39774431591585
 20
307.9185769907376
 30
0.0
 10
37.18930949928045
 20
308.6233105758907
 30
0.0
 10
36.95908306830079
 20
309.2155243009707
 30
0.0
 10
36.79828248549882
 20
309.538051634416
 30
0.0
 10
36.7179031409854
 20
309.699273286715
 30
0.0
 11
37.4509502141
 21
307.0929132353
 31
0.0
 11
37.36737475998427
 21
307.9135878909959
 31
0.0
 11
37.14941331787249
 21
308.7094798308952
 31
0.0
 11
36.95147823931331
 21
309.2122990098131
 31
0.0
 11
36.7179031409854
 21
309.699273286715
 31
0.0
  0
SPLINE
  5
125
330
1F
100
AcDbEntity
  8
BEZUGSACHSEN
  6
Continuous
 62
     7
100
AcDbSpline
210
0.0
220
0.0
230
1.0
 70
     8
 71
     3
 72
    11
 73
     7
 74
     5
 42
0.0000000001
 43
0.0000000001
 44
0.00000001
 40
0.0
 40
0.0
 40
0.0
 40
0.0
 40
0.9140556660003448
 40
1.828030949185949
 40
2.279806974883416
 40
2.730944124862247
 40
2.730944124862247
 40
2.730944124862247
 40
2.730944124862247
 10
36.7179031409854
 20
279.679273287085
 30
0.0
 10
36.85055784794866
 20
279.9539898847515
 30
0.0
 10
37.11585559611004
 20
280.503398921279
 30
0.0
 10
37.3312108094253
 20
281.2361098423873
 30
0.0
 10
37.43490502308976
 20
281.834055048527
 30
0.0
 10
37.44560434060764
 20
282.1351782639873
 30
0.0
 10
37.4509502141
 20
282.2856333386
 30
0.0
 11
36.7179031409854
 21
279.679273287085
 31
0.0
 11
37.09271067076089
 21
280.5129501286555
 31
0.0
 11
37.35200203115878
 21
281.389374003671
 31
0.0
 11
37.42471900465738
 21
281.8352594364451
 31
0.0
 11
37.4509502141
 21
282.2856333386
 31
0.0
  0
SPLINE
  5
126
330
1F
100
AcDbEntity
  8
BEZUGSACHSEN
  6
Continuous
 62
     7
100
AcDbSpline
210
0.0
220
0.0
230
1.0
 70
     8
 71
     3
 72
    15
 73
    11
 74
     9
 42
0.0000000001
 43
0.0000000001
 44
0.00000001
 40
0.0
 40
0.0
 40
0.0
 40
0.0
 40
0.111094483135318
 40
0.2222295181604978
 40
0.333362040223751
 40
0.4444752610525154
 40
0.5555842178285209
 40
0.6667300353886384
 40
0.7779450181442439
 40
0.888982087153916
 40
0.888982087153916
 40
0.888982087153916
 40
0.888982087153916
 10
36.5967928897
 20
309.9316092824
 30
0.0
 10
36.62217824927734
 20
309.958585648075
 30
0.0
 10
36.67295823463747
 20
310.0125482263821
 30
0.0
 10
36.75521100390156
 20
310.0874301897859
 30
0.0
 10
36.84220765584926
 20
310.1567168987157
 30
0.0
 10
36.93451249626708
 20
310.2188120618111
 30
0.0
 10
37.03196251824343
 20
310.2725915539191
 30
0.0
 10
37.13437543209536
 20
310.3161817994952
 30
0.0
 10
37.24089193066376
 20
310.349200355342
 30
0.0
 10
37.31423403337996
 20
310.3602735219536
 30
0.0
 10
37.3508757294
 20
310.3658056732
 30
0.0
 11
36.5967928897
 21
309.9316092824
 31
0.0
 11
36.67396166681441
 21
310.0115277660053
 31
0.0
 11
36.75600156707827
 21
310.0864974317025
 31
0.0
 11
36.84309871568935
 21
310.1555229643984
 31
0.0
 11
36.93537053726192
 21
310.2174265893862
 31
0.0
 11
37.03277344532404
 21
310.2708856744596
 31
0.0
 11
37.135041668691
 21
310.3144127149112
 31
0.0
 11
37.24153353678108
 21
310.3464791213206
 31
0.0
 11
37.3508757294
 21
310.3658056732
 31
0.0
  0
SPLINE
  5
127
330
1F
100
AcDbEntity
  8
BEZUGSACHSEN
  6
Continuous
 62
     7
100
AcDbSpline
210
0.0
220
0.0
230
1.0
 70
     8
 71
     3
 72
    19
 73
    15
 74
    13
 42
0.0000000001
 43
0.0000000001
 44
0.00000001
 40
0.0
 40
0.0
 40
0.0
 40
0.0
 40
0.2679411643010107
 40
0.5361267936528944
 40
0.8065304773314368
 40
1.076465993182525
 40
1.213913376080432
 40
1.35135310479718
 40
1.491586366983037
 40
1.631807897482126
 40
1.775491562693768
 40
1.919219204672135
 40
2.065713007316877
 40
2.211936409327974
 40
2.211936409327974
 40
2.211936409327974
 40
2.211936409327974
 10
45.004796161
 20
279.6792732869
 30
0.0
 10
44.97090191723535
 20
279.596601707194
 30
0.0
 10
44.90308250516318
 20
279.431183119611
 30
0.0
 10
44.77844399887155
 20
279.1925171459569
 30
0.0
 10
44.63353319953838
 20
278.9648291499548
 30
0.0
 10
44.49048956801583
 20
278.7890246586471
 30
0.0
 10
44.36138318111205
 20
278.6610749395371
 30
0.0
 10
44.25526808204857
 20
278.5719879187338
 30
0.0
 10
44.14045865440998
 20
278.4926862783957
 30
0.0
 10
44.01599904218017
 20
278.4250158109431
 30
0.0
 10
43.88314548703511
 20
278.3722131242814
 30
0.0
 10
43.74249468815407
 20
278.3370468603126
 30
0.0
 10
43.59716930503407
 20
278.320694658383
 30
0.0
 10
43.49965988595675
 20
278.3273173917344
 30
0.0
 10
43.4509502141
 20
278.3306256995
 30
0.0
 11
45.004796161
 21
279.6792732869
 31
0.0
 11
44.89935890136857
 21
279.4329494110609
 31
0.0
 11
44.77548938580444
 21
279.1950841657963
 31
0.0
 11
44.62914389949116
 21
278.9677052952242
 31
0.0
 11
44.45789170836267
 21
278.7590479930479
 31
0.0
 11
44.36009926968335
 21
278.662464236636
 31
0.0
 11
44.25468228042866
 21
278.5742772908549
 31
0.0
 11
44.13914363671523
 21
278.4948028318624
 31
0.0
 11
44.01582162682187
 21
278.4280663389116
 31
0.0
 11
43.882190938622
 21
278.3752663879658
 31
0.0
 11
43.74276323741422
 21
278.3403729615852
 31
0.0
 11
43.59706879888356
 21
278.3250901347999
 31
0.0
 11
43.4509502141
 21
278.3306256995
 31
0.0
  0
SPLINE
  5
128
330
1F
100
AcDbEntity
  8
BEZUGSACHSEN
  6
Continuous
 62
     7
100
AcDbSpline
210
0.0
220
0.0
230
1.0
 70
     8
 71
     3
 72
    11
 73
     7
 74
     5
 42
0.0000000001
 43
0.0000000001
 44
0.00000001
 40
0.0
 40
0.0
 40
0.0
 40
0.0
 40
0.5521269406194333
 40
1.105196183264976
 40
1.651906304669088
 40
2.198197048716902
 40
2.198197048716902
 40
2.198197048716902
 40
2.198197048716902
 10
45.4509502141
 20
281.8196177611
 30
0.0
 10
45.44436477647093
 20
281.6354825707173
 30
0.0
 10
45.43118266200176
 20
281.2668979307658
 30
0.0
 10
45.33369429820433
 20
280.7234735260908
 30
0.0
 10
45.19405698518089
 20
280.1921993965436
 30
0.0
 10
45.0678669629621
 20
279.8502049164252
 30
0.0
 10
45.004796161
 20
279.6792732869
 30
0.0
 11
45.4509502141
 21
281.8196177611
 31
0.0
 11
45.41820563167319
 21
281.2684626550913
 31
0.0
 11
45.32613897872982
 21
280.7231101832198
 31
0.0
 11
45.18564749389641
 21
280.1947598264157
 31
0.0
 11
45.004796161
 21
279.6792732869
 31
0.0
  0
SPLINE
  5
129
330
1F
100
AcDbEntity
  8
BEZUGSACHSEN
  6
Continuous
 62
     7
100
AcDbSpline
210
0.0
220
0.0
230
1.0
 70
     8
 71
     3
 72
    19
 73
    15
 74
    13
 42
0.0000000001
 43
0.0000000001
 44
0.00000001
 40
0.0
 40
0.0
 40
0.0
 40
0.0
 40
0.1462385988599965
 40
0.2927479275616304
 40
0.4364790706697208
 40
0.5801659236728545
 40
0.7203799973196627
 40
0.8606059383157183
 40
0.9980411884229172
 40
1.135484020432167
 40
1.405415631053887
 40
1.675815514048176
 40
1.943997429495161
 40
2.211934834802441
 40
2.211934834802441
 40
2.211934834802441
 40
2.211934834802441
 10
43.4509502141
 20
311.0479208744
 30
0.0
 10
43.49966501946719
 20
311.0512289517116
 30
0.0
 10
43.59718481536231
 20
311.0578512305406
 30
0.0
 10
43.74252107569
 20
311.0414919177918
 30
0.0
 10
43.88317801279965
 20
311.0063201517188
 30
0.0
 10
44.01603014623702
 20
310.9535144650886
 30
0.0
 10
44.14048460929682
 20
310.8858426773442
 30
0.0
 10
44.25528716646065
 20
310.8065424759518
 30
0.0
 10
44.361397104231
 20
310.7174578363855
 30
0.0
 10
44.4904995693881
 20
310.5895103008386
 30
0.0
 10
44.63353941926675
 20
310.4137080119477
 30
0.0
 10
44.77844702095845
 20
310.1860225460728
 30
0.0
 10
44.90308376941594
 20
309.9473599265763
 30
0.0
 10
44.97090234057004
 20
309.7819436861041
 30
0.0
 10
45.004796161
 20
309.6992732869
 30
0.0
 11
43.4509502141
 21
311.0479208744
 31
0.0
 11
43.5970840760044
 21
311.0534546074474
 31
0.0
 11
43.74279343684854
 21
311.0381652137709
 31
0.0
 11
43.8822235183743
 21
311.0032668776375
 31
0.0
 11
44.01585585528507
 21
310.9504624246273
 31
0.0
 11
44.13916964610243
 21
310.8837264115393
 31
0.0
 11
44.25470075743014
 21
310.8042539204268
 31
0.0
 11
44.36011330719299
 21
310.7160686477079
 31
0.0
 11
44.4579018108605
 21
310.6194873833695
 31
0.0
 11
44.62915020672176
 21
310.4108320184067
 31
0.0
 11
44.77549262725233
 21
310.1834556944928
 31
0.0
 11
44.89936025305909
 21
309.9455936524394
 31
0.0
 11
45.004796161
 21
309.6992732869
 31
0.0
  0
SPLINE
  5
12A
330
1F
100
AcDbEntity
  8
BEZUGSACHSEN
  6
Continuous
 62
     7
100
AcDbSpline
210
0.0
220
0.0
230
1.0
 70
     8
 71
     3
 72
    11
 73
     7
 74
     5
 42
0.0000000001
 43
0.0000000001
 44
0.00000001
 40
0.0
 40
0.0
 40
0.0
 40
0.0
 40
0.546290743104146
 40
1.093000863589369
 40
1.646070107119415
 40
2.19819704871662
 40
2.19819704871662
 40
2.19819704871662
 40
2.19819704871662
 10
45.004796161
 20
309.6992732869
 30
0.0
 10
45.06786696286547
 20
309.5283416576747
 30
0.0
 10
45.19405698489388
 20
309.1863471781481
 30
0.0
 10
45.33369429791983
 20
308.6550730489433
 30
0.0
 10
45.43118266193243
 20
308.1116486439823
 30
0.0
 10
45.44436477644747
 20
307.7430640034091
 30
0.0
 10
45.4509502141
 20
307.5589288127
 30
0.0
 11
45.004796161
 21
309.6992732869
 31
0.0
 11
45.1856474936292
 21
309.1837867482906
 31
0.0
 11
45.32613897832751
 21
308.6554363924014
 31
0.0
 11
45.41820563155792
 21
308.1100839196814
 31
0.0
 11
45.4509502141
 21
307.5589288127
 31
0.0
  0
SPLINE
  5
12B
330
1F
100
AcDbEntity
  8
0
  6
Continuous
 62
     7
100
AcDbSpline
210
0.0
220
0.0
230
1.0
 70
     8
 71
     3
 72
    19
 73
    15
 74
    13
 42
0.0000000001
 43
0.0000000001
 44
0.00000001
 40
0.0
 40
0.0
 40
0.0
 40
0.0
 40
0.2317668197501186
 40
0.4640724028543222
 40
0.6963664518793892
 40
0.9280727902811539
 40
1.044168501192835
 40
1.160231315470851
 40
1.276313911478904
 40
1.392390051202906
 40
1.508462883838469
 40
1.624578659526005
 40
1.740832696851726
 40
1.856795195316477
 40
1.856795195316477
 40
1.856795195316477
 40
1.856795195316477
 10
107.3259502141
 20
259.6724558987
 30
0.0
 10
107.3230982160027
 20
259.7497661043887
 30
0.0
 10
107.3173875900756
 20
259.9045662304715
 30
0.0
 10
107.2707216692911
 20
260.1329870539255
 30
0.0
 10
107.1956296650884
 20
260.3532479440203
 30
0.0
 10
107.1054453427497
 20
260.5254058583824
 30
0.0
 10
107.0166588849508
 20
260.6522089859494
 30
0.0
 10
106.9412754469631
 20
260.7407368258006
 30
0.0
 10
106.8571453320095
 20
260.8210383721839
 30
0.0
 10
106.7643912559523
 20
260.8912700880149
 30
0.0
 10
106.6635007944075
 20
260.9494395562277
 30
0.0
 10
106.5554818010825
 20
260.9929387574618
 30
0.0
 10
106.4421148020956
 20
261.0210967216286
 30
0.0
 10
106.3646393209439
 20
261.0247480186968
 30
0.0
 10
106.3259502141
 20
261.0265713752
 30
0.0
 11
107.3259502141
 21
259.6724558987
 31
0.0
 11
107.3110618314778
 21
259.9037440194498
 31
0.0
 11
107.265978266191
 21
260.1316329311643
 31
0.0
 11
107.1900282352595
 21
260.3511599637001
 31
0.0
 11
107.0819239686577
 21
260.5561021379787
 31
0.0
 11
107.0151975161228
 21
260.6511063201192
 31
0.0
 11
106.9398215064442
 21
260.7393618243275
 31
0.0
 11
106.8557067418391
 21
260.81936104602
 31
0.0
 11
106.7630359057871
 21
260.8892594462781
 31
0.0
 11
106.6623347122466
 21
260.946984415707
 31
0.0
 11
106.554628123021
 21
260.9903683297871
 31
0.0
 11
106.4415439483133
 21
261.0173307225816
 31
0.0
 11
106.3259502141
 21
261.0265713752
 31
0.0
  0
SPLINE
  5
12C
330
1F
100
AcDbEntity
  8
0
  6
Continuous
 62
     7
100
AcDbSpline
210
0.0
220
0.0
230
1.0
 70
     8
 71
     3
 72
    19
 73
    15
 74
    13
 42
0.0000000001
 43
0.0000000001
 44
0.00000001
 40
0.0
 40
0.0
 40
0.0
 40
0.0
 40
0.1159638160000658
 40
0.2322191967866206
 40
0.3483355686751728
 40
0.464408976697871
 40
0.5804847760498515
 40
0.6965670370119349
 40
0.8126291299680818
 40
0.9287241177799643
 40
1.160429553148114
 40
1.392722689940245
 40
1.625028291376905
 40
1.856795134137395
 40
1.856795134137395
 40
1.856795134137395
 40
1.856795134137395
 10
104.5759502141
 20
261.0265713752
 30
0.0
 10
104.5372606670278
 20
261.0247479551826
 30
0.0
 10
104.4597842967682
 20
261.0210965305706
 30
0.0
 10
104.3464163347507
 20
260.9929378570115
 30
0.0
 10
104.2383967064221
 20
260.9494380038079
 30
0.0
 10
104.1375061846297
 20
260.8912680748706
 30
0.0
 10
104.0447523764249
 20
260.8210360635329
 30
0.0
 10
103.9606228490353
 20
260.7407345788489
 30
0.0
 10
103.8852400282313
 20
260.6522069975225
 30
0.0
 10
103.7964542607377
 20
260.5254043469649
 30
0.0
 10
103.7062704937593
 20
260.3532471147954
 30
0.0
 10
103.6311787131351
 20
260.1329867891736
 30
0.0
 10
103.5845128397352
 20
259.9045662518366
 30
0.0
 10
103.5788022127532
 20
259.7497661120306
 30
0.0
 10
103.5759502141
 20
259.6724558987
 30
0.0
 11
104.5759502141
 21
261.0265713752
 31
0.0
 11
104.4603551809958
 21
261.0173304367771
 31
0.0
 11
104.3472697908647
 21
260.9903673490323
 31
0.0
 11
104.2395627943032
 21
260.9469828505075
 31
0.0
 11
104.1388612916717
 21
260.8892572633059
 31
0.0
 11
104.0461909652482
 21
260.8193587526224
 31
0.0
 11
103.962076691438
 21
260.7393595010544
 31
0.0
 11
103.886701379116
 21
260.6511043498522
 31
0.0
 11
103.8199755200932
 21
260.5561006344895
 31
0.0
 11
103.7118718734928
 21
260.3511591541327
 31
0.0
 11
103.6359221816686
 21
260.1316329695612
 31
0.0
 11
103.5908386007715
 21
259.9037440422471
 31
0.0
 11
103.5759502141
 21
259.6724558987
 31
0.0
  0
SPLINE
  5
12D
330
1F
100
AcDbEntity
  8
BEZUGSACHSEN
  6
Continuous
 62
     7
100
AcDbSpline
210
0.0
220
0.0
230
1.0
 70
     8
 71
     3
 72
    15
 73
    11
 74
     9
 42
0.0000000001
 43
0.0000000001
 44
0.00000001
 40
0.0
 40
0.0
 40
0.0
 40
0.0
 40
0.1110371613065863
 40
0.2222522337000065
 40
0.3333980191780675
 40
0.4445069474990853
 40
0.555620106553246
 40
0.6667525642479748
 40
0.7778876033612062
 40
0.888982091588188
 40
0.888982091588188
 40
0.888982091588188
 40
0.888982091588188
 10
37.3508757294
 20
279.0127409007
 30
0.0
 10
37.31423400253949
 20
279.0182730535146
 30
0.0
 10
37.24089183901923
 20
279.0293462231252
 30
0.0
 10
37.13437528900655
 20
279.062364786649
 30
0.0
 10
37.03196238124271
 20
279.1059550741318
 30
0.0
 10
36.93451241561468
 20
279.1597345819826
 30
0.0
 10
36.84220761988481
 20
279.2218297173565
 30
0.0
 10
36.75521099175842
 20
279.2911163909911
 30
0.0
 10
36.67295823627816
 20
279.3659983425699
 30
0.0
 10
36.62217824990074
 20
279.4199609240944
 30
0.0
 10
36.5967928897
 20
279.4469372915
 30
0.0
 11
37.3508757294
 21
279.0127409007
 31
0.0
 11
37.24153344434916
 21
279.0320674599097
 31
0.0
 11
37.1350414907465
 21
279.0641338932218
 31
0.0
 11
37.03277331011744
 21
279.1076609521663
 31
0.0
 11
36.93537044365977
 21
279.1611200539028
 31
0.0
 11
36.84309867687315
 21
279.2230236496713
 31
0.0
 11
36.75600157346437
 21
279.2920491357694
 31
0.0
 11
36.67396166897783
 21
279.3670188029058
 31
0.0
 11
36.5967928897
 21
279.4469372915
 31
0.0
  0
SPLINE
  5
12E
330
1F
100
AcDbEntity
  8
BEZUGSACHSEN
  6
Continuous
 62
     7
100
AcDbSpline
210
0.0
220
0.0
230
1.0
 70
     8
 71
     3
 72
    27
 73
    23
 74
    21
 42
0.0000000001
 43
0.0000000001
 44
0.00000001
 40
0.0
 40
0.0
 40
0.0
 40
0.0
 40
0.1219765139516125
 40
0.2439857714748778
 40
0.3566831398307364
 40
0.4694418149413617
 40
0.5721317672399273
 40
0.6745445880592557
 40
0.7225206520839121
 40
0.7704888797394539
 40
0.8171412935597362
 40
0.8637898733782121
 40
0.9102318000573133
 40
0.9566751324151533
 40
1.004175175761437
 40
1.051683100149241
 40
1.153672388723842
 40
1.256049376626725
 40
1.370745138032656
 40
1.485385401817008
 40
1.611534903866984
 40
1.737631875999367
 40
1.737631875999367
 40
1.737631875999367
 40
1.737631875999367
 10
36.5967928897
 20
279.4469372915
 30
0.0
 10
36.56153787209661
 20
279.4266577662351
 30
0.0
 10
36.49101837297619
 20
279.3860932718371
 30
0.0
 10
36.38336596979112
 20
279.3352974109456
 30
0.0
 10
36.27520795392671
 20
279.293545775079
 30
0.0
 10
36.16962873297776
 20
279.264131189937
 30
0.0
 10
36.06479718785081
 20
279.2472166025442
 30
0.0
 10
35.98006951800957
 20
279.2453513792981
 30
0.0
 10
35.91424558159357
 20
279.2523066872735
 30
0.0
 10
35.86753837837095
 20
279.2615038144102
 30
0.0
 10
35.82235776107899
 20
279.2750372594308
 30
0.0
 10
35.77921815044346
 20
279.2928305182792
 30
0.0
 10
35.73826367385311
 20
279.3150588759898
 30
0.0
 10
35.69961624735303
 20
279.341593907685
 30
0.0
 10
35.66371016870553
 20
279.3722891852164
 30
0.0
 10
35.61827084717573
 20
279.4198266583264
 30
0.0
 10
35.56972770711158
 20
279.4889960254071
 30
0.0
 10
35.52350199817263
 20
279.585154080104
 30
0.0
 10
35.48953612437692
 20
279.6907295130751
 30
0.0
 10
35.46658070016051
 20
279.8071472039775
 30
0.0
 10
35.45313614179496
 20
279.9288945126675
 30
0.0
 10
35.45167875549888
 20
280.0129978762187
 30
0.0
 10
35.4509502141
 20
280.0550408008
 30
0.0
 11
36.5967928897
 21
279.4469372915
 31
0.0
 11
36.49024826563946
 21
279.3875528403399
 31
0.0
 11
36.37995537647079
 21
279.3353825660431
 31
0.0
 11
36.27463736862116
 21
279.2952725416486
 31
0.0
 11
36.16591364009776
 21
279.2653782333497
 31
0.0
 11
36.06444948801104
 21
279.2495588735521
 31
0.0
 11
35.96204994742855
 21
279.2479096444391
 31
0.0
 11
35.91434609119506
 21
279.2530130569986
 31
0.0
 11
35.86729532092468
 21
279.2623498595229
 31
0.0
 11
35.82261575351224
 21
279.2757731218348
 31
0.0
 11
35.77950961693337
 21
279.2936043020629
 31
0.0
 11
35.73868702411779
 21
279.3157485669972
 31
0.0
 11
35.70039976754049
 21
279.3420367602459
 31
0.0
 11
35.6642626705157
 21
279.372864740013
 31
0.0
 11
35.63141017014668
 21
279.4071826085241
 31
0.0
 11
35.5722377759237
 21
279.4902515121275
 31
0.0
 11
35.52733805234911
 21
279.5822572862669
 31
0.0
 11
35.49169989276903
 21
279.6912758134365
 31
0.0
 11
35.46884832937165
 21
279.8036154597366
 31
0.0
 11
35.45508157303221
 21
279.929011525414
 31
0.0
 11
35.4509502141
 21
280.0550408008
 31
0.0
  0
SPLINE
  5
12F
330
1F
100
AcDbEntity
  8
BEZUGSACHSEN
  6
Continuous
 62
     7
100
AcDbSpline
210
0.0
220
0.0
230
1.0
 70
     8
 71
     3
 72
    47
 73
    43
 74
    41
 42
0.0000000001
 43
0.0000000001
 44
0.00000001
 40
0.0
 40
0.0
 40
0.0
 40
0.0
 40
0.6302393214807323
 40
1.260854867359817
 40
1.577476088434104
 40
1.893930800251733
 40
2.210999113892183
 40
2.52818347223257
 40
3.164887038287277
 40
3.801951183445341
 40
4.442851001662351
 40
5.083381259820672
 40
5.404527292339277
 40
5.725573838781417
 40
6.046670710052641
 40
6.367871027178075
 40
7.009090242576519
 40
7.650619763986773
 40
8.290330346513123
 40
8.929958764496408
 40
9.56864701138086
 40
10.20735923018374
 40
10.84445705820139
 40
11.48152626498719
 40
12.11643462224535
 40
12.75141965580664
 40
13.38691908737713
 40
14.02211738530711
 40
14.34050449143116
 40
14.65879153793347
 40
14.97761586871465
 40
15.29653774949559
 40
15.93537694106496
 40
16.57458694070997
 40
17.21386274993598
 40
17.85277859076535
 40
18.17219860085972
 40
18.49150024080283
 40
18.81067156638613
 40
19.13001452423478
 40
19.76719627026491
 40
20.40398968285352
 40
20.40398968285352
 40
20.40398968285352
 40
20.40398968285352
 10
76.950363852
 20
294.6892733057
 30
0.0
 10
76.94449465022957
 20
294.4791172838046
 30
0.0
 10
76.93275274304048
 20
294.0586797863643
 30
0.0
 10
76.85330600053041
 20
293.5375163440928
 30
0.0
 10
76.76257449543331
 20
293.1261248766726
 30
0.0
 10
76.67896911311169
 20
292.8204870363904
 30
0.0
 10
76.58061717173587
 20
292.5191031902051
 30
0.0
 10
76.4295983608802
 20
292.1231300106069
 30
0.0
 10
76.20431577327827
 20
291.6420232019152
 30
0.0
 10
75.87793773853437
 20
291.0923889769043
 30
0.0
 10
75.49807067650237
 20
290.576661114238
 30
0.0
 10
75.13981623722384
 20
290.1791357120347
 30
0.0
 10
74.83063549955777
 20
289.8835823570994
 30
0.0
 10
74.58771054352817
 20
289.6733974486656
 30
0.0
 10
74.33466164020047
 20
289.4754879843498
 30
0.0
 10
73.98487913173427
 20
289.2288646328823
 30
0.0
 10
73.52539389398837
 20
288.95365802358
 30
0.0
 10
72.94499818703764
 20
288.6796179168368
 30
0.0
 10
72.34084387920024
 20
288.4644294394992
 30
0.0
 10
71.71942873179093
 20
288.3097676004958
 30
0.0
 10
71.08615952035039
 20
288.2169572274771
 30
0.0
 10
70.44770005591016
 20
288.1864464776693
 30
0.0
 10
69.8098670423553
 20
288.2185482200511
 30
0.0
 10
69.17943705536231
 20
288.3123612824275
 30
0.0
 10
68.5618633858674
 20
288.4670750987162
 30
0.0
 10
67.96271997443763
 20
288.6808716707729
 30
0.0
 10
67.38726275296648
 20
288.9521930391862
 30
0.0
 10
66.93157736000668
 20
289.2240379228047
 30
0.0
 10
66.58432146225674
 20
289.4674984753897
 30
0.0
 10
66.33270188095113
 20
289.6629810017195
 30
0.0
 10
66.09082683068011
 20
289.8706740604339
 30
0.0
 10
65.7818905470048
 20
290.1635116085914
 30
0.0
 10
65.42304779011378
 20
290.5579692575318
 30
0.0
 10
65.04082088486429
 20
291.07145392347
 30
0.0
 10
64.71119643960068
 20
291.620221702173
 30
0.0
 10
64.48270899368045
 20
292.102285118663
 30
0.0
 10
64.32920749372087
 20
292.4996946778383
 30
0.0
 10
64.22895069080695
 20
292.8029770411304
 30
0.0
 10
64.14363419790922
 20
293.1108009128362
 30
0.0
 10
64.05087174257996
 20
293.5258417799469
 30
0.0
 10
63.96957937565169
 20
294.0521145790347
 30
0.0
 10
63.95753957609229
 20
294.4769302287508
 30
0.0
 10
63.9515215113
 20
294.6892733074
 30
0.0
 11
76.950363852
 21
294.6892733057
 31
0.0
 11
76.91982427322317
 21
294.0597743490141
 31
0.0
 11
76.8284929977076
 21
293.4358075511658
 31
0.0
 11
76.75999825900216
 21
293.1266838406481
 31
0.0
 11
76.67657943414123
 21
292.821421847779
 31
0.0
 11
76.57819269029119
 21
292.5200045885695
 31
0.0
 11
76.46516205918708
 21
292.2236433333285
 31
0.0
 11
76.19518192267475
 21
291.647013333315
 31
0.0
 11
75.8698453008214
 21
291.0992845614516
 31
0.0
 11
75.48980880602943
 21
290.5832178607075
 31
0.0
 11
75.06095830836873
 21
290.1074382244551
 31
0.0
 11
74.82882117399869
 21
289.8855212916876
 31
0.0
 11
74.58603868066236
 21
289.6754557164217
 31
0.0
 11
74.33310907236402
 21
289.4776431435497
 31
0.0
 11
74.07059467652968
 21
289.2925598225799
 31
0.0
 11
73.52053649493088
 21
288.963017596071
 31
0.0
 11
72.94039566327987
 21
288.6891622651166
 31
0.0
 11
72.33779035298834
 21
288.4744613815492
 31
0.0
 11
71.71709108266704
 21
288.3200044978748
 31
0.0
 11
71.08516226874464
 21
288.2273295236748
 31
0.0
 11
70.44717614156346
 21
288.1968828494319
 31
0.0
 11
69.8108811534386
 21
288.2288567536664
 31
0.0
 11
69.18075787933093
 21
288.3226748418078
 31
0.0
 11
68.56487397108948
 21
288.4769331760576
 31
0.0
 11
67.96684150127051
 21
288.6903884591711
 31
0.0
 11
67.3920057527238
 21
288.96135596593
 31
0.0
 11
66.84653906518243
 21
289.2868447836731
 31
0.0
 11
66.5858367724055
 21
289.4696142118795
 31
0.0
 11
66.33448752059718
 21
289.6648837629789
 31
0.0
 11
66.09260422224762
 21
289.8725888998379
 31
0.0
 11
65.86114839094743
 21
290.0919957461257
 31
0.0
 11
65.4312253600672
 21
290.5645226767908
 31
0.0
 11
65.0496042206094
 21
291.0773137936845
 31
0.0
 11
64.72037274643036
 21
291.6252920748887
 31
0.0
 11
64.44675843928633
 21
292.2026556194504
 31
0.0
 11
64.33166618682793
 21
292.5006202419691
 31
0.0
 11
64.23142649841199
 21
292.8037795105667
 31
0.0
 11
64.14625941821893
 21
293.1113781183756
 31
0.0
 11
64.07629639076416
 21
293.422962937513
 31
0.0
 11
63.98280749380025
 21
294.0532489072272
 31
0.0
 11
63.9515215113
 21
294.6892733074
 31
0.0
  0
SPLINE
  5
130
330
1F
100
AcDbEntity
  8
BEZUGSACHSEN
  6
Continuous
 62
     7
100
AcDbSpline
210
0.0
220
0.0
230
1.0
 70
     8
 71
     3
 72
    27
 73
    23
 74
    21
 42
0.0000000001
 43
0.0000000001
 44
0.00000001
 40
0.0
 40
0.0
 40
0.0
 40
0.0
 40
0.1260969825534952
 40
0.2522464959256721
 40
0.3668867952605581
 40
0.4815825894063558
 40
0.5839596006984789
 40
0.6859489161467349
 40
0.7334568410537906
 40
0.780956884892495
 40
0.8274002264541775
 40
0.8738421607452193
 40
0.9204907319322817
 40
0.9671431399671437
 40
1.015111401863893
 40
1.063087497184105
 40
1.165500418785571
 40
1.268190478991841
 40
1.380949153921164
 40
1.493646517793517
 40
1.615655563745828
 40
1.737631867594589
 40
1.737631867594589
 40
1.737631867594589
 40
1.737631867594589
 10
35.4509502141
 20
309.3235057731
 30
0.0
 10
35.45167875558388
 20
309.3655487011614
 30
0.0
 10
35.45313614205519
 20
309.449652071973
 30
0.0
 10
35.46658070406408
 20
309.5713993995324
 30
0.0
 10
35.48953613736565
 20
309.6878171159098
 30
0.0
 10
35.52350203770186
 20
309.7933925737042
 30
0.0
 10
35.56972779654937
 20
309.8895506359671
 30
0.0
 10
35.61827096510081
 20
309.9587200016379
 30
0.0
 10
35.66371029067182
 20
310.0062574832337
 30
0.0
 10
35.69961636876801
 20
310.0369527667042
 30
0.0
 10
35.73826379985307
 20
310.0634878024391
 30
0.0
 10
35.77921828705291
 20
310.0857161483689
 30
0.0
 10
35.8223579132311
 20
310.1035093652607
 30
0.0
 10
35.86753854784656
 20
310.1170427723222
 30
0.0
 10
35.91424577083617
 20
310.126239897656
 30
0.0
 10
35.98006976204052
 20
310.1331952180309
 30
0.0
 10
36.06479751404012
 20
310.1313299613648
 30
0.0
 10
36.16962911752486
 20
310.1144153003783
 30
0.0
 10
36.27520835986726
 20
310.0850006675045
 30
0.0
 10
36.3833662979587
 20
310.0432490300559
 30
0.0
 10
36.49101855922379
 20
309.9924532029373
 30
0.0
 10
36.56153793403759
 20
309.9518887747041
 30
0.0
 10
36.5967928897
 20
309.9316092824
 30
0.0
 11
35.4509502141
 21
309.3235057731
 31
0.0
 11
35.45508157369397
 21
309.4495350588911
 31
0.0
 11
35.468848332863
 21
309.5749311356479
 31
0.0
 11
35.49169990896496
 21
309.6872708156424
 31
0.0
 11
35.52733809833866
 21
309.7962893675173
 31
0.0
 11
35.5722378631388
 21
309.888295147564
 31
0.0
 11
35.63141029209294
 21
309.9713640594219
 31
0.0
 11
35.66426279225447
 21
310.0056819288504
 31
0.0
 11
35.70039988718128
 21
310.0365099118355
 31
0.0
 11
35.73868715204271
 21
310.0627981092794
 31
0.0
 11
35.77950975997999
 21
310.0849423623011
 31
0.0
 11
35.82261590359803
 21
310.1027735029314
 31
0.0
 11
35.86729547564238
 21
310.1161967297188
 31
0.0
 11
35.91434628139752
 21
310.1255335293411
 31
0.0
 11
35.96205016867159
 21
310.1306369459532
 31
0.0
 11
36.06444980952932
 21
310.1289876845563
 31
0.0
 11
36.16591405983003
 21
310.1131682542226
 31
0.0
 11
36.27463777626723
 21
310.0832739026508
 31
0.0
 11
36.37995576856173
 21
310.0431638500102
 31
0.0
 11
36.49024845446712
 21
309.990993640791
 31
0.0
 11
36.5967928897
 21
309.9316092824
 31
0.0
  0
SPLINE
  5
131
330
1F
100
AcDbEntity
  8
BEZUGSACHSEN
  6
Continuous
 62
     7
100
AcDbSpline
210
0.0
220
0.0
230
1.0
 70
     8
 71
     3
 72
    47
 73
    43
 74
    41
 42
0.0000000001
 43
0.0000000001
 44
0.00000001
 40
0.0
 40
0.0
 40
0.0
 40
0.0
 40
0.6366022431837411
 40
1.273595002176273
 40
1.592921746399727
 40
1.912076344878803
 40
2.231392290404816
 40
2.55082684270642
 40
3.18977432113661
 40
3.829081696986692
 40
4.468337152512374
 40
5.107221744792168
 40
5.426176341282132
 40
5.745033356821793
 40
6.063356731584918
 40
6.381780214881505
 40
7.017059195659692
 40
7.652639340974019
 40
8.28753221421366
 40
8.922347946475584
 40
9.55922674855993
 40
10.19613435935869
 40
10.83451785502114
 40
11.47287689973165
 40
12.11234487365011
 40
12.75189588947623
 40
13.3935430051577
 40
14.03487957350291
 40
14.35615205767565
 40
14.67732107709985
 40
14.99840882472554
 40
15.31959604123297
 40
15.96011121028399
 40
16.60099592087963
 40
17.23809108076181
 40
17.87482555198559
 40
18.19205670331515
 40
18.5091719909941
 40
18.82571084628179
 40
19.14241581827731
 40
19.77338974997242
 40
20.40398930735729
 40
20.40398930735729
 40
20.40398930735729
 40
20.40398930735729
 10
63.9515346198
 20
294.6892732675
 30
0.0
 10
63.95754026369639
 20
294.9015530771957
 30
0.0
 10
63.96955523557748
 20
295.3262429170231
 30
0.0
 10
64.05082058082417
 20
295.8523856781314
 30
0.0
 10
64.14354017739464
 20
296.2673600542596
 30
0.0
 10
64.22883314151161
 20
296.5751840299524
 30
0.0
 10
64.32907175494209
 20
296.8784767067274
 30
0.0
 10
64.48255730409696
 20
297.2759140692634
 30
0.0
 10
64.71102925086974
 20
297.7580136461519
 30
0.0
 10
65.0406442114191
 20
298.3068295190089
 30
0.0
 10
65.42287142851221
 20
298.820365058371
 30
0.0
 10
65.78172612564094
 20
299.2148678204592
 30
0.0
 10
66.09067947920613
 20
299.5077411185043
 30
0.0
 10
66.33257458817987
 20
299.7154629396092
 30
0.0
 10
66.58421784166889
 20
299.9109723367164
 30
0.0
 10
66.93151194883252
 20
300.154467539354
 30
0.0
 10
67.38725228359213
 20
300.4263496093764
 30
0.0
 10
67.96273170827675
 20
300.6976787218892
 30
0.0
 10
68.56184247343887
 20
300.9114623527032
 30
0.0
 10
69.17929287590175
 20
301.066152084075
 30
0.0
 10
69.80956343760116
 20
301.1599590677264
 30
0.0
 10
70.44715737233156
 20
301.1920857925323
 30
0.0
 10
71.08533601656426
 20
301.1616562195831
 30
0.0
 10
71.71834843775724
 20
301.0689849644187
 30
0.0
 10
72.33958212218819
 20
300.9144930031931
 30
0.0
 10
72.9437178741489
 20
300.6994558706708
 30
0.0
 10
73.52419694771027
 20
300.4255325049739
 30
0.0
 10
73.98382597193026
 20
300.1503656269407
 30
0.0
 10
74.33372496061338
 20
299.9037559280995
 30
0.0
 10
74.58685658978646
 20
299.7058517357228
 30
0.0
 10
74.82985522914787
 20
299.4956732062946
 30
0.0
 10
75.13909957264433
 20
299.2001538661133
 30
0.0
 10
75.49741976344244
 20
298.8026828833616
 30
0.0
 10
75.87737018178294
 20
298.287016121836
 30
0.0
 10
76.20384321135217
 20
297.7374199653742
 30
0.0
 10
76.42921435131151
 20
297.2563144236672
 30
0.0
 10
76.58030533446359
 20
296.8603242360472
 30
0.0
 10
76.67871825201321
 20
296.5588978852519
 30
0.0
 10
76.76238503018345
 20
296.2532025173126
 30
0.0
 10
76.85320438762282
 20
295.8416504995727
 30
0.0
 10
76.93271936329535
 20
295.3202252830639
 30
0.0
 10
76.94449164791433
 20
294.8995489939275
 30
0.0
 10
76.9503760435
 20
294.6892732676
 30
0.0
 11
63.9515346198
 21
294.6892732675
 31
0.0
 11
63.98278329087173
 21
295.3251081018578
 31
0.0
 11
64.07622449326902
 21
295.9552100909862
 31
0.0
 11
64.14616500028454
 21
296.2667833489124
 31
0.0
 11
64.23130633923653
 21
296.5743717266704
 31
0.0
 11
64.3315308773635
 21
296.8775510713237
 31
0.0
 11
64.446610767114
 21
297.1755360578233
 31
0.0
 11
64.7202066613583
 21
297.7529433376916
 31
0.0
 11
65.04942617503644
 21
298.3009656297837
 31
0.0
 11
65.43105043038383
 21
298.8138110891083
 31
0.0
 11
65.86098506651264
 21
299.2863888402872
 31
0.0
 11
66.09245732757377
 21
299.505825908672
 31
0.0
 11
66.33435972860103
 21
299.7135589699216
 31
0.0
 11
66.58573353575552
 21
299.9088561281119
 31
0.0
 11
66.84646281404744
 21
300.0916504337019
 31
0.0
 11
67.39199645825727
 21
300.4171844971326
 31
0.0
 11
67.96690627837597
 21
300.6881841647502
 31
0.0
 11
68.56485246612284
 21
300.9016070244665
 31
0.0
 11
69.18064499834632
 21
301.0558489486799
 31
0.0
 11
69.81057728032397
 21
301.1496568836685
 31
0.0
 11
70.44668040206165
 21
301.1816588087507
 31
0.0
 11
71.08434136108036
 21
301.1512945389991
 31
0.0
 11
71.71595889399093
 21
301.0587658294886
 31
0.0
 11
72.33653176611334
 21
300.9044654728684
 31
0.0
 11
72.9390325732497
 21
300.6899467574978
 31
0.0
 11
73.51933976959583
 21
300.416168418451
 31
0.0
 11
74.06956475763877
 21
300.0866762995316
 31
0.0
 11
74.33217206180903
 21
299.9015995238872
 31
0.0
 11
74.5851925192256
 21
299.7037860077498
 31
0.0
 11
74.82804082060086
 21
299.4937335281299
 31
0.0
 11
75.06024325600946
 21
299.2718253105306
 31
0.0
 11
75.4891593137412
 21
298.7961250927418
 31
0.0
 11
75.86926997239665
 21
298.2801317793628
 31
0.0
 11
76.19470911808267
 21
297.7324278399937
 31
0.0
 11
76.46478997617827
 21
297.1558108814025
 31
0.0
 11
76.57788042135668
 21
296.8594223617476
 31
0.0
 11
76.676324524695
 21
296.5579744156647
 31
0.0
 11
76.75980733007063
 21
296.2526426811308
 31
0.0
 11
76.82835675351467
 21
295.9434453075453
 31
0.0
 11
76.9197838314392
 21
295.3191303294285
 31
0.0
 11
76.9503760435
 21
294.6892732676
 31
0.0
  0
SPLINE
  5
132
330
1F
100
AcDbEntity
  8
RUNDUNGEN
  6
Continuous
 62
     7
100
AcDbSpline
210
0.0
220
0.0
230
1.0
 70
     8
 71
     3
 72
    13
 73
     9
 74
     7
 42
0.0000000001
 43
0.0000000001
 44
0.00000001
 40
0.0
 40
0.0
 40
0.0
 40
0.0
 40
0.1864374046342225
 40
0.3729076737163731
 40
0.5522614339830079
 40
0.7323160440743366
 40
1.054664133313076
 40
1.374111944618415
 40
1.374111944618415
 40
1.374111944618415
 40
1.374111944618415
 10
236.3620876929
 20
283.3248341607
 30
0.0
 10
236.299916207844
 20
283.3231239934425
 30
0.0
 10
236.1755622783888
 20
283.3197033574661
 30
0.0
 10
235.9931053922539
 20
283.2925033119481
 30
0.0
 10
235.8158230627322
 20
283.2500187112687
 30
0.0
 10
235.6018505131053
 20
283.1735456510041
 30
0.0
 10
235.3542783891132
 20
283.0472455211159
 30
0.0
 10
235.2028491891218
 20
282.8944449232554
 30
0.0
 10
235.12747674367
 20
282.818389877545
 30
0.0
 11
236.3620876929
 21
283.3248341607
 31
0.0
 11
236.1758612328059
 21
283.315967853262
 31
0.0
 11
235.991288050212
 21
283.2894367108306
 31
0.0
 11
235.8170271662146
 21
283.2469995145256
 31
0.0
 11
235.6473241984612
 21
283.1868283806587
 31
0.0
 11
235.3639755470264
 21
283.033134423829
 31
0.0
 11
235.12747674367
 21
282.818389877545
 31
0.0
  0
SPLINE
  5
133
330
1F
100
AcDbEntity
  8
RUNDUNGEN
  6
Continuous
 62
     7
100
AcDbSpline
210
0.0
220
0.0
230
1.0
 70
     8
 71
     3
 72
    13
 73
     9
 74
     7
 42
0.0000000001
 43
0.0000000001
 44
0.00000001
 40
0.0
 40
0.0
 40
0.0
 40
0.0
 40
0.3194477838539279
 40
0.6417958184524898
 40
0.8218504082578024
 40
1.001204155150135
 40
1.187674407493051
 40
1.37411179302279
 40
1.37411179302279
 40
1.37411179302279
 40
1.37411179302279
 10
235.127477715953
 20
306.560156658201
 30
0.0
 10
235.2028501709391
 20
306.4841016385051
 30
0.0
 10
235.3542793837293
 20
306.3313010993238
 30
0.0
 10
235.6018514303757
 20
306.2050009096512
 30
0.0
 10
235.8158239543253
 20
306.1285278563437
 30
0.0
 10
235.9931062679752
 20
306.0860432644009
 30
0.0
 10
236.1755631371711
 20
306.0588432161903
 30
0.0
 10
236.2999170547678
 20
306.0554225813025
 30
0.0
 10
236.3620885335
 20
306.0537124146
 30
0.0
 11
235.127477715953
 21
306.560156658201
 31
0.0
 11
235.3639765304891
 21
306.345412165065
 31
0.0
 11
235.6473251091566
 21
306.1917181886813
 31
0.0
 11
235.8170280553235
 21
306.1315470546366
 31
0.0
 11
235.9912889267987
 21
306.0891098634357
 31
0.0
 11
236.1758620924836
 21
306.0625787210197
 31
0.0
 11
236.3620885335
 21
306.0537124146
 31
0.0
  0
SPLINE
  5
134
330
1F
100
AcDbEntity
  8
0
  6
Continuous
 62
     7
100
AcDbSpline
210
0.0
220
0.0
230
1.0
 70
     8
 71
     3
 72
    13
 73
     9
 74
     7
 42
0.0000000001
 43
0.0000000001
 44
0.00000001
 40
0.0
 40
0.0
 40
0.0
 40
0.0
 40
0.1627890301769866
 40
0.3255843878189799
 40
0.4824341595823757
 40
0.6399519852889921
 40
0.9221177972132485
 40
1.201497763993766
 40
1.201497763993766
 40
1.201497763993766
 40
1.201497763993766
 10
241.2651607625
 20
307.8611694047
 30
0.0
 10
241.319445018943
 20
307.8597385477288
 30
0.0
 10
241.4280156418101
 20
307.8568767781704
 30
0.0
 10
241.587504303135
 20
307.8339886666124
 30
0.0
 10
241.7427521012707
 20
307.7980550539531
 30
0.0
 10
241.9305514737364
 20
307.7328622607548
 30
0.0
 10
242.1484693650317
 20
307.6247148428131
 30
0.0
 10
242.2815047973763
 20
307.49147875542
 30
0.0
 10
242.3476925172
 20
307.4251912058
 30
0.0
 11
241.2651607625
 21
307.8611694047
 31
0.0
 11
241.4277797478548
 21
307.853730725507
 31
0.0
 11
241.5890357687484
 21
307.8313963529986
 31
0.0
 11
241.7417100552416
 21
307.7954462049319
 31
0.0
 11
241.8906464315893
 21
307.744164422438
 31
0.0
 11
242.1399349088166
 21
307.6119797011553
 31
0.0
 11
242.3476925172
 21
307.4251912058
 31
0.0
  0
SPLINE
  5
135
330
1F
100
AcDbEntity
  8
0
  6
Continuous
 62
     7
100
AcDbSpline
210
0.0
220
0.0
230
1.0
 70
     8
 71
     3
 72
     9
 73
     5
 74
     3
 42
0.0000000001
 43
0.0000000001
 44
0.00000001
 40
0.0
 40
0.0
 40
0.0
 40
0.0
 40
0.8899357544608455
 40
1.779871506445047
 40
1.779871506445047
 40
1.779871506445047
 40
1.779871506445047
 10
242.3476925172
 20
307.4251912058
 30
0.0
 10
242.5368093340789
 20
307.1966452883715
 30
0.0
 10
242.9150429673105
 20
306.7395534541507
 30
0.0
 10
243.2931127579455
 20
306.2823260931715
 30
0.0
 10
243.482147653
 20
306.053712413
 30
0.0
 11
242.3476925172
 21
307.4251912058
 31
0.0
 11
242.9150020071875
 21
306.739519571825
 31
0.0
 11
243.482147653
 21
306.053712413
 31
0.0
  0
SPLINE
  5
136
330
1F
100
AcDbEntity
  8
0
  6
Continuous
 62
     7
100
AcDbSpline
210
0.0
220
0.0
230
1.0
 70
     8
 71
     3
 72
     9
 73
     5
 74
     3
 42
0.0000000001
 43
0.0000000001
 44
0.00000001
 40
0.0
 40
0.0
 40
0.0
 40
0.0
 40
0.8899357519938748
 40
1.77987150652213
 40
1.77987150652213
 40
1.77987150652213
 40
1.77987150652213
 10
243.482147653
 20
283.3248341609
 30
0.0
 10
243.2931127579424
 20
283.0962204807269
 30
0.0
 10
242.9150429672889
 20
282.6389931197296
 30
0.0
 10
242.5368093340758
 20
282.1819012854601
 30
0.0
 10
242.3476925172
 20
281.953355368
 30
0.0
 11
243.482147653
 21
283.3248341609
 31
0.0
 11
242.9150020071875
 21
282.6390270020625
 31
0.0
 11
242.3476925172
 21
281.953355368
 31
0.0
  0
SPLINE
  5
137
330
1F
100
AcDbEntity
  8
0
  6
Continuous
 62
     7
100
AcDbSpline
210
0.0
220
0.0
230
1.0
 70
     8
 71
     3
 72
    13
 73
     9
 74
     7
 42
0.0000000001
 43
0.0000000001
 44
0.00000001
 40
0.0
 40
0.0
 40
0.0
 40
0.0
 40
0.2793724637187474
 40
0.5615307111293331
 40
0.7190484553015047
 40
0.875898140791413
 40
1.038700996158765
 40
1.201497524975411
 40
1.201497524975411
 40
1.201497524975411
 40
1.201497524975411
 10
242.3476925172
 20
281.953355368
 30
0.0
 10
242.2815066598255
 20
281.887069535685
 30
0.0
 10
242.1484749677843
 20
281.7538368968551
 30
0.0
 10
241.9305625651277
 20
281.6456903512521
 30
0.0
 10
241.7427663703027
 20
281.5804962569679
 30
0.0
 10
241.587516600161
 20
281.544560320028
 30
0.0
 10
241.4280231489762
 20
281.5216702221402
 30
0.0
 10
241.3194475214333
 20
281.5188081683097
 30
0.0
 10
241.2651607625
 20
281.5173771692
 30
0.0
 11
242.3476925172
 21
281.953355368
 31
0.0
 11
242.1399408745728
 21
281.7665714595122
 31
0.0
 11
241.8906600231047
 21
281.6343885042072
 31
0.0
 11
241.7417242939597
 21
281.5831050925311
 31
0.0
 11
241.5890504935443
 21
281.5471532566254
 31
0.0
 11
241.4277872200729
 21
281.5248165974068
 31
0.0
 11
241.2651607625
 21
281.5173771692
 31
0.0
  0
SPLINE
  5
138
330
1F
100
AcDbEntity
  8
0
  6
Continuous
 62
     7
100
AcDbSpline
210
0.0
220
0.0
230
1.0
 70
     8
 71
     3
 72
    15
 73
    11
 74
     9
 42
0.0000000001
 43
0.0000000001
 44
0.00000001
 40
0.0
 40
0.0
 40
0.0
 40
0.0
 40
0.1634672395294862
 40
0.3272138113021699
 40
0.4902413476484176
 40
0.6531800239308396
 40
0.8150431397059854
 40
0.9769901793132705
 40
1.137798889037326
 40
1.298310079475577
 40
1.298310079475577
 40
1.298310079475577
 40
1.298310079475577
 10
241.2651607625
 20
273.9390792369
 30
0.0
 10
241.3196853455619
 20
273.9411033688365
 30
0.0
 10
241.4288276831012
 20
273.945155091539
 30
0.0
 10
241.5897039143005
 20
273.9774644486986
 30
0.0
 10
241.7451008835953
 20
274.0285902124253
 30
0.0
 10
241.8920524478307
 20
274.0993145191947
 30
0.0
 10
242.02846044707
 20
274.1880445679739
 30
0.0
 10
242.1513564679519
 20
274.2934418744269
 30
0.0
 10
242.2604151914901
 20
274.4129501321508
 30
0.0
 10
242.3186180391905
 20
274.5030456171124
 30
0.0
 10
242.3476925172
 20
274.5480516486
 30
0.0
 11
241.2651607625
 21
273.9390792369
 31
0.0
 11
241.4282940728114
 21
273.9495224866924
 31
0.0
 11
241.5890508601265
 21
273.9806704416724
 31
0.0
 11
241.7438174062071
 21
274.0319080628252
 31
0.0
 11
241.890660535488
 21
274.1025204385937
 31
0.0
 11
242.0262806647852
 21
274.1908768123188
 31
0.0
 11
242.1493761097005
 21
274.2961115740597
 31
0.0
 11
242.2568983723414
 21
274.415687508761
 31
0.0
 11
242.3476925172
 21
274.5480516486
 31
0.0
  0
SPLINE
  5
139
330
1F
100
AcDbEntity
  8
0
  6
Continuous
 62
     7
100
AcDbSpline
210
0.0
220
0.0
230
1.0
 70
     8
 71
     3
 72
    15
 73
    11
 74
     9
 42
0.0000000001
 43
0.0000000001
 44
0.00000001
 40
0.0
 40
0.0
 40
0.0
 40
0.0
 40
0.1054133225813702
 40
0.2110444669156935
 40
0.3433919779060368
 40
0.475641757036357
 40
0.6274514203533474
 40
0.7792988466637445
 40
0.9413945649149094
 40
1.103459497933593
 40
1.103459497933593
 40
1.103459497933593
 40
1.103459497933593
 10
242.3476925172
 20
302.0945770064
 30
0.0
 10
242.3154536181081
 20
302.1086309626659
 30
0.0
 10
242.2509092027897
 20
302.1367679157148
 30
0.0
 10
242.1410162415785
 20
302.1694903780843
 30
0.0
 10
242.0210329307157
 20
302.1984735242122
 30
0.0
 10
241.8843791237687
 20
302.2232034142085
 30
0.0
 10
241.7403479718537
 20
302.2427187145454
 30
0.0
 10
241.5857143904839
 20
302.2569198971304
 30
0.0
 10
241.4272455664554
 20
302.2659169174985
 30
0.0
 10
241.3191856097009
 20
302.2670198202135
 30
0.0
 10
241.2651607625
 20
302.2675712192
 30
0.0
 11
242.3476925172
 21
302.0945770064
 31
0.0
 11
242.250228754207
 21
302.1347364820052
 31
0.0
 11
242.1493758369639
 21
302.1661471129595
 31
0.0
 11
242.0207302056327
 21
302.1972303110691
 31
0.0
 11
241.8906600231436
 21
302.2211416411716
 31
0.0
 11
241.7402397318662
 21
302.2416333431129
 31
0.0
 11
241.5890504935182
 21
302.2557561999354
 31
0.0
 11
241.4271995682862
 21
302.264661247769
 31
0.0
 11
241.2651607625
 21
302.2675712192
 31
0.0
  0
SPLINE
  5
13A
330
1F
100
AcDbEntity
  8
0
  6
Continuous
 62
     7
100
AcDbSpline
210
0.0
220
0.0
230
1.0
 70
     8
 71
     3
 72
    15
 73
    11
 74
     9
 42
0.0000000001
 43
0.0000000001
 44
0.00000001
 40
0.0
 40
0.0
 40
0.0
 40
0.0
 40
0.1620651168095721
 40
0.3241610189059406
 40
0.4760085207699346
 40
0.6278182595990165
 40
0.7600679209951294
 40
0.8924153137554632
 40
0.9980463163460652
 40
1.103459498075188
 40
1.103459498075188
 40
1.103459498075188
 40
1.103459498075188
 10
241.2651607625
 20
287.1109753547
 30
0.0
 10
241.3191856709756
 20
287.1115267549872
 30
0.0
 10
241.4272457502973
 20
287.1126296603035
 30
0.0
 10
241.5857147213848
 20
287.121626700065
 30
0.0
 10
241.7403484125493
 20
287.1358279083989
 30
0.0
 10
241.8843795729018
 20
287.155343230224
 30
0.0
 10
242.0210333231477
 20
287.1800731326498
 30
0.0
 10
242.1410165071743
 20
287.2090562681147
 30
0.0
 10
242.2509093343348
 20
287.2417787104494
 30
0.0
 10
242.3154536618651
 20
287.2699156286168
 30
0.0
 10
242.3476925172
 20
287.2839695675
 30
0.0
 11
241.2651607625
 21
287.1109753547
 31
0.0
 11
241.4271997519835
 21
287.1138853329944
 31
0.0
 11
241.5890508601849
 21
287.1227904017978
 31
0.0
 11
241.7402401722947
 21
287.1369132813236
 31
0.0
 11
241.8906605354962
 21
287.1574050147227
 31
0.0
 11
242.0207305983201
 21
287.181316344597
 31
0.0
 11
242.1493761097099
 21
287.2123995357094
 31
0.0
 11
242.2502288870205
 21
287.2438101392859
 31
0.0
 11
242.3476925172
 21
287.2839695675
 31
0.0
  0
SPLINE
  5
13B
330
1F
100
AcDbEntity
  8
0
  6
Continuous
 62
     7
100
AcDbSpline
210
0.0
220
0.0
230
1.0
 70
     8
 71
     3
 72
    15
 73
    11
 74
     9
 42
0.0000000001
 43
0.0000000001
 44
0.00000001
 40
0.0
 40
0.0
 40
0.0
 40
0.0
 40
0.160511378778911
 40
0.3213202779787505
 40
0.4832674221385358
 40
0.6451306417655428
 40
0.8080692144628008
 40
0.9710966464945913
 40
1.13484302860418
 40
1.298310079454109
 40
1.298310079454109
 40
1.298310079454109
 40
1.298310079454109
 10
242.3476925172
 20
314.8304949253
 30
0.0
 10
242.3186180026966
 20
314.87550100828
 30
0.0
 10
242.2604150817982
 20
314.9655965965419
 30
0.0
 10
242.1513562184475
 20
315.0851049475722
 30
0.0
 10
242.0284600604398
 20
315.1905022986323
 30
0.0
 10
241.8920519941261
 20
315.279232309916
 30
0.0
 10
241.7451004326983
 20
315.3499565404935
 30
0.0
 10
241.5897035727345
 20
315.4010822108312
 30
0.0
 10
241.4288274937433
 20
315.4333914972419
 30
0.0
 10
241.319685282552
 20
315.4374432099515
 30
0.0
 10
241.2651607625
 20
315.4394673369
 30
0.0
 11
242.3476925172
 21
314.8304949253
 31
0.0
 11
242.2568982547305
 21
314.9628592128557
 31
0.0
 11
242.1493758370134
 21
315.0824352629248
 31
0.0
 11
242.0262802763545
 21
315.187670050175
 31
0.0
 11
241.8906600230915
 21
315.2760264238721
 31
0.0
 11
241.7438169578919
 21
315.346638693878
 31
0.0
 11
241.5890504936062
 21
315.3978762301908
 31
0.0
 11
241.4282938853564
 21
315.4290241122696
 31
0.0
 11
241.2651607625
 21
315.4394673369
 31
0.0
  0
SPLINE
  5
13C
330
1F
100
AcDbEntity
  8
0
  6
Continuous
 62
     7
100
AcDbSpline
210
0.0
220
0.0
230
1.0
 70
     8
 71
     3
 72
     9
 73
     5
 74
     3
 42
0.0000000001
 43
0.0000000001
 44
0.00000001
 40
0.0
 40
0.0
 40
0.0
 40
0.0
 40
1.113193723859132
 40
2.226387450287219
 40
2.226387450287219
 40
2.226387450287219
 40
2.226387450287219
 10
243.482147653
 20
312.9148194394
 30
0.0
 10
243.2931228718679
 20
313.2341289328592
 30
0.0
 10
242.9150733091676
 20
313.8727479205144
 30
0.0
 10
242.5368194480014
 20
314.5112459234592
 30
0.0
 10
242.3476925172
 20
314.8304949253
 30
0.0
 11
243.482147653
 21
312.9148194394
 31
0.0
 11
242.9150222349875
 21
313.8727176736
 31
0.0
 11
242.3476925172
 21
314.8304949253
 31
0.0
  0
SPLINE
  5
13D
330
1F
100
AcDbEntity
  8
0
  6
Continuous
 62
     7
100
AcDbSpline
210
0.0
220
0.0
230
1.0
 70
     8
 71
     3
 72
     9
 73
     5
 74
     3
 42
0.0000000001
 43
0.0000000001
 44
0.00000001
 40
0.0
 40
0.0
 40
0.0
 40
0.0
 40
1.113193726395823
 40
2.226387450287223
 40
2.226387450287223
 40
2.226387450287223
 40
2.226387450287223
 10
242.3476925172
 20
274.5480516486
 30
0.0
 10
242.5368194480041
 20
274.8673006504266
 30
0.0
 10
242.9150733091869
 20
275.5057986533617
 30
0.0
 10
243.2931228718707
 20
276.1444176410267
 30
0.0
 10
243.482147653
 20
276.4637271345
 30
0.0
 11
242.3476925172
 21
274.5480516486
 31
0.0
 11
242.9150222349875
 21
275.5058289002625
 31
0.0
 11
243.482147653
 21
276.4637271345
 31
0.0
  0
ARC
  5
13E
330
1F
100
AcDbEntity
  8
1
  6
Continuous
 62
     7
100
AcDbCircle
 10
129.4509502141
 20
333.0859058956482
 30
0.0
 40
15.0
100
AcDbArc
 50
180.0
 51
263.1423515846492
  0
ARC
  5
13F
330
1F
100
AcDbEntity
  8
1
  6
Continuous
 62
     7
100
AcDbCircle
 10
129.4509502141
 20
256.2926406781344
 30
0.0
 40
15.00000000000006
100
AcDbArc
 50
96.85764841535104
 51
180.0
  0
DIMENSION
  5
14A
330
1F
100
AcDbEntity
  8
1
100
AcDbDimension
  2
*D2
 10
233.4509502141
 20
376.504406488116
 30
0.0
 11
141.740086313157
 21
380.254406488116
 31
0.0
 70
    32
  1
<>
 71
     5
 42
-1.0
 53
0.00013888888889
  3
ME10_DIM_10
100
AcDbAlignedDimension
 13
35.4509502141
 23
328.2894648495
 33
0.0
 14
233.4509502141
 24
310.6892732869
 34
0.0
100
AcDbRotatedDimension
  0
DIMENSION
  5
155
330
1F
100
AcDbEntity
  8
1
100
AcDbDimension
  2
*D3
 10
85.4509502141
 20
368.585478386916
 30
0.0
 11
167.515420917064
 21
372.335478386916
 31
0.0
 70
    32
  1
<>
 71
     5
 42
-1.0
 53
0.00013888888889
  3
ME10_DIM_11
100
AcDbAlignedDimension
 13
245.4509502141
 23
309.6892732869
 33
0.0
 14
85.4509502141
 24
344.6892732869
 34
0.0
100
AcDbRotatedDimension
  0
DIMENSION
  5
160
330
1F
100
AcDbEntity
  8
1
100
AcDbDimension
  2
*D4
 10
233.4509502141
 20
360.200730985645
 30
0.0
 11
161.149223816099
 21
363.950730985645
 31
0.0
 70
    32
  1
<>
 71
     5
 42
-1.0
 53
0.00013888888889
  3
ME10_DIM_12
100
AcDbAlignedDimension
 13
85.4509502141
 23
344.6892732869
 33
0.0
 14
233.4509502141
 24
310.6892732869
 34
0.0
100
AcDbRotatedDimension
  0
DIMENSION
  5
16B
330
1F
100
AcDbEntity
  8
1
100
AcDbDimension
  2
*D5
 10
233.4509502141
 20
351.971256684397
 30
0.0
 11
178.073991718665
 21
355.721256684397
 31
0.0
 70
    32
  1
<>
 71
     5
 42
-1.0
 53
0.00013888888889
  3
ME10_DIM_13
100
AcDbAlignedDimension
 13
114.4509502141
 23
344.6892364167
 33
0.0
 14
233.4509502141
 24
310.6892732869
 34
0.0
100
AcDbRotatedDimension
  0
DIMENSION
  5
176
330
1F
100
AcDbEntity
  8
1
100
AcDbDimension
  2
*D6
 10
266.895865523743
 20
315.6892732869
 30
0.0
 11
263.145865523743
 21
295.688911028002
 31
0.0
 70
    32
  1
<>
 71
     5
 42
-1.0
 53
90.0
  3
ME10_DIM_14
100
AcDbAlignedDimension
 13
234.0509502141
 23
273.6892732869
 33
0.0
 14
234.0509502141
 24
315.6892732869
 34
0.0
 50
90.0
100
AcDbRotatedDimension
  0
DIMENSION
  5
181
330
1F
100
AcDbEntity
  8
1
100
AcDbDimension
  2
*D7
 10
257.190076621536
 20
307.1892732869
 30
0.0
 11
253.440076621536
 21
294.603395163939
 31
0.0
 70
    32
  1
<>
 71
     5
 42
-1.0
 53
90.0
  3
ME10_DIM_15
100
AcDbAlignedDimension
 13
233.4509502141
 23
282.1892732869
 33
0.0
 14
233.4509502141
 24
307.1892732869
 34
0.0
 50
90.0
100
AcDbRotatedDimension
  0
INSERT
  5
188
330
1F
100
AcDbEntity
  8
1
100
AcDbBlockReference
  2
*D8
 10
0.0
 20
0.0
 30
0.0
  0
ENDSEC
  0
SECTION
  2
OBJECTS
  0
DICTIONARY
  5
C
330
0
100
AcDbDictionary
281
     1
  3
ACAD_GROUP
350
D
  3
ACAD_LAYOUT
350
1A
  3
ACAD_MLEADERSTYLE
350
18B
  3
ACAD_MLINESTYLE
350
17
  3
ACAD_PLOTSETTINGS
350
19
  3
ACAD_PLOTSTYLENAME
350
E
  3
ACAD_SCALELIST
350
4B
  3
ACAD_VISUALSTYLE
350
2A
  3
AcDbVariableDictionary
350
189
  0
DICTIONARY
  5
D
102
{ACAD_REACTORS
330
C
102
}
330
C
100
AcDbDictionary
281
     1
  0
DICTIONARY
  5
1A
102
{ACAD_REACTORS
330
C
102
}
330
C
100
AcDbDictionary
281
     1
  3
Layout1
350
1E
  3
Layout2
350
26
  3
Model
350
22
  0
DICTIONARY
  5
18B
102
{ACAD_REACTORS
330
C
102
}
330
C
100
AcDbDictionary
281
     1
  0
DICTIONARY
  5
17
102
{ACAD_REACTORS
330
C
102
}
330
C
100
AcDbDictionary
281
     1
  3
Standard
350
18
  0
DICTIONARY
  5
19
102
{ACAD_REACTORS
330
C
102
}
330
C
100
AcDbDictionary
281
     1
  0
ACDBDICTIONARYWDFLT
  5
E
102
{ACAD_REACTORS
330
C
102
}
330
C
100
AcDbDictionary
281
     1
  3
Normal
350
F
100
AcDbDictionaryWithDefault
340
F
  0
DICTIONARY
  5
4B
102
{ACAD_REACTORS
330
C
102
}
330
C
100
AcDbDictionary
281
     1
  3
A0
350
4C
  3
A1
350
4D
  3
A2
350
4E
  3
A3
350
4F
  3
A4
350
50
  3
A5
350
51
  3
A6
350
52
  3
A7
350
53
  3
A8
350
54
  3
A9
350
55
  3
B0
350
56
  3
B1
350
57
  3
B2
350
58
  3
B3
350
59
  3
B4
350
5A
  3
B5
350
5B
  3
B6
350
5C
  3
B7
350
5D
  3
B8
350
5E
  3
B9
350
5F
  3
C0
350
60
  3
C1
350
61
  3
C2
350
62
  3
C3
350
63
  3
C4
350
64
  3
C5
350
65
  3
C6
350
66
  3
C7
350
67
  3
C8
350
68
  3
C9
350
69
  3
D0
350
6A
  3
D1
350
6B
  3
D2
350
6C
  0
DICTIONARY
  5
2A
102
{ACAD_REACTORS
330
C
102
}
330
C
100
AcDbDictionary
281
     1
  3
2dWireframe
350
2F
  3
3D Hidden
350
31
  3
3dWireframe
350
30
  3
Basic
350
32
  3
Brighten
350
36
  3
ColorChange
350
3A
  3
Conceptual
350
34
  3
Dim
350
35
  3
Facepattern
350
39
  3
Flat
350
2B
  3
FlatWithEdges
350
2C
  3
Gouraud
350
2D
  3
GouraudWithEdges
350
2E
  3
Linepattern
350
38
  3
Realistic
350
33
  3
Thicken
350
37
  0
DICTIONARY
  5
189
102
{ACAD_REACTORS
330
C
102
}
330
C
100
AcDbDictionary
281
     1
  3
CANNOSCALE
350
18C
  0
LAYOUT
  5
1E
102
{ACAD_REACTORS
330
1A
102
}
330
1A
100
AcDbPlotSettings
  1

  2
none_device
  4

  6

 40
0.0
 41
0.0
 42
0.0
 43
0.0
 44
0.0
 45
0.0
 46
0.0
 47
0.0
 48
0.0
 49
0.0
140
0.0
141
0.0
142
1.0
143
1.0
 70
   688
 72
     0
 73
     0
 74
     5
  7

 75
    16
147
1.0
148
0.0
149
0.0
100
AcDbLayout
  1
Layout1
 70
     1
 71
     1
 10
0.0
 20
0.0
 11
12.0
 21
9.0
 12
0.0
 22
0.0
 32
0.0
 14
1.00000000000000E+20
 24
1.00000000000000E+20
 34
1.00000000000000E+20
 15
-1.00000000000000E+20
 25
-1.00000000000000E+20
 35
-1.00000000000000E+20
146
0.0
 13
0.0
 23
0.0
 33
0.0
 16
1.0
 26
0.0
 36
0.0
 17
0.0
 27
1.0
 37
0.0
 76
     0
330
1B
  0
LAYOUT
  5
26
102
{ACAD_REACTORS
330
1A
102
}
330
1A
100
AcDbPlotSettings
  1

  2
none_device
  4

  6

 40
0.0
 41
0.0
 42
0.0
 43
0.0
 44
0.0
 45
0.0
 46
0.0
 47
0.0
 48
0.0
 49
0.0
140
0.0
141
0.0
142
1.0
143
1.0
 70
   688
 72
     0
 73
     0
 74
     5
  7

 75
    16
147
1.0
148
0.0
149
0.0
100
AcDbLayout
  1
Layout2
 70
     1
 71
     2
 10
0.0
 20
0.0
 11
0.0
 21
0.0
 12
0.0
 22
0.0
 32
0.0
 14
0.0
 24
0.0
 34
0.0
 15
0.0
 25
0.0
 35
0.0
146
0.0
 13
0.0
 23
0.0
 33
0.0
 16
1.0
 26
0.0
 36
0.0
 17
0.0
 27
1.0
 37
0.0
 76
     0
330
23
  0
LAYOUT
  5
22
102
{ACAD_REACTORS
330
1A
102
}
330
1A
100
AcDbPlotSettings
  1

  2
none_device
  4

  6

 40
0.0
 41
0.0
 42
0.0
 43
0.0
 44
0.0
 45
0.0
 46
0.0
 47
0.0
 48
0.0
 49
0.0
140
0.0
141
0.0
142
1.0
143
1.0
 70
  1712
 72
     0
 73
     0
 74
     0
  7

 75
     0
147
1.0
148
0.0
149
0.0
100
AcDbLayout
  1
Model
 70
     1
 71
     0
 10
0.0
 20
0.0
 11
12.0
 21
9.0
 12
0.0
 22
0.0
 32
0.0
 14
12.2168998956427
 24
244.6892732869
 34
0.0
 15
268.895865523743
 25
382.004406488116
 35
0.0
146
0.0
 13
0.0
 23
0.0
 33
0.0
 16
1.0
 26
0.0
 36
0.0
 17
0.0
 27
1.0
 37
0.0
 76
     0
330
1F
331
29
  0
MLINESTYLE
  5
18
102
{ACAD_REACTORS
330
17
102
}
330
17
100
AcDbMlineStyle
  2
Standard
 70
     0
  3

 62
   256
 51
90.0
 52
90.0
 71
     2
 49
0.5
 62
   256
  6
BYLAYER
 49
-0.5
 62
   256
  6
BYLAYER
  0
ACDBPLACEHOLDER
  5
F
102
{ACAD_REACTORS
330
E
102
}
330
E
  0
SCALE
  5
4C
102
{ACAD_REACTORS
330
4B
102
}
330
4B
100
AcDbScale
 70
     0
300
1:1
140
1.0
141
1.0
290
     1
  0
SCALE
  5
4D
102
{ACAD_REACTORS
330
4B
102
}
330
4B
100
AcDbScale
 70
     0
300
1:2
140
1.0
141
2.0
290
     0
  0
SCALE
  5
4E
102
{ACAD_REACTORS
330
4B
102
}
330
4B
100
AcDbScale
 70
     0
300
1:4
140
1.0
141
4.0
290
     0
  0
SCALE
  5
4F
102
{ACAD_REACTORS
330
4B
102
}
330
4B
100
AcDbScale
 70
     0
300
1:5
140
1.0
141
5.0
290
     0
  0
SCALE
  5
50
102
{ACAD_REACTORS
330
4B
102
}
330
4B
100
AcDbScale
 70
     0
300
1:8
140
1.0
141
8.0
290
     0
  0
SCALE
  5
51
102
{ACAD_REACTORS
330
4B
102
}
330
4B
100
AcDbScale
 70
     0
300
1:10
140
1.0
141
10.0
290
     0
  0
SCALE
  5
52
102
{ACAD_REACTORS
330
4B
102
}
330
4B
100
AcDbScale
 70
     0
300
1:16
140
1.0
141
16.0
290
     0
  0
SCALE
  5
53
102
{ACAD_REACTORS
330
4B
102
}
330
4B
100
AcDbScale
 70
     0
300
1:20
140
1.0
141
20.0
290
     0
  0
SCALE
  5
54
102
{ACAD_REACTORS
330
4B
102
}
330
4B
100
AcDbScale
 70
     0
300
1:30
140
1.0
141
30.0
290
     0
  0
SCALE
  5
55
102
{ACAD_REACTORS
330
4B
102
}
330
4B
100
AcDbScale
 70
     0
300
1:40
140
1.0
141
40.0
290
     0
  0
SCALE
  5
56
102
{ACAD_REACTORS
330
4B
102
}
330
4B
100
AcDbScale
 70
     0
300
1:50
140
1.0
141
50.0
290
     0
  0
SCALE
  5
57
102
{ACAD_REACTORS
330
4B
102
}
330
4B
100
AcDbScale
 70
     0
300
1:100
140
1.0
141
100.0
290
     0
  0
SCALE
  5
58
102
{ACAD_REACTORS
330
4B
102
}
330
4B
100
AcDbScale
 70
     0
300
2:1
140
2.0
141
1.0
290
     0
  0
SCALE
  5
59
102
{ACAD_REACTORS
330
4B
102
}
330
4B
100
AcDbScale
 70
     0
300
4:1
140
4.0
141
1.0
290
     0
  0
SCALE
  5
5A
102
{ACAD_REACTORS
330
4B
102
}
330
4B
100
AcDbScale
 70
     0
300
8:1
140
8.0
141
1.0
290
     0
  0
SCALE
  5
5B
102
{ACAD_REACTORS
330
4B
102
}
330
4B
100
AcDbScale
 70
     0
300
10:1
140
10.0
141
1.0
290
     0
  0
SCALE
  5
5C
102
{ACAD_REACTORS
330
4B
102
}
330
4B
100
AcDbScale
 70
     0
300
100:1
140
100.0
141
1.0
290
     0
  0
SCALE
  5
5D
102
{ACAD_REACTORS
330
4B
102
}
330
4B
100
AcDbScale
 70
     0
300
1/128" = 1'-0"
140
0.0078125
141
12.0
290
     0
  0
SCALE
  5
5E
102
{ACAD_REACTORS
330
4B
102
}
330
4B
100
AcDbScale
 70
     0
300
1/64" = 1'-0"
140
0.015625
141
12.0
290
     0
  0
SCALE
  5
5F
102
{ACAD_REACTORS
330
4B
102
}
330
4B
100
AcDbScale
 70
     0
300
1/32" = 1'-0"
140
0.03125
141
12.0
290
     0
  0
SCALE
  5
60
102
{ACAD_REACTORS
330
4B
102
}
330
4B
100
AcDbScale
 70
     0
300
1/16" = 1'-0"
140
0.0625
141
12.0
290
     0
  0
SCALE
  5
61
102
{ACAD_REACTORS
330
4B
102
}
330
4B
100
AcDbScale
 70
     0
300
3/32" = 1'-0"
140
0.09375
141
12.0
290
     0
  0
SCALE
  5
62
102
{ACAD_REACTORS
330
4B
102
}
330
4B
100
AcDbScale
 70
     0
300
1/8" = 1'-0"
140
0.125
141
12.0
290
     0
  0
SCALE
  5
63
102
{ACAD_REACTORS
330
4B
102
}
330
4B
100
AcDbScale
 70
     0
300
3/16" = 1'-0"
140
0.1875
141
12.0
290
     0
  0
SCALE
  5
64
102
{ACAD_REACTORS
330
4B
102
}
330
4B
100
AcDbScale
 70
     0
300
1/4" = 1'-0"
140
0.25
141
12.0
290
     0
  0
SCALE
  5
65
102
{ACAD_REACTORS
330
4B
102
}
330
4B
100
AcDbScale
 70
     0
300
3/8" = 1'-0"
140
0.375
141
12.0
290
     0
  0
SCALE
  5
66
102
{ACAD_REACTORS
330
4B
102
}
330
4B
100
AcDbScale
 70
     0
300
1/2" = 1'-0"
140
0.5
141
12.0
290
     0
  0
SCALE
  5
67
102
{ACAD_REACTORS
330
4B
102
}
330
4B
100
AcDbScale
 70
     0
300
3/4" = 1'-0"
140
0.75
141
12.0
290
     0
  0
SCALE
  5
68
102
{ACAD_REACTORS
330
4B
102
}
330
4B
100
AcDbScale
 70
     0
300
1" = 1'-0"
140
1.0
141
12.0
290
     0
  0
SCALE
  5
69
102
{ACAD_REACTORS
330
4B
102
}
330
4B
100
AcDbScale
 70
     0
300
1-1/2" = 1'-0"
140
1.5
141
12.0
290
     0
  0
SCALE
  5
6A
102
{ACAD_REACTORS
330
4B
102
}
330
4B
100
AcDbScale
 70
     0
300
3" = 1'-0"
140
3.0
141
12.0
290
     0
  0
SCALE
  5
6B
102
{ACAD_REACTORS
330
4B
102
}
330
4B
100
AcDbScale
 70
     0
300
6" = 1'-0"
140
6.0
141
12.0
290
     0
  0
SCALE
  5
6C
102
{ACAD_REACTORS
330
4B
102
}
330
4B
100
AcDbScale
 70
     0
300
1'-0" = 1'-0"
140
12.0
141
12.0
290
     0
  0
VISUALSTYLE
  5
2F
102
{ACAD_REACTORS
330
2A
102
}
330
2A
100
AcDbVisualStyle
  2
2dWireframe
 70
     4
 71
     0
 72
     2
 73
     0
 90
        0
 40
-0.6
 41
-30.0
 62
     5
 63
     7
 74
     1
 91
        4
 64
     7
 65
   257
 75
     1
175
     1
 42
1.0
 92
        0
 66
   257
 43
1.0
 76
     1
 77
     6
 78
     2
 67
     7
 79
     5
170
     0
171
     0
290
     0
174
     0
 93
        1
 44
0.0
173
     0
291
     0
 45
0.0
1001
ACAD
1000
AcDbSavedByObjectVersion
1070
     0
  0
VISUALSTYLE
  5
31
102
{ACAD_REACTORS
330
2A
102
}
330
2A
100
AcDbVisualStyle
  2
3D Hidden
 70
     6
 71
     1
 72
     2
 73
     2
 90
        0
 40
-0.6
 41
-30.0
 62
     5
 63
     7
 74
     2
 91
        2
 64
     7
 65
   257
 75
     2
175
     1
 42
40.0
 92
        0
 66
   257
 43
1.0
 76
     1
 77
     6
 78
     2
 67
     7
 79
     3
170
     0
171
     0
290
     0
174
     0
 93
        1
 44
0.0
173
     0
291
     0
 45
0.0
1001
ACAD
1000
AcDbSavedByObjectVersion
1070
     0
  0
VISUALSTYLE
  5
30
102
{ACAD_REACTORS
330
2A
102
}
330
2A
100
AcDbVisualStyle
  2
3dWireframe
 70
     5
 71
     0
 72
     2
 73
     0
 90
        0
 40
-0.6
 41
-30.0
 62
     5
 63
     7
 74
     1
 91
        4
 64
     7
 65
   257
 75
     1
175
     1
 42
1.0
 92
        0
 66
   257
 43
1.0
 76
     1
 77
     6
 78
     2
 67
     7
 79
     5
170
     0
171
     0
290
     0
174
     0
 93
        1
 44
0.0
173
     0
291
     0
 45
0.0
1001
ACAD
1000
AcDbSavedByObjectVersion
1070
     0
  0
VISUALSTYLE
  5
32
102
{ACAD_REACTORS
330
2A
102
}
330
2A
100
AcDbVisualStyle
  2
Basic
 70
     7
 71
     1
 72
     0
 73
     1
 90
        0
 40
-0.6
 41
-30.0
 62
     5
 63
     7
 74
     0
 91
        4
 64
     7
 65
   257
 75
     1
175
     1
 42
1.0
 92
        8
 66
     7
 43
1.0
 76
     1
 77
     6
 78
     2
 67
     7
 79
     5
170
     0
171
     0
290
     0
174
     0
 93
        1
 44
0.0
173
     0
291
     1
 45
0.0
1001
ACAD
1000
AcDbSavedByObjectVersion
1070
     0
  0
VISUALSTYLE
  5
36
102
{ACAD_REACTORS
330
2A
102
}
330
2A
100
AcDbVisualStyle
  2
Brighten
 70
    12
 71
     2
 72
     2
 73
     0
 90
        0
 40
-0.6
 41
-30.0
 62
     5
 63
     7
 74
     1
 91
        4
 64
     7
 65
   257
 75
     1
175
     1
 42
1.0
 92
        8
 66
     7
 43
1.0
 76
     1
 77
     6
 78
     2
 67
     7
 79
     5
170
     0
171
     0
290
     0
174
     0
 93
        1
 44
50.0
173
     0
291
     1
 45
0.0
1001
ACAD
1000
AcDbSavedByObjectVersion
1070
     0
  0
VISUALSTYLE
  5
3A
102
{ACAD_REACTORS
330
2A
102
}
330
2A
100
AcDbVisualStyle
  2
ColorChange
 70
    16
 71
     2
 72
     2
 73
     3
 90
        0
 40
-0.6
 41
-30.0
 62
     5
 63
     8
 74
     1
 91
        4
 64
     7
 65
   257
 75
     1
175
     1
 42
1.0
 92
        8
 66
     8
 43
1.0
 76
     1
 77
     6
 78
     2
 67
     7
 79
     5
170
     0
171
     0
290
     0
174
     0
 93
        1
 44
0.0
173
     0
291
     1
 45
0.0
1001
ACAD
1000
AcDbSavedByObjectVersion
1070
     0
  0
VISUALSTYLE
  5
34
102
{ACAD_REACTORS
330
2A
102
}
330
2A
100
AcDbVisualStyle
  2
Conceptual
 70
     9
 71
     3
 72
     2
 73
     0
 90
        0
 40
-0.6
 41
-30.0
 62
     5
 63
     7
 74
     2
 91
        2
 64
     7
 65
   257
 75
     1
175
     1
 42
40.0
 92
        8
 66
     7
 43
1.0
 76
     1
 77
     6
 78
     2
 67
     7
 79
     3
170
     0
171
     0
290
     0
174
     0
 93
        1
 44
0.0
173
     0
291
     0
 45
0.0
1001
ACAD
1000
AcDbSavedByObjectVersion
1070
     0
  0
VISUALSTYLE
  5
35
102
{ACAD_REACTORS
330
2A
102
}
330
2A
100
AcDbVisualStyle
  2
Dim
 70
    11
 71
     2
 72
     2
 73
     0
 90
        0
 40
-0.6
 41
-30.0
 62
     5
 63
     7
 74
     1
 91
        4
 64
     7
 65
   257
 75
     1
175
     1
 42
1.0
 92
        8
 66
     7
 43
1.0
 76
     1
 77
     6
 78
     2
 67
     7
 79
     5
170
     0
171
     0
290
     0
174
     0
 93
        1
 44
-50.0
173
     0
291
     1
 45
0.0
1001
ACAD
1000
AcDbSavedByObjectVersion
1070
     0
  0
VISUALSTYLE
  5
39
102
{ACAD_REACTORS
330
2A
102
}
330
2A
100
AcDbVisualStyle
  2
Facepattern
 70
    15
 71
     2
 72
     2
 73
     0
 90
        0
 40
-0.6
 41
-30.0
 62
     5
 63
     7
 74
     1
 91
        4
 64
     7
 65
   257
 75
     1
175
     1
 42
1.0
 92
        8
 66
     7
 43
1.0
 76
     1
 77
     6
 78
     2
 67
     7
 79
     5
170
     0
171
     0
290
     0
174
     0
 93
        1
 44
0.0
173
     0
291
     1
 45
0.0
1001
ACAD
1000
AcDbSavedByObjectVersion
1070
     0
  0
VISUALSTYLE
  5
2B
102
{ACAD_REACTORS
330
2A
102
}
330
2A
100
AcDbVisualStyle
  2
Flat
 70
     0
 71
     2
 72
     1
 73
     1
 90
        2
 40
-0.6
 41
30.0
 62
     5
 63
     7
 74
     0
 91
        4
 64
     7
 65
   257
 75
     1
175
     1
 42
1.0
 92
        8
 66
     7
 43
1.0
 76
     1
 77
     6
 78
     2
 67
     7
 79
     5
170
     0
171
     0
290
     0
174
     0
 93
       13
 44
0.0
173
     0
291
     1
 45
0.0
1001
ACAD
1000
AcDbSavedByObjectVersion
1070
     0
  0
VISUALSTYLE
  5
2C
102
{ACAD_REACTORS
330
2A
102
}
330
2A
100
AcDbVisualStyle
  2
FlatWithEdges
 70
     1
 71
     2
 72
     1
 73
     1
 90
        2
 40
-0.6
 41
30.0
 62
     5
 63
     7
 74
     1
 91
        4
 64
     7
 65
   257
 75
     1
175
     1
 42
1.0
 92
        0
 66
   257
 43
1.0
 76
     1
 77
     6
 78
     2
 67
     7
 79
     5
170
     0
171
     0
290
     0
174
     0
 93
       13
 44
0.0
173
     0
291
     1
 45
0.0
1001
ACAD
1000
AcDbSavedByObjectVersion
1070
     0
  0
VISUALSTYLE
  5
2D
102
{ACAD_REACTORS
330
2A
102
}
330
2A
100
AcDbVisualStyle
  2
Gouraud
 70
     2
 71
     2
 72
     2
 73
     1
 90
        2
 40
-0.6
 41
30.0
 62
     5
 63
     7
 74
     0
 91
        4
 64
     7
 65
   257
 75
     1
175
     1
 42
1.0
 92
        0
 66
     7
 43
1.0
 76
     1
 77
     6
 78
     2
 67
     7
 79
     5
170
     0
171
     0
290
     0
174
     0
 93
       13
 44
0.0
173
     0
291
     1
 45
0.0
1001
ACAD
1000
AcDbSavedByObjectVersion
1070
     0
  0
VISUALSTYLE
  5
2E
102
{ACAD_REACTORS
330
2A
102
}
330
2A
100
AcDbVisualStyle
  2
GouraudWithEdges
 70
     3
 71
     2
 72
     2
 73
     1
 90
        2
 40
-0.6
 41
30.0
 62
     5
 63
     7
 74
     1
 91
        4
 64
     7
 65
   257
 75
     1
175
     1
 42
1.0
 92
        0
 66
   257
 43
1.0
 76
     1
 77
     6
 78
     2
 67
     7
 79
     5
170
     0
171
     0
290
     0
174
     0
 93
       13
 44
0.0
173
     0
291
     1
 45
0.0
1001
ACAD
1000
AcDbSavedByObjectVersion
1070
     0
  0
VISUALSTYLE
  5
38
102
{ACAD_REACTORS
330
2A
102
}
330
2A
100
AcDbVisualStyle
  2
Linepattern
 70
    14
 71
     2
 72
     2
 73
     0
 90
        0
 40
-0.6
 41
-30.0
 62
     5
 63
     7
 74
     1
 91
        4
 64
     7
 65
   257
 75
     7
175
     7
 42
1.0
 92
        8
 66
     7
 43
1.0
 76
     1
 77
     6
 78
     2
 67
     7
 79
     5
170
     0
171
     0
290
     0
174
     0
 93
        1
 44
0.0
173
     0
291
     1
 45
0.0
1001
ACAD
1000
AcDbSavedByObjectVersion
1070
     0
  0
VISUALSTYLE
  5
33
102
{ACAD_REACTORS
330
2A
102
}
330
2A
100
AcDbVisualStyle
  2
Realistic
 70
     8
 71
     2
 72
     2
 73
     0
 90
        0
 40
-0.6
 41
-30.0
 62
     5
 63
     7
 74
     1
 91
        0
 64
     7
 65
   257
 75
     1
175
     1
 42
1.0
 92
        8
 66
     8
 43
1.0
 76
     1
 77
     6
 78
     2
 67
     7
 79
     5
170
     0
171
     0
290
     0
174
     0
 93
       13
 44
0.0
173
     0
291
     0
 45
0.0
1001
ACAD
1000
AcDbSavedByObjectVersion
1070
     0
  0
VISUALSTYLE
  5
37
102
{ACAD_REACTORS
330
2A
102
}
330
2A
100
AcDbVisualStyle
  2
Thicken
 70
    13
 71
     2
 72
     2
 73
     0
 90
        0
 40
-0.6
 41
-30.0
 62
     5
 63
     7
 74
     1
 91
        4
 64
     7
 65
   257
 75
     1
175
     1
 42
1.0
 92
       12
 66
     7
 43
1.0
 76
     1
 77
     6
 78
     2
 67
     7
 79
     5
170
     0
171
     0
290
     0
174
     0
 93
        1
 44
0.0
173
     0
291
     1
 45
0.0
1001
ACAD
1000
AcDbSavedByObjectVersion
1070
     0
  0
DICTIONARYVAR
  5
18C
102
{ACAD_REACTORS
330
189
102
}
330
189
100
DictionaryVariables
280
     0
  1
1:1
  0
ENDSEC
  0
EOF
