  0
SECTION
  2
HEADER
  9
$ACADVER
  1
AC1015
  9
$ACADMAINTVER
 70
     6
  9
$DWGCODEPAGE
  3
ANSI_1252
  9
$INSBASE
 10
0.0
 20
0.0
 30
0.0
  9
$EXTMIN
 10
-182.391910180156
 20
19.7022080454261
 30
0.0
  9
$EXTMAX
 10
-0.87760772211544
 20
128.4715949627323
 30
0.0
  9
$LIMMIN
 10
0.0
 20
0.0
  9
$LIMMAX
 10
12.0
 20
9.0
  9
$ORTHOMODE
 70
     0
  9
$REGENMODE
 70
     1
  9
$FILLMODE
 70
     1
  9
$QTEXTMODE
 70
     0
  9
$MIRRTEXT
 70
     1
  9
$LTSCALE
 40
1.0
  9
$ATTMODE
 70
     1
  9
$TEXTSIZE
 40
0.2
  9
$TRACEWID
 40
0.05
  9
$TEXTSTYLE
  7
Standard
  9
$CLAYER
  8
0
  9
$CELTYPE
  6
ByLayer
  9
$CECOLOR
 62
   256
  9
$CELTSCALE
 40
1.0
  9
$DISPSILH
 70
     0
  9
$DIMSCALE
 40
1.0
  9
$DIMASZ
 40
0.18
  9
$DIMEXO
 40
0.0625
  9
$DIMDLI
 40
0.38
  9
$DIMRND
 40
0.0
  9
$DIMDLE
 40
0.0
  9
$DIMEXE
 40
0.18
  9
$DIMTP
 40
0.0
  9
$DIMTM
 40
0.0
  9
$DIMTXT
 40
0.18
  9
$DIMCEN
 40
0.09
  9
$DIMTSZ
 40
0.0
  9
$DIMTOL
 70
     0
  9
$DIMLIM
 70
     0
  9
$DIMTIH
 70
     1
  9
$DIMTOH
 70
     1
  9
$DIMSE1
 70
     0
  9
$DIMSE2
 70
     0
  9
$DIMTAD
 70
     0
  9
$DIMZIN
 70
     0
  9
$DIMBLK
  1

  9
$DIMASO
 70
     1
  9
$DIMSHO
 70
     1
  9
$DIMPOST
  1

  9
$DIMAPOST
  1

  9
$DIMALT
 70
     0
  9
$DIMALTD
 70
     2
  9
$DIMALTF
 40
25.4
  9
$DIMLFAC
 40
1.0
  9
$DIMTOFL
 70
     0
  9
$DIMTVP
 40
0.0
  9
$DIMTIX
 70
     0
  9
$DIMSOXD
 70
     0
  9
$DIMSAH
 70
     0
  9
$DIMBLK1
  1

  9
$DIMBLK2
  1

  9
$DIMSTYLE
  2
Standard
  9
$DIMCLRD
 70
     0
  9
$DIMCLRE
 70
     0
  9
$DIMCLRT
 70
     0
  9
$DIMTFAC
 40
1.0
  9
$DIMGAP
 40
0.09
  9
$DIMJUST
 70
     0
  9
$DIMSD1
 70
     0
  9
$DIMSD2
 70
     0
  9
$DIMTOLJ
 70
     1
  9
$DIMTZIN
 70
     0
  9
$DIMALTZ
 70
     0
  9
$DIMALTTZ
 70
     0
  9
$DIMUPT
 70
     0
  9
$DIMDEC
 70
     4
  9
$DIMTDEC
 70
     4
  9
$DIMALTU
 70
     2
  9
$DIMALTTD
 70
     2
  9
$DIMTXSTY
  7
Standard
  9
$DIMAUNIT
 70
     0
  9
$DIMADEC
 70
     0
  9
$DIMALTRND
 40
0.0
  9
$DIMAZIN
 70
     0
  9
$DIMDSEP
 70
    46
  9
$DIMATFIT
 70
     3
  9
$DIMFRAC
 70
     0
  9
$DIMLDRBLK
  1

  9
$DIMLUNIT
 70
     2
  9
$DIMLWD
 70
    -2
  9
$DIMLWE
 70
    -2
  9
$DIMTMOVE
 70
     0
  9
$LUNITS
 70
     2
  9
$LUPREC
 70
     4
  9
$SKETCHINC
 40
0.1
  9
$FILLETRAD
 40
0.5
  9
$AUNITS
 70
     0
  9
$AUPREC
 70
     0
  9
$MENU
  1
.
  9
$ELEVATION
 40
0.0
  9
$PELEVATION
 40
0.0
  9
$THICKNESS
 40
0.0
  9
$LIMCHECK
 70
     0
  9
$CHAMFERA
 40
0.5
  9
$CHAMFERB
 40
0.5
  9
$CHAMFERC
 40
1.0
  9
$CHAMFERD
 40
0.0
  9
$SKPOLY
 70
     0
  9
$TDCREATE
 40
2456337.567140636
  9
$TDUCREATE
 40
2456337.52547397
  9
$TDUPDATE
 40
2456337.567140648
  9
$TDUUPDATE
 40
2456337.525473982
  9
$TDINDWG
 40
0.0000000116
  9
$TDUSRTIMER
 40
0.0000000116
  9
$USRTIMER
 70
     1
  9
$ANGBASE
 50
0.0
  9
$ANGDIR
 70
     0
  9
$PDMODE
 70
     0
  9
$PDSIZE
 40
0.0
  9
$PLINEWID
 40
0.0
  9
$SPLFRAME
 70
     0
  9
$SPLINETYPE
 70
     6
  9
$SPLINESEGS
 70
     8
  9
$HANDSEED
  5
1D3
  9
$SURFTAB1
 70
     6
  9
$SURFTAB2
 70
     6
  9
$SURFTYPE
 70
     6
  9
$SURFU
 70
     6
  9
$SURFV
 70
     6
  9
$UCSBASE
  2

  9
$UCSNAME
  2

  9
$UCSORG
 10
0.0
 20
0.0
 30
0.0
  9
$UCSXDIR
 10
1.0
 20
0.0
 30
0.0
  9
$UCSYDIR
 10
0.0
 20
1.0
 30
0.0
  9
$UCSORTHOREF
  2

  9
$UCSORTHOVIEW
 70
     0
  9
$UCSORGTOP
 10
0.0
 20
0.0
 30
0.0
  9
$UCSORGBOTTOM
 10
0.0
 20
0.0
 30
0.0
  9
$UCSORGLEFT
 10
0.0
 20
0.0
 30
0.0
  9
$UCSORGRIGHT
 10
0.0
 20
0.0
 30
0.0
  9
$UCSORGFRONT
 10
0.0
 20
0.0
 30
0.0
  9
$UCSORGBACK
 10
0.0
 20
0.0
 30
0.0
  9
$PUCSBASE
  2

  9
$PUCSNAME
  2

  9
$PUCSORG
 10
0.0
 20
0.0
 30
0.0
  9
$PUCSXDIR
 10
1.0
 20
0.0
 30
0.0
  9
$PUCSYDIR
 10
0.0
 20
1.0
 30
0.0
  9
$PUCSORTHOREF
  2

  9
$PUCSORTHOVIEW
 70
     0
  9
$PUCSORGTOP
 10
0.0
 20
0.0
 30
0.0
  9
$PUCSORGBOTTOM
 10
0.0
 20
0.0
 30
0.0
  9
$PUCSORGLEFT
 10
0.0
 20
0.0
 30
0.0
  9
$PUCSORGRIGHT
 10
0.0
 20
0.0
 30
0.0
  9
$PUCSORGFRONT
 10
0.0
 20
0.0
 30
0.0
  9
$PUCSORGBACK
 10
0.0
 20
0.0
 30
0.0
  9
$USERI1
 70
     0
  9
$USERI2
 70
     0
  9
$USERI3
 70
     0
  9
$USERI4
 70
     0
  9
$USERI5
 70
     0
  9
$USERR1
 40
16.5
  9
$USERR2
 40
0.0
  9
$USERR3
 40
0.0
  9
$USERR4
 40
0.0
  9
$USERR5
 40
0.0
  9
$WORLDVIEW
 70
     1
  9
$SHADEDGE
 70
     3
  9
$SHADEDIF
 70
    70
  9
$TILEMODE
 70
     1
  9
$MAXACTVP
 70
    64
  9
$PINSBASE
 10
0.0
 20
0.0
 30
0.0
  9
$PLIMCHECK
 70
     0
  9
$PEXTMIN
 10
1.00000000000000E+20
 20
1.00000000000000E+20
 30
1.00000000000000E+20
  9
$PEXTMAX
 10
-1.00000000000000E+20
 20
-1.00000000000000E+20
 30
-1.00000000000000E+20
  9
$PLIMMIN
 10
0.0
 20
0.0
  9
$PLIMMAX
 10
12.0
 20
9.0
  9
$UNITMODE
 70
     0
  9
$VISRETAIN
 70
     1
  9
$PLINEGEN
 70
     0
  9
$PSLTSCALE
 70
     1
  9
$TREEDEPTH
 70
  3020
  9
$CMLSTYLE
  2
Standard
  9
$CMLJUST
 70
     0
  9
$CMLSCALE
 40
1.0
  9
$PROXYGRAPHICS
 70
     1
  9
$MEASUREMENT
 70
     1
  9
$CELWEIGHT
370
    -1
  9
$ENDCAPS
280
     0
  9
$JOINSTYLE
280
     0
  9
$LWDISPLAY
290
     0
  9
$INSUNITS
 70
     1
  9
$HYPERLINKBASE
  1

  9
$STYLESHEET
  1

  9
$XEDIT
290
     1
  9
$CEPSNTYPE
380
     0
  9
$PSTYLEMODE
290
     1
  9
$FINGERPRINTGUID
  2
{6EDA5F58-B4F6-4E47-96F5-EBC8B918D0A0}
  9
$VERSIONGUID
  2
{FAEB1C32-E019-11D5-929B-00C0DF256EC4}
  9
$EXTNAMES
290
     1
  9
$PSVPSCALE
 40
0.0
  9
$OLESTARTUP
290
     0
  0
ENDSEC
  0
SECTION
  2
CLASSES
  0
CLASS
  1
ACDBDICTIONARYWDFLT
  2
AcDbDictionaryWithDefault
  3
ObjectDBX Classes
 90
        0
280
     0
281
     0
  0
CLASS
  1
VISUALSTYLE
  2
AcDbVisualStyle
  3
ObjectDBX Classes
 90
     4095
280
     0
281
     0
  0
CLASS
  1
SCALE
  2
AcDbScale
  3
ObjectDBX Classes
 90
     1153
280
     0
281
     0
  0
CLASS
  1

  2
exOdDbPolyline
  3

 90
        0
280
     0
281
     1
  0
CLASS
  1
DICTIONARYVAR
  2
AcDbDictionaryVar
  3
ObjectDBX Classes
 90
        0
280
     0
281
     0
  0
CLASS
  1
ACDBPLACEHOLDER
  2
AcDbPlaceHolder
  3
ObjectDBX Classes
 90
        0
280
     0
281
     0
  0
CLASS
  1
LAYOUT
  2
AcDbLayout
  3
ObjectDBX Classes
 90
        0
280
     0
281
     0
  0
ENDSEC
  0
SECTION
  2
TABLES
  0
TABLE
  2
VPORT
  5
8
330
0
100
AcDbSymbolTable
 70
     1
  0
VPORT
  5
29
330
8
100
AcDbSymbolTableRecord
100
AcDbViewportTableRecord
  2
*Active
 70
     0
 10
0.0
 20
0.0
 11
1.0
 21
1.0
 12
-91.63475895113572
 22
74.0869015040792
 13
0.0
 23
0.0
 14
0.5
 24
0.5
 15
0.5
 25
0.5
 16
0.0
 26
0.0
 36
1.0
 17
0.0
 27
0.0
 37
0.0
 40
124.5825184558808
 41
1.60267857142857
 42
50.0
 43
0.0
 44
0.0
 50
0.0
 51
0.0
 71
     0
 72
   100
 73
     1
 74
     3
 75
     0
 76
     0
 77
     0
 78
     0
281
     0
 65
     1
110
0.0
120
0.0
130
0.0
111
1.0
121
0.0
131
0.0
112
0.0
122
1.0
132
0.0
 79
     0
146
0.0
  0
ENDTAB
  0
TABLE
  2
LTYPE
  5
5
330
0
100
AcDbSymbolTable
 70
     8
  0
LTYPE
  5
14
330
5
100
AcDbSymbolTableRecord
100
AcDbLinetypeTableRecord
  2
ByBlock
 70
     0
  3

 72
    65
 73
     0
 40
0.0
  0
LTYPE
  5
15
330
5
100
AcDbSymbolTableRecord
100
AcDbLinetypeTableRecord
  2
ByLayer
 70
     0
  3

 72
    65
 73
     0
 40
0.0
  0
LTYPE
  5
16
330
5
100
AcDbSymbolTableRecord
100
AcDbLinetypeTableRecord
  2
Continuous
 70
     0
  3
Solid line
 72
    65
 73
     0
 40
0.0
  0
LTYPE
  5
3B
330
5
100
AcDbSymbolTableRecord
100
AcDbLinetypeTableRecord
  2
DASHED
 70
     0
  3
Dashed
 72
    65
 73
     2
 40
15.0
 49
7.0
 74
     0
 49
-8.0
 74
     0
  0
LTYPE
  5
3C
330
5
100
AcDbSymbolTableRecord
100
AcDbLinetypeTableRecord
  2
DOTTED
 70
     0
  3
Dotted
 72
    65
 73
     2
 40
1.0
 49
0.0
 74
     0
 49
-1.0
 74
     0
  0
LTYPE
  5
3D
330
5
100
AcDbSymbolTableRecord
100
AcDbLinetypeTableRecord
  2
DOT_CENTER
 70
     0
  3
Dot_Center
 72
    65
 73
     4
 40
14.0
 49
12.0
 74
     0
 49
-1.0
 74
     0
 49
0.0
 74
     0
 49
-1.0
 74
     0
  0
LTYPE
  5
3E
330
5
100
AcDbSymbolTableRecord
100
AcDbLinetypeTableRecord
  2
LONG_DASHED
 70
     0
  3
Long_Dashed
 72
    65
 73
     2
 40
15.0
 49
10.0
 74
     0
 49
-5.0
 74
     0
  0
LTYPE
  5
3F
330
5
100
AcDbSymbolTableRecord
100
AcDbLinetypeTableRecord
  2
DASH_CENTER
 70
     0
  3
Dash_Center
 72
    65
 73
     4
 40
14.0
 49
11.0
 74
     0
 49
-1.0
 74
     0
 49
1.0
 74
     0
 49
-1.0
 74
     0
  0
LTYPE
  5
40
330
5
100
AcDbSymbolTableRecord
100
AcDbLinetypeTableRecord
  2
PHANTOM
 70
     0
  3
Phantom
 72
    65
 73
     6
 40
13.0
 49
10.0
 74
     0
 49
-1.0
 74
     0
 49
0.0
 74
     0
 49
-1.0
 74
     0
 49
0.0
 74
     0
 49
-1.0
 74
     0
  0
LTYPE
  5
41
330
5
100
AcDbSymbolTableRecord
100
AcDbLinetypeTableRecord
  2
CENTER_DASH_DASH
 70
     0
  3
Center_Dash_Dash
 72
    65
 73
     6
 40
14.0
 49
9.0
 74
     0
 49
-1.0
 74
     0
 49
1.0
 74
     0
 49
-1.0
 74
     0
 49
1.0
 74
     0
 49
-1.0
 74
     0
  0
ENDTAB
  0
TABLE
  2
LAYER
  5
2
330
0
100
AcDbSymbolTable
 70
     3
  0
LAYER
  5
10
330
2
100
AcDbSymbolTableRecord
100
AcDbLayerTableRecord
  2
0
 70
     0
 62
     7
  6
Continuous
370
    -3
390
F
  0
LAYER
  5
42
330
2
100
AcDbSymbolTableRecord
100
AcDbLayerTableRecord
  2
1
 70
     0
 62
     7
  6
Continuous
370
    -3
390
F
  0
LAYER
  5
43
330
2
100
AcDbSymbolTableRecord
100
AcDbLayerTableRecord
  2
6
 70
     0
 62
     7
  6
Continuous
370
    -3
390
F
  0
ENDTAB
  0
TABLE
  2
STYLE
  5
3
330
0
100
AcDbSymbolTable
 70
     2
  0
STYLE
  5
11
330
3
100
AcDbSymbolTableRecord
100
AcDbTextStyleTableRecord
  2
Standard
 70
     0
 40
0.0
 41
1.0
 50
0.0
 71
     0
 42
0.2
  3
txt
  4

  0
STYLE
  5
76
330
3
100
AcDbSymbolTableRecord
100
AcDbTextStyleTableRecord
  2
CONVERTER_11
 70
     0
 40
0.0
 41
0.72
 50
0.0
 71
     0
 42
0.2
  3
txt.shx
  4

  0
ENDTAB
  0
TABLE
  2
VIEW
  5
6
330
0
100
AcDbSymbolTable
 70
     0
  0
ENDTAB
  0
TABLE
  2
UCS
  5
7
330
0
100
AcDbSymbolTable
 70
     0
  0
ENDTAB
  0
TABLE
  2
APPID
  5
9
330
0
100
AcDbSymbolTable
 70
     1
  0
APPID
  5
12
330
9
100
AcDbSymbolTableRecord
100
AcDbRegAppTableRecord
  2
ACAD
 70
     0
  0
ENDTAB
  0
TABLE
  2
DIMSTYLE
  5
A
330
0
100
AcDbSymbolTable
 70
     8
100
AcDbDimStyleTable
  0
DIMSTYLE
105
27
330
A
100
AcDbSymbolTableRecord
100
AcDbDimStyleTableRecord
  2
Standard
 70
     0
340
11
  0
DIMSTYLE
105
18B
102
{ACAD_REACTORS
330
18C
102
}
330
A
100
AcDbSymbolTableRecord
100
AcDbDimStyleTableRecord
  2
ME10_DIM_10
 70
     0
  3
\U+2300<>
 41
3.5
 42
2.0
 44
2.0
 71
     1
 73
     0
 74
     0
 77
     1
 78
     8
140
3.5
146
0.7
147
2.0
172
     1
173
     1
176
     2
177
     2
178
     3
271
     2
272
     0
340
76
  0
DIMSTYLE
105
196
102
{ACAD_REACTORS
330
197
102
}
330
A
100
AcDbSymbolTableRecord
100
AcDbDimStyleTableRecord
  2
ME10_DIM_11
 70
     0
  3
ER<>
 41
3.5
 42
2.0
 44
2.0
 71
     1
 73
     0
 74
     0
 77
     1
 78
     8
140
3.5
146
0.7
147
2.0
172
     1
173
     1
176
     2
177
     2
178
     3
271
     2
272
     0
340
76
  0
DIMSTYLE
105
1A1
102
{ACAD_REACTORS
330
1A2
102
}
330
A
100
AcDbSymbolTableRecord
100
AcDbDimStyleTableRecord
  2
ME10_DIM_12
 70
     0
  3
<>
 41
3.5
 42
2.0
 44
2.0
 71
     1
 73
     0
 74
     0
 77
     1
 78
     8
140
3.5
146
0.7
147
2.0
172
     1
173
     1
176
     2
177
     2
178
     3
271
     3
272
     0
340
76
  0
DIMSTYLE
105
1AC
102
{ACAD_REACTORS
330
1AD
102
}
330
A
100
AcDbSymbolTableRecord
100
AcDbDimStyleTableRecord
  2
ME10_DIM_13
 70
     0
  3
<>
 41
3.5
 42
2.0
 44
2.0
 71
     1
 73
     0
 74
     0
 77
     1
 78
     8
140
3.5
146
0.7
147
2.0
172
     1
173
     1
176
     2
177
     2
178
     3
271
     3
272
     0
340
76
  0
DIMSTYLE
105
1B7
102
{ACAD_REACTORS
330
1B8
102
}
330
A
100
AcDbSymbolTableRecord
100
AcDbDimStyleTableRecord
  2
ME10_DIM_14
 70
     0
  3
<>
 41
3.5
 42
2.0
 44
2.0
 71
     1
 73
     0
 74
     0
 77
     1
 78
     8
140
3.5
146
0.7
147
2.0
172
     1
173
     1
176
     2
177
     2
178
     3
271
     3
272
     0
340
76
  0
DIMSTYLE
105
1C2
102
{ACAD_REACTORS
330
1C3
102
}
330
A
100
AcDbSymbolTableRecord
100
AcDbDimStyleTableRecord
  2
ME10_DIM_15
 70
     0
  3
\U+2300<>
 41
3.5
 42
2.0
 44
2.0
 71
     1
 73
     0
 74
     0
 77
     1
 78
     8
140
3.5
146
0.7
147
2.0
172
     1
173
     1
176
     2
177
     2
178
     3
271
     2
272
     0
340
76
  0
DIMSTYLE
105
1CD
102
{ACAD_REACTORS
330
1CE
102
}
330
A
100
AcDbSymbolTableRecord
100
AcDbDimStyleTableRecord
  2
ME10_DIM_16
 70
     0
  3
<>
 41
3.5
 42
2.0
 44
2.0
 71
     1
 73
     0
 74
     0
 77
     1
 78
     8
140
3.5
146
0.7
147
2.0
172
     1
173
     1
176
     2
177
     2
178
     3
271
     2
272
     0
340
76
  0
ENDTAB
  0
TABLE
  2
BLOCK_RECORD
  5
1
330
0
100
AcDbSymbolTable
 70
    12
  0
BLOCK_RECORD
  5
1F
330
1
100
AcDbSymbolTableRecord
100
AcDbBlockTableRecord
  2
*Model_Space
340
22
  0
BLOCK_RECORD
  5
1B
330
1
100
AcDbSymbolTableRecord
100
AcDbBlockTableRecord
  2
*Paper_Space
340
1E
  0
BLOCK_RECORD
  5
23
330
1
100
AcDbSymbolTableRecord
100
AcDbBlockTableRecord
  2
*Paper_Space0
340
26
  0
BLOCK_RECORD
  5
44
330
1
100
AcDbSymbolTableRecord
100
AcDbBlockTableRecord
  2
Urheberrecht_DE-EN
340
0
102
{BLKREFS
331
73
102
}
  0
BLOCK_RECORD
  5
47
330
1
100
AcDbSymbolTableRecord
100
AcDbBlockTableRecord
  2
Aufnahme_SK40_ER16
340
0
102
{BLKREFS
331
6D
102
}
  0
BLOCK_RECORD
  5
4A
330
1
100
AcDbSymbolTableRecord
100
AcDbBlockTableRecord
  2
TOP
340
0
102
{BLKREFS
331
74
102
}
  0
BLOCK_RECORD
  5
70
330
1
100
AcDbSymbolTableRecord
100
AcDbBlockTableRecord
  2
40-320-16-3
340
0
102
{BLKREFS
331
75
102
}
  0
BLOCK_RECORD
  5
182
330
1
100
AcDbSymbolTableRecord
100
AcDbBlockTableRecord
  2
*D5
340
0
  0
BLOCK_RECORD
  5
18D
330
1
100
AcDbSymbolTableRecord
100
AcDbBlockTableRecord
  2
*D6
340
0
  0
BLOCK_RECORD
  5
198
330
1
100
AcDbSymbolTableRecord
100
AcDbBlockTableRecord
  2
*D7
340
0
  0
BLOCK_RECORD
  5
1A3
330
1
100
AcDbSymbolTableRecord
100
AcDbBlockTableRecord
  2
*D8
340
0
  0
BLOCK_RECORD
  5
1AE
330
1
100
AcDbSymbolTableRecord
100
AcDbBlockTableRecord
  2
*D9
340
0
  0
BLOCK_RECORD
  5
1B9
330
1
100
AcDbSymbolTableRecord
100
AcDbBlockTableRecord
  2
*D10
340
0
  0
BLOCK_RECORD
  5
1C4
330
1
100
AcDbSymbolTableRecord
100
AcDbBlockTableRecord
  2
*D11
340
0
  0
ENDTAB
  0
ENDSEC
  0
SECTION
  2
BLOCKS
  0
BLOCK
  5
20
330
1F
100
AcDbEntity
  8
0
100
AcDbBlockBegin
  2
*Model_Space
 70
     0
 10
0.0
 20
0.0
 30
0.0
  3
*Model_Space
  1

  0
ENDBLK
  5
21
330
1F
100
AcDbEntity
  8
0
100
AcDbBlockEnd
  0
BLOCK
  5
1C
330
1B
100
AcDbEntity
 67
     1
  8
0
100
AcDbBlockBegin
  2
*Paper_Space
 70
     0
 10
0.0
 20
0.0
 30
0.0
  3
*Paper_Space
  1

  0
ENDBLK
  5
1D
330
1B
100
AcDbEntity
 67
     1
  8
0
100
AcDbBlockEnd
  0
BLOCK
  5
24
330
23
100
AcDbEntity
  8
0
100
AcDbBlockBegin
  2
*Paper_Space0
 70
     0
 10
0.0
 20
0.0
 30
0.0
  3
*Paper_Space0
  1

  0
ENDBLK
  5
25
330
23
100
AcDbEntity
  8
0
100
AcDbBlockEnd
  0
BLOCK
  5
45
330
44
100
AcDbEntity
  8
0
100
AcDbBlockBegin
  2
Urheberrecht_DE-EN
 70
     0
 10
-168.391910180156
 20
75.9915949627323
 30
0.0
  3
Urheberrecht_DE-EN
  1

  0
MTEXT
  5
77
330
44
100
AcDbEntity
  8
1
 62
     1
100
AcDbMText
 10
-168.391910180156
 20
75.9915949627323
 30
0.0
 40
2.0
 41
0.0
 71
     7
 72
     1
  1
We own the copyright of this document. It \Pdetermined and may neither be copied or \Pmade accessible to outsiders without our\Ppermission.
  7
CONVERTER_11
 11
0.0
 21
1.0
 31
0.0
 73
     1
 44
0.90036014405762
  0
MTEXT
  5
78
330
44
100
AcDbEntity
  8
1
 62
     1
100
AcDbMText
 10
-168.391910180156
 20
19.7022080454261
 30
0.0
 40
2.0
 41
0.0
 71
     7
 72
     1
  1
F\U+00fcr diese Unterlage behalten wir das Ur-\Pheberrecht. Sie darf nur f\U+00fcr den von uns \Pbestimmten Zweck benutzt und ohne unsere \PZustimmung weder vervielf\U+00e4ltigt noch\PDritten zug\U+00e4nglich gemacht werden.
  7
CONVERTER_11
 11
0.0
 21
1.0
 31
0.0
 73
     1
 44
0.90036014405762
  0
ENDBLK
  5
46
330
44
100
AcDbEntity
  8
0
100
AcDbBlockEnd
  0
BLOCK
  5
48
330
47
100
AcDbEntity
  8
0
100
AcDbBlockBegin
  2
Aufnahme_SK40_ER16
 70
     0
 10
-200.9624557780865
 20
22.83999999999998
 30
0.0
  3
Aufnahme_SK40_ER16
  1

  0
LWPOLYLINE
  5
79
330
47
100
AcDbEntity
  8
1
  6
Continuous
 62
     7
100
AcDbPolyline
 90
        2
 70
     0
 43
0.5
 10
-35.84507684198451
 20
45.39999999999998
 10
-35.84507684198451
 20
68.39999999999998
  0
LWPOLYLINE
  5
7A
330
47
100
AcDbEntity
  8
1
  6
Continuous
 62
     7
100
AcDbPolyline
 90
        2
 70
     0
 43
0.5
 10
-48.92107684197873
 20
67.89990344284688
 10
-48.92107684197873
 20
45.90004083661698
  0
LWPOLYLINE
  5
7B
330
47
100
AcDbEntity
  8
1
  6
Continuous
 62
     7
100
AcDbPolyline
 90
        2
 70
     0
 43
0.25
 10
-80.74842711117408
 20
42.89999999999992
 10
-80.74842711117408
 20
70.89999999999998
  0
LWPOLYLINE
  5
7C
330
47
100
AcDbEntity
  8
1
  6
Continuous
 62
     7
100
AcDbPolyline
 90
        2
 70
     0
 43
0.25
 10
-80.17107684198444
 20
69.89999999999998
 10
-80.17107684198444
 20
43.90000000000003
  0
LWPOLYLINE
  5
7D
330
47
100
AcDbEntity
  8
1
  6
Continuous
 62
     7
100
AcDbPolyline
 90
        2
 70
     0
 43
0.5
 10
-80.95441325662036
 20
73.0076798159298
 10
-98.26846741987883
 20
82.05864856559288
  0
LWPOLYLINE
  5
7E
330
47
100
AcDbEntity
  8
1
  6
Continuous
 62
     7
100
AcDbPolyline
 90
        2
 70
     0
 43
0.5
 10
-70.9020169496603
 20
71.29999999999995
 10
-71.01748700349823
 20
71.49999999999994
  0
LWPOLYLINE
  5
7F
330
47
100
AcDbEntity
  8
1
  6
Continuous
 62
     7
100
AcDbPolyline
 90
        2
 70
     0
 43
0.5
 10
-71.7103073265258
 20
71.89999999999992
 10
-79.70919662663273
 20
71.89999999999992
  0
LWPOLYLINE
  5
80
330
47
100
AcDbEntity
  8
1
  6
Continuous
 62
     7
100
AcDbPolyline
 90
        2
 70
     0
 43
0.5
 10
-80.4020169496603
 20
72.29999999999995
 10
-80.63221046555641
 20
72.69870686510501
  0
LWPOLYLINE
  5
81
330
47
100
AcDbEntity
  8
1
  6
Continuous
 62
     7
100
AcDbPolyline
 90
        2
 70
     0
 43
0.5
 10
-98.26846741987883
 20
31.74135143440708
 10
-80.95441325662036
 20
40.79232018407015
  0
LWPOLYLINE
  5
82
330
47
100
AcDbEntity
  8
1
  6
Continuous
 62
     7
100
AcDbPolyline
 90
        2
 70
     0
 43
0.5
 10
-80.63221046555641
 20
41.10129313489495
 10
-80.4020169496603
 20
41.5
  0
LWPOLYLINE
  5
83
330
47
100
AcDbEntity
  8
1
  6
Continuous
 62
     7
100
AcDbPolyline
 90
        2
 70
     0
 43
0.5
 10
-79.70919662663273
 20
41.90000000000003
 10
-71.7103073265258
 20
41.90000000000003
  0
LWPOLYLINE
  5
84
330
47
100
AcDbEntity
  8
1
  6
Continuous
 62
     7
100
AcDbPolyline
 90
        2
 70
     0
 43
0.5
 10
-71.01748700349823
 20
42.30000000000001
 10
-70.9020169496603
 20
42.5
  0
LWPOLYLINE
  5
87
330
47
100
AcDbEntity
  8
1
  6
DASHED
 62
     7
100
AcDbPolyline
 90
        2
 70
     0
 43
0.35
 10
-48.90389092292872
 20
50.86499999999997
 10
-60.42107684198453
 20
50.865
  0
LWPOLYLINE
  5
88
330
47
100
AcDbEntity
  8
1
  6
DASHED
 62
     7
100
AcDbPolyline
 90
        2
 70
     0
 43
0.35
 10
-48.90389092292872
 20
50.86499999999997
 10
-34.92107684198453
 20
48.9
  0
LWPOLYLINE
  5
89
330
47
100
AcDbEntity
  8
1
  6
Continuous
 62
     7
100
AcDbPolyline
 90
        2
 70
     0
 43
0.5
 10
-34.92107684198453
 20
64.89999999999995
 10
-34.92107684198453
 20
46.99999999999997
  0
LWPOLYLINE
  5
8A
330
47
100
AcDbEntity
  8
1
  6
Continuous
 62
     7
100
AcDbPolyline
 90
        2
 70
     0
 43
0.5
 10
-34.92107684198453
 20
66.79999999999997
 10
-34.92107684198453
 20
64.89999999999995
  0
LWPOLYLINE
  5
8B
330
47
100
AcDbEntity
  8
1
  6
DASHED
 62
     7
100
AcDbPolyline
 90
        2
 70
     0
 43
0.35
 10
-48.90389092292872
 20
62.93499999999997
 10
-48.90389092292872
 20
50.86499999999997
  0
LWPOLYLINE
  5
8C
330
47
100
AcDbEntity
  8
1
  6
DASHED
 62
     7
100
AcDbPolyline
 90
        2
 70
     0
 43
0.35
 10
-60.42107684198453
 20
62.93499999999997
 10
-48.90389092292872
 20
62.93499999999997
  0
LWPOLYLINE
  5
8D
330
47
100
AcDbEntity
  8
1
  6
DASHED
 62
     7
100
AcDbPolyline
 90
        2
 70
     0
 43
0.35
 10
-60.42107684198453
 20
62.93499999999997
 10
-60.42107684198453
 20
50.865
  0
LWPOLYLINE
  5
8E
330
47
100
AcDbEntity
  8
1
  6
DASHED
 62
     7
100
AcDbPolyline
 90
        2
 70
     0
 43
0.35
 10
-34.92107684198453
 20
64.89999999999995
 10
-48.90389092292872
 20
62.93499999999997
  0
LWPOLYLINE
  5
FF
330
47
100
AcDbEntity
  8
1
  6
Continuous
 62
     7
100
AcDbPolyline
 90
        2
 70
     0
 43
0.5
 10
-98.26846741987883
 20
82.05864856559288
 42
0.12100639282323
 10
-99.65828316474244
 20
82.39999999999998
 42
0.12100639282323
  0
LWPOLYLINE
  5
100
330
47
100
AcDbEntity
  8
1
  6
Continuous
 62
     7
100
AcDbPolyline
 90
        2
 70
     0
 43
0.5
 10
-70.9020169496603
 20
71.29999999999995
 42
0.26794919243113
 10
-70.20919662663273
 20
70.89999999999998
 42
0.26794919243113
  0
LWPOLYLINE
  5
101
330
47
100
AcDbEntity
  8
1
  6
Continuous
 62
     7
100
AcDbPolyline
 90
        2
 70
     0
 43
0.5
 10
-71.01748700349823
 20
71.49999999999994
 42
0.26794919243113
 10
-71.7103073265258
 20
71.89999999999992
 42
0.26794919243113
  0
LWPOLYLINE
  5
102
330
47
100
AcDbEntity
  8
1
  6
Continuous
 62
     7
100
AcDbPolyline
 90
        2
 70
     0
 43
0.5
 10
-80.4020169496603
 20
72.29999999999995
 42
0.26794919243113
 10
-79.70919662663273
 20
71.89999999999992
 42
0.26794919243113
  0
LWPOLYLINE
  5
103
330
47
100
AcDbEntity
  8
1
  6
Continuous
 62
     7
100
AcDbPolyline
 90
        2
 70
     0
 43
0.5
 10
-80.63221046555641
 20
72.69870686510501
 42
0.14232801783666
 10
-80.95441325662036
 20
73.0076798159298
 42
0.14232801783666
  0
LWPOLYLINE
  5
104
330
47
100
AcDbEntity
  8
1
  6
Continuous
 62
     7
100
AcDbPolyline
 90
        2
 70
     0
 43
0.5
 10
-99.65828316474244
 20
31.39999999999998
 42
0.12100639282323
 10
-98.26846741987883
 20
31.74135143440708
 42
0.12100639282323
  0
LWPOLYLINE
  5
105
330
47
100
AcDbEntity
  8
1
  6
Continuous
 62
     7
100
AcDbPolyline
 90
        2
 70
     0
 43
0.5
 10
-80.95441325662036
 20
40.79232018407015
 42
0.14232801783666
 10
-80.63221046555641
 20
41.10129313489495
 42
0.14232801783666
  0
LWPOLYLINE
  5
106
330
47
100
AcDbEntity
  8
1
  6
Continuous
 62
     7
100
AcDbPolyline
 90
        2
 70
     0
 43
0.5
 10
-79.70919662663273
 20
41.90000000000003
 42
0.26794919243113
 10
-80.4020169496603
 20
41.5
 42
0.26794919243113
  0
LWPOLYLINE
  5
107
330
47
100
AcDbEntity
  8
1
  6
Continuous
 62
     7
100
AcDbPolyline
 90
        2
 70
     0
 43
0.5
 10
-71.7103073265258
 20
41.90000000000003
 42
0.26794919243113
 10
-71.01748700349823
 20
42.30000000000001
 42
0.26794919243113
  0
LWPOLYLINE
  5
108
330
47
100
AcDbEntity
  8
1
  6
Continuous
 62
     7
100
AcDbPolyline
 90
        2
 70
     0
 43
0.5
 10
-70.20919662663273
 20
42.90000000000003
 42
0.26794919243113
 10
-70.9020169496603
 20
42.5
 42
0.26794919243113
  0
LWPOLYLINE
  5
109
330
47
100
AcDbEntity
  8
1
  6
Continuous
 62
     7
100
AcDbPolyline
 90
        2
 70
     0
 43
0.25
 10
-50.42089992179251
 20
47.40008845537308
 10
-50.42089992179251
 20
66.39999990828808
  0
LWPOLYLINE
  5
10A
330
47
100
AcDbEntity
  8
1
  6
DOT_CENTER
 62
     7
100
AcDbPolyline
 90
        2
 70
     0
 43
0.25
 10
-79.13158464749
 20
56.89999999999998
 10
-33.31584492034705
 20
56.89999999999998
  0
LWPOLYLINE
  5
10B
330
47
100
AcDbEntity
  8
1
  6
Continuous
 62
     7
100
AcDbPolyline
 90
        2
 70
     0
 43
0.5
 10
-102.1564557780864
 20
88.39999999999998
 10
-102.1564557780864
 20
25.39999999999998
  0
LWPOLYLINE
  5
10C
330
47
100
AcDbEntity
  8
1
  6
Continuous
 62
     7
100
AcDbPolyline
 90
        2
 70
     0
 43
0.5
 10
-52.62818362317103
 20
70.60710678118657
 42
0.19891236737967
 10
-53.33529040435764
 20
70.89999999999998
  0
LWPOLYLINE
  5
10D
330
47
100
AcDbEntity
  8
1
  6
Continuous
 62
     7
100
AcDbPolyline
 90
        2
 70
     0
 43
0.5
 10
-53.33529040435764
 20
42.89999999999998
 42
0.19891236737968
 10
-52.62818362317103
 20
43.19289321881348
  0
LWPOLYLINE
  5
10E
330
47
100
AcDbEntity
  8
1
  6
Continuous
 62
     7
100
AcDbPolyline
 90
        2
 70
     0
 43
0.5
 10
-102.1564557780864
 20
83.39999999999998
 42
0.4142135623731
 10
-101.1564557780864
 20
82.39999999999998
  0
LWPOLYLINE
  5
10F
330
47
100
AcDbEntity
  8
1
  6
Continuous
 62
     7
100
AcDbPolyline
 90
        2
 70
     0
 43
0.5
 10
-101.1564557780864
 20
31.39999999999998
 42
0.4142135623731
 10
-102.1564557780864
 20
30.39999999999998
  0
LWPOLYLINE
  5
110
330
47
100
AcDbEntity
  8
1
  6
Continuous
 62
     7
100
AcDbPolyline
 90
        3
 70
     0
 43
0.5
 10
-132.9064557780864
 20
56.89999999999998
 42
1.0
 10
-141.4064557780864
 20
56.89999999999998
 42
1.0
 10
-132.9064557780864
 20
56.89999999999998
  0
LWPOLYLINE
  5
111
330
47
100
AcDbEntity
  8
1
  6
Continuous
 62
     7
100
AcDbPolyline
 90
        3
 70
     0
 43
0.5
 10
-133.4064557780864
 20
56.89999999999998
 42
1.0
 10
-140.9064557780864
 20
56.89999999999998
 42
1.0
 10
-133.4064557780864
 20
56.89999999999998
  0
LWPOLYLINE
  5
112
330
47
100
AcDbEntity
  8
1
  6
Continuous
 62
     7
100
AcDbPolyline
 90
        2
 70
     0
 43
0.5
 10
-50.71150183127242
 20
68.68049967053858
 42
0.19426408639719
 10
-50.01731119737502
 20
68.39979069589837
  0
LWPOLYLINE
  5
113
330
47
100
AcDbEntity
  8
1
  6
Continuous
 62
     7
100
AcDbPolyline
 90
        2
 70
     0
 43
0.5
 10
-50.00689992179252
 20
45.40008845537308
 42
0.19889611464511
 10
-50.71389992179252
 20
45.10708845537307
  0
LWPOLYLINE
  5
114
330
47
100
AcDbEntity
  8
1
  6
Continuous
 62
     7
100
AcDbPolyline
 90
        2
 70
     0
 43
0.5
 10
-159.0164557780864
 20
79.67199999999997
 42
0.39951698664578
 10
-160.1564557780864
 20
78.47399999999998
  0
LWPOLYLINE
  5
115
330
47
100
AcDbEntity
  8
1
  6
Continuous
 62
     7
100
AcDbPolyline
 90
        2
 70
     0
 43
0.5
 10
-154.1564557780864
 20
61.66999999999997
 42
0.4142135623731
 10
-155.6564557780864
 20
63.16999999999997
  0
LWPOLYLINE
  5
116
330
47
100
AcDbEntity
  8
1
  6
Continuous
 62
     7
100
AcDbPolyline
 90
        2
 70
     0
 43
0.5
 10
-155.6564557780864
 20
50.62999999999998
 42
0.4142135623731
 10
-154.1564557780864
 20
52.12999999999998
  0
LWPOLYLINE
  5
117
330
47
100
AcDbEntity
  8
1
  6
Continuous
 62
     7
100
AcDbPolyline
 90
        2
 70
     0
 43
0.5
 10
-160.1564557780864
 20
35.32699999999998
 42
0.39975859315768
 10
-159.0164557780864
 20
34.12799999999997
  0
LWPOLYLINE
  5
118
330
47
100
AcDbEntity
  8
1
  6
Continuous
 62
     7
100
AcDbPolyline
 90
        2
 70
     0
 43
0.5
 10
-106.7794557780864
 20
32.56399999999998
 42
0.13766050511666
 10
-108.2812612473609
 20
36.04416022443768
  0
LWPOLYLINE
  5
119
330
47
100
AcDbEntity
  8
1
  6
Continuous
 62
     7
100
AcDbPolyline
 90
        2
 70
     0
 43
0.5
 10
-112.0316511449458
 20
36.04416106057168
 42
0.13766052157885
 10
-113.5334557780864
 20
32.56399999999998
  0
LWPOLYLINE
  5
11A
330
47
100
AcDbEntity
  8
1
  6
Continuous
 62
     7
100
AcDbPolyline
 90
        2
 70
     0
 43
0.5
 10
-116.0444557780864
 20
36.89999999999998
 42
0.28082657473577
 10
-123.1564557780864
 20
32.56399999999998
  0
LWPOLYLINE
  5
11B
330
47
100
AcDbEntity
  8
1
  6
Continuous
 62
     7
100
AcDbPolyline
 90
        2
 70
     0
 43
0.5
 10
-108.2814557780864
 20
28.40000011920928
 42
0.4142135274575
 10
-109.2814557780864
 20
29.39999999999998
  0
LWPOLYLINE
  5
11C
330
47
100
AcDbEntity
  8
1
  6
Continuous
 62
     7
100
AcDbPolyline
 90
        2
 70
     0
 43
0.5
 10
-111.0314557780864
 20
29.39999999999998
 42
0.41421359728869
 10
-112.0314557780864
 20
28.39999988079068
  0
LWPOLYLINE
  5
11D
330
47
100
AcDbEntity
  8
1
  6
Continuous
 62
     7
100
AcDbPolyline
 90
        2
 70
     0
 43
0.5
 10
-115.1564557780864
 20
64.89999999999998
 42
1.0
 10
-115.1564557780864
 20
48.89999999999998
  0
LWPOLYLINE
  5
11E
330
47
100
AcDbEntity
  8
1
  6
Continuous
 62
     7
100
AcDbPolyline
 90
        2
 70
     0
 43
0.5
 10
-112.0314557780864
 20
85.39999988079067
 42
0.4142135274575
 10
-111.0314557780864
 20
84.39999999999998
  0
LWPOLYLINE
  5
11F
330
47
100
AcDbEntity
  8
1
  6
Continuous
 62
     7
100
AcDbPolyline
 90
        2
 70
     0
 43
0.5
 10
-109.2814557780864
 20
84.39999999999998
 42
0.41421359728869
 10
-108.2814557780864
 20
85.40000011920928
  0
LWPOLYLINE
  5
120
330
47
100
AcDbEntity
  8
1
  6
Continuous
 62
     7
100
AcDbPolyline
 90
        2
 70
     0
 43
0.5
 10
-129.8594557780864
 20
81.03499999999997
 42
0.06539724823504
 10
-129.7044557780864
 20
81.01499999999997
  0
LWPOLYLINE
  5
121
330
47
100
AcDbEntity
  8
1
  6
Continuous
 62
     7
100
AcDbPolyline
 90
        2
 70
     0
 43
0.5
 10
-128.6494557780864
 20
81.01499999999997
 42
0.24586817814485
 10
-128.1564504546764
 20
81.27302657604217
  0
LWPOLYLINE
  5
122
330
47
100
AcDbEntity
  8
1
  6
Continuous
 62
     7
100
AcDbPolyline
 90
        2
 70
     0
 43
0.5
 10
-159.1564557780864
 20
65.72099999999998
 42
0.0190215038091
 10
-155.6564508243654
 20
66.12511656082557
  0
LWPOLYLINE
  5
123
330
47
100
AcDbEntity
  8
1
  6
Continuous
 62
     7
100
AcDbPolyline
 90
        2
 70
     0
 43
0.5
 10
-155.6564508243654
 20
47.67488343917439
 42
0.0190215038091
 10
-159.1564557780864
 20
48.07899999999998
  0
LWPOLYLINE
  5
124
330
47
100
AcDbEntity
  8
1
  6
Continuous
 62
     7
100
AcDbPolyline
 90
        2
 70
     0
 43
0.5
 10
-129.7044557780864
 20
32.78499999999998
 42
0.06539724823504
 10
-129.8594557780864
 20
32.76499999999997
  0
LWPOLYLINE
  5
125
330
47
100
AcDbEntity
  8
1
  6
Continuous
 62
     7
100
AcDbPolyline
 90
        2
 70
     0
 43
0.5
 10
-128.1564504546764
 20
32.52697342395778
 42
0.24586817814485
 10
-128.6494557780864
 20
32.78499999999998
  0
LWPOLYLINE
  5
126
330
47
100
AcDbEntity
  8
1
  6
Continuous
 62
     7
100
AcDbPolyline
 90
        2
 70
     0
 43
0.5
 10
-70.20919662663273
 20
42.90000000000003
 10
-53.33529040435764
 20
42.89999999999998
  0
LWPOLYLINE
  5
127
330
47
100
AcDbEntity
  8
1
  6
Continuous
 62
     7
100
AcDbPolyline
 90
        2
 70
     0
 43
0.5
 10
-53.33529040435764
 20
70.89999999999998
 10
-70.20919662663273
 20
70.89999999999998
  0
LWPOLYLINE
  5
128
330
47
100
AcDbEntity
  8
1
  6
Continuous
 62
     7
100
AcDbPolyline
 90
        2
 70
     0
 43
0.5
 10
-101.1564557780864
 20
31.39999999999998
 10
-99.65828316474244
 20
31.39999999999998
  0
LWPOLYLINE
  5
129
330
47
100
AcDbEntity
  8
1
  6
Continuous
 62
     7
100
AcDbPolyline
 90
        2
 70
     0
 43
0.5
 10
-99.65828316474244
 20
82.39999999999998
 10
-101.1564557780864
 20
82.39999999999998
  0
LWPOLYLINE
  5
12A
330
47
100
AcDbEntity
  8
6
  6
Continuous
 62
     4
100
AcDbPolyline
 90
        2
 70
     0
 43
0.5
 10
-35.84507684198451
 20
68.39999999999998
 10
-35.81507684198454
 20
68.34799999999997
  0
LWPOLYLINE
  5
12B
330
47
100
AcDbEntity
  8
1
  6
Continuous
 62
     7
100
AcDbPolyline
 90
        2
 70
     0
 43
0.5
 10
-35.84507684198451
 20
45.39999999999998
 10
-34.92107684198453
 20
46.99999999999997
  0
LWPOLYLINE
  5
12C
330
47
100
AcDbEntity
  8
1
  6
Continuous
 62
     7
100
AcDbPolyline
 90
        2
 70
     0
 43
0.5
 10
-50.00689992179252
 20
45.40008845537308
 10
-35.84507684198451
 20
45.39999999999998
  0
LWPOLYLINE
  5
12D
330
47
100
AcDbEntity
  8
1
  6
Continuous
 62
     7
100
AcDbPolyline
 90
        2
 70
     0
 43
0.5
 10
-52.62818362317103
 20
43.19289321881348
 10
-50.71389992179252
 20
45.10708845537307
  0
LWPOLYLINE
  5
12E
330
47
100
AcDbEntity
  8
1
  6
Continuous
 62
     7
100
AcDbPolyline
 90
        2
 70
     0
 43
0.5
 10
-52.62818362317103
 20
70.60710678118657
 10
-50.71150183127242
 20
68.68049967053858
  0
LWPOLYLINE
  5
12F
330
47
100
AcDbEntity
  8
1
  6
Continuous
 62
     7
100
AcDbPolyline
 90
        2
 70
     0
 43
0.5
 10
-50.01731119737502
 20
68.39979069589837
 10
-35.84507684198451
 20
68.39999999999998
  0
LWPOLYLINE
  5
130
330
47
100
AcDbEntity
  8
1
  6
Continuous
 62
     7
100
AcDbPolyline
 90
        2
 70
     0
 43
0.5
 10
-35.81507684198454
 20
68.34799999999997
 10
-34.92107684198453
 20
66.79999999999997
  0
LWPOLYLINE
  5
131
330
47
100
AcDbEntity
  8
1
  6
Continuous
 62
     7
100
AcDbPolyline
 90
        2
 70
     0
 43
0.5
 10
-48.92107684198453
 20
68.39999999999998
 10
-48.92107684197873
 20
67.89990344284688
  0
LWPOLYLINE
  5
132
330
47
100
AcDbEntity
  8
1
  6
Continuous
 62
     7
100
AcDbPolyline
 90
        2
 70
     0
 43
0.25
 10
-48.92107684197873
 20
67.89990344284688
 10
-35.55634939109473
 20
67.90000213202327
  0
LWPOLYLINE
  5
133
330
47
100
AcDbEntity
  8
1
  6
Continuous
 62
     7
100
AcDbPolyline
 90
        2
 70
     0
 43
0.5
 10
-48.92107684198453
 20
45.39999999999998
 10
-48.92107684197873
 20
45.90004083661698
  0
LWPOLYLINE
  5
134
330
47
100
AcDbEntity
  8
1
  6
Continuous
 62
     7
100
AcDbPolyline
 90
        2
 70
     0
 43
0.25
 10
-48.92107684197873
 20
45.90004083661698
 10
-35.5563273627547
 20
45.89999909820888
  0
LWPOLYLINE
  5
135
330
47
100
AcDbEntity
  8
1
  6
DOT_CENTER
 62
     7
100
AcDbPolyline
 90
        2
 70
     0
 43
0.25
 10
-163.1801224840634
 20
56.89999999999998
 10
-79.13158464749
 20
56.89999999999998
  0
LWPOLYLINE
  5
136
330
47
100
AcDbEntity
  8
1
  6
Continuous
 62
     7
100
AcDbPolyline
 90
        2
 70
     0
 43
0.5
 10
-102.1564557780864
 20
30.39999999999998
 10
-102.1564557780864
 20
31.39999999999998
  0
LWPOLYLINE
  5
137
330
47
100
AcDbEntity
  8
1
  6
DOT_CENTER
 62
     7
100
AcDbPolyline
 90
        2
 70
     0
 43
0.25
 10
-121.1564557780864
 20
91.93199999999997
 10
-121.1564557780864
 20
80.72699999999998
  0
LWPOLYLINE
  5
138
330
47
100
AcDbEntity
  8
1
  6
DOT_CENTER
 62
     7
100
AcDbPolyline
 90
        2
 70
     0
 43
0.25
 10
-115.1564557780864
 20
66.60599999999998
 10
-115.1564557780864
 20
46.57499999999997
  0
LWPOLYLINE
  5
139
330
47
100
AcDbEntity
  8
1
  6
DOT_CENTER
 62
     7
100
AcDbPolyline
 90
        2
 70
     0
 43
0.25
 10
-110.1564557780864
 20
88.39999999999998
 10
-110.1564557780864
 20
25.45399999999998
  0
LWPOLYLINE
  5
13A
330
47
100
AcDbEntity
  8
1
  6
Continuous
 62
     7
100
AcDbPolyline
 90
        2
 70
     0
 43
0.5
 10
-127.6564557780864
 20
25.39999999999998
 10
-128.1564557780864
 20
25.89999999999998
  0
LWPOLYLINE
  5
13B
330
47
100
AcDbEntity
  8
1
  6
Continuous
 62
     7
100
AcDbPolyline
 90
        2
 70
     0
 43
0.5
 10
-128.1564557780864
 20
25.89999999999998
 10
-128.1564557780864
 20
87.89999999999998
  0
LWPOLYLINE
  5
13C
330
47
100
AcDbEntity
  8
1
  6
Continuous
 62
     7
100
AcDbPolyline
 90
        2
 70
     0
 43
0.5
 10
-128.1564557780864
 20
87.89999999999998
 10
-127.6564557780864
 20
88.39999999999998
  0
LWPOLYLINE
  5
13D
330
47
100
AcDbEntity
  8
1
  6
Continuous
 62
     7
100
AcDbPolyline
 90
        2
 70
     0
 43
0.5
 10
-127.6564557780864
 20
88.39999999999998
 10
-127.6564557780864
 20
25.39999999999998
  0
LWPOLYLINE
  5
13E
330
47
100
AcDbEntity
  8
1
  6
Continuous
 62
     7
100
AcDbPolyline
 90
        2
 70
     0
 43
0.5
 10
-129.7854557780864
 20
32.89199999999998
 10
-129.7854557780864
 20
80.91699999999997
  0
LWPOLYLINE
  5
13F
330
47
100
AcDbEntity
  8
1
  6
Continuous
 62
     7
100
AcDbPolyline
 90
        2
 70
     0
 43
0.5
 10
-130.1564557780864
 20
81.11499999999998
 10
-159.0164557780864
 20
79.67199999999997
  0
LWPOLYLINE
  5
140
330
47
100
AcDbEntity
  8
1
  6
Continuous
 62
     7
100
AcDbPolyline
 90
        2
 70
     0
 43
0.5
 10
-130.1564557780864
 20
81.11499999999998
 10
-130.1564557780864
 20
32.68499999999997
  0
LWPOLYLINE
  5
141
330
47
100
AcDbEntity
  8
1
  6
Continuous
 62
     7
100
AcDbPolyline
 90
        2
 70
     0
 43
0.5
 10
-160.1564557780864
 20
78.47399999999998
 10
-160.1564557780864
 20
64.16999999999997
  0
LWPOLYLINE
  5
142
330
47
100
AcDbEntity
  8
1
  6
Continuous
 62
     7
100
AcDbPolyline
 90
        2
 70
     0
 43
0.5
 10
-160.1564557780864
 20
49.62999999999998
 10
-160.1564557780864
 20
35.32699999999998
  0
LWPOLYLINE
  5
143
330
47
100
AcDbEntity
  8
1
  6
Continuous
 62
     7
100
AcDbPolyline
 90
        2
 70
     0
 43
0.5
 10
-159.1564557780864
 20
63.16999999999997
 10
-160.1564557780864
 20
64.16999999999997
  0
LWPOLYLINE
  5
144
330
47
100
AcDbEntity
  8
1
  6
Continuous
 62
     7
100
AcDbPolyline
 90
        2
 70
     0
 43
0.5
 10
-159.1564557780864
 20
63.16999999999997
 10
-155.6564557780864
 20
63.16999999999997
  0
LWPOLYLINE
  5
145
330
47
100
AcDbEntity
  8
1
  6
Continuous
 62
     7
100
AcDbPolyline
 90
        2
 70
     0
 43
0.5
 10
-154.1564557780864
 20
61.66999999999997
 10
-154.1564557780864
 20
52.12999999999998
  0
LWPOLYLINE
  5
146
330
47
100
AcDbEntity
  8
1
  6
Continuous
 62
     7
100
AcDbPolyline
 90
        2
 70
     0
 43
0.5
 10
-159.1564557780864
 20
50.62999999999998
 10
-160.1564557780864
 20
49.62999999999998
  0
LWPOLYLINE
  5
147
330
47
100
AcDbEntity
  8
1
  6
Continuous
 62
     7
100
AcDbPolyline
 90
        2
 70
     0
 43
0.5
 10
-159.1564557780864
 20
50.62999999999998
 10
-155.6564557780864
 20
50.62999999999998
  0
LWPOLYLINE
  5
148
330
47
100
AcDbEntity
  8
1
  6
Continuous
 62
     7
100
AcDbPolyline
 90
        2
 70
     0
 43
0.5
 10
-130.1564557780864
 20
32.68499999999997
 10
-159.0164557780864
 20
34.12799999999997
  0
LWPOLYLINE
  5
149
330
47
100
AcDbEntity
  8
1
  6
Continuous
 62
     7
100
AcDbPolyline
 90
        2
 70
     0
 43
0.5
 10
-102.1564557780864
 20
88.39999999999998
 10
-106.7794557780864
 20
88.39999999999998
  0
LWPOLYLINE
  5
14A
330
47
100
AcDbEntity
  8
1
  6
Continuous
 62
     7
100
AcDbPolyline
 90
        2
 70
     0
 43
0.5
 10
-113.5334557780864
 20
88.39999999999998
 10
-116.1564557780864
 20
88.39999999999998
  0
LWPOLYLINE
  5
14B
330
47
100
AcDbEntity
  8
1
  6
Continuous
 62
     7
100
AcDbPolyline
 90
        2
 70
     0
 43
0.5
 10
-126.1564557780864
 20
88.39999999999998
 10
-127.6564557780864
 20
88.39999999999998
  0
LWPOLYLINE
  5
14C
330
47
100
AcDbEntity
  8
1
  6
Continuous
 62
     7
100
AcDbPolyline
 90
        2
 70
     0
 43
0.5
 10
-102.1564557780864
 20
36.89999999999998
 10
-108.2814557780864
 20
36.89999999999998
  0
LWPOLYLINE
  5
14D
330
47
100
AcDbEntity
  8
1
  6
Continuous
 62
     7
100
AcDbPolyline
 90
        2
 70
     0
 43
0.5
 10
-112.0314557780864
 20
36.89999999999998
 10
-116.0444557780864
 20
36.89999999999998
  0
LWPOLYLINE
  5
14E
330
47
100
AcDbEntity
  8
1
  6
Continuous
 62
     7
100
AcDbPolyline
 90
        2
 70
     0
 43
0.5
 10
-102.1564557780864
 20
32.56399999999998
 10
-106.7794557780864
 20
32.56399999999998
  0
LWPOLYLINE
  5
14F
330
47
100
AcDbEntity
  8
1
  6
Continuous
 62
     7
100
AcDbPolyline
 90
        2
 70
     0
 43
0.5
 10
-113.5334557780864
 20
32.56399999999998
 10
-123.1564557780864
 20
32.56399999999998
  0
LWPOLYLINE
  5
150
330
47
100
AcDbEntity
  8
1
  6
Continuous
 62
     7
100
AcDbPolyline
 90
        2
 70
     0
 43
0.5
 10
-102.1564557780864
 20
25.39999999999998
 10
-106.7794557780864
 20
25.39999999999998
  0
LWPOLYLINE
  5
151
330
47
100
AcDbEntity
  8
1
  6
Continuous
 62
     7
100
AcDbPolyline
 90
        2
 70
     0
 43
0.5
 10
-113.5334557780864
 20
25.39999999999998
 10
-127.6564557780864
 20
25.39999999999998
  0
LWPOLYLINE
  5
152
330
47
100
AcDbEntity
  8
1
  6
Continuous
 62
     7
100
AcDbPolyline
 90
        2
 70
     0
 43
0.5
 10
-113.5334557780864
 20
48.89999999999998
 10
-113.5334557780864
 20
36.89999999999998
  0
LWPOLYLINE
  5
153
330
47
100
AcDbEntity
  8
1
  6
Continuous
 62
     7
100
AcDbPolyline
 90
        2
 70
     0
 43
0.5
 10
-113.5334557780864
 20
32.56399999999998
 10
-113.5334557780864
 20
25.39999999999998
  0
LWPOLYLINE
  5
154
330
47
100
AcDbEntity
  8
1
  6
Continuous
 62
     7
100
AcDbPolyline
 90
        2
 70
     0
 43
0.5
 10
-112.0314557780864
 20
85.79699999999997
 10
-112.0314557780864
 20
64.24799999999998
  0
LWPOLYLINE
  5
155
330
47
100
AcDbEntity
  8
1
  6
Continuous
 62
     7
100
AcDbPolyline
 90
        2
 70
     0
 43
0.5
 10
-112.0314557780864
 20
49.55199999999998
 10
-112.0314557780864
 20
42.85599999999998
  0
LWPOLYLINE
  5
156
330
47
100
AcDbEntity
  8
1
  6
Continuous
 62
     7
100
AcDbPolyline
 90
        2
 70
     0
 43
0.5
 10
-112.0314557780864
 20
42.85599999999998
 10
-112.0314557780864
 20
28.00299999999998
  0
LWPOLYLINE
  5
157
330
47
100
AcDbEntity
  8
1
  6
Continuous
 62
     7
100
AcDbPolyline
 90
        2
 70
     0
 43
0.5
 10
-108.2814557780864
 20
85.79799999999997
 10
-108.2814557780864
 20
64.24799999999998
  0
LWPOLYLINE
  5
158
330
47
100
AcDbEntity
  8
1
  6
Continuous
 62
     7
100
AcDbPolyline
 90
        2
 70
     0
 43
0.5
 10
-108.2814557780864
 20
49.55199999999998
 10
-108.2814557780864
 20
42.80899999999998
  0
LWPOLYLINE
  5
159
330
47
100
AcDbEntity
  8
1
  6
Continuous
 62
     7
100
AcDbPolyline
 90
        2
 70
     0
 43
0.5
 10
-108.2814557780864
 20
42.85599999999998
 10
-108.2814557780864
 20
28.00199999999998
  0
LWPOLYLINE
  5
15A
330
47
100
AcDbEntity
  8
1
  6
Continuous
 62
     7
100
AcDbPolyline
 90
        2
 70
     0
 43
0.5
 10
-106.7794557780864
 20
25.39999999999998
 10
-106.7794557780864
 20
32.56399999999998
  0
LWPOLYLINE
  5
15B
330
47
100
AcDbEntity
  8
1
  6
Continuous
 62
     7
100
AcDbPolyline
 90
        2
 70
     0
 43
0.5
 10
-106.7794557780864
 20
36.89999999999998
 10
-106.7794557780864
 20
48.89999999999998
  0
LWPOLYLINE
  5
15C
330
47
100
AcDbEntity
  8
1
  6
Continuous
 62
     7
100
AcDbPolyline
 90
        2
 70
     0
 43
0.5
 10
-106.7794557780864
 20
64.89999999999998
 10
-106.7794557780864
 20
88.39999999999998
  0
LWPOLYLINE
  5
15D
330
47
100
AcDbEntity
  8
1
  6
Continuous
 62
     7
100
AcDbPolyline
 90
        2
 70
     0
 43
0.5
 10
-112.0314557780864
 20
49.55199999999998
 10
-108.2814557780864
 20
49.55199999999998
  0
LWPOLYLINE
  5
15E
330
47
100
AcDbEntity
  8
1
  6
Continuous
 62
     7
100
AcDbPolyline
 90
        2
 70
     0
 43
0.5
 10
-115.1564557780864
 20
48.89999999999998
 10
-112.0314557780864
 20
48.89999999999998
  0
LWPOLYLINE
  5
15F
330
47
100
AcDbEntity
  8
1
  6
Continuous
 62
     7
100
AcDbPolyline
 90
        2
 70
     0
 43
0.5
 10
-108.2814557780864
 20
48.89999999999998
 10
-102.1564557780864
 20
48.89999999999998
  0
LWPOLYLINE
  5
160
330
47
100
AcDbEntity
  8
1
  6
Continuous
 62
     7
100
AcDbPolyline
 90
        2
 70
     0
 43
0.5
 10
-115.1564557780864
 20
64.89999999999998
 10
-112.0314557780864
 20
64.89999999999998
  0
LWPOLYLINE
  5
161
330
47
100
AcDbEntity
  8
1
  6
Continuous
 62
     7
100
AcDbPolyline
 90
        2
 70
     0
 43
0.5
 10
-108.2814557780864
 20
64.89999999999998
 10
-102.1564557780864
 20
64.89999999999998
  0
LWPOLYLINE
  5
162
330
47
100
AcDbEntity
  8
1
  6
Continuous
 62
     7
100
AcDbPolyline
 90
        2
 70
     0
 43
0.5
 10
-112.0314557780864
 20
64.24799999999998
 10
-108.2814557780864
 20
64.24799999999998
  0
LWPOLYLINE
  5
163
330
47
100
AcDbEntity
  8
1
  6
Continuous
 62
     7
100
AcDbPolyline
 90
        2
 70
     0
 43
0.5
 10
-128.6494557780864
 20
81.01499999999997
 10
-129.7044557780864
 20
81.01499999999997
  0
LWPOLYLINE
  5
164
330
47
100
AcDbEntity
  8
1
  6
Continuous
 62
     7
100
AcDbPolyline
 90
        2
 70
     0
 43
0.5
 10
-130.1564557780864
 20
81.11499999999998
 10
-129.8594557780864
 20
81.03499999999997
  0
LWPOLYLINE
  5
165
330
47
100
AcDbEntity
  8
1
  6
Continuous
 62
     7
100
AcDbPolyline
 90
        2
 70
     0
 43
0.5
 10
-159.1564557780864
 20
65.72099999999998
 10
-160.1564557780864
 20
66.72099999999998
  0
LWPOLYLINE
  5
166
330
47
100
AcDbEntity
  8
1
  6
Continuous
 62
     7
100
AcDbPolyline
 90
        2
 70
     0
 43
0.5
 10
-159.1564557780864
 20
63.16999999999997
 10
-159.1564557780864
 20
65.72099999999998
  0
LWPOLYLINE
  5
167
330
47
100
AcDbEntity
  8
1
  6
Continuous
 62
     7
100
AcDbPolyline
 90
        2
 70
     0
 43
0.5
 10
-154.1564557780864
 20
65.72099999999998
 10
-154.1564557780864
 20
61.66999999999997
  0
LWPOLYLINE
  5
168
330
47
100
AcDbEntity
  8
1
  6
Continuous
 62
     7
100
AcDbPolyline
 90
        2
 70
     0
 43
0.5
 10
-159.1564557780864
 20
48.07899999999998
 10
-160.1564557780864
 20
47.07899999999998
  0
LWPOLYLINE
  5
169
330
47
100
AcDbEntity
  8
1
  6
Continuous
 62
     7
100
AcDbPolyline
 90
        2
 70
     0
 43
0.5
 10
-159.1564557780864
 20
50.62999999999998
 10
-159.1564557780864
 20
48.07899999999998
  0
LWPOLYLINE
  5
16A
330
47
100
AcDbEntity
  8
1
  6
Continuous
 62
     7
100
AcDbPolyline
 90
        2
 70
     0
 43
0.5
 10
-154.1564557780864
 20
48.07899999999998
 10
-154.1564557780864
 20
52.12999999999998
  0
LWPOLYLINE
  5
16B
330
47
100
AcDbEntity
  8
1
  6
Continuous
 62
     7
100
AcDbPolyline
 90
        2
 70
     0
 43
0.5
 10
-128.6494557780864
 20
32.78499999999998
 10
-129.7044557780864
 20
32.78499999999998
  0
LWPOLYLINE
  5
16C
330
47
100
AcDbEntity
  8
1
  6
Continuous
 62
     7
100
AcDbPolyline
 90
        2
 70
     0
 43
0.5
 10
-130.1564557780864
 20
32.68499999999997
 10
-129.8594557780864
 20
32.76499999999997
  0
LWPOLYLINE
  5
16D
330
47
100
AcDbEntity
  8
1
  6
Continuous
 62
     7
100
AcDbPolyline
 90
        2
 70
     0
 43
0.5
 10
-113.5334557780864
 20
25.39999999999998
 10
-112.0314557780864
 20
28.00299999999998
  0
LWPOLYLINE
  5
16E
330
47
100
AcDbEntity
  8
1
  6
Continuous
 62
     7
100
AcDbPolyline
 90
        2
 70
     0
 43
0.5
 10
-106.7794557780864
 20
25.39999999999998
 10
-108.2814557780864
 20
28.00199999999998
  0
LWPOLYLINE
  5
16F
330
47
100
AcDbEntity
  8
1
  6
Continuous
 62
     7
100
AcDbPolyline
 90
        2
 70
     0
 43
0.5
 10
-111.0314557780864
 20
29.39999999999998
 10
-109.2814557780864
 20
29.39999999999998
  0
LWPOLYLINE
  5
170
330
47
100
AcDbEntity
  8
1
  6
Continuous
 62
     7
100
AcDbPolyline
 90
        2
 70
     0
 43
0.5
 10
-113.5334557780864
 20
88.39999999999998
 10
-112.0314557780864
 20
85.79699999999997
  0
LWPOLYLINE
  5
171
330
47
100
AcDbEntity
  8
1
  6
Continuous
 62
     7
100
AcDbPolyline
 90
        2
 70
     0
 43
0.5
 10
-106.7794557780864
 20
88.39999999999998
 10
-108.2814557780864
 20
85.79799999999997
  0
LWPOLYLINE
  5
172
330
47
100
AcDbEntity
  8
1
  6
Continuous
 62
     7
100
AcDbPolyline
 90
        2
 70
     0
 43
0.5
 10
-111.0314557780864
 20
84.39999999999998
 10
-109.2814557780864
 20
84.39999999999998
  0
LWPOLYLINE
  5
173
330
47
100
AcDbEntity
  8
1
  6
DOT_CENTER
 62
     7
100
AcDbPolyline
 90
        2
 70
     0
 43
0.25
 10
-137.1564557780864
 20
51.14999999999998
 10
-137.1564557780864
 20
62.64999999999998
  0
LWPOLYLINE
  5
174
330
47
100
AcDbEntity
  8
1
  6
Continuous
 62
     7
100
AcDbPolyline
 90
        2
 70
     0
 43
0.5
 10
-123.1564557780864
 20
57.89999999999998
 10
-123.1564557780864
 20
55.89999999999998
  0
LWPOLYLINE
  5
175
330
47
100
AcDbEntity
  8
1
  6
Continuous
 62
     7
100
AcDbPolyline
 90
        2
 70
     0
 43
0.5
 10
-113.5334557780864
 20
88.39999999999998
 10
-113.5334557780864
 20
64.89999999999998
  0
LWPOLYLINE
  5
176
330
47
100
AcDbEntity
  8
1
  6
Continuous
 62
     7
100
AcDbPolyline
 90
        2
 70
     0
 43
0.25
 10
-70.38602639139494
 20
68.96064135120868
 10
-70.38602639139499
 20
44.83935864879128
  0
LWPOLYLINE
  5
177
330
47
100
AcDbEntity
  8
1
  6
Continuous
 62
     7
100
AcDbPolyline
 90
        2
 70
     0
 43
0.25
 10
-52.92107684198453
 20
68.89999999999998
 10
-52.92107684198453
 20
44.89999999999998
  0
LWPOLYLINE
  5
178
330
47
100
AcDbEntity
  8
1
  6
Continuous
 62
     7
100
AcDbPolyline
 90
        2
 70
     0
 43
0.25
 10
-98.9214557780864
 20
80.39999999999998
 10
-98.9214557780864
 20
33.39999999999998
  0
LEADER
  5
179
330
47
100
AcDbEntity
  8
1
  6
Continuous
 62
     7
100
AcDbLeader
  3
Standard
 71
     0
 76
    60
 10
-116.1564557780864
 20
88.39999999999998
 30
0.0
 10
-116.1635424556295
 20
88.37877131736387
 30
0.0
 10
-116.1847820830775
 20
88.35760304745418
 30
0.0
 10
-116.2201144544226
 20
88.33655495626718
 30
0.0
 10
-116.2694394162573
 20
88.31568670688148
 30
0.0
 10
-116.3326171516715
 20
88.29505745259478
 30
0.0
 10
-116.4094685765781
 20
88.27472566924757
 30
0.0
 10
-116.499775847346
 20
88.25474898946668
 30
0.0
 10
-116.603282978302
 20
88.23518403929998
 30
0.0
 10
-116.7196965673488
 20
88.21608627770337
 30
0.0
 10
-116.8486866276456
 20
88.19750983933638
 30
0.0
 10
-116.989887522991
 20
88.17950738111188
 30
0.0
 10
-117.1428990042578
 20
88.16212993293428
 30
0.0
 10
-117.3072873439429
 20
88.14542675304978
 30
0.0
 10
-117.4825865656139
 20
88.12944518841837
 30
0.0
 10
-117.6682997647699
 20
88.11423054050438
 30
0.0
 10
-117.8639005173705
 20
88.09982593686378
 30
0.0
 10
-118.0688343720415
 20
88.08627220889528
 30
0.0
 10
-118.2825204217269
 20
88.07360777609867
 30
0.0
 10
-118.5043529503323
 20
88.06186853717108
 30
0.0
 10
-118.7337031496926
 20
88.05108776824808
 30
0.0
 10
-118.9699209019964
 20
88.04129602857887
 30
0.0
 10
-119.2123366226144
 20
88.03252107390287
 30
0.0
 10
-119.4602631581097
 20
88.02478777777297
 30
0.0
 10
-119.7129977340477
 20
88.01811806104898
 30
0.0
 10
-119.9698239470859
 20
88.01253082976038
 30
0.0
 10
-120.2300137956964
 20
88.00804192151537
 30
0.0
 10
-120.4928297437645
 20
88.00466406060727
 30
0.0
 10
-120.7575268112137
 20
88.00240682194597
 30
0.0
 10
-121.0233546857328
 20
88.00127660391747
 30
0.0
 10
-121.289559849616
 20
88.00127661024628
 30
0.0
 10
-121.5553877156903
 20
88.00240684091447
 30
0.0
 10
-121.820084766274
 20
88.00466409216168
 30
0.0
 10
-122.0829006891033
 20
88.00804196556628
 30
0.0
 10
-122.3430905041736
 20
88.01253088618287
 30
0.0
 10
-122.5999166754651
 20
88.01811812968317
 30
0.0
 10
-122.8526512015684
 20
88.02478785842428
 30
0.0
 10
-123.1005776792821
 20
88.03252116634268
 30
0.0
 10
-123.3429933343355
 20
88.04129613254517
 30
0.0
 10
-123.5792110134774
 20
88.05108788344617
 30
0.0
 10
-123.8085611322861
 20
88.06186866327437
 30
0.0
 10
-124.0303935731784
 20
88.07360791274968
 30
0.0
 10
-124.2440795282378
 20
88.08627235570677
 30
0.0
 10
-124.4490132816382
 20
88.09982609341958
 30
0.0
 10
-124.6446139266107
 20
88.11423070636057
 30
0.0
 10
-124.8303270120864
 20
88.12944536310498
 30
0.0
 10
-125.0056261143464
 20
88.14542693607147
 30
0.0
 10
-125.1700143292284
 20
88.16213012377247
 30
0.0
 10
-125.3230256806544
 20
88.17950757922557
 30
0.0
 10
-125.4642264414894
 20
88.19751004416388
 30
0.0
 10
-125.5932163629874
 20
88.21608648866408
 30
0.0
 10
-125.7096298093394
 20
88.23518425579607
 30
0.0
 10
-125.8131367941104
 20
88.25474921088427
 30
0.0
 10
-125.9034439156164
 20
88.27472589495908
 30
0.0
 10
-125.9802951886084
 20
88.29505768196057
 30
0.0
 10
-126.0434727698854
 20
88.31568693925118
 30
0.0
 10
-126.0927975757974
 20
88.33655519098217
 30
0.0
 10
-126.1281297898754
 20
88.35760328384917
 30
0.0
 10
-126.1493692591584
 20
88.37877155476878
 30
0.0
 10
-126.1564557780864
 20
88.39999999999998
 30
0.0
  0
LEADER
  5
17A
330
47
100
AcDbEntity
  8
1
  6
Continuous
 62
     7
100
AcDbLeader
  3
Standard
 71
     0
 76
    31
 10
-155.6564508243654
 20
47.67488343917438
 30
0.0
 10
-155.5840019806944
 20
47.66248062706347
 30
0.0
 10
-155.5117945868174
 20
47.65164221135488
 30
0.0
 10
-155.4396383419774
 20
47.64268779585308
 30
0.0
 10
-155.3677310214544
 20
47.63564192399248
 30
0.0
 10
-155.2962697182464
 20
47.63052390802088
 30
0.0
 10
-155.2254503028474
 20
47.62734777606657
 30
0.0
 10
-155.1554668863824
 20
47.62612223368768
 30
0.0
 10
-155.0865112885604
 20
47.62685064001128
 30
0.0
 10
-155.0187725119114
 20
47.62953099852588
 30
0.0
 10
-154.9524362237404
 20
47.63415596255398
 30
0.0
 10
-154.8876842472304
 20
47.64071285538878
 30
0.0
 10
-154.8246940630754
 20
47.64918370504007
 30
0.0
 10
-154.7636383230184
 20
47.65954529349428
 30
0.0
 10
-154.7046843766234
 20
47.67176922035328
 30
0.0
 10
-154.6479938125845
 20
47.68582198067819
 30
0.0
 10
-154.5937220158214
 20
47.70166505682379
 30
0.0
 10
-154.5420177415784
 20
47.71925502401318
 30
0.0
 10
-154.4930227076994
 20
47.73854366936158
 30
0.0
 10
-154.4468712061864
 20
47.75947812402478
 30
0.0
 10
-154.4036897351164
 20
47.78200100810908
 30
0.0
 10
-154.3635966519194
 20
47.80605058794518
 30
0.0
 10
-154.3267018489644
 20
47.83156094529657
 30
0.0
 10
-154.2931064523574
 20
47.85846215803628
 30
0.0
 10
-154.2629025447604
 20
47.88668049179898
 30
0.0
 10
-154.2361729129964
 20
47.91613860208138
 30
0.0
 10
-154.2129908211394
 20
47.94675574623868
 30
0.0
 10
-154.1934198097014
 20
47.97844800479408
 30
0.0
 10
-154.1775135214734
 20
48.01112851145668
 30
0.0
 10
-154.1653155544914
 20
48.04470769121558
 30
0.0
 10
-154.1564557780864
 20
48.07899999999998
 30
0.0
  0
LEADER
  5
17B
330
47
100
AcDbEntity
  8
1
  6
Continuous
 62
     7
100
AcDbLeader
  3
Standard
 71
     0
 76
    31
 10
-155.6564508243654
 20
66.12511656082557
 30
0.0
 10
-155.5840019806944
 20
66.13751937293648
 30
0.0
 10
-155.5117945868174
 20
66.14835778864517
 30
0.0
 10
-155.4396383419774
 20
66.15731220414688
 30
0.0
 10
-155.3677310214544
 20
66.16435807600747
 30
0.0
 10
-155.2962697182464
 20
66.16947609197908
 30
0.0
 10
-155.2254503028474
 20
66.17265222393337
 30
0.0
 10
-155.1554668863824
 20
66.17387776631227
 30
0.0
 10
-155.0865112885604
 20
66.17314935998867
 30
0.0
 10
-155.0187725119114
 20
66.17046900147407
 30
0.0
 10
-154.9524362237404
 20
66.16584403744598
 30
0.0
 10
-154.8876842472304
 20
66.15928714461117
 30
0.0
 10
-154.8246940630754
 20
66.15081629495988
 30
0.0
 10
-154.7636383230184
 20
66.14045470650568
 30
0.0
 10
-154.7046843766234
 20
66.12823077964667
 30
0.0
 10
-154.6479938125845
 20
66.11417801932177
 30
0.0
 10
-154.5937220158214
 20
66.09833494317617
 30
0.0
 10
-154.5420177415784
 20
66.08074497598678
 30
0.0
 10
-154.4930227076994
 20
66.06145633063838
 30
0.0
 10
-154.4468712061864
 20
66.04052187597517
 30
0.0
 10
-154.4036897351164
 20
66.01799899189098
 30
0.0
 10
-154.3635966519194
 20
65.99394941205477
 30
0.0
 10
-154.3267018489644
 20
65.96843905470338
 30
0.0
 10
-154.2931064523574
 20
65.94153784196368
 30
0.0
 10
-154.2629025447604
 20
65.91331950820097
 30
0.0
 10
-154.2361729129964
 20
65.88386139791858
 30
0.0
 10
-154.2129908211394
 20
65.85324425376128
 30
0.0
 10
-154.1934198097014
 20
65.82155199520588
 30
0.0
 10
-154.1775135214734
 20
65.78887148854328
 30
0.0
 10
-154.1653155544914
 20
65.75529230878438
 30
0.0
 10
-154.1564557780864
 20
65.72099999999998
 30
0.0
  0
ENDBLK
  5
49
330
47
100
AcDbEntity
  8
0
100
AcDbBlockEnd
  0
BLOCK
  5
6E
330
4A
100
AcDbEntity
  8
0
100
AcDbBlockBegin
  2
TOP
 70
     0
 10
-24.65645577808641
 20
-5.80000000000002
 30
0.0
  3
TOP
  1

  0
INSERT
  5
6D
330
4A
100
AcDbEntity
  8
1
100
AcDbBlockReference
  2
Aufnahme_SK40_ER16
 10
-200.9624557780865
 20
22.83999999999998
 30
0.0
  0
ENDBLK
  5
6F
330
4A
100
AcDbEntity
  8
0
100
AcDbBlockEnd
  0
BLOCK
  5
71
330
70
100
AcDbEntity
  8
0
100
AcDbBlockBegin
  2
40-320-16-3
 70
     0
 10
15.9290294815441
 20
142.224775230129
 30
0.0
  3
40-320-16-3
  1

  0
LWPOLYLINE
  5
17C
330
70
100
AcDbEntity
  8
1
  6
DOT_CENTER
 62
     7
100
AcDbPolyline
 90
        2
 70
     0
 43
0.25
 10
-45.95645577808648
 20
70.89999999999995
 10
-45.95645577808648
 20
42.89999999999995
  0
LWPOLYLINE
  5
17D
330
70
100
AcDbEntity
  8
1
  6
DOT_CENTER
 62
     7
100
AcDbPolyline
 90
        2
 70
     0
 43
0.25
 10
-45.95645577808648
 20
70.89999999999995
 10
-31.40532887101296
 20
70.89999999999995
  0
LWPOLYLINE
  5
17E
330
70
100
AcDbEntity
  8
1
  6
DOT_CENTER
 62
     7
100
AcDbPolyline
 90
        2
 70
     0
 43
0.25
 10
-31.40532887101296
 20
70.89999999999995
 10
-28.15645577808643
 20
67.64999999999995
  0
LWPOLYLINE
  5
17F
330
70
100
AcDbEntity
  8
1
  6
DOT_CENTER
 62
     7
100
AcDbPolyline
 90
        2
 70
     0
 43
0.25
 10
-28.15645577808643
 20
67.64999999999995
 10
-28.15645577808643
 20
46.14999999999995
  0
LWPOLYLINE
  5
180
330
70
100
AcDbEntity
  8
1
  6
DOT_CENTER
 62
     7
100
AcDbPolyline
 90
        2
 70
     0
 43
0.25
 10
-31.40645577808645
 20
42.89999999999995
 10
-28.15645577808643
 20
46.14999999999995
  0
LWPOLYLINE
  5
181
330
70
100
AcDbEntity
  8
1
  6
DOT_CENTER
 62
     7
100
AcDbPolyline
 90
        2
 70
     0
 43
0.25
 10
-31.40645577808645
 20
42.89999999999995
 10
-45.95645577808648
 20
42.89999999999995
  0
ENDBLK
  5
72
330
70
100
AcDbEntity
  8
0
100
AcDbBlockEnd
  0
BLOCK
  5
189
330
182
100
AcDbEntity
  8
0
100
AcDbBlockBegin
  2
*D5
 70
     1
 10
0.0
 20
0.0
 30
0.0
  3
*D5
  1

  0
LINE
  5
183
330
182
100
AcDbEntity
  8
1
  6
Continuous
 62
     2
100
AcDbLine
 10
-10.6415474474755
 20
70.89999999999995
 30
0.0
 11
-10.6415474474755
 21
42.89999999999995
 31
0.0
  0
LINE
  5
184
330
182
100
AcDbEntity
  8
1
  6
Continuous
 62
     2
100
AcDbLine
 10
-29.40645577808645
 20
42.89999999999995
 30
0.0
 11
-8.6415474474755
 21
42.89999999999995
 31
0.0
  0
LINE
  5
185
330
182
100
AcDbEntity
  8
1
  6
Continuous
 62
     2
100
AcDbLine
 10
-29.40532887101296
 20
70.89999999999995
 30
0.0
 11
-8.6415474474755
 21
70.89999999999995
 31
0.0
  0
SOLID
  5
186
330
182
100
AcDbEntity
  8
1
 62
     2
100
AcDbTrace
 10
-10.18076370591961
 20
67.39999999999995
 30
0.0
 11
-11.10233118903139
 21
67.39999999999995
 31
0.0
 12
-10.6415474474755
 22
70.89999999999995
 32
0.0
 13
-10.6415474474755
 23
70.89999999999995
 33
0.0
  0
SOLID
  5
187
330
182
100
AcDbEntity
  8
1
 62
     2
100
AcDbTrace
 10
-11.10233118903139
 20
46.39999999999995
 30
0.0
 11
-10.18076370591961
 21
46.39999999999995
 31
0.0
 12
-10.6415474474755
 22
42.89999999999995
 32
0.0
 13
-10.6415474474755
 23
42.89999999999995
 33
0.0
  0
MTEXT
  5
188
330
182
100
AcDbEntity
  8
1
 62
     3
100
AcDbMText
 10
-12.6415474474755
 20
47.6855463759233
 30
0.0
 40
3.5
 41
0.0
 71
     7
 72
     1
  1
\C3;%%c\C3;\C3;28\C2;\H2.45;\S^ ;\C3;
  7
CONVERTER_11
 11
0.0
 21
1.0
 31
0.0
 73
     1
 44
0.60024009603842
  0
ENDBLK
  5
18A
330
182
100
AcDbEntity
  8
0
100
AcDbBlockEnd
  0
BLOCK
  5
194
330
18D
100
AcDbEntity
  8
0
100
AcDbBlockBegin
  2
*D6
 70
     1
 10
0.0
 20
0.0
 30
0.0
  3
*D6
  1

  0
LINE
  5
18E
330
18D
100
AcDbEntity
  8
1
  6
Continuous
 62
     2
100
AcDbLine
 10
-18.93817979613243
 20
64.89999999999995
 30
0.0
 11
-18.93817979613243
 21
48.9
 31
0.0
  0
LINE
  5
18F
330
18D
100
AcDbEntity
  8
1
  6
Continuous
 62
     2
100
AcDbLine
 10
-32.92107684198453
 20
48.9
 30
0.0
 11
-16.93817979613243
 21
48.9
 31
0.0
  0
LINE
  5
190
330
18D
100
AcDbEntity
  8
1
  6
Continuous
 62
     2
100
AcDbLine
 10
-32.92107684198453
 20
64.89999999999995
 30
0.0
 11
-16.93817979613243
 21
64.89999999999995
 31
0.0
  0
SOLID
  5
191
330
18D
100
AcDbEntity
  8
1
 62
     2
100
AcDbTrace
 10
-18.47739605457655
 20
61.39999999999995
 30
0.0
 11
-19.39896353768832
 21
61.39999999999995
 31
0.0
 12
-18.93817979613243
 22
64.89999999999995
 32
0.0
 13
-18.93817979613243
 23
64.89999999999995
 33
0.0
  0
SOLID
  5
192
330
18D
100
AcDbEntity
  8
1
 62
     2
100
AcDbTrace
 10
-19.39896353768832
 20
52.4
 30
0.0
 11
-18.47739605457654
 21
52.4
 31
0.0
 12
-18.93817979613243
 22
48.9
 32
0.0
 13
-18.93817979613243
 23
48.9
 33
0.0
  0
MTEXT
  5
193
330
18D
100
AcDbEntity
  8
1
 62
     3
100
AcDbMText
 10
-20.93817979613243
 20
52.18027374649268
 30
0.0
 40
3.5
 41
0.0
 71
     7
 72
     1
  1
\C3;ER\C3;\C3;16\C2;\H2.45;\S^ ;\C3;
  7
CONVERTER_11
 11
0.0
 21
1.0
 31
0.0
 73
     1
 44
0.60024009603842
  0
ENDBLK
  5
195
330
18D
100
AcDbEntity
  8
0
100
AcDbBlockEnd
  0
BLOCK
  5
19F
330
198
100
AcDbEntity
  8
0
100
AcDbBlockBegin
  2
*D7
 70
     1
 10
0.0
 20
0.0
 30
0.0
  3
*D7
  1

  0
LINE
  5
199
330
198
100
AcDbEntity
  8
1
  6
Continuous
 62
     2
100
AcDbLine
 10
-160.1564557780864
 20
117.961266745335
 30
0.0
 11
-34.92107684198454
 21
117.961266745335
 31
0.0
  0
LINE
  5
19A
330
198
100
AcDbEntity
  8
1
  6
Continuous
 62
     2
100
AcDbLine
 10
-34.92107684198454
 20
68.79999999999998
 30
0.0
 11
-34.92107684198454
 21
119.961266745335
 31
0.0
  0
LINE
  5
19B
330
198
100
AcDbEntity
  8
1
  6
Continuous
 62
     2
100
AcDbLine
 10
-160.1564557780864
 20
80.47399999999999
 30
0.0
 11
-160.1564557780864
 21
119.961266745335
 31
0.0
  0
SOLID
  5
19C
330
198
100
AcDbEntity
  8
1
 62
     2
100
AcDbTrace
 10
-156.6564557780864
 20
118.4220504868909
 30
0.0
 11
-156.6564557780864
 21
117.5004830037791
 31
0.0
 12
-160.1564557780864
 22
117.961266745335
 32
0.0
 13
-160.1564557780864
 23
117.961266745335
 33
0.0
  0
SOLID
  5
19D
330
198
100
AcDbEntity
  8
1
 62
     2
100
AcDbTrace
 10
-38.42107684198454
 20
117.5004830037791
 30
0.0
 11
-38.42107684198454
 21
118.4220504868909
 31
0.0
 12
-34.92107684198454
 22
117.961266745335
 32
0.0
 13
-34.92107684198454
 23
117.961266745335
 33
0.0
  0
MTEXT
  5
19E
330
198
100
AcDbEntity
  8
1
 62
     3
100
AcDbMText
 10
-101.9787947218584
 20
119.961266745335
 30
0.0
 40
3.5
 41
0.0
 71
     7
 72
     1
  1
\C3;\C3;\C3;125.235\C2;\H2.45;\S^ ;\C3;
  7
CONVERTER_11
 11
0.9999999999970619
 21
2.424068405545306E-6
 31
0.0
 73
     1
 44
0.60024009603842
  0
ENDBLK
  5
1A0
330
198
100
AcDbEntity
  8
0
100
AcDbBlockEnd
  0
BLOCK
  5
1AA
330
1A3
100
AcDbEntity
  8
0
100
AcDbBlockBegin
  2
*D8
 70
     1
 10
0.0
 20
0.0
 30
0.0
  3
*D8
  1

  0
LINE
  5
1A4
330
1A3
100
AcDbEntity
  8
1
  6
Continuous
 62
     2
100
AcDbLine
 10
-128.1564557780864
 20
102.9357530911554
 30
0.0
 11
-34.92107684198453
 21
102.9357530911554
 31
0.0
  0
LINE
  5
1A5
330
1A3
100
AcDbEntity
  8
1
  6
Continuous
 62
     2
100
AcDbLine
 10
-34.92107684198453
 20
68.8
 30
0.0
 11
-34.92107684198453
 21
104.9357530911554
 31
0.0
  0
LINE
  5
1A6
330
1A3
100
AcDbEntity
  8
1
  6
Continuous
 62
     2
100
AcDbLine
 10
-128.1564557780864
 20
89.9
 30
0.0
 11
-128.1564557780864
 21
104.9357530911554
 31
0.0
  0
SOLID
  5
1A7
330
1A3
100
AcDbEntity
  8
1
 62
     2
100
AcDbTrace
 10
-124.6564557780864
 20
103.3965368327113
 30
0.0
 11
-124.6564557780864
 21
102.4749693495995
 31
0.0
 12
-128.1564557780864
 22
102.9357530911554
 32
0.0
 13
-128.1564557780864
 23
102.9357530911554
 33
0.0
  0
SOLID
  5
1A8
330
1A3
100
AcDbEntity
  8
1
 62
     2
100
AcDbTrace
 10
-38.42107684198453
 20
102.4749693495995
 30
0.0
 11
-38.42107684198453
 21
103.3965368327113
 31
0.0
 12
-34.92107684198453
 22
102.9357530911554
 32
0.0
 13
-34.92107684198453
 23
102.9357530911554
 33
0.0
  0
MTEXT
  5
1A9
330
1A3
100
AcDbEntity
  8
1
 62
     3
100
AcDbMText
 10
-89.25076735398643
 20
104.9357530911554
 30
0.0
 40
3.5
 41
0.0
 71
     7
 72
     1
  1
\C3;\C3;\C3;93.235\C2;\H2.45;\S^ ;\C3;
  7
CONVERTER_11
 11
0.9999999999970619
 21
2.424068405545306E-6
 31
0.0
 73
     1
 44
0.60024009603842
  0
ENDBLK
  5
1AB
330
1A3
100
AcDbEntity
  8
0
100
AcDbBlockEnd
  0
BLOCK
  5
1B5
330
1AE
100
AcDbEntity
  8
0
100
AcDbBlockBegin
  2
*D9
 70
     1
 10
0.0
 20
0.0
 30
0.0
  3
*D9
  1

  0
LINE
  5
1AF
330
1AE
100
AcDbEntity
  8
1
  6
Continuous
 62
     2
100
AcDbLine
 10
-34.92107684198453
 20
95.58283910300038
 30
0.0
 11
-102.1564557780864
 21
95.58283910300038
 31
0.0
  0
LINE
  5
1B0
330
1AE
100
AcDbEntity
  8
1
  6
Continuous
 62
     2
100
AcDbLine
 10
-102.1564557780864
 20
90.39999999999998
 30
0.0
 11
-102.1564557780864
 21
97.58283910300038
 31
0.0
  0
LINE
  5
1B1
330
1AE
100
AcDbEntity
  8
1
  6
Continuous
 62
     2
100
AcDbLine
 10
-34.92107684198453
 20
68.79999999999997
 30
0.0
 11
-34.92107684198453
 21
97.58283910300038
 31
0.0
  0
SOLID
  5
1B2
330
1AE
100
AcDbEntity
  8
1
 62
     2
100
AcDbTrace
 10
-38.42107684198453
 20
95.1220553614445
 30
0.0
 11
-38.42107684198453
 21
96.04362284455627
 31
0.0
 12
-34.92107684198453
 22
95.58283910300038
 32
0.0
 13
-34.92107684198453
 23
95.58283910300038
 33
0.0
  0
SOLID
  5
1B3
330
1AE
100
AcDbEntity
  8
1
 62
     2
100
AcDbTrace
 10
-98.65645577808641
 20
96.04362284455627
 30
0.0
 11
-98.65645577808641
 21
95.1220553614445
 31
0.0
 12
-102.1564557780864
 22
95.58283910300038
 32
0.0
 13
-102.1564557780864
 23
95.58283910300038
 33
0.0
  0
MTEXT
  5
1B4
330
1AE
100
AcDbEntity
  8
1
 62
     3
100
AcDbMText
 10
-73.75430346497144
 20
97.58283910300038
 30
0.0
 40
3.5
 41
0.0
 71
     7
 72
     1
  1
\C3;\C3;\C3;67.235\C2;\H2.45;\S^ ;\C3;
  7
CONVERTER_11
 11
0.9999999999970619
 21
2.424068405545306E-6
 31
0.0
 73
     1
 44
0.60024009603842
  0
ENDBLK
  5
1B6
330
1AE
100
AcDbEntity
  8
0
100
AcDbBlockEnd
  0
BLOCK
  5
1C0
330
1B9
100
AcDbEntity
  8
0
100
AcDbBlockBegin
  2
*D10
 70
     1
 10
0.0
 20
0.0
 30
0.0
  3
*D10
  1

  0
LINE
  5
1BA
330
1B9
100
AcDbEntity
  8
1
  6
Continuous
 62
     2
100
AcDbLine
 10
-2.87760772211544
 20
82.39999999999998
 30
0.0
 11
-2.87760772211544
 21
31.39999999999998
 31
0.0
  0
LINE
  5
1BB
330
1B9
100
AcDbEntity
  8
1
  6
Continuous
 62
     2
100
AcDbLine
 10
-97.65828316474244
 20
31.39999999999998
 30
0.0
 11
-0.87760772211544
 21
31.39999999999998
 31
0.0
  0
LINE
  5
1BC
330
1B9
100
AcDbEntity
  8
1
  6
Continuous
 62
     2
100
AcDbLine
 10
-97.65828316474244
 20
82.39999999999998
 30
0.0
 11
-0.87760772211544
 21
82.39999999999998
 31
0.0
  0
SOLID
  5
1BD
330
1B9
100
AcDbEntity
  8
1
 62
     2
100
AcDbTrace
 10
-2.41682398055956
 20
78.89999999999998
 30
0.0
 11
-3.33839146367133
 21
78.89999999999998
 31
0.0
 12
-2.87760772211544
 22
82.39999999999998
 32
0.0
 13
-2.87760772211544
 23
82.39999999999998
 33
0.0
  0
SOLID
  5
1BE
330
1B9
100
AcDbEntity
  8
1
 62
     2
100
AcDbTrace
 10
-3.33839146367133
 20
34.89999999999998
 30
0.0
 11
-2.41682398055956
 21
34.89999999999998
 31
0.0
 12
-2.87760772211544
 22
31.39999999999998
 32
0.0
 13
-2.87760772211544
 23
31.39999999999998
 33
0.0
  0
MTEXT
  5
1BF
330
1B9
100
AcDbEntity
  8
1
 62
     3
100
AcDbMText
 10
-4.87760772211544
 20
48.23375504439377
 30
0.0
 40
3.5
 41
0.0
 71
     7
 72
     1
  1
\C3;%%c\C3;\C3;51\C2;\H2.45;\S^ ;\C3;
  7
CONVERTER_11
 11
0.0
 21
1.0
 31
0.0
 73
     1
 44
0.60024009603842
  0
ENDBLK
  5
1C1
330
1B9
100
AcDbEntity
  8
0
100
AcDbBlockEnd
  0
BLOCK
  5
1CB
330
1C4
100
AcDbEntity
  8
0
100
AcDbBlockBegin
  2
*D11
 70
     1
 10
0.0
 20
0.0
 30
0.0
  3
*D11
  1

  0
LINE
  5
1C5
330
1C4
100
AcDbEntity
  8
1
  6
Continuous
 62
     2
100
AcDbLine
 10
-128.1564557780864
 20
111.176568648929
 30
0.0
 11
-28.15645577808642
 21
111.176568648929
 31
0.0
  0
LINE
  5
1C6
330
1C4
100
AcDbEntity
  8
1
  6
Continuous
 62
     2
100
AcDbLine
 10
-28.15645577808642
 20
69.64999999999995
 30
0.0
 11
-28.15645577808642
 21
113.176568648929
 31
0.0
  0
LINE
  5
1C7
330
1C4
100
AcDbEntity
  8
1
  6
Continuous
 62
     2
100
AcDbLine
 10
-128.1564557780864
 20
89.89999999999998
 30
0.0
 11
-128.1564557780864
 21
113.176568648929
 31
0.0
  0
SOLID
  5
1C8
330
1C4
100
AcDbEntity
  8
1
 62
     2
100
AcDbTrace
 10
-124.6564557780864
 20
111.6373523904849
 30
0.0
 11
-124.6564557780864
 21
110.7157849073731
 31
0.0
 12
-128.1564557780864
 22
111.176568648929
 32
0.0
 13
-128.1564557780864
 23
111.176568648929
 33
0.0
  0
SOLID
  5
1C9
330
1C4
100
AcDbEntity
  8
1
 62
     2
100
AcDbTrace
 10
-31.65645577808642
 20
110.7157849073731
 30
0.0
 11
-31.65645577808642
 21
111.6373523904849
 31
0.0
 12
-28.15645577808642
 22
111.176568648929
 32
0.0
 13
-28.15645577808642
 23
111.176568648929
 33
0.0
  0
MTEXT
  5
1CA
330
1C4
100
AcDbEntity
  8
1
 62
     3
100
AcDbMText
 10
-79.1671201964618
 20
113.176568648929
 30
0.0
 40
3.5
 41
0.0
 71
     7
 72
     1
  1
\C3;\C3;\C3;100\C2;\H2.45;\S^ ;\C3;
  7
CONVERTER_11
 11
0.9999999999970619
 21
2.424068405545306E-6
 31
0.0
 73
     1
 44
0.60024009603842
  0
ENDBLK
  5
1CC
330
1C4
100
AcDbEntity
  8
0
100
AcDbBlockEnd
  0
ENDSEC
  0
SECTION
  2
ENTITIES
  0
INSERT
  5
73
330
1F
100
AcDbEntity
  8
0
100
AcDbBlockReference
  2
Urheberrecht_DE-EN
 10
-168.391910180156
 20
75.9915949627323
 30
0.0
  0
INSERT
  5
74
330
1F
100
AcDbEntity
  8
0
100
AcDbBlockReference
  2
TOP
 10
-24.65645577808641
 20
-5.80000000000002
 30
0.0
  0
INSERT
  5
75
330
1F
100
AcDbEntity
  8
0
100
AcDbBlockReference
  2
40-320-16-3
 10
15.9290294815441
 20
142.224775230129
 30
0.0
  0
DIMENSION
  5
18C
330
1F
100
AcDbEntity
  8
1
100
AcDbDimension
  2
*D5
 10
-10.6415474474755
 20
70.89999999999995
 30
0.0
 11
-14.3915474474755
 21
56.5405463759233
 31
0.0
 70
    32
  1
<>
 71
     5
 42
-1.0
 53
90.0
  3
ME10_DIM_10
100
AcDbAlignedDimension
 13
-31.40645577808645
 23
42.89999999999995
 33
0.0
 14
-31.40532887101296
 24
70.89999999999995
 34
0.0
 50
90.0
100
AcDbRotatedDimension
  0
DIMENSION
  5
197
330
1F
100
AcDbEntity
  8
1
100
AcDbDimension
  2
*D6
 10
-18.93817979613243
 20
64.89999999999995
 30
0.0
 11
-22.68817979613243
 21
56.34527374649268
 31
0.0
 70
    32
  1
<>
 71
     5
 42
-1.0
 53
90.0
  3
ME10_DIM_11
100
AcDbAlignedDimension
 13
-34.92107684198453
 23
48.9
 33
0.0
 14
-34.92107684198453
 24
64.89999999999995
 34
0.0
 50
90.0
100
AcDbRotatedDimension
  0
DIMENSION
  5
1A2
330
1F
100
AcDbEntity
  8
1
100
AcDbDimension
  2
*D7
 10
-160.1564557780864
 20
117.961266745335
 30
0.0
 11
-94.80379472185842
 21
121.711266745335
 31
0.0
 70
    32
  1
<>
 71
     5
 42
-1.0
 53
0.00013888888889
  3
ME10_DIM_12
100
AcDbAlignedDimension
 13
-34.92107684198453
 23
66.79999999999997
 33
0.0
 14
-160.1564557780864
 24
78.47399999999998
 34
0.0
100
AcDbRotatedDimension
  0
DIMENSION
  5
1AD
330
1F
100
AcDbEntity
  8
1
100
AcDbDimension
  2
*D8
 10
-128.1564557780864
 20
102.9357530911554
 30
0.0
 11
-82.91576735398644
 21
106.6857530911554
 31
0.0
 70
    32
  1
<>
 71
     5
 42
-1.0
 53
0.00013888888889
  3
ME10_DIM_13
100
AcDbAlignedDimension
 13
-34.92107684198453
 23
66.79999999999997
 33
0.0
 14
-128.1564557780864
 24
87.89999999999998
 34
0.0
100
AcDbRotatedDimension
  0
DIMENSION
  5
1B8
330
1F
100
AcDbEntity
  8
1
100
AcDbDimension
  2
*D9
 10
-34.92107684198453
 20
95.58283910300038
 30
0.0
 11
-67.41930346497145
 21
99.33283910300038
 31
0.0
 70
    32
  1
<>
 71
     5
 42
-1.0
 53
0.00013888888889
  3
ME10_DIM_14
100
AcDbAlignedDimension
 13
-102.1564557780864
 23
88.39999999999998
 33
0.0
 14
-34.92107684198453
 24
66.79999999999997
 34
0.0
100
AcDbRotatedDimension
  0
DIMENSION
  5
1C3
330
1F
100
AcDbEntity
  8
1
100
AcDbDimension
  2
*D10
 10
-2.87760772211544
 20
82.39999999999998
 30
0.0
 11
-6.62760772211544
 21
56.66875504439378
 31
0.0
 70
    32
  1
<>
 71
     5
 42
-1.0
 53
90.0
  3
ME10_DIM_15
100
AcDbAlignedDimension
 13
-99.65828316474244
 23
31.39999999999998
 33
0.0
 14
-99.65828316474244
 24
82.39999999999998
 34
0.0
 50
90.0
100
AcDbRotatedDimension
  0
DIMENSION
  5
1CE
330
1F
100
AcDbEntity
  8
1
100
AcDbDimension
  2
*D11
 10
-128.1564557780864
 20
111.176568648929
 30
0.0
 11
-76.2271201964618
 21
114.926568648929
 31
0.0
 70
    32
  1
<>
 71
     5
 42
-1.0
 53
0.00013888888889
  3
ME10_DIM_16
100
AcDbAlignedDimension
 13
-28.15645577808643
 23
67.64999999999995
 33
0.0
 14
-128.1564557780864
 24
87.89999999999998
 34
0.0
100
AcDbRotatedDimension
  0
ENDSEC
  0
SECTION
  2
OBJECTS
  0
DICTIONARY
  5
C
330
0
100
AcDbDictionary
281
     1
  3
ACAD_GROUP
350
D
  3
ACAD_LAYOUT
350
1A
  3
ACAD_MLEADERSTYLE
350
1D1
  3
ACAD_MLINESTYLE
350
17
  3
ACAD_PLOTSETTINGS
350
19
  3
ACAD_PLOTSTYLENAME
350
E
  3
ACAD_SCALELIST
350
4B
  3
ACAD_VISUALSTYLE
350
2A
  3
AcDbVariableDictionary
350
1CF
  0
DICTIONARY
  5
D
102
{ACAD_REACTORS
330
C
102
}
330
C
100
AcDbDictionary
281
     1
  0
DICTIONARY
  5
1A
102
{ACAD_REACTORS
330
C
102
}
330
C
100
AcDbDictionary
281
     1
  3
Layout1
350
1E
  3
Layout2
350
26
  3
Model
350
22
  0
DICTIONARY
  5
1D1
102
{ACAD_REACTORS
330
C
102
}
330
C
100
AcDbDictionary
281
     1
  0
DICTIONARY
  5
17
102
{ACAD_REACTORS
330
C
102
}
330
C
100
AcDbDictionary
281
     1
  3
Standard
350
18
  0
DICTIONARY
  5
19
102
{ACAD_REACTORS
330
C
102
}
330
C
100
AcDbDictionary
281
     1
  0
ACDBDICTIONARYWDFLT
  5
E
102
{ACAD_REACTORS
330
C
102
}
330
C
100
AcDbDictionary
281
     1
  3
Normal
350
F
100
AcDbDictionaryWithDefault
340
F
  0
DICTIONARY
  5
4B
102
{ACAD_REACTORS
330
C
102
}
330
C
100
AcDbDictionary
281
     1
  3
A0
350
4C
  3
A1
350
4D
  3
A2
350
4E
  3
A3
350
4F
  3
A4
350
50
  3
A5
350
51
  3
A6
350
52
  3
A7
350
53
  3
A8
350
54
  3
A9
350
55
  3
B0
350
56
  3
B1
350
57
  3
B2
350
58
  3
B3
350
59
  3
B4
350
5A
  3
B5
350
5B
  3
B6
350
5C
  3
B7
350
5D
  3
B8
350
5E
  3
B9
350
5F
  3
C0
350
60
  3
C1
350
61
  3
C2
350
62
  3
C3
350
63
  3
C4
350
64
  3
C5
350
65
  3
C6
350
66
  3
C7
350
67
  3
C8
350
68
  3
C9
350
69
  3
D0
350
6A
  3
D1
350
6B
  3
D2
350
6C
  0
DICTIONARY
  5
2A
102
{ACAD_REACTORS
330
C
102
}
330
C
100
AcDbDictionary
281
     1
  3
2dWireframe
350
2F
  3
3D Hidden
350
31
  3
3dWireframe
350
30
  3
Basic
350
32
  3
Brighten
350
36
  3
ColorChange
350
3A
  3
Conceptual
350
34
  3
Dim
350
35
  3
Facepattern
350
39
  3
Flat
350
2B
  3
FlatWithEdges
350
2C
  3
Gouraud
350
2D
  3
GouraudWithEdges
350
2E
  3
Linepattern
350
38
  3
Realistic
350
33
  3
Thicken
350
37
  0
DICTIONARY
  5
1CF
102
{ACAD_REACTORS
330
C
102
}
330
C
100
AcDbDictionary
281
     1
  3
CANNOSCALE
350
1D2
  0
LAYOUT
  5
1E
102
{ACAD_REACTORS
330
1A
102
}
330
1A
100
AcDbPlotSettings
  1

  2
none_device
  4

  6

 40
0.0
 41
0.0
 42
0.0
 43
0.0
 44
0.0
 45
0.0
 46
0.0
 47
0.0
 48
0.0
 49
0.0
140
0.0
141
0.0
142
1.0
143
1.0
 70
   688
 72
     0
 73
     0
 74
     5
  7

 75
    16
147
1.0
148
0.0
149
0.0
100
AcDbLayout
  1
Layout1
 70
     1
 71
     1
 10
0.0
 20
0.0
 11
12.0
 21
9.0
 12
0.0
 22
0.0
 32
0.0
 14
1.00000000000000E+20
 24
1.00000000000000E+20
 34
1.00000000000000E+20
 15
-1.00000000000000E+20
 25
-1.00000000000000E+20
 35
-1.00000000000000E+20
146
0.0
 13
0.0
 23
0.0
 33
0.0
 16
1.0
 26
0.0
 36
0.0
 17
0.0
 27
1.0
 37
0.0
 76
     0
330
1B
  0
LAYOUT
  5
26
102
{ACAD_REACTORS
330
1A
102
}
330
1A
100
AcDbPlotSettings
  1

  2
none_device
  4

  6

 40
0.0
 41
0.0
 42
0.0
 43
0.0
 44
0.0
 45
0.0
 46
0.0
 47
0.0
 48
0.0
 49
0.0
140
0.0
141
0.0
142
1.0
143
1.0
 70
   688
 72
     0
 73
     0
 74
     5
  7

 75
    16
147
1.0
148
0.0
149
0.0
100
AcDbLayout
  1
Layout2
 70
     1
 71
     2
 10
0.0
 20
0.0
 11
0.0
 21
0.0
 12
0.0
 22
0.0
 32
0.0
 14
0.0
 24
0.0
 34
0.0
 15
0.0
 25
0.0
 35
0.0
146
0.0
 13
0.0
 23
0.0
 33
0.0
 16
1.0
 26
0.0
 36
0.0
 17
0.0
 27
1.0
 37
0.0
 76
     0
330
23
  0
LAYOUT
  5
22
102
{ACAD_REACTORS
330
1A
102
}
330
1A
100
AcDbPlotSettings
  1

  2
none_device
  4

  6

 40
0.0
 41
0.0
 42
0.0
 43
0.0
 44
0.0
 45
0.0
 46
0.0
 47
0.0
 48
0.0
 49
0.0
140
0.0
141
0.0
142
1.0
143
1.0
 70
  1712
 72
     0
 73
     0
 74
     0
  7

 75
     0
147
1.0
148
0.0
149
0.0
100
AcDbLayout
  1
Model
 70
     1
 71
     0
 10
0.0
 20
0.0
 11
12.0
 21
9.0
 12
0.0
 22
0.0
 32
0.0
 14
-182.391910180156
 24
19.7022080454261
 34
0.0
 15
-0.87760772211544
 25
128.4715949627323
 35
0.0
146
0.0
 13
0.0
 23
0.0
 33
0.0
 16
1.0
 26
0.0
 36
0.0
 17
0.0
 27
1.0
 37
0.0
 76
     0
330
1F
331
29
  0
MLINESTYLE
  5
18
102
{ACAD_REACTORS
330
17
102
}
330
17
100
AcDbMlineStyle
  2
Standard
 70
     0
  3

 62
   256
 51
90.0
 52
90.0
 71
     2
 49
0.5
 62
   256
  6
BYLAYER
 49
-0.5
 62
   256
  6
BYLAYER
  0
ACDBPLACEHOLDER
  5
F
102
{ACAD_REACTORS
330
E
102
}
330
E
  0
SCALE
  5
4C
102
{ACAD_REACTORS
330
4B
102
}
330
4B
100
AcDbScale
 70
     0
300
1:1
140
1.0
141
1.0
290
     1
  0
SCALE
  5
4D
102
{ACAD_REACTORS
330
4B
102
}
330
4B
100
AcDbScale
 70
     0
300
1:2
140
1.0
141
2.0
290
     0
  0
SCALE
  5
4E
102
{ACAD_REACTORS
330
4B
102
}
330
4B
100
AcDbScale
 70
     0
300
1:4
140
1.0
141
4.0
290
     0
  0
SCALE
  5
4F
102
{ACAD_REACTORS
330
4B
102
}
330
4B
100
AcDbScale
 70
     0
300
1:5
140
1.0
141
5.0
290
     0
  0
SCALE
  5
50
102
{ACAD_REACTORS
330
4B
102
}
330
4B
100
AcDbScale
 70
     0
300
1:8
140
1.0
141
8.0
290
     0
  0
SCALE
  5
51
102
{ACAD_REACTORS
330
4B
102
}
330
4B
100
AcDbScale
 70
     0
300
1:10
140
1.0
141
10.0
290
     0
  0
SCALE
  5
52
102
{ACAD_REACTORS
330
4B
102
}
330
4B
100
AcDbScale
 70
     0
300
1:16
140
1.0
141
16.0
290
     0
  0
SCALE
  5
53
102
{ACAD_REACTORS
330
4B
102
}
330
4B
100
AcDbScale
 70
     0
300
1:20
140
1.0
141
20.0
290
     0
  0
SCALE
  5
54
102
{ACAD_REACTORS
330
4B
102
}
330
4B
100
AcDbScale
 70
     0
300
1:30
140
1.0
141
30.0
290
     0
  0
SCALE
  5
55
102
{ACAD_REACTORS
330
4B
102
}
330
4B
100
AcDbScale
 70
     0
300
1:40
140
1.0
141
40.0
290
     0
  0
SCALE
  5
56
102
{ACAD_REACTORS
330
4B
102
}
330
4B
100
AcDbScale
 70
     0
300
1:50
140
1.0
141
50.0
290
     0
  0
SCALE
  5
57
102
{ACAD_REACTORS
330
4B
102
}
330
4B
100
AcDbScale
 70
     0
300
1:100
140
1.0
141
100.0
290
     0
  0
SCALE
  5
58
102
{ACAD_REACTORS
330
4B
102
}
330
4B
100
AcDbScale
 70
     0
300
2:1
140
2.0
141
1.0
290
     0
  0
SCALE
  5
59
102
{ACAD_REACTORS
330
4B
102
}
330
4B
100
AcDbScale
 70
     0
300
4:1
140
4.0
141
1.0
290
     0
  0
SCALE
  5
5A
102
{ACAD_REACTORS
330
4B
102
}
330
4B
100
AcDbScale
 70
     0
300
8:1
140
8.0
141
1.0
290
     0
  0
SCALE
  5
5B
102
{ACAD_REACTORS
330
4B
102
}
330
4B
100
AcDbScale
 70
     0
300
10:1
140
10.0
141
1.0
290
     0
  0
SCALE
  5
5C
102
{ACAD_REACTORS
330
4B
102
}
330
4B
100
AcDbScale
 70
     0
300
100:1
140
100.0
141
1.0
290
     0
  0
SCALE
  5
5D
102
{ACAD_REACTORS
330
4B
102
}
330
4B
100
AcDbScale
 70
     0
300
1/128" = 1'-0"
140
0.0078125
141
12.0
290
     0
  0
SCALE
  5
5E
102
{ACAD_REACTORS
330
4B
102
}
330
4B
100
AcDbScale
 70
     0
300
1/64" = 1'-0"
140
0.015625
141
12.0
290
     0
  0
SCALE
  5
5F
102
{ACAD_REACTORS
330
4B
102
}
330
4B
100
AcDbScale
 70
     0
300
1/32" = 1'-0"
140
0.03125
141
12.0
290
     0
  0
SCALE
  5
60
102
{ACAD_REACTORS
330
4B
102
}
330
4B
100
AcDbScale
 70
     0
300
1/16" = 1'-0"
140
0.0625
141
12.0
290
     0
  0
SCALE
  5
61
102
{ACAD_REACTORS
330
4B
102
}
330
4B
100
AcDbScale
 70
     0
300
3/32" = 1'-0"
140
0.09375
141
12.0
290
     0
  0
SCALE
  5
62
102
{ACAD_REACTORS
330
4B
102
}
330
4B
100
AcDbScale
 70
     0
300
1/8" = 1'-0"
140
0.125
141
12.0
290
     0
  0
SCALE
  5
63
102
{ACAD_REACTORS
330
4B
102
}
330
4B
100
AcDbScale
 70
     0
300
3/16" = 1'-0"
140
0.1875
141
12.0
290
     0
  0
SCALE
  5
64
102
{ACAD_REACTORS
330
4B
102
}
330
4B
100
AcDbScale
 70
     0
300
1/4" = 1'-0"
140
0.25
141
12.0
290
     0
  0
SCALE
  5
65
102
{ACAD_REACTORS
330
4B
102
}
330
4B
100
AcDbScale
 70
     0
300
3/8" = 1'-0"
140
0.375
141
12.0
290
     0
  0
SCALE
  5
66
102
{ACAD_REACTORS
330
4B
102
}
330
4B
100
AcDbScale
 70
     0
300
1/2" = 1'-0"
140
0.5
141
12.0
290
     0
  0
SCALE
  5
67
102
{ACAD_REACTORS
330
4B
102
}
330
4B
100
AcDbScale
 70
     0
300
3/4" = 1'-0"
140
0.75
141
12.0
290
     0
  0
SCALE
  5
68
102
{ACAD_REACTORS
330
4B
102
}
330
4B
100
AcDbScale
 70
     0
300
1" = 1'-0"
140
1.0
141
12.0
290
     0
  0
SCALE
  5
69
102
{ACAD_REACTORS
330
4B
102
}
330
4B
100
AcDbScale
 70
     0
300
1-1/2" = 1'-0"
140
1.5
141
12.0
290
     0
  0
SCALE
  5
6A
102
{ACAD_REACTORS
330
4B
102
}
330
4B
100
AcDbScale
 70
     0
300
3" = 1'-0"
140
3.0
141
12.0
290
     0
  0
SCALE
  5
6B
102
{ACAD_REACTORS
330
4B
102
}
330
4B
100
AcDbScale
 70
     0
300
6" = 1'-0"
140
6.0
141
12.0
290
     0
  0
SCALE
  5
6C
102
{ACAD_REACTORS
330
4B
102
}
330
4B
100
AcDbScale
 70
     0
300
1'-0" = 1'-0"
140
12.0
141
12.0
290
     0
  0
VISUALSTYLE
  5
2F
102
{ACAD_REACTORS
330
2A
102
}
330
2A
100
AcDbVisualStyle
  2
2dWireframe
 70
     4
 71
     0
 72
     2
 73
     0
 90
        0
 40
-0.6
 41
-30.0
 62
     5
 63
     7
 74
     1
 91
        4
 64
     7
 65
   257
 75
     1
175
     1
 42
1.0
 92
        0
 66
   257
 43
1.0
 76
     1
 77
     6
 78
     2
 67
     7
 79
     5
170
     0
171
     0
290
     0
174
     0
 93
        1
 44
0.0
173
     0
291
     0
 45
0.0
1001
ACAD
1000
AcDbSavedByObjectVersion
1070
     0
  0
VISUALSTYLE
  5
31
102
{ACAD_REACTORS
330
2A
102
}
330
2A
100
AcDbVisualStyle
  2
3D Hidden
 70
     6
 71
     1
 72
     2
 73
     2
 90
        0
 40
-0.6
 41
-30.0
 62
     5
 63
     7
 74
     2
 91
        2
 64
     7
 65
   257
 75
     2
175
     1
 42
40.0
 92
        0
 66
   257
 43
1.0
 76
     1
 77
     6
 78
     2
 67
     7
 79
     3
170
     0
171
     0
290
     0
174
     0
 93
        1
 44
0.0
173
     0
291
     0
 45
0.0
1001
ACAD
1000
AcDbSavedByObjectVersion
1070
     0
  0
VISUALSTYLE
  5
30
102
{ACAD_REACTORS
330
2A
102
}
330
2A
100
AcDbVisualStyle
  2
3dWireframe
 70
     5
 71
     0
 72
     2
 73
     0
 90
        0
 40
-0.6
 41
-30.0
 62
     5
 63
     7
 74
     1
 91
        4
 64
     7
 65
   257
 75
     1
175
     1
 42
1.0
 92
        0
 66
   257
 43
1.0
 76
     1
 77
     6
 78
     2
 67
     7
 79
     5
170
     0
171
     0
290
     0
174
     0
 93
        1
 44
0.0
173
     0
291
     0
 45
0.0
1001
ACAD
1000
AcDbSavedByObjectVersion
1070
     0
  0
VISUALSTYLE
  5
32
102
{ACAD_REACTORS
330
2A
102
}
330
2A
100
AcDbVisualStyle
  2
Basic
 70
     7
 71
     1
 72
     0
 73
     1
 90
        0
 40
-0.6
 41
-30.0
 62
     5
 63
     7
 74
     0
 91
        4
 64
     7
 65
   257
 75
     1
175
     1
 42
1.0
 92
        8
 66
     7
 43
1.0
 76
     1
 77
     6
 78
     2
 67
     7
 79
     5
170
     0
171
     0
290
     0
174
     0
 93
        1
 44
0.0
173
     0
291
     1
 45
0.0
1001
ACAD
1000
AcDbSavedByObjectVersion
1070
     0
  0
VISUALSTYLE
  5
36
102
{ACAD_REACTORS
330
2A
102
}
330
2A
100
AcDbVisualStyle
  2
Brighten
 70
    12
 71
     2
 72
     2
 73
     0
 90
        0
 40
-0.6
 41
-30.0
 62
     5
 63
     7
 74
     1
 91
        4
 64
     7
 65
   257
 75
     1
175
     1
 42
1.0
 92
        8
 66
     7
 43
1.0
 76
     1
 77
     6
 78
     2
 67
     7
 79
     5
170
     0
171
     0
290
     0
174
     0
 93
        1
 44
50.0
173
     0
291
     1
 45
0.0
1001
ACAD
1000
AcDbSavedByObjectVersion
1070
     0
  0
VISUALSTYLE
  5
3A
102
{ACAD_REACTORS
330
2A
102
}
330
2A
100
AcDbVisualStyle
  2
ColorChange
 70
    16
 71
     2
 72
     2
 73
     3
 90
        0
 40
-0.6
 41
-30.0
 62
     5
 63
     8
 74
     1
 91
        4
 64
     7
 65
   257
 75
     1
175
     1
 42
1.0
 92
        8
 66
     8
 43
1.0
 76
     1
 77
     6
 78
     2
 67
     7
 79
     5
170
     0
171
     0
290
     0
174
     0
 93
        1
 44
0.0
173
     0
291
     1
 45
0.0
1001
ACAD
1000
AcDbSavedByObjectVersion
1070
     0
  0
VISUALSTYLE
  5
34
102
{ACAD_REACTORS
330
2A
102
}
330
2A
100
AcDbVisualStyle
  2
Conceptual
 70
     9
 71
     3
 72
     2
 73
     0
 90
        0
 40
-0.6
 41
-30.0
 62
     5
 63
     7
 74
     2
 91
        2
 64
     7
 65
   257
 75
     1
175
     1
 42
40.0
 92
        8
 66
     7
 43
1.0
 76
     1
 77
     6
 78
     2
 67
     7
 79
     3
170
     0
171
     0
290
     0
174
     0
 93
        1
 44
0.0
173
     0
291
     0
 45
0.0
1001
ACAD
1000
AcDbSavedByObjectVersion
1070
     0
  0
VISUALSTYLE
  5
35
102
{ACAD_REACTORS
330
2A
102
}
330
2A
100
AcDbVisualStyle
  2
Dim
 70
    11
 71
     2
 72
     2
 73
     0
 90
        0
 40
-0.6
 41
-30.0
 62
     5
 63
     7
 74
     1
 91
        4
 64
     7
 65
   257
 75
     1
175
     1
 42
1.0
 92
        8
 66
     7
 43
1.0
 76
     1
 77
     6
 78
     2
 67
     7
 79
     5
170
     0
171
     0
290
     0
174
     0
 93
        1
 44
-50.0
173
     0
291
     1
 45
0.0
1001
ACAD
1000
AcDbSavedByObjectVersion
1070
     0
  0
VISUALSTYLE
  5
39
102
{ACAD_REACTORS
330
2A
102
}
330
2A
100
AcDbVisualStyle
  2
Facepattern
 70
    15
 71
     2
 72
     2
 73
     0
 90
        0
 40
-0.6
 41
-30.0
 62
     5
 63
     7
 74
     1
 91
        4
 64
     7
 65
   257
 75
     1
175
     1
 42
1.0
 92
        8
 66
     7
 43
1.0
 76
     1
 77
     6
 78
     2
 67
     7
 79
     5
170
     0
171
     0
290
     0
174
     0
 93
        1
 44
0.0
173
     0
291
     1
 45
0.0
1001
ACAD
1000
AcDbSavedByObjectVersion
1070
     0
  0
VISUALSTYLE
  5
2B
102
{ACAD_REACTORS
330
2A
102
}
330
2A
100
AcDbVisualStyle
  2
Flat
 70
     0
 71
     2
 72
     1
 73
     1
 90
        2
 40
-0.6
 41
30.0
 62
     5
 63
     7
 74
     0
 91
        4
 64
     7
 65
   257
 75
     1
175
     1
 42
1.0
 92
        8
 66
     7
 43
1.0
 76
     1
 77
     6
 78
     2
 67
     7
 79
     5
170
     0
171
     0
290
     0
174
     0
 93
       13
 44
0.0
173
     0
291
     1
 45
0.0
1001
ACAD
1000
AcDbSavedByObjectVersion
1070
     0
  0
VISUALSTYLE
  5
2C
102
{ACAD_REACTORS
330
2A
102
}
330
2A
100
AcDbVisualStyle
  2
FlatWithEdges
 70
     1
 71
     2
 72
     1
 73
     1
 90
        2
 40
-0.6
 41
30.0
 62
     5
 63
     7
 74
     1
 91
        4
 64
     7
 65
   257
 75
     1
175
     1
 42
1.0
 92
        0
 66
   257
 43
1.0
 76
     1
 77
     6
 78
     2
 67
     7
 79
     5
170
     0
171
     0
290
     0
174
     0
 93
       13
 44
0.0
173
     0
291
     1
 45
0.0
1001
ACAD
1000
AcDbSavedByObjectVersion
1070
     0
  0
VISUALSTYLE
  5
2D
102
{ACAD_REACTORS
330
2A
102
}
330
2A
100
AcDbVisualStyle
  2
Gouraud
 70
     2
 71
     2
 72
     2
 73
     1
 90
        2
 40
-0.6
 41
30.0
 62
     5
 63
     7
 74
     0
 91
        4
 64
     7
 65
   257
 75
     1
175
     1
 42
1.0
 92
        0
 66
     7
 43
1.0
 76
     1
 77
     6
 78
     2
 67
     7
 79
     5
170
     0
171
     0
290
     0
174
     0
 93
       13
 44
0.0
173
     0
291
     1
 45
0.0
1001
ACAD
1000
AcDbSavedByObjectVersion
1070
     0
  0
VISUALSTYLE
  5
2E
102
{ACAD_REACTORS
330
2A
102
}
330
2A
100
AcDbVisualStyle
  2
GouraudWithEdges
 70
     3
 71
     2
 72
     2
 73
     1
 90
        2
 40
-0.6
 41
30.0
 62
     5
 63
     7
 74
     1
 91
        4
 64
     7
 65
   257
 75
     1
175
     1
 42
1.0
 92
        0
 66
   257
 43
1.0
 76
     1
 77
     6
 78
     2
 67
     7
 79
     5
170
     0
171
     0
290
     0
174
     0
 93
       13
 44
0.0
173
     0
291
     1
 45
0.0
1001
ACAD
1000
AcDbSavedByObjectVersion
1070
     0
  0
VISUALSTYLE
  5
38
102
{ACAD_REACTORS
330
2A
102
}
330
2A
100
AcDbVisualStyle
  2
Linepattern
 70
    14
 71
     2
 72
     2
 73
     0
 90
        0
 40
-0.6
 41
-30.0
 62
     5
 63
     7
 74
     1
 91
        4
 64
     7
 65
   257
 75
     7
175
     7
 42
1.0
 92
        8
 66
     7
 43
1.0
 76
     1
 77
     6
 78
     2
 67
     7
 79
     5
170
     0
171
     0
290
     0
174
     0
 93
        1
 44
0.0
173
     0
291
     1
 45
0.0
1001
ACAD
1000
AcDbSavedByObjectVersion
1070
     0
  0
VISUALSTYLE
  5
33
102
{ACAD_REACTORS
330
2A
102
}
330
2A
100
AcDbVisualStyle
  2
Realistic
 70
     8
 71
     2
 72
     2
 73
     0
 90
        0
 40
-0.6
 41
-30.0
 62
     5
 63
     7
 74
     1
 91
        0
 64
     7
 65
   257
 75
     1
175
     1
 42
1.0
 92
        8
 66
     8
 43
1.0
 76
     1
 77
     6
 78
     2
 67
     7
 79
     5
170
     0
171
     0
290
     0
174
     0
 93
       13
 44
0.0
173
     0
291
     0
 45
0.0
1001
ACAD
1000
AcDbSavedByObjectVersion
1070
     0
  0
VISUALSTYLE
  5
37
102
{ACAD_REACTORS
330
2A
102
}
330
2A
100
AcDbVisualStyle
  2
Thicken
 70
    13
 71
     2
 72
     2
 73
     0
 90
        0
 40
-0.6
 41
-30.0
 62
     5
 63
     7
 74
     1
 91
        4
 64
     7
 65
   257
 75
     1
175
     1
 42
1.0
 92
       12
 66
     7
 43
1.0
 76
     1
 77
     6
 78
     2
 67
     7
 79
     5
170
     0
171
     0
290
     0
174
     0
 93
        1
 44
0.0
173
     0
291
     1
 45
0.0
1001
ACAD
1000
AcDbSavedByObjectVersion
1070
     0
  0
DICTIONARYVAR
  5
1D2
102
{ACAD_REACTORS
330
1CF
102
}
330
1CF
100
DictionaryVariables
280
     0
  1
1:1
  0
ENDSEC
  0
EOF
