999
DXF file: 200_a100-020-32-3-bmg.dxf
999
Pro/ENGINEER 2010430 by Parametric Technology Corporation
  0
SECTION
  2
HEADER
  9
$ACADVER
  1
AC1021
  9
$DWGCODEPAGE
  3
ANSI_1252
  9
$EXTMAX
 10
420.0
 20
297.0
 30
0.0
  9
$EXTMIN
 10
0.0
 20
0.0
 30
0.0
  9
$LIMMIN
 10
0.0
 20
0.0
  9
$LIMMAX
 10
420.0
 20
297.0
  9
$VIEWCTR
 10
210.0
 20
148.5
  9
$VIEWSIZE
 40
297.0
  9
$CLAYER
  8
0
  9
$LTSCALE
 40
23.1
  9
$CELTYPE
  6
BYLAYER
  9
$DIMSCALE
 40
1.0
  9
$DIMASZ
 40
3.5
  9
$DIMEXO
 40
2.625
  9
$DIMDLI
 40
15.96
  9
$DIMEXE
 40
7.56
  9
$DIMCEN
 40
3.78
  9
$DIMLFAC
 40
1.0
  9
$DIMBLK
  1
_FILLED
  9
$DIMTXT
 40
3.5
  9
$DIMTOL
 70
0
  9
$DIMLIM
 70
0
  9
$DIMTFAC
 40
1.0
  9
$PDMODE
 70
3
  9
$PDSIZE
 40
0.3125
  9
$HANDSEED
  5
343
  9
$TILEMODE
 70
1
  9
$MEASUREMENT
 70
1
  9
$INSUNITS
 70
4
  0
ENDSEC
  0
SECTION
  2
CLASSES
  0
CLASS
  1
ACDBDICTIONARYWDFLT
  2
AcDbDictionaryWithDefault
  3
AutoCAD 2000
 90
0
 91
1
280
0
281
0
  0
CLASS
  1
ACDBPLACEHOLDER
  2
AcDbPlaceHolder
  3
AutoCAD 2000
 90
0
 91
1
280
0
281
0
  0
CLASS
  1
LAYOUT
  2
AcDbLayout
  3
AutoCAD 2000
 90
0
 91
0
280
0
281
0
  0
ENDSEC
  0
SECTION
  2
TABLES
  0
TABLE
  2
VPORT
  5
8
100
AcDbSymbolTable
 70
2
  0
VPORT
  5
1F4
100
AcDbSymbolTableRecord
100
AcDbViewportTableRecord
  2
*ACTIVE
 70
0
 10
0.0
 20
0.0
 11
1.0
 21
1.0
 12
210.0
 22
148.5
 13
0.0
 23
0.0
 14
1.0
 24
1.0
 15
0.0
 25
0.0
 16
0.0
 26
0.0
 36
1.0
 17
0.0
 27
0.0
 37
0.0
 40
297.0
 41
1.4141414141
 42
50.0
 43
0.0
 44
0.0
 50
0.0
 51
0.0
 71
0
 72
100
 73
1
 74
1
 75
0
 76
0
 77
0
 78
0
  0
ENDTAB
  0
TABLE
  2
LTYPE
  5
5
100
AcDbSymbolTable
 70
6
  0
LTYPE
  5
14
100
AcDbSymbolTableRecord
100
AcDbLinetypeTableRecord
  2
BYBLOCK
 70
0
  3

 72
65
 73
0
 40
0.0
  0
LTYPE
  5
15
100
AcDbSymbolTableRecord
100
AcDbLinetypeTableRecord
  2
BYLAYER
 70
0
  3

 72
65
 73
0
 40
0.0
  0
LTYPE
  5
16
100
AcDbSymbolTableRecord
100
AcDbLinetypeTableRecord
  2
CONTINUOUS
 70
64
  3
Solid line
 72
65
 73
0
 40
0.0
  0
LTYPE
  5
1F5
100
AcDbSymbolTableRecord
100
AcDbLinetypeTableRecord
  2
CENTER
 70
64
  3
____ _ ____ _ ____ _ ____ _ ____ _ ____ _ ____
 72
65
 73
4
 40
0.6
 49
0.375
 74
0
 49
-0.075
 74
0
 49
0.075
 74
0
 49
-0.075
 74
0
  0
LTYPE
  5
1F6
100
AcDbSymbolTableRecord
100
AcDbLinetypeTableRecord
  2
HIDDEN
 70
64
  3
- - - - - - - - - - - - - - - - - - - -
 72
65
 73
2
 40
0.2
 49
0.1
 74
0
 49
-0.1
 74
0
  0
LTYPE
  5
1F7
100
AcDbSymbolTableRecord
100
AcDbLinetypeTableRecord
  2
PHANTOM
 70
64
  3
_____ _ _ _____ _ _ _____ _ _ _____
 72
65
 73
6
 40
0.8
 49
0.45
 74
0
 49
-0.05
 74
0
 49
0.1
 74
0
 49
-0.05
 74
0
 49
0.1
 74
0
 49
-0.05
 74
0
  0
LTYPE
  5
1F8
100
AcDbSymbolTableRecord
100
AcDbLinetypeTableRecord
  2
DOT
 70
64
  3
. . . . . . . . . . . . . . . . . . . .
 72
65
 73
2
 40
0.2
 49
0.1
 74
0
 49
-0.1
 74
0
  0
LTYPE
  5
1F9
100
AcDbSymbolTableRecord
100
AcDbLinetypeTableRecord
  2
DASHED
 70
64
  3
- - - - - - - - - - - - - - - - - - - -
 72
65
 73
2
 40
0.2
 49
0.1
 74
0
 49
-0.1
 74
0
  0
ENDTAB
  0
TABLE
  2
LAYER
  5
2
100
AcDbSymbolTable
 70
36
  0
LAYER
  5
10
100
AcDbSymbolTableRecord
100
AcDbLayerTableRecord
  2
0
 70
0
 62
7
  6
CONTINUOUS
370
-3
390
F
  0
LAYER
  5
1FA
100
AcDbSymbolTableRecord
100
AcDbLayerTableRecord
  2
DEFAULT_1
 70
0
 62
7
  6
CENTER
370
-3
390
F
  0
LAYER
  5
1FB
100
AcDbSymbolTableRecord
100
AcDbLayerTableRecord
  2
DEFAULT_2
 70
0
 62
8
  6
HIDDEN
370
-3
390
F
  0
LAYER
  5
1FC
100
AcDbSymbolTableRecord
100
AcDbLayerTableRecord
  2
DEFAULT_3
 70
0
 62
7
  6
PHANTOM
370
-3
390
F
  0
LAYER
  5
1FD
100
AcDbSymbolTableRecord
100
AcDbLayerTableRecord
  2
1
 70
0
 62
7
  6
CONTINUOUS
370
-3
390
F
  0
LAYER
  5
1FE
100
AcDbSymbolTableRecord
100
AcDbLayerTableRecord
  2
2
 70
0
 62
7
  6
CONTINUOUS
370
-3
390
F
  0
LAYER
  5
1FF
100
AcDbSymbolTableRecord
100
AcDbLayerTableRecord
  2
4
 70
0
 62
7
  6
CONTINUOUS
370
-3
390
F
  0
LAYER
  5
200
100
AcDbSymbolTableRecord
100
AcDbLayerTableRecord
  2
5
 70
0
 62
7
  6
CONTINUOUS
370
-3
390
F
  0
LAYER
  5
201
100
AcDbSymbolTableRecord
100
AcDbLayerTableRecord
  2
6
 70
0
 62
7
  6
CONTINUOUS
370
-3
390
F
  0
LAYER
  5
202
100
AcDbSymbolTableRecord
100
AcDbLayerTableRecord
  2
ACHSEN
 70
0
 62
7
  6
CONTINUOUS
370
-3
390
F
  0
LAYER
  5
203
100
AcDbSymbolTableRecord
100
AcDbLayerTableRecord
  2
ANALYSEN
 70
0
 62
7
  6
CONTINUOUS
370
-3
390
F
  0
LAYER
  5
204
100
AcDbSymbolTableRecord
100
AcDbLayerTableRecord
  2
AUFMASS_EINFUEHRFASE
 70
0
 62
7
  6
CONTINUOUS
370
-3
390
F
  0
LAYER
  5
205
100
AcDbSymbolTableRecord
100
AcDbLayerTableRecord
  2
AUFMASS_WEICHBEARBEITUNG
 70
0
 62
7
  6
CONTINUOUS
370
-3
390
F
  0
LAYER
  5
206
100
AcDbSymbolTableRecord
100
AcDbLayerTableRecord
  2
AUFMASS_WEICHBEARBEITUNG_FERTIG
 70
0
 62
7
  6
CONTINUOUS
370
-3
390
F
  0
LAYER
  5
207
100
AcDbSymbolTableRecord
100
AcDbLayerTableRecord
  2
AUFMASS_WEICHBE_INNENKONTUR
 70
0
 62
7
  6
CONTINUOUS
370
-3
390
F
  0
LAYER
  5
208
100
AcDbSymbolTableRecord
100
AcDbLayerTableRecord
  2
AUSFORMSCHRAEGEN
 70
0
 62
7
  6
CONTINUOUS
370
-3
390
F
  0
LAYER
  5
209
100
AcDbSymbolTableRecord
100
AcDbLayerTableRecord
  2
AUSSENKONTUR
 70
0
 62
7
  6
CONTINUOUS
370
-3
390
F
  0
LAYER
  5
20A
100
AcDbSymbolTableRecord
100
AcDbLayerTableRecord
  2
BEZUG
 70
0
 62
7
  6
CONTINUOUS
370
-3
390
F
  0
LAYER
  5
20B
100
AcDbSymbolTableRecord
100
AcDbLayerTableRecord
  2
BEZUGSACHSEN
 70
0
 62
7
  6
CONTINUOUS
370
-3
390
F
  0
LAYER
  5
20C
100
AcDbSymbolTableRecord
100
AcDbLayerTableRecord
  2
BEZUGSACHSENKENNZEICHEN
 70
0
 62
7
  6
CONTINUOUS
370
-3
390
F
  0
LAYER
  5
20D
100
AcDbSymbolTableRecord
100
AcDbLayerTableRecord
  2
BEZUGSEBENEN
 70
0
 62
7
  6
CONTINUOUS
370
-3
390
F
  0
LAYER
  5
20E
100
AcDbSymbolTableRecord
100
AcDbLayerTableRecord
  2
BEZUGSEBENE_B
 70
0
 62
7
  6
CONTINUOUS
370
-3
390
F
  0
LAYER
  5
20F
100
AcDbSymbolTableRecord
100
AcDbLayerTableRecord
  2
BEZUGSPUNKTE
 70
0
 62
7
  6
CONTINUOUS
370
-3
390
F
  0
LAYER
  5
210
100
AcDbSymbolTableRecord
100
AcDbLayerTableRecord
  2
BG_STARTBEZUEGE
 70
0
 62
7
  6
CONTINUOUS
370
-3
390
F
  0
LAYER
  5
211
100
AcDbSymbolTableRecord
100
AcDbLayerTableRecord
  2
BOHRUNGEN
 70
0
 62
7
  6
CONTINUOUS
370
-3
390
F
  0
LAYER
  5
212
100
AcDbSymbolTableRecord
100
AcDbLayerTableRecord
  2
EBENEN
 70
0
 62
7
  6
CONTINUOUS
370
-3
390
F
  0
LAYER
  5
213
100
AcDbSymbolTableRecord
100
AcDbLayerTableRecord
  2
FASEN
 70
0
 62
7
  6
CONTINUOUS
370
-3
390
F
  0
LAYER
  5
214
100
AcDbSymbolTableRecord
100
AcDbLayerTableRecord
  2
FLAECHEN
 70
0
 62
7
  6
CONTINUOUS
370
-3
390
F
  0
LAYER
  5
215
100
AcDbSymbolTableRecord
100
AcDbLayerTableRecord
  2
FORM_LAGE_TOLERANZEN
 70
0
 62
7
  6
CONTINUOUS
370
-3
390
F
  0
LAYER
  5
216
100
AcDbSymbolTableRecord
100
AcDbLayerTableRecord
  2
GEOMTOL
 70
0
 62
7
  6
CONTINUOUS
370
-3
390
F
  0
LAYER
  5
217
100
AcDbSymbolTableRecord
100
AcDbLayerTableRecord
  2
GEWINDE
 70
0
 62
7
  6
CONTINUOUS
370
-3
390
F
  0
LAYER
  5
218
100
AcDbSymbolTableRecord
100
AcDbLayerTableRecord
  2
HILFEN
 70
0
 62
7
  6
CONTINUOUS
370
-3
390
F
  0
LAYER
  5
219
100
AcDbSymbolTableRecord
100
AcDbLayerTableRecord
  2
INNENKONTUR
 70
0
 62
7
  6
CONTINUOUS
370
-3
390
F
  0
LAYER
  5
21A
100
AcDbSymbolTableRecord
100
AcDbLayerTableRecord
  2
KOORDINATENSYSTEME
 70
0
 62
7
  6
CONTINUOUS
370
-3
390
F
  0
LAYER
  5
21B
100
AcDbSymbolTableRecord
100
AcDbLayerTableRecord
  2
KOORDSYS
 70
0
 62
7
  6
CONTINUOUS
370
-3
390
F
  0
LAYER
  5
21C
100
AcDbSymbolTableRecord
100
AcDbLayerTableRecord
  2
KURVEN
 70
0
 62
7
  6
CONTINUOUS
370
-3
390
F
  0
LAYER
  5
21D
100
AcDbSymbolTableRecord
100
AcDbLayerTableRecord
  2
KURVE_FUER_GTOL_DETAILANSICHT
 70
0
 62
7
  6
CONTINUOUS
370
-3
390
F
  0
LAYER
  5
21E
100
AcDbSymbolTableRecord
100
AcDbLayerTableRecord
  2
KURVE_GAUGE2_POLIGON_INNENEINST
 70
0
 62
7
  6
CONTINUOUS
370
-3
390
F
  0
LAYER
  5
21F
100
AcDbSymbolTableRecord
100
AcDbLayerTableRecord
  2
KURVE_PHANTOM1_GAUGE_PIN_1
 70
0
 62
7
  6
CONTINUOUS
370
-3
390
F
  0
LAYER
  5
220
100
AcDbSymbolTableRecord
100
AcDbLayerTableRecord
  2
KURVE_PHANTOM2_GAUGE_PIN1
 70
0
 62
7
  6
CONTINUOUS
370
-3
390
F
  0
LAYER
  5
221
100
AcDbSymbolTableRecord
100
AcDbLayerTableRecord
  2
KURVE_POLIGON_BEMASUNG
 70
0
 62
7
  6
CONTINUOUS
370
-3
390
F
  0
LAYER
  5
222
100
AcDbSymbolTableRecord
100
AcDbLayerTableRecord
  2
NOCUT
 70
0
 62
7
  6
CONTINUOUS
370
-3
390
F
  0
LAYER
  5
223
100
AcDbSymbolTableRecord
100
AcDbLayerTableRecord
  2
PLATZIERUNG
 70
0
 62
7
  6
CONTINUOUS
370
-3
390
F
  0
LAYER
  5
224
100
AcDbSymbolTableRecord
100
AcDbLayerTableRecord
  2
PUNKTE
 70
0
 62
7
  6
CONTINUOUS
370
-3
390
F
  0
LAYER
  5
225
100
AcDbSymbolTableRecord
100
AcDbLayerTableRecord
  2
RUNDUNGEN
 70
0
 62
7
  6
CONTINUOUS
370
-3
390
F
  0
LAYER
  5
226
100
AcDbSymbolTableRecord
100
AcDbLayerTableRecord
  2
SK1
 70
0
 62
7
  6
CONTINUOUS
370
-3
390
F
  0
LAYER
  5
227
100
AcDbSymbolTableRecord
100
AcDbLayerTableRecord
  2
SK2
 70
0
 62
7
  6
CONTINUOUS
370
-3
390
F
  0
LAYER
  5
228
100
AcDbSymbolTableRecord
100
AcDbLayerTableRecord
  2
SK4
 70
0
 62
7
  6
CONTINUOUS
370
-3
390
F
  0
LAYER
  5
229
100
AcDbSymbolTableRecord
100
AcDbLayerTableRecord
  2
SKELETTE
 70
0
 62
7
  6
CONTINUOUS
370
-3
390
F
  0
LAYER
  5
22A
100
AcDbSymbolTableRecord
100
AcDbLayerTableRecord
  2
S_ACHSEN
 70
0
 62
7
  6
CONTINUOUS
370
-3
390
F
  0
LAYER
  5
22B
100
AcDbSymbolTableRecord
100
AcDbLayerTableRecord
  2
S_EBENEN
 70
0
 62
7
  6
CONTINUOUS
370
-3
390
F
  0
LAYER
  5
22C
100
AcDbSymbolTableRecord
100
AcDbLayerTableRecord
  2
S_KOORDSYS
 70
0
 62
7
  6
CONTINUOUS
370
-3
390
F
  0
LAYER
  5
22D
100
AcDbSymbolTableRecord
100
AcDbLayerTableRecord
  2
TEIL_STARTBEZUEGE
 70
0
 62
7
  6
CONTINUOUS
370
-3
390
F
  0
LAYER
  5
22E
100
AcDbSymbolTableRecord
100
AcDbLayerTableRecord
  2
TOL_BEZUEGE
 70
0
 62
7
  6
CONTINUOUS
370
-3
390
F
  0
LAYER
  5
22F
100
AcDbSymbolTableRecord
100
AcDbLayerTableRecord
  2
VERBFLAECHE
 70
0
 62
7
  6
CONTINUOUS
370
-3
390
F
  0
LAYER
  5
230
100
AcDbSymbolTableRecord
100
AcDbLayerTableRecord
  2
VERERBUNG
 70
0
 62
7
  6
CONTINUOUS
370
-3
390
F
  0
LAYER
  5
231
100
AcDbSymbolTableRecord
100
AcDbLayerTableRecord
  2
VERPACKUNG
 70
0
 62
7
  6
CONTINUOUS
370
-3
390
F
  0
LAYER
  5
232
100
AcDbSymbolTableRecord
100
AcDbLayerTableRecord
  2
VOLGEOM
 70
0
 62
7
  6
CONTINUOUS
370
-3
390
F
  0
LAYER
  5
233
100
AcDbSymbolTableRecord
100
AcDbLayerTableRecord
  2
VOLUMEN
 70
0
 62
7
  6
CONTINUOUS
370
-3
390
F
  0
LAYER
  5
234
100
AcDbSymbolTableRecord
100
AcDbLayerTableRecord
  2
XSEC_DATUMS
 70
0
 62
7
  6
CONTINUOUS
370
-3
390
F
  0
LAYER
  5
235
100
AcDbSymbolTableRecord
100
AcDbLayerTableRecord
  2
ZEICHNUNG
 70
0
 62
7
  6
CONTINUOUS
370
-3
390
F
  0
ENDTAB
  0
TABLE
  2
STYLE
  5
3
100
AcDbSymbolTable
 70
1
  0
STYLE
  5
11
100
AcDbSymbolTableRecord
100
AcDbTextStyleTableRecord
  2
STANDARD
 70
0
 40
0.0
 41
0.7
 50
0.0
 71
0
 42
0.2
  3
txt
  4

  0
STYLE
  5
236
100
AcDbSymbolTableRecord
100
AcDbTextStyleTableRecord
  2
TEXTSTYLE_1
 70
0
 40
0.0
 41
0.8
 50
0.0
 71
0
 42
0.2
  3
gdt
  4

  0
STYLE
  5
237
100
AcDbSymbolTableRecord
100
AcDbTextStyleTableRecord
  2
TEXTSTYLE_2
 70
0
 40
0.0
 41
0.7
 50
0.0
 71
0
 42
0.2
  3
gdt
  4

  0
ENDTAB
  0
TABLE
  2
VIEW
  5
6
100
AcDbSymbolTable
 70
0
  0
ENDTAB
  0
TABLE
  2
UCS
  5
7
100
AcDbSymbolTable
 70
0
  0
ENDTAB
  0
TABLE
  2
APPID
  5
9
100
AcDbSymbolTable
 70
1
  0
APPID
  5
238
100
AcDbSymbolTableRecord
100
AcDbRegAppTableRecord
  2
ACAD
 70
0
  0
ENDTAB
  0
TABLE
  2
BLOCK_RECORD
  5
1
100
AcDbSymbolTable
 70
0
  0
BLOCK_RECORD
  5
239
100
AcDbSymbolTableRecord
100
AcDbBlockTableRecord
  2
*Model_Space
  0
BLOCK_RECORD
  5
23A
100
AcDbSymbolTableRecord
100
AcDbBlockTableRecord
  2
*Paper_Space
  0
BLOCK_RECORD
  5
23B
100
AcDbSymbolTableRecord
100
AcDbBlockTableRecord
  2
_FILLED
  0
BLOCK_RECORD
  5
23C
100
AcDbSymbolTableRecord
100
AcDbBlockTableRecord
  2
*D0
  0
BLOCK_RECORD
  5
23D
100
AcDbSymbolTableRecord
100
AcDbBlockTableRecord
  2
*D1
  0
BLOCK_RECORD
  5
23E
100
AcDbSymbolTableRecord
100
AcDbBlockTableRecord
  2
*D2
  0
BLOCK_RECORD
  5
23F
100
AcDbSymbolTableRecord
100
AcDbBlockTableRecord
  2
*D3
  0
BLOCK_RECORD
  5
240
100
AcDbSymbolTableRecord
100
AcDbBlockTableRecord
  2
*D4
  0
BLOCK_RECORD
  5
241
100
AcDbSymbolTableRecord
100
AcDbBlockTableRecord
  2
*D5
  0
BLOCK_RECORD
  5
242
100
AcDbSymbolTableRecord
100
AcDbBlockTableRecord
  2
*D6
  0
ENDTAB
  0
TABLE
  2
DIMSTYLE
  5
A
100
AcDbSymbolTable
 70
1
100
AcDbDimStyleTable
 71
0
  0
DIMSTYLE
105
243
100
AcDbSymbolTableRecord
100
AcDbDimStyleTableRecord
  2
STANDARD
 70
0
  3

  4

 40
1.0
 41
3.5
 42
0.0625
 43
0.38
 44
0.18
 45
0.0
 46
0.0
 47
0.005
 48
0.005
140
3.5
141
0.09
142
0.0
143
25.4
144
1.0
145
0.0
146
1.0
147
0.09
 71
0.0
 72
0.0
 73
0
 74
0
 75
0
 76
0
 77
1
 78
8
170
0
171
2
172
0
173
0
174
0
175
0
176
0
177
0
178
5
270
2
271
3
272
3
273
2
274
2
275
0
280
0
281
0
282
0
283
1
284
8
285
0
286
0
287
3
288
0
340
11
341
23B
342
23B
343
23B
344
23B
  0
DIMSTYLE
105
244
100
AcDbSymbolTableRecord
100
AcDbDimStyleTableRecord
  2
DIMSTYLE_1
 70
0
  3

  4

 40
1.0
 41
3.5
 42
0.0625
 43
0.38
 44
0.18
 45
0.0
 46
0.0
 47
0.0
 48
0.0
140
3.5
141
0.09
142
0.0
143
25.4
144
1.0
145
0.0
146
1.0
147
0.09
 71
0.0
 72
0.0
 73
0
 74
0
 75
0
 76
0
 77
1
 78
8
170
0
171
2
172
0
173
0
174
0
175
0
176
0
177
0
178
5
270
2
271
0
272
0
273
2
274
2
275
0
280
0
281
0
282
0
283
1
284
8
285
0
286
0
287
3
288
0
340
11
341
23B
342
23B
343
23B
344
23B
  0
DIMSTYLE
105
245
100
AcDbSymbolTableRecord
100
AcDbDimStyleTableRecord
  2
DIMSTYLE_2
 70
0
  3

  4

 40
1.0
 41
3.5
 42
0.0625
 43
0.38
 44
0.18
 45
0.0
 46
0.0
 47
0.0
 48
0.0
140
3.5
141
0.09
142
0.0
143
25.4
144
1.0
145
0.0
146
1.0
147
0.09
 71
0.0
 72
0.0
 73
0
 74
0
 75
0
 76
0
 77
1
 78
8
170
0
171
2
172
0
173
0
174
0
175
0
176
0
177
0
178
5
270
2
271
3
272
3
273
2
274
2
275
0
280
0
281
0
282
0
283
1
284
8
285
0
286
0
287
3
288
0
340
11
341
23B
342
23B
343
23B
344
23B
  0
DIMSTYLE
105
246
100
AcDbSymbolTableRecord
100
AcDbDimStyleTableRecord
  2
DIMSTYLE_3
 70
0
  3

  4

 40
1.0
 41
3.5
 42
0.0625
 43
0.38
 44
0.18
 45
0.0
 46
0.0
 47
0.0
 48
0.0
140
3.5
141
0.09
142
0.0
143
25.4
144
1.0
145
0.0
146
1.0
147
0.09
 71
0.0
 72
0.0
 73
0
 74
0
 75
0
 76
0
 77
1
 78
8
170
0
171
2
172
0
173
0
174
0
175
0
176
0
177
0
178
5
270
2
271
2
272
2
273
2
274
2
275
0
280
0
281
0
282
0
283
1
284
8
285
0
286
0
287
3
288
0
340
11
341
23B
342
23B
343
23B
344
23B
  0
ENDTAB
  0
ENDSEC
  0
SECTION
  2
BLOCKS
  0
BLOCK
  5
20
100
AcDbEntity
  8
0
100
AcDbBlockBegin
  2
*Model_Space
 70
0
 10
0.0
 20
0.0
 30
0.0
  3
*Model_Space
  1

  0
ENDBLK
  5
21
100
AcDbEntity
  8
0
100
AcDbBlockEnd
  0
BLOCK
  5
1C
100
AcDbEntity
  8
0
100
AcDbBlockBegin
  2
*Paper_Space
 70
0
 10
0.0
 20
0.0
 30
0.0
  3
*Paper_Space
  1

  0
ENDBLK
  5
1D
100
AcDbEntity
  8
0
100
AcDbBlockEnd
  0
BLOCK
  5
247
100
AcDbEntity
  8
0
100
AcDbBlockBegin
  2
_FILLED
 70
64
 10
0.0
 20
0.0
  3
_FILLED
  1

  0
SOLID
  5
248
100
AcDbEntity
  8
0
  6
BYBLOCK
 62
0
100
AcDbTrace
 10
0.0
 20
0.0
 11
-1.0
 21
0.125
 12
-1.0
 22
-0.125
 13
-1.0
 23
-0.125
  0
ENDBLK
  5
249
100
AcDbEntity
  8
0
  6
BYBLOCK
 62
0
100
AcDbBlockEnd
  0
BLOCK
  5
24A
100
AcDbEntity
  8
0
100
AcDbBlockBegin
 62
2
  6
CONTINUOUS
  2
*D0
 70
65
 10
0.0
 20
0.0
  3
*D0
  1

  0
MTEXT
  5
24B
100
AcDbEntity
  8
0
100
AcDbMText
 62
5
  6
CONTINUOUS
  7
TEXTSTYLE_2
 71
2
 72
1
 10
322.735
 20
160.0
 30
0.0
 11
0.0
 21
1.0
 31
0.0
 44
0.9
  1
{\Fgdt;n}\Ftxt;83
 40
3.5
 41
9.9166666667
  0
LINE
  5
24C
100
AcDbEntity
  8
0
100
AcDbLine
 62
2
  6
CONTINUOUS
 10
218.95
 20
201.475
 11
328.61
 21
201.475
  0
LINE
  5
24D
100
AcDbEntity
  8
0
100
AcDbLine
 62
2
  6
CONTINUOUS
 10
218.95
 20
118.525
 11
328.61
 21
118.525
  0
LINE
  5
24E
100
AcDbEntity
  8
0
100
AcDbLine
 62
2
  6
CONTINUOUS
 10
327.11
 20
201.475
 11
327.11
 21
160.0
  0
LINE
  5
24F
100
AcDbEntity
  8
0
100
AcDbLine
 62
2
  6
CONTINUOUS
 10
327.11
 20
118.525
 11
327.11
 21
160.0
  0
INSERT
  5
250
100
AcDbEntity
  8
0
100
AcDbBlockReference
 62
2
  6
CONTINUOUS
  2
_FILLED
 10
327.11
 20
201.475
 41
3.5
 42
3.5
 43
3.5
 50
90.0
  0
INSERT
  5
251
100
AcDbEntity
  8
0
100
AcDbBlockReference
 62
2
  6
CONTINUOUS
  2
_FILLED
 10
327.11
 20
118.525
 41
3.5
 42
3.5
 43
3.5
 50
270.0
  0
ENDBLK
  5
252
100
AcDbEntity
  8
0
  6
BYBLOCK
 62
0
100
AcDbBlockEnd
  0
BLOCK
  5
253
100
AcDbEntity
  8
2
100
AcDbBlockBegin
 62
2
  6
CONTINUOUS
  2
*D1
 70
65
 10
0.0
 20
0.0
  3
*D1
  1

  0
MTEXT
  5
254
100
AcDbEntity
  8
2
100
AcDbMText
 62
5
  6
CONTINUOUS
  7
STANDARD
 71
2
 72
1
 10
235.8355
 20
235.375
 30
0.0
 11
1.0
 21
0.0
 31
0.0
 44
0.9
  1
91.671
 40
3.5
 41
14.25
  0
LINE
  5
255
100
AcDbEntity
  8
2
100
AcDbLine
 62
2
  6
CONTINUOUS
 10
190.0
 20
210.0
 11
190.0
 21
232.5
  0
LINE
  5
256
100
AcDbEntity
  8
2
100
AcDbLine
 62
2
  6
CONTINUOUS
 10
281.671
 20
185.975
 11
281.671
 21
232.5
  0
LINE
  5
257
100
AcDbEntity
  8
2
100
AcDbLine
 62
2
  6
CONTINUOUS
 10
190.0
 20
231.0
 11
235.8355
 21
231.0
  0
LINE
  5
258
100
AcDbEntity
  8
2
100
AcDbLine
 62
2
  6
CONTINUOUS
 10
281.671
 20
231.0
 11
235.8355
 21
231.0
  0
INSERT
  5
259
100
AcDbEntity
  8
2
100
AcDbBlockReference
 62
2
  6
CONTINUOUS
  2
_FILLED
 10
190.0
 20
231.0
 41
3.5
 42
3.5
 43
3.5
 50
180.0
  0
INSERT
  5
25A
100
AcDbEntity
  8
2
100
AcDbBlockReference
 62
2
  6
CONTINUOUS
  2
_FILLED
 10
281.671
 20
231.0
 41
3.5
 42
3.5
 43
3.5
  0
ENDBLK
  5
25B
100
AcDbEntity
  8
0
  6
BYBLOCK
 62
0
100
AcDbBlockEnd
  0
BLOCK
  5
25C
100
AcDbEntity
  8
SK2
100
AcDbBlockBegin
 62
2
  6
CONTINUOUS
  2
*D2
 70
65
 10
0.0
 20
0.0
  3
*D2
  1

  0
MTEXT
  5
25D
100
AcDbEntity
  8
SK2
100
AcDbMText
 62
5
  6
CONTINUOUS
  7
STANDARD
 71
2
 72
1
 10
210.8355
 20
255.375
 30
0.0
 11
1.0
 21
0.0
 31
0.0
 44
0.9
  1
141.671
 40
3.5
 41
16.25
  0
LINE
  5
25E
100
AcDbEntity
  8
SK2
100
AcDbLine
 62
2
  6
CONTINUOUS
 10
140.0
 20
160.0
 11
140.0
 21
252.5
  0
LINE
  5
25F
100
AcDbEntity
  8
SK2
100
AcDbLine
 62
2
  6
CONTINUOUS
 10
281.671
 20
160.0
 11
281.671
 21
238.0
  0
LINE
  5
260
100
AcDbEntity
  8
SK2
100
AcDbLine
 62
2
  6
CONTINUOUS
 10
281.671
 20
244.0
 11
281.671
 21
252.5
  0
LINE
  5
261
100
AcDbEntity
  8
SK2
100
AcDbLine
 62
2
  6
CONTINUOUS
 10
140.0
 20
251.0
 11
210.8355
 21
251.0
  0
LINE
  5
262
100
AcDbEntity
  8
SK2
100
AcDbLine
 62
2
  6
CONTINUOUS
 10
281.671
 20
251.0
 11
210.8355
 21
251.0
  0
INSERT
  5
263
100
AcDbEntity
  8
SK2
100
AcDbBlockReference
 62
2
  6
CONTINUOUS
  2
_FILLED
 10
140.0
 20
251.0
 41
3.5
 42
3.5
 43
3.5
 50
180.0
  0
INSERT
  5
264
100
AcDbEntity
  8
SK2
100
AcDbBlockReference
 62
2
  6
CONTINUOUS
  2
_FILLED
 10
281.671
 20
251.0
 41
3.5
 42
3.5
 43
3.5
  0
ENDBLK
  5
265
100
AcDbEntity
  8
0
  6
BYBLOCK
 62
0
100
AcDbBlockEnd
  0
BLOCK
  5
266
100
AcDbEntity
  8
SK2
100
AcDbBlockBegin
 62
2
  6
CONTINUOUS
  2
*D3
 70
65
 10
0.0
 20
0.0
  3
*D3
  1

  0
MTEXT
  5
267
100
AcDbEntity
  8
SK2
100
AcDbMText
 62
5
  6
CONTINUOUS
  7
STANDARD
 71
2
 72
1
 10
250.3355
 20
225.375
 30
0.0
 11
1.0
 21
0.0
 31
0.0
 44
0.9
  1
62.671
 40
3.5
 41
15.0
  0
LINE
  5
268
100
AcDbEntity
  8
SK2
100
AcDbLine
 62
2
  6
CONTINUOUS
 10
219.0
 20
210.0
 11
219.0
 21
222.5
  0
LINE
  5
269
100
AcDbEntity
  8
SK2
100
AcDbLine
 62
2
  6
CONTINUOUS
 10
281.671
 20
160.0
 11
281.671
 21
222.5
  0
LINE
  5
26A
100
AcDbEntity
  8
SK2
100
AcDbLine
 62
2
  6
CONTINUOUS
 10
219.0
 20
221.0
 11
250.3355
 21
221.0
  0
LINE
  5
26B
100
AcDbEntity
  8
SK2
100
AcDbLine
 62
2
  6
CONTINUOUS
 10
281.671
 20
221.0
 11
250.3355
 21
221.0
  0
INSERT
  5
26C
100
AcDbEntity
  8
SK2
100
AcDbBlockReference
 62
2
  6
CONTINUOUS
  2
_FILLED
 10
219.0
 20
221.0
 41
3.5
 42
3.5
 43
3.5
 50
180.0
  0
INSERT
  5
26D
100
AcDbEntity
  8
SK2
100
AcDbBlockReference
 62
2
  6
CONTINUOUS
  2
_FILLED
 10
281.671
 20
221.0
 41
3.5
 42
3.5
 43
3.5
  0
ENDBLK
  5
26E
100
AcDbEntity
  8
0
  6
BYBLOCK
 62
0
100
AcDbBlockEnd
  0
BLOCK
  5
26F
100
AcDbEntity
  8
2
100
AcDbBlockBegin
 62
2
  6
CONTINUOUS
  2
*D4
 70
65
 10
0.0
 20
0.0
  3
*D4
  1

  0
MTEXT
  5
270
100
AcDbEntity
  8
2
100
AcDbMText
 62
5
  6
CONTINUOUS
  7
TEXTSTYLE_2
 71
2
 72
1
 10
302.735
 20
160.0
 30
0.0
 11
0.0
 21
1.0
 31
0.0
 44
0.9
  1
{\Fgdt;n}\Ftxt;32
 40
3.5
 41
9.9166666667
  0
LINE
  5
271
100
AcDbEntity
  8
2
100
AcDbLine
 62
2
  6
CONTINUOUS
 10
281.671
 20
144.0
 11
308.61
 21
144.0
  0
LINE
  5
272
100
AcDbEntity
  8
2
100
AcDbLine
 62
2
  6
CONTINUOUS
 10
281.671
 20
176.0
 11
308.61
 21
176.0
  0
LINE
  5
273
100
AcDbEntity
  8
2
100
AcDbLine
 62
2
  6
CONTINUOUS
 10
307.11
 20
144.0
 11
307.11
 21
160.0
  0
LINE
  5
274
100
AcDbEntity
  8
2
100
AcDbLine
 62
2
  6
CONTINUOUS
 10
307.11
 20
176.0
 11
307.11
 21
160.0
  0
INSERT
  5
275
100
AcDbEntity
  8
2
100
AcDbBlockReference
 62
2
  6
CONTINUOUS
  2
_FILLED
 10
307.11
 20
144.0
 41
3.5
 42
3.5
 43
3.5
 50
270.0
  0
INSERT
  5
276
100
AcDbEntity
  8
2
100
AcDbBlockReference
 62
2
  6
CONTINUOUS
  2
_FILLED
 10
307.11
 20
176.0
 41
3.5
 42
3.5
 43
3.5
 50
90.0
  0
ENDBLK
  5
277
100
AcDbEntity
  8
0
  6
BYBLOCK
 62
0
100
AcDbBlockEnd
  0
BLOCK
  5
278
100
AcDbEntity
  8
SK2
100
AcDbBlockBegin
 62
2
  6
CONTINUOUS
  2
*D5
 70
65
 10
0.0
 20
0.0
  3
*D5
  1

  0
MTEXT
  5
279
100
AcDbEntity
  8
SK2
100
AcDbMText
 62
5
  6
CONTINUOUS
  7
TEXTSTYLE_2
 71
2
 72
1
 10
312.735
 20
160.0
 30
0.0
 11
0.0
 21
1.0
 31
0.0
 44
0.9
  1
{\Fgdt;n}\Ftxt;48
 40
3.5
 41
10.1666666667
  0
LINE
  5
27A
100
AcDbEntity
  8
SK2
100
AcDbLine
 62
2
  6
CONTINUOUS
 10
260.171
 20
184.0
 11
318.61
 21
184.0
  0
LINE
  5
27B
100
AcDbEntity
  8
SK2
100
AcDbLine
 62
2
  6
CONTINUOUS
 10
260.171
 20
136.0
 11
318.61
 21
136.0
  0
LINE
  5
27C
100
AcDbEntity
  8
SK2
100
AcDbLine
 62
2
  6
CONTINUOUS
 10
317.11
 20
184.0
 11
317.11
 21
160.0
  0
LINE
  5
27D
100
AcDbEntity
  8
SK2
100
AcDbLine
 62
2
  6
CONTINUOUS
 10
317.11
 20
136.0
 11
317.11
 21
160.0
  0
INSERT
  5
27E
100
AcDbEntity
  8
SK2
100
AcDbBlockReference
 62
2
  6
CONTINUOUS
  2
_FILLED
 10
317.11
 20
184.0
 41
3.5
 42
3.5
 43
3.5
 50
90.0
  0
INSERT
  5
27F
100
AcDbEntity
  8
SK2
100
AcDbBlockReference
 62
2
  6
CONTINUOUS
  2
_FILLED
 10
317.11
 20
136.0
 41
3.5
 42
3.5
 43
3.5
 50
270.0
  0
ENDBLK
  5
280
100
AcDbEntity
  8
0
  6
BYBLOCK
 62
0
100
AcDbBlockEnd
  0
BLOCK
  5
281
100
AcDbEntity
  8
2
100
AcDbBlockBegin
 62
2
  6
CONTINUOUS
  2
*D6
 70
65
 10
0.0
 20
0.0
  3
*D6
  1

  0
MTEXT
  5
282
100
AcDbEntity
  8
2
100
AcDbMText
 62
5
  6
CONTINUOUS
  7
STANDARD
 71
2
 72
1
 10
240.0
 20
245.375
 30
0.0
 11
1.0
 21
0.0
 31
0.0
 44
0.9
  1
100
 40
3.5
 41
7.5
  0
LINE
  5
283
100
AcDbEntity
  8
2
100
AcDbLine
 62
2
  6
CONTINUOUS
 10
190.0
 20
210.0
 11
190.0
 21
242.5
  0
LINE
  5
284
100
AcDbEntity
  8
2
100
AcDbLine
 62
2
  6
CONTINUOUS
 10
290.0
 20
160.0
 11
290.0
 21
173.0
  0
LINE
  5
285
100
AcDbEntity
  8
2
100
AcDbLine
 62
2
  6
CONTINUOUS
 10
290.0
 20
179.0
 11
290.0
 21
242.5
  0
LINE
  5
286
100
AcDbEntity
  8
2
100
AcDbLine
 62
2
  6
CONTINUOUS
 10
190.0
 20
241.0
 11
240.0
 21
241.0
  0
LINE
  5
287
100
AcDbEntity
  8
2
100
AcDbLine
 62
2
  6
CONTINUOUS
 10
290.0
 20
241.0
 11
240.0
 21
241.0
  0
INSERT
  5
288
100
AcDbEntity
  8
2
100
AcDbBlockReference
 62
2
  6
CONTINUOUS
  2
_FILLED
 10
190.0
 20
241.0
 41
3.5
 42
3.5
 43
3.5
 50
180.0
  0
INSERT
  5
289
100
AcDbEntity
  8
2
100
AcDbBlockReference
 62
2
  6
CONTINUOUS
  2
_FILLED
 10
290.0
 20
241.0
 41
3.5
 42
3.5
 43
3.5
  0
ENDBLK
  5
28A
100
AcDbEntity
  8
0
  6
BYBLOCK
 62
0
100
AcDbBlockEnd
  0
ENDSEC
  0
SECTION
  2
ENTITIES
  0
DIMENSION
  5
28B
100
AcDbEntity
  8
0
100
AcDbDimension
 62
2
  6
CONTINUOUS
  2
*D0
 10
327.11
 20
118.525
 11
325.5958491733
 21
157.7836332715
 70
160
 71
2
 42
82.95
  1
%%c<>
  3
DIMSTYLE_1
100
AcDbAlignedDimension
 13
218.95
 23
201.475
 14
218.95
 24
118.525
 50
270.0
100
AcDbRotatedDimension
  0
DIMENSION
  5
28C
100
AcDbEntity
  8
2
100
AcDbDimension
 62
2
  6
CONTINUOUS
  2
*D1
 10
281.671
 20
231.0
 11
228.7105
 21
233.625
 70
160
 71
2
 42
91.671
  3
DIMSTYLE_2
100
AcDbAlignedDimension
 13
190.0
 23
210.0
 14
281.671
 24
185.975
100
AcDbRotatedDimension
  0
DIMENSION
  5
28D
100
AcDbEntity
  8
SK2
100
AcDbDimension
 62
2
  6
CONTINUOUS
  2
*D2
 10
281.671
 20
251.0
 11
202.7105
 21
253.625
 70
160
 71
2
 42
141.671
  3
DIMSTYLE_2
100
AcDbAlignedDimension
 13
140.0
 23
160.0
 14
281.671
 24
160.0
100
AcDbRotatedDimension
  0
DIMENSION
  5
28E
100
AcDbEntity
  8
SK2
100
AcDbDimension
 62
2
  6
CONTINUOUS
  2
*D3
 10
281.671
 20
221.0
 11
242.8355
 21
223.625
 70
160
 71
2
 42
62.671
  3
DIMSTYLE_2
100
AcDbAlignedDimension
 13
219.0
 23
210.0
 14
281.671
 24
160.0
100
AcDbRotatedDimension
  0
DIMENSION
  5
28F
100
AcDbEntity
  8
2
100
AcDbDimension
 62
2
  6
CONTINUOUS
  2
*D4
 10
307.11
 20
176.0
 11
305.5958491733
 21
157.7836332715
 70
160
 71
2
 42
32.0
  1
%%c<>
  3
DIMSTYLE_3
100
AcDbAlignedDimension
 13
281.671
 23
144.0
 14
281.671
 24
176.0
 50
90.0
100
AcDbRotatedDimension
  0
DIMENSION
  5
290
100
AcDbEntity
  8
SK2
100
AcDbDimension
 62
2
  6
CONTINUOUS
  2
*D5
 10
317.11
 20
136.0
 11
315.6238537743
 21
157.72775848
 70
160
 71
2
 42
48.0
  1
%%c<>
  3
DIMSTYLE_3
100
AcDbAlignedDimension
 13
260.171
 23
184.0
 14
260.171
 24
136.0
 50
270.0
100
AcDbRotatedDimension
  0
DIMENSION
  5
291
100
AcDbEntity
  8
2
100
AcDbDimension
 62
2
  6
CONTINUOUS
  2
*D6
 10
290.0
 20
241.0
 11
236.25
 21
243.625
 70
160
 71
2
 42
100.0
  3
DIMSTYLE_3
100
AcDbAlignedDimension
 13
190.0
 23
210.0
 14
290.0
 24
160.0
100
AcDbRotatedDimension
  0
MTEXT
  5
292
100
AcDbEntity
  8
6
100
AcDbMText
 62
5
  6
CONTINUOUS
  7
STANDARD
 71
1
 72
1
 10
187.1438497029
 20
82.3507156451
 30
0.0
 11
1.0
 21
0.0
 31
0.0
 44
0.9
  3
Für diese Unterlage behalten wir das Ur-\Pheberrecht. Sie darf nur für den von uns\Pbestimmten Zweck benutzt und ohne unsere \PZustimmung weder vervielfältigt noch \PDritten zugänglich gemacht werden.\P \PWe own the copyright of this document. It\Pde
  1
termined and may neither be copied or\Pmade accessible to outsiders without our\Ppermission.\P \PCe plan reste notre propriété. Il ne peut\Pétre utilisé, copié ou reproduit sans notre\Paccord.
 40
3.5
 41
103.5833333333
  0
LINE
  5
293
100
AcDbEntity
  8
1
100
AcDbLine
 62
9
  6
CONTINUOUS
 10
140.1
 20
126.394798437
 11
140.1
 21
145.6006081374
  0
LINE
  5
294
100
AcDbEntity
  8
1
100
AcDbLine
 62
6
  6
CONTINUOUS
 10
140.1
 20
145.6006081374
 11
140.1
 21
147.84
  0
LINE
  5
295
100
AcDbEntity
  8
1
100
AcDbLine
 62
6
  6
CONTINUOUS
 10
140.1
 20
172.16
 11
140.1
 21
174.3993918626
  0
LINE
  5
296
100
AcDbEntity
  8
1
100
AcDbLine
 62
9
  6
CONTINUOUS
 10
140.1
 20
174.3993918626
 11
140.1
 21
193.6052015622
  0
LINE
  5
297
100
AcDbEntity
  8
1
100
AcDbLine
 62
9
  6
CONTINUOUS
 10
141.9999255153
 20
195.6026962683
 11
141.9999255153
 21
175.0827544425
  0
LINE
  5
298
100
AcDbEntity
  8
1
100
AcDbLine
 62
9
  6
CONTINUOUS
 10
141.9999255153
 20
144.9172455575
 11
141.9999255153
 21
124.3973037317
  0
LINE
  5
299
100
AcDbEntity
  8
1
100
AcDbLine
 62
6
  6
CONTINUOUS
 10
142.25
 20
147.9207649872
 11
142.25
 21
149.99
  0
LINE
  5
29A
100
AcDbEntity
  8
1
100
AcDbLine
 62
6
  6
CONTINUOUS
 10
142.25
 20
170.01
 11
142.25
 21
172.0792350128
  0
LINE
  5
29B
100
AcDbEntity
  8
1
100
AcDbLine
 62
9
  6
CONTINUOUS
 10
148.3
 20
144.1865901846
 11
148.3
 21
149.99
  0
LINE
  5
29C
100
AcDbEntity
  8
1
100
AcDbLine
 62
9
  6
CONTINUOUS
 10
148.3
 20
170.01
 11
148.3
 21
175.8134098154
  0
LINE
  5
29D
100
AcDbEntity
  8
1
100
AcDbLine
 62
6
  6
CONTINUOUS
 10
150.2
 20
172.5807309802
 11
150.2
 21
147.4192690198
  0
LINE
  5
29E
100
AcDbEntity
  8
1
100
AcDbLine
 62
6
  6
CONTINUOUS
 10
206.7379709791
 20
110.0
 11
190.0
 21
110.0
  0
LINE
  5
29F
100
AcDbEntity
  8
1
100
AcDbLine
 62
6
  6
CONTINUOUS
 10
213.2620290209
 20
110.0
 11
218.95
 21
110.0
  0
LINE
  5
2A0
100
AcDbEntity
  8
1
100
AcDbLine
 62
9
  6
CONTINUOUS
 10
140.1
 20
147.84
 11
142.25
 21
149.99
  0
LINE
  5
2A1
100
AcDbEntity
  8
1
100
AcDbLine
 62
6
  6
CONTINUOUS
 10
208.8375
 20
114.025
 11
211.1625
 21
114.025
  0
LINE
  5
2A2
100
AcDbEntity
  8
1
100
AcDbLine
 62
9
  6
CONTINUOUS
 10
142.25
 20
170.01
 11
140.1
 21
172.16
  0
LINE
  5
2A3
100
AcDbEntity
  8
1
100
AcDbLine
 62
6
  6
CONTINUOUS
 10
195.3318001508
 20
121.0490372391
 11
206.7379709791
 21
121.0490372391
  0
LINE
  5
2A4
100
AcDbEntity
  8
1
100
AcDbLine
 62
6
  6
CONTINUOUS
 10
213.2620290209
 20
121.0490372391
 11
218.95
 21
121.0490372391
  0
LINE
  5
2A5
100
AcDbEntity
  8
1
100
AcDbLine
 62
6
  6
CONTINUOUS
 10
189.2994287113
 20
122.31775
 11
188.3780626591
 21
122.31775
  0
LINE
  5
2A6
100
AcDbEntity
  8
1
100
AcDbLine
 62
6
  6
CONTINUOUS
 10
187.5
 20
122.11775
 11
141.9999255153
 21
124.3973037317
  0
LINE
  5
2A7
100
AcDbEntity
  8
1
100
AcDbLine
 62
6
  6
CONTINUOUS
 10
187.5
 20
197.88225
 11
187.5
 21
122.11775
  0
LINE
  5
2A8
100
AcDbEntity
  8
1
100
AcDbLine
 62
9
  6
CONTINUOUS
 10
188.119243614
 20
122.2836758263
 11
188.119243614
 21
197.7163241737
  0
LINE
  5
2A9
100
AcDbEntity
  8
1
100
AcDbLine
 62
6
  6
CONTINUOUS
 10
208.8375
 20
126.3714685869
 11
211.1625
 21
126.3714685869
  0
LINE
  5
2AA
100
AcDbEntity
  8
1
100
AcDbLine
 62
6
  6
CONTINUOUS
 10
218.95
 20
128.25
 11
204.6272089654
 21
128.25
  0
LINE
  5
2AB
100
AcDbEntity
  8
1
100
AcDbLine
 62
6
  6
CONTINUOUS
 10
204.6272089654
 20
128.65
 11
218.95
 21
128.65
  0
LINE
  5
2AC
100
AcDbEntity
  8
1
100
AcDbLine
 62
9
  6
CONTINUOUS
 10
188.3780626591
 20
122.31775
 11
188.3780626591
 21
197.68225
  0
LINE
  5
2AD
100
AcDbEntity
  8
1
100
AcDbLine
 62
9
  6
CONTINUOUS
 10
189.2994287113
 20
122.31775
 11
189.2994287113
 21
197.68225
  0
LINE
  5
2AE
100
AcDbEntity
  8
1
100
AcDbLine
 62
6
  6
CONTINUOUS
 10
190.0
 20
210.0
 11
190.0
 21
110.0
  0
LINE
  5
2AF
100
AcDbEntity
  8
1
100
AcDbLine
 62
6
  6
CONTINUOUS
 10
211.9125
 20
207.6625471695
 11
213.2620290209
 21
210.0
  0
LINE
  5
2B0
100
AcDbEntity
  8
1
100
AcDbLine
 62
9
  6
CONTINUOUS
 10
140.1
 20
146.6824156588
 11
142.25
 21
147.9207649872
  0
LINE
  5
2B1
100
AcDbEntity
  8
1
100
AcDbLine
 62
6
  6
CONTINUOUS
 10
188.119243614
 20
122.2836758263
 11
187.5
 21
122.11775
  0
LINE
  5
2B2
100
AcDbEntity
  8
1
100
AcDbLine
 62
6
  6
CONTINUOUS
 10
245.9389491924
 20
134.025
 11
237.671
 21
134.025
  0
LINE
  5
2B3
100
AcDbEntity
  8
1
100
AcDbLine
 62
6
  6
CONTINUOUS
 10
284.0
 20
135.0
 11
268.75
 21
135.0
  0
LINE
  5
2B4
100
AcDbEntity
  8
1
100
AcDbLine
 62
9
  6
CONTINUOUS
 10
142.25
 20
172.0792350128
 11
140.1
 21
173.3175843412
  0
LINE
  5
2B5
100
AcDbEntity
  8
1
100
AcDbLine
 62
6
  6
CONTINUOUS
 10
211.9125
 20
112.3374528305
 11
213.2620290209
 21
110.0
  0
LINE
  5
2B6
100
AcDbEntity
  8
1
100
AcDbLine
 62
6
  6
CONTINUOUS
 10
259.2792864376
 20
136.025
 11
248.2483502692
 21
136.025
  0
LINE
  5
2B7
100
AcDbEntity
  8
1
100
AcDbLine
 62
6
  6
CONTINUOUS
 10
284.0
 20
137.090144929
 11
278.0
 21
137.090144929
  0
LINE
  5
2B8
100
AcDbEntity
  8
1
100
AcDbLine
 62
8
  6
HIDDEN
 10
280.8049745962
 20
139.0025
 11
267.5
 21
139.0025
  0
LINE
  5
2B9
100
AcDbEntity
  8
1
100
AcDbLine
 62
6
  6
CONTINUOUS
 10
267.5
 20
139.0025
 11
263.0852135624
 21
139.0025
  0
LINE
  5
2BA
100
AcDbEntity
  8
1
100
AcDbLine
 62
6
  6
CONTINUOUS
 10
284.0
 20
139.8788215179
 11
278.0
 21
139.8788215179
  0
LINE
  5
2BB
100
AcDbEntity
  8
1
100
AcDbLine
 62
9
  6
CONTINUOUS
 10
204.6272089654
 20
128.65
 11
204.6272089654
 21
128.25
  0
LINE
  5
2BC
100
AcDbEntity
  8
1
100
AcDbLine
 62
6
  6
CONTINUOUS
 10
206.7379709791
 20
210.0
 11
206.7379709791
 21
128.65
  0
LINE
  5
2BD
100
AcDbEntity
  8
1
100
AcDbLine
 62
6
  6
CONTINUOUS
 10
206.7379709791
 20
121.0490372391
 11
206.7379709791
 21
110.0
  0
LINE
  5
2BE
100
AcDbEntity
  8
1
100
AcDbLine
 62
9
  6
CONTINUOUS
 10
149.592946729
 20
145.11
 11
141.5273502491
 21
145.11
  0
LINE
  5
2BF
100
AcDbEntity
  8
1
100
AcDbLine
 62
8
  6
HIDDEN
 10
257.0162439119
 20
147.465
 11
241.671
 21
147.465
  0
LINE
  5
2C0
100
AcDbEntity
  8
1
100
AcDbLine
 62
6
  6
CONTINUOUS
 10
208.0875
 20
207.6625120588
 11
208.0875
 21
128.65
  0
LINE
  5
2C1
100
AcDbEntity
  8
1
100
AcDbLine
 62
6
  6
CONTINUOUS
 10
208.0875
 20
112.3374867998
 11
208.0875
 21
125.353165729
  0
LINE
  5
2C2
100
AcDbEntity
  8
1
100
AcDbLine
 62
9
  6
CONTINUOUS
 10
208.8375
 20
114.025
 11
208.8375
 21
126.3714685869
  0
LINE
  5
2C3
100
AcDbEntity
  8
1
100
AcDbLine
 62
9
  6
CONTINUOUS
 10
208.8375
 20
128.65
 11
208.8375
 21
205.975
  0
LINE
  5
2C4
100
AcDbEntity
  8
1
100
AcDbLine
 62
9
  6
CONTINUOUS
 10
211.1625
 20
114.025
 11
211.1625
 21
126.3714685869
  0
LINE
  5
2C5
100
AcDbEntity
  8
1
100
AcDbLine
 62
9
  6
CONTINUOUS
 10
211.1625
 20
128.65
 11
211.1625
 21
205.975
  0
LINE
  5
2C6
100
AcDbEntity
  8
1
100
AcDbLine
 62
6
  6
CONTINUOUS
 10
211.9125
 20
112.3374867998
 11
211.9125
 21
125.353165729
  0
LINE
  5
2C7
100
AcDbEntity
  8
1
100
AcDbLine
 62
6
  6
CONTINUOUS
 10
211.9125
 20
128.65
 11
211.9125
 21
207.6625120588
  0
LINE
  5
2C8
100
AcDbEntity
  8
1
100
AcDbLine
 62
6
  6
CONTINUOUS
 10
148.3
 20
149.99
 11
142.25
 21
149.99
  0
LINE
  5
2C9
100
AcDbEntity
  8
1
100
AcDbLine
 62
8
  6
HIDDEN
 10
281.671
 20
144.0
 11
257.0162439119
 21
147.465
  0
LINE
  5
2CA
100
AcDbEntity
  8
1
100
AcDbLine
 62
6
  6
CONTINUOUS
 10
213.2620290209
 20
210.0
 11
213.2620290209
 21
128.65
  0
LINE
  5
2CB
100
AcDbEntity
  8
1
100
AcDbLine
 62
6
  6
CONTINUOUS
 10
213.2620290209
 20
121.0490372391
 11
213.2620290209
 21
110.0
  0
LINE
  5
2CC
100
AcDbEntity
  8
1
100
AcDbLine
 62
6
  6
CONTINUOUS
 10
218.95
 20
110.0000005438
 11
218.95
 21
209.9999998575
  0
LINE
  5
2CD
100
AcDbEntity
  8
1
100
AcDbLine
 62
6
  6
CONTINUOUS
 10
284.0
 20
157.2113234112
 11
278.0
 21
157.2113234112
  0
LINE
  5
2CE
100
AcDbEntity
  8
4
100
AcDbLine
 62
7
  6
CENTER
 10
286.671
 20
160.0
 11
137.1
 21
160.0
  0
LINE
  5
2CF
100
AcDbEntity
  8
1
100
AcDbLine
 62
6
  6
CONTINUOUS
 10
284.0
 20
162.7886765888
 11
278.0
 21
162.7886765888
  0
LINE
  5
2D0
100
AcDbEntity
  8
1
100
AcDbLine
 62
8
  6
HIDDEN
 10
281.671
 20
176.0
 11
257.0162439119
 21
172.535
  0
LINE
  5
2D1
100
AcDbEntity
  8
1
100
AcDbLine
 62
9
  6
CONTINUOUS
 10
148.3
 20
170.01
 11
142.25
 21
170.01
  0
LINE
  5
2D2
100
AcDbEntity
  8
1
100
AcDbLine
 62
8
  6
HIDDEN
 10
257.0162439119
 20
172.535
 11
241.671
 21
172.535
  0
LINE
  5
2D3
100
AcDbEntity
  8
1
100
AcDbLine
 62
6
  6
CONTINUOUS
 10
237.0792159741
 20
187.0
 11
237.0792159741
 21
133.0
  0
LINE
  5
2D4
100
AcDbEntity
  8
1
100
AcDbLine
 62
6
  6
CONTINUOUS
 10
237.671
 20
185.975
 11
237.671
 21
134.025
  0
LINE
  5
2D5
100
AcDbEntity
  8
1
100
AcDbLine
 62
6
  6
CONTINUOUS
 10
206.7379709791
 20
110.0
 11
208.0875
 21
112.3374528305
  0
LINE
  5
2D6
100
AcDbEntity
  8
1
100
AcDbLine
 62
9
  6
CONTINUOUS
 10
141.5273502491
 20
174.89
 11
149.592946729
 21
174.89
  0
LINE
  5
2D7
100
AcDbEntity
  8
1
100
AcDbLine
 62
6
  6
CONTINUOUS
 10
206.7379709791
 20
210.0
 11
208.0875
 21
207.6625471695
  0
LINE
  5
2D8
100
AcDbEntity
  8
1
100
AcDbLine
 62
8
  6
HIDDEN
 10
241.671
 20
172.535
 11
241.671
 21
147.465
  0
LINE
  5
2D9
100
AcDbEntity
  8
1
100
AcDbLine
 62
6
  6
CONTINUOUS
 10
284.0
 20
180.1211784821
 11
278.0
 21
180.1211784821
  0
LINE
  5
2DA
100
AcDbEntity
  8
1
100
AcDbLine
 62
8
  6
HIDDEN
 10
280.8049745962
 20
180.9975
 11
267.5
 21
180.9975
  0
LINE
  5
2DB
100
AcDbEntity
  8
1
100
AcDbLine
 62
6
  6
CONTINUOUS
 10
267.5
 20
180.9975
 11
263.0852135624
 21
180.9975
  0
LINE
  5
2DC
100
AcDbEntity
  8
1
100
AcDbLine
 62
6
  6
CONTINUOUS
 10
284.0
 20
182.909855071
 11
278.0
 21
182.909855071
  0
LINE
  5
2DD
100
AcDbEntity
  8
1
100
AcDbLine
 62
6
  6
CONTINUOUS
 10
259.2792864376
 20
183.975
 11
248.2483502692
 21
183.975
  0
LINE
  5
2DE
100
AcDbEntity
  8
1
100
AcDbLine
 62
6
  6
CONTINUOUS
 10
284.0
 20
185.0
 11
268.75
 21
185.0
  0
LINE
  5
2DF
100
AcDbEntity
  8
1
100
AcDbLine
 62
9
  6
CONTINUOUS
 10
245.9389491924
 20
185.975
 11
245.9389491924
 21
134.025
  0
LINE
  5
2E0
100
AcDbEntity
  8
1
100
AcDbLine
 62
9
  6
CONTINUOUS
 10
246.8049745962
 20
185.475
 11
246.8049745962
 21
134.525
  0
LINE
  5
2E1
100
AcDbEntity
  8
1
100
AcDbLine
 62
9
  6
CONTINUOUS
 10
247.3823248654
 20
184.475
 11
247.3823248654
 21
135.525
  0
LINE
  5
2E2
100
AcDbEntity
  8
1
100
AcDbLine
 62
9
  6
CONTINUOUS
 10
248.2483502692
 20
183.975
 11
248.2483502692
 21
136.025
  0
LINE
  5
2E3
100
AcDbEntity
  8
1
100
AcDbLine
 62
6
  6
CONTINUOUS
 10
237.671
 20
134.025
 11
237.0792159741
 21
133.0
  0
LINE
  5
2E4
100
AcDbEntity
  8
1
100
AcDbLine
 62
6
  6
CONTINUOUS
 10
245.9389491924
 20
185.975
 11
237.671
 21
185.975
  0
LINE
  5
2E5
100
AcDbEntity
  8
1
100
AcDbLine
 62
6
  6
CONTINUOUS
 10
188.119243614
 20
197.7163241737
 11
187.5
 21
197.88225
  0
LINE
  5
2E6
100
AcDbEntity
  8
1
100
AcDbLine
 62
6
  6
CONTINUOUS
 10
237.671
 20
185.975
 11
237.0792159741
 21
187.0
  0
LINE
  5
2E7
100
AcDbEntity
  8
1
100
AcDbLine
 62
6
  6
CONTINUOUS
 10
247.3823248654
 20
135.525
 11
246.8049745962
 21
134.525
  0
LINE
  5
2E8
100
AcDbEntity
  8
1
100
AcDbLine
 62
6
  6
CONTINUOUS
 10
237.0792159741
 20
133.0
 11
218.95
 21
118.525
  0
LINE
  5
2E9
100
AcDbEntity
  8
1
100
AcDbLine
 62
6
  6
CONTINUOUS
 10
189.2994287113
 20
197.68225
 11
188.3780626591
 21
197.68225
  0
LINE
  5
2EA
100
AcDbEntity
  8
1
100
AcDbLine
 62
6
  6
CONTINUOUS
 10
237.0792159741
 20
187.0
 11
218.95
 21
201.475
  0
LINE
  5
2EB
100
AcDbEntity
  8
1
100
AcDbLine
 62
6
  6
CONTINUOUS
 10
247.3823248654
 20
184.475
 11
246.8049745962
 21
185.475
  0
LINE
  5
2EC
100
AcDbEntity
  8
1
100
AcDbLine
 62
8
  6
HIDDEN
 10
257.0162439119
 20
172.535
 11
257.0162439119
 21
147.465
  0
LINE
  5
2ED
100
AcDbEntity
  8
1
100
AcDbLine
 62
9
  6
CONTINUOUS
 10
259.2792864376
 20
183.975
 11
259.2792864376
 21
136.025
  0
LINE
  5
2EE
100
AcDbEntity
  8
1
100
AcDbLine
 62
9
  6
CONTINUOUS
 10
259.9863932188
 20
183.6821067812
 11
259.9863932188
 21
136.3178932188
  0
LINE
  5
2EF
100
AcDbEntity
  8
1
100
AcDbLine
 62
9
  6
CONTINUOUS
 10
262.3781067812
 20
181.2903932188
 11
262.3781067812
 21
138.7096067812
  0
LINE
  5
2F0
100
AcDbEntity
  8
1
100
AcDbLine
 62
9
  6
CONTINUOUS
 10
263.0852135624
 20
180.9975
 11
263.0852135624
 21
139.0025
  0
LINE
  5
2F1
100
AcDbEntity
  8
1
100
AcDbLine
 62
6
  6
CONTINUOUS
 10
187.5
 20
197.88225
 11
141.9999255153
 21
195.6026962683
  0
LINE
  5
2F2
100
AcDbEntity
  8
1
100
AcDbLine
 62
6
  6
CONTINUOUS
 10
267.5
 20
183.7282608696
 11
267.5
 21
136.25
  0
LINE
  5
2F3
100
AcDbEntity
  8
1
100
AcDbLine
 62
9
  6
CONTINUOUS
 10
268.75
 20
185.0
 11
268.75
 21
135.0
  0
LINE
  5
2F4
100
AcDbEntity
  8
1
100
AcDbLine
 62
6
  6
CONTINUOUS
 10
262.3781067812
 20
138.7096067812
 11
259.9863932188
 21
136.3178932188
  0
LINE
  5
2F5
100
AcDbEntity
  8
1
100
AcDbLine
 62
6
  6
CONTINUOUS
 10
208.8375
 20
205.975
 11
211.1625
 21
205.975
  0
LINE
  5
2F6
100
AcDbEntity
  8
1
100
AcDbLine
 62
6
  6
CONTINUOUS
 10
206.7379709791
 20
210.0
 11
190.0
 21
210.0
  0
LINE
  5
2F7
100
AcDbEntity
  8
1
100
AcDbLine
 62
6
  6
CONTINUOUS
 10
213.2620290209
 20
210.0
 11
218.95
 21
210.0
  0
LINE
  5
2F8
100
AcDbEntity
  8
1
100
AcDbLine
 62
6
  6
CONTINUOUS
 10
262.3781067812
 20
181.2903932188
 11
259.9863932188
 21
183.6821067812
  0
LINE
  5
2F9
100
AcDbEntity
  8
1
100
AcDbLine
 62
9
  6
CONTINUOUS
 10
278.0
 20
182.909855071
 11
278.0
 21
180.1211784821
  0
LINE
  5
2FA
100
AcDbEntity
  8
1
100
AcDbLine
 62
9
  6
CONTINUOUS
 10
278.0
 20
162.7886765888
 11
278.0
 21
157.2113234112
  0
LINE
  5
2FB
100
AcDbEntity
  8
1
100
AcDbLine
 62
9
  6
CONTINUOUS
 10
278.0
 20
139.8788215179
 11
278.0
 21
137.090144929
  0
LINE
  5
2FC
100
AcDbEntity
  8
1
100
AcDbLine
 62
8
  6
HIDDEN
 10
280.8049745962
 20
180.9975
 11
280.8049745962
 21
139.0025
  0
LINE
  5
2FD
100
AcDbEntity
  8
1
100
AcDbLine
 62
8
  6
HIDDEN
 10
281.671
 20
179.4975
 11
281.671
 21
140.5025
  0
LINE
  5
2FE
100
AcDbEntity
  8
1
100
AcDbLine
 62
9
  6
CONTINUOUS
 10
284.0
 20
185.0
 11
284.0
 21
182.909855071
  0
LINE
  5
2FF
100
AcDbEntity
  8
1
100
AcDbLine
 62
9
  6
CONTINUOUS
 10
284.0
 20
180.1211784821
 11
284.0
 21
162.7886765888
  0
LINE
  5
300
100
AcDbEntity
  8
1
100
AcDbLine
 62
9
  6
CONTINUOUS
 10
284.0
 20
157.2113234112
 11
284.0
 21
139.8788215179
  0
LINE
  5
301
100
AcDbEntity
  8
1
100
AcDbLine
 62
9
  6
CONTINUOUS
 10
284.0
 20
137.090144929
 11
284.0
 21
135.0
  0
LINE
  5
302
100
AcDbEntity
  8
1
100
AcDbLine
 62
8
  6
HIDDEN
 10
281.671
 20
140.5025
 11
280.8049745962
 21
139.0025
  0
LINE
  5
303
100
AcDbEntity
  8
1
100
AcDbLine
 62
8
  6
HIDDEN
 10
281.671
 20
179.4975
 11
280.8049745962
 21
180.9975
  0
LINE
  5
304
100
AcDbEntity
  8
1
100
AcDbLine
 62
9
  6
CONTINUOUS
 10
290.0
 20
179.0
 11
290.0
 21
141.0
  0
ARC
  5
305
100
AcDbEntity
  8
1
100
AcDbCircle
 62
6
  6
CONTINUOUS
 10
204.6272089654
 20
118.65
 40
10.0
100
AcDbArc
 50
90.0
 51
164.1905288929
  0
ARC
  5
306
100
AcDbEntity
  8
1
100
AcDbCircle
 62
6
  6
CONTINUOUS
 10
204.6272089654
 20
118.65
 40
9.6000002451
100
AcDbArc
 50
90.0
 51
165.5284226131
  0
ARC
  5
307
100
AcDbEntity
  8
1
100
AcDbCircle
 62
6
  6
CONTINUOUS
 10
142.1
 20
126.3947984369
 40
2.0
100
AcDbArc
 50
180.0
 51
267.1318795127
  0
ARC
  5
308
100
AcDbEntity
  8
1
100
AcDbCircle
 62
9
  6
CONTINUOUS
 10
148.3
 20
151.89
 40
1.9
100
AcDbArc
 50
270.0
 51
355.2355361865
  0
ARC
  5
309
100
AcDbEntity
  8
1
100
AcDbCircle
 62
6
  6
CONTINUOUS
 10
188.3780626591
 20
121.31775
 40
1.0
100
AcDbArc
 50
90.0
 51
105.0
  0
ARC
  5
30A
100
AcDbEntity
  8
1
100
AcDbCircle
 62
6
  6
CONTINUOUS
 10
189.2994287113
 20
121.31775
 40
1.0
100
AcDbArc
 50
45.5216429127
 51
90.0
  0
ARC
  5
30B
100
AcDbEntity
  8
1
100
AcDbCircle
 62
6
  6
CONTINUOUS
 10
208.8375
 20
113.275
 40
0.75
100
AcDbArc
 50
90.0
 51
180.0
  0
ARC
  5
30C
100
AcDbEntity
  8
1
100
AcDbCircle
 62
6
  6
CONTINUOUS
 10
-37.556980918
 20
230.9736146973
 40
267.8869841029
100
AcDbArc
 50
335.7738444502
 51
336.4871427587
  0
CIRCLE
  5
30D
100
AcDbEntity
  8
1
100
AcDbCircle
 62
6
  6
CONTINUOUS
 10
175.0
 20
160.0
 40
6.0
  0
ARC
  5
30E
100
AcDbEntity
  8
1
100
AcDbCircle
 62
6
  6
CONTINUOUS
 10
142.1
 20
193.6052015631
 40
2.0
100
AcDbArc
 50
92.8681204873
 51
180.0
  0
ARC
  5
30F
100
AcDbEntity
  8
1
100
AcDbCircle
 62
9
  6
CONTINUOUS
 10
148.3
 20
168.11
 40
1.9
100
AcDbArc
 50
4.7644637835
 51
90.0
  0
ARC
  5
310
100
AcDbEntity
  8
1
100
AcDbCircle
 62
6
  6
CONTINUOUS
 10
188.3780626591
 20
198.68225
 40
1.0
100
AcDbArc
 50
255.0
 51
270.0
  0
ARC
  5
311
100
AcDbEntity
  8
1
100
AcDbCircle
 62
6
  6
CONTINUOUS
 10
189.2994287113
 20
198.68225
 40
1.0
100
AcDbArc
 50
270.0
 51
314.4783570873
  0
ARC
  5
312
100
AcDbEntity
  8
1
100
AcDbCircle
 62
6
  6
CONTINUOUS
 10
208.8375
 20
206.725
 40
0.75
100
AcDbArc
 50
185.625
 51
270.0
  0
ARC
  5
313
100
AcDbEntity
  8
1
100
AcDbCircle
 62
6
  6
CONTINUOUS
 10
211.1625
 20
113.275
 40
0.75
100
AcDbArc
 50
0.0
 51
90.0
  0
ARC
  5
314
100
AcDbEntity
  8
1
100
AcDbCircle
 62
6
  6
CONTINUOUS
 10
210.0547484293
 20
136.1419824374
 40
21.0846437193
100
AcDbArc
 50
224.4587431007
 51
225.7109689292
  0
ARC
  5
315
100
AcDbEntity
  8
1
100
AcDbCircle
 62
6
  6
CONTINUOUS
 10
248.2483502692
 20
135.025
 40
1.0
100
AcDbArc
 50
90.0
 51
150.0
  0
ARC
  5
316
100
AcDbEntity
  8
1
100
AcDbCircle
 62
6
  6
CONTINUOUS
 10
245.9389491924
 20
135.025
 40
1.0
100
AcDbArc
 50
270.0
 51
330.0
  0
ARC
  5
317
100
AcDbEntity
  8
1
100
AcDbCircle
 62
6
  6
CONTINUOUS
 10
259.2792864376
 20
137.025
 40
1.0
100
AcDbArc
 50
270.0
 51
315.0
  0
ARC
  5
318
100
AcDbEntity
  8
1
100
AcDbCircle
 62
6
  6
CONTINUOUS
 10
311.0229491023
 20
-1254.7914094693
 40
1439.8294715434
100
AcDbArc
 50
96.48917138
 51
96.7415536538
  0
ARC
  5
319
100
AcDbEntity
  8
1
100
AcDbCircle
 62
6
  6
CONTINUOUS
 10
268.75
 20
136.25
 40
1.25
100
AcDbArc
 50
180.0
 51
270.0
  0
ARC
  5
31A
100
AcDbEntity
  8
1
100
AcDbCircle
 62
6
  6
CONTINUOUS
 10
263.0852135624
 20
138.0025
 40
1.0
100
AcDbArc
 50
90.0
 51
135.0
  0
ARC
  5
31B
100
AcDbEntity
  8
1
100
AcDbCircle
 62
6
  6
CONTINUOUS
 10
284.0
 20
141.0
 40
6.0
100
AcDbArc
 50
270.0
 51
360.0
  0
ARC
  5
31C
100
AcDbEntity
  8
1
100
AcDbCircle
 62
6
  6
CONTINUOUS
 10
245.9389491924
 20
184.975
 40
1.0
100
AcDbArc
 50
30.0
 51
90.0
  0
ARC
  5
31D
100
AcDbEntity
  8
1
100
AcDbCircle
 62
6
  6
CONTINUOUS
 10
211.1625
 20
206.725
 40
0.75
100
AcDbArc
 50
270.0
 51
354.375
  0
ARC
  5
31E
100
AcDbEntity
  8
1
100
AcDbCircle
 62
6
  6
CONTINUOUS
 10
248.2483502692
 20
184.975
 40
1.0
100
AcDbArc
 50
210.0
 51
270.0
  0
ARC
  5
31F
100
AcDbEntity
  8
1
100
AcDbCircle
 62
6
  6
CONTINUOUS
 10
259.2792864376
 20
182.975
 40
1.0
100
AcDbArc
 50
45.0
 51
90.0
  0
ARC
  5
320
100
AcDbEntity
  8
1
100
AcDbCircle
 62
6
  6
CONTINUOUS
 10
263.0852135624
 20
181.9975
 40
1.0
100
AcDbArc
 50
225.0
 51
270.0
  0
ARC
  5
321
100
AcDbEntity
  8
1
100
AcDbCircle
 62
6
  6
CONTINUOUS
 10
284.0
 20
179.0
 40
6.0
100
AcDbArc
 50
0.0
 51
90.0
  0
ARC
  5
322
100
AcDbEntity
  8
1
100
AcDbCircle
 62
6
  6
CONTINUOUS
 10
268.75
 20
183.75
 40
1.25
100
AcDbArc
 50
90.0
 51
156.6321188674
  0
ARC
  5
323
100
AcDbEntity
  8
1
100
AcDbCircle
 62
6
  6
CONTINUOUS
 10
311.0229491025
 20
1574.7914094709
 40
1439.8294715451
100
AcDbArc
 50
263.2584463462
 51
263.51082862
  0
ARC
  5
324
100
AcDbEntity
  8
1
100
AcDbCircle
 62
6
  6
CONTINUOUS
 10
457.5569809188
 20
230.9736146976
 40
267.8869841038
100
AcDbArc
 50
203.5128572413
 51
204.2261555498
  0
SPLINE
  5
325
100
AcDbEntity
  8
1
100
AcDbSpline
 62
6
  6
CONTINUOUS
 70
0
 71
3
 72
12
 73
8
 74
0
 42
0.0000001
 43
0.0000001
 44
0.0000000001
 40
0.0
 40
0.0
 40
0.0
 40
0.0
 40
0.1864872008
 40
0.2991691175
 40
0.4237947907
 40
0.7009903902
 40
1.0
 40
1.0
 40
1.0
 40
1.0
 10
275.211820776
 20
138.6339010483
 30
0.0
 10
275.285573048
 20
138.8181570114
 30
0.0
 10
275.4988146036
 20
139.074201113
 30
0.0
 10
275.8623517509
 20
139.3400897537
 30
0.0
 10
276.347986333
 20
139.5979283502
 30
0.0
 10
277.0669492051
 20
139.8192106022
 30
0.0
 10
277.6817801853
 20
139.8788215179
 30
0.0
 10
278.0
 20
139.8788215179
 30
0.0
  0
SPLINE
  5
326
100
AcDbEntity
  8
1
100
AcDbSpline
 62
6
  6
CONTINUOUS
 70
0
 71
3
 72
9
 73
5
 74
0
 42
0.0000001
 43
0.0000001
 44
0.0000000001
 40
0.0
 40
0.0
 40
0.0
 40
0.0
 40
0.1210170113
 40
1.0
 40
1.0
 40
1.0
 40
1.0
 10
267.6
 20
184.2393511425
 30
0.0
 10
267.5921119231
 20
184.2198362435
 30
0.0
 10
267.5304833481
 20
184.0572720109
 30
0.0
 10
267.5
 20
183.8811448242
 30
0.0
 10
267.5
 20
183.7282608696
 30
0.0
  0
LINE
  5
327
100
AcDbEntity
  8
1
100
AcDbLine
 62
6
  6
CONTINUOUS
 10
267.6025286067
 20
184.2457916917
 11
267.6
 21
184.2393511425
  0
SPLINE
  5
328
100
AcDbEntity
  8
1
100
AcDbSpline
 62
6
  6
CONTINUOUS
 70
0
 71
3
 72
14
 73
10
 74
0
 42
0.0000001
 43
0.0000001
 44
0.0000000001
 40
0.0
 40
0.0
 40
0.0
 40
0.0
 40
0.2849341028
 40
0.4248354607
 40
0.5607976074
 40
0.6905057872
 40
0.8102728068
 40
0.9152136275
 40
1.0
 40
1.0
 40
1.0
 40
1.0
 10
284.0
 20
139.8788215179
 30
0.0
 10
284.3932413194
 20
139.8788215179
 30
0.0
 10
284.9803156189
 20
139.9165781211
 30
0.0
 10
285.7455732014
 20
140.0336488216
 30
0.0
 10
286.2943615233
 20
140.144920851
 30
0.0
 10
286.8114840618
 20
140.2696308791
 30
0.0
 10
287.2854121304
 20
140.3912939539
 30
0.0
 10
287.7008590169
 20
140.4886620846
 30
0.0
 10
287.9617467631
 20
140.5265799495
 30
0.0
 10
288.0787615394
 20
140.5266422767
 30
0.0
  0
SPLINE
  5
329
100
AcDbEntity
  8
1
100
AcDbSpline
 62
6
  6
CONTINUOUS
 70
0
 71
3
 72
12
 73
8
 74
0
 42
0.0000001
 43
0.0000001
 44
0.0000000001
 40
0.0
 40
0.0
 40
0.0
 40
0.0
 40
0.2990219736
 40
0.576223749
 40
0.7008486278
 40
0.8135266757
 40
1.0
 40
1.0
 40
1.0
 40
1.0
 10
278.0
 20
180.1211784821
 30
0.0
 10
277.6817408381
 20
180.1211784821
 30
0.0
 10
277.0668390589
 20
180.1808033547
 30
0.0
 10
276.3478054317
 20
180.402137733
 30
0.0
 10
275.8621476325
 20
180.6600350256
 30
0.0
 10
275.4986255472
 20
180.9259723523
 30
0.0
 10
275.2854190195
 20
181.1820687696
 30
0.0
 10
275.2117209966
 20
181.3663481219
 30
0.0
  0
SPLINE
  5
32A
100
AcDbEntity
  8
1
100
AcDbSpline
 62
6
  6
CONTINUOUS
 70
0
 71
3
 72
14
 73
10
 74
0
 42
0.0000001
 43
0.0000001
 44
0.0000000001
 40
0.0
 40
0.0
 40
0.0
 40
0.0
 40
0.084787904
 40
0.1897281036
 40
0.3094961218
 40
0.4392034612
 40
0.5751658802
 40
0.7150658776
 40
1.0
 40
1.0
 40
1.0
 40
1.0
 10
288.078743805
 20
179.4733563499
 30
0.0
 10
287.9617274092
 20
179.4734162583
 30
0.0
 10
287.7008408526
 20
179.5113491013
 30
0.0
 10
287.2853912456
 20
179.6087046676
 30
0.0
 10
286.8114686414
 20
179.73038021
 30
0.0
 10
286.2943451988
 20
179.8550788113
 30
0.0
 10
285.7455629718
 20
179.9663552335
 30
0.0
 10
284.9803095161
 20
180.083422403
 30
0.0
 10
284.3932396824
 20
180.1211784821
 30
0.0
 10
284.0
 20
180.1211784821
 30
0.0
  0
SPLINE
  5
32B
100
AcDbEntity
  8
1
100
AcDbSpline
 62
6
  6
CONTINUOUS
 70
0
 71
3
 72
23
 73
19
 74
0
 42
0.0000001
 43
0.0000001
 44
0.0000000001
 40
0.0
 40
0.0
 40
0.0
 40
0.0
 40
0.0184012597
 40
0.034473728
 40
0.048862242
 40
0.0626721123
 40
0.0933866733
 40
0.1123754217
 40
0.1342104299
 40
0.1862913411
 40
0.2480783111
 40
0.3168255001
 40
0.3898617061
 40
0.4650962202
 40
0.5412869562
 40
0.6941154498
 40
0.8470538126
 40
1.0
 40
1.0
 40
1.0
 40
1.0
 10
288.0787615394
 20
140.5266422767
 30
0.0
 10
288.1190160488
 20
140.5266637179
 30
0.0
 10
288.1946102328
 20
140.5225318376
 30
0.0
 10
288.2994441074
 20
140.4981454639
 30
0.0
 10
288.386682068
 20
140.4530907109
 30
0.0
 10
288.4783319914
 20
140.3590340088
 30
0.0
 10
288.5177380609
 20
140.2178822431
 30
0.0
 10
288.5170426424
 20
140.0616183426
 30
0.0
 10
288.4876349606
 20
139.8597080492
 30
0.0
 10
288.394367389
 20
139.5759703271
 30
0.0
 10
288.2135037343
 20
139.2184952881
 30
0.0
 10
287.9611130455
 20
138.850082508
 30
0.0
 10
287.6463775691
 20
138.4931563466
 30
0.0
 10
287.2794720217
 20
138.1651124902
 30
0.0
 10
286.7357410181
 20
137.779224214
 30
0.0
 10
285.9794929968
 20
137.4087953961
 30
0.0
 10
285.0052438835
 20
137.147524856
 30
0.0
 10
284.3345844101
 20
137.090144929
 30
0.0
 10
284.0
 20
137.090144929
 30
0.0
  0
SPLINE
  5
32C
100
AcDbEntity
  8
1
100
AcDbSpline
 62
6
  6
CONTINUOUS
 70
0
 71
3
 72
15
 73
11
 74
0
 42
0.0000001
 43
0.0000001
 44
0.0000000001
 40
0.0
 40
0.0
 40
0.0
 40
0.0
 40
0.1252570027
 40
0.2502386126
 40
0.3751026418
 40
0.5000028313
 40
0.6249027726
 40
0.7497660958
 40
0.8747472157
 40
1.0
 40
1.0
 40
1.0
 40
1.0
 10
278.0
 20
157.2113234112
 30
0.0
 10
277.6327679556
 20
157.2113234112
 30
0.0
 10
276.8914166707
 20
157.3531126822
 30
0.0
 10
275.9456413009
 20
157.9653653443
 30
0.0
 10
275.3052270389
 20
158.8942957331
 30
0.0
 10
275.0789547469
 20
160.0000250508
 30
0.0
 10
275.3052461043
 20
161.1057481072
 30
0.0
 10
275.9456729646
 20
162.0346644467
 30
0.0
 10
276.8914442113
 20
162.6468926833
 30
0.0
 10
277.6327803233
 20
162.7886765888
 30
0.0
 10
278.0
 20
162.7886765888
 30
0.0
  0
SPLINE
  5
32D
100
AcDbEntity
  8
1
100
AcDbSpline
 62
6
  6
CONTINUOUS
 70
0
 71
3
 72
16
 73
12
 74
0
 42
0.0000001
 43
0.0000001
 44
0.0000000001
 40
0.0
 40
0.0
 40
0.0
 40
0.0
 40
0.1698604891
 40
0.3331567575
 40
0.4837623584
 40
0.617083521
 40
0.7307562607
 40
0.8264542219
 40
0.8699600923
 40
0.912367852
 40
1.0
 40
1.0
 40
1.0
 40
1.0
 10
278.0
 20
137.090144929
 30
0.0
 10
277.7931732353
 20
137.090144929
 30
0.0
 10
277.3872805626
 20
137.1073646677
 30
0.0
 10
276.8025020215
 20
137.1850240046
 30
0.0
 10
276.2720596446
 20
137.3136521224
 30
0.0
 10
275.8197223433
 20
137.4920701147
 30
0.0
 10
275.4649640142
 20
137.7180387159
 30
0.0
 10
275.2589459423
 20
137.9567291636
 30
0.0
 10
275.1743021595
 20
138.1630185238
 30
0.0
 10
275.1399606237
 20
138.373185175
 30
0.0
 10
275.1721690472
 20
138.5348387785
 30
0.0
 10
275.211820776
 20
138.6339010483
 30
0.0
  0
SPLINE
  5
32E
100
AcDbEntity
  8
1
100
AcDbSpline
 62
6
  6
CONTINUOUS
 70
0
 71
3
 72
23
 73
19
 74
0
 42
0.0000001
 43
0.0000001
 44
0.0000000001
 40
0.0
 40
0.0
 40
0.0
 40
0.0
 40
0.1529463142
 40
0.3058858905
 40
0.4587151059
 40
0.5349055203
 40
0.6101413149
 40
0.6831773156
 40
0.7519244707
 40
0.8137107556
 40
0.8657903789
 40
0.8876252757
 40
0.9066130957
 40
0.9373272586
 40
0.9511371178
 40
0.965525995
 40
0.9815989306
 40
1.0
 40
1.0
 40
1.0
 40
1.0
 10
284.0
 20
182.909855071
 30
0.0
 10
284.334585526
 20
182.909855071
 30
0.0
 10
285.0052493618
 20
182.8524740328
 30
0.0
 10
285.9795061983
 20
182.591202623
 30
0.0
 10
286.7357552876
 20
182.2207638172
 30
0.0
 10
287.27949222
 20
181.8348745883
 30
0.0
 10
287.6463951381
 20
181.5068230384
 30
0.0
 10
287.9611298859
 20
181.1498921823
 30
0.0
 10
288.2135218869
 20
180.7814810806
 30
0.0
 10
288.3943765402
 20
180.4240050544
 30
0.0
 10
288.4876396937
 20
180.1402701887
 30
0.0
 10
288.5170443533
 20
179.9383639523
 30
0.0
 10
288.5177353674
 20
179.7821027694
 30
0.0
 10
288.4783246322
 20
179.6409544649
 30
0.0
 10
288.3866707781
 20
179.5469021684
 30
0.0
 10
288.2994307601
 20
179.5018456622
 30
0.0
 10
288.1945919413
 20
179.4774729329
 30
0.0
 10
288.1189979994
 20
179.4733357411
 30
0.0
 10
288.078743805
 20
179.4733563499
 30
0.0
  0
SPLINE
  5
32F
100
AcDbEntity
  8
1
100
AcDbSpline
 62
6
  6
CONTINUOUS
 70
0
 71
3
 72
23
 73
19
 74
0
 42
0.0000001
 43
0.0000001
 44
0.0000000001
 40
0.0
 40
0.0
 40
0.0
 40
0.0
 40
0.0661971271
 40
0.1313766407
 40
0.1944936989
 40
0.2550888284
 40
0.3136474447
 40
0.3724213268
 40
0.4344520876
 40
0.5000018181
 40
0.5655514642
 40
0.6275823261
 40
0.6863554656
 40
0.7449133777
 40
0.8055079411
 40
0.868624547
 40
0.9338031835
 40
1.0
 40
1.0
 40
1.0
 40
1.0
 10
284.0
 20
162.7886765888
 30
0.0
 10
284.2655085993
 20
162.7886765888
 30
0.0
 10
284.7925638833
 20
162.7759401264
 30
0.0
 10
285.5705681906
 20
162.7115421405
 30
0.0
 10
286.3189520177
 20
162.5851496966
 30
0.0
 10
287.0201502312
 20
162.3668380805
 30
0.0
 10
287.64808241
 20
162.0107715905
 30
0.0
 10
288.1464955733
 20
161.4736534638
 30
0.0
 10
288.4509666768
 20
160.7772105599
 30
0.0
 10
288.5499528
 20
159.9999778992
 30
0.0
 10
288.4509535434
 20
159.2227471036
 30
0.0
 10
288.1464754061
 20
158.5263099457
 30
0.0
 10
287.6480537867
 20
157.9892067144
 30
0.0
 10
287.0201237976
 20
157.6331549085
 30
0.0
 10
286.3189326246
 20
157.4148451979
 30
0.0
 10
285.5705557285
 20
157.2884559037
 30
0.0
 10
284.7925577714
 20
157.2240628537
 30
0.0
 10
284.2655073533
 20
157.2113234112
 30
0.0
 10
284.0
 20
157.2113234112
 30
0.0
  0
SPLINE
  5
330
100
AcDbEntity
  8
1
100
AcDbSpline
 62
6
  6
CONTINUOUS
 70
0
 71
3
 72
16
 73
12
 74
0
 42
0.0000001
 43
0.0000001
 44
0.0000000001
 40
0.0
 40
0.0
 40
0.0
 40
0.0
 40
0.0876245227
 40
0.1300320185
 40
0.1735396047
 40
0.2692444072
 40
0.3829241096
 40
0.5162492306
 40
0.6668568054
 40
0.8301476613
 40
1.0
 40
1.0
 40
1.0
 40
1.0
 10
275.2117209966
 20
181.3663481219
 30
0.0
 10
275.1721050752
 20
181.4654063604
 30
0.0
 10
275.139955572
 20
181.6270497534
 30
0.0
 10
275.1743603466
 20
181.8371821164
 30
0.0
 10
275.2590590072
 20
182.0434416028
 30
0.0
 10
275.4651193911
 20
182.2820853676
 30
0.0
 10
275.8198916647
 20
182.508011485
 30
0.0
 10
276.2722202461
 20
182.6863964394
 30
0.0
 10
276.8026288799
 20
182.8149958517
 30
0.0
 10
277.3873514751
 20
182.8926412239
 30
0.0
 10
277.7931982004
 20
182.909855071
 30
0.0
 10
278.0
 20
182.909855071
 30
0.0
  0
SPLINE
  5
331
100
AcDbEntity
  8
1
100
AcDbSpline
 62
6
  6
CONTINUOUS
 70
0
 71
3
 72
13
 73
9
 74
0
 42
0.0000001
 43
0.0000001
 44
0.0000000001
 40
0.0
 40
0.0
 40
0.0
 40
0.0
 40
0.1250165873
 40
0.2500792796
 40
0.3752165037
 40
0.500392174
 40
0.7500877407
 40
1.0
 40
1.0
 40
1.0
 40
1.0
 10
208.8375
 20
126.3714685869
 30
0.0
 10
208.7794953176
 20
126.3714685869
 30
0.0
 10
208.6627104127
 20
126.3525168526
 30
0.0
 10
208.5049315702
 20
126.2740643975
 30
0.0
 10
208.3719695047
 20
126.1592041374
 30
0.0
 10
208.2304745612
 20
125.9737675442
 30
0.0
 10
208.1168610667
 20
125.7018669075
 30
0.0
 10
208.0875
 20
125.4691189921
 30
0.0
 10
208.0875
 20
125.353165729
 30
0.0
  0
SPLINE
  5
332
100
AcDbEntity
  8
1
100
AcDbSpline
 62
6
  6
CONTINUOUS
 70
0
 71
3
 72
13
 73
9
 74
0
 42
0.0000001
 43
0.0000001
 44
0.0000000001
 40
0.0
 40
0.0
 40
0.0
 40
0.0
 40
0.2499124013
 40
0.4996081064
 40
0.6247837403
 40
0.7499206743
 40
0.8749835866
 40
1.0
 40
1.0
 40
1.0
 40
1.0
 10
211.9125
 20
125.353165729
 30
0.0
 10
211.9125
 20
125.4691190567
 30
0.0
 10
211.8831388961
 20
125.7018670918
 30
0.0
 10
211.7695253141
 20
125.9737678471
 30
0.0
 10
211.6280303058
 20
126.1592042432
 30
0.0
 10
211.4950684059
 20
126.2740646559
 30
0.0
 10
211.3372894554
 20
126.3525166245
 30
0.0
 10
211.2205046011
 20
126.3714685869
 30
0.0
 10
211.1625
 20
126.3714685869
 30
0.0
  0
SPLINE
  5
333
100
AcDbEntity
  8
1
100
AcDbSpline
 62
6
  6
CONTINUOUS
 70
0
 71
3
 72
9
 73
5
 74
0
 42
0.0000001
 43
0.0000001
 44
0.0000000001
 40
0.0
 40
0.0
 40
0.0
 40
0.0
 40
0.5002524096
 40
1.0
 40
1.0
 40
1.0
 40
1.0
 10
141.5273502491
 20
174.89
 30
0.0
 10
141.5972019185
 20
174.9397973748
 30
0.0
 10
141.7469398486
 20
175.0263807652
 30
0.0
 10
141.9148203251
 20
175.0726898546
 30
0.0
 10
141.9999255153
 20
175.0827544425
 30
0.0
  0
SPLINE
  5
334
100
AcDbEntity
  8
1
100
AcDbSpline
 62
6
  6
CONTINUOUS
 70
0
 71
3
 72
8
 73
4
 74
0
 42
0.0000001
 43
0.0000001
 44
0.0000000001
 40
0.0
 40
0.0
 40
0.0
 40
0.0
 40
1.0
 40
1.0
 40
1.0
 40
1.0
 10
141.4108576719
 20
174.7991748964
 30
0.0
 10
141.4484532837
 20
174.8309708601
 30
0.0
 10
141.4872571425
 20
174.8614175555
 30
0.0
 10
141.5273502491
 20
174.89
 30
0.0
  0
SPLINE
  5
335
100
AcDbEntity
  8
1
100
AcDbSpline
 62
6
  6
CONTINUOUS
 70
0
 71
3
 72
27
 73
23
 74
0
 42
0.0000001
 43
0.0000001
 44
0.0000000001
 40
0.0
 40
0.0
 40
0.0
 40
0.0
 40
0.0623964649
 40
0.0937036139
 40
0.1250215593
 40
0.1876502527
 40
0.2502885719
 40
0.2815657005
 40
0.3127856268
 40
0.3750490606
 40
0.4372784138
 40
0.4997025555
 40
0.5623084566
 40
0.6250203296
 40
0.6878482078
 40
0.7193351903
 40
0.7508216851
 40
0.8136064122
 40
0.876014697
 40
0.90711917
 40
0.9381748987
 40
1.0
 40
1.0
 40
1.0
 40
1.0
 10
168.4007073552
 20
159.9999999788
 30
0.0
 10
168.4005329255
 20
160.4304449286
 30
0.0
 10
168.4647213315
 20
161.0791775184
 30
0.0
 10
168.6745453301
 20
161.9167472193
 30
0.0
 10
168.9662612129
 20
162.7314446175
 30
0.0
 10
169.4796676156
 20
163.6902966192
 30
0.0
 10
170.1712510168
 20
164.5294412186
 30
0.0
 10
170.8132321829
 20
165.1083780463
 30
0.0
 10
171.5066549804
 20
165.6201998944
 30
0.0
 10
172.4614815432
 20
166.1283637747
 30
0.0
 10
173.7032763882
 20
166.5042833197
 30
0.0
 10
174.996963862
 20
166.6329804083
 30
0.0
 10
176.2944111866
 20
166.5076019012
 30
0.0
 10
177.5450541327
 20
166.1308548407
 30
0.0
 10
178.507587686
 20
165.6173258497
 30
0.0
 10
179.2053349896
 20
165.0992135217
 30
0.0
 10
179.8482392945
 20
164.5148472589
 30
0.0
 10
180.536378995
 20
163.6715740998
 30
0.0
 10
181.0441588139
 20
162.7120668661
 30
0.0
 10
181.3310672898
 20
161.9007110527
 30
0.0
 10
181.5366725654
 20
161.0694836282
 30
0.0
 10
181.5994342749
 20
160.426503365
 30
0.0
 10
181.5993040561
 20
159.9999999785
 30
0.0
  0
SPLINE
  5
336
100
AcDbEntity
  8
1
100
AcDbSpline
 62
6
  6
CONTINUOUS
 70
0
 71
3
 72
17
 73
13
 74
0
 42
0.0000001
 43
0.0000001
 44
0.0000000001
 40
0.0
 40
0.0
 40
0.0
 40
0.0
 40
0.1493280667
 40
0.2881121534
 40
0.4139118677
 40
0.5260102938
 40
0.57849446
 40
0.6302375078
 40
0.6830463678
 40
0.738561139
 40
0.8610587699
 40
1.0
 40
1.0
 40
1.0
 40
1.0
 10
141.4108576719
 20
145.2008251036
 30
0.0
 10
141.3347294204
 20
145.1472083382
 30
0.0
 10
141.1830853359
 20
145.0501923351
 30
0.0
 10
140.9493816563
 20
144.9385220349
 30
0.0
 10
140.7216796919
 20
144.8750007283
 30
0.0
 10
140.5366245211
 20
144.8747141464
 30
0.0
 10
140.4071419493
 20
144.9161775615
 30
0.0
 10
140.3223356301
 20
144.9669250887
 30
0.0
 10
140.2504108348
 20
145.0373799802
 30
0.0
 10
140.1710314645
 20
145.1585820764
 30
0.0
 10
140.1114711936
 20
145.3505408429
 30
0.0
 10
140.1
 20
145.5139706271
 30
0.0
 10
140.1
 20
145.6006081374
 30
0.0
  0
SPLINE
  5
337
100
AcDbEntity
  8
1
100
AcDbSpline
 62
6
  6
CONTINUOUS
 70
0
 71
3
 72
8
 73
4
 74
0
 42
0.0000001
 43
0.0000001
 44
0.0000000001
 40
0.0
 40
0.0
 40
0.0
 40
0.0
 40
1.0
 40
1.0
 40
1.0
 40
1.0
 10
141.5273502491
 20
145.11
 30
0.0
 10
141.4872571425
 20
145.1385824445
 30
0.0
 10
141.4484532837
 20
145.1690291399
 30
0.0
 10
141.4108576719
 20
145.2008251036
 30
0.0
  0
SPLINE
  5
338
100
AcDbEntity
  8
1
100
AcDbSpline
 62
6
  6
CONTINUOUS
 70
0
 71
3
 72
9
 73
5
 74
0
 42
0.0000001
 43
0.0000001
 44
0.0000000001
 40
0.0
 40
0.0
 40
0.0
 40
0.0
 40
0.4997500132
 40
1.0
 40
1.0
 40
1.0
 40
1.0
 10
141.9999255153
 20
144.9172455575
 30
0.0
 10
141.914819908
 20
144.9273101948
 30
0.0
 10
141.7469393546
 20
144.9736191941
 30
0.0
 10
141.5972015839
 20
145.0602028637
 30
0.0
 10
141.5273502491
 20
145.11
 30
0.0
  0
SPLINE
  5
339
100
AcDbEntity
  8
1
100
AcDbSpline
 62
6
  6
CONTINUOUS
 70
0
 71
3
 72
27
 73
23
 74
0
 42
0.0000001
 43
0.0000001
 44
0.0000000001
 40
0.0
 40
0.0
 40
0.0
 40
0.0
 40
0.0617958656
 40
0.0928471332
 40
0.1239511223
 40
0.1863618391
 40
0.2491529042
 40
0.280640792
 40
0.3121279725
 40
0.3749576524
 40
0.4376543678
 40
0.500244109
 40
0.5626733426
 40
0.624910023
 40
0.6871747477
 40
0.718396146
 40
0.7496739606
 40
0.8123127291
 40
0.8749452752
 40
0.906265754
 40
0.9375780393
 40
1.0
 40
1.0
 40
1.0
 40
1.0
 10
181.5992907789
 20
160.0000000206
 30
0.0
 10
181.5994534603
 20
159.5736983278
 30
0.0
 10
181.5367159749
 20
158.9309528055
 30
0.0
 10
181.3312605715
 20
158.0999332671
 30
0.0
 10
181.0444417872
 20
157.2885634957
 30
0.0
 10
180.5367339776
 20
156.3289532027
 30
0.0
 10
179.8486264889
 20
155.4855604418
 30
0.0
 10
179.2057272468
 20
154.9011068816
 30
0.0
 10
178.5079984309
 20
154.3829303782
 30
0.0
 10
177.5455822795
 20
153.8693744436
 30
0.0
 10
176.2951750984
 20
153.4925698436
 30
0.0
 10
174.9979312195
 20
153.3670255968
 30
0.0
 10
173.704247764
 20
153.4955167505
 30
0.0
 10
172.4623069775
 20
153.8712888324
 30
0.0
 10
171.5073537137
 20
154.3793646662
 30
0.0
 10
170.813850022
 20
154.8911172596
 30
0.0
 10
170.171786706
 20
155.4699898624
 30
0.0
 10
169.4800809399
 20
156.3090784156
 30
0.0
 10
168.9665465708
 20
157.2679176318
 30
0.0
 10
168.674724405
 20
158.0826609296
 30
0.0
 10
168.4647584987
 20
158.920433286
 30
0.0
 10
168.4005540514
 20
159.5693791742
 30
0.0
 10
168.4006937377
 20
160.0000000222
 30
0.0
  0
SPLINE
  5
33A
100
AcDbEntity
  8
1
100
AcDbSpline
 62
6
  6
CONTINUOUS
 70
0
 71
3
 72
10
 73
6
 74
0
 42
0.0000001
 43
0.0000001
 44
0.0000000001
 40
0.0
 40
0.0
 40
0.0
 40
0.0
 40
0.248655593
 40
0.6227810278
 40
1.0
 40
1.0
 40
1.0
 40
1.0
 10
149.592946729
 20
174.89
 30
0.0
 10
149.6850420626
 20
174.7129894987
 30
0.0
 10
149.8933744164
 20
174.2577282723
 30
0.0
 10
150.1309945994
 20
173.4876005381
 30
0.0
 10
150.2
 20
172.8834325429
 30
0.0
 10
150.2
 20
172.5807309802
 30
0.0
  0
SPLINE
  5
33B
100
AcDbEntity
  8
1
100
AcDbSpline
 62
6
  6
CONTINUOUS
 70
0
 71
3
 72
10
 73
6
 74
0
 42
0.0000001
 43
0.0000001
 44
0.0000000001
 40
0.0
 40
0.0
 40
0.0
 40
0.0
 40
0.2521478311
 40
0.627040777
 40
1.0
 40
1.0
 40
1.0
 40
1.0
 10
150.2
 20
147.4192690198
 30
0.0
 10
150.2
 20
147.2169050549
 30
0.0
 10
150.1615682756
 20
146.7131684635
 30
0.0
 10
149.9685786744
 20
145.9296997863
 30
0.0
 10
149.7310988484
 20
145.375533279
 30
0.0
 10
149.592946729
 20
145.11
 30
0.0
  0
SPLINE
  5
33C
100
AcDbEntity
  8
1
100
AcDbSpline
 62
6
  6
CONTINUOUS
 70
0
 71
3
 72
12
 73
8
 74
0
 42
0.0000001
 43
0.0000001
 44
0.0000000001
 40
0.0
 40
0.0
 40
0.0
 40
0.0
 40
0.1312475159
 40
0.2608837127
 40
0.5122538744
 40
0.7575061754
 40
1.0
 40
1.0
 40
1.0
 40
1.0
 10
148.3
 20
175.8134098154
 30
0.0
 10
148.3733378249
 20
175.8217553922
 30
0.0
 10
148.5217380599
 20
175.8210344273
 30
0.0
 10
148.8036269732
 20
175.7510830022
 30
0.0
 10
149.1091441307
 20
175.5594970885
 30
0.0
 10
149.3872867832
 20
175.2466738314
 30
0.0
 10
149.5300033877
 20
175.0109793372
 30
0.0
 10
149.592946729
 20
174.89
 30
0.0
  0
SPLINE
  5
33D
100
AcDbEntity
  8
1
100
AcDbSpline
 62
6
  6
CONTINUOUS
 70
0
 71
3
 72
12
 73
8
 74
0
 42
0.0000001
 43
0.0000001
 44
0.0000000001
 40
0.0
 40
0.0
 40
0.0
 40
0.0
 40
0.2424982076
 40
0.4877558538
 40
0.7391384508
 40
0.8687641438
 40
1.0
 40
1.0
 40
1.0
 40
1.0
 10
149.592946729
 20
145.11
 30
0.0
 10
149.5300022682
 20
144.9890185111
 30
0.0
 10
149.3872828988
 20
144.753319424
 30
0.0
 10
149.1091297928
 20
144.4404879444
 30
0.0
 10
148.8036029993
 20
144.2489088078
 30
0.0
 10
148.5217187603
 20
144.1789626905
 30
0.0
 10
148.3733312886
 20
144.1782453516
 30
0.0
 10
148.3
 20
144.1865901846
 30
0.0
  0
SPLINE
  5
33E
100
AcDbEntity
  8
1
100
AcDbSpline
 62
6
  6
CONTINUOUS
 70
0
 71
3
 72
17
 73
13
 74
0
 42
0.0000001
 43
0.0000001
 44
0.0000000001
 40
0.0
 40
0.0
 40
0.0
 40
0.0
 40
0.1389412848
 40
0.261438998
 40
0.3169538191
 40
0.3697627229
 40
0.4215057719
 40
0.4739900026
 40
0.5860886021
 40
0.7118884743
 40
0.8506723845
 40
1.0
 40
1.0
 40
1.0
 40
1.0
 10
140.1
 20
174.3993918626
 30
0.0
 10
140.1
 20
174.486029407
 30
0.0
 10
140.1114711429
 20
174.6494593142
 30
0.0
 10
140.1710317049
 20
174.841418063
 30
0.0
 10
140.2504109614
 20
174.9626203857
 30
0.0
 10
140.3223360369
 20
175.0330750958
 30
0.0
 10
140.4071424195
 20
175.0838226013
 30
0.0
 10
140.5366251419
 20
175.1252860878
 30
0.0
 10
140.7216805871
 20
175.1249991297
 30
0.0
 10
140.9493825703
 20
175.0614776376
 30
0.0
 10
141.1830859241
 20
174.9498073245
 30
0.0
 10
141.3347296504
 20
174.8527914998
 30
0.0
 10
141.4108576719
 20
174.7991748964
 30
0.0
  0
ELLIPSE
  5
33F
100
AcDbEntity
  8
1
100
AcDbEllipse
 62
6
  6
CONTINUOUS
 10
137.37
 20
174.89
 30
0.0
 11
4.3319125763
 21
-4.3319125763
 31
0.0
 40
0.5187046472
 41
0.4784991097
 42
1.0736844408
  0
ELLIPSE
  5
340
100
AcDbEntity
  8
1
100
AcDbEllipse
 62
6
  6
CONTINUOUS
 10
137.37
 20
145.11
 30
0.0
 11
4.3319125763
 21
4.3319125763
 31
0.0
 40
0.5187046472
 41
-1.0736844408
 42
-0.4784991097
  0
ENDSEC
  0
SECTION
  2
OBJECTS
  0
DICTIONARY
  5
C
100
AcDbDictionary
280
0
281
1
  3
ACAD_GROUP
350
D
  3
ACAD_MLINESTYLE
350
17
  3
ACAD_LAYOUT
350
1A
  3
ACAD_PLOTSETTINGS
350
19
  3
ACAD_PLOTSTYLENAME
350
E
  0
DICTIONARY
  5
D
102
{ACAD_REACTORS
330
C
102
}
100
AcDbDictionary
280
0
281
1
  0
ACDBDICTIONARYWDFLT
  5
E
102
{ACAD_REACTORS
330
C
102
}
100
AcDbDictionary
281
1
  3
Normal
350
F
100
AcDbDictionaryWithDefault
340
F
  0
DICTIONARY
  5
17
102
{ACAD_REACTORS
330
C
102
}
100
AcDbDictionary
280
0
281
1
  3
Standard
350
18
  0
DICTIONARY
  5
19
102
{ACAD_REACTORS
330
C
102
}
100
AcDbDictionary
281
1
  0
DICTIONARY
  5
1A
102
{ACAD_REACTORS
330
C
102
}
100
AcDbDictionary
281
1
  3
Model
350
341
  3
Layout1
350
342
  0
ACDBPLACEHOLDER
  5
F
102
{ACAD_REACTORS
330
E
102
}
  0
MLINESTYLE
  5
18
102
{ACAD_REACTORS
330
17
102
}
100
AcDbMlineStyle
  2
STANDARD
 70
0
  3

 62
256
 51
90.0
 52
90.0
 71
2
 49
0.5
 62
256
  6
BYLAYER
 49
-0.5
 62
256
  6
BYLAYER
  0
LAYOUT
  5
341
102
{ACAD_REACTORS
330
1A
102
}
100
AcDbPlotSettings
  1

  2
none_device
  4
ISO_A3_(420.00_x_297.00_MM)
  6

 40
0.0
 41
0.0
 42
0.0
 43
0.0
 44
420.0
 45
297.0
 46
0.0
 47
0.0
 48
0.0
 49
0.0
140
0.0
141
0.0
142
1.0
143
1.0
 70
1024
 72
1
 73
0
 74
0
  7

 75
0
147
1.0
148
0.0
149
0.0
100
AcDbLayout
  1
Model
 70
0
 71
0
 10
0.0
 20
0.0
 11
420.0
 21
297.0
 12
0.0
 22
0.0
 32
0.0
 14
0.0
 24
0.0
 34
0.0
 15
0.0
 25
0.0
 35
0.0
146
0.0
 13
0.0
 23
0.0
 33
0.0
 16
1.0
 26
0.0
 36
0.0
 17
0.0
 27
1.0
 37
0.0
 76
0
330
239
345
0
346
0
  0
LAYOUT
  5
342
102
{ACAD_REACTORS
330
1A
102
}
100
AcDbPlotSettings
  1

  2
none_device
  4
ISO_A3_(420.00_x_297.00_MM)
  6

 40
0.0
 41
0.0
 42
0.0
 43
0.0
 44
420.0
 45
297.0
 46
0.0
 47
0.0
 48
0.0
 49
0.0
140
0.0
141
0.0
142
1.0
143
1.0
 70
0
 72
1
 73
0
 74
0
  7

 75
0
147
1.0
148
0.0
149
0.0
100
AcDbLayout
  1
Layout1
 70
0
 71
1
 10
0.0
 20
0.0
 11
420.0
 21
297.0
 12
0.0
 22
0.0
 32
0.0
 14
0.0
 24
0.0
 34
0.0
 15
0.0
 25
0.0
 35
0.0
146
0.0
 13
0.0
 23
0.0
 33
0.0
 16
1.0
 26
0.0
 36
0.0
 17
0.0
 27
1.0
 37
0.0
 76
0
330
23A
345
0
346
0
  0
ENDSEC
  0
EOF
