999
DXF file: 200_a100-020-25-3-bmg.dxf
999
Pro/ENGINEER 2010430 by Parametric Technology Corporation
  0
SECTION
  2
HEADER
  9
$ACADVER
  1
AC1021
  9
$DWGCODEPAGE
  3
ANSI_1252
  9
$EXTMAX
 10
420.0
 20
297.0
 30
0.0
  9
$EXTMIN
 10
0.0
 20
0.0
 30
0.0
  9
$LIMMIN
 10
0.0
 20
0.0
  9
$LIMMAX
 10
420.0
 20
297.0
  9
$VIEWCTR
 10
210.0
 20
148.5
  9
$VIEWSIZE
 40
297.0
  9
$CLAYER
  8
0
  9
$LTSCALE
 40
23.1
  9
$CELTYPE
  6
BYLAYER
  9
$DIMSCALE
 40
1.0
  9
$DIMASZ
 40
3.5
  9
$DIMEXO
 40
2.625
  9
$DIMDLI
 40
15.96
  9
$DIMEXE
 40
7.56
  9
$DIMCEN
 40
3.78
  9
$DIMLFAC
 40
1.0
  9
$DIMBLK
  1
_FILLED
  9
$DIMTXT
 40
3.5
  9
$DIMTOL
 70
0
  9
$DIMLIM
 70
0
  9
$DIMTFAC
 40
1.0
  9
$PDMODE
 70
3
  9
$PDSIZE
 40
0.3125
  9
$HANDSEED
  5
340
  9
$TILEMODE
 70
1
  9
$MEASUREMENT
 70
1
  9
$INSUNITS
 70
4
  0
ENDSEC
  0
SECTION
  2
CLASSES
  0
CLASS
  1
ACDBDICTIONARYWDFLT
  2
AcDbDictionaryWithDefault
  3
AutoCAD 2000
 90
0
 91
1
280
0
281
0
  0
CLASS
  1
ACDBPLACEHOLDER
  2
AcDbPlaceHolder
  3
AutoCAD 2000
 90
0
 91
1
280
0
281
0
  0
CLASS
  1
LAYOUT
  2
AcDbLayout
  3
AutoCAD 2000
 90
0
 91
0
280
0
281
0
  0
ENDSEC
  0
SECTION
  2
TABLES
  0
TABLE
  2
VPORT
  5
8
100
AcDbSymbolTable
 70
2
  0
VPORT
  5
1F4
100
AcDbSymbolTableRecord
100
AcDbViewportTableRecord
  2
*ACTIVE
 70
0
 10
0.0
 20
0.0
 11
1.0
 21
1.0
 12
210.0
 22
148.5
 13
0.0
 23
0.0
 14
1.0
 24
1.0
 15
0.0
 25
0.0
 16
0.0
 26
0.0
 36
1.0
 17
0.0
 27
0.0
 37
0.0
 40
297.0
 41
1.4141414141
 42
50.0
 43
0.0
 44
0.0
 50
0.0
 51
0.0
 71
0
 72
100
 73
1
 74
1
 75
0
 76
0
 77
0
 78
0
  0
ENDTAB
  0
TABLE
  2
LTYPE
  5
5
100
AcDbSymbolTable
 70
6
  0
LTYPE
  5
14
100
AcDbSymbolTableRecord
100
AcDbLinetypeTableRecord
  2
BYBLOCK
 70
0
  3

 72
65
 73
0
 40
0.0
  0
LTYPE
  5
15
100
AcDbSymbolTableRecord
100
AcDbLinetypeTableRecord
  2
BYLAYER
 70
0
  3

 72
65
 73
0
 40
0.0
  0
LTYPE
  5
16
100
AcDbSymbolTableRecord
100
AcDbLinetypeTableRecord
  2
CONTINUOUS
 70
64
  3
Solid line
 72
65
 73
0
 40
0.0
  0
LTYPE
  5
1F5
100
AcDbSymbolTableRecord
100
AcDbLinetypeTableRecord
  2
CENTER
 70
64
  3
____ _ ____ _ ____ _ ____ _ ____ _ ____ _ ____
 72
65
 73
4
 40
0.6
 49
0.375
 74
0
 49
-0.075
 74
0
 49
0.075
 74
0
 49
-0.075
 74
0
  0
LTYPE
  5
1F6
100
AcDbSymbolTableRecord
100
AcDbLinetypeTableRecord
  2
HIDDEN
 70
64
  3
- - - - - - - - - - - - - - - - - - - -
 72
65
 73
2
 40
0.2
 49
0.1
 74
0
 49
-0.1
 74
0
  0
LTYPE
  5
1F7
100
AcDbSymbolTableRecord
100
AcDbLinetypeTableRecord
  2
PHANTOM
 70
64
  3
_____ _ _ _____ _ _ _____ _ _ _____
 72
65
 73
6
 40
0.8
 49
0.45
 74
0
 49
-0.05
 74
0
 49
0.1
 74
0
 49
-0.05
 74
0
 49
0.1
 74
0
 49
-0.05
 74
0
  0
LTYPE
  5
1F8
100
AcDbSymbolTableRecord
100
AcDbLinetypeTableRecord
  2
DOT
 70
64
  3
. . . . . . . . . . . . . . . . . . . .
 72
65
 73
2
 40
0.2
 49
0.1
 74
0
 49
-0.1
 74
0
  0
LTYPE
  5
1F9
100
AcDbSymbolTableRecord
100
AcDbLinetypeTableRecord
  2
DASHED
 70
64
  3
- - - - - - - - - - - - - - - - - - - -
 72
65
 73
2
 40
0.2
 49
0.1
 74
0
 49
-0.1
 74
0
  0
ENDTAB
  0
TABLE
  2
LAYER
  5
2
100
AcDbSymbolTable
 70
36
  0
LAYER
  5
10
100
AcDbSymbolTableRecord
100
AcDbLayerTableRecord
  2
0
 70
0
 62
7
  6
CONTINUOUS
370
-3
390
F
  0
LAYER
  5
1FA
100
AcDbSymbolTableRecord
100
AcDbLayerTableRecord
  2
DEFAULT_1
 70
0
 62
7
  6
CENTER
370
-3
390
F
  0
LAYER
  5
1FB
100
AcDbSymbolTableRecord
100
AcDbLayerTableRecord
  2
DEFAULT_2
 70
0
 62
8
  6
HIDDEN
370
-3
390
F
  0
LAYER
  5
1FC
100
AcDbSymbolTableRecord
100
AcDbLayerTableRecord
  2
DEFAULT_3
 70
0
 62
7
  6
PHANTOM
370
-3
390
F
  0
LAYER
  5
1FD
100
AcDbSymbolTableRecord
100
AcDbLayerTableRecord
  2
1
 70
0
 62
7
  6
CONTINUOUS
370
-3
390
F
  0
LAYER
  5
1FE
100
AcDbSymbolTableRecord
100
AcDbLayerTableRecord
  2
2
 70
0
 62
7
  6
CONTINUOUS
370
-3
390
F
  0
LAYER
  5
1FF
100
AcDbSymbolTableRecord
100
AcDbLayerTableRecord
  2
4
 70
0
 62
7
  6
CONTINUOUS
370
-3
390
F
  0
LAYER
  5
200
100
AcDbSymbolTableRecord
100
AcDbLayerTableRecord
  2
5
 70
0
 62
7
  6
CONTINUOUS
370
-3
390
F
  0
LAYER
  5
201
100
AcDbSymbolTableRecord
100
AcDbLayerTableRecord
  2
6
 70
0
 62
7
  6
CONTINUOUS
370
-3
390
F
  0
LAYER
  5
202
100
AcDbSymbolTableRecord
100
AcDbLayerTableRecord
  2
ACHSEN
 70
0
 62
7
  6
CONTINUOUS
370
-3
390
F
  0
LAYER
  5
203
100
AcDbSymbolTableRecord
100
AcDbLayerTableRecord
  2
ANALYSEN
 70
0
 62
7
  6
CONTINUOUS
370
-3
390
F
  0
LAYER
  5
204
100
AcDbSymbolTableRecord
100
AcDbLayerTableRecord
  2
AUFMASS_EINFUEHRFASE
 70
0
 62
7
  6
CONTINUOUS
370
-3
390
F
  0
LAYER
  5
205
100
AcDbSymbolTableRecord
100
AcDbLayerTableRecord
  2
AUFMASS_WEICHBEARBEITUNG
 70
0
 62
7
  6
CONTINUOUS
370
-3
390
F
  0
LAYER
  5
206
100
AcDbSymbolTableRecord
100
AcDbLayerTableRecord
  2
AUFMASS_WEICHBEARBEITUNG_FERTIG
 70
0
 62
7
  6
CONTINUOUS
370
-3
390
F
  0
LAYER
  5
207
100
AcDbSymbolTableRecord
100
AcDbLayerTableRecord
  2
AUFMASS_WEICHBE_INNENKONTUR
 70
0
 62
7
  6
CONTINUOUS
370
-3
390
F
  0
LAYER
  5
208
100
AcDbSymbolTableRecord
100
AcDbLayerTableRecord
  2
AUSFORMSCHRAEGEN
 70
0
 62
7
  6
CONTINUOUS
370
-3
390
F
  0
LAYER
  5
209
100
AcDbSymbolTableRecord
100
AcDbLayerTableRecord
  2
AUSSENKONTUR
 70
0
 62
7
  6
CONTINUOUS
370
-3
390
F
  0
LAYER
  5
20A
100
AcDbSymbolTableRecord
100
AcDbLayerTableRecord
  2
BEZUG
 70
0
 62
7
  6
CONTINUOUS
370
-3
390
F
  0
LAYER
  5
20B
100
AcDbSymbolTableRecord
100
AcDbLayerTableRecord
  2
BEZUGSACHSEN
 70
0
 62
7
  6
CONTINUOUS
370
-3
390
F
  0
LAYER
  5
20C
100
AcDbSymbolTableRecord
100
AcDbLayerTableRecord
  2
BEZUGSACHSENKENNZEICHEN
 70
0
 62
7
  6
CONTINUOUS
370
-3
390
F
  0
LAYER
  5
20D
100
AcDbSymbolTableRecord
100
AcDbLayerTableRecord
  2
BEZUGSEBENEN
 70
0
 62
7
  6
CONTINUOUS
370
-3
390
F
  0
LAYER
  5
20E
100
AcDbSymbolTableRecord
100
AcDbLayerTableRecord
  2
BEZUGSEBENE_B
 70
0
 62
7
  6
CONTINUOUS
370
-3
390
F
  0
LAYER
  5
20F
100
AcDbSymbolTableRecord
100
AcDbLayerTableRecord
  2
BEZUGSPUNKTE
 70
0
 62
7
  6
CONTINUOUS
370
-3
390
F
  0
LAYER
  5
210
100
AcDbSymbolTableRecord
100
AcDbLayerTableRecord
  2
BG_STARTBEZUEGE
 70
0
 62
7
  6
CONTINUOUS
370
-3
390
F
  0
LAYER
  5
211
100
AcDbSymbolTableRecord
100
AcDbLayerTableRecord
  2
BOHRUNGEN
 70
0
 62
7
  6
CONTINUOUS
370
-3
390
F
  0
LAYER
  5
212
100
AcDbSymbolTableRecord
100
AcDbLayerTableRecord
  2
EBENEN
 70
0
 62
7
  6
CONTINUOUS
370
-3
390
F
  0
LAYER
  5
213
100
AcDbSymbolTableRecord
100
AcDbLayerTableRecord
  2
FASEN
 70
0
 62
7
  6
CONTINUOUS
370
-3
390
F
  0
LAYER
  5
214
100
AcDbSymbolTableRecord
100
AcDbLayerTableRecord
  2
FLAECHEN
 70
0
 62
7
  6
CONTINUOUS
370
-3
390
F
  0
LAYER
  5
215
100
AcDbSymbolTableRecord
100
AcDbLayerTableRecord
  2
FORM_LAGE_TOLERANZEN
 70
0
 62
7
  6
CONTINUOUS
370
-3
390
F
  0
LAYER
  5
216
100
AcDbSymbolTableRecord
100
AcDbLayerTableRecord
  2
GEOMTOL
 70
0
 62
7
  6
CONTINUOUS
370
-3
390
F
  0
LAYER
  5
217
100
AcDbSymbolTableRecord
100
AcDbLayerTableRecord
  2
GEWINDE
 70
0
 62
7
  6
CONTINUOUS
370
-3
390
F
  0
LAYER
  5
218
100
AcDbSymbolTableRecord
100
AcDbLayerTableRecord
  2
HILFEN
 70
0
 62
7
  6
CONTINUOUS
370
-3
390
F
  0
LAYER
  5
219
100
AcDbSymbolTableRecord
100
AcDbLayerTableRecord
  2
INNENKONTUR
 70
0
 62
7
  6
CONTINUOUS
370
-3
390
F
  0
LAYER
  5
21A
100
AcDbSymbolTableRecord
100
AcDbLayerTableRecord
  2
KOORDINATENSYSTEME
 70
0
 62
7
  6
CONTINUOUS
370
-3
390
F
  0
LAYER
  5
21B
100
AcDbSymbolTableRecord
100
AcDbLayerTableRecord
  2
KOORDSYS
 70
0
 62
7
  6
CONTINUOUS
370
-3
390
F
  0
LAYER
  5
21C
100
AcDbSymbolTableRecord
100
AcDbLayerTableRecord
  2
KURVEN
 70
0
 62
7
  6
CONTINUOUS
370
-3
390
F
  0
LAYER
  5
21D
100
AcDbSymbolTableRecord
100
AcDbLayerTableRecord
  2
KURVE_FUER_GTOL_DETAILANSICHT
 70
0
 62
7
  6
CONTINUOUS
370
-3
390
F
  0
LAYER
  5
21E
100
AcDbSymbolTableRecord
100
AcDbLayerTableRecord
  2
KURVE_GAUGE2_POLIGON_INNENEINST
 70
0
 62
7
  6
CONTINUOUS
370
-3
390
F
  0
LAYER
  5
21F
100
AcDbSymbolTableRecord
100
AcDbLayerTableRecord
  2
KURVE_PHANTOM1_GAUGE_PIN_1
 70
0
 62
7
  6
CONTINUOUS
370
-3
390
F
  0
LAYER
  5
220
100
AcDbSymbolTableRecord
100
AcDbLayerTableRecord
  2
KURVE_PHANTOM2_GAUGE_PIN1
 70
0
 62
7
  6
CONTINUOUS
370
-3
390
F
  0
LAYER
  5
221
100
AcDbSymbolTableRecord
100
AcDbLayerTableRecord
  2
KURVE_POLIGON_BEMASUNG
 70
0
 62
7
  6
CONTINUOUS
370
-3
390
F
  0
LAYER
  5
222
100
AcDbSymbolTableRecord
100
AcDbLayerTableRecord
  2
NOCUT
 70
0
 62
7
  6
CONTINUOUS
370
-3
390
F
  0
LAYER
  5
223
100
AcDbSymbolTableRecord
100
AcDbLayerTableRecord
  2
PLATZIERUNG
 70
0
 62
7
  6
CONTINUOUS
370
-3
390
F
  0
LAYER
  5
224
100
AcDbSymbolTableRecord
100
AcDbLayerTableRecord
  2
PUNKTE
 70
0
 62
7
  6
CONTINUOUS
370
-3
390
F
  0
LAYER
  5
225
100
AcDbSymbolTableRecord
100
AcDbLayerTableRecord
  2
RUNDUNGEN
 70
0
 62
7
  6
CONTINUOUS
370
-3
390
F
  0
LAYER
  5
226
100
AcDbSymbolTableRecord
100
AcDbLayerTableRecord
  2
SK1
 70
0
 62
7
  6
CONTINUOUS
370
-3
390
F
  0
LAYER
  5
227
100
AcDbSymbolTableRecord
100
AcDbLayerTableRecord
  2
SK2
 70
0
 62
7
  6
CONTINUOUS
370
-3
390
F
  0
LAYER
  5
228
100
AcDbSymbolTableRecord
100
AcDbLayerTableRecord
  2
SK4
 70
0
 62
7
  6
CONTINUOUS
370
-3
390
F
  0
LAYER
  5
229
100
AcDbSymbolTableRecord
100
AcDbLayerTableRecord
  2
SKELETTE
 70
0
 62
7
  6
CONTINUOUS
370
-3
390
F
  0
LAYER
  5
22A
100
AcDbSymbolTableRecord
100
AcDbLayerTableRecord
  2
S_ACHSEN
 70
0
 62
7
  6
CONTINUOUS
370
-3
390
F
  0
LAYER
  5
22B
100
AcDbSymbolTableRecord
100
AcDbLayerTableRecord
  2
S_EBENEN
 70
0
 62
7
  6
CONTINUOUS
370
-3
390
F
  0
LAYER
  5
22C
100
AcDbSymbolTableRecord
100
AcDbLayerTableRecord
  2
S_KOORDSYS
 70
0
 62
7
  6
CONTINUOUS
370
-3
390
F
  0
LAYER
  5
22D
100
AcDbSymbolTableRecord
100
AcDbLayerTableRecord
  2
TEIL_STARTBEZUEGE
 70
0
 62
7
  6
CONTINUOUS
370
-3
390
F
  0
LAYER
  5
22E
100
AcDbSymbolTableRecord
100
AcDbLayerTableRecord
  2
TOL_BEZUEGE
 70
0
 62
7
  6
CONTINUOUS
370
-3
390
F
  0
LAYER
  5
22F
100
AcDbSymbolTableRecord
100
AcDbLayerTableRecord
  2
VERBFLAECHE
 70
0
 62
7
  6
CONTINUOUS
370
-3
390
F
  0
LAYER
  5
230
100
AcDbSymbolTableRecord
100
AcDbLayerTableRecord
  2
VERERBUNG
 70
0
 62
7
  6
CONTINUOUS
370
-3
390
F
  0
LAYER
  5
231
100
AcDbSymbolTableRecord
100
AcDbLayerTableRecord
  2
VERPACKUNG
 70
0
 62
7
  6
CONTINUOUS
370
-3
390
F
  0
LAYER
  5
232
100
AcDbSymbolTableRecord
100
AcDbLayerTableRecord
  2
VOLGEOM
 70
0
 62
7
  6
CONTINUOUS
370
-3
390
F
  0
LAYER
  5
233
100
AcDbSymbolTableRecord
100
AcDbLayerTableRecord
  2
VOLUMEN
 70
0
 62
7
  6
CONTINUOUS
370
-3
390
F
  0
LAYER
  5
234
100
AcDbSymbolTableRecord
100
AcDbLayerTableRecord
  2
XSEC_DATUMS
 70
0
 62
7
  6
CONTINUOUS
370
-3
390
F
  0
LAYER
  5
235
100
AcDbSymbolTableRecord
100
AcDbLayerTableRecord
  2
ZEICHNUNG
 70
0
 62
7
  6
CONTINUOUS
370
-3
390
F
  0
ENDTAB
  0
TABLE
  2
STYLE
  5
3
100
AcDbSymbolTable
 70
1
  0
STYLE
  5
11
100
AcDbSymbolTableRecord
100
AcDbTextStyleTableRecord
  2
STANDARD
 70
0
 40
0.0
 41
0.7
 50
0.0
 71
0
 42
0.2
  3
txt
  4

  0
STYLE
  5
236
100
AcDbSymbolTableRecord
100
AcDbTextStyleTableRecord
  2
TEXTSTYLE_1
 70
0
 40
0.0
 41
0.8
 50
0.0
 71
0
 42
0.2
  3
gdt
  4

  0
STYLE
  5
237
100
AcDbSymbolTableRecord
100
AcDbTextStyleTableRecord
  2
TEXTSTYLE_2
 70
0
 40
0.0
 41
0.7
 50
0.0
 71
0
 42
0.2
  3
gdt
  4

  0
ENDTAB
  0
TABLE
  2
VIEW
  5
6
100
AcDbSymbolTable
 70
0
  0
ENDTAB
  0
TABLE
  2
UCS
  5
7
100
AcDbSymbolTable
 70
0
  0
ENDTAB
  0
TABLE
  2
APPID
  5
9
100
AcDbSymbolTable
 70
1
  0
APPID
  5
238
100
AcDbSymbolTableRecord
100
AcDbRegAppTableRecord
  2
ACAD
 70
0
  0
ENDTAB
  0
TABLE
  2
BLOCK_RECORD
  5
1
100
AcDbSymbolTable
 70
0
  0
BLOCK_RECORD
  5
239
100
AcDbSymbolTableRecord
100
AcDbBlockTableRecord
  2
*Model_Space
  0
BLOCK_RECORD
  5
23A
100
AcDbSymbolTableRecord
100
AcDbBlockTableRecord
  2
*Paper_Space
  0
BLOCK_RECORD
  5
23B
100
AcDbSymbolTableRecord
100
AcDbBlockTableRecord
  2
_FILLED
  0
BLOCK_RECORD
  5
23C
100
AcDbSymbolTableRecord
100
AcDbBlockTableRecord
  2
*D0
  0
BLOCK_RECORD
  5
23D
100
AcDbSymbolTableRecord
100
AcDbBlockTableRecord
  2
*D1
  0
BLOCK_RECORD
  5
23E
100
AcDbSymbolTableRecord
100
AcDbBlockTableRecord
  2
*D2
  0
BLOCK_RECORD
  5
23F
100
AcDbSymbolTableRecord
100
AcDbBlockTableRecord
  2
*D3
  0
BLOCK_RECORD
  5
240
100
AcDbSymbolTableRecord
100
AcDbBlockTableRecord
  2
*D4
  0
BLOCK_RECORD
  5
241
100
AcDbSymbolTableRecord
100
AcDbBlockTableRecord
  2
*D5
  0
BLOCK_RECORD
  5
242
100
AcDbSymbolTableRecord
100
AcDbBlockTableRecord
  2
*D6
  0
ENDTAB
  0
TABLE
  2
DIMSTYLE
  5
A
100
AcDbSymbolTable
 70
1
100
AcDbDimStyleTable
 71
0
  0
DIMSTYLE
105
243
100
AcDbSymbolTableRecord
100
AcDbDimStyleTableRecord
  2
STANDARD
 70
0
  3

  4

 40
1.0
 41
3.5
 42
0.0625
 43
0.38
 44
0.18
 45
0.0
 46
0.0
 47
0.005
 48
0.005
140
3.5
141
0.09
142
0.0
143
25.4
144
1.0
145
0.0
146
1.0
147
0.09
 71
0.0
 72
0.0
 73
0
 74
0
 75
0
 76
0
 77
1
 78
8
170
0
171
2
172
0
173
0
174
0
175
0
176
0
177
0
178
5
270
2
271
3
272
3
273
2
274
2
275
0
280
0
281
0
282
0
283
1
284
8
285
0
286
0
287
3
288
0
340
11
341
23B
342
23B
343
23B
344
23B
  0
DIMSTYLE
105
244
100
AcDbSymbolTableRecord
100
AcDbDimStyleTableRecord
  2
DIMSTYLE_1
 70
0
  3

  4

 40
1.0
 41
3.5
 42
0.0625
 43
0.38
 44
0.18
 45
0.0
 46
0.0
 47
0.0
 48
0.0
140
3.5
141
0.09
142
0.0
143
25.4
144
1.0
145
0.0
146
1.0
147
0.09
 71
0.0
 72
0.0
 73
0
 74
0
 75
0
 76
0
 77
1
 78
8
170
0
171
2
172
0
173
0
174
0
175
0
176
0
177
0
178
5
270
2
271
3
272
3
273
2
274
2
275
0
280
0
281
0
282
0
283
1
284
8
285
0
286
0
287
3
288
0
340
11
341
23B
342
23B
343
23B
344
23B
  0
DIMSTYLE
105
245
100
AcDbSymbolTableRecord
100
AcDbDimStyleTableRecord
  2
DIMSTYLE_2
 70
0
  3

  4

 40
1.0
 41
3.5
 42
0.0625
 43
0.38
 44
0.18
 45
0.0
 46
0.0
 47
0.0
 48
0.0
140
3.5
141
0.09
142
0.0
143
25.4
144
1.0
145
0.0
146
1.0
147
0.09
 71
0.0
 72
0.0
 73
0
 74
0
 75
0
 76
0
 77
1
 78
8
170
0
171
2
172
0
173
0
174
0
175
0
176
0
177
0
178
5
270
2
271
2
272
2
273
2
274
2
275
0
280
0
281
0
282
0
283
1
284
8
285
0
286
0
287
3
288
0
340
11
341
23B
342
23B
343
23B
344
23B
  0
ENDTAB
  0
ENDSEC
  0
SECTION
  2
BLOCKS
  0
BLOCK
  5
20
100
AcDbEntity
  8
0
100
AcDbBlockBegin
  2
*Model_Space
 70
0
 10
0.0
 20
0.0
 30
0.0
  3
*Model_Space
  1

  0
ENDBLK
  5
21
100
AcDbEntity
  8
0
100
AcDbBlockEnd
  0
BLOCK
  5
1C
100
AcDbEntity
  8
0
100
AcDbBlockBegin
  2
*Paper_Space
 70
0
 10
0.0
 20
0.0
 30
0.0
  3
*Paper_Space
  1

  0
ENDBLK
  5
1D
100
AcDbEntity
  8
0
100
AcDbBlockEnd
  0
BLOCK
  5
246
100
AcDbEntity
  8
0
100
AcDbBlockBegin
  2
_FILLED
 70
64
 10
0.0
 20
0.0
  3
_FILLED
  1

  0
SOLID
  5
247
100
AcDbEntity
  8
0
  6
BYBLOCK
 62
0
100
AcDbTrace
 10
0.0
 20
0.0
 11
-1.0
 21
0.125
 12
-1.0
 22
-0.125
 13
-1.0
 23
-0.125
  0
ENDBLK
  5
248
100
AcDbEntity
  8
0
  6
BYBLOCK
 62
0
100
AcDbBlockEnd
  0
BLOCK
  5
249
100
AcDbEntity
  8
0
100
AcDbBlockBegin
 62
2
  6
CONTINUOUS
  2
*D0
 70
65
 10
0.0
 20
0.0
  3
*D0
  1

  0
MTEXT
  5
24A
100
AcDbEntity
  8
0
100
AcDbMText
 62
5
  6
CONTINUOUS
  7
TEXTSTYLE_2
 71
2
 72
1
 10
320.145
 20
160.0
 30
0.0
 11
0.0
 21
1.0
 31
0.0
 44
0.9
  1
{\Fgdt;n}\Ftxt;82.95
 40
3.5
 41
17.4166666667
  0
LINE
  5
24B
100
AcDbEntity
  8
0
100
AcDbLine
 62
2
  6
CONTINUOUS
 10
218.95
 20
201.475
 11
326.02
 21
201.475
  0
LINE
  5
24C
100
AcDbEntity
  8
0
100
AcDbLine
 62
2
  6
CONTINUOUS
 10
218.95
 20
118.525
 11
326.02
 21
118.525
  0
LINE
  5
24D
100
AcDbEntity
  8
0
100
AcDbLine
 62
2
  6
CONTINUOUS
 10
324.52
 20
201.475
 11
324.52
 21
160.0
  0
LINE
  5
24E
100
AcDbEntity
  8
0
100
AcDbLine
 62
2
  6
CONTINUOUS
 10
324.52
 20
118.525
 11
324.52
 21
160.0
  0
INSERT
  5
24F
100
AcDbEntity
  8
0
100
AcDbBlockReference
 62
2
  6
CONTINUOUS
  2
_FILLED
 10
324.52
 20
201.475
 41
3.5
 42
3.5
 43
3.5
 50
90.0
  0
INSERT
  5
250
100
AcDbEntity
  8
0
100
AcDbBlockReference
 62
2
  6
CONTINUOUS
  2
_FILLED
 10
324.52
 20
118.525
 41
3.5
 42
3.5
 43
3.5
 50
270.0
  0
ENDBLK
  5
251
100
AcDbEntity
  8
0
  6
BYBLOCK
 62
0
100
AcDbBlockEnd
  0
BLOCK
  5
252
100
AcDbEntity
  8
2
100
AcDbBlockBegin
 62
2
  6
CONTINUOUS
  2
*D1
 70
65
 10
0.0
 20
0.0
  3
*D1
  1

  0
MTEXT
  5
253
100
AcDbEntity
  8
2
100
AcDbMText
 62
5
  6
CONTINUOUS
  7
STANDARD
 71
2
 72
1
 10
236.19
 20
235.375
 30
0.0
 11
1.0
 21
0.0
 31
0.0
 44
0.9
  1
92.38
 40
3.5
 41
12.75
  0
LINE
  5
254
100
AcDbEntity
  8
2
100
AcDbLine
 62
2
  6
CONTINUOUS
 10
190.0
 20
210.0
 11
190.0
 21
232.5
  0
LINE
  5
255
100
AcDbEntity
  8
2
100
AcDbLine
 62
2
  6
CONTINUOUS
 10
282.38
 20
183.0
 11
282.38
 21
232.5
  0
LINE
  5
256
100
AcDbEntity
  8
2
100
AcDbLine
 62
2
  6
CONTINUOUS
 10
190.0
 20
231.0
 11
236.19
 21
231.0
  0
LINE
  5
257
100
AcDbEntity
  8
2
100
AcDbLine
 62
2
  6
CONTINUOUS
 10
282.38
 20
231.0
 11
236.19
 21
231.0
  0
INSERT
  5
258
100
AcDbEntity
  8
2
100
AcDbBlockReference
 62
2
  6
CONTINUOUS
  2
_FILLED
 10
190.0
 20
231.0
 41
3.5
 42
3.5
 43
3.5
 50
180.0
  0
INSERT
  5
259
100
AcDbEntity
  8
2
100
AcDbBlockReference
 62
2
  6
CONTINUOUS
  2
_FILLED
 10
282.38
 20
231.0
 41
3.5
 42
3.5
 43
3.5
  0
ENDBLK
  5
25A
100
AcDbEntity
  8
0
  6
BYBLOCK
 62
0
100
AcDbBlockEnd
  0
BLOCK
  5
25B
100
AcDbEntity
  8
SK2
100
AcDbBlockBegin
 62
2
  6
CONTINUOUS
  2
*D2
 70
65
 10
0.0
 20
0.0
  3
*D2
  1

  0
MTEXT
  5
25C
100
AcDbEntity
  8
SK2
100
AcDbMText
 62
5
  6
CONTINUOUS
  7
STANDARD
 71
2
 72
1
 10
211.19
 20
255.375
 30
0.0
 11
1.0
 21
0.0
 31
0.0
 44
0.9
  1
142.38
 40
3.5
 41
14.75
  0
LINE
  5
25D
100
AcDbEntity
  8
SK2
100
AcDbLine
 62
2
  6
CONTINUOUS
 10
140.0
 20
160.0
 11
140.0
 21
252.5
  0
LINE
  5
25E
100
AcDbEntity
  8
SK2
100
AcDbLine
 62
2
  6
CONTINUOUS
 10
282.38
 20
160.0
 11
282.38
 21
238.0
  0
LINE
  5
25F
100
AcDbEntity
  8
SK2
100
AcDbLine
 62
2
  6
CONTINUOUS
 10
282.38
 20
244.0
 11
282.38
 21
252.5
  0
LINE
  5
260
100
AcDbEntity
  8
SK2
100
AcDbLine
 62
2
  6
CONTINUOUS
 10
140.0
 20
251.0
 11
211.19
 21
251.0
  0
LINE
  5
261
100
AcDbEntity
  8
SK2
100
AcDbLine
 62
2
  6
CONTINUOUS
 10
282.38
 20
251.0
 11
211.19
 21
251.0
  0
INSERT
  5
262
100
AcDbEntity
  8
SK2
100
AcDbBlockReference
 62
2
  6
CONTINUOUS
  2
_FILLED
 10
140.0
 20
251.0
 41
3.5
 42
3.5
 43
3.5
 50
180.0
  0
INSERT
  5
263
100
AcDbEntity
  8
SK2
100
AcDbBlockReference
 62
2
  6
CONTINUOUS
  2
_FILLED
 10
282.38
 20
251.0
 41
3.5
 42
3.5
 43
3.5
  0
ENDBLK
  5
264
100
AcDbEntity
  8
0
  6
BYBLOCK
 62
0
100
AcDbBlockEnd
  0
BLOCK
  5
265
100
AcDbEntity
  8
SK2
100
AcDbBlockBegin
 62
2
  6
CONTINUOUS
  2
*D3
 70
65
 10
0.0
 20
0.0
  3
*D3
  1

  0
MTEXT
  5
266
100
AcDbEntity
  8
SK2
100
AcDbMText
 62
5
  6
CONTINUOUS
  7
STANDARD
 71
2
 72
1
 10
250.69
 20
225.375
 30
0.0
 11
1.0
 21
0.0
 31
0.0
 44
0.9
  1
63.38
 40
3.5
 41
12.5
  0
LINE
  5
267
100
AcDbEntity
  8
SK2
100
AcDbLine
 62
2
  6
CONTINUOUS
 10
219.0
 20
210.0
 11
219.0
 21
222.5
  0
LINE
  5
268
100
AcDbEntity
  8
SK2
100
AcDbLine
 62
2
  6
CONTINUOUS
 10
282.38
 20
160.0
 11
282.38
 21
222.5
  0
LINE
  5
269
100
AcDbEntity
  8
SK2
100
AcDbLine
 62
2
  6
CONTINUOUS
 10
219.0
 20
221.0
 11
250.69
 21
221.0
  0
LINE
  5
26A
100
AcDbEntity
  8
SK2
100
AcDbLine
 62
2
  6
CONTINUOUS
 10
282.38
 20
221.0
 11
250.69
 21
221.0
  0
INSERT
  5
26B
100
AcDbEntity
  8
SK2
100
AcDbBlockReference
 62
2
  6
CONTINUOUS
  2
_FILLED
 10
219.0
 20
221.0
 41
3.5
 42
3.5
 43
3.5
 50
180.0
  0
INSERT
  5
26C
100
AcDbEntity
  8
SK2
100
AcDbBlockReference
 62
2
  6
CONTINUOUS
  2
_FILLED
 10
282.38
 20
221.0
 41
3.5
 42
3.5
 43
3.5
  0
ENDBLK
  5
26D
100
AcDbEntity
  8
0
  6
BYBLOCK
 62
0
100
AcDbBlockEnd
  0
BLOCK
  5
26E
100
AcDbEntity
  8
2
100
AcDbBlockBegin
 62
2
  6
CONTINUOUS
  2
*D4
 70
65
 10
0.0
 20
0.0
  3
*D4
  1

  0
MTEXT
  5
26F
100
AcDbEntity
  8
2
100
AcDbMText
 62
5
  6
CONTINUOUS
  7
TEXTSTYLE_2
 71
2
 72
1
 10
300.145
 20
160.0
 30
0.0
 11
0.0
 21
1.0
 31
0.0
 44
0.9
  1
{\Fgdt;n}\Ftxt;25
 40
3.5
 41
9.9166666667
  0
LINE
  5
270
100
AcDbEntity
  8
2
100
AcDbLine
 62
2
  6
CONTINUOUS
 10
282.38
 20
147.5
 11
306.02
 21
147.5
  0
LINE
  5
271
100
AcDbEntity
  8
2
100
AcDbLine
 62
2
  6
CONTINUOUS
 10
282.38
 20
172.5
 11
306.02
 21
172.5
  0
LINE
  5
272
100
AcDbEntity
  8
2
100
AcDbLine
 62
2
  6
CONTINUOUS
 10
304.52
 20
147.5
 11
304.52
 21
160.0
  0
LINE
  5
273
100
AcDbEntity
  8
2
100
AcDbLine
 62
2
  6
CONTINUOUS
 10
304.52
 20
172.5
 11
304.52
 21
160.0
  0
INSERT
  5
274
100
AcDbEntity
  8
2
100
AcDbBlockReference
 62
2
  6
CONTINUOUS
  2
_FILLED
 10
304.52
 20
147.5
 41
3.5
 42
3.5
 43
3.5
 50
270.0
  0
INSERT
  5
275
100
AcDbEntity
  8
2
100
AcDbBlockReference
 62
2
  6
CONTINUOUS
  2
_FILLED
 10
304.52
 20
172.5
 41
3.5
 42
3.5
 43
3.5
 50
90.0
  0
ENDBLK
  5
276
100
AcDbEntity
  8
0
  6
BYBLOCK
 62
0
100
AcDbBlockEnd
  0
BLOCK
  5
277
100
AcDbEntity
  8
SK2
100
AcDbBlockBegin
 62
2
  6
CONTINUOUS
  2
*D5
 70
65
 10
0.0
 20
0.0
  3
*D5
  1

  0
MTEXT
  5
278
100
AcDbEntity
  8
SK2
100
AcDbMText
 62
5
  6
CONTINUOUS
  7
TEXTSTYLE_2
 71
2
 72
1
 10
310.145
 20
160.0
 30
0.0
 11
0.0
 21
1.0
 31
0.0
 44
0.9
  1
{\Fgdt;n}\Ftxt;42
 40
3.5
 41
10.1666666667
  0
LINE
  5
279
100
AcDbEntity
  8
SK2
100
AcDbLine
 62
2
  6
CONTINUOUS
 10
262.88
 20
181.0
 11
316.02
 21
181.0
  0
LINE
  5
27A
100
AcDbEntity
  8
SK2
100
AcDbLine
 62
2
  6
CONTINUOUS
 10
262.88
 20
139.0
 11
316.02
 21
139.0
  0
LINE
  5
27B
100
AcDbEntity
  8
SK2
100
AcDbLine
 62
2
  6
CONTINUOUS
 10
314.52
 20
181.0
 11
314.52
 21
160.0
  0
LINE
  5
27C
100
AcDbEntity
  8
SK2
100
AcDbLine
 62
2
  6
CONTINUOUS
 10
314.52
 20
139.0
 11
314.52
 21
160.0
  0
INSERT
  5
27D
100
AcDbEntity
  8
SK2
100
AcDbBlockReference
 62
2
  6
CONTINUOUS
  2
_FILLED
 10
314.52
 20
181.0
 41
3.5
 42
3.5
 43
3.5
 50
90.0
  0
INSERT
  5
27E
100
AcDbEntity
  8
SK2
100
AcDbBlockReference
 62
2
  6
CONTINUOUS
  2
_FILLED
 10
314.52
 20
139.0
 41
3.5
 42
3.5
 43
3.5
 50
270.0
  0
ENDBLK
  5
27F
100
AcDbEntity
  8
0
  6
BYBLOCK
 62
0
100
AcDbBlockEnd
  0
BLOCK
  5
280
100
AcDbEntity
  8
2
100
AcDbBlockBegin
 62
2
  6
CONTINUOUS
  2
*D6
 70
65
 10
0.0
 20
0.0
  3
*D6
  1

  0
MTEXT
  5
281
100
AcDbEntity
  8
2
100
AcDbMText
 62
5
  6
CONTINUOUS
  7
STANDARD
 71
2
 72
1
 10
240.0
 20
245.375
 30
0.0
 11
1.0
 21
0.0
 31
0.0
 44
0.9
  1
100
 40
3.5
 41
7.5
  0
LINE
  5
282
100
AcDbEntity
  8
2
100
AcDbLine
 62
2
  6
CONTINUOUS
 10
190.0
 20
210.0
 11
190.0
 21
242.5
  0
LINE
  5
283
100
AcDbEntity
  8
2
100
AcDbLine
 62
2
  6
CONTINUOUS
 10
290.0
 20
160.0
 11
290.0
 21
169.5
  0
LINE
  5
284
100
AcDbEntity
  8
2
100
AcDbLine
 62
2
  6
CONTINUOUS
 10
290.0
 20
175.5
 11
290.0
 21
242.5
  0
LINE
  5
285
100
AcDbEntity
  8
2
100
AcDbLine
 62
2
  6
CONTINUOUS
 10
190.0
 20
241.0
 11
240.0
 21
241.0
  0
LINE
  5
286
100
AcDbEntity
  8
2
100
AcDbLine
 62
2
  6
CONTINUOUS
 10
290.0
 20
241.0
 11
240.0
 21
241.0
  0
INSERT
  5
287
100
AcDbEntity
  8
2
100
AcDbBlockReference
 62
2
  6
CONTINUOUS
  2
_FILLED
 10
190.0
 20
241.0
 41
3.5
 42
3.5
 43
3.5
 50
180.0
  0
INSERT
  5
288
100
AcDbEntity
  8
2
100
AcDbBlockReference
 62
2
  6
CONTINUOUS
  2
_FILLED
 10
290.0
 20
241.0
 41
3.5
 42
3.5
 43
3.5
  0
ENDBLK
  5
289
100
AcDbEntity
  8
0
  6
BYBLOCK
 62
0
100
AcDbBlockEnd
  0
ENDSEC
  0
SECTION
  2
ENTITIES
  0
DIMENSION
  5
28A
100
AcDbEntity
  8
0
100
AcDbDimension
 62
2
  6
CONTINUOUS
  2
*D0
 10
324.52
 20
118.525
 11
323.8459872036
 21
156.1073895272
 70
160
 71
2
 42
82.95
  1
%%c<>
  3
DIMSTYLE_1
100
AcDbAlignedDimension
 13
218.95
 23
201.475
 14
218.95
 24
118.525
 50
270.0
100
AcDbRotatedDimension
  0
DIMENSION
  5
28B
100
AcDbEntity
  8
2
100
AcDbDimension
 62
2
  6
CONTINUOUS
  2
*D1
 10
282.38
 20
231.0
 11
229.815
 21
233.625
 70
160
 71
2
 42
92.38
  3
DIMSTYLE_2
100
AcDbAlignedDimension
 13
190.0
 23
210.0
 14
282.38
 24
183.0
100
AcDbRotatedDimension
  0
DIMENSION
  5
28C
100
AcDbEntity
  8
SK2
100
AcDbDimension
 62
2
  6
CONTINUOUS
  2
*D2
 10
282.38
 20
251.0
 11
203.815
 21
253.625
 70
160
 71
2
 42
142.38
  3
DIMSTYLE_2
100
AcDbAlignedDimension
 13
140.0
 23
160.0
 14
282.38
 24
160.0
100
AcDbRotatedDimension
  0
DIMENSION
  5
28D
100
AcDbEntity
  8
SK2
100
AcDbDimension
 62
2
  6
CONTINUOUS
  2
*D3
 10
282.38
 20
221.0
 11
244.44
 21
223.625
 70
160
 71
2
 42
63.38
  3
DIMSTYLE_2
100
AcDbAlignedDimension
 13
219.0
 23
210.0
 14
282.38
 24
160.0
100
AcDbRotatedDimension
  0
DIMENSION
  5
28E
100
AcDbEntity
  8
2
100
AcDbDimension
 62
2
  6
CONTINUOUS
  2
*D4
 10
304.52
 20
172.5
 11
303.0058491733
 21
157.7836332715
 70
160
 71
2
 42
25.0
  1
%%c<>
  3
DIMSTYLE_2
100
AcDbAlignedDimension
 13
282.38
 23
147.5
 14
282.38
 24
172.5
 50
90.0
100
AcDbRotatedDimension
  0
DIMENSION
  5
28F
100
AcDbEntity
  8
SK2
100
AcDbDimension
 62
2
  6
CONTINUOUS
  2
*D5
 10
314.52
 20
139.0
 11
313.0338537743
 21
157.72775848
 70
160
 71
2
 42
42.0
  1
%%c<>
  3
DIMSTYLE_2
100
AcDbAlignedDimension
 13
262.88
 23
181.0
 14
262.88
 24
139.0
 50
270.0
100
AcDbRotatedDimension
  0
DIMENSION
  5
290
100
AcDbEntity
  8
2
100
AcDbDimension
 62
2
  6
CONTINUOUS
  2
*D6
 10
290.0
 20
241.0
 11
236.25
 21
243.625
 70
160
 71
2
 42
100.0
  3
DIMSTYLE_2
100
AcDbAlignedDimension
 13
190.0
 23
210.0
 14
290.0
 24
160.0
100
AcDbRotatedDimension
  0
MTEXT
  5
291
100
AcDbEntity
  8
6
100
AcDbMText
 62
5
  6
CONTINUOUS
  7
STANDARD
 71
1
 72
1
 10
187.1438497029
 20
82.3507156451
 30
0.0
 11
1.0
 21
0.0
 31
0.0
 44
0.9
  3
Für diese Unterlage behalten wir das Ur-\Pheberrecht. Sie darf nur für den von uns\Pbestimmten Zweck benutzt und ohne unsere \PZustimmung weder vervielfältigt noch \PDritten zugänglich gemacht werden.\P \PWe own the copyright of this document. It\Pde
  1
termined and may neither be copied or\Pmade accessible to outsiders without our\Ppermission.\P \PCe plan reste notre propriété. Il ne peut\Pétre utilisé, copié ou reproduit sans notre\Paccord.
 40
3.5
 41
103.5833333333
  0
LINE
  5
292
100
AcDbEntity
  8
1
100
AcDbLine
 62
9
  6
CONTINUOUS
 10
140.1
 20
126.394798437
 11
140.1
 21
145.6006081374
  0
LINE
  5
293
100
AcDbEntity
  8
1
100
AcDbLine
 62
6
  6
CONTINUOUS
 10
140.1
 20
145.6006081374
 11
140.1
 21
147.84
  0
LINE
  5
294
100
AcDbEntity
  8
1
100
AcDbLine
 62
6
  6
CONTINUOUS
 10
140.1
 20
172.16
 11
140.1
 21
174.3993918626
  0
LINE
  5
295
100
AcDbEntity
  8
1
100
AcDbLine
 62
9
  6
CONTINUOUS
 10
140.1
 20
174.3993918626
 11
140.1
 21
193.6052015622
  0
LINE
  5
296
100
AcDbEntity
  8
1
100
AcDbLine
 62
9
  6
CONTINUOUS
 10
141.9999255153
 20
195.6026962683
 11
141.9999255153
 21
175.0827544425
  0
LINE
  5
297
100
AcDbEntity
  8
1
100
AcDbLine
 62
9
  6
CONTINUOUS
 10
141.9999255153
 20
144.9172455575
 11
141.9999255153
 21
124.3973037317
  0
LINE
  5
298
100
AcDbEntity
  8
1
100
AcDbLine
 62
6
  6
CONTINUOUS
 10
142.25
 20
147.9207649872
 11
142.25
 21
149.99
  0
LINE
  5
299
100
AcDbEntity
  8
1
100
AcDbLine
 62
6
  6
CONTINUOUS
 10
142.25
 20
170.01
 11
142.25
 21
172.0792350128
  0
LINE
  5
29A
100
AcDbEntity
  8
1
100
AcDbLine
 62
9
  6
CONTINUOUS
 10
148.3
 20
144.1865901846
 11
148.3
 21
149.99
  0
LINE
  5
29B
100
AcDbEntity
  8
1
100
AcDbLine
 62
9
  6
CONTINUOUS
 10
148.3
 20
170.01
 11
148.3
 21
175.8134098154
  0
LINE
  5
29C
100
AcDbEntity
  8
1
100
AcDbLine
 62
6
  6
CONTINUOUS
 10
150.2
 20
172.5807309802
 11
150.2
 21
147.4192690198
  0
LINE
  5
29D
100
AcDbEntity
  8
1
100
AcDbLine
 62
6
  6
CONTINUOUS
 10
206.7379709791
 20
110.0
 11
190.0
 21
110.0
  0
LINE
  5
29E
100
AcDbEntity
  8
1
100
AcDbLine
 62
6
  6
CONTINUOUS
 10
213.2620290209
 20
110.0
 11
218.95
 21
110.0
  0
LINE
  5
29F
100
AcDbEntity
  8
1
100
AcDbLine
 62
9
  6
CONTINUOUS
 10
140.1
 20
147.84
 11
142.25
 21
149.99
  0
LINE
  5
2A0
100
AcDbEntity
  8
1
100
AcDbLine
 62
6
  6
CONTINUOUS
 10
208.8375
 20
114.025
 11
211.1625
 21
114.025
  0
LINE
  5
2A1
100
AcDbEntity
  8
1
100
AcDbLine
 62
9
  6
CONTINUOUS
 10
142.25
 20
170.01
 11
140.1
 21
172.16
  0
LINE
  5
2A2
100
AcDbEntity
  8
1
100
AcDbLine
 62
6
  6
CONTINUOUS
 10
195.3318001508
 20
121.0490372391
 11
206.7379709791
 21
121.0490372391
  0
LINE
  5
2A3
100
AcDbEntity
  8
1
100
AcDbLine
 62
6
  6
CONTINUOUS
 10
213.2620290209
 20
121.0490372391
 11
218.95
 21
121.0490372391
  0
LINE
  5
2A4
100
AcDbEntity
  8
1
100
AcDbLine
 62
6
  6
CONTINUOUS
 10
189.2994287113
 20
122.31775
 11
188.3780626591
 21
122.31775
  0
LINE
  5
2A5
100
AcDbEntity
  8
1
100
AcDbLine
 62
6
  6
CONTINUOUS
 10
187.5
 20
122.11775
 11
141.9999255153
 21
124.3973037317
  0
LINE
  5
2A6
100
AcDbEntity
  8
1
100
AcDbLine
 62
6
  6
CONTINUOUS
 10
208.8375
 20
126.3714685869
 11
211.1625
 21
126.3714685869
  0
LINE
  5
2A7
100
AcDbEntity
  8
1
100
AcDbLine
 62
6
  6
CONTINUOUS
 10
218.95
 20
128.25
 11
204.6272089654
 21
128.25
  0
LINE
  5
2A8
100
AcDbEntity
  8
1
100
AcDbLine
 62
6
  6
CONTINUOUS
 10
204.6272089654
 20
128.65
 11
218.95
 21
128.65
  0
LINE
  5
2A9
100
AcDbEntity
  8
1
100
AcDbLine
 62
6
  6
CONTINUOUS
 10
187.5
 20
197.88225
 11
187.5
 21
122.11775
  0
LINE
  5
2AA
100
AcDbEntity
  8
1
100
AcDbLine
 62
9
  6
CONTINUOUS
 10
188.119243614
 20
122.2836758263
 11
188.119243614
 21
197.7163241737
  0
LINE
  5
2AB
100
AcDbEntity
  8
1
100
AcDbLine
 62
9
  6
CONTINUOUS
 10
188.3780626591
 20
122.31775
 11
188.3780626591
 21
197.68225
  0
LINE
  5
2AC
100
AcDbEntity
  8
1
100
AcDbLine
 62
9
  6
CONTINUOUS
 10
189.2994287113
 20
122.31775
 11
189.2994287113
 21
197.68225
  0
LINE
  5
2AD
100
AcDbEntity
  8
1
100
AcDbLine
 62
6
  6
CONTINUOUS
 10
190.0
 20
210.0
 11
190.0
 21
110.0
  0
LINE
  5
2AE
100
AcDbEntity
  8
1
100
AcDbLine
 62
6
  6
CONTINUOUS
 10
211.9125
 20
207.6625471695
 11
213.2620290209
 21
210.0
  0
LINE
  5
2AF
100
AcDbEntity
  8
1
100
AcDbLine
 62
9
  6
CONTINUOUS
 10
140.1
 20
146.6824156588
 11
142.25
 21
147.9207649872
  0
LINE
  5
2B0
100
AcDbEntity
  8
1
100
AcDbLine
 62
6
  6
CONTINUOUS
 10
188.119243614
 20
122.2836758263
 11
187.5
 21
122.11775
  0
LINE
  5
2B1
100
AcDbEntity
  8
1
100
AcDbLine
 62
9
  6
CONTINUOUS
 10
142.25
 20
172.0792350128
 11
140.1
 21
173.3175843412
  0
LINE
  5
2B2
100
AcDbEntity
  8
1
100
AcDbLine
 62
6
  6
CONTINUOUS
 10
211.9125
 20
112.3374528305
 11
213.2620290209
 21
110.0
  0
LINE
  5
2B3
100
AcDbEntity
  8
1
100
AcDbLine
 62
6
  6
CONTINUOUS
 10
246.6479491924
 20
137.025
 11
238.38
 21
137.025
  0
LINE
  5
2B4
100
AcDbEntity
  8
1
100
AcDbLine
 62
6
  6
CONTINUOUS
 10
285.0
 20
139.0
 11
271.25
 21
139.0
  0
LINE
  5
2B5
100
AcDbEntity
  8
1
100
AcDbLine
 62
6
  6
CONTINUOUS
 10
261.9882864376
 20
139.025
 11
248.9573502692
 21
139.025
  0
LINE
  5
2B6
100
AcDbEntity
  8
1
100
AcDbLine
 62
6
  6
CONTINUOUS
 10
285.0
 20
140.5845919358
 11
278.0
 21
140.5845919358
  0
LINE
  5
2B7
100
AcDbEntity
  8
1
100
AcDbLine
 62
9
  6
CONTINUOUS
 10
204.6272089654
 20
128.65
 11
204.6272089654
 21
128.25
  0
LINE
  5
2B8
100
AcDbEntity
  8
1
100
AcDbLine
 62
8
  6
HIDDEN
 10
281.5139745962
 20
143.0025
 11
270.0
 21
143.0025
  0
LINE
  5
2B9
100
AcDbEntity
  8
1
100
AcDbLine
 62
6
  6
CONTINUOUS
 10
270.0
 20
143.0025
 11
266.7942135624
 21
143.0025
  0
LINE
  5
2BA
100
AcDbEntity
  8
1
100
AcDbLine
 62
6
  6
CONTINUOUS
 10
285.0
 20
143.3618235976
 11
278.0
 21
143.3618235976
  0
LINE
  5
2BB
100
AcDbEntity
  8
1
100
AcDbLine
 62
9
  6
CONTINUOUS
 10
149.592946729
 20
145.11
 11
141.5273502491
 21
145.11
  0
LINE
  5
2BC
100
AcDbEntity
  8
1
100
AcDbLine
 62
6
  6
CONTINUOUS
 10
206.7379709791
 20
210.0
 11
206.7379709791
 21
128.65
  0
LINE
  5
2BD
100
AcDbEntity
  8
1
100
AcDbLine
 62
6
  6
CONTINUOUS
 10
206.7379709791
 20
121.0490372391
 11
206.7379709791
 21
110.0
  0
LINE
  5
2BE
100
AcDbEntity
  8
1
100
AcDbLine
 62
6
  6
CONTINUOUS
 10
208.0875
 20
207.6625120588
 11
208.0875
 21
128.65
  0
LINE
  5
2BF
100
AcDbEntity
  8
1
100
AcDbLine
 62
6
  6
CONTINUOUS
 10
208.0875
 20
112.3374867998
 11
208.0875
 21
125.353165729
  0
LINE
  5
2C0
100
AcDbEntity
  8
1
100
AcDbLine
 62
9
  6
CONTINUOUS
 10
208.8375
 20
114.025
 11
208.8375
 21
126.3714685869
  0
LINE
  5
2C1
100
AcDbEntity
  8
1
100
AcDbLine
 62
9
  6
CONTINUOUS
 10
208.8375
 20
128.65
 11
208.8375
 21
205.975
  0
LINE
  5
2C2
100
AcDbEntity
  8
1
100
AcDbLine
 62
9
  6
CONTINUOUS
 10
211.1625
 20
114.025
 11
211.1625
 21
126.3714685869
  0
LINE
  5
2C3
100
AcDbEntity
  8
1
100
AcDbLine
 62
9
  6
CONTINUOUS
 10
211.1625
 20
128.65
 11
211.1625
 21
205.975
  0
LINE
  5
2C4
100
AcDbEntity
  8
1
100
AcDbLine
 62
6
  6
CONTINUOUS
 10
211.9125
 20
112.3374867998
 11
211.9125
 21
125.353165729
  0
LINE
  5
2C5
100
AcDbEntity
  8
1
100
AcDbLine
 62
6
  6
CONTINUOUS
 10
211.9125
 20
128.65
 11
211.9125
 21
207.6625120588
  0
LINE
  5
2C6
100
AcDbEntity
  8
1
100
AcDbLine
 62
6
  6
CONTINUOUS
 10
148.3
 20
149.99
 11
142.25
 21
149.99
  0
LINE
  5
2C7
100
AcDbEntity
  8
1
100
AcDbLine
 62
8
  6
HIDDEN
 10
261.4608130162
 20
150.44
 11
250.88
 21
150.44
  0
LINE
  5
2C8
100
AcDbEntity
  8
1
100
AcDbLine
 62
6
  6
CONTINUOUS
 10
213.2620290209
 20
210.0
 11
213.2620290209
 21
128.65
  0
LINE
  5
2C9
100
AcDbEntity
  8
1
100
AcDbLine
 62
6
  6
CONTINUOUS
 10
213.2620290209
 20
121.0490372391
 11
213.2620290209
 21
110.0
  0
LINE
  5
2CA
100
AcDbEntity
  8
1
100
AcDbLine
 62
6
  6
CONTINUOUS
 10
285.0
 20
157.2227683382
 11
278.0
 21
157.2227683382
  0
LINE
  5
2CB
100
AcDbEntity
  8
4
100
AcDbLine
 62
7
  6
CENTER
 10
287.38
 20
160.0
 11
137.1
 21
160.0
  0
LINE
  5
2CC
100
AcDbEntity
  8
1
100
AcDbLine
 62
8
  6
HIDDEN
 10
282.38
 20
147.5
 11
261.4608130162
 21
150.44
  0
LINE
  5
2CD
100
AcDbEntity
  8
1
100
AcDbLine
 62
6
  6
CONTINUOUS
 10
218.95
 20
110.0000005438
 11
218.95
 21
209.9999998575
  0
LINE
  5
2CE
100
AcDbEntity
  8
1
100
AcDbLine
 62
8
  6
HIDDEN
 10
282.38
 20
172.5
 11
261.4608130162
 21
169.56
  0
LINE
  5
2CF
100
AcDbEntity
  8
1
100
AcDbLine
 62
6
  6
CONTINUOUS
 10
285.0
 20
162.7772316618
 11
278.0
 21
162.7772316618
  0
LINE
  5
2D0
100
AcDbEntity
  8
1
100
AcDbLine
 62
8
  6
HIDDEN
 10
261.4608130162
 20
169.56
 11
250.88
 21
169.56
  0
LINE
  5
2D1
100
AcDbEntity
  8
1
100
AcDbLine
 62
9
  6
CONTINUOUS
 10
148.3
 20
170.01
 11
142.25
 21
170.01
  0
LINE
  5
2D2
100
AcDbEntity
  8
1
100
AcDbLine
 62
6
  6
CONTINUOUS
 10
206.7379709791
 20
110.0
 11
208.0875
 21
112.3374528305
  0
LINE
  5
2D3
100
AcDbEntity
  8
1
100
AcDbLine
 62
9
  6
CONTINUOUS
 10
141.5273502491
 20
174.89
 11
149.592946729
 21
174.89
  0
LINE
  5
2D4
100
AcDbEntity
  8
1
100
AcDbLine
 62
6
  6
CONTINUOUS
 10
285.0
 20
176.6381764024
 11
278.0
 21
176.6381764024
  0
LINE
  5
2D5
100
AcDbEntity
  8
1
100
AcDbLine
 62
8
  6
HIDDEN
 10
281.5139745962
 20
176.9975
 11
270.0
 21
176.9975
  0
LINE
  5
2D6
100
AcDbEntity
  8
1
100
AcDbLine
 62
6
  6
CONTINUOUS
 10
270.0
 20
176.9975
 11
266.7942135624
 21
176.9975
  0
LINE
  5
2D7
100
AcDbEntity
  8
1
100
AcDbLine
 62
6
  6
CONTINUOUS
 10
206.7379709791
 20
210.0
 11
208.0875
 21
207.6625471695
  0
LINE
  5
2D8
100
AcDbEntity
  8
1
100
AcDbLine
 62
6
  6
CONTINUOUS
 10
237.7882159741
 20
184.0
 11
237.7882159741
 21
136.0
  0
LINE
  5
2D9
100
AcDbEntity
  8
1
100
AcDbLine
 62
6
  6
CONTINUOUS
 10
238.38
 20
182.975
 11
238.38
 21
137.025
  0
LINE
  5
2DA
100
AcDbEntity
  8
1
100
AcDbLine
 62
6
  6
CONTINUOUS
 10
285.0
 20
179.4154080642
 11
278.0
 21
179.4154080642
  0
LINE
  5
2DB
100
AcDbEntity
  8
1
100
AcDbLine
 62
6
  6
CONTINUOUS
 10
261.9882864376
 20
180.975
 11
248.9573502692
 21
180.975
  0
LINE
  5
2DC
100
AcDbEntity
  8
1
100
AcDbLine
 62
6
  6
CONTINUOUS
 10
285.0
 20
181.0
 11
271.25
 21
181.0
  0
LINE
  5
2DD
100
AcDbEntity
  8
1
100
AcDbLine
 62
6
  6
CONTINUOUS
 10
246.6479491924
 20
182.975
 11
238.38
 21
182.975
  0
LINE
  5
2DE
100
AcDbEntity
  8
1
100
AcDbLine
 62
9
  6
CONTINUOUS
 10
246.6479491924
 20
182.975
 11
246.6479491924
 21
137.025
  0
LINE
  5
2DF
100
AcDbEntity
  8
1
100
AcDbLine
 62
9
  6
CONTINUOUS
 10
247.5139745962
 20
182.475
 11
247.5139745962
 21
137.525
  0
LINE
  5
2E0
100
AcDbEntity
  8
1
100
AcDbLine
 62
9
  6
CONTINUOUS
 10
248.0913248654
 20
181.475
 11
248.0913248654
 21
138.525
  0
LINE
  5
2E1
100
AcDbEntity
  8
1
100
AcDbLine
 62
9
  6
CONTINUOUS
 10
248.9573502692
 20
180.975
 11
248.9573502692
 21
139.025
  0
LINE
  5
2E2
100
AcDbEntity
  8
1
100
AcDbLine
 62
6
  6
CONTINUOUS
 10
238.38
 20
137.025
 11
237.7882159741
 21
136.0
  0
LINE
  5
2E3
100
AcDbEntity
  8
1
100
AcDbLine
 62
6
  6
CONTINUOUS
 10
237.7882159741
 20
136.0
 11
218.95
 21
118.525
  0
LINE
  5
2E4
100
AcDbEntity
  8
1
100
AcDbLine
 62
6
  6
CONTINUOUS
 10
188.119243614
 20
197.7163241737
 11
187.5
 21
197.88225
  0
LINE
  5
2E5
100
AcDbEntity
  8
1
100
AcDbLine
 62
6
  6
CONTINUOUS
 10
237.7882159741
 20
184.0
 11
218.95
 21
201.475
  0
LINE
  5
2E6
100
AcDbEntity
  8
1
100
AcDbLine
 62
6
  6
CONTINUOUS
 10
238.38
 20
182.975
 11
237.7882159741
 21
184.0
  0
LINE
  5
2E7
100
AcDbEntity
  8
1
100
AcDbLine
 62
8
  6
HIDDEN
 10
250.88
 20
169.56
 11
250.88
 21
150.44
  0
LINE
  5
2E8
100
AcDbEntity
  8
1
100
AcDbLine
 62
6
  6
CONTINUOUS
 10
248.0913248654
 20
138.525
 11
247.5139745962
 21
137.525
  0
LINE
  5
2E9
100
AcDbEntity
  8
1
100
AcDbLine
 62
6
  6
CONTINUOUS
 10
189.2994287113
 20
197.68225
 11
188.3780626591
 21
197.68225
  0
LINE
  5
2EA
100
AcDbEntity
  8
1
100
AcDbLine
 62
6
  6
CONTINUOUS
 10
248.0913248654
 20
181.475
 11
247.5139745962
 21
182.475
  0
LINE
  5
2EB
100
AcDbEntity
  8
1
100
AcDbLine
 62
6
  6
CONTINUOUS
 10
187.5
 20
197.88225
 11
141.9999255153
 21
195.6026962683
  0
LINE
  5
2EC
100
AcDbEntity
  8
1
100
AcDbLine
 62
8
  6
HIDDEN
 10
261.4608130162
 20
169.56
 11
261.4608130162
 21
150.44
  0
LINE
  5
2ED
100
AcDbEntity
  8
1
100
AcDbLine
 62
9
  6
CONTINUOUS
 10
261.9882864376
 20
180.975
 11
261.9882864376
 21
139.025
  0
LINE
  5
2EE
100
AcDbEntity
  8
1
100
AcDbLine
 62
9
  6
CONTINUOUS
 10
262.6953932188
 20
180.6821067812
 11
262.6953932188
 21
139.3178932188
  0
LINE
  5
2EF
100
AcDbEntity
  8
1
100
AcDbLine
 62
9
  6
CONTINUOUS
 10
266.0871067812
 20
177.2903932188
 11
266.0871067812
 21
142.7096067812
  0
LINE
  5
2F0
100
AcDbEntity
  8
1
100
AcDbLine
 62
9
  6
CONTINUOUS
 10
266.7942135624
 20
176.9975
 11
266.7942135624
 21
143.0025
  0
LINE
  5
2F1
100
AcDbEntity
  8
1
100
AcDbLine
 62
6
  6
CONTINUOUS
 10
266.0871067812
 20
142.7096067812
 11
262.6953932188
 21
139.3178932188
  0
LINE
  5
2F2
100
AcDbEntity
  8
1
100
AcDbLine
 62
6
  6
CONTINUOUS
 10
208.8375
 20
205.975
 11
211.1625
 21
205.975
  0
LINE
  5
2F3
100
AcDbEntity
  8
1
100
AcDbLine
 62
6
  6
CONTINUOUS
 10
206.7379709791
 20
210.0
 11
190.0
 21
210.0
  0
LINE
  5
2F4
100
AcDbEntity
  8
1
100
AcDbLine
 62
6
  6
CONTINUOUS
 10
213.2620290209
 20
210.0
 11
218.95
 21
210.0
  0
LINE
  5
2F5
100
AcDbEntity
  8
1
100
AcDbLine
 62
6
  6
CONTINUOUS
 10
266.0871067812
 20
177.2903932188
 11
262.6953932188
 21
180.6821067812
  0
LINE
  5
2F6
100
AcDbEntity
  8
1
100
AcDbLine
 62
6
  6
CONTINUOUS
 10
270.0
 20
179.75
 11
270.0
 21
140.25
  0
LINE
  5
2F7
100
AcDbEntity
  8
1
100
AcDbLine
 62
9
  6
CONTINUOUS
 10
271.25
 20
181.0
 11
271.25
 21
139.0
  0
LINE
  5
2F8
100
AcDbEntity
  8
1
100
AcDbLine
 62
9
  6
CONTINUOUS
 10
278.0
 20
179.4154080642
 11
278.0
 21
176.6381764024
  0
LINE
  5
2F9
100
AcDbEntity
  8
1
100
AcDbLine
 62
9
  6
CONTINUOUS
 10
278.0
 20
162.7772316618
 11
278.0
 21
157.2227683382
  0
LINE
  5
2FA
100
AcDbEntity
  8
1
100
AcDbLine
 62
9
  6
CONTINUOUS
 10
278.0
 20
143.3618235976
 11
278.0
 21
140.5845919358
  0
LINE
  5
2FB
100
AcDbEntity
  8
1
100
AcDbLine
 62
8
  6
HIDDEN
 10
281.5139745962
 20
176.9975
 11
281.5139745962
 21
143.0025
  0
LINE
  5
2FC
100
AcDbEntity
  8
1
100
AcDbLine
 62
8
  6
HIDDEN
 10
282.38
 20
175.4975
 11
282.38
 21
144.5025
  0
LINE
  5
2FD
100
AcDbEntity
  8
1
100
AcDbLine
 62
9
  6
CONTINUOUS
 10
285.0
 20
181.0
 11
285.0
 21
179.4154080642
  0
LINE
  5
2FE
100
AcDbEntity
  8
1
100
AcDbLine
 62
9
  6
CONTINUOUS
 10
285.0
 20
176.6381764024
 11
285.0
 21
162.7772316618
  0
LINE
  5
2FF
100
AcDbEntity
  8
1
100
AcDbLine
 62
9
  6
CONTINUOUS
 10
285.0
 20
157.2227683382
 11
285.0
 21
143.3618235976
  0
LINE
  5
300
100
AcDbEntity
  8
1
100
AcDbLine
 62
9
  6
CONTINUOUS
 10
285.0
 20
140.5845919358
 11
285.0
 21
139.0
  0
LINE
  5
301
100
AcDbEntity
  8
1
100
AcDbLine
 62
8
  6
HIDDEN
 10
282.38
 20
144.5025
 11
281.5139745962
 21
143.0025
  0
LINE
  5
302
100
AcDbEntity
  8
1
100
AcDbLine
 62
8
  6
HIDDEN
 10
282.38
 20
175.4975
 11
281.5139745962
 21
176.9975
  0
LINE
  5
303
100
AcDbEntity
  8
1
100
AcDbLine
 62
9
  6
CONTINUOUS
 10
290.0
 20
176.0
 11
290.0
 21
144.0
  0
ARC
  5
304
100
AcDbEntity
  8
1
100
AcDbCircle
 62
6
  6
CONTINUOUS
 10
204.6272089654
 20
118.65
 40
10.0
100
AcDbArc
 50
90.0
 51
164.1905288929
  0
ARC
  5
305
100
AcDbEntity
  8
1
100
AcDbCircle
 62
6
  6
CONTINUOUS
 10
204.6272089654
 20
118.65
 40
9.6000002451
100
AcDbArc
 50
90.0
 51
165.5284226131
  0
ARC
  5
306
100
AcDbEntity
  8
1
100
AcDbCircle
 62
6
  6
CONTINUOUS
 10
142.1
 20
126.3947984369
 40
2.0
100
AcDbArc
 50
180.0
 51
267.1318795127
  0
ARC
  5
307
100
AcDbEntity
  8
1
100
AcDbCircle
 62
9
  6
CONTINUOUS
 10
148.3
 20
151.89
 40
1.9
100
AcDbArc
 50
270.0
 51
355.2355361865
  0
ARC
  5
308
100
AcDbEntity
  8
1
100
AcDbCircle
 62
6
  6
CONTINUOUS
 10
188.3780626591
 20
121.31775
 40
1.0
100
AcDbArc
 50
90.0
 51
105.0
  0
ARC
  5
309
100
AcDbEntity
  8
1
100
AcDbCircle
 62
6
  6
CONTINUOUS
 10
189.2994287113
 20
121.31775
 40
1.0
100
AcDbArc
 50
45.5216429127
 51
90.0
  0
ARC
  5
30A
100
AcDbEntity
  8
1
100
AcDbCircle
 62
6
  6
CONTINUOUS
 10
208.8375
 20
113.275
 40
0.75
100
AcDbArc
 50
90.0
 51
180.0
  0
ARC
  5
30B
100
AcDbEntity
  8
1
100
AcDbCircle
 62
6
  6
CONTINUOUS
 10
-37.556980918
 20
230.9736146973
 40
267.8869841029
100
AcDbArc
 50
335.7738444502
 51
336.4871427587
  0
CIRCLE
  5
30C
100
AcDbEntity
  8
1
100
AcDbCircle
 62
6
  6
CONTINUOUS
 10
175.0
 20
160.0
 40
6.0
  0
ARC
  5
30D
100
AcDbEntity
  8
1
100
AcDbCircle
 62
6
  6
CONTINUOUS
 10
142.1
 20
193.6052015631
 40
2.0
100
AcDbArc
 50
92.8681204873
 51
180.0
  0
ARC
  5
30E
100
AcDbEntity
  8
1
100
AcDbCircle
 62
9
  6
CONTINUOUS
 10
148.3
 20
168.11
 40
1.9
100
AcDbArc
 50
4.7644637835
 51
90.0
  0
ARC
  5
30F
100
AcDbEntity
  8
1
100
AcDbCircle
 62
6
  6
CONTINUOUS
 10
188.3780626591
 20
198.68225
 40
1.0
100
AcDbArc
 50
255.0
 51
270.0
  0
ARC
  5
310
100
AcDbEntity
  8
1
100
AcDbCircle
 62
6
  6
CONTINUOUS
 10
189.2994287113
 20
198.68225
 40
1.0
100
AcDbArc
 50
270.0
 51
314.4783570873
  0
ARC
  5
311
100
AcDbEntity
  8
1
100
AcDbCircle
 62
6
  6
CONTINUOUS
 10
208.8375
 20
206.725
 40
0.75
100
AcDbArc
 50
185.625
 51
270.0
  0
ARC
  5
312
100
AcDbEntity
  8
1
100
AcDbCircle
 62
6
  6
CONTINUOUS
 10
210.0547484292
 20
136.1419824373
 40
21.0846437192
100
AcDbArc
 50
224.4587431007
 51
225.7109689292
  0
ARC
  5
313
100
AcDbEntity
  8
1
100
AcDbCircle
 62
6
  6
CONTINUOUS
 10
248.9573502692
 20
138.025
 40
1.0
100
AcDbArc
 50
90.0
 51
150.0
  0
ARC
  5
314
100
AcDbEntity
  8
1
100
AcDbCircle
 62
6
  6
CONTINUOUS
 10
246.6479491924
 20
138.025
 40
1.0
100
AcDbArc
 50
270.0
 51
330.0
  0
ARC
  5
315
100
AcDbEntity
  8
1
100
AcDbCircle
 62
6
  6
CONTINUOUS
 10
211.1625
 20
113.275
 40
0.75
100
AcDbArc
 50
0.0
 51
90.0
  0
ARC
  5
316
100
AcDbEntity
  8
1
100
AcDbCircle
 62
6
  6
CONTINUOUS
 10
311.0229491023
 20
-1254.7914094693
 40
1439.8294715434
100
AcDbArc
 50
96.48917138
 51
96.7415536538
  0
ARC
  5
317
100
AcDbEntity
  8
1
100
AcDbCircle
 62
6
  6
CONTINUOUS
 10
261.9882864376
 20
140.025
 40
1.0
100
AcDbArc
 50
270.0
 51
315.0
  0
ARC
  5
318
100
AcDbEntity
  8
1
100
AcDbCircle
 62
6
  6
CONTINUOUS
 10
271.25
 20
140.25
 40
1.25
100
AcDbArc
 50
180.0
 51
270.0
  0
ARC
  5
319
100
AcDbEntity
  8
1
100
AcDbCircle
 62
6
  6
CONTINUOUS
 10
266.7942135624
 20
142.0025
 40
1.0
100
AcDbArc
 50
90.0
 51
135.0
  0
ARC
  5
31A
100
AcDbEntity
  8
1
100
AcDbCircle
 62
6
  6
CONTINUOUS
 10
285.0
 20
144.0
 40
5.0
100
AcDbArc
 50
270.0
 51
360.0
  0
ARC
  5
31B
100
AcDbEntity
  8
1
100
AcDbCircle
 62
6
  6
CONTINUOUS
 10
246.6479491924
 20
181.975
 40
1.0
100
AcDbArc
 50
30.0
 51
90.0
  0
ARC
  5
31C
100
AcDbEntity
  8
1
100
AcDbCircle
 62
6
  6
CONTINUOUS
 10
211.1625
 20
206.725
 40
0.75
100
AcDbArc
 50
270.0
 51
354.375
  0
ARC
  5
31D
100
AcDbEntity
  8
1
100
AcDbCircle
 62
6
  6
CONTINUOUS
 10
266.7942135624
 20
177.9975
 40
1.0
100
AcDbArc
 50
225.0
 51
270.0
  0
ARC
  5
31E
100
AcDbEntity
  8
1
100
AcDbCircle
 62
6
  6
CONTINUOUS
 10
261.9882864376
 20
179.975
 40
1.0
100
AcDbArc
 50
45.0
 51
90.0
  0
ARC
  5
31F
100
AcDbEntity
  8
1
100
AcDbCircle
 62
6
  6
CONTINUOUS
 10
248.9573502692
 20
181.975
 40
1.0
100
AcDbArc
 50
210.0
 51
270.0
  0
ARC
  5
320
100
AcDbEntity
  8
1
100
AcDbCircle
 62
6
  6
CONTINUOUS
 10
285.0
 20
176.0
 40
5.0
100
AcDbArc
 50
0.0
 51
90.0
  0
ARC
  5
321
100
AcDbEntity
  8
1
100
AcDbCircle
 62
6
  6
CONTINUOUS
 10
271.25
 20
179.75
 40
1.25
100
AcDbArc
 50
90.0
 51
180.0
  0
ARC
  5
322
100
AcDbEntity
  8
1
100
AcDbCircle
 62
6
  6
CONTINUOUS
 10
311.0229491025
 20
1574.7914094709
 40
1439.8294715451
100
AcDbArc
 50
263.2584463462
 51
263.51082862
  0
ARC
  5
323
100
AcDbEntity
  8
1
100
AcDbCircle
 62
6
  6
CONTINUOUS
 10
457.5569809188
 20
230.9736146976
 40
267.8869841038
100
AcDbArc
 50
203.5128572413
 51
204.2261555498
  0
SPLINE
  5
324
100
AcDbEntity
  8
1
100
AcDbSpline
 62
6
  6
CONTINUOUS
 70
0
 71
3
 72
12
 73
8
 74
0
 42
0.0000001
 43
0.0000001
 44
0.0000000001
 40
0.0
 40
0.0
 40
0.0
 40
0.0
 40
0.1873462108
 40
0.3004547504
 40
0.4253099535
 40
0.7021451881
 40
1.0
 40
1.0
 40
1.0
 40
1.0
 10
275.2122882363
 20
142.0991801733
 30
0.0
 10
275.2866062504
 20
142.2847049332
 30
0.0
 10
275.5002434869
 20
142.542863734
 30
0.0
 10
275.8642108729
 20
142.8127237472
 30
0.0
 10
276.3494547291
 20
143.0746943771
 30
0.0
 10
277.0674964942
 20
143.3007537592
 30
0.0
 10
277.6822556089
 20
143.3618235976
 30
0.0
 10
278.0
 20
143.3618235976
 30
0.0
  0
SPLINE
  5
325
100
AcDbEntity
  8
1
100
AcDbSpline
 62
6
  6
CONTINUOUS
 70
0
 71
3
 72
14
 73
10
 74
0
 42
0.0000001
 43
0.0000001
 44
0.0000000001
 40
0.0
 40
0.0
 40
0.0
 40
0.0
 40
0.2911827147
 40
0.4336020678
 40
0.5711228503
 40
0.7010230861
 40
0.8190889222
 40
0.9203190395
 40
1.0
 40
1.0
 40
1.0
 40
1.0
 10
285.0
 20
143.3618235976
 30
0.0
 10
285.36114515
 20
143.3618235976
 30
0.0
 10
285.8997502635
 20
143.3993882433
 30
0.0
 10
286.5987014289
 20
143.5156610804
 30
0.0
 10
287.0953338254
 20
143.6251134372
 30
0.0
 10
287.5577053407
 20
143.7467776624
 30
0.0
 10
287.9750026596
 20
143.8632885415
 30
0.0
 10
288.3337567561
 20
143.9553797267
 30
0.0
 10
288.5571649621
 20
143.9905436652
 30
0.0
 10
288.6559907958
 20
143.9906539041
 30
0.0
  0
SPLINE
  5
326
100
AcDbEntity
  8
1
100
AcDbSpline
 62
6
  6
CONTINUOUS
 70
0
 71
3
 72
14
 73
10
 74
0
 42
0.0000001
 43
0.0000001
 44
0.0000000001
 40
0.0
 40
0.0
 40
0.0
 40
0.0
 40
0.0796845487
 40
0.1809168809
 40
0.2989833687
 40
0.4288830839
 40
0.5664023175
 40
0.7088196998
 40
1.0
 40
1.0
 40
1.0
 40
1.0
 10
288.655939695
 20
176.0093461152
 30
0.0
 10
288.5571107676
 20
176.0094629837
 30
0.0
 10
288.3337001507
 20
176.0446326504
 30
0.0
 10
287.9749437269
 20
176.1367277814
 30
0.0
 10
287.5576494379
 20
176.2532379341
 30
0.0
 10
287.095285419
 20
176.3748981952
 30
0.0
 10
286.5986645735
 20
176.4843475014
 30
0.0
 10
285.8997293014
 20
176.6006121159
 30
0.0
 10
285.3611372262
 20
176.6381764024
 30
0.0
 10
285.0
 20
176.6381764024
 30
0.0
  0
SPLINE
  5
327
100
AcDbEntity
  8
1
100
AcDbSpline
 62
6
  6
CONTINUOUS
 70
0
 71
3
 72
12
 73
8
 74
0
 42
0.0000001
 43
0.0000001
 44
0.0000000001
 40
0.0
 40
0.0
 40
0.0
 40
0.0
 40
0.2978275089
 40
0.5746493855
 40
0.6995063992
 40
0.8126231005
 40
1.0
 40
1.0
 40
1.0
 40
1.0
 10
278.0
 20
176.6381764024
 30
0.0
 10
277.6823449043
 20
176.6381764024
 30
0.0
 10
277.0677463514
 20
176.6992125707
 30
0.0
 10
276.3498658328
 20
176.9251544882
 30
0.0
 10
275.8646742329
 20
177.1869887539
 30
0.0
 10
275.5006746632
 20
177.4567374386
 30
0.0
 10
275.2869607091
 20
177.7147761634
 30
0.0
 10
275.2125186712
 20
177.9002456794
 30
0.0
  0
SPLINE
  5
328
100
AcDbEntity
  8
1
100
AcDbSpline
 62
6
  6
CONTINUOUS
 70
0
 71
3
 72
15
 73
11
 74
0
 42
0.0000001
 43
0.0000001
 44
0.0000000001
 40
0.0
 40
0.0
 40
0.0
 40
0.0
 40
0.1253054694
 40
0.2502667796
 40
0.3750981509
 40
0.5000051808
 40
0.6249114411
 40
0.7497405741
 40
0.8746993195
 40
1.0
 40
1.0
 40
1.0
 40
1.0
 10
278.0
 20
157.2227683382
 30
0.0
 10
277.6333387895
 20
157.2227683382
 30
0.0
 10
276.8934112502
 20
157.3631799354
 30
0.0
 10
275.9475841031
 20
157.9711076037
 30
0.0
 10
275.3057391521
 20
158.8964431282
 30
0.0
 10
275.0786858749
 20
160.0000451527
 30
0.0
 10
275.3057738255
 20
161.1036327203
 30
0.0
 10
275.9476340215
 20
162.0289359648
 30
0.0
 10
276.8934479533
 20
162.636828531
 30
0.0
 10
277.6333528026
 20
162.7772316618
 30
0.0
 10
278.0
 20
162.7772316618
 30
0.0
  0
SPLINE
  5
329
100
AcDbEntity
  8
1
100
AcDbSpline
 62
6
  6
CONTINUOUS
 70
0
 71
3
 72
16
 73
12
 74
0
 42
0.0000001
 43
0.0000001
 44
0.0000000001
 40
0.0
 40
0.0
 40
0.0
 40
0.0
 40
0.1702054271
 40
0.3337945859
 40
0.4844975672
 40
0.617693329
 40
0.7309851994
 40
0.8261866311
 40
0.8695262767
 40
0.9119007985
 40
1.0
 40
1.0
 40
1.0
 40
1.0
 10
278.0
 20
140.5845919358
 30
0.0
 10
277.7934578863
 20
140.5845919358
 30
0.0
 10
277.3881941333
 20
140.6008835804
 30
0.0
 10
276.804093557
 20
140.6745493727
 30
0.0
 10
276.2739202083
 20
140.7973546609
 30
0.0
 10
275.8213757037
 20
140.9691242967
 30
0.0
 10
275.4658096667
 20
141.1888607883
 30
0.0
 10
275.258912451
 20
141.4239812289
 30
0.0
 10
275.1741447182
 20
141.6285501488
 30
0.0
 10
275.1398763606
 20
141.8383795442
 30
0.0
 10
275.1725340292
 20
141.9999392313
 30
0.0
 10
275.2122882363
 20
142.0991801733
 30
0.0
  0
SPLINE
  5
32A
100
AcDbEntity
  8
1
100
AcDbSpline
 62
6
  6
CONTINUOUS
 70
0
 71
3
 72
22
 73
18
 74
0
 42
0.0000001
 43
0.0000001
 44
0.0000000001
 40
0.0
 40
0.0
 40
0.0
 40
0.0
 40
0.1557164484
 40
0.3114609128
 40
0.4670006089
 40
0.6199599064
 40
0.6929014282
 40
0.7607224954
 40
0.8209757769
 40
0.8715422283
 40
0.9113111888
 40
0.9274254745
 40
0.9416221159
 40
0.9548102113
 40
0.9682277141
 40
0.9830264019
 40
1.0
 40
1.0
 40
1.0
 40
1.0
 10
285.0
 20
179.4154080642
 30
0.0
 10
285.3171561073
 20
179.4154080642
 30
0.0
 10
285.9533038848
 20
179.3535529467
 30
0.0
 10
286.8689900958
 20
179.0724378328
 30
0.0
 10
287.6981456223
 20
178.6012062374
 30
0.0
 10
288.2706094645
 20
178.0634287341
 30
0.0
 10
288.6236395986
 20
177.5788441962
 30
0.0
 10
288.8230142757
 20
177.2200539194
 30
0.0
 10
288.9586262239
 20
176.8811426736
 30
0.0
 10
289.0317631264
 20
176.5824601735
 30
0.0
 10
289.0436294197
 20
176.3631045119
 30
0.0
 10
289.0142016193
 20
176.2225244744
 30
0.0
 10
288.9762527131
 20
176.1413063191
 30
0.0
 10
288.9196197585
 20
176.078632278
 30
0.0
 10
288.8453420227
 20
176.0361198265
 30
0.0
 10
288.7554169569
 20
176.0130411518
 30
0.0
 10
288.6905107155
 20
176.0093052338
 30
0.0
 10
288.655939695
 20
176.0093461152
 30
0.0
  0
SPLINE
  5
32B
100
AcDbEntity
  8
1
100
AcDbSpline
 62
6
  6
CONTINUOUS
 70
0
 71
3
 72
25
 73
21
 74
0
 42
0.0000001
 43
0.0000001
 44
0.0000000001
 40
0.0
 40
0.0
 40
0.0
 40
0.0
 40
0.066557954
 40
0.1318571234
 40
0.1946233711
 40
0.2544487629
 40
0.3122877789
 40
0.3414251773
 40
0.3712698953
 40
0.4339234038
 40
0.4999976828
 40
0.5660721261
 40
0.6287259481
 40
0.6585711627
 40
0.6877086225
 40
0.7455487213
 40
0.8053750436
 40
0.8681421178
 40
0.9334419912
 40
1.0
 40
1.0
 40
1.0
 40
1.0
 10
285.0
 20
162.7772316618
 30
0.0
 10
285.2487274921
 20
162.7772316618
 30
0.0
 10
285.7416243569
 20
162.7635618738
 30
0.0
 10
286.4663706466
 20
162.694364193
 30
0.0
 10
287.1569729114
 20
162.558399022
 30
0.0
 10
287.7939474358
 20
162.3245016432
 30
0.0
 10
288.2527607016
 20
162.0085028431
 30
0.0
 10
288.5443409423
 20
161.6811784124
 30
0.0
 10
288.7896050396
 20
161.2963271115
 30
0.0
 10
288.9882768862
 20
160.7294177132
 30
0.0
 10
289.0620303205
 20
160.0000265427
 30
0.0
 10
288.9882892088
 20
159.2706305
 30
0.0
 10
288.7896168075
 20
158.7037209403
 30
0.0
 10
288.5443750732
 20
158.3188503091
 30
0.0
 10
288.2527784402
 20
157.9915319558
 30
0.0
 10
287.7939779215
 20
157.6755053776
 30
0.0
 10
287.1569897358
 20
157.4416051005
 30
0.0
 10
286.4663798896
 20
157.3056360054
 30
0.0
 10
285.7416273273
 20
157.2364376736
 30
0.0
 10
285.2487276969
 20
157.2227683382
 30
0.0
 10
285.0
 20
157.2227683382
 30
0.0
  0
SPLINE
  5
32C
100
AcDbEntity
  8
1
100
AcDbSpline
 62
6
  6
CONTINUOUS
 70
0
 71
3
 72
16
 73
12
 74
0
 42
0.0000001
 43
0.0000001
 44
0.0000000001
 40
0.0
 40
0.0
 40
0.0
 40
0.0
 40
0.0881213387
 40
0.1304987738
 40
0.1738363782
 40
0.2690252079
 40
0.3823040539
 40
0.5154922528
 40
0.6661958025
 40
0.8297868077
 40
1.0
 40
1.0
 40
1.0
 40
1.0
 10
275.2125186712
 20
177.9002456794
 30
0.0
 10
275.1726803931
 20
177.9995012395
 30
0.0
 10
275.1398875603
 20
178.1610934368
 30
0.0
 10
275.1740166153
 20
178.3710115966
 30
0.0
 10
275.2586666275
 20
178.5756560881
 30
0.0
 10
275.4654825699
 20
178.8108853459
 30
0.0
 10
275.8210305173
 20
179.0307164758
 30
0.0
 10
276.2736100679
 20
179.2025593863
 30
0.0
 10
276.8038607552
 20
179.3254128506
 30
0.0
 10
277.3880698714
 20
179.3991111106
 30
0.0
 10
277.793413707
 20
179.4154080642
 30
0.0
 10
278.0
 20
179.4154080642
 30
0.0
  0
SPLINE
  5
32D
100
AcDbEntity
  8
1
100
AcDbSpline
 62
6
  6
CONTINUOUS
 70
0
 71
3
 72
22
 73
18
 74
0
 42
0.0000001
 43
0.0000001
 44
0.0000000001
 40
0.0
 40
0.0
 40
0.0
 40
0.0
 40
0.016972226
 40
0.031769899
 40
0.045186815
 40
0.058374865
 40
0.0725717957
 40
0.0886864471
 40
0.1284564902
 40
0.1790236478
 40
0.2392768045
 40
0.307097861
 40
0.3800389265
 40
0.53299917
 40
0.6885398561
 40
0.844284756
 40
1.0
 40
1.0
 40
1.0
 40
1.0
 10
288.6559907958
 20
143.9906539041
 30
0.0
 10
288.6905587359
 20
143.9906924642
 30
0.0
 10
288.7554592729
 20
143.9869517596
 30
0.0
 10
288.8453759546
 20
143.963867491
 30
0.0
 10
288.9196453574
 20
143.9213482436
 30
0.0
 10
288.9762692353
 20
143.8586680654
 30
0.0
 10
289.0142105779
 20
143.7774461701
 30
0.0
 10
289.0436304114
 20
143.6368623032
 30
0.0
 10
289.0317575423
 20
143.4175049353
 30
0.0
 10
288.9586149147
 20
143.1188228748
 30
0.0
 10
288.8229981404
 20
142.7799159415
 30
0.0
 10
288.6236268602
 20
142.4211288591
 30
0.0
 10
288.270586084
 20
141.9365569355
 30
0.0
 10
287.6981277675
 20
141.3987806814
 30
0.0
 10
286.8689717066
 20
140.9275543805
 30
0.0
 10
285.9532919163
 20
140.6464451435
 30
0.0
 10
285.3171510091
 20
140.5845919358
 30
0.0
 10
285.0
 20
140.5845919358
 30
0.0
  0
SPLINE
  5
32E
100
AcDbEntity
  8
1
100
AcDbSpline
 62
6
  6
CONTINUOUS
 70
0
 71
3
 72
13
 73
9
 74
0
 42
0.0000001
 43
0.0000001
 44
0.0000000001
 40
0.0
 40
0.0
 40
0.0
 40
0.0
 40
0.1250164045
 40
0.2500790326
 40
0.3752162106
 40
0.500391894
 40
0.7500875908
 40
1.0
 40
1.0
 40
1.0
 40
1.0
 10
208.8375
 20
126.3714685869
 30
0.0
 10
208.7794954025
 20
126.3714685869
 30
0.0
 10
208.6627106215
 20
126.3525168766
 30
0.0
 10
208.5049318466
 20
126.2740645987
 30
0.0
 10
208.3719697707
 20
126.159204416
 30
0.0
 10
208.2304747084
 20
125.9737678575
 30
0.0
 10
208.1168611051
 20
125.7018671056
 30
0.0
 10
208.0875
 20
125.4691190615
 30
0.0
 10
208.0875
 20
125.353165729
 30
0.0
  0
SPLINE
  5
32F
100
AcDbEntity
  8
1
100
AcDbSpline
 62
6
  6
CONTINUOUS
 70
0
 71
3
 72
13
 73
9
 74
0
 42
0.0000001
 43
0.0000001
 44
0.0000000001
 40
0.0
 40
0.0
 40
0.0
 40
0.0
 40
0.2499125507
 40
0.4996083863
 40
0.6247840336
 40
0.7499209219
 40
0.8749837687
 40
1.0
 40
1.0
 40
1.0
 40
1.0
 10
211.9125
 20
125.353165729
 30
0.0
 10
211.9125
 20
125.4691191259
 30
0.0
 10
211.8831388578
 20
125.7018672897
 30
0.0
 10
211.7695251669
 20
125.9737681601
 30
0.0
 10
211.6280300398
 20
126.1592045222
 30
0.0
 10
211.4950681291
 20
126.2740648568
 30
0.0
 10
211.3372892467
 20
126.3525166485
 30
0.0
 10
211.2205045165
 20
126.3714685869
 30
0.0
 10
211.1625
 20
126.3714685869
 30
0.0
  0
SPLINE
  5
330
100
AcDbEntity
  8
1
100
AcDbSpline
 62
6
  6
CONTINUOUS
 70
0
 71
3
 72
9
 73
5
 74
0
 42
0.0000001
 43
0.0000001
 44
0.0000000001
 40
0.0
 40
0.0
 40
0.0
 40
0.0
 40
0.5002524096
 40
1.0
 40
1.0
 40
1.0
 40
1.0
 10
141.5273502491
 20
174.89
 30
0.0
 10
141.5972019185
 20
174.9397973748
 30
0.0
 10
141.7469398486
 20
175.0263807652
 30
0.0
 10
141.9148203251
 20
175.0726898546
 30
0.0
 10
141.9999255153
 20
175.0827544425
 30
0.0
  0
SPLINE
  5
331
100
AcDbEntity
  8
1
100
AcDbSpline
 62
6
  6
CONTINUOUS
 70
0
 71
3
 72
8
 73
4
 74
0
 42
0.0000001
 43
0.0000001
 44
0.0000000001
 40
0.0
 40
0.0
 40
0.0
 40
0.0
 40
1.0
 40
1.0
 40
1.0
 40
1.0
 10
141.4108576719
 20
174.7991748964
 30
0.0
 10
141.4484532837
 20
174.8309708601
 30
0.0
 10
141.4872571425
 20
174.8614175555
 30
0.0
 10
141.5273502491
 20
174.89
 30
0.0
  0
SPLINE
  5
332
100
AcDbEntity
  8
1
100
AcDbSpline
 62
6
  6
CONTINUOUS
 70
0
 71
3
 72
27
 73
23
 74
0
 42
0.0000001
 43
0.0000001
 44
0.0000000001
 40
0.0
 40
0.0
 40
0.0
 40
0.0
 40
0.0623964649
 40
0.0937036139
 40
0.1250215593
 40
0.1876502527
 40
0.2502885719
 40
0.2815657005
 40
0.3127856268
 40
0.3750490606
 40
0.4372784138
 40
0.4997025555
 40
0.5623084566
 40
0.6250203296
 40
0.6878482078
 40
0.7193351903
 40
0.7508216851
 40
0.8136064122
 40
0.876014697
 40
0.90711917
 40
0.9381748987
 40
1.0
 40
1.0
 40
1.0
 40
1.0
 10
168.4007073552
 20
159.9999999788
 30
0.0
 10
168.4005329255
 20
160.4304449286
 30
0.0
 10
168.4647213315
 20
161.0791775184
 30
0.0
 10
168.6745453301
 20
161.9167472193
 30
0.0
 10
168.9662612129
 20
162.7314446175
 30
0.0
 10
169.4796676156
 20
163.6902966192
 30
0.0
 10
170.1712510168
 20
164.5294412186
 30
0.0
 10
170.8132321829
 20
165.1083780463
 30
0.0
 10
171.5066549804
 20
165.6201998944
 30
0.0
 10
172.4614815432
 20
166.1283637747
 30
0.0
 10
173.7032763882
 20
166.5042833197
 30
0.0
 10
174.996963862
 20
166.6329804083
 30
0.0
 10
176.2944111866
 20
166.5076019012
 30
0.0
 10
177.5450541327
 20
166.1308548407
 30
0.0
 10
178.507587686
 20
165.6173258497
 30
0.0
 10
179.2053349896
 20
165.0992135217
 30
0.0
 10
179.8482392945
 20
164.5148472589
 30
0.0
 10
180.536378995
 20
163.6715740998
 30
0.0
 10
181.0441588139
 20
162.7120668661
 30
0.0
 10
181.3310672898
 20
161.9007110527
 30
0.0
 10
181.5366725654
 20
161.0694836282
 30
0.0
 10
181.5994342749
 20
160.426503365
 30
0.0
 10
181.5993040561
 20
159.9999999785
 30
0.0
  0
SPLINE
  5
333
100
AcDbEntity
  8
1
100
AcDbSpline
 62
6
  6
CONTINUOUS
 70
0
 71
3
 72
17
 73
13
 74
0
 42
0.0000001
 43
0.0000001
 44
0.0000000001
 40
0.0
 40
0.0
 40
0.0
 40
0.0
 40
0.1493280667
 40
0.2881121534
 40
0.4139118677
 40
0.5260102938
 40
0.57849446
 40
0.6302375078
 40
0.6830463678
 40
0.738561139
 40
0.8610587699
 40
1.0
 40
1.0
 40
1.0
 40
1.0
 10
141.4108576719
 20
145.2008251036
 30
0.0
 10
141.3347294204
 20
145.1472083382
 30
0.0
 10
141.1830853359
 20
145.0501923351
 30
0.0
 10
140.9493816563
 20
144.9385220349
 30
0.0
 10
140.7216796919
 20
144.8750007283
 30
0.0
 10
140.5366245211
 20
144.8747141464
 30
0.0
 10
140.4071419493
 20
144.9161775615
 30
0.0
 10
140.3223356301
 20
144.9669250887
 30
0.0
 10
140.2504108348
 20
145.0373799802
 30
0.0
 10
140.1710314645
 20
145.1585820764
 30
0.0
 10
140.1114711936
 20
145.3505408429
 30
0.0
 10
140.1
 20
145.5139706271
 30
0.0
 10
140.1
 20
145.6006081374
 30
0.0
  0
SPLINE
  5
334
100
AcDbEntity
  8
1
100
AcDbSpline
 62
6
  6
CONTINUOUS
 70
0
 71
3
 72
8
 73
4
 74
0
 42
0.0000001
 43
0.0000001
 44
0.0000000001
 40
0.0
 40
0.0
 40
0.0
 40
0.0
 40
1.0
 40
1.0
 40
1.0
 40
1.0
 10
141.5273502491
 20
145.11
 30
0.0
 10
141.4872571425
 20
145.1385824445
 30
0.0
 10
141.4484532837
 20
145.1690291399
 30
0.0
 10
141.4108576719
 20
145.2008251036
 30
0.0
  0
SPLINE
  5
335
100
AcDbEntity
  8
1
100
AcDbSpline
 62
6
  6
CONTINUOUS
 70
0
 71
3
 72
9
 73
5
 74
0
 42
0.0000001
 43
0.0000001
 44
0.0000000001
 40
0.0
 40
0.0
 40
0.0
 40
0.0
 40
0.4997500132
 40
1.0
 40
1.0
 40
1.0
 40
1.0
 10
141.9999255153
 20
144.9172455575
 30
0.0
 10
141.914819908
 20
144.9273101948
 30
0.0
 10
141.7469393546
 20
144.9736191941
 30
0.0
 10
141.5972015839
 20
145.0602028637
 30
0.0
 10
141.5273502491
 20
145.11
 30
0.0
  0
SPLINE
  5
336
100
AcDbEntity
  8
1
100
AcDbSpline
 62
6
  6
CONTINUOUS
 70
0
 71
3
 72
27
 73
23
 74
0
 42
0.0000001
 43
0.0000001
 44
0.0000000001
 40
0.0
 40
0.0
 40
0.0
 40
0.0
 40
0.0617958656
 40
0.0928471332
 40
0.1239511223
 40
0.1863618391
 40
0.2491529042
 40
0.280640792
 40
0.3121279725
 40
0.3749576524
 40
0.4376543678
 40
0.500244109
 40
0.5626733426
 40
0.624910023
 40
0.6871747477
 40
0.718396146
 40
0.7496739606
 40
0.8123127291
 40
0.8749452752
 40
0.906265754
 40
0.9375780393
 40
1.0
 40
1.0
 40
1.0
 40
1.0
 10
181.5992907789
 20
160.0000000206
 30
0.0
 10
181.5994534603
 20
159.5736983278
 30
0.0
 10
181.5367159749
 20
158.9309528055
 30
0.0
 10
181.3312605715
 20
158.0999332671
 30
0.0
 10
181.0444417872
 20
157.2885634957
 30
0.0
 10
180.5367339776
 20
156.3289532027
 30
0.0
 10
179.8486264889
 20
155.4855604418
 30
0.0
 10
179.2057272468
 20
154.9011068816
 30
0.0
 10
178.5079984309
 20
154.3829303782
 30
0.0
 10
177.5455822795
 20
153.8693744436
 30
0.0
 10
176.2951750984
 20
153.4925698436
 30
0.0
 10
174.9979312195
 20
153.3670255968
 30
0.0
 10
173.704247764
 20
153.4955167505
 30
0.0
 10
172.4623069775
 20
153.8712888324
 30
0.0
 10
171.5073537137
 20
154.3793646662
 30
0.0
 10
170.813850022
 20
154.8911172596
 30
0.0
 10
170.171786706
 20
155.4699898624
 30
0.0
 10
169.4800809399
 20
156.3090784156
 30
0.0
 10
168.9665465708
 20
157.2679176318
 30
0.0
 10
168.674724405
 20
158.0826609296
 30
0.0
 10
168.4647584987
 20
158.920433286
 30
0.0
 10
168.4005540514
 20
159.5693791742
 30
0.0
 10
168.4006937377
 20
160.0000000222
 30
0.0
  0
SPLINE
  5
337
100
AcDbEntity
  8
1
100
AcDbSpline
 62
6
  6
CONTINUOUS
 70
0
 71
3
 72
10
 73
6
 74
0
 42
0.0000001
 43
0.0000001
 44
0.0000000001
 40
0.0
 40
0.0
 40
0.0
 40
0.0
 40
0.248655593
 40
0.6227810278
 40
1.0
 40
1.0
 40
1.0
 40
1.0
 10
149.592946729
 20
174.89
 30
0.0
 10
149.6850420626
 20
174.7129894987
 30
0.0
 10
149.8933744164
 20
174.2577282723
 30
0.0
 10
150.1309945994
 20
173.4876005381
 30
0.0
 10
150.2
 20
172.8834325429
 30
0.0
 10
150.2
 20
172.5807309802
 30
0.0
  0
SPLINE
  5
338
100
AcDbEntity
  8
1
100
AcDbSpline
 62
6
  6
CONTINUOUS
 70
0
 71
3
 72
10
 73
6
 74
0
 42
0.0000001
 43
0.0000001
 44
0.0000000001
 40
0.0
 40
0.0
 40
0.0
 40
0.0
 40
0.2521478311
 40
0.627040777
 40
1.0
 40
1.0
 40
1.0
 40
1.0
 10
150.2
 20
147.4192690198
 30
0.0
 10
150.2
 20
147.2169050549
 30
0.0
 10
150.1615682756
 20
146.7131684635
 30
0.0
 10
149.9685786744
 20
145.9296997863
 30
0.0
 10
149.7310988484
 20
145.375533279
 30
0.0
 10
149.592946729
 20
145.11
 30
0.0
  0
SPLINE
  5
339
100
AcDbEntity
  8
1
100
AcDbSpline
 62
6
  6
CONTINUOUS
 70
0
 71
3
 72
12
 73
8
 74
0
 42
0.0000001
 43
0.0000001
 44
0.0000000001
 40
0.0
 40
0.0
 40
0.0
 40
0.0
 40
0.1312475159
 40
0.2608837127
 40
0.5122538744
 40
0.7575061754
 40
1.0
 40
1.0
 40
1.0
 40
1.0
 10
148.3
 20
175.8134098154
 30
0.0
 10
148.3733378249
 20
175.8217553922
 30
0.0
 10
148.5217380599
 20
175.8210344273
 30
0.0
 10
148.8036269732
 20
175.7510830022
 30
0.0
 10
149.1091441307
 20
175.5594970885
 30
0.0
 10
149.3872867832
 20
175.2466738314
 30
0.0
 10
149.5300033877
 20
175.0109793372
 30
0.0
 10
149.592946729
 20
174.89
 30
0.0
  0
SPLINE
  5
33A
100
AcDbEntity
  8
1
100
AcDbSpline
 62
6
  6
CONTINUOUS
 70
0
 71
3
 72
12
 73
8
 74
0
 42
0.0000001
 43
0.0000001
 44
0.0000000001
 40
0.0
 40
0.0
 40
0.0
 40
0.0
 40
0.2424982076
 40
0.4877558538
 40
0.7391384508
 40
0.8687641438
 40
1.0
 40
1.0
 40
1.0
 40
1.0
 10
149.592946729
 20
145.11
 30
0.0
 10
149.5300022682
 20
144.9890185111
 30
0.0
 10
149.3872828988
 20
144.753319424
 30
0.0
 10
149.1091297928
 20
144.4404879444
 30
0.0
 10
148.8036029993
 20
144.2489088078
 30
0.0
 10
148.5217187603
 20
144.1789626905
 30
0.0
 10
148.3733312886
 20
144.1782453516
 30
0.0
 10
148.3
 20
144.1865901846
 30
0.0
  0
SPLINE
  5
33B
100
AcDbEntity
  8
1
100
AcDbSpline
 62
6
  6
CONTINUOUS
 70
0
 71
3
 72
17
 73
13
 74
0
 42
0.0000001
 43
0.0000001
 44
0.0000000001
 40
0.0
 40
0.0
 40
0.0
 40
0.0
 40
0.1389412848
 40
0.261438998
 40
0.3169538191
 40
0.3697627229
 40
0.4215057719
 40
0.4739900026
 40
0.5860886021
 40
0.7118884743
 40
0.8506723845
 40
1.0
 40
1.0
 40
1.0
 40
1.0
 10
140.1
 20
174.3993918626
 30
0.0
 10
140.1
 20
174.486029407
 30
0.0
 10
140.1114711429
 20
174.6494593142
 30
0.0
 10
140.1710317049
 20
174.841418063
 30
0.0
 10
140.2504109614
 20
174.9626203857
 30
0.0
 10
140.3223360369
 20
175.0330750958
 30
0.0
 10
140.4071424195
 20
175.0838226013
 30
0.0
 10
140.5366251419
 20
175.1252860878
 30
0.0
 10
140.7216805871
 20
175.1249991297
 30
0.0
 10
140.9493825703
 20
175.0614776376
 30
0.0
 10
141.1830859241
 20
174.9498073245
 30
0.0
 10
141.3347296504
 20
174.8527914998
 30
0.0
 10
141.4108576719
 20
174.7991748964
 30
0.0
  0
ELLIPSE
  5
33C
100
AcDbEntity
  8
1
100
AcDbEllipse
 62
6
  6
CONTINUOUS
 10
137.37
 20
174.89
 30
0.0
 11
4.3319125763
 21
-4.3319125763
 31
0.0
 40
0.5187046472
 41
0.4784991097
 42
1.0736844408
  0
ELLIPSE
  5
33D
100
AcDbEntity
  8
1
100
AcDbEllipse
 62
6
  6
CONTINUOUS
 10
137.37
 20
145.11
 30
0.0
 11
4.3319125763
 21
4.3319125763
 31
0.0
 40
0.5187046472
 41
-1.0736844408
 42
-0.4784991097
  0
ENDSEC
  0
SECTION
  2
OBJECTS
  0
DICTIONARY
  5
C
100
AcDbDictionary
280
0
281
1
  3
ACAD_GROUP
350
D
  3
ACAD_MLINESTYLE
350
17
  3
ACAD_LAYOUT
350
1A
  3
ACAD_PLOTSETTINGS
350
19
  3
ACAD_PLOTSTYLENAME
350
E
  0
DICTIONARY
  5
D
102
{ACAD_REACTORS
330
C
102
}
100
AcDbDictionary
280
0
281
1
  0
ACDBDICTIONARYWDFLT
  5
E
102
{ACAD_REACTORS
330
C
102
}
100
AcDbDictionary
281
1
  3
Normal
350
F
100
AcDbDictionaryWithDefault
340
F
  0
DICTIONARY
  5
17
102
{ACAD_REACTORS
330
C
102
}
100
AcDbDictionary
280
0
281
1
  3
Standard
350
18
  0
DICTIONARY
  5
19
102
{ACAD_REACTORS
330
C
102
}
100
AcDbDictionary
281
1
  0
DICTIONARY
  5
1A
102
{ACAD_REACTORS
330
C
102
}
100
AcDbDictionary
281
1
  3
Model
350
33E
  3
Layout1
350
33F
  0
ACDBPLACEHOLDER
  5
F
102
{ACAD_REACTORS
330
E
102
}
  0
MLINESTYLE
  5
18
102
{ACAD_REACTORS
330
17
102
}
100
AcDbMlineStyle
  2
STANDARD
 70
0
  3

 62
256
 51
90.0
 52
90.0
 71
2
 49
0.5
 62
256
  6
BYLAYER
 49
-0.5
 62
256
  6
BYLAYER
  0
LAYOUT
  5
33E
102
{ACAD_REACTORS
330
1A
102
}
100
AcDbPlotSettings
  1

  2
none_device
  4
ISO_A3_(420.00_x_297.00_MM)
  6

 40
0.0
 41
0.0
 42
0.0
 43
0.0
 44
420.0
 45
297.0
 46
0.0
 47
0.0
 48
0.0
 49
0.0
140
0.0
141
0.0
142
1.0
143
1.0
 70
1024
 72
1
 73
0
 74
0
  7

 75
0
147
1.0
148
0.0
149
0.0
100
AcDbLayout
  1
Model
 70
0
 71
0
 10
0.0
 20
0.0
 11
420.0
 21
297.0
 12
0.0
 22
0.0
 32
0.0
 14
0.0
 24
0.0
 34
0.0
 15
0.0
 25
0.0
 35
0.0
146
0.0
 13
0.0
 23
0.0
 33
0.0
 16
1.0
 26
0.0
 36
0.0
 17
0.0
 27
1.0
 37
0.0
 76
0
330
239
345
0
346
0
  0
LAYOUT
  5
33F
102
{ACAD_REACTORS
330
1A
102
}
100
AcDbPlotSettings
  1

  2
none_device
  4
ISO_A3_(420.00_x_297.00_MM)
  6

 40
0.0
 41
0.0
 42
0.0
 43
0.0
 44
420.0
 45
297.0
 46
0.0
 47
0.0
 48
0.0
 49
0.0
140
0.0
141
0.0
142
1.0
143
1.0
 70
0
 72
1
 73
0
 74
0
  7

 75
0
147
1.0
148
0.0
149
0.0
100
AcDbLayout
  1
Layout1
 70
0
 71
1
 10
0.0
 20
0.0
 11
420.0
 21
297.0
 12
0.0
 22
0.0
 32
0.0
 14
0.0
 24
0.0
 34
0.0
 15
0.0
 25
0.0
 35
0.0
146
0.0
 13
0.0
 23
0.0
 33
0.0
 16
1.0
 26
0.0
 36
0.0
 17
0.0
 27
1.0
 37
0.0
 76
0
330
23A
345
0
346
0
  0
ENDSEC
  0
EOF
