  0
SECTION
  2
HEADER
  9
$ACADVER
  1
AC1015
  9
$ACADMAINTVER
 70
     6
  9
$DWGCODEPAGE
  3
ANSI_1252
  9
$INSBASE
 10
0.0
 20
0.0
 30
0.0
  9
$EXTMIN
 10
-122.9725283130681
 20
3.833
 30
0.0
  9
$EXTMAX
 10
63.0698922653022
 20
119.228094022219
 30
0.0
  9
$LIMMIN
 10
0.0
 20
0.0
  9
$LIMMAX
 10
12.0
 20
9.0
  9
$ORTHOMODE
 70
     0
  9
$REGENMODE
 70
     1
  9
$FILLMODE
 70
     1
  9
$QTEXTMODE
 70
     0
  9
$MIRRTEXT
 70
     1
  9
$LTSCALE
 40
1.0
  9
$ATTMODE
 70
     1
  9
$TEXTSIZE
 40
0.2
  9
$TRACEWID
 40
0.05
  9
$TEXTSTYLE
  7
Standard
  9
$CLAYER
  8
0
  9
$CELTYPE
  6
ByLayer
  9
$CECOLOR
 62
   256
  9
$CELTSCALE
 40
1.0
  9
$DISPSILH
 70
     0
  9
$DIMSCALE
 40
1.0
  9
$DIMASZ
 40
0.18
  9
$DIMEXO
 40
0.0625
  9
$DIMDLI
 40
0.38
  9
$DIMRND
 40
0.0
  9
$DIMDLE
 40
0.0
  9
$DIMEXE
 40
0.18
  9
$DIMTP
 40
0.0
  9
$DIMTM
 40
0.0
  9
$DIMTXT
 40
0.18
  9
$DIMCEN
 40
0.09
  9
$DIMTSZ
 40
0.0
  9
$DIMTOL
 70
     0
  9
$DIMLIM
 70
     0
  9
$DIMTIH
 70
     1
  9
$DIMTOH
 70
     1
  9
$DIMSE1
 70
     0
  9
$DIMSE2
 70
     0
  9
$DIMTAD
 70
     0
  9
$DIMZIN
 70
     0
  9
$DIMBLK
  1

  9
$DIMASO
 70
     1
  9
$DIMSHO
 70
     1
  9
$DIMPOST
  1

  9
$DIMAPOST
  1

  9
$DIMALT
 70
     0
  9
$DIMALTD
 70
     2
  9
$DIMALTF
 40
25.4
  9
$DIMLFAC
 40
1.0
  9
$DIMTOFL
 70
     0
  9
$DIMTVP
 40
0.0
  9
$DIMTIX
 70
     0
  9
$DIMSOXD
 70
     0
  9
$DIMSAH
 70
     0
  9
$DIMBLK1
  1

  9
$DIMBLK2
  1

  9
$DIMSTYLE
  2
Standard
  9
$DIMCLRD
 70
     0
  9
$DIMCLRE
 70
     0
  9
$DIMCLRT
 70
     0
  9
$DIMTFAC
 40
1.0
  9
$DIMGAP
 40
0.09
  9
$DIMJUST
 70
     0
  9
$DIMSD1
 70
     0
  9
$DIMSD2
 70
     0
  9
$DIMTOLJ
 70
     1
  9
$DIMTZIN
 70
     0
  9
$DIMALTZ
 70
     0
  9
$DIMALTTZ
 70
     0
  9
$DIMUPT
 70
     0
  9
$DIMDEC
 70
     4
  9
$DIMTDEC
 70
     4
  9
$DIMALTU
 70
     2
  9
$DIMALTTD
 70
     2
  9
$DIMTXSTY
  7
Standard
  9
$DIMAUNIT
 70
     0
  9
$DIMADEC
 70
     0
  9
$DIMALTRND
 40
0.0
  9
$DIMAZIN
 70
     0
  9
$DIMDSEP
 70
    46
  9
$DIMATFIT
 70
     3
  9
$DIMFRAC
 70
     0
  9
$DIMLDRBLK
  1

  9
$DIMLUNIT
 70
     2
  9
$DIMLWD
 70
    -2
  9
$DIMLWE
 70
    -2
  9
$DIMTMOVE
 70
     0
  9
$LUNITS
 70
     2
  9
$LUPREC
 70
     4
  9
$SKETCHINC
 40
0.1
  9
$FILLETRAD
 40
0.5
  9
$AUNITS
 70
     0
  9
$AUPREC
 70
     0
  9
$MENU
  1
.
  9
$ELEVATION
 40
0.0
  9
$PELEVATION
 40
0.0
  9
$THICKNESS
 40
0.0
  9
$LIMCHECK
 70
     0
  9
$CHAMFERA
 40
0.5
  9
$CHAMFERB
 40
0.5
  9
$CHAMFERC
 40
1.0
  9
$CHAMFERD
 40
0.0
  9
$SKPOLY
 70
     0
  9
$TDCREATE
 40
2456637.589026968
  9
$TDUCREATE
 40
2456637.547360301
  9
$TDUPDATE
 40
2456637.589026979
  9
$TDUUPDATE
 40
2456637.547360313
  9
$TDINDWG
 40
0.0000000116
  9
$TDUSRTIMER
 40
0.0000000116
  9
$USRTIMER
 70
     1
  9
$ANGBASE
 50
0.0
  9
$ANGDIR
 70
     0
  9
$PDMODE
 70
     0
  9
$PDSIZE
 40
0.0
  9
$PLINEWID
 40
0.0
  9
$SPLFRAME
 70
     0
  9
$SPLINETYPE
 70
     6
  9
$SPLINESEGS
 70
     8
  9
$HANDSEED
  5
174
  9
$SURFTAB1
 70
     6
  9
$SURFTAB2
 70
     6
  9
$SURFTYPE
 70
     6
  9
$SURFU
 70
     6
  9
$SURFV
 70
     6
  9
$UCSBASE
  2

  9
$UCSNAME
  2

  9
$UCSORG
 10
0.0
 20
0.0
 30
0.0
  9
$UCSXDIR
 10
1.0
 20
0.0
 30
0.0
  9
$UCSYDIR
 10
0.0
 20
1.0
 30
0.0
  9
$UCSORTHOREF
  2

  9
$UCSORTHOVIEW
 70
     0
  9
$UCSORGTOP
 10
0.0
 20
0.0
 30
0.0
  9
$UCSORGBOTTOM
 10
0.0
 20
0.0
 30
0.0
  9
$UCSORGLEFT
 10
0.0
 20
0.0
 30
0.0
  9
$UCSORGRIGHT
 10
0.0
 20
0.0
 30
0.0
  9
$UCSORGFRONT
 10
0.0
 20
0.0
 30
0.0
  9
$UCSORGBACK
 10
0.0
 20
0.0
 30
0.0
  9
$PUCSBASE
  2

  9
$PUCSNAME
  2

  9
$PUCSORG
 10
0.0
 20
0.0
 30
0.0
  9
$PUCSXDIR
 10
1.0
 20
0.0
 30
0.0
  9
$PUCSYDIR
 10
0.0
 20
1.0
 30
0.0
  9
$PUCSORTHOREF
  2

  9
$PUCSORTHOVIEW
 70
     0
  9
$PUCSORGTOP
 10
0.0
 20
0.0
 30
0.0
  9
$PUCSORGBOTTOM
 10
0.0
 20
0.0
 30
0.0
  9
$PUCSORGLEFT
 10
0.0
 20
0.0
 30
0.0
  9
$PUCSORGRIGHT
 10
0.0
 20
0.0
 30
0.0
  9
$PUCSORGFRONT
 10
0.0
 20
0.0
 30
0.0
  9
$PUCSORGBACK
 10
0.0
 20
0.0
 30
0.0
  9
$USERI1
 70
     0
  9
$USERI2
 70
     0
  9
$USERI3
 70
     0
  9
$USERI4
 70
     0
  9
$USERI5
 70
     0
  9
$USERR1
 40
16.5
  9
$USERR2
 40
0.0
  9
$USERR3
 40
0.0
  9
$USERR4
 40
0.0
  9
$USERR5
 40
0.0
  9
$WORLDVIEW
 70
     1
  9
$SHADEDGE
 70
     3
  9
$SHADEDIF
 70
    70
  9
$TILEMODE
 70
     1
  9
$MAXACTVP
 70
    64
  9
$PINSBASE
 10
0.0
 20
0.0
 30
0.0
  9
$PLIMCHECK
 70
     0
  9
$PEXTMIN
 10
1.00000000000000E+20
 20
1.00000000000000E+20
 30
1.00000000000000E+20
  9
$PEXTMAX
 10
-1.00000000000000E+20
 20
-1.00000000000000E+20
 30
-1.00000000000000E+20
  9
$PLIMMIN
 10
0.0
 20
0.0
  9
$PLIMMAX
 10
12.0
 20
9.0
  9
$UNITMODE
 70
     0
  9
$VISRETAIN
 70
     1
  9
$PLINEGEN
 70
     0
  9
$PSLTSCALE
 70
     1
  9
$TREEDEPTH
 70
  3020
  9
$CMLSTYLE
  2
Standard
  9
$CMLJUST
 70
     0
  9
$CMLSCALE
 40
1.0
  9
$PROXYGRAPHICS
 70
     1
  9
$MEASUREMENT
 70
     1
  9
$CELWEIGHT
370
    -1
  9
$ENDCAPS
280
     0
  9
$JOINSTYLE
280
     0
  9
$LWDISPLAY
290
     0
  9
$INSUNITS
 70
     1
  9
$HYPERLINKBASE
  1

  9
$STYLESHEET
  1

  9
$XEDIT
290
     1
  9
$CEPSNTYPE
380
     0
  9
$PSTYLEMODE
290
     1
  9
$FINGERPRINTGUID
  2
{BB843615-D3E0-4806-AEB3-7F9BFFA70007}
  9
$VERSIONGUID
  2
{FAEB1C32-E019-11D5-929B-00C0DF256EC4}
  9
$EXTNAMES
290
     1
  9
$PSVPSCALE
 40
0.0
  9
$OLESTARTUP
290
     0
  0
ENDSEC
  0
SECTION
  2
CLASSES
  0
CLASS
  1
ACDBDICTIONARYWDFLT
  2
AcDbDictionaryWithDefault
  3
ObjectDBX Classes
 90
        0
280
     0
281
     0
  0
CLASS
  1
VISUALSTYLE
  2
AcDbVisualStyle
  3
ObjectDBX Classes
 90
     4095
280
     0
281
     0
  0
CLASS
  1
SCALE
  2
AcDbScale
  3
ObjectDBX Classes
 90
     1153
280
     0
281
     0
  0
CLASS
  1

  2
exOdDbPolyline
  3

 90
        0
280
     0
281
     1
  0
CLASS
  1
DICTIONARYVAR
  2
AcDbDictionaryVar
  3
ObjectDBX Classes
 90
        0
280
     0
281
     0
  0
CLASS
  1
ACDBPLACEHOLDER
  2
AcDbPlaceHolder
  3
ObjectDBX Classes
 90
        0
280
     0
281
     0
  0
CLASS
  1
LAYOUT
  2
AcDbLayout
  3
ObjectDBX Classes
 90
        0
280
     0
281
     0
  0
ENDSEC
  0
SECTION
  2
TABLES
  0
TABLE
  2
VPORT
  5
8
330
0
100
AcDbSymbolTable
 70
     1
  0
VPORT
  5
29
330
8
100
AcDbSymbolTableRecord
100
AcDbViewportTableRecord
  2
*Active
 70
     0
 10
0.0
 20
0.0
 11
1.0
 21
1.0
 12
-29.95131802388295
 22
61.5305470111095
 13
0.0
 23
0.0
 14
0.5
 24
0.5
 15
0.5
 25
0.5
 16
0.0
 26
0.0
 36
1.0
 17
0.0
 27
0.0
 37
0.0
 40
127.690396742369
 41
1.60267857142857
 42
50.0
 43
0.0
 44
0.0
 50
0.0
 51
0.0
 71
     0
 72
   100
 73
     1
 74
     3
 75
     0
 76
     0
 77
     0
 78
     0
281
     0
 65
     1
110
0.0
120
0.0
130
0.0
111
1.0
121
0.0
131
0.0
112
0.0
122
1.0
132
0.0
 79
     0
146
0.0
  0
ENDTAB
  0
TABLE
  2
LTYPE
  5
5
330
0
100
AcDbSymbolTable
 70
     8
  0
LTYPE
  5
14
330
5
100
AcDbSymbolTableRecord
100
AcDbLinetypeTableRecord
  2
ByBlock
 70
     0
  3

 72
    65
 73
     0
 40
0.0
  0
LTYPE
  5
15
330
5
100
AcDbSymbolTableRecord
100
AcDbLinetypeTableRecord
  2
ByLayer
 70
     0
  3

 72
    65
 73
     0
 40
0.0
  0
LTYPE
  5
16
330
5
100
AcDbSymbolTableRecord
100
AcDbLinetypeTableRecord
  2
Continuous
 70
     0
  3
Solid line
 72
    65
 73
     0
 40
0.0
  0
LTYPE
  5
3B
330
5
100
AcDbSymbolTableRecord
100
AcDbLinetypeTableRecord
  2
DASHED
 70
     0
  3
Dashed
 72
    65
 73
     2
 40
15.0
 49
7.0
 74
     0
 49
-8.0
 74
     0
  0
LTYPE
  5
3C
330
5
100
AcDbSymbolTableRecord
100
AcDbLinetypeTableRecord
  2
DOTTED
 70
     0
  3
Dotted
 72
    65
 73
     2
 40
1.0
 49
0.0
 74
     0
 49
-1.0
 74
     0
  0
LTYPE
  5
3D
330
5
100
AcDbSymbolTableRecord
100
AcDbLinetypeTableRecord
  2
DOT_CENTER
 70
     0
  3
Dot_Center
 72
    65
 73
     4
 40
14.0
 49
12.0
 74
     0
 49
-1.0
 74
     0
 49
0.0
 74
     0
 49
-1.0
 74
     0
  0
LTYPE
  5
3E
330
5
100
AcDbSymbolTableRecord
100
AcDbLinetypeTableRecord
  2
LONG_DASHED
 70
     0
  3
Long_Dashed
 72
    65
 73
     2
 40
15.0
 49
10.0
 74
     0
 49
-5.0
 74
     0
  0
LTYPE
  5
3F
330
5
100
AcDbSymbolTableRecord
100
AcDbLinetypeTableRecord
  2
DASH_CENTER
 70
     0
  3
Dash_Center
 72
    65
 73
     4
 40
14.0
 49
11.0
 74
     0
 49
-1.0
 74
     0
 49
1.0
 74
     0
 49
-1.0
 74
     0
  0
LTYPE
  5
40
330
5
100
AcDbSymbolTableRecord
100
AcDbLinetypeTableRecord
  2
PHANTOM
 70
     0
  3
Phantom
 72
    65
 73
     6
 40
13.0
 49
10.0
 74
     0
 49
-1.0
 74
     0
 49
0.0
 74
     0
 49
-1.0
 74
     0
 49
0.0
 74
     0
 49
-1.0
 74
     0
  0
LTYPE
  5
41
330
5
100
AcDbSymbolTableRecord
100
AcDbLinetypeTableRecord
  2
CENTER_DASH_DASH
 70
     0
  3
Center_Dash_Dash
 72
    65
 73
     6
 40
14.0
 49
9.0
 74
     0
 49
-1.0
 74
     0
 49
1.0
 74
     0
 49
-1.0
 74
     0
 49
1.0
 74
     0
 49
-1.0
 74
     0
  0
ENDTAB
  0
TABLE
  2
LAYER
  5
2
330
0
100
AcDbSymbolTable
 70
     2
  0
LAYER
  5
10
330
2
100
AcDbSymbolTableRecord
100
AcDbLayerTableRecord
  2
0
 70
     0
 62
     7
  6
Continuous
370
    -3
390
F
  0
LAYER
  5
42
330
2
100
AcDbSymbolTableRecord
100
AcDbLayerTableRecord
  2
1
 70
     0
 62
     7
  6
Continuous
370
    -3
390
F
  0
ENDTAB
  0
TABLE
  2
STYLE
  5
3
330
0
100
AcDbSymbolTable
 70
     2
  0
STYLE
  5
11
330
3
100
AcDbSymbolTableRecord
100
AcDbTextStyleTableRecord
  2
Standard
 70
     0
 40
0.0
 41
1.0
 50
0.0
 71
     0
 42
0.2
  3
txt
  4

  0
STYLE
  5
124
330
3
100
AcDbSymbolTableRecord
100
AcDbTextStyleTableRecord
  2
CONVERTER_11
 70
     0
 40
0.0
 41
0.72
 50
0.0
 71
     0
 42
0.2
  3
txt.shx
  4

  0
ENDTAB
  0
TABLE
  2
VIEW
  5
6
330
0
100
AcDbSymbolTable
 70
     0
  0
ENDTAB
  0
TABLE
  2
UCS
  5
7
330
0
100
AcDbSymbolTable
 70
     0
  0
ENDTAB
  0
TABLE
  2
APPID
  5
9
330
0
100
AcDbSymbolTable
 70
     1
  0
APPID
  5
12
330
9
100
AcDbSymbolTableRecord
100
AcDbRegAppTableRecord
  2
ACAD
 70
     0
  0
ENDTAB
  0
TABLE
  2
DIMSTYLE
  5
A
330
0
100
AcDbSymbolTable
 70
     7
100
AcDbDimStyleTable
  0
DIMSTYLE
105
27
330
A
100
AcDbSymbolTableRecord
100
AcDbDimStyleTableRecord
  2
Standard
 70
     0
340
11
  0
DIMSTYLE
105
130
102
{ACAD_REACTORS
330
131
102
}
330
A
100
AcDbSymbolTableRecord
100
AcDbDimStyleTableRecord
  2
ME10_DIM_10
 70
     0
  3
<>
 41
3.5
 42
2.0
 44
2.0
 71
     1
 73
     0
 74
     0
 77
     1
 78
     8
140
3.5
146
0.7
147
2.0
172
     1
173
     1
176
     2
177
     2
178
     3
271
     2
272
     0
340
124
  0
DIMSTYLE
105
13B
102
{ACAD_REACTORS
330
13C
102
}
330
A
100
AcDbSymbolTableRecord
100
AcDbDimStyleTableRecord
  2
ME10_DIM_11
 70
     0
  3
\U+2300<>
 41
3.5
 42
2.0
 44
2.0
 71
     1
 73
     0
 74
     0
 77
     1
 78
     8
140
3.5
146
0.7
147
2.0
172
     1
173
     1
176
     2
177
     2
178
     3
271
     2
272
     0
340
124
  0
DIMSTYLE
105
146
102
{ACAD_REACTORS
330
147
102
}
330
A
100
AcDbSymbolTableRecord
100
AcDbDimStyleTableRecord
  2
ME10_DIM_12
 70
     0
  3
<>
 41
3.5
 42
2.0
 44
2.0
 71
     1
 73
     0
 74
     0
 77
     1
 78
     8
140
3.5
146
0.7
147
2.0
172
     1
173
     1
176
     2
177
     2
178
     3
271
     2
272
     0
340
124
  0
DIMSTYLE
105
151
102
{ACAD_REACTORS
330
152
102
}
330
A
100
AcDbSymbolTableRecord
100
AcDbDimStyleTableRecord
  2
ME10_DIM_13
 70
     0
  3
<>
 41
3.5
 42
2.0
 44
2.0
 71
     1
 73
     0
 74
     0
 77
     1
 78
     8
140
3.5
146
0.7
147
2.0
172
     1
173
     1
176
     2
177
     2
178
     3
271
     2
272
     0
340
124
  0
DIMSTYLE
105
15C
102
{ACAD_REACTORS
330
15D
102
}
330
A
100
AcDbSymbolTableRecord
100
AcDbDimStyleTableRecord
  2
ME10_DIM_14
 70
     0
  3
<>
 41
3.5
 42
2.0
 44
2.0
 71
     1
 73
     0
 74
     0
 77
     1
 78
     8
140
3.5
146
0.7
147
2.0
172
     1
173
     1
176
     2
177
     2
178
     3
271
     2
272
     0
340
124
  0
DIMSTYLE
105
167
102
{ACAD_REACTORS
330
168
102
}
330
A
100
AcDbSymbolTableRecord
100
AcDbDimStyleTableRecord
  2
ME10_DIM_15
 70
     0
  3
\U+2300<>
 41
3.5
 42
2.0
 44
2.0
 71
     1
 73
     0
 74
     0
 77
     1
 78
     8
140
3.5
146
0.7
147
2.0
172
     1
173
     1
176
     2
177
     2
178
     3
271
     2
272
     0
340
124
  0
ENDTAB
  0
TABLE
  2
BLOCK_RECORD
  5
1
330
0
100
AcDbSymbolTable
 70
    12
  0
BLOCK_RECORD
  5
1F
330
1
100
AcDbSymbolTableRecord
100
AcDbBlockTableRecord
  2
*Model_Space
340
22
  0
BLOCK_RECORD
  5
1B
330
1
100
AcDbSymbolTableRecord
100
AcDbBlockTableRecord
  2
*Paper_Space
340
1E
  0
BLOCK_RECORD
  5
23
330
1
100
AcDbSymbolTableRecord
100
AcDbBlockTableRecord
  2
*Paper_Space0
340
26
  0
BLOCK_RECORD
  5
43
330
1
100
AcDbSymbolTableRecord
100
AcDbBlockTableRecord
  2
IGS24
340
0
102
{BLKREFS
331
69
102
}
  0
BLOCK_RECORD
  5
46
330
1
100
AcDbSymbolTableRecord
100
AcDbBlockTableRecord
  2
83-912-32
340
0
102
{BLKREFS
331
72
102
}
  0
BLOCK_RECORD
  5
6C
330
1
100
AcDbSymbolTableRecord
100
AcDbBlockTableRecord
  2
A80_Aussen
340
0
102
{BLKREFS
331
73
102
}
  0
BLOCK_RECORD
  5
6F
330
1
100
AcDbSymbolTableRecord
100
AcDbBlockTableRecord
  2
Urheberrecht_DE-EN
340
0
102
{BLKREFS
331
74
102
}
  0
BLOCK_RECORD
  5
127
330
1
100
AcDbSymbolTableRecord
100
AcDbBlockTableRecord
  2
*D5
340
0
  0
BLOCK_RECORD
  5
132
330
1
100
AcDbSymbolTableRecord
100
AcDbBlockTableRecord
  2
*D6
340
0
  0
BLOCK_RECORD
  5
13D
330
1
100
AcDbSymbolTableRecord
100
AcDbBlockTableRecord
  2
*D7
340
0
  0
BLOCK_RECORD
  5
148
330
1
100
AcDbSymbolTableRecord
100
AcDbBlockTableRecord
  2
*D8
340
0
  0
BLOCK_RECORD
  5
153
330
1
100
AcDbSymbolTableRecord
100
AcDbBlockTableRecord
  2
*D9
340
0
  0
BLOCK_RECORD
  5
15E
330
1
100
AcDbSymbolTableRecord
100
AcDbBlockTableRecord
  2
*D10
340
0
  0
BLOCK_RECORD
  5
169
330
1
100
AcDbSymbolTableRecord
100
AcDbBlockTableRecord
  2
*D11
340
0
102
{BLKREFS
331
16F
102
}
  0
ENDTAB
  0
ENDSEC
  0
SECTION
  2
BLOCKS
  0
BLOCK
  5
20
330
1F
100
AcDbEntity
  8
0
100
AcDbBlockBegin
  2
*Model_Space
 70
     0
 10
0.0
 20
0.0
 30
0.0
  3
*Model_Space
  1

  0
ENDBLK
  5
21
330
1F
100
AcDbEntity
  8
0
100
AcDbBlockEnd
  0
BLOCK
  5
1C
330
1B
100
AcDbEntity
 67
     1
  8
0
100
AcDbBlockBegin
  2
*Paper_Space
 70
     0
 10
0.0
 20
0.0
 30
0.0
  3
*Paper_Space
  1

  0
ENDBLK
  5
1D
330
1B
100
AcDbEntity
 67
     1
  8
0
100
AcDbBlockEnd
  0
BLOCK
  5
24
330
23
100
AcDbEntity
  8
0
100
AcDbBlockBegin
  2
*Paper_Space0
 70
     0
 10
0.0
 20
0.0
 30
0.0
  3
*Paper_Space0
  1

  0
ENDBLK
  5
25
330
23
100
AcDbEntity
  8
0
100
AcDbBlockEnd
  0
BLOCK
  5
44
330
43
100
AcDbEntity
  8
0
100
AcDbBlockBegin
  2
IGS24
 70
     0
 10
15.94399999999999
 20
44.083
 30
0.0
  3
IGS24
  1

  0
LWPOLYLINE
  5
75
330
43
100
AcDbEntity
  8
1
  6
DOT_CENTER
 62
     7
100
AcDbPolyline
 90
        2
 70
     0
 43
0.25
 10
15.94399999999999
 20
44.083
 10
42.78700000000001
 20
44.083
  0
LWPOLYLINE
  5
76
330
43
100
AcDbEntity
  8
1
  6
Continuous
 62
     7
100
AcDbPolyline
 90
        2
 70
     0
 43
0.5
 10
26.407
 20
40.839
 10
37.11099999999999
 20
40.839
  0
LWPOLYLINE
  5
77
330
43
100
AcDbEntity
  8
1
  6
Continuous
 62
     7
100
AcDbPolyline
 90
        2
 70
     0
 43
0.5
 10
37.11099999999999
 20
40.839
 10
38.727
 20
41.484
  0
LWPOLYLINE
  5
78
330
43
100
AcDbEntity
  8
1
  6
Continuous
 62
     7
100
AcDbPolyline
 90
        2
 70
     0
 43
0.5
 10
38.727
 20
41.484
 10
38.727
 20
46.68400000000001
  0
LWPOLYLINE
  5
79
330
43
100
AcDbEntity
  8
1
  6
Continuous
 62
     7
100
AcDbPolyline
 90
        2
 70
     0
 43
0.5
 10
38.727
 20
46.68400000000001
 10
37.11000000000001
 20
47.32900000000001
  0
LWPOLYLINE
  5
7A
330
43
100
AcDbEntity
  8
1
  6
Continuous
 62
     7
100
AcDbPolyline
 90
        2
 70
     0
 43
0.5
 10
37.11000000000001
 20
47.32900000000001
 10
26.407
 20
47.327
  0
LWPOLYLINE
  5
7B
330
43
100
AcDbEntity
  8
1
  6
Continuous
 62
     7
100
AcDbPolyline
 90
        2
 70
     0
 43
0.5
 10
26.407
 20
46.682
 10
38.727
 20
46.68400000000001
  0
LWPOLYLINE
  5
7C
330
43
100
AcDbEntity
  8
1
  6
Continuous
 62
     7
100
AcDbPolyline
 90
        2
 70
     0
 43
0.5
 10
38.727
 20
41.484
 10
26.407
 20
41.484
  0
LWPOLYLINE
  5
7D
330
43
100
AcDbEntity
  8
1
  6
Continuous
 62
     7
100
AcDbPolyline
 90
        2
 70
     0
 43
0.5
 10
41.00700000000001
 20
57.68299999999999
 10
41.00700000000001
 20
30.483
  0
LWPOLYLINE
  5
7E
330
43
100
AcDbEntity
  8
1
  6
Continuous
 62
     7
100
AcDbPolyline
 90
        2
 70
     0
 43
0.5
 10
38.727
 20
66.28299999999999
 10
41.00700000000001
 20
62.333
  0
LWPOLYLINE
  5
7F
330
43
100
AcDbEntity
  8
1
  6
Continuous
 62
     7
100
AcDbPolyline
 90
        2
 70
     0
 43
0.5
 10
41.00700000000001
 20
62.333
 10
41.00700000000001
 20
57.68299999999999
  0
LWPOLYLINE
  5
80
330
43
100
AcDbEntity
  8
1
  6
Continuous
 62
     7
100
AcDbPolyline
 90
        2
 70
     0
 43
0.5
 10
19.75699999999999
 20
69.083
 10
19.80099999999999
 20
69.083
  0
LWPOLYLINE
  5
81
330
43
100
AcDbEntity
  8
1
  6
Continuous
 62
     7
100
AcDbPolyline
 90
        2
 70
     0
 43
0.5
 10
19.80099999999999
 20
69.083
 10
30.60900000000001
 20
69.083
  0
LWPOLYLINE
  5
82
330
43
100
AcDbEntity
  8
1
  6
Continuous
 62
     7
100
AcDbPolyline
 90
        2
 70
     0
 43
0.5
 10
30.60900000000001
 20
69.083
 10
36.38800000000001
 20
69.083
  0
LWPOLYLINE
  5
83
330
43
100
AcDbEntity
  8
1
  6
Continuous
 62
     7
100
AcDbPolyline
 90
        2
 70
     0
 43
0.5
 10
37.471
 20
68.458
 10
38.727
 20
66.28299999999999
  0
LWPOLYLINE
  5
84
330
43
100
AcDbEntity
  8
1
  6
Continuous
 62
     7
100
AcDbPolyline
 90
        2
 70
     0
 43
0.5
 10
41.00700000000001
 20
30.483
 10
41.00700000000001
 20
25.83300000000001
  0
LWPOLYLINE
  5
85
330
43
100
AcDbEntity
  8
1
  6
Continuous
 62
     7
100
AcDbPolyline
 90
        2
 70
     0
 43
0.5
 10
41.00700000000001
 20
25.83300000000001
 10
38.727
 20
21.88300000000001
  0
LWPOLYLINE
  5
86
330
43
100
AcDbEntity
  8
1
  6
Continuous
 62
     7
100
AcDbPolyline
 90
        2
 70
     0
 43
0.5
 10
38.727
 20
21.88300000000001
 10
37.471
 20
19.70800000000001
  0
LWPOLYLINE
  5
87
330
43
100
AcDbEntity
  8
1
  6
Continuous
 62
     7
100
AcDbPolyline
 90
        2
 70
     0
 43
0.5
 10
36.38800000000001
 20
19.08300000000001
 10
24.45899999999999
 20
19.08300000000001
  0
LWPOLYLINE
  5
88
330
43
100
AcDbEntity
  8
1
  6
Continuous
 62
     7
100
AcDbPolyline
 90
        2
 70
     0
 43
0.5
 10
24.45899999999999
 20
19.08300000000001
 10
19.80099999999999
 20
19.08300000000001
  0
LWPOLYLINE
  5
89
330
43
100
AcDbEntity
  8
1
  6
Continuous
 62
     7
100
AcDbPolyline
 90
        2
 70
     0
 43
0.5
 10
19.80099999999999
 20
19.08300000000001
 10
19.75699999999999
 20
19.08300000000001
  0
LWPOLYLINE
  5
8A
330
43
100
AcDbEntity
  8
1
  6
Continuous
 62
     7
100
AcDbPolyline
 90
        2
 70
     0
 43
0.5
 10
18.50699999999999
 20
20.33300000000001
 10
18.50699999999999
 20
67.833
  0
LWPOLYLINE
  5
8B
330
43
100
AcDbEntity
  8
1
  6
Continuous
 62
     7
100
AcDbPolyline
 90
        2
 70
     0
 43
0.5
 10
25.60699999999999
 20
20.995
 10
37.11099999999999
 20
20.995
  0
LWPOLYLINE
  5
8C
330
43
100
AcDbEntity
  8
1
  6
Continuous
 62
     7
100
AcDbPolyline
 90
        2
 70
     0
 43
0.5
 10
37.11099999999999
 20
20.995
 10
38.727
 20
23.55900000000001
  0
LWPOLYLINE
  5
8D
330
43
100
AcDbEntity
  8
1
  6
Continuous
 62
     7
100
AcDbPolyline
 90
        2
 70
     0
 43
0.5
 10
38.727
 20
23.55900000000001
 10
38.727
 20
26.159
  0
LWPOLYLINE
  5
8E
330
43
100
AcDbEntity
  8
1
  6
Continuous
 62
     7
100
AcDbPolyline
 90
        2
 70
     0
 43
0.5
 10
38.727
 20
26.159
 10
37.11099999999999
 20
24.24099999999999
  0
LWPOLYLINE
  5
8F
330
43
100
AcDbEntity
  8
1
  6
Continuous
 62
     7
100
AcDbPolyline
 90
        2
 70
     0
 43
0.5
 10
37.11099999999999
 20
24.24099999999999
 10
25.60699999999999
 20
24.24099999999999
  0
LWPOLYLINE
  5
90
330
43
100
AcDbEntity
  8
1
  6
Continuous
 62
     7
100
AcDbPolyline
 90
        2
 70
     0
 43
0.5
 10
38.727
 20
23.55900000000001
 10
25.60699999999999
 20
23.55900000000001
  0
LWPOLYLINE
  5
91
330
43
100
AcDbEntity
  8
1
  6
Continuous
 62
     7
100
AcDbPolyline
 90
        2
 70
     0
 43
0.5
 10
28.50699999999999
 20
67.17099999999999
 10
37.11000000000001
 20
67.173
  0
LWPOLYLINE
  5
92
330
43
100
AcDbEntity
  8
1
  6
Continuous
 62
     7
100
AcDbPolyline
 90
        2
 70
     0
 43
0.5
 10
37.11000000000001
 20
67.173
 10
38.727
 20
64.607
  0
LWPOLYLINE
  5
93
330
43
100
AcDbEntity
  8
1
  6
Continuous
 62
     7
100
AcDbPolyline
 90
        2
 70
     0
 43
0.5
 10
38.727
 20
64.607
 10
38.727
 20
62.00700000000001
  0
LWPOLYLINE
  5
94
330
43
100
AcDbEntity
  8
1
  6
Continuous
 62
     7
100
AcDbPolyline
 90
        2
 70
     0
 43
0.5
 10
38.727
 20
62.00700000000001
 10
37.11000000000001
 20
63.925
  0
LWPOLYLINE
  5
95
330
43
100
AcDbEntity
  8
1
  6
Continuous
 62
     7
100
AcDbPolyline
 90
        2
 70
     0
 43
0.5
 10
37.11000000000001
 20
63.925
 10
28.50699999999999
 20
63.925
  0
LWPOLYLINE
  5
96
330
43
100
AcDbEntity
  8
1
  6
Continuous
 62
     7
100
AcDbPolyline
 90
        2
 70
     0
 43
0.5
 10
38.727
 20
64.607
 10
28.50699999999999
 20
64.607
  0
LWPOLYLINE
  5
97
330
43
100
AcDbEntity
  8
1
  6
Continuous
 62
     7
100
AcDbPolyline
 90
        2
 70
     0
 43
0.5
 10
36.38800000000001
 20
19.08300000000001
 42
0.26804957855811
 10
37.471
 20
19.70800000000001
 42
0.26804957855811
  0
LWPOLYLINE
  5
98
330
43
100
AcDbEntity
  8
1
  6
Continuous
 62
     7
100
AcDbPolyline
 90
        2
 70
     0
 43
0.5
 10
26.407
 20
46.682
 42
1.00000002293367
 10
26.407
 20
41.484
 42
1.00000002293367
  0
LWPOLYLINE
  5
99
330
43
100
AcDbEntity
  8
1
  6
Continuous
 62
     7
100
AcDbPolyline
 90
        2
 70
     0
 43
0.5
 10
26.407
 20
47.327
 42
1.0000000183738
 10
26.407
 20
40.839
 42
1.0000000183738
  0
LWPOLYLINE
  5
9A
330
43
100
AcDbEntity
  8
1
  6
Continuous
 62
     7
100
AcDbPolyline
 90
        2
 70
     0
 43
0.5
 10
37.471
 20
68.458
 42
0.26804957855811
 10
36.38800000000001
 20
69.083
 42
0.26804957855811
  0
LWPOLYLINE
  5
9B
330
43
100
AcDbEntity
  8
1
  6
Continuous
 62
     7
100
AcDbPolyline
 90
        2
 70
     0
 43
0.5
 10
19.75699999999999
 20
69.083
 42
0.4142135623731
 10
18.50699999999999
 20
67.833
 42
0.4142135623731
  0
LWPOLYLINE
  5
9C
330
43
100
AcDbEntity
  8
1
  6
Continuous
 62
     7
100
AcDbPolyline
 90
        2
 70
     0
 43
0.5
 10
18.50699999999999
 20
20.33300000000001
 42
0.4142135623731
 10
19.75699999999999
 20
19.08300000000001
 42
0.4142135623731
  0
LWPOLYLINE
  5
9D
330
43
100
AcDbEntity
  8
1
  6
Continuous
 62
     7
100
AcDbPolyline
 90
        2
 70
     0
 43
0.5
 10
24.37219501776698
 20
24.11819703896104
 42
0.17820748764281
 10
25.60699999999999
 20
23.55900000000001
 42
0.17820748764281
  0
LWPOLYLINE
  5
9E
330
43
100
AcDbEntity
  8
1
  6
Continuous
 62
     7
100
AcDbPolyline
 90
        2
 70
     0
 43
0.5
 10
28.50699999999999
 20
64.607
 42
0.17820748764281
 10
27.27219501776699
 20
64.04780296103897
 42
0.17820748764281
  0
LEADER
  5
9F
330
43
100
AcDbEntity
  8
1
  6
Continuous
 62
     7
100
AcDbLeader
  3
Standard
 71
     0
 76
     2
 10
37.11099999999999
 20
20.995
 30
0.0
 10
37.11099999999999
 20
20.10600000000001
 30
0.0
  0
LEADER
  5
A0
330
43
100
AcDbEntity
  8
1
  6
Continuous
 62
     7
100
AcDbLeader
  3
Standard
 71
     0
 76
     2
 10
37.11099999999999
 20
40.839
 30
0.0
 10
37.11099999999999
 20
24.24099999999999
 30
0.0
  0
LEADER
  5
A1
330
43
100
AcDbEntity
  8
1
  6
Continuous
 62
     7
100
AcDbLeader
  3
Standard
 71
     0
 76
     2
 10
37.11000000000001
 20
63.925
 30
0.0
 10
37.11000000000001
 20
47.32900000000001
 30
0.0
  0
LEADER
  5
A2
330
43
100
AcDbEntity
  8
1
  6
Continuous
 62
     7
100
AcDbLeader
  3
Standard
 71
     0
 76
     2
 10
37.11000000000001
 20
68.28800000000001
 30
0.0
 10
37.11000000000001
 20
67.173
 30
0.0
  0
LEADER
  5
A3
330
43
100
AcDbEntity
  8
1
  6
Continuous
 62
     7
100
AcDbLeader
  3
Standard
 71
     0
 76
     1
 10
25.60699999999999
 20
22.618
 30
0.0
  0
LEADER
  5
A4
330
43
100
AcDbEntity
  8
1
  6
Continuous
 62
     7
100
AcDbLeader
  3
Standard
 71
     0
 76
    61
 10
25.60699999999999
 20
24.24099999999999
 30
0.0
 10
25.43743301889408
 20
24.23874212950042
 30
0.0
 10
25.26832926428548
 20
24.23207560753848
 30
0.0
 10
25.10015378290458
 20
24.22098501518662
 30
0.0
 10
24.93336753219589
 20
24.20550075099681
 30
0.0
 10
24.76842766181819
 20
24.18566525627376
 30
0.0
 10
24.60578626062859
 20
24.16153289874627
 30
0.0
 10
24.44588911753799
 20
24.13316982354896
 30
0.0
 10
24.28917449963419
 20
24.10065377192307
 30
0.0
 10
24.13607195092229
 20
24.06407386813297
 30
0.0
 10
23.9870011149735
 20
24.02353037518277
 30
0.0
 10
23.84237058471149
 20
23.9791344200022
 30
0.0
 10
23.70257678248669
 20
23.93100768885542
 30
0.0
 10
23.56800287351059
 20
23.87928209380731
 30
0.0
 10
23.43901771562538
 20
23.82409941116152
 30
0.0
 10
23.31597484829049
 20
23.76561089286135
 30
0.0
 10
23.19921152355499
 20
23.70397685191868
 30
0.0
 10
23.08904778167309
 20
23.63936622300682
 30
0.0
 10
22.98578557389548
 20
23.57195609942239
 30
0.0
 10
22.88970793484189
 20
23.50193124768455
 30
0.0
 10
22.80107820672269
 20
23.42948360110281
 30
0.0
 10
22.7201393175358
 20
23.35481173370093
 30
0.0
 10
22.64711311521769
 20
23.27812031593923
 30
0.0
 10
22.58219975957378
 20
23.1996195537268
 30
0.0
 10
22.52557717365379
 20
23.11952461226166
 30
0.0
 10
22.47740055607699
 20
23.03805502627767
 30
0.0
 10
22.43780195564369
 20
22.95543409831489
 30
0.0
 10
22.40688990939799
 20
22.87188828666269
 30
0.0
 10
22.38474914513569
 20
22.78764658465311
 30
0.0
 10
22.3714403491712
 20
22.70293989300586
 30
0.0
 10
22.36700000000009
 20
22.61800038694532
 30
0.0
 10
22.37144026831459
 20
22.53306087982418
 30
0.0
 10
22.38474898364419
 20
22.44835418499807
 30
0.0
 10
22.4068896677142
 20
22.36411247770007
 30
0.0
 10
22.43780163442999
 20
22.28056665866438
 30
0.0
 10
22.47740015621389
 20
22.19794572124328
 30
0.0
 10
22.5255766962372
 20
22.11647612375206
 30
0.0
 10
22.58219920591229
 20
22.03638116876234
 30
0.0
 10
22.64711248682879
 20
21.95788039104502
 30
0.0
 10
22.7201386161419
 20
21.88118895584065
 30
0.0
 10
22.8010774342464
 20
21.80651706910611
 30
0.0
 10
22.88970709340049
 20
21.73406940135472
 30
0.0
 10
22.98578466579519
 20
21.66404452666826
 30
0.0
 10
23.08904680940299
 20
21.5966343784191
 30
0.0
 10
23.19921048977999
 20
21.53202372319409
 30
0.0
 10
23.31597375584408
 20
21.47038965436191
 30
0.0
 10
23.4390165675019
 20
21.41190110667233
 30
0.0
 10
23.56800167285699
 20
21.35671839321777
 30
0.0
 10
23.70257553259388
 20
21.30499276602599
 30
0.0
 10
23.84236928900519
 20
21.25686600148876
 30
0.0
 10
23.98699977700539
 20
21.21247001176246
 30
0.0
 10
24.13607057435949
 20
21.17192648320592
 30
0.0
 10
24.2891730882499
 20
21.1353465428465
 30
0.0
 10
24.4458876752006
 20
21.10283045378851
 30
0.0
 10
24.60578479129148
 20
21.07446734039895
 30
0.0
 10
24.76842616950879
 20
21.05033494402374
 30
0.0
 10
24.93336602100439
 20
21.03049940990395
 30
0.0
 10
25.10015225697309
 20
21.01501510587638
 30
0.0
 10
25.26832772779649
 20
21.00392447335495
 30
0.0
 10
25.43743147605899
 20
20.99725791100172
 30
0.0
 10
25.60699999999999
 20
20.995
 30
0.0
  0
LEADER
  5
A5
330
43
100
AcDbEntity
  8
1
  6
Continuous
 62
     7
100
AcDbLeader
  3
Standard
 71
     0
 76
     1
 10
28.50699999999999
 20
65.548
 30
0.0
  0
LEADER
  5
A6
330
43
100
AcDbEntity
  8
1
  6
Continuous
 62
     7
100
AcDbLeader
  3
Standard
 71
     0
 76
    61
 10
28.50699999999999
 20
63.925
 30
0.0
 10
28.33743301889409
 20
63.9272578704996
 30
0.0
 10
28.16832926428549
 20
63.93392439246152
 30
0.0
 10
28.00015378290459
 20
63.94501498481337
 30
0.0
 10
27.83336753219589
 20
63.96049924900319
 30
0.0
 10
27.66842766181819
 20
63.98033474372623
 30
0.0
 10
27.5057862606286
 20
64.00446710125374
 30
0.0
 10
27.34588911753799
 20
64.03283017645104
 30
0.0
 10
27.18917449963419
 20
64.06534622807693
 30
0.0
 10
27.03607195092229
 20
64.10192613186703
 30
0.0
 10
26.88700111497349
 20
64.14246962481724
 30
0.0
 10
26.7423705847115
 20
64.18686557999781
 30
0.0
 10
26.60257678248669
 20
64.23499231114457
 30
0.0
 10
26.46800287351059
 20
64.28671790619268
 30
0.0
 10
26.33901771562539
 20
64.3419005888385
 30
0.0
 10
26.21597484829049
 20
64.40038910713866
 30
0.0
 10
26.09921152355499
 20
64.46202314808133
 30
0.0
 10
25.98904778167309
 20
64.52663377699318
 30
0.0
 10
25.88578557389549
 20
64.59404390057762
 30
0.0
 10
25.78970793484189
 20
64.66406875231546
 30
0.0
 10
25.70107820672268
 20
64.73651639889721
 30
0.0
 10
25.62013931753579
 20
64.81118826629907
 30
0.0
 10
25.54711311521768
 20
64.88787968406078
 30
0.0
 10
25.48219975957379
 20
64.9663804462732
 30
0.0
 10
25.42557717365379
 20
65.04647538773833
 30
0.0
 10
25.37740055607699
 20
65.12794497372232
 30
0.0
 10
25.33780195564368
 20
65.21056590168511
 30
0.0
 10
25.306889909398
 20
65.29411171333732
 30
0.0
 10
25.28474914513569
 20
65.37835341534691
 30
0.0
 10
25.27144034917119
 20
65.46306010699415
 30
0.0
 10
25.2670000000001
 20
65.54799961305469
 30
0.0
 10
25.27144026831459
 20
65.63293912017582
 30
0.0
 10
25.28474898364419
 20
65.71764581500193
 30
0.0
 10
25.30688966771419
 20
65.80188752229992
 30
0.0
 10
25.33780163442999
 20
65.88543334133564
 30
0.0
 10
25.3774001562139
 20
65.96805427875674
 30
0.0
 10
25.42557669623719
 20
66.04952387624795
 30
0.0
 10
25.4821992059123
 20
66.12961883123768
 30
0.0
 10
25.54711248682879
 20
66.20811960895497
 30
0.0
 10
25.62013861614199
 20
66.28481104415935
 30
0.0
 10
25.70107743424639
 20
66.35948293089388
 30
0.0
 10
25.78970709340049
 20
66.43193059864527
 30
0.0
 10
25.88578466579519
 20
66.50195547333175
 30
0.0
 10
25.98904680940299
 20
66.56936562158089
 30
0.0
 10
26.09921048977999
 20
66.6339762768059
 30
0.0
 10
26.21597375584409
 20
66.6956103456381
 30
0.0
 10
26.33901656750189
 20
66.75409889332768
 30
0.0
 10
26.46800167285699
 20
66.80928160678224
 30
0.0
 10
26.60257553259389
 20
66.86100723397402
 30
0.0
 10
26.74236928900518
 20
66.90913399851124
 30
0.0
 10
26.88699977700539
 20
66.95352998823755
 30
0.0
 10
27.03607057435949
 20
66.99407351679409
 30
0.0
 10
27.18917308824989
 20
67.0306534571535
 30
0.0
 10
27.34588767520059
 20
67.0631695462115
 30
0.0
 10
27.50578479129149
 20
67.09153265960104
 30
0.0
 10
27.66842616950879
 20
67.11566505597625
 30
0.0
 10
27.83336602100439
 20
67.13550059009606
 30
0.0
 10
28.0001522569731
 20
67.15098489412362
 30
0.0
 10
28.1683277277965
 20
67.16207552664505
 30
0.0
 10
28.337431476059
 20
67.16874208899827
 30
0.0
 10
28.50699999999999
 20
67.17099999999999
 30
0.0
  0
ENDBLK
  5
45
330
43
100
AcDbEntity
  8
0
100
AcDbBlockEnd
  0
BLOCK
  5
6A
330
46
100
AcDbEntity
  8
0
100
AcDbBlockBegin
  2
83-912-32
 70
     0
 10
41.00700000000001
 20
44.083
 30
0.0
  3
83-912-32
  1

  0
INSERT
  5
69
330
46
100
AcDbEntity
  8
1
100
AcDbBlockReference
  2
IGS24
 10
15.94399999999999
 20
44.083
 30
0.0
  0
ENDBLK
  5
6B
330
46
100
AcDbEntity
  8
0
100
AcDbBlockEnd
  0
BLOCK
  5
6D
330
6C
100
AcDbEntity
  8
0
100
AcDbBlockBegin
  2
A80_Aussen
 70
     0
 10
-58.993
 20
44.083
 30
0.0
  3
A80_Aussen
  1

  0
LWPOLYLINE
  5
A7
330
6C
100
AcDbEntity
  8
1
  6
DASHED
 62
     7
100
AcDbPolyline
 90
        2
 70
     0
 43
0.35
 10
-5.996
 20
55.83299999999999
 10
-2.23632131938554
 20
55.833
  0
LWPOLYLINE
  5
A8
330
6C
100
AcDbEntity
  8
1
  6
DASHED
 62
     7
100
AcDbPolyline
 90
        2
 70
     0
 43
0.35
 10
-2.23632131938554
 20
55.833
 10
28.00400000000001
 20
60.08299999989497
  0
LWPOLYLINE
  5
A9
330
6C
100
AcDbEntity
  8
1
  6
DASHED
 62
     7
100
AcDbPolyline
 90
        2
 70
     0
 43
0.35
 10
-5.996
 20
32.33299999999994
 10
-5.996
 20
55.83299999999999
  0
LWPOLYLINE
  5
AA
330
6C
100
AcDbEntity
  8
1
  6
DASHED
 62
     7
100
AcDbPolyline
 90
        2
 70
     0
 43
0.35
 10
-2.23632131938554
 20
55.833
 10
-2.23632131938557
 20
32.33299999999993
  0
LWPOLYLINE
  5
AB
330
6C
100
AcDbEntity
  8
1
  6
DASHED
 62
     7
100
AcDbPolyline
 90
        2
 70
     0
 43
0.35
 10
-2.23632131938557
 20
32.33299999999993
 10
-5.996
 20
32.33299999999994
  0
LWPOLYLINE
  5
AC
330
6C
100
AcDbEntity
  8
1
  6
DASHED
 62
     7
100
AcDbPolyline
 90
        2
 70
     0
 43
0.35
 10
28.004
 20
28.083000000105
 10
-2.23632131938557
 20
32.33299999999993
  0
LWPOLYLINE
  5
AD
330
6C
100
AcDbEntity
  8
1
  6
DOT_CENTER
 62
     7
100
AcDbPolyline
 90
        2
 70
     0
 43
0.25
 10
-85.993
 20
15.03300000000004
 10
-85.993
 20
12.63400000000004
  0
LWPOLYLINE
  5
AE
330
6C
100
AcDbEntity
  8
1
  6
DOT_CENTER
 62
     7
100
AcDbPolyline
 90
        2
 70
     0
 43
0.25
 10
-66.993
 20
14.083
 10
-66.993
 20
11.66900000000001
  0
LWPOLYLINE
  5
AF
330
6C
100
AcDbEntity
  8
1
  6
DOT_CENTER
 62
     7
100
AcDbPolyline
 90
        2
 70
     0
 43
0.25
 10
-66.993
 20
74.083
 10
-66.993
 20
14.083
  0
LWPOLYLINE
  5
B0
330
6C
100
AcDbEntity
  8
1
  6
DOT_CENTER
 62
     7
100
AcDbPolyline
 90
        2
 70
     0
 43
0.25
 10
-85.993
 20
73.13300000000001
 10
-85.993
 20
15.03300000000004
  0
LWPOLYLINE
  5
B1
330
6C
100
AcDbEntity
  8
1
  6
Continuous
 62
     7
100
AcDbPolyline
 90
        2
 70
     0
 43
0.5
 10
-37.47099999999995
 20
84.083
 10
-39.118
 20
81.23100000000002
  0
LWPOLYLINE
  5
B2
330
6C
100
AcDbEntity
  8
1
  6
Continuous
 62
     7
100
AcDbPolyline
 90
        2
 70
     0
 43
0.5
 10
-39.118
 20
80.083
 10
-39.118
 20
81.23100000000002
  0
LWPOLYLINE
  5
B3
330
6C
100
AcDbEntity
  8
1
  6
Continuous
 62
     7
100
AcDbPolyline
 90
        2
 70
     0
 43
0.5
 10
-41.868
 20
79.083
 10
-40.118
 20
79.083
  0
LWPOLYLINE
  5
B4
330
6C
100
AcDbEntity
  8
1
  6
Continuous
 62
     7
100
AcDbPolyline
 90
        2
 70
     0
 43
0.5
 10
-44.51499999999993
 20
84.083
 10
-42.868
 20
81.22999999999999
  0
LWPOLYLINE
  5
B5
330
6C
100
AcDbEntity
  8
1
  6
Continuous
 62
     7
100
AcDbPolyline
 90
        2
 70
     0
 43
0.5
 10
-42.868
 20
80.083
 10
-42.868
 20
81.22999999999999
  0
LWPOLYLINE
  5
B6
330
6C
100
AcDbEntity
  8
1
  6
Continuous
 62
     7
100
AcDbPolyline
 90
        2
 70
     0
 43
0.5
 10
-37.47099999999995
 20
4.083
 10
-39.118
 20
6.93500000000003
  0
LWPOLYLINE
  5
B7
330
6C
100
AcDbEntity
  8
1
  6
Continuous
 62
     7
100
AcDbPolyline
 90
        2
 70
     0
 43
0.5
 10
-39.118
 20
8.083
 10
-39.118
 20
6.93500000000003
  0
LWPOLYLINE
  5
B8
330
6C
100
AcDbEntity
  8
1
  6
Continuous
 62
     7
100
AcDbPolyline
 90
        2
 70
     0
 43
0.5
 10
-41.868
 20
9.083
 10
-40.118
 20
9.083
  0
LWPOLYLINE
  5
B9
330
6C
100
AcDbEntity
  8
1
  6
Continuous
 62
     7
100
AcDbPolyline
 90
        2
 70
     0
 43
0.5
 10
-44.51499999999993
 20
4.083
 10
-42.868
 20
6.93600000000001
  0
LWPOLYLINE
  5
BA
330
6C
100
AcDbEntity
  8
1
  6
Continuous
 62
     7
100
AcDbPolyline
 90
        2
 70
     0
 43
0.5
 10
-42.868
 20
8.083
 10
-42.868
 20
6.93600000000001
  0
LWPOLYLINE
  5
BB
330
6C
100
AcDbEntity
  8
1
  6
DOT_CENTER
 62
     7
100
AcDbPolyline
 90
        2
 70
     0
 43
0.25
 10
-45.993
 20
44.083
 10
-45.993
 20
55.083
  0
LWPOLYLINE
  5
BC
330
6C
100
AcDbEntity
  8
1
  6
DOT_CENTER
 62
     7
100
AcDbPolyline
 90
        2
 70
     0
 43
0.25
 10
-45.993
 20
33.083
 10
-45.993
 20
44.083
  0
LWPOLYLINE
  5
BD
330
6C
100
AcDbEntity
  8
1
  6
Continuous
 62
     7
100
AcDbPolyline
 90
        2
 70
     0
 43
0.5
 10
-61.08099999999995
 20
74.28300000000004
 10
-59.88999999999993
 20
74.28300000000004
  0
LWPOLYLINE
  5
BE
330
6C
100
AcDbEntity
  8
1
  6
Continuous
 62
     7
100
AcDbPolyline
 90
        2
 70
     0
 43
0.5
 10
-61.493
 20
74.35800000000003
 10
-61.33999999999998
 20
74.31700000000004
  0
LWPOLYLINE
  5
BF
330
6C
100
AcDbEntity
  8
1
  6
Continuous
 62
     7
100
AcDbPolyline
 90
        2
 70
     0
 43
0.5
 10
-58.993
 20
76.083
 10
-58.89999999999991
 20
75.422
  0
LWPOLYLINE
  5
C0
330
6C
100
AcDbEntity
  8
1
  6
Continuous
 62
     7
100
AcDbPolyline
 90
        2
 70
     0
 43
0.5
 10
-61.08099999999995
 20
13.88300000000001
 10
-59.88999999999993
 20
13.88300000000001
  0
LWPOLYLINE
  5
C1
330
6C
100
AcDbEntity
  8
1
  6
Continuous
 62
     7
100
AcDbPolyline
 90
        2
 70
     0
 43
0.5
 10
-61.493
 20
13.80800000000002
 10
-61.33999999999998
 20
13.84900000000002
  0
LWPOLYLINE
  5
C2
330
6C
100
AcDbEntity
  8
1
  6
Continuous
 62
     7
100
AcDbPolyline
 90
        2
 70
     0
 43
0.5
 10
-58.993
 20
12.083
 10
-58.89999999999991
 20
12.744
  0
LWPOLYLINE
  5
C3
330
6C
100
AcDbEntity
  8
1
  6
DOT_CENTER
 62
     7
100
AcDbPolyline
 90
        2
 70
     0
 43
0.25
 10
-70.993
 20
44.083
 10
-70.993
 20
50.333
  0
LWPOLYLINE
  5
C4
330
6C
100
AcDbEntity
  8
1
  6
DOT_CENTER
 62
     7
100
AcDbPolyline
 90
        2
 70
     0
 43
0.25
 10
-70.993
 20
37.833
 10
-70.993
 20
44.083
  0
LWPOLYLINE
  5
C5
330
6C
100
AcDbEntity
  8
1
  6
Continuous
 62
     7
100
AcDbPolyline
 90
        2
 70
     0
 43
0.5
 10
-42.868
 20
52.39000000000002
 10
-39.118
 20
52.39000000000002
  0
LWPOLYLINE
  5
C6
330
6C
100
AcDbEntity
  8
1
  6
Continuous
 62
     7
100
AcDbPolyline
 90
        2
 70
     0
 43
0.5
 10
-39.118
 20
35.77600000000004
 10
-42.868
 20
35.77600000000004
  0
LWPOLYLINE
  5
C7
330
6C
100
AcDbEntity
  8
1
  6
Continuous
 62
     7
100
AcDbPolyline
 90
        2
 70
     0
 43
0.5
 10
-97.493
 20
32.32900000000004
 10
-92.118
 20
31.65400000000003
  0
LWPOLYLINE
  5
C8
330
6C
100
AcDbEntity
  8
1
  6
Continuous
 62
     7
100
AcDbPolyline
 90
        2
 70
     0
 43
0.5
 10
-97.493
 20
55.83700000000002
 10
-92.118
 20
56.51200000000003
  0
LWPOLYLINE
  5
C9
330
6C
100
AcDbEntity
  8
1
  6
Continuous
 62
     7
100
AcDbPolyline
 90
        2
 70
     0
 43
0.5
 10
-97.493
 20
52.10300000000004
 10
-97.493
 20
55.83700000000002
  0
LWPOLYLINE
  5
CA
330
6C
100
AcDbEntity
  8
1
  6
Continuous
 62
     7
100
AcDbPolyline
 90
        2
 70
     0
 43
0.5
 10
-97.493
 20
55.83700000000002
 10
-98.993
 20
57.33700000000002
  0
LWPOLYLINE
  5
CB
330
6C
100
AcDbEntity
  8
1
  6
Continuous
 62
     7
100
AcDbPolyline
 90
        2
 70
     0
 43
0.5
 10
-90.993
 20
38.06300000000002
 10
-90.993
 20
32.64600000000004
  0
LWPOLYLINE
  5
CC
330
6C
100
AcDbEntity
  8
1
  6
Continuous
 62
     7
100
AcDbPolyline
 90
        2
 70
     0
 43
0.5
 10
-90.993
 20
50.10300000000004
 10
-90.993
 20
55.52000000000001
  0
LWPOLYLINE
  5
CD
330
6C
100
AcDbEntity
  8
1
  6
Continuous
 62
     7
100
AcDbPolyline
 90
        2
 70
     0
 43
0.5
 10
-97.493
 20
36.06300000000002
 10
-97.493
 20
32.32900000000004
  0
LWPOLYLINE
  5
CE
330
6C
100
AcDbEntity
  8
1
  6
Continuous
 62
     7
100
AcDbPolyline
 90
        2
 70
     0
 43
0.5
 10
-97.493
 20
32.32900000000004
 10
-98.993
 20
30.82900000000004
  0
LWPOLYLINE
  5
CF
330
6C
100
AcDbEntity
  8
1
  6
Continuous
 62
     7
100
AcDbPolyline
 90
        2
 70
     0
 43
0.5
 10
-39.118
 20
35.083
 10
-32.993
 20
35.083
  0
LWPOLYLINE
  5
D0
330
6C
100
AcDbEntity
  8
1
  6
Continuous
 62
     7
100
AcDbPolyline
 90
        2
 70
     0
 43
0.5
 10
-45.993
 20
35.083
 10
-42.868
 20
35.083
  0
LWPOLYLINE
  5
D1
330
6C
100
AcDbEntity
  8
1
  6
Continuous
 62
     7
100
AcDbPolyline
 90
        2
 70
     0
 43
0.5
 10
-39.118
 20
53.083
 10
-32.993
 20
53.083
  0
LWPOLYLINE
  5
D2
330
6C
100
AcDbEntity
  8
1
  6
Continuous
 62
     7
100
AcDbPolyline
 90
        2
 70
     0
 43
0.5
 10
-45.993
 20
53.083
 10
-42.868
 20
53.083
  0
LWPOLYLINE
  5
D3
330
6C
100
AcDbEntity
  8
1
  6
Continuous
 62
     7
100
AcDbPolyline
 90
        2
 70
     0
 43
0.5
 10
-97.493
 20
52.10300000000004
 10
-92.993
 20
52.10300000000004
  0
LWPOLYLINE
  5
D4
330
6C
100
AcDbEntity
  8
1
  6
Continuous
 62
     7
100
AcDbPolyline
 90
        2
 70
     0
 43
0.5
 10
-97.493
 20
52.10300000000004
 10
-98.993
 20
53.60300000000004
  0
LWPOLYLINE
  5
D5
330
6C
100
AcDbEntity
  8
1
  6
Continuous
 62
     7
100
AcDbPolyline
 90
        2
 70
     0
 43
0.5
 10
-58.993
 20
83.583
 10
-58.993
 20
4.583
  0
LWPOLYLINE
  5
D6
330
6C
100
AcDbEntity
  8
1
  6
Continuous
 62
     7
100
AcDbPolyline
 90
        2
 70
     0
 43
0.5
 10
-32.993
 20
84.083
 10
-32.993
 20
4.083
  0
LWPOLYLINE
  5
D7
330
6C
100
AcDbEntity
  8
1
  6
DOT_CENTER
 62
     7
100
AcDbPolyline
 90
        2
 70
     0
 43
0.25
 10
-66.993
 20
77.01700000000002
 10
-66.993
 20
74.083
  0
LWPOLYLINE
  5
D8
330
6C
100
AcDbEntity
  8
1
  6
DOT_CENTER
 62
     7
100
AcDbPolyline
 90
        2
 70
     0
 43
0.25
 10
-85.993
 20
75.77400000000003
 10
-85.993
 20
73.13300000000001
  0
LWPOLYLINE
  5
D9
330
6C
100
AcDbEntity
  8
1
  6
Continuous
 62
     7
100
AcDbPolyline
 90
        2
 70
     0
 43
0.5
 10
-39.118
 20
35.77600000000004
 10
-39.118
 20
8.083
  0
LWPOLYLINE
  5
DA
330
6C
100
AcDbEntity
  8
1
  6
Continuous
 62
     7
100
AcDbPolyline
 90
        2
 70
     0
 43
0.5
 10
-39.118
 20
80.083
 10
-39.118
 20
52.39000000000002
  0
LWPOLYLINE
  5
DB
330
6C
100
AcDbEntity
  8
1
  6
DOT_CENTER
 62
     7
100
AcDbPolyline
 90
        2
 70
     0
 43
0.25
 10
-40.993
 20
84.083
 10
-40.993
 20
4.083
  0
LWPOLYLINE
  5
DC
330
6C
100
AcDbEntity
  8
1
  6
Continuous
 62
     7
100
AcDbPolyline
 90
        2
 70
     0
 43
0.5
 10
-37.47099999999995
 20
4.083
 10
-32.993
 20
4.083
  0
LWPOLYLINE
  5
DD
330
6C
100
AcDbEntity
  8
1
  6
Continuous
 62
     7
100
AcDbPolyline
 90
        2
 70
     0
 43
0.5
 10
-58.493
 20
4.083
 10
-44.51499999999993
 20
4.083
  0
LWPOLYLINE
  5
DE
330
6C
100
AcDbEntity
  8
1
  6
Continuous
 62
     7
100
AcDbPolyline
 90
        2
 70
     0
 43
0.5
 10
-58.993
 20
4.583
 10
-58.493
 20
4.083
  0
LWPOLYLINE
  5
DF
330
6C
100
AcDbEntity
  8
1
  6
DOT_CENTER
 62
     7
100
AcDbPolyline
 90
        2
 70
     0
 43
0.25
 10
-61.493
 20
74.35800000000003
 10
-59.31199999999996
 20
74.46700000000001
  0
LWPOLYLINE
  5
E0
330
6C
100
AcDbEntity
  8
1
  6
Continuous
 62
     7
100
AcDbPolyline
 90
        2
 70
     0
 43
0.5
 10
-61.493
 20
74.35800000000003
 10
-97.47300000000001
 20
72.559
  0
LWPOLYLINE
  5
E1
330
6C
100
AcDbEntity
  8
1
  6
DOT_CENTER
 62
     7
100
AcDbPolyline
 90
        2
 70
     0
 43
0.25
 10
-61.493
 20
13.80800000000002
 10
-59.31199999999996
 20
13.69900000000004
  0
LWPOLYLINE
  5
E2
330
6C
100
AcDbEntity
  8
1
  6
Continuous
 62
     7
100
AcDbPolyline
 90
        2
 70
     0
 43
0.5
 10
-61.493
 20
13.80800000000002
 10
-97.47300000000001
 20
15.607
  0
LWPOLYLINE
  5
E3
330
6C
100
AcDbEntity
  8
1
  6
Continuous
 62
     7
100
AcDbPolyline
 90
        2
 70
     0
 43
0.5
 10
-42.868
 20
19.083
 10
-46.43099999999998
 20
19.083
  0
LWPOLYLINE
  5
E4
330
6C
100
AcDbEntity
  8
1
  6
Continuous
 62
     7
100
AcDbPolyline
 90
        2
 70
     0
 43
0.5
 10
-32.993
 20
19.083
 10
-39.118
 20
19.083
  0
LWPOLYLINE
  5
E5
330
6C
100
AcDbEntity
  8
1
  6
Continuous
 62
     7
100
AcDbPolyline
 90
        2
 70
     0
 43
0.5
 10
-44.51499999999993
 20
53.083
 10
-44.51499999999993
 20
84.083
  0
LWPOLYLINE
  5
E6
330
6C
100
AcDbEntity
  8
1
  6
Continuous
 62
     7
100
AcDbPolyline
 90
        2
 70
     0
 43
0.5
 10
-44.51499999999993
 20
19.083
 10
-44.51499999999993
 20
35.083
  0
LWPOLYLINE
  5
E7
330
6C
100
AcDbEntity
  8
1
  6
Continuous
 62
     7
100
AcDbPolyline
 90
        2
 70
     0
 43
0.5
 10
-44.51499999999993
 20
4.083
 10
-44.51499999999993
 20
12.85800000000003
  0
LWPOLYLINE
  5
E8
330
6C
100
AcDbEntity
  8
1
  6
Continuous
 62
     7
100
AcDbPolyline
 90
        2
 70
     0
 43
0.5
 10
-37.47099999999995
 20
53.083
 10
-37.47099999999995
 20
84.083
  0
LWPOLYLINE
  5
E9
330
6C
100
AcDbEntity
  8
1
  6
Continuous
 62
     7
100
AcDbPolyline
 90
        2
 70
     0
 43
0.5
 10
-37.47099999999995
 20
19.083
 10
-37.47099999999995
 20
35.083
  0
LWPOLYLINE
  5
EA
330
6C
100
AcDbEntity
  8
1
  6
Continuous
 62
     7
100
AcDbPolyline
 90
        2
 70
     0
 43
0.5
 10
-37.47099999999995
 20
4.083
 10
-37.47099999999995
 20
12.85800000000003
  0
LWPOLYLINE
  5
EB
330
6C
100
AcDbEntity
  8
1
  6
LONG_DASHED
 62
     7
100
AcDbPolyline
 90
        2
 70
     0
 43
0.35
 10
-54.993
 20
45.083
 10
-54.993
 20
43.083
  0
LWPOLYLINE
  5
EC
330
6C
100
AcDbEntity
  8
1
  6
Continuous
 62
     7
100
AcDbPolyline
 90
        2
 70
     0
 43
0.5
 10
-90.993
 20
50.10300000000004
 10
-90.993
 20
38.06300000000002
  0
LWPOLYLINE
  5
ED
330
6C
100
AcDbEntity
  8
1
  6
Continuous
 62
     7
100
AcDbPolyline
 90
        2
 70
     0
 43
0.5
 10
-97.493
 20
36.06300000000002
 10
-92.993
 20
36.06300000000002
  0
LWPOLYLINE
  5
EE
330
6C
100
AcDbEntity
  8
1
  6
Continuous
 62
     7
100
AcDbPolyline
 90
        2
 70
     0
 43
0.5
 10
-97.493
 20
36.06300000000002
 10
-98.993
 20
34.56300000000002
  0
LWPOLYLINE
  5
EF
330
6C
100
AcDbEntity
  8
1
  6
Continuous
 62
     7
100
AcDbPolyline
 90
        2
 70
     0
 43
0.5
 10
-42.868
 20
35.77600000000004
 10
-42.868
 20
8.083
  0
LWPOLYLINE
  5
F0
330
6C
100
AcDbEntity
  8
1
  6
Continuous
 62
     7
100
AcDbPolyline
 90
        2
 70
     0
 43
0.5
 10
-42.868
 20
80.083
 10
-42.868
 20
52.39000000000002
  0
LWPOLYLINE
  5
F1
330
6C
100
AcDbEntity
  8
1
  6
Continuous
 62
     7
100
AcDbPolyline
 90
        2
 70
     0
 43
0.5
 10
-37.47099999999995
 20
84.083
 10
-32.993
 20
84.083
  0
LWPOLYLINE
  5
F2
330
6C
100
AcDbEntity
  8
1
  6
Continuous
 62
     7
100
AcDbPolyline
 90
        2
 70
     0
 43
0.5
 10
-46.993
 20
84.083
 10
-44.51499999999993
 20
84.083
  0
LWPOLYLINE
  5
F3
330
6C
100
AcDbEntity
  8
1
  6
Continuous
 62
     7
100
AcDbPolyline
 90
        2
 70
     0
 43
0.5
 10
-58.493
 20
84.083
 10
-56.993
 20
84.083
  0
LWPOLYLINE
  5
F4
330
6C
100
AcDbEntity
  8
1
  6
Continuous
 62
     7
100
AcDbPolyline
 90
        2
 70
     0
 43
0.5
 10
-58.993
 20
83.583
 10
-58.493
 20
84.083
  0
LWPOLYLINE
  5
F5
330
6C
100
AcDbEntity
  8
1
  6
Continuous
 62
     7
100
AcDbPolyline
 90
        2
 70
     0
 43
0.5
 10
-44.51499999999993
 20
12.85800000000003
 10
-54.993
 20
12.85800000000003
  0
LWPOLYLINE
  5
F6
330
6C
100
AcDbEntity
  8
1
  6
Continuous
 62
     7
100
AcDbPolyline
 90
        2
 70
     0
 43
0.5
 10
-42.868
 20
16.60600000000002
 10
-44.51499999999993
 20
12.85800000000003
  0
LWPOLYLINE
  5
F7
330
6C
100
AcDbEntity
  8
1
  6
Continuous
 62
     7
100
AcDbPolyline
 90
        2
 70
     0
 43
0.5
 10
-37.47099999999995
 20
12.85800000000003
 10
-39.118
 20
16.60600000000002
  0
LWPOLYLINE
  5
F8
330
6C
100
AcDbEntity
  8
1
  6
Continuous
 62
     7
100
AcDbPolyline
 90
        2
 70
     0
 43
0.5
 10
-32.993
 20
12.85800000000003
 10
-37.47099999999995
 20
12.85800000000003
  0
LWPOLYLINE
  5
F9
330
6C
100
AcDbEntity
  8
1
  6
Continuous
 62
     7
100
AcDbPolyline
 90
        2
 70
     0
 43
0.5
 10
-98.993
 20
34.56300000000002
 10
-98.993
 20
17.20500000000001
  0
LWPOLYLINE
  5
FA
330
6C
100
AcDbEntity
  8
1
  6
Continuous
 62
     7
100
AcDbPolyline
 90
        2
 70
     0
 43
0.5
 10
-98.993
 20
70.96100000000004
 10
-98.993
 20
53.60300000000004
  0
LWPOLYLINE
  5
FB
330
6C
100
AcDbEntity
  8
1
  6
Continuous
 62
     7
100
AcDbPolyline
 90
        2
 70
     0
 43
0.5
 10
-61.493
 20
74.35800000000003
 10
-61.493
 20
13.80800000000002
  0
LWPOLYLINE
  5
FC
330
6C
100
AcDbEntity
  8
1
  6
Continuous
 62
     7
100
AcDbPolyline
 90
        2
 70
     0
 43
0.25
 10
-61.21299999999991
 20
14.34400000000002
 10
-61.21299999999991
 20
73.523
  0
LWPOLYLINE
  5
FD
330
6C
100
AcDbEntity
  8
1
  6
DOT_CENTER
 62
     7
100
AcDbPolyline
 90
        2
 70
     0
 43
0.25
 10
-102.602
 20
44.083
 10
43.38900000000001
 20
44.083
  0
LWPOLYLINE
  5
FE
330
6C
100
AcDbEntity
  8
1
  6
Continuous
 62
     7
100
AcDbPolyline
 90
        2
 70
     0
 43
0.5
 10
-23.493
 20
68.083
 10
4.261
 20
68.083
  0
LWPOLYLINE
  5
FF
330
6C
100
AcDbEntity
  8
1
  6
Continuous
 62
     7
100
AcDbPolyline
 90
        2
 70
     0
 43
0.5
 10
6.383
 20
67.204
 10
9.21100000000001
 20
64.376
  0
LWPOLYLINE
  5
100
330
6C
100
AcDbEntity
  8
1
  6
Continuous
 62
     7
100
AcDbPolyline
 90
        2
 70
     0
 43
0.5
 10
9.91800000000001
 20
64.083
 10
18.507
 20
64.083
  0
LWPOLYLINE
  5
101
330
6C
100
AcDbEntity
  8
1
  6
Continuous
 62
     7
100
AcDbPolyline
 90
        2
 70
     0
 43
0.5
 10
12.004
 20
64.083
 10
12.003
 20
63.163
  0
LWPOLYLINE
  5
102
330
6C
100
AcDbEntity
  8
1
  6
Continuous
 62
     7
100
AcDbPolyline
 90
        2
 70
     0
 43
0.25
 10
12.003
 20
63.163
 10
18.507
 20
63.163
  0
LWPOLYLINE
  5
103
330
6C
100
AcDbEntity
  8
1
  6
Continuous
 62
     7
100
AcDbPolyline
 90
        2
 70
     0
 43
0.25
 10
9.25680238853197
 20
62.9962968856805
 10
9.25680238853197
 20
24.6962968856805
  0
LWPOLYLINE
  5
104
330
6C
100
AcDbEntity
  8
1
  6
Continuous
 62
     7
100
AcDbPolyline
 90
        2
 70
     0
 43
0.25
 10
4.63723243029014
 20
66.01023243029012
 10
4.63723243029014
 20
21.91023243029012
  0
LWPOLYLINE
  5
105
330
6C
100
AcDbEntity
  8
1
  6
Continuous
 62
     7
100
AcDbPolyline
 90
        2
 70
     0
 43
0.25
 10
18.507
 20
25.003
 10
12.003
 20
25.003
  0
LWPOLYLINE
  5
106
330
6C
100
AcDbEntity
  8
1
  6
Continuous
 62
     7
100
AcDbPolyline
 90
        2
 70
     0
 43
0.5
 10
12.003
 20
25.003
 10
12.004
 20
24.083
  0
LWPOLYLINE
  5
107
330
6C
100
AcDbEntity
  8
1
  6
Continuous
 62
     7
100
AcDbPolyline
 90
        2
 70
     0
 43
0.5
 10
18.507
 20
24.083
 10
9.91800000000001
 20
24.083
  0
LWPOLYLINE
  5
108
330
6C
100
AcDbEntity
  8
1
  6
Continuous
 62
     7
100
AcDbPolyline
 90
        2
 70
     0
 43
0.5
 10
9.21100000000001
 20
23.78999999999999
 10
6.383
 20
20.962
  0
LWPOLYLINE
  5
109
330
6C
100
AcDbEntity
  8
1
  6
Continuous
 62
     7
100
AcDbPolyline
 90
        2
 70
     0
 43
0.5
 10
4.261
 20
20.083
 10
-23.493
 20
20.083
  0
LWPOLYLINE
  5
10A
330
6C
100
AcDbEntity
  8
1
  6
Continuous
 62
     7
100
AcDbPolyline
 90
        2
 70
     0
 43
0.5
 10
-40.118
 20
79.083
 42
0.4142135623731
 10
-39.118
 20
80.083
 42
0.4142135623731
  0
LWPOLYLINE
  5
10B
330
6C
100
AcDbEntity
  8
1
  6
Continuous
 62
     7
100
AcDbPolyline
 90
        2
 70
     0
 43
0.5
 10
-42.868
 20
80.083
 42
0.4142135623731
 10
-41.868
 20
79.083
 42
0.4142135623731
  0
LWPOLYLINE
  5
10C
330
6C
100
AcDbEntity
  8
1
  6
Continuous
 62
     7
100
AcDbPolyline
 90
        2
 70
     0
 43
0.5
 10
-39.118
 20
8.083
 42
0.4142135623731
 10
-40.118
 20
9.083
 42
0.4142135623731
  0
LWPOLYLINE
  5
10D
330
6C
100
AcDbEntity
  8
1
  6
Continuous
 62
     7
100
AcDbPolyline
 90
        2
 70
     0
 43
0.5
 10
-41.868
 20
9.083
 42
0.4142135623731
 10
-42.868
 20
8.083
 42
0.4142135623731
  0
LWPOLYLINE
  5
10E
330
6C
100
AcDbEntity
  8
1
  6
Continuous
 62
     7
100
AcDbPolyline
 90
        2
 70
     0
 43
0.5
 10
-45.993
 20
53.083
 42
1.0
 10
-45.993
 20
35.083
 42
1.0
  0
LWPOLYLINE
  5
10F
330
6C
100
AcDbEntity
  8
1
  6
Continuous
 62
     7
100
AcDbPolyline
 90
        2
 70
     0
 43
0.5
 10
-61.33999999999998
 20
74.31700000000004
 42
0.06558644904507
 10
-61.08099999999995
 20
74.28300000000004
 42
0.06558644904507
  0
LWPOLYLINE
  5
110
330
6C
100
AcDbEntity
  8
1
  6
Continuous
 62
     7
100
AcDbPolyline
 90
        2
 70
     0
 43
0.5
 10
-59.88999999999993
 20
74.28300000000004
 42
0.45558522582841
 10
-58.89999999999991
 20
75.422
 42
0.45558522582841
  0
LWPOLYLINE
  5
111
330
6C
100
AcDbEntity
  8
1
  6
Continuous
 62
     7
100
AcDbPolyline
 90
        2
 70
     0
 43
0.5
 10
-61.08099999999995
 20
13.88300000000001
 42
0.06558644904507
 10
-61.33999999999998
 20
13.84900000000002
 42
0.06558644904507
  0
LWPOLYLINE
  5
112
330
6C
100
AcDbEntity
  8
1
  6
Continuous
 62
     7
100
AcDbPolyline
 90
        2
 70
     0
 43
0.5
 10
-58.89999999999991
 20
12.744
 42
0.45558522582841
 10
-59.88999999999993
 20
13.88300000000001
 42
0.45558522582841
  0
LWPOLYLINE
  5
113
330
6C
100
AcDbEntity
  8
1
  6
Continuous
 62
     7
100
AcDbPolyline
 90
        2
 70
     0
 43
0.5
 10
-90.993
 20
55.52000000000001
 42
0.45136906418796
 10
-92.118
 20
56.51200000000003
 42
0.45136906418796
  0
LWPOLYLINE
  5
114
330
6C
100
AcDbEntity
  8
1
  6
Continuous
 62
     7
100
AcDbPolyline
 90
        2
 70
     0
 43
0.5
 10
-92.118
 20
31.65400000000003
 42
0.45136906418798
 10
-90.993
 20
32.64600000000004
 42
0.45136906418798
  0
LWPOLYLINE
  5
115
330
6C
100
AcDbEntity
  8
1
  6
Continuous
 62
     7
100
AcDbPolyline
 90
        2
 70
     0
 43
0.5
 10
-97.47300000000001
 20
72.559
 42
0.39963776093387
 10
-98.993
 20
70.96100000000004
 42
0.39963776093387
  0
LWPOLYLINE
  5
116
330
6C
100
AcDbEntity
  8
1
  6
Continuous
 62
     7
100
AcDbPolyline
 90
        2
 70
     0
 43
0.5
 10
-98.993
 20
17.20500000000001
 42
0.39963776093387
 10
-97.47300000000001
 20
15.607
 42
0.39963776093387
  0
LWPOLYLINE
  5
117
330
6C
100
AcDbEntity
  8
1
  6
Continuous
 62
     7
100
AcDbPolyline
 90
        2
 70
     0
 43
0.5
 10
-92.993
 20
36.06300000000002
 42
0.4142135623731
 10
-90.993
 20
38.06300000000002
 42
0.4142135623731
  0
LWPOLYLINE
  5
118
330
6C
100
AcDbEntity
  8
1
  6
Continuous
 62
     7
100
AcDbPolyline
 90
        2
 70
     0
 43
0.5
 10
-90.993
 20
50.10300000000004
 42
0.4142135623731
 10
-92.993
 20
52.10300000000004
 42
0.4142135623731
  0
LWPOLYLINE
  5
119
330
6C
100
AcDbEntity
  8
1
  6
Continuous
 62
     7
100
AcDbPolyline
 90
        2
 70
     0
 43
0.5
 10
-46.43099999999998
 20
19.083
 42
0.3251335591577
 10
-54.993
 20
12.85800000000003
 42
0.3251335591577
  0
LWPOLYLINE
  5
11A
330
6C
100
AcDbEntity
  8
1
  6
Continuous
 62
     7
100
AcDbPolyline
 90
        2
 70
     0
 43
0.5
 10
-32.993
 20
77.583
 42
0.4142135623731
 10
-23.493
 20
68.083
 42
0.4142135623731
  0
LWPOLYLINE
  5
11B
330
6C
100
AcDbEntity
  8
1
  6
Continuous
 62
     7
100
AcDbPolyline
 90
        2
 70
     0
 43
0.5
 10
6.383
 20
67.204
 42
0.1989827443705
 10
4.261
 20
68.083
 42
0.1989827443705
  0
LWPOLYLINE
  5
11C
330
6C
100
AcDbEntity
  8
1
  6
Continuous
 62
     7
100
AcDbPolyline
 90
        2
 70
     0
 43
0.5
 10
9.21100000000001
 20
64.376
 42
0.19889611464511
 10
9.91800000000001
 20
64.083
 42
0.19889611464511
  0
LWPOLYLINE
  5
11D
330
6C
100
AcDbEntity
  8
1
  6
Continuous
 62
     7
100
AcDbPolyline
 90
        2
 70
     0
 43
0.5
 10
9.91800000000001
 20
24.083
 42
0.19889611464511
 10
9.21100000000001
 20
23.78999999999999
 42
0.19889611464511
  0
LWPOLYLINE
  5
11E
330
6C
100
AcDbEntity
  8
1
  6
Continuous
 62
     7
100
AcDbPolyline
 90
        2
 70
     0
 43
0.5
 10
4.261
 20
20.083
 42
0.1989827443705
 10
6.383
 20
20.962
 42
0.1989827443705
  0
LWPOLYLINE
  5
11F
330
6C
100
AcDbEntity
  8
1
  6
Continuous
 62
     7
100
AcDbPolyline
 90
        2
 70
     0
 43
0.5
 10
-23.493
 20
20.083
 42
0.4142135623731
 10
-32.993
 20
10.583
 42
0.4142135623731
  0
LWPOLYLINE
  5
120
330
6C
100
AcDbEntity
  8
1
  6
Continuous
 62
     7
100
AcDbPolyline
 90
        2
 70
     1
 43
0.5
 10
-75.243
 20
44.083
 42
1.0
 10
-66.743
 20
44.083
 42
1.0
  0
LWPOLYLINE
  5
121
330
6C
100
AcDbEntity
  8
1
  6
Continuous
 62
     7
100
AcDbPolyline
 90
        2
 70
     1
 43
0.5
 10
-75.743
 20
44.083
 42
1.0
 10
-66.243
 20
44.083
 42
1.0
  0
LEADER
  5
122
330
6C
100
AcDbEntity
  8
1
  6
Continuous
 62
     7
100
AcDbLeader
  3
Standard
 71
     0
 76
     1
 10
-51.993
 20
84.083
 30
0.0
  0
LEADER
  5
123
330
6C
100
AcDbEntity
  8
1
  6
Continuous
 62
     7
100
AcDbLeader
  3
Standard
 71
     0
 76
    60
 10
-46.993
 20
84.083
 30
0.0
 10
-47.00008667754304
 20
84.06628667602709
 30
0.0
 10
-47.02132630499108
 20
84.04962091494289
 30
0.0
 10
-47.0566586763361
 20
84.03304977046591
 30
0.0
 10
-47.10598363817093
 20
84.0166202152877
 30
0.0
 10
-47.16916137358516
 20
84.00037882074983
 30
0.0
 10
-47.24601279849168
 20
83.98437162483222
 30
0.0
 10
-47.33632006925956
 20
83.96864400165364
 30
0.0
 10
-47.43982720021545
 20
83.95324053285364
 30
0.0
 10
-47.55624078926229
 20
83.93820488122171
 30
0.0
 10
-47.68523084955922
 20
83.92357966692973
 30
0.0
 10
-47.82643174490448
 20
83.90940634672094
 30
0.0
 10
-47.97944322617133
 20
83.89572509639592
 30
0.0
 10
-48.14383156585637
 20
83.8825746969305
 30
0.0
 10
-48.31913078752752
 20
83.86999242454672
 30
0.0
 10
-48.5048439866835
 20
83.8580139450489
 30
0.0
 10
-48.70044473928414
 20
83.8466732127259
 30
0.0
 10
-48.90537859395505
 20
83.83600237410351
 30
0.0
 10
-49.11906464364046
 20
83.82603167682143
 30
0.0
 10
-49.34089717224578
 20
83.81678938389373
 30
0.0
 10
-49.57024737160618
 20
83.8083016935939
 30
0.0
 10
-49.80646512390996
 20
83.80059266519342
 30
0.0
 10
-50.04888084452801
 20
83.79368415076212
 30
0.0
 10
-50.29680738002327
 20
83.78759573322762
 30
0.0
 10
-50.54954195596127
 20
83.78234467086409
 30
0.0
 10
-50.80636816899943
 20
83.77794584837304
 30
0.0
 10
-51.06655801760991
 20
83.77441173468972
 30
0.0
 10
-51.32937396567792
 20
83.77175234763953
 30
0.0
 10
-51.59407103312725
 20
83.76997522554123
 30
0.0
 10
-51.85989890764637
 20
83.76908540583864
 30
0.0
 10
-52.1261040715296
 20
83.7690854108213
 30
0.0
 10
-52.39193193760395
 20
83.76997524047513
 30
0.0
 10
-52.6566289881875
 20
83.77175237248233
 30
0.0
 10
-52.9194449110168
 20
83.77441176937091
 30
0.0
 10
-53.17963472608716
 20
83.7779458927944
 30
0.0
 10
-53.43646089737871
 20
83.78234472489984
 30
0.0
 10
-53.68919542348198
 20
83.78759579672422
 30
0.0
 10
-53.93712190119567
 20
83.79368422353994
 30
0.0
 10
-54.17953755624905
 20
83.8005927470459
 30
0.0
 10
-54.41575523539104
 20
83.80830178428934
 30
0.0
 10
-54.64510535419965
 20
83.81678948317474
 30
0.0
 10
-54.86693779509193
 20
83.82603178440664
 30
0.0
 10
-55.08062375015135
 20
83.83600248968801
 30
0.0
 10
-55.28555750355173
 20
83.8466733359821
 30
0.0
 10
-55.48115814852423
 20
83.85801407562744
 30
0.0
 10
-55.66687123399953
 20
83.86999256207733
 30
0.0
 10
-55.8421703362597
 20
83.8825748410234
 30
0.0
 10
-56.00655855114218
 20
83.89572524664263
 30
0.0
 10
-56.15956990256841
 20
83.90940650269553
 30
0.0
 10
-56.30077066340316
 20
83.92357982819024
 30
0.0
 10
-56.42976058490087
 20
83.9382050473109
 30
0.0
 10
-56.54617403125332
 20
83.95324070330079
 30
0.0
 10
-56.64968101602409
 20
83.96864417597553
 30
0.0
 10
-56.73998813753047
 20
83.9843718025347
 30
0.0
 10
-56.81683941052228
 20
84.00037900132932
 30
0.0
 10
-56.8800169917991
 20
84.01662039823222
 30
0.0
 10
-56.92934179771072
 20
84.03304995525693
 30
0.0
 10
-56.96467401178899
 20
84.04962110105654
 30
0.0
 10
-56.98591348107215
 20
84.06628686293581
 30
0.0
 10
-56.993
 20
84.083
 30
0.0
  0
ENDBLK
  5
6E
330
6C
100
AcDbEntity
  8
0
100
AcDbBlockEnd
  0
BLOCK
  5
70
330
6F
100
AcDbEntity
  8
0
100
AcDbBlockBegin
  2
Urheberrecht_DE-EN
 70
     0
 10
-108.9725283130681
 20
66.7156477049102
 30
0.0
  3
Urheberrecht_DE-EN
  1

  0
MTEXT
  5
125
330
6F
100
AcDbEntity
  8
1
 62
     1
100
AcDbMText
 10
-108.9725283130681
 20
66.7156477049102
 30
0.0
 40
2.0
 41
0.0
 71
     7
 72
     1
  1
We own the copyright of this document. It \Pdetermined and may neither be copied or \Pmade accessible to outsiders without our\Ppermission.
  7
CONVERTER_11
 11
0.0
 21
1.0
 31
0.0
 73
     1
 44
0.90036014405762
  0
MTEXT
  5
126
330
6F
100
AcDbEntity
  8
1
 62
     1
100
AcDbMText
 10
-108.9725283130681
 20
10.42626078760404
 30
0.0
 40
2.0
 41
0.0
 71
     7
 72
     1
  1
F\U+00fcr diese Unterlage behalten wir das Ur-\Pheberrecht. Sie darf nur f\U+00fcr den von uns \Pbestimmten Zweck benutzt und ohne unsere \PZustimmung weder vervielf\U+00e4ltigt noch\PDritten zug\U+00e4nglich gemacht werden.
  7
CONVERTER_11
 11
0.0
 21
1.0
 31
0.0
 73
     1
 44
0.90036014405762
  0
ENDBLK
  5
71
330
6F
100
AcDbEntity
  8
0
100
AcDbBlockEnd
  0
BLOCK
  5
12E
330
127
100
AcDbEntity
  8
0
100
AcDbBlockBegin
  2
*D5
 70
     1
 10
0.0
 20
0.0
 30
0.0
  3
*D5
  1

  0
LINE
  5
128
330
127
100
AcDbEntity
  8
1
  6
Continuous
 62
     2
100
AcDbLine
 10
41.00700000000001
 20
106.480662700388
 30
0.0
 11
-58.993
 21
106.480662700388
 31
0.0
  0
LINE
  5
129
330
127
100
AcDbEntity
  8
1
  6
Continuous
 62
     2
100
AcDbLine
 10
-58.993
 20
85.583
 30
0.0
 11
-58.993
 21
108.480662700388
 31
0.0
  0
LINE
  5
12A
330
127
100
AcDbEntity
  8
1
  6
Continuous
 62
     2
100
AcDbLine
 10
41.00700000000001
 20
59.68299999999999
 30
0.0
 11
41.00700000000001
 21
108.480662700388
 31
0.0
  0
SOLID
  5
12B
330
127
100
AcDbEntity
  8
1
 62
     2
100
AcDbTrace
 10
37.50700000000001
 20
106.0198789588321
 30
0.0
 11
37.50700000000001
 21
106.9414464419439
 31
0.0
 12
41.00700000000001
 22
106.480662700388
 32
0.0
 13
41.00700000000001
 23
106.480662700388
 33
0.0
  0
SOLID
  5
12C
330
127
100
AcDbEntity
  8
1
 62
     2
100
AcDbTrace
 10
-55.493
 20
106.9414464419439
 30
0.0
 11
-55.493
 21
106.0198789588321
 31
0.0
 12
-58.993
 22
106.480662700388
 32
0.0
 13
-58.993
 23
106.480662700388
 33
0.0
  0
MTEXT
  5
12D
330
127
100
AcDbEntity
  8
1
 62
     3
100
AcDbMText
 10
-12.82909539513134
 20
108.480662700388
 30
0.0
 40
3.5
 41
0.0
 71
     7
 72
     1
  1
\C3;\C3;\C3;100\C2;\H2.45;\S^ ;\C3;
  7
CONVERTER_11
 11
0.9999999999970619
 21
2.424068405545306E-6
 31
0.0
 73
     1
 44
0.60024009603842
  0
ENDBLK
  5
12F
330
127
100
AcDbEntity
  8
0
100
AcDbBlockEnd
  0
BLOCK
  5
139
330
132
100
AcDbEntity
  8
0
100
AcDbBlockBegin
  2
*D6
 70
     1
 10
0.0
 20
0.0
 30
0.0
  3
*D6
  1

  0
LINE
  5
133
330
132
100
AcDbEntity
  8
1
  6
Continuous
 62
     2
100
AcDbLine
 10
61.0698922653022
 20
69.083
 30
0.0
 11
61.0698922653022
 21
19.083
 31
0.0
  0
LINE
  5
134
330
132
100
AcDbEntity
  8
1
  6
Continuous
 62
     2
100
AcDbLine
 10
38.38800000000001
 20
19.083
 30
0.0
 11
63.0698922653022
 21
19.083
 31
0.0
  0
LINE
  5
135
330
132
100
AcDbEntity
  8
1
  6
Continuous
 62
     2
100
AcDbLine
 10
38.38800000000001
 20
69.083
 30
0.0
 11
63.0698922653022
 21
69.083
 31
0.0
  0
SOLID
  5
136
330
132
100
AcDbEntity
  8
1
 62
     2
100
AcDbTrace
 10
61.53067600685809
 20
65.583
 30
0.0
 11
60.60910852374631
 21
65.583
 31
0.0
 12
61.0698922653022
 22
69.083
 32
0.0
 13
61.0698922653022
 23
69.083
 33
0.0
  0
SOLID
  5
137
330
132
100
AcDbEntity
  8
1
 62
     2
100
AcDbTrace
 10
60.60910852374631
 20
22.583
 30
0.0
 11
61.53067600685809
 21
22.583
 31
0.0
 12
61.0698922653022
 22
19.083
 32
0.0
 13
61.0698922653022
 23
19.083
 33
0.0
  0
MTEXT
  5
138
330
132
100
AcDbEntity
  8
1
 62
     3
100
AcDbMText
 10
59.0698922653022
 20
36.42000202913771
 30
0.0
 40
3.5
 41
0.0
 71
     7
 72
     1
  1
\C3;%%c\C3;\C3;50\C2;\H2.45;\S^ ;\C3;
  7
CONVERTER_11
 11
0.0
 21
1.0
 31
0.0
 73
     1
 44
0.60024009603842
  0
ENDBLK
  5
13A
330
132
100
AcDbEntity
  8
0
100
AcDbBlockEnd
  0
BLOCK
  5
144
330
13D
100
AcDbEntity
  8
0
100
AcDbBlockBegin
  2
*D7
 70
     1
 10
0.0
 20
0.0
 30
0.0
  3
*D7
  1

  0
LINE
  5
13E
330
13D
100
AcDbEntity
  8
1
  6
Continuous
 62
     2
100
AcDbLine
 10
-98.993
 20
113.728094022219
 30
0.0
 11
28.004
 21
113.728094022219
 31
0.0
  0
LINE
  5
13F
330
13D
100
AcDbEntity
  8
1
  6
Continuous
 62
     2
100
AcDbLine
 10
-98.993
 20
72.96100000000007
 30
0.0
 11
-98.993
 21
115.728094022219
 31
0.0
  0
LINE
  5
140
330
13D
100
AcDbEntity
  8
1
  6
Continuous
 62
     2
100
AcDbLine
 10
28.004
 20
62.08299999989502
 30
0.0
 11
28.004
 21
115.728094022219
 31
0.0
  0
SOLID
  5
141
330
13D
100
AcDbEntity
  8
1
 62
     2
100
AcDbTrace
 10
-95.493
 20
114.1888777637749
 30
0.0
 11
-95.493
 21
113.2673102806631
 31
0.0
 12
-98.993
 22
113.728094022219
 32
0.0
 13
-98.993
 23
113.728094022219
 33
0.0
  0
SOLID
  5
142
330
13D
100
AcDbEntity
  8
1
 62
     2
100
AcDbTrace
 10
24.504
 20
113.2673102806631
 30
0.0
 11
24.504
 21
114.1888777637749
 31
0.0
 12
28.004
 22
113.728094022219
 32
0.0
 13
28.004
 23
113.728094022219
 33
0.0
  0
MTEXT
  5
143
330
13D
100
AcDbEntity
  8
1
 62
     3
100
AcDbMText
 10
-35.44584221810316
 20
115.728094022219
 30
0.0
 40
3.5
 41
0.0
 71
     7
 72
     1
  1
\C3;\C3;\C3;127\C2;\H2.45;\S^ ;\C3;
  7
CONVERTER_11
 11
0.9999999999970619
 21
2.424068405545306E-6
 31
0.0
 73
     1
 44
0.60024009603842
  0
ENDBLK
  5
145
330
13D
100
AcDbEntity
  8
0
100
AcDbBlockEnd
  0
BLOCK
  5
14F
330
148
100
AcDbEntity
  8
0
100
AcDbBlockBegin
  2
*D8
 70
     1
 10
0.0
 20
0.0
 30
0.0
  3
*D8
  1

  0
LINE
  5
149
330
148
100
AcDbEntity
  8
1
  6
Continuous
 62
     2
100
AcDbLine
 10
-58.99300000000001
 20
97.8264825592009
 30
0.0
 11
28.00400000000002
 21
97.8264825592009
 31
0.0
  0
LINE
  5
14A
330
148
100
AcDbEntity
  8
1
  6
Continuous
 62
     2
100
AcDbLine
 10
-58.993
 20
85.58300000000003
 30
0.0
 11
-58.993
 21
99.8264825592009
 31
0.0
  0
LINE
  5
14B
330
148
100
AcDbEntity
  8
1
  6
Continuous
 62
     2
100
AcDbLine
 10
28.00400000000002
 20
62.08299999989499
 30
0.0
 11
28.00400000000002
 21
99.8264825592009
 31
0.0
  0
SOLID
  5
14C
330
148
100
AcDbEntity
  8
1
 62
     2
100
AcDbTrace
 10
-55.49300000000001
 20
98.28726630075678
 30
0.0
 11
-55.49300000000001
 21
97.36569881764501
 31
0.0
 12
-58.99300000000001
 22
97.8264825592009
 32
0.0
 13
-58.99300000000001
 23
97.8264825592009
 33
0.0
  0
SOLID
  5
14D
330
148
100
AcDbEntity
  8
1
 62
     2
100
AcDbTrace
 10
24.50400000000002
 20
97.36569881764501
 30
0.0
 11
24.50400000000002
 21
98.28726630075678
 31
0.0
 12
28.00400000000002
 22
97.8264825592009
 32
0.0
 13
28.00400000000002
 23
97.8264825592009
 33
0.0
  0
MTEXT
  5
14E
330
148
100
AcDbEntity
  8
1
 62
     3
100
AcDbMText
 10
-17.28115608025751
 20
99.8264825592009
 30
0.0
 40
3.5
 41
0.0
 71
     7
 72
     1
  1
\C3;\C3;\C3;87\C2;\H2.45;\S^ ;\C3;
  7
CONVERTER_11
 11
0.9999999999970619
 21
2.424068405545306E-6
 31
0.0
 73
     1
 44
0.60024009603842
  0
ENDBLK
  5
150
330
148
100
AcDbEntity
  8
0
100
AcDbBlockEnd
  0
BLOCK
  5
15A
330
153
100
AcDbEntity
  8
0
100
AcDbBlockBegin
  2
*D9
 70
     1
 10
0.0
 20
0.0
 30
0.0
  3
*D9
  1

  0
LINE
  5
154
330
153
100
AcDbEntity
  8
1
  6
Continuous
 62
     2
100
AcDbLine
 10
28.00400000000001
 20
89.87567682769156
 30
0.0
 11
-32.99299999999999
 21
89.87567682769156
 31
0.0
  0
LINE
  5
155
330
153
100
AcDbEntity
  8
1
  6
Continuous
 62
     2
100
AcDbLine
 10
28.00400000000001
 20
62.08299999989497
 30
0.0
 11
28.00400000000001
 21
91.87567682769156
 31
0.0
  0
LINE
  5
156
330
153
100
AcDbEntity
  8
1
  6
Continuous
 62
     2
100
AcDbLine
 10
-32.99299999999999
 20
86.08299999999998
 30
0.0
 11
-32.99299999999999
 21
91.87567682769156
 31
0.0
  0
SOLID
  5
157
330
153
100
AcDbEntity
  8
1
 62
     2
100
AcDbTrace
 10
24.50400000000001
 20
89.41489308613568
 30
0.0
 11
24.50400000000001
 21
90.33646056924745
 31
0.0
 12
28.00400000000001
 22
89.87567682769156
 32
0.0
 13
28.00400000000001
 23
89.87567682769156
 33
0.0
  0
SOLID
  5
158
330
153
100
AcDbEntity
  8
1
 62
     2
100
AcDbTrace
 10
-29.49299999999999
 20
90.33646056924745
 30
0.0
 11
-29.49299999999999
 21
89.41489308613568
 31
0.0
 12
-32.99299999999999
 22
89.87567682769156
 32
0.0
 13
-32.99299999999999
 23
89.87567682769156
 33
0.0
  0
MTEXT
  5
159
330
153
100
AcDbEntity
  8
1
 62
     3
100
AcDbMText
 10
-4.68902708092746
 20
91.87567682769156
 30
0.0
 40
3.5
 41
0.0
 71
     7
 72
     1
  1
\C3;\C3;\C3;61\C2;\H2.45;\S^ ;\C3;
  7
CONVERTER_11
 11
0.9999999999970619
 21
2.424068405545306E-6
 31
0.0
 73
     1
 44
0.60024009603842
  0
ENDBLK
  5
15B
330
153
100
AcDbEntity
  8
0
100
AcDbBlockEnd
  0
BLOCK
  5
165
330
15E
100
AcDbEntity
  8
0
100
AcDbBlockBegin
  2
*D10
 70
     1
 10
0.0
 20
0.0
 30
0.0
  3
*D10
  1

  0
LINE
  5
15F
330
15E
100
AcDbEntity
  8
1
  6
Continuous
 62
     2
100
AcDbLine
 10
51.6142764826166
 20
60.08299999989499
 30
0.0
 11
51.6142764826166
 21
28.08300000010501
 31
0.0
  0
LINE
  5
160
330
15E
100
AcDbEntity
  8
1
  6
Continuous
 62
     2
100
AcDbLine
 10
30.004
 20
60.08299999989499
 30
0.0
 11
53.6142764826166
 21
60.08299999989499
 31
0.0
  0
LINE
  5
161
330
15E
100
AcDbEntity
  8
1
  6
Continuous
 62
     2
100
AcDbLine
 10
30.00399999999999
 20
28.08300000010501
 30
0.0
 11
53.6142764826166
 21
28.08300000010501
 31
0.0
  0
SOLID
  5
162
330
15E
100
AcDbEntity
  8
1
 62
     2
100
AcDbTrace
 10
52.07506022417249
 20
56.58299999989499
 30
0.0
 11
51.15349274106072
 21
56.58299999989499
 31
0.0
 12
51.6142764826166
 22
60.08299999989499
 32
0.0
 13
51.6142764826166
 23
60.08299999989499
 33
0.0
  0
SOLID
  5
163
330
15E
100
AcDbEntity
  8
1
 62
     2
100
AcDbTrace
 10
51.15349274106072
 20
31.58300000010501
 30
0.0
 11
52.07506022417249
 21
31.58300000010501
 31
0.0
 12
51.6142764826166
 22
28.08300000010501
 32
0.0
 13
51.6142764826166
 23
28.08300000010501
 33
0.0
  0
MTEXT
  5
164
330
15E
100
AcDbEntity
  8
1
 62
     3
100
AcDbMText
 10
49.6142764826166
 20
34.90188598318439
 30
0.0
 40
3.5
 41
0.0
 71
     7
 72
     1
  1
\C3;%%c\C3;\C3;32\C2;\H2.45;\S^ ;\C3;
  7
CONVERTER_11
 11
0.0
 21
1.0
 31
0.0
 73
     1
 44
0.60024009603842
  0
ENDBLK
  5
166
330
15E
100
AcDbEntity
  8
0
100
AcDbBlockEnd
  0
BLOCK
  5
16D
330
169
100
AcDbEntity
  8
0
100
AcDbBlockBegin
  2
*D11
 70
     1
 10
0.0
 20
0.0
 30
0.0
  3
*D11
  1

  0
LINE
  5
16A
330
169
100
AcDbEntity
  8
1
  6
Continuous
 62
     2
100
AcDbLine
 10
-16.57814008840107
 20
81.1940146478121
 30
0.0
 11
-31.91392650925219
 21
73.18550108291385
 31
0.0
  0
SOLID
  5
16B
330
169
100
AcDbEntity
  8
1
 62
     2
100
AcDbTrace
 10
-29.02477421684381
 20
75.21407710755616
 30
0.0
 11
-28.59818558431687
 21
74.39718741822978
 31
0.0
 12
-31.91392650925219
 22
73.18550108291385
 32
0.0
 13
-31.91392650925219
 23
73.18550108291385
 33
0.0
  0
MTEXT
  5
16C
330
169
100
AcDbEntity
  8
1
 62
     3
100
AcDbMText
 10
-27.12151382098616
 20
77.94443462340362
 30
0.0
 40
3.5
 41
0.0
 71
     7
 72
     1
  1
\C3; R\C3;\C3;9.5\C2;\H2.45;\S^ ;\C3;
  7
CONVERTER_11
 11
0.8864133167633873
 21
0.4628946228511742
 31
0.0
 73
     1
 44
0.60024009603842
  0
ENDBLK
  5
16E
330
169
100
AcDbEntity
  8
0
100
AcDbBlockEnd
  0
ENDSEC
  0
SECTION
  2
ENTITIES
  0
INSERT
  5
72
330
1F
100
AcDbEntity
  8
0
100
AcDbBlockReference
  2
83-912-32
 10
41.00700000000001
 20
44.083
 30
0.0
  0
INSERT
  5
73
330
1F
100
AcDbEntity
  8
0
100
AcDbBlockReference
  2
A80_Aussen
 10
-58.993
 20
44.083
 30
0.0
  0
INSERT
  5
74
330
1F
100
AcDbEntity
  8
0
100
AcDbBlockReference
  2
Urheberrecht_DE-EN
 10
-108.9725283130681
 20
66.7156477049102
 30
0.0
  0
DIMENSION
  5
131
330
1F
100
AcDbEntity
  8
1
100
AcDbDimension
  2
*D5
 10
41.00700000000001
 20
106.480662700388
 30
0.0
 11
-9.88909539513134
 21
110.230662700388
 31
0.0
 70
    32
  1
<>
 71
     5
 42
-1.0
 53
0.00013888888889
  3
ME10_DIM_10
100
AcDbAlignedDimension
 13
-58.993
 23
83.583
 33
0.0
 14
41.00700000000001
 24
57.68299999999999
 34
0.0
100
AcDbRotatedDimension
  0
DIMENSION
  5
13C
330
1F
100
AcDbEntity
  8
1
100
AcDbDimension
  2
*D6
 10
61.0698922653022
 20
69.083
 30
0.0
 11
57.3198922653022
 21
45.2750020291377
 31
0.0
 70
    32
  1
<>
 71
     5
 42
-1.0
 53
90.0
  3
ME10_DIM_11
100
AcDbAlignedDimension
 13
36.38800000000001
 23
19.08300000000001
 33
0.0
 14
36.38800000000001
 24
69.083
 34
0.0
 50
90.0
100
AcDbRotatedDimension
  0
DIMENSION
  5
147
330
1F
100
AcDbEntity
  8
1
100
AcDbDimension
  2
*D7
 10
-98.993
 20
113.728094022219
 30
0.0
 11
-32.50584221810316
 21
117.478094022219
 31
0.0
 70
    32
  1
<>
 71
     5
 42
-1.0
 53
0.00013888888889
  3
ME10_DIM_12
100
AcDbAlignedDimension
 13
28.00400000000001
 23
60.08299999989497
 33
0.0
 14
-98.993
 24
70.96100000000004
 34
0.0
100
AcDbRotatedDimension
  0
DIMENSION
  5
152
330
1F
100
AcDbEntity
  8
1
100
AcDbDimension
  2
*D8
 10
-58.99300000000001
 20
97.8264825592009
 30
0.0
 11
-15.18115608025751
 21
101.5764825592009
 31
0.0
 70
    32
  1
<>
 71
     5
 42
-1.0
 53
0.00013888888889
  3
ME10_DIM_13
100
AcDbAlignedDimension
 13
28.00400000000001
 23
60.08299999989497
 33
0.0
 14
-58.993
 24
83.583
 34
0.0
100
AcDbRotatedDimension
  0
DIMENSION
  5
15D
330
1F
100
AcDbEntity
  8
1
100
AcDbDimension
  2
*D9
 10
28.00400000000001
 20
89.87567682769156
 30
0.0
 11
-3.00902708092746
 21
93.62567682769156
 31
0.0
 70
    32
  1
<>
 71
     5
 42
-1.0
 53
0.00013888888889
  3
ME10_DIM_14
100
AcDbAlignedDimension
 13
-32.993
 23
84.083
 33
0.0
 14
28.00400000000001
 24
60.08299999989497
 34
0.0
100
AcDbRotatedDimension
  0
DIMENSION
  5
168
330
1F
100
AcDbEntity
  8
1
100
AcDbDimension
  2
*D10
 10
51.6142764826166
 20
60.08299999989499
 30
0.0
 11
47.8642764826166
 21
43.75688598318438
 31
0.0
 70
    32
  1
<>
 71
     5
 42
-1.0
 53
90.0
  3
ME10_DIM_15
100
AcDbAlignedDimension
 13
28.004
 23
28.083000000105
 33
0.0
 14
28.00400000000001
 24
60.08299999989497
 34
0.0
 50
90.0
100
AcDbRotatedDimension
  0
INSERT
  5
16F
330
1F
100
AcDbEntity
  8
1
100
AcDbBlockReference
  2
*D11
 10
0.0
 20
0.0
 30
0.0
  0
ENDSEC
  0
SECTION
  2
OBJECTS
  0
DICTIONARY
  5
C
330
0
100
AcDbDictionary
281
     1
  3
ACAD_GROUP
350
D
  3
ACAD_LAYOUT
350
1A
  3
ACAD_MLEADERSTYLE
350
172
  3
ACAD_MLINESTYLE
350
17
  3
ACAD_PLOTSETTINGS
350
19
  3
ACAD_PLOTSTYLENAME
350
E
  3
ACAD_SCALELIST
350
47
  3
ACAD_VISUALSTYLE
350
2A
  3
AcDbVariableDictionary
350
170
  0
DICTIONARY
  5
D
102
{ACAD_REACTORS
330
C
102
}
330
C
100
AcDbDictionary
281
     1
  0
DICTIONARY
  5
1A
102
{ACAD_REACTORS
330
C
102
}
330
C
100
AcDbDictionary
281
     1
  3
Layout1
350
1E
  3
Layout2
350
26
  3
Model
350
22
  0
DICTIONARY
  5
172
102
{ACAD_REACTORS
330
C
102
}
330
C
100
AcDbDictionary
281
     1
  0
DICTIONARY
  5
17
102
{ACAD_REACTORS
330
C
102
}
330
C
100
AcDbDictionary
281
     1
  3
Standard
350
18
  0
DICTIONARY
  5
19
102
{ACAD_REACTORS
330
C
102
}
330
C
100
AcDbDictionary
281
     1
  0
ACDBDICTIONARYWDFLT
  5
E
102
{ACAD_REACTORS
330
C
102
}
330
C
100
AcDbDictionary
281
     1
  3
Normal
350
F
100
AcDbDictionaryWithDefault
340
F
  0
DICTIONARY
  5
47
102
{ACAD_REACTORS
330
C
102
}
330
C
100
AcDbDictionary
281
     1
  3
A0
350
48
  3
A1
350
49
  3
A2
350
4A
  3
A3
350
4B
  3
A4
350
4C
  3
A5
350
4D
  3
A6
350
4E
  3
A7
350
4F
  3
A8
350
50
  3
A9
350
51
  3
B0
350
52
  3
B1
350
53
  3
B2
350
54
  3
B3
350
55
  3
B4
350
56
  3
B5
350
57
  3
B6
350
58
  3
B7
350
59
  3
B8
350
5A
  3
B9
350
5B
  3
C0
350
5C
  3
C1
350
5D
  3
C2
350
5E
  3
C3
350
5F
  3
C4
350
60
  3
C5
350
61
  3
C6
350
62
  3
C7
350
63
  3
C8
350
64
  3
C9
350
65
  3
D0
350
66
  3
D1
350
67
  3
D2
350
68
  0
DICTIONARY
  5
2A
102
{ACAD_REACTORS
330
C
102
}
330
C
100
AcDbDictionary
281
     1
  3
2dWireframe
350
2F
  3
3D Hidden
350
31
  3
3dWireframe
350
30
  3
Basic
350
32
  3
Brighten
350
36
  3
ColorChange
350
3A
  3
Conceptual
350
34
  3
Dim
350
35
  3
Facepattern
350
39
  3
Flat
350
2B
  3
FlatWithEdges
350
2C
  3
Gouraud
350
2D
  3
GouraudWithEdges
350
2E
  3
Linepattern
350
38
  3
Realistic
350
33
  3
Thicken
350
37
  0
DICTIONARY
  5
170
102
{ACAD_REACTORS
330
C
102
}
330
C
100
AcDbDictionary
281
     1
  3
CANNOSCALE
350
173
  0
LAYOUT
  5
1E
102
{ACAD_REACTORS
330
1A
102
}
330
1A
100
AcDbPlotSettings
  1

  2
none_device
  4

  6

 40
0.0
 41
0.0
 42
0.0
 43
0.0
 44
0.0
 45
0.0
 46
0.0
 47
0.0
 48
0.0
 49
0.0
140
0.0
141
0.0
142
1.0
143
1.0
 70
   688
 72
     0
 73
     0
 74
     5
  7

 75
    16
147
1.0
148
0.0
149
0.0
100
AcDbLayout
  1
Layout1
 70
     1
 71
     1
 10
0.0
 20
0.0
 11
12.0
 21
9.0
 12
0.0
 22
0.0
 32
0.0
 14
1.00000000000000E+20
 24
1.00000000000000E+20
 34
1.00000000000000E+20
 15
-1.00000000000000E+20
 25
-1.00000000000000E+20
 35
-1.00000000000000E+20
146
0.0
 13
0.0
 23
0.0
 33
0.0
 16
1.0
 26
0.0
 36
0.0
 17
0.0
 27
1.0
 37
0.0
 76
     0
330
1B
  0
LAYOUT
  5
26
102
{ACAD_REACTORS
330
1A
102
}
330
1A
100
AcDbPlotSettings
  1

  2
none_device
  4

  6

 40
0.0
 41
0.0
 42
0.0
 43
0.0
 44
0.0
 45
0.0
 46
0.0
 47
0.0
 48
0.0
 49
0.0
140
0.0
141
0.0
142
1.0
143
1.0
 70
   688
 72
     0
 73
     0
 74
     5
  7

 75
    16
147
1.0
148
0.0
149
0.0
100
AcDbLayout
  1
Layout2
 70
     1
 71
     2
 10
0.0
 20
0.0
 11
0.0
 21
0.0
 12
0.0
 22
0.0
 32
0.0
 14
0.0
 24
0.0
 34
0.0
 15
0.0
 25
0.0
 35
0.0
146
0.0
 13
0.0
 23
0.0
 33
0.0
 16
1.0
 26
0.0
 36
0.0
 17
0.0
 27
1.0
 37
0.0
 76
     0
330
23
  0
LAYOUT
  5
22
102
{ACAD_REACTORS
330
1A
102
}
330
1A
100
AcDbPlotSettings
  1

  2
none_device
  4

  6

 40
0.0
 41
0.0
 42
0.0
 43
0.0
 44
0.0
 45
0.0
 46
0.0
 47
0.0
 48
0.0
 49
0.0
140
0.0
141
0.0
142
1.0
143
1.0
 70
  1712
 72
     0
 73
     0
 74
     0
  7

 75
     0
147
1.0
148
0.0
149
0.0
100
AcDbLayout
  1
Model
 70
     1
 71
     0
 10
0.0
 20
0.0
 11
12.0
 21
9.0
 12
0.0
 22
0.0
 32
0.0
 14
-122.9725283130681
 24
3.833
 34
0.0
 15
63.0698922653022
 25
119.228094022219
 35
0.0
146
0.0
 13
0.0
 23
0.0
 33
0.0
 16
1.0
 26
0.0
 36
0.0
 17
0.0
 27
1.0
 37
0.0
 76
     0
330
1F
331
29
  0
MLINESTYLE
  5
18
102
{ACAD_REACTORS
330
17
102
}
330
17
100
AcDbMlineStyle
  2
Standard
 70
     0
  3

 62
   256
 51
90.0
 52
90.0
 71
     2
 49
0.5
 62
   256
  6
BYLAYER
 49
-0.5
 62
   256
  6
BYLAYER
  0
ACDBPLACEHOLDER
  5
F
102
{ACAD_REACTORS
330
E
102
}
330
E
  0
SCALE
  5
48
102
{ACAD_REACTORS
330
47
102
}
330
47
100
AcDbScale
 70
     0
300
1:1
140
1.0
141
1.0
290
     1
  0
SCALE
  5
49
102
{ACAD_REACTORS
330
47
102
}
330
47
100
AcDbScale
 70
     0
300
1:2
140
1.0
141
2.0
290
     0
  0
SCALE
  5
4A
102
{ACAD_REACTORS
330
47
102
}
330
47
100
AcDbScale
 70
     0
300
1:4
140
1.0
141
4.0
290
     0
  0
SCALE
  5
4B
102
{ACAD_REACTORS
330
47
102
}
330
47
100
AcDbScale
 70
     0
300
1:5
140
1.0
141
5.0
290
     0
  0
SCALE
  5
4C
102
{ACAD_REACTORS
330
47
102
}
330
47
100
AcDbScale
 70
     0
300
1:8
140
1.0
141
8.0
290
     0
  0
SCALE
  5
4D
102
{ACAD_REACTORS
330
47
102
}
330
47
100
AcDbScale
 70
     0
300
1:10
140
1.0
141
10.0
290
     0
  0
SCALE
  5
4E
102
{ACAD_REACTORS
330
47
102
}
330
47
100
AcDbScale
 70
     0
300
1:16
140
1.0
141
16.0
290
     0
  0
SCALE
  5
4F
102
{ACAD_REACTORS
330
47
102
}
330
47
100
AcDbScale
 70
     0
300
1:20
140
1.0
141
20.0
290
     0
  0
SCALE
  5
50
102
{ACAD_REACTORS
330
47
102
}
330
47
100
AcDbScale
 70
     0
300
1:30
140
1.0
141
30.0
290
     0
  0
SCALE
  5
51
102
{ACAD_REACTORS
330
47
102
}
330
47
100
AcDbScale
 70
     0
300
1:40
140
1.0
141
40.0
290
     0
  0
SCALE
  5
52
102
{ACAD_REACTORS
330
47
102
}
330
47
100
AcDbScale
 70
     0
300
1:50
140
1.0
141
50.0
290
     0
  0
SCALE
  5
53
102
{ACAD_REACTORS
330
47
102
}
330
47
100
AcDbScale
 70
     0
300
1:100
140
1.0
141
100.0
290
     0
  0
SCALE
  5
54
102
{ACAD_REACTORS
330
47
102
}
330
47
100
AcDbScale
 70
     0
300
2:1
140
2.0
141
1.0
290
     0
  0
SCALE
  5
55
102
{ACAD_REACTORS
330
47
102
}
330
47
100
AcDbScale
 70
     0
300
4:1
140
4.0
141
1.0
290
     0
  0
SCALE
  5
56
102
{ACAD_REACTORS
330
47
102
}
330
47
100
AcDbScale
 70
     0
300
8:1
140
8.0
141
1.0
290
     0
  0
SCALE
  5
57
102
{ACAD_REACTORS
330
47
102
}
330
47
100
AcDbScale
 70
     0
300
10:1
140
10.0
141
1.0
290
     0
  0
SCALE
  5
58
102
{ACAD_REACTORS
330
47
102
}
330
47
100
AcDbScale
 70
     0
300
100:1
140
100.0
141
1.0
290
     0
  0
SCALE
  5
59
102
{ACAD_REACTORS
330
47
102
}
330
47
100
AcDbScale
 70
     0
300
1/128" = 1'-0"
140
0.0078125
141
12.0
290
     0
  0
SCALE
  5
5A
102
{ACAD_REACTORS
330
47
102
}
330
47
100
AcDbScale
 70
     0
300
1/64" = 1'-0"
140
0.015625
141
12.0
290
     0
  0
SCALE
  5
5B
102
{ACAD_REACTORS
330
47
102
}
330
47
100
AcDbScale
 70
     0
300
1/32" = 1'-0"
140
0.03125
141
12.0
290
     0
  0
SCALE
  5
5C
102
{ACAD_REACTORS
330
47
102
}
330
47
100
AcDbScale
 70
     0
300
1/16" = 1'-0"
140
0.0625
141
12.0
290
     0
  0
SCALE
  5
5D
102
{ACAD_REACTORS
330
47
102
}
330
47
100
AcDbScale
 70
     0
300
3/32" = 1'-0"
140
0.09375
141
12.0
290
     0
  0
SCALE
  5
5E
102
{ACAD_REACTORS
330
47
102
}
330
47
100
AcDbScale
 70
     0
300
1/8" = 1'-0"
140
0.125
141
12.0
290
     0
  0
SCALE
  5
5F
102
{ACAD_REACTORS
330
47
102
}
330
47
100
AcDbScale
 70
     0
300
3/16" = 1'-0"
140
0.1875
141
12.0
290
     0
  0
SCALE
  5
60
102
{ACAD_REACTORS
330
47
102
}
330
47
100
AcDbScale
 70
     0
300
1/4" = 1'-0"
140
0.25
141
12.0
290
     0
  0
SCALE
  5
61
102
{ACAD_REACTORS
330
47
102
}
330
47
100
AcDbScale
 70
     0
300
3/8" = 1'-0"
140
0.375
141
12.0
290
     0
  0
SCALE
  5
62
102
{ACAD_REACTORS
330
47
102
}
330
47
100
AcDbScale
 70
     0
300
1/2" = 1'-0"
140
0.5
141
12.0
290
     0
  0
SCALE
  5
63
102
{ACAD_REACTORS
330
47
102
}
330
47
100
AcDbScale
 70
     0
300
3/4" = 1'-0"
140
0.75
141
12.0
290
     0
  0
SCALE
  5
64
102
{ACAD_REACTORS
330
47
102
}
330
47
100
AcDbScale
 70
     0
300
1" = 1'-0"
140
1.0
141
12.0
290
     0
  0
SCALE
  5
65
102
{ACAD_REACTORS
330
47
102
}
330
47
100
AcDbScale
 70
     0
300
1-1/2" = 1'-0"
140
1.5
141
12.0
290
     0
  0
SCALE
  5
66
102
{ACAD_REACTORS
330
47
102
}
330
47
100
AcDbScale
 70
     0
300
3" = 1'-0"
140
3.0
141
12.0
290
     0
  0
SCALE
  5
67
102
{ACAD_REACTORS
330
47
102
}
330
47
100
AcDbScale
 70
     0
300
6" = 1'-0"
140
6.0
141
12.0
290
     0
  0
SCALE
  5
68
102
{ACAD_REACTORS
330
47
102
}
330
47
100
AcDbScale
 70
     0
300
1'-0" = 1'-0"
140
12.0
141
12.0
290
     0
  0
VISUALSTYLE
  5
2F
102
{ACAD_REACTORS
330
2A
102
}
330
2A
100
AcDbVisualStyle
  2
2dWireframe
 70
     4
 71
     0
 72
     2
 73
     0
 90
        0
 40
-0.6
 41
-30.0
 62
     5
 63
     7
 74
     1
 91
        4
 64
     7
 65
   257
 75
     1
175
     1
 42
1.0
 92
        0
 66
   257
 43
1.0
 76
     1
 77
     6
 78
     2
 67
     7
 79
     5
170
     0
171
     0
290
     0
174
     0
 93
        1
 44
0.0
173
     0
291
     0
 45
0.0
1001
ACAD
1000
AcDbSavedByObjectVersion
1070
     0
  0
VISUALSTYLE
  5
31
102
{ACAD_REACTORS
330
2A
102
}
330
2A
100
AcDbVisualStyle
  2
3D Hidden
 70
     6
 71
     1
 72
     2
 73
     2
 90
        0
 40
-0.6
 41
-30.0
 62
     5
 63
     7
 74
     2
 91
        2
 64
     7
 65
   257
 75
     2
175
     1
 42
40.0
 92
        0
 66
   257
 43
1.0
 76
     1
 77
     6
 78
     2
 67
     7
 79
     3
170
     0
171
     0
290
     0
174
     0
 93
        1
 44
0.0
173
     0
291
     0
 45
0.0
1001
ACAD
1000
AcDbSavedByObjectVersion
1070
     0
  0
VISUALSTYLE
  5
30
102
{ACAD_REACTORS
330
2A
102
}
330
2A
100
AcDbVisualStyle
  2
3dWireframe
 70
     5
 71
     0
 72
     2
 73
     0
 90
        0
 40
-0.6
 41
-30.0
 62
     5
 63
     7
 74
     1
 91
        4
 64
     7
 65
   257
 75
     1
175
     1
 42
1.0
 92
        0
 66
   257
 43
1.0
 76
     1
 77
     6
 78
     2
 67
     7
 79
     5
170
     0
171
     0
290
     0
174
     0
 93
        1
 44
0.0
173
     0
291
     0
 45
0.0
1001
ACAD
1000
AcDbSavedByObjectVersion
1070
     0
  0
VISUALSTYLE
  5
32
102
{ACAD_REACTORS
330
2A
102
}
330
2A
100
AcDbVisualStyle
  2
Basic
 70
     7
 71
     1
 72
     0
 73
     1
 90
        0
 40
-0.6
 41
-30.0
 62
     5
 63
     7
 74
     0
 91
        4
 64
     7
 65
   257
 75
     1
175
     1
 42
1.0
 92
        8
 66
     7
 43
1.0
 76
     1
 77
     6
 78
     2
 67
     7
 79
     5
170
     0
171
     0
290
     0
174
     0
 93
        1
 44
0.0
173
     0
291
     1
 45
0.0
1001
ACAD
1000
AcDbSavedByObjectVersion
1070
     0
  0
VISUALSTYLE
  5
36
102
{ACAD_REACTORS
330
2A
102
}
330
2A
100
AcDbVisualStyle
  2
Brighten
 70
    12
 71
     2
 72
     2
 73
     0
 90
        0
 40
-0.6
 41
-30.0
 62
     5
 63
     7
 74
     1
 91
        4
 64
     7
 65
   257
 75
     1
175
     1
 42
1.0
 92
        8
 66
     7
 43
1.0
 76
     1
 77
     6
 78
     2
 67
     7
 79
     5
170
     0
171
     0
290
     0
174
     0
 93
        1
 44
50.0
173
     0
291
     1
 45
0.0
1001
ACAD
1000
AcDbSavedByObjectVersion
1070
     0
  0
VISUALSTYLE
  5
3A
102
{ACAD_REACTORS
330
2A
102
}
330
2A
100
AcDbVisualStyle
  2
ColorChange
 70
    16
 71
     2
 72
     2
 73
     3
 90
        0
 40
-0.6
 41
-30.0
 62
     5
 63
     8
 74
     1
 91
        4
 64
     7
 65
   257
 75
     1
175
     1
 42
1.0
 92
        8
 66
     8
 43
1.0
 76
     1
 77
     6
 78
     2
 67
     7
 79
     5
170
     0
171
     0
290
     0
174
     0
 93
        1
 44
0.0
173
     0
291
     1
 45
0.0
1001
ACAD
1000
AcDbSavedByObjectVersion
1070
     0
  0
VISUALSTYLE
  5
34
102
{ACAD_REACTORS
330
2A
102
}
330
2A
100
AcDbVisualStyle
  2
Conceptual
 70
     9
 71
     3
 72
     2
 73
     0
 90
        0
 40
-0.6
 41
-30.0
 62
     5
 63
     7
 74
     2
 91
        2
 64
     7
 65
   257
 75
     1
175
     1
 42
40.0
 92
        8
 66
     7
 43
1.0
 76
     1
 77
     6
 78
     2
 67
     7
 79
     3
170
     0
171
     0
290
     0
174
     0
 93
        1
 44
0.0
173
     0
291
     0
 45
0.0
1001
ACAD
1000
AcDbSavedByObjectVersion
1070
     0
  0
VISUALSTYLE
  5
35
102
{ACAD_REACTORS
330
2A
102
}
330
2A
100
AcDbVisualStyle
  2
Dim
 70
    11
 71
     2
 72
     2
 73
     0
 90
        0
 40
-0.6
 41
-30.0
 62
     5
 63
     7
 74
     1
 91
        4
 64
     7
 65
   257
 75
     1
175
     1
 42
1.0
 92
        8
 66
     7
 43
1.0
 76
     1
 77
     6
 78
     2
 67
     7
 79
     5
170
     0
171
     0
290
     0
174
     0
 93
        1
 44
-50.0
173
     0
291
     1
 45
0.0
1001
ACAD
1000
AcDbSavedByObjectVersion
1070
     0
  0
VISUALSTYLE
  5
39
102
{ACAD_REACTORS
330
2A
102
}
330
2A
100
AcDbVisualStyle
  2
Facepattern
 70
    15
 71
     2
 72
     2
 73
     0
 90
        0
 40
-0.6
 41
-30.0
 62
     5
 63
     7
 74
     1
 91
        4
 64
     7
 65
   257
 75
     1
175
     1
 42
1.0
 92
        8
 66
     7
 43
1.0
 76
     1
 77
     6
 78
     2
 67
     7
 79
     5
170
     0
171
     0
290
     0
174
     0
 93
        1
 44
0.0
173
     0
291
     1
 45
0.0
1001
ACAD
1000
AcDbSavedByObjectVersion
1070
     0
  0
VISUALSTYLE
  5
2B
102
{ACAD_REACTORS
330
2A
102
}
330
2A
100
AcDbVisualStyle
  2
Flat
 70
     0
 71
     2
 72
     1
 73
     1
 90
        2
 40
-0.6
 41
30.0
 62
     5
 63
     7
 74
     0
 91
        4
 64
     7
 65
   257
 75
     1
175
     1
 42
1.0
 92
        8
 66
     7
 43
1.0
 76
     1
 77
     6
 78
     2
 67
     7
 79
     5
170
     0
171
     0
290
     0
174
     0
 93
       13
 44
0.0
173
     0
291
     1
 45
0.0
1001
ACAD
1000
AcDbSavedByObjectVersion
1070
     0
  0
VISUALSTYLE
  5
2C
102
{ACAD_REACTORS
330
2A
102
}
330
2A
100
AcDbVisualStyle
  2
FlatWithEdges
 70
     1
 71
     2
 72
     1
 73
     1
 90
        2
 40
-0.6
 41
30.0
 62
     5
 63
     7
 74
     1
 91
        4
 64
     7
 65
   257
 75
     1
175
     1
 42
1.0
 92
        0
 66
   257
 43
1.0
 76
     1
 77
     6
 78
     2
 67
     7
 79
     5
170
     0
171
     0
290
     0
174
     0
 93
       13
 44
0.0
173
     0
291
     1
 45
0.0
1001
ACAD
1000
AcDbSavedByObjectVersion
1070
     0
  0
VISUALSTYLE
  5
2D
102
{ACAD_REACTORS
330
2A
102
}
330
2A
100
AcDbVisualStyle
  2
Gouraud
 70
     2
 71
     2
 72
     2
 73
     1
 90
        2
 40
-0.6
 41
30.0
 62
     5
 63
     7
 74
     0
 91
        4
 64
     7
 65
   257
 75
     1
175
     1
 42
1.0
 92
        0
 66
     7
 43
1.0
 76
     1
 77
     6
 78
     2
 67
     7
 79
     5
170
     0
171
     0
290
     0
174
     0
 93
       13
 44
0.0
173
     0
291
     1
 45
0.0
1001
ACAD
1000
AcDbSavedByObjectVersion
1070
     0
  0
VISUALSTYLE
  5
2E
102
{ACAD_REACTORS
330
2A
102
}
330
2A
100
AcDbVisualStyle
  2
GouraudWithEdges
 70
     3
 71
     2
 72
     2
 73
     1
 90
        2
 40
-0.6
 41
30.0
 62
     5
 63
     7
 74
     1
 91
        4
 64
     7
 65
   257
 75
     1
175
     1
 42
1.0
 92
        0
 66
   257
 43
1.0
 76
     1
 77
     6
 78
     2
 67
     7
 79
     5
170
     0
171
     0
290
     0
174
     0
 93
       13
 44
0.0
173
     0
291
     1
 45
0.0
1001
ACAD
1000
AcDbSavedByObjectVersion
1070
     0
  0
VISUALSTYLE
  5
38
102
{ACAD_REACTORS
330
2A
102
}
330
2A
100
AcDbVisualStyle
  2
Linepattern
 70
    14
 71
     2
 72
     2
 73
     0
 90
        0
 40
-0.6
 41
-30.0
 62
     5
 63
     7
 74
     1
 91
        4
 64
     7
 65
   257
 75
     7
175
     7
 42
1.0
 92
        8
 66
     7
 43
1.0
 76
     1
 77
     6
 78
     2
 67
     7
 79
     5
170
     0
171
     0
290
     0
174
     0
 93
        1
 44
0.0
173
     0
291
     1
 45
0.0
1001
ACAD
1000
AcDbSavedByObjectVersion
1070
     0
  0
VISUALSTYLE
  5
33
102
{ACAD_REACTORS
330
2A
102
}
330
2A
100
AcDbVisualStyle
  2
Realistic
 70
     8
 71
     2
 72
     2
 73
     0
 90
        0
 40
-0.6
 41
-30.0
 62
     5
 63
     7
 74
     1
 91
        0
 64
     7
 65
   257
 75
     1
175
     1
 42
1.0
 92
        8
 66
     8
 43
1.0
 76
     1
 77
     6
 78
     2
 67
     7
 79
     5
170
     0
171
     0
290
     0
174
     0
 93
       13
 44
0.0
173
     0
291
     0
 45
0.0
1001
ACAD
1000
AcDbSavedByObjectVersion
1070
     0
  0
VISUALSTYLE
  5
37
102
{ACAD_REACTORS
330
2A
102
}
330
2A
100
AcDbVisualStyle
  2
Thicken
 70
    13
 71
     2
 72
     2
 73
     0
 90
        0
 40
-0.6
 41
-30.0
 62
     5
 63
     7
 74
     1
 91
        4
 64
     7
 65
   257
 75
     1
175
     1
 42
1.0
 92
       12
 66
     7
 43
1.0
 76
     1
 77
     6
 78
     2
 67
     7
 79
     5
170
     0
171
     0
290
     0
174
     0
 93
        1
 44
0.0
173
     0
291
     1
 45
0.0
1001
ACAD
1000
AcDbSavedByObjectVersion
1070
     0
  0
DICTIONARYVAR
  5
173
102
{ACAD_REACTORS
330
170
102
}
330
170
100
DictionaryVariables
280
     0
  1
1:1
  0
ENDSEC
  0
EOF
