  0
SECTION
  2
HEADER
  9
$ACADVER
  1
AC1015
  9
$ACADMAINTVER
 70
     6
  9
$DWGCODEPAGE
  3
ANSI_1252
  9
$INSBASE
 10
0.0
 20
0.0
 30
0.0
  9
$EXTMIN
 10
-122.972528313068
 20
3.83299999999997
 30
0.0
  9
$EXTMAX
 10
65.46433246641371
 20
121.554855077356
 30
0.0
  9
$LIMMIN
 10
0.0
 20
0.0
  9
$LIMMAX
 10
12.0
 20
9.0
  9
$ORTHOMODE
 70
     0
  9
$REGENMODE
 70
     1
  9
$FILLMODE
 70
     1
  9
$QTEXTMODE
 70
     0
  9
$MIRRTEXT
 70
     1
  9
$LTSCALE
 40
1.0
  9
$ATTMODE
 70
     1
  9
$TEXTSIZE
 40
0.2
  9
$TRACEWID
 40
0.05
  9
$TEXTSTYLE
  7
Standard
  9
$CLAYER
  8
0
  9
$CELTYPE
  6
ByLayer
  9
$CECOLOR
 62
   256
  9
$CELTSCALE
 40
1.0
  9
$DISPSILH
 70
     0
  9
$DIMSCALE
 40
1.0
  9
$DIMASZ
 40
0.18
  9
$DIMEXO
 40
0.0625
  9
$DIMDLI
 40
0.38
  9
$DIMRND
 40
0.0
  9
$DIMDLE
 40
0.0
  9
$DIMEXE
 40
0.18
  9
$DIMTP
 40
0.0
  9
$DIMTM
 40
0.0
  9
$DIMTXT
 40
0.18
  9
$DIMCEN
 40
0.09
  9
$DIMTSZ
 40
0.0
  9
$DIMTOL
 70
     0
  9
$DIMLIM
 70
     0
  9
$DIMTIH
 70
     1
  9
$DIMTOH
 70
     1
  9
$DIMSE1
 70
     0
  9
$DIMSE2
 70
     0
  9
$DIMTAD
 70
     0
  9
$DIMZIN
 70
     0
  9
$DIMBLK
  1

  9
$DIMASO
 70
     1
  9
$DIMSHO
 70
     1
  9
$DIMPOST
  1

  9
$DIMAPOST
  1

  9
$DIMALT
 70
     0
  9
$DIMALTD
 70
     2
  9
$DIMALTF
 40
25.4
  9
$DIMLFAC
 40
1.0
  9
$DIMTOFL
 70
     0
  9
$DIMTVP
 40
0.0
  9
$DIMTIX
 70
     0
  9
$DIMSOXD
 70
     0
  9
$DIMSAH
 70
     0
  9
$DIMBLK1
  1

  9
$DIMBLK2
  1

  9
$DIMSTYLE
  2
Standard
  9
$DIMCLRD
 70
     0
  9
$DIMCLRE
 70
     0
  9
$DIMCLRT
 70
     0
  9
$DIMTFAC
 40
1.0
  9
$DIMGAP
 40
0.09
  9
$DIMJUST
 70
     0
  9
$DIMSD1
 70
     0
  9
$DIMSD2
 70
     0
  9
$DIMTOLJ
 70
     1
  9
$DIMTZIN
 70
     0
  9
$DIMALTZ
 70
     0
  9
$DIMALTTZ
 70
     0
  9
$DIMUPT
 70
     0
  9
$DIMDEC
 70
     4
  9
$DIMTDEC
 70
     4
  9
$DIMALTU
 70
     2
  9
$DIMALTTD
 70
     2
  9
$DIMTXSTY
  7
Standard
  9
$DIMAUNIT
 70
     0
  9
$DIMADEC
 70
     0
  9
$DIMALTRND
 40
0.0
  9
$DIMAZIN
 70
     0
  9
$DIMDSEP
 70
    46
  9
$DIMATFIT
 70
     3
  9
$DIMFRAC
 70
     0
  9
$DIMLDRBLK
  1

  9
$DIMLUNIT
 70
     2
  9
$DIMLWD
 70
    -2
  9
$DIMLWE
 70
    -2
  9
$DIMTMOVE
 70
     0
  9
$LUNITS
 70
     2
  9
$LUPREC
 70
     4
  9
$SKETCHINC
 40
0.1
  9
$FILLETRAD
 40
0.5
  9
$AUNITS
 70
     0
  9
$AUPREC
 70
     0
  9
$MENU
  1
.
  9
$ELEVATION
 40
0.0
  9
$PELEVATION
 40
0.0
  9
$THICKNESS
 40
0.0
  9
$LIMCHECK
 70
     0
  9
$CHAMFERA
 40
0.5
  9
$CHAMFERB
 40
0.5
  9
$CHAMFERC
 40
1.0
  9
$CHAMFERD
 40
0.0
  9
$SKPOLY
 70
     0
  9
$TDCREATE
 40
2456637.585189259
  9
$TDUCREATE
 40
2456637.543522593
  9
$TDUPDATE
 40
2456637.585189271
  9
$TDUUPDATE
 40
2456637.543522604
  9
$TDINDWG
 40
0.0000000116
  9
$TDUSRTIMER
 40
0.0000000116
  9
$USRTIMER
 70
     1
  9
$ANGBASE
 50
0.0
  9
$ANGDIR
 70
     0
  9
$PDMODE
 70
     0
  9
$PDSIZE
 40
0.0
  9
$PLINEWID
 40
0.0
  9
$SPLFRAME
 70
     0
  9
$SPLINETYPE
 70
     6
  9
$SPLINESEGS
 70
     8
  9
$HANDSEED
  5
174
  9
$SURFTAB1
 70
     6
  9
$SURFTAB2
 70
     6
  9
$SURFTYPE
 70
     6
  9
$SURFU
 70
     6
  9
$SURFV
 70
     6
  9
$UCSBASE
  2

  9
$UCSNAME
  2

  9
$UCSORG
 10
0.0
 20
0.0
 30
0.0
  9
$UCSXDIR
 10
1.0
 20
0.0
 30
0.0
  9
$UCSYDIR
 10
0.0
 20
1.0
 30
0.0
  9
$UCSORTHOREF
  2

  9
$UCSORTHOVIEW
 70
     0
  9
$UCSORGTOP
 10
0.0
 20
0.0
 30
0.0
  9
$UCSORGBOTTOM
 10
0.0
 20
0.0
 30
0.0
  9
$UCSORGLEFT
 10
0.0
 20
0.0
 30
0.0
  9
$UCSORGRIGHT
 10
0.0
 20
0.0
 30
0.0
  9
$UCSORGFRONT
 10
0.0
 20
0.0
 30
0.0
  9
$UCSORGBACK
 10
0.0
 20
0.0
 30
0.0
  9
$PUCSBASE
  2

  9
$PUCSNAME
  2

  9
$PUCSORG
 10
0.0
 20
0.0
 30
0.0
  9
$PUCSXDIR
 10
1.0
 20
0.0
 30
0.0
  9
$PUCSYDIR
 10
0.0
 20
1.0
 30
0.0
  9
$PUCSORTHOREF
  2

  9
$PUCSORTHOVIEW
 70
     0
  9
$PUCSORGTOP
 10
0.0
 20
0.0
 30
0.0
  9
$PUCSORGBOTTOM
 10
0.0
 20
0.0
 30
0.0
  9
$PUCSORGLEFT
 10
0.0
 20
0.0
 30
0.0
  9
$PUCSORGRIGHT
 10
0.0
 20
0.0
 30
0.0
  9
$PUCSORGFRONT
 10
0.0
 20
0.0
 30
0.0
  9
$PUCSORGBACK
 10
0.0
 20
0.0
 30
0.0
  9
$USERI1
 70
     0
  9
$USERI2
 70
     0
  9
$USERI3
 70
     0
  9
$USERI4
 70
     0
  9
$USERI5
 70
     0
  9
$USERR1
 40
16.5
  9
$USERR2
 40
0.0
  9
$USERR3
 40
0.0
  9
$USERR4
 40
0.0
  9
$USERR5
 40
0.0
  9
$WORLDVIEW
 70
     1
  9
$SHADEDGE
 70
     3
  9
$SHADEDIF
 70
    70
  9
$TILEMODE
 70
     1
  9
$MAXACTVP
 70
    64
  9
$PINSBASE
 10
0.0
 20
0.0
 30
0.0
  9
$PLIMCHECK
 70
     0
  9
$PEXTMIN
 10
1.00000000000000E+20
 20
1.00000000000000E+20
 30
1.00000000000000E+20
  9
$PEXTMAX
 10
-1.00000000000000E+20
 20
-1.00000000000000E+20
 30
-1.00000000000000E+20
  9
$PLIMMIN
 10
0.0
 20
0.0
  9
$PLIMMAX
 10
12.0
 20
9.0
  9
$UNITMODE
 70
     0
  9
$VISRETAIN
 70
     1
  9
$PLINEGEN
 70
     0
  9
$PSLTSCALE
 70
     1
  9
$TREEDEPTH
 70
  3020
  9
$CMLSTYLE
  2
Standard
  9
$CMLJUST
 70
     0
  9
$CMLSCALE
 40
1.0
  9
$PROXYGRAPHICS
 70
     1
  9
$MEASUREMENT
 70
     1
  9
$CELWEIGHT
370
    -1
  9
$ENDCAPS
280
     0
  9
$JOINSTYLE
280
     0
  9
$LWDISPLAY
290
     0
  9
$INSUNITS
 70
     1
  9
$HYPERLINKBASE
  1

  9
$STYLESHEET
  1

  9
$XEDIT
290
     1
  9
$CEPSNTYPE
380
     0
  9
$PSTYLEMODE
290
     1
  9
$FINGERPRINTGUID
  2
{4056A907-6CCF-4311-939C-68BF85733ED9}
  9
$VERSIONGUID
  2
{FAEB1C32-E019-11D5-929B-00C0DF256EC4}
  9
$EXTNAMES
290
     1
  9
$PSVPSCALE
 40
0.0
  9
$OLESTARTUP
290
     0
  0
ENDSEC
  0
SECTION
  2
CLASSES
  0
CLASS
  1
ACDBDICTIONARYWDFLT
  2
AcDbDictionaryWithDefault
  3
ObjectDBX Classes
 90
        0
280
     0
281
     0
  0
CLASS
  1
VISUALSTYLE
  2
AcDbVisualStyle
  3
ObjectDBX Classes
 90
     4095
280
     0
281
     0
  0
CLASS
  1
SCALE
  2
AcDbScale
  3
ObjectDBX Classes
 90
     1153
280
     0
281
     0
  0
CLASS
  1

  2
exOdDbPolyline
  3

 90
        0
280
     0
281
     1
  0
CLASS
  1

  2
exOdDbSpline
  3

 90
        0
280
     0
281
     1
  0
CLASS
  1
DICTIONARYVAR
  2
AcDbDictionaryVar
  3
ObjectDBX Classes
 90
        0
280
     0
281
     0
  0
CLASS
  1
ACDBPLACEHOLDER
  2
AcDbPlaceHolder
  3
ObjectDBX Classes
 90
        0
280
     0
281
     0
  0
CLASS
  1
LAYOUT
  2
AcDbLayout
  3
ObjectDBX Classes
 90
        0
280
     0
281
     0
  0
ENDSEC
  0
SECTION
  2
TABLES
  0
TABLE
  2
VPORT
  5
8
330
0
100
AcDbSymbolTable
 70
     1
  0
VPORT
  5
29
330
8
100
AcDbSymbolTableRecord
100
AcDbViewportTableRecord
  2
*Active
 70
     0
 10
0.0
 20
0.0
 11
1.0
 21
1.0
 12
-28.75409792332714
 22
62.69392753867798
 13
0.0
 23
0.0
 14
0.5
 24
0.5
 15
0.5
 25
0.5
 16
0.0
 26
0.0
 36
1.0
 17
0.0
 27
0.0
 37
0.0
 40
129.4940405850916
 41
1.60267857142857
 42
50.0
 43
0.0
 44
0.0
 50
0.0
 51
0.0
 71
     0
 72
   100
 73
     1
 74
     3
 75
     0
 76
     0
 77
     0
 78
     0
281
     0
 65
     1
110
0.0
120
0.0
130
0.0
111
1.0
121
0.0
131
0.0
112
0.0
122
1.0
132
0.0
 79
     0
146
0.0
  0
ENDTAB
  0
TABLE
  2
LTYPE
  5
5
330
0
100
AcDbSymbolTable
 70
     8
  0
LTYPE
  5
14
330
5
100
AcDbSymbolTableRecord
100
AcDbLinetypeTableRecord
  2
ByBlock
 70
     0
  3

 72
    65
 73
     0
 40
0.0
  0
LTYPE
  5
15
330
5
100
AcDbSymbolTableRecord
100
AcDbLinetypeTableRecord
  2
ByLayer
 70
     0
  3

 72
    65
 73
     0
 40
0.0
  0
LTYPE
  5
16
330
5
100
AcDbSymbolTableRecord
100
AcDbLinetypeTableRecord
  2
Continuous
 70
     0
  3
Solid line
 72
    65
 73
     0
 40
0.0
  0
LTYPE
  5
3B
330
5
100
AcDbSymbolTableRecord
100
AcDbLinetypeTableRecord
  2
DASHED
 70
     0
  3
Dashed
 72
    65
 73
     2
 40
15.0
 49
7.0
 74
     0
 49
-8.0
 74
     0
  0
LTYPE
  5
3C
330
5
100
AcDbSymbolTableRecord
100
AcDbLinetypeTableRecord
  2
DOTTED
 70
     0
  3
Dotted
 72
    65
 73
     2
 40
1.0
 49
0.0
 74
     0
 49
-1.0
 74
     0
  0
LTYPE
  5
3D
330
5
100
AcDbSymbolTableRecord
100
AcDbLinetypeTableRecord
  2
DOT_CENTER
 70
     0
  3
Dot_Center
 72
    65
 73
     4
 40
14.0
 49
12.0
 74
     0
 49
-1.0
 74
     0
 49
0.0
 74
     0
 49
-1.0
 74
     0
  0
LTYPE
  5
3E
330
5
100
AcDbSymbolTableRecord
100
AcDbLinetypeTableRecord
  2
LONG_DASHED
 70
     0
  3
Long_Dashed
 72
    65
 73
     2
 40
15.0
 49
10.0
 74
     0
 49
-5.0
 74
     0
  0
LTYPE
  5
3F
330
5
100
AcDbSymbolTableRecord
100
AcDbLinetypeTableRecord
  2
DASH_CENTER
 70
     0
  3
Dash_Center
 72
    65
 73
     4
 40
14.0
 49
11.0
 74
     0
 49
-1.0
 74
     0
 49
1.0
 74
     0
 49
-1.0
 74
     0
  0
LTYPE
  5
40
330
5
100
AcDbSymbolTableRecord
100
AcDbLinetypeTableRecord
  2
PHANTOM
 70
     0
  3
Phantom
 72
    65
 73
     6
 40
13.0
 49
10.0
 74
     0
 49
-1.0
 74
     0
 49
0.0
 74
     0
 49
-1.0
 74
     0
 49
0.0
 74
     0
 49
-1.0
 74
     0
  0
LTYPE
  5
41
330
5
100
AcDbSymbolTableRecord
100
AcDbLinetypeTableRecord
  2
CENTER_DASH_DASH
 70
     0
  3
Center_Dash_Dash
 72
    65
 73
     6
 40
14.0
 49
9.0
 74
     0
 49
-1.0
 74
     0
 49
1.0
 74
     0
 49
-1.0
 74
     0
 49
1.0
 74
     0
 49
-1.0
 74
     0
  0
ENDTAB
  0
TABLE
  2
LAYER
  5
2
330
0
100
AcDbSymbolTable
 70
     4
  0
LAYER
  5
10
330
2
100
AcDbSymbolTableRecord
100
AcDbLayerTableRecord
  2
0
 70
     0
 62
     7
  6
Continuous
370
    -3
390
F
  0
LAYER
  5
42
330
2
100
AcDbSymbolTableRecord
100
AcDbLayerTableRecord
  2
1
 70
     0
 62
     7
  6
Continuous
370
    -3
390
F
  0
LAYER
  5
43
330
2
100
AcDbSymbolTableRecord
100
AcDbLayerTableRecord
  2
FLAECHEN
 70
     0
 62
     7
  6
Continuous
370
    -3
390
F
  0
LAYER
  5
44
330
2
100
AcDbSymbolTableRecord
100
AcDbLayerTableRecord
  2
TEIL_STARTBEZUEGE
 70
     0
 62
     7
  6
Continuous
370
    -3
390
F
  0
ENDTAB
  0
TABLE
  2
STYLE
  5
3
330
0
100
AcDbSymbolTable
 70
     2
  0
STYLE
  5
11
330
3
100
AcDbSymbolTableRecord
100
AcDbTextStyleTableRecord
  2
Standard
 70
     0
 40
0.0
 41
1.0
 50
0.0
 71
     0
 42
0.2
  3
txt
  4

  0
STYLE
  5
A6
330
3
100
AcDbSymbolTableRecord
100
AcDbTextStyleTableRecord
  2
CONVERTER_11
 70
     0
 40
0.0
 41
0.72
 50
0.0
 71
     0
 42
0.2
  3
txt.shx
  4

  0
ENDTAB
  0
TABLE
  2
VIEW
  5
6
330
0
100
AcDbSymbolTable
 70
     0
  0
ENDTAB
  0
TABLE
  2
UCS
  5
7
330
0
100
AcDbSymbolTable
 70
     0
  0
ENDTAB
  0
TABLE
  2
APPID
  5
9
330
0
100
AcDbSymbolTable
 70
     1
  0
APPID
  5
12
330
9
100
AcDbSymbolTableRecord
100
AcDbRegAppTableRecord
  2
ACAD
 70
     0
  0
ENDTAB
  0
TABLE
  2
DIMSTYLE
  5
A
330
0
100
AcDbSymbolTable
 70
     7
100
AcDbDimStyleTable
  0
DIMSTYLE
105
27
330
A
100
AcDbSymbolTableRecord
100
AcDbDimStyleTableRecord
  2
Standard
 70
     0
340
11
  0
DIMSTYLE
105
130
102
{ACAD_REACTORS
330
131
102
}
330
A
100
AcDbSymbolTableRecord
100
AcDbDimStyleTableRecord
  2
ME10_DIM_10
 70
     0
  3
\U+2300<>
 41
3.5
 42
2.0
 44
2.0
 71
     1
 73
     0
 74
     0
 77
     1
 78
     8
140
3.5
146
0.7
147
2.0
172
     1
173
     1
176
     2
177
     2
178
     3
271
     2
272
     0
340
A6
  0
DIMSTYLE
105
13B
102
{ACAD_REACTORS
330
13C
102
}
330
A
100
AcDbSymbolTableRecord
100
AcDbDimStyleTableRecord
  2
ME10_DIM_11
 70
     0
  3
\U+2300<>
 41
3.5
 42
2.0
 44
2.0
 71
     1
 73
     0
 74
     0
 77
     1
 78
     8
140
3.5
146
0.7
147
2.0
172
     1
173
     1
176
     2
177
     2
178
     3
271
     2
272
     0
340
A6
  0
DIMSTYLE
105
146
102
{ACAD_REACTORS
330
147
102
}
330
A
100
AcDbSymbolTableRecord
100
AcDbDimStyleTableRecord
  2
ME10_DIM_12
 70
     0
  3
<>
 41
3.5
 42
2.0
 44
2.0
 71
     1
 73
     0
 74
     0
 77
     1
 78
     8
140
3.5
146
0.7
147
2.0
172
     1
173
     1
176
     2
177
     2
178
     3
271
     2
272
     0
340
A6
  0
DIMSTYLE
105
151
102
{ACAD_REACTORS
330
152
102
}
330
A
100
AcDbSymbolTableRecord
100
AcDbDimStyleTableRecord
  2
ME10_DIM_13
 70
     0
  3
<>
 41
3.5
 42
2.0
 44
2.0
 71
     1
 73
     0
 74
     0
 77
     1
 78
     8
140
3.5
146
0.7
147
2.0
172
     1
173
     1
176
     2
177
     2
178
     3
271
     2
272
     0
340
A6
  0
DIMSTYLE
105
15C
102
{ACAD_REACTORS
330
15D
102
}
330
A
100
AcDbSymbolTableRecord
100
AcDbDimStyleTableRecord
  2
ME10_DIM_14
 70
     0
  3
<>
 41
3.5
 42
2.0
 44
2.0
 71
     1
 73
     0
 74
     0
 77
     1
 78
     8
140
3.5
146
0.7
147
2.0
172
     1
173
     1
176
     2
177
     2
178
     3
271
     2
272
     0
340
A6
  0
DIMSTYLE
105
167
102
{ACAD_REACTORS
330
168
102
}
330
A
100
AcDbSymbolTableRecord
100
AcDbDimStyleTableRecord
  2
ME10_DIM_15
 70
     0
  3
<>
 41
3.5
 42
2.0
 44
2.0
 71
     1
 73
     0
 74
     0
 77
     1
 78
     8
140
3.5
146
0.7
147
2.0
172
     1
173
     1
176
     2
177
     2
178
     3
271
     2
272
     0
340
A6
  0
ENDTAB
  0
TABLE
  2
BLOCK_RECORD
  5
1
330
0
100
AcDbSymbolTable
 70
    11
  0
BLOCK_RECORD
  5
1F
330
1
100
AcDbSymbolTableRecord
100
AcDbBlockTableRecord
  2
*Model_Space
340
22
  0
BLOCK_RECORD
  5
1B
330
1
100
AcDbSymbolTableRecord
100
AcDbBlockTableRecord
  2
*Paper_Space
340
1E
  0
BLOCK_RECORD
  5
23
330
1
100
AcDbSymbolTableRecord
100
AcDbBlockTableRecord
  2
*Paper_Space0
340
26
  0
BLOCK_RECORD
  5
45
330
1
100
AcDbSymbolTableRecord
100
AcDbBlockTableRecord
  2
83-912-16
340
0
102
{BLKREFS
331
70
102
}
  0
BLOCK_RECORD
  5
48
330
1
100
AcDbSymbolTableRecord
100
AcDbBlockTableRecord
  2
Urheberrecht_DE-EN
340
0
102
{BLKREFS
331
71
102
}
  0
BLOCK_RECORD
  5
4B
330
1
100
AcDbSymbolTableRecord
100
AcDbBlockTableRecord
  2
A80_Aussen
340
0
102
{BLKREFS
331
72
102
}
  0
BLOCK_RECORD
  5
127
330
1
100
AcDbSymbolTableRecord
100
AcDbBlockTableRecord
  2
*D4
340
0
  0
BLOCK_RECORD
  5
132
330
1
100
AcDbSymbolTableRecord
100
AcDbBlockTableRecord
  2
*D5
340
0
  0
BLOCK_RECORD
  5
13D
330
1
100
AcDbSymbolTableRecord
100
AcDbBlockTableRecord
  2
*D6
340
0
  0
BLOCK_RECORD
  5
148
330
1
100
AcDbSymbolTableRecord
100
AcDbBlockTableRecord
  2
*D7
340
0
  0
BLOCK_RECORD
  5
153
330
1
100
AcDbSymbolTableRecord
100
AcDbBlockTableRecord
  2
*D8
340
0
  0
BLOCK_RECORD
  5
15E
330
1
100
AcDbSymbolTableRecord
100
AcDbBlockTableRecord
  2
*D9
340
0
  0
BLOCK_RECORD
  5
169
330
1
100
AcDbSymbolTableRecord
100
AcDbBlockTableRecord
  2
*D10
340
0
102
{BLKREFS
331
16F
102
}
  0
ENDTAB
  0
ENDSEC
  0
SECTION
  2
BLOCKS
  0
BLOCK
  5
20
330
1F
100
AcDbEntity
  8
0
100
AcDbBlockBegin
  2
*Model_Space
 70
     0
 10
0.0
 20
0.0
 30
0.0
  3
*Model_Space
  1

  0
ENDBLK
  5
21
330
1F
100
AcDbEntity
  8
0
100
AcDbBlockEnd
  0
BLOCK
  5
1C
330
1B
100
AcDbEntity
 67
     1
  8
0
100
AcDbBlockBegin
  2
*Paper_Space
 70
     0
 10
0.0
 20
0.0
 30
0.0
  3
*Paper_Space
  1

  0
ENDBLK
  5
1D
330
1B
100
AcDbEntity
 67
     1
  8
0
100
AcDbBlockEnd
  0
BLOCK
  5
24
330
23
100
AcDbEntity
  8
0
100
AcDbBlockBegin
  2
*Paper_Space0
 70
     0
 10
0.0
 20
0.0
 30
0.0
  3
*Paper_Space0
  1

  0
ENDBLK
  5
25
330
23
100
AcDbEntity
  8
0
100
AcDbBlockEnd
  0
BLOCK
  5
46
330
45
100
AcDbEntity
  8
0
100
AcDbBlockBegin
  2
83-912-16
 70
     0
 10
41.00700000000006
 20
44.08299999999996
 30
0.0
  3
83-912-16
  1

  0
LWPOLYLINE
  5
73
330
45
100
AcDbEntity
  8
FLAECHEN
  6
Continuous
 62
     7
100
AcDbPolyline
 90
        2
 70
     0
 43
0.5
 10
37.75700000000006
 20
30.08299999999996
 10
23.20700000000008
 20
30.08299999999996
  0
LWPOLYLINE
  5
74
330
45
100
AcDbEntity
  8
1
  6
Continuous
 62
     7
100
AcDbPolyline
 90
        2
 70
     0
 43
0.5
 10
37.75700000000006
 20
30.08299999999996
 10
23.20700000000008
 20
30.08299999999996
  0
LWPOLYLINE
  5
75
330
45
100
AcDbEntity
  8
0
  6
Continuous
 62
     7
100
AcDbPolyline
 90
        2
 70
     0
 43
0.5
 10
37.75700000000006
 20
30.09466963119997
 10
30.50700000000006
 20
30.09466963119997
  0
LWPOLYLINE
  5
76
330
45
100
AcDbEntity
  8
1
  6
Continuous
 62
     7
100
AcDbPolyline
 90
        2
 70
     0
 43
0.5
 10
37.75700000000006
 20
30.09466963119997
 10
30.50700000000006
 20
30.09466963119997
  0
LWPOLYLINE
  5
77
330
45
100
AcDbEntity
  8
FLAECHEN
  6
Continuous
 62
     7
100
AcDbPolyline
 90
        2
 70
     0
 43
0.5
 10
23.20700000000008
 20
58.08299999999996
 10
23.20700000000008
 20
30.08299999999996
  0
LWPOLYLINE
  5
78
330
45
100
AcDbEntity
  8
1
  6
Continuous
 62
     7
100
AcDbPolyline
 90
        2
 70
     0
 43
0.5
 10
23.20700000000008
 20
58.08299999999996
 10
23.20700000000008
 20
30.08299999999996
  0
LWPOLYLINE
  5
79
330
45
100
AcDbEntity
  8
0
  6
Continuous
 62
     7
100
AcDbPolyline
 90
        2
 70
     0
 43
0.5
 10
37.75700000000006
 20
36.59390035489997
 10
30.50700000000006
 20
36.59390035489997
  0
LWPOLYLINE
  5
7A
330
45
100
AcDbEntity
  8
1
  6
Continuous
 62
     7
100
AcDbPolyline
 90
        2
 70
     0
 43
0.5
 10
37.75700000000006
 20
36.59390035489997
 10
30.50700000000006
 20
36.59390035489997
  0
LWPOLYLINE
  5
7B
330
45
100
AcDbEntity
  8
0
  6
Continuous
 62
     7
100
AcDbPolyline
 90
        2
 70
     0
 43
0.5
 10
37.75700000000006
 20
37.63169199299997
 10
30.50700000000006
 20
37.63169199299997
  0
LWPOLYLINE
  5
7C
330
45
100
AcDbEntity
  8
1
  6
Continuous
 62
     7
100
AcDbPolyline
 90
        2
 70
     0
 43
0.5
 10
37.75700000000006
 20
37.63169199299997
 10
30.50700000000006
 20
37.63169199299997
  0
LWPOLYLINE
  5
7D
330
45
100
AcDbEntity
  8
0
  6
Continuous
 62
     7
100
AcDbPolyline
 90
        2
 70
     0
 43
0.5
 10
30.50700000000006
 20
58.07133036869997
 10
30.50700000000006
 20
51.57209964499997
  0
LWPOLYLINE
  5
7E
330
45
100
AcDbEntity
  8
1
  6
Continuous
 62
     7
100
AcDbPolyline
 90
        2
 70
     0
 43
0.5
 10
30.50700000000006
 20
58.07133036869997
 10
30.50700000000006
 20
51.57209964499997
  0
LWPOLYLINE
  5
7F
330
45
100
AcDbEntity
  8
0
  6
Continuous
 62
     7
100
AcDbPolyline
 90
        2
 70
     0
 43
0.5
 10
30.50700000000006
 20
36.59390035489997
 10
30.50700000000006
 20
30.09466963119997
  0
LWPOLYLINE
  5
80
330
45
100
AcDbEntity
  8
1
  6
Continuous
 62
     7
100
AcDbPolyline
 90
        2
 70
     0
 43
0.5
 10
30.50700000000006
 20
36.59390035489997
 10
30.50700000000006
 20
30.09466963119997
  0
LWPOLYLINE
  5
81
330
45
100
AcDbEntity
  8
0
  6
Continuous
 62
     7
100
AcDbPolyline
 90
        2
 70
     0
 43
0.5
 10
30.50700000000006
 20
37.63169199299997
 10
30.50700000000006
 20
50.53430800689997
  0
LWPOLYLINE
  5
82
330
45
100
AcDbEntity
  8
1
  6
Continuous
 62
     7
100
AcDbPolyline
 90
        2
 70
     0
 43
0.5
 10
30.50700000000006
 20
37.63169199299997
 10
30.50700000000006
 20
50.53430800689997
  0
LWPOLYLINE
  5
83
330
45
100
AcDbEntity
  8
TEIL_STARTBEZUEGE
  6
DOT_CENTER
 62
     7
100
AcDbPolyline
 90
        2
 70
     0
 43
0.25
 10
44.00700000000006
 20
44.08299999999996
 10
20.20700000000008
 20
44.08299999999996
  0
LWPOLYLINE
  5
84
330
45
100
AcDbEntity
  8
0
  6
Continuous
 62
     7
100
AcDbPolyline
 90
        2
 70
     0
 43
0.5
 10
37.75700000000006
 20
58.08299999999996
 10
37.75700000000006
 20
58.07133036869997
  0
LWPOLYLINE
  5
85
330
45
100
AcDbEntity
  8
1
  6
Continuous
 62
     7
100
AcDbPolyline
 90
        2
 70
     0
 43
0.5
 10
37.75700000000006
 20
58.08299999999996
 10
37.75700000000006
 20
58.07133036869997
  0
LWPOLYLINE
  5
86
330
45
100
AcDbEntity
  8
0
  6
Continuous
 62
     7
100
AcDbPolyline
 90
        2
 70
     0
 43
0.5
 10
37.75700000000006
 20
51.57209964499997
 10
37.75700000000006
 20
50.53430800689997
  0
LWPOLYLINE
  5
87
330
45
100
AcDbEntity
  8
1
  6
Continuous
 62
     7
100
AcDbPolyline
 90
        2
 70
     0
 43
0.5
 10
37.75700000000006
 20
51.57209964499997
 10
37.75700000000006
 20
50.53430800689997
  0
LWPOLYLINE
  5
88
330
45
100
AcDbEntity
  8
0
  6
Continuous
 62
     7
100
AcDbPolyline
 90
        2
 70
     0
 43
0.5
 10
37.75700000000006
 20
37.63169199299997
 10
37.75700000000006
 20
36.59390035489997
  0
LWPOLYLINE
  5
89
330
45
100
AcDbEntity
  8
1
  6
Continuous
 62
     7
100
AcDbPolyline
 90
        2
 70
     0
 43
0.5
 10
37.75700000000006
 20
37.63169199299997
 10
37.75700000000006
 20
36.59390035489997
  0
LWPOLYLINE
  5
8A
330
45
100
AcDbEntity
  8
0
  6
Continuous
 62
     7
100
AcDbPolyline
 90
        2
 70
     0
 43
0.5
 10
37.75700000000006
 20
30.09466963119997
 10
37.75700000000006
 20
30.08299999999996
  0
LWPOLYLINE
  5
8B
330
45
100
AcDbEntity
  8
1
  6
Continuous
 62
     7
100
AcDbPolyline
 90
        2
 70
     0
 43
0.5
 10
37.75700000000006
 20
30.09466963119997
 10
37.75700000000006
 20
30.08299999999996
  0
LWPOLYLINE
  5
8C
330
45
100
AcDbEntity
  8
0
  6
Continuous
 62
     7
100
AcDbPolyline
 90
        2
 70
     0
 43
0.5
 10
37.75700000000006
 20
50.53430800689997
 10
30.50700000000006
 20
50.53430800689997
  0
LWPOLYLINE
  5
8D
330
45
100
AcDbEntity
  8
1
  6
Continuous
 62
     7
100
AcDbPolyline
 90
        2
 70
     0
 43
0.5
 10
37.75700000000006
 20
50.53430800689997
 10
30.50700000000006
 20
50.53430800689997
  0
LWPOLYLINE
  5
8E
330
45
100
AcDbEntity
  8
0
  6
Continuous
 62
     7
100
AcDbPolyline
 90
        2
 70
     0
 43
0.5
 10
37.75700000000006
 20
51.57209964499997
 10
30.50700000000006
 20
51.57209964499997
  0
LWPOLYLINE
  5
8F
330
45
100
AcDbEntity
  8
1
  6
Continuous
 62
     7
100
AcDbPolyline
 90
        2
 70
     0
 43
0.5
 10
37.75700000000006
 20
51.57209964499997
 10
30.50700000000006
 20
51.57209964499997
  0
LWPOLYLINE
  5
90
330
45
100
AcDbEntity
  8
FLAECHEN
  6
Continuous
 62
     7
100
AcDbPolyline
 90
        2
 70
     0
 43
0.5
 10
41.00700000000006
 20
54.83299999999996
 10
41.00700000000006
 20
33.33299999999996
  0
LWPOLYLINE
  5
91
330
45
100
AcDbEntity
  8
1
  6
Continuous
 62
     7
100
AcDbPolyline
 90
        2
 70
     0
 43
0.5
 10
41.00700000000006
 20
54.83299999999996
 10
41.00700000000006
 20
33.33299999999996
  0
LWPOLYLINE
  5
92
330
45
100
AcDbEntity
  8
FLAECHEN
  6
Continuous
 62
     7
100
AcDbPolyline
 90
        2
 70
     0
 43
0.5
 10
41.00700000000006
 20
33.33299999999996
 10
37.75700000000006
 20
30.08299999999996
  0
LWPOLYLINE
  5
93
330
45
100
AcDbEntity
  8
1
  6
Continuous
 62
     7
100
AcDbPolyline
 90
        2
 70
     0
 43
0.5
 10
41.00700000000006
 20
33.33299999999996
 10
37.75700000000006
 20
30.08299999999996
  0
LWPOLYLINE
  5
94
330
45
100
AcDbEntity
  8
0
  6
Continuous
 62
     7
100
AcDbPolyline
 90
        2
 70
     0
 43
0.5
 10
37.75700000000006
 20
58.07133036869997
 10
30.50700000000006
 20
58.07133036869997
  0
LWPOLYLINE
  5
95
330
45
100
AcDbEntity
  8
1
  6
Continuous
 62
     7
100
AcDbPolyline
 90
        2
 70
     0
 43
0.5
 10
37.75700000000006
 20
58.07133036869997
 10
30.50700000000006
 20
58.07133036869997
  0
LWPOLYLINE
  5
96
330
45
100
AcDbEntity
  8
FLAECHEN
  6
Continuous
 62
     7
100
AcDbPolyline
 90
        2
 70
     0
 43
0.5
 10
37.75700000000006
 20
58.08299999999996
 10
23.20700000000008
 20
58.08299999999996
  0
LWPOLYLINE
  5
97
330
45
100
AcDbEntity
  8
1
  6
Continuous
 62
     7
100
AcDbPolyline
 90
        2
 70
     0
 43
0.5
 10
37.75700000000006
 20
58.08299999999996
 10
23.20700000000008
 20
58.08299999999996
  0
LWPOLYLINE
  5
98
330
45
100
AcDbEntity
  8
FLAECHEN
  6
Continuous
 62
     7
100
AcDbPolyline
 90
        2
 70
     0
 43
0.5
 10
41.00700000000006
 20
54.83299999999996
 10
37.75700000000006
 20
58.08299999999996
  0
LWPOLYLINE
  5
99
330
45
100
AcDbEntity
  8
1
  6
Continuous
 62
     7
100
AcDbPolyline
 90
        2
 70
     0
 43
0.5
 10
41.00700000000006
 20
54.83299999999996
 10
37.75700000000006
 20
58.08299999999996
  0
SPLINE
  5
9A
330
45
100
AcDbEntity
  8
0
  6
Continuous
 62
     7
100
AcDbSpline
210
0.0
220
0.0
230
1.0
 70
     8
 71
     3
 72
    23
 73
    19
 74
    17
 42
0.0000000001
 43
0.0000000001
 44
0.00000001
 40
0.0
 40
0.0
 40
0.0
 40
0.0
 40
0.5071451101029014
 40
1.014414284666531
 40
1.490352341399001
 40
1.966249264051784
 40
2.411642089479156
 40
2.856896309140714
 40
3.282291174607286
 40
3.707501642434231
 40
4.132711653715178
 40
4.558106103350485
 40
5.003359793845259
 40
5.448751991696413
 40
5.924648293907842
 40
6.400585822984787
 40
6.907854660857577
 40
7.414999390704086
 40
7.414999390704086
 40
7.414999390704086
 40
7.414999390704086
 10
37.75700000000006
 20
30.09466963119997
 30
0.0
 10
37.87047518812108
 20
30.22002008412734
 30
0.0
 10
38.09745332414575
 20
30.4707516548471
 30
0.0
 10
38.40567639767048
 20
30.8608803990107
 30
0.0
 10
38.68319114338001
 20
31.26073093209763
 30
0.0
 10
38.9175899866423
 20
31.66390704231801
 30
0.0
 10
39.10951016216161
 20
32.07779864670903
 30
0.0
 10
39.25034126668818
 20
32.49437214137992
 30
0.0
 10
39.33686013745958
 20
32.91873278568086
 30
0.0
 10
39.36706802020538
 20
33.34428673840235
 30
0.0
 10
39.33685902800512
 20
33.76984046244864
 30
0.0
 10
39.25033963329562
 20
34.19420048196606
 30
0.0
 10
39.1095091489937
 20
34.61077359727108
 30
0.0
 10
38.91758971101208
 20
35.02466491789712
 30
0.0
 10
38.68319065930937
 20
35.42784025231434
 30
0.0
 10
38.40567558391518
 20
35.82768993401021
 30
0.0
 10
38.09745294049468
 20
36.21781847374268
 30
0.0
 10
37.87047505699184
 20
36.46854995306206
 30
0.0
 10
37.75700000000006
 20
36.59390035489997
 30
0.0
 11
37.75700000000006
 21
30.09466963119997
 31
0.0
 11
38.09313039824032
 21
30.47442286433977
 31
0.0
 11
38.40780712503427
 21
30.87229290980274
 31
0.0
 11
38.67785981480954
 21
31.26419669721927
 31
0.0
 11
38.91599186816084
 21
31.67622947037826
 31
0.0
 11
39.10208352891772
 21
32.08088322698868
 31
0.0
 11
39.24330233198796
 21
32.50314922110356
 31
0.0
 11
39.3277056897075
 21
32.92008670415227
 31
0.0
 11
39.35699999658215
 21
33.34428687569201
 31
0.0
 11
39.32770467684539
 21
33.76848651965115
 31
0.0
 11
39.24330087818706
 21
34.18542348917121
 31
0.0
 11
39.10208251623415
 21
34.60768907283456
 31
0.0
 11
38.91599143633574
 21
35.01234240581098
 31
0.0
 11
38.67785934021046
 21
35.42437443764042
 31
0.0
 11
38.40780648920881
 21
35.81627747316036
 31
0.0
 11
38.09313000189709
 21
36.21414727876261
 31
0.0
 11
37.75700000000006
 21
36.59390035489997
 31
0.0
  0
SPLINE
  5
9B
330
45
100
AcDbEntity
  8
0
  6
Continuous
 62
     7
100
AcDbSpline
210
0.0
220
0.0
230
1.0
 70
     8
 71
     3
 72
    23
 73
    19
 74
    17
 42
0.0000000001
 43
0.0000000001
 44
0.00000001
 40
0.0
 40
0.0
 40
0.0
 40
0.0
 40
0.8363793885348861
 40
1.672871723234776
 40
2.509588730692913
 40
3.34627152706206
 40
4.182913791081837
 40
5.01954854263128
 40
5.85637624753527
 40
6.693185900252335
 40
7.529994614798775
 40
8.366821408582862
 40
9.203455318749677
 40
10.04009667840397
 40
10.87677803858543
 40
11.71349366979714
 40
12.54998544998025
 40
13.38636425525379
 40
13.38636425525379
 40
13.38636425525379
 40
13.38636425525379
 10
37.75700000000006
 20
37.63169199299997
 30
0.0
 10
37.87112780123046
 20
37.88609113841147
 30
0.0
 10
38.09939881571317
 20
38.39492378374899
 30
0.0
 10
38.40392668787453
 20
39.17442937317566
 30
0.0
 10
38.67516122001802
 20
39.96615488988143
 30
0.0
 10
38.90596601558684
 20
40.77079390237849
 30
0.0
 10
39.09210305732467
 20
41.58694348463131
 30
0.0
 10
39.22920921665991
 20
42.41288610688099
 30
0.0
 10
39.31296601489531
 20
43.24603890604459
 30
0.0
 10
39.34151718579183
 20
44.08300343079912
 30
0.0
 10
39.31296481086088
 20
44.91996760393782
 30
0.0
 10
39.2292075028801
 20
45.75311942620926
 30
0.0
 10
39.09210207363097
 20
46.57906125404226
 30
0.0
 10
38.90596580192585
 20
47.39520994213631
 30
0.0
 10
38.67516066492902
 20
48.19984758488939
 30
0.0
 10
38.403925726137
 20
48.99157176227342
 30
0.0
 10
38.09939839594841
 20
49.77107665442745
 30
0.0
 10
37.8711276600042
 20
50.2799090104963
 30
0.0
 10
37.75700000000006
 20
50.53430800689997
 30
0.0
 11
37.75700000000006
 21
37.63169199299997
 31
0.0
 11
38.09306546267116
 21
38.39758394775968
 31
0.0
 11
38.39834606316847
 21
39.17637992936955
 31
0.0
 11
38.66842349684103
 21
39.96831018538364
 31
0.0
 11
38.89852593462586
 21
40.77272983324511
 31
0.0
 11
39.08393055234725
 21
41.58857013972164
 31
0.0
 11
39.2203079216251
 21
42.4140148202721
 31
0.0
 11
39.30376447689813
 21
43.24667057811975
 31
0.0
 11
39.3319999966419
 21
44.08300373560261
 31
0.0
 11
39.30376338611558
 21
44.91933591755357
 31
0.0
 11
39.22030641764014
 21
45.75199071830106
 31
0.0
 11
39.08392956464564
 21
46.57743463136138
 31
0.0
 11
38.89852548433154
 21
47.39327413254225
 31
0.0
 11
38.66842294452749
 21
48.19769225743181
 31
0.0
 11
38.3983453699761
 21
48.98962101132224
 31
0.0
 11
38.09306503484918
 21
49.76841650135714
 31
0.0
 11
37.75700000000006
 21
50.53430800689997
 31
0.0
  0
SPLINE
  5
9C
330
45
100
AcDbEntity
  8
0
  6
Continuous
 62
     7
100
AcDbSpline
210
0.0
220
0.0
230
1.0
 70
     8
 71
     3
 72
    23
 73
    19
 74
    17
 42
0.0000000001
 43
0.0000000001
 44
0.00000001
 40
0.0
 40
0.0
 40
0.0
 40
0.0
 40
0.5071451101028934
 40
1.01441428466654
 40
1.490352341399004
 40
1.966249264051781
 40
2.411642089481151
 40
2.856896309157291
 40
3.282291174656358
 40
3.70750164251608
 40
4.132711653811359
 40
4.558106103448672
 40
5.00335979394166
 40
5.448751991780852
 40
5.924648293963805
 40
6.400585823012976
 40
6.907854660873192
 40
7.414999390717977
 40
7.414999390717977
 40
7.414999390717977
 40
7.414999390717977
 10
37.75700000000006
 20
51.57209964499997
 30
0.0
 10
37.87047518812108
 20
51.69745009792734
 30
0.0
 10
38.09745332414577
 20
51.94818166864711
 30
0.0
 10
38.40567639767046
 20
52.33831041281071
 30
0.0
 10
38.68319114338
 20
52.73816094589764
 30
0.0
 10
38.91758998664265
 20
53.14133705611856
 30
0.0
 10
39.10951016216413
 20
53.55522866051476
 30
0.0
 10
39.2503412666909
 20
53.97180215520318
 30
0.0
 10
39.33686013745917
 20
54.39616279953188
 30
0.0
 10
39.3670680202053
 20
54.82171675227973
 30
0.0
 10
39.33685902800619
 20
55.24727047634252
 30
0.0
 10
39.25033963329597
 20
55.67163049586486
 30
0.0
 10
39.10950914899547
 20
56.08820361116622
 30
0.0
 10
38.91758971101608
 20
56.50209493177812
 30
0.0
 10
38.6831906593093
 20
56.90527026616705
 30
0.0
 10
38.40567558390973
 20
57.30511994783107
 30
0.0
 10
38.09745294049112
 20
57.69524848754669
 30
0.0
 10
37.87047505699145
 20
57.9459799668625
 30
0.0
 10
37.75700000000006
 20
58.07133036869997
 30
0.0
 11
37.75700000000006
 21
51.57209964499997
 31
0.0
 11
38.09313039824032
 21
51.95185287813976
 31
0.0
 11
38.40780712503427
 21
52.34972292360276
 31
0.0
 11
38.67785981480954
 21
52.74162671101928
 31
0.0
 11
38.91599186816084
 21
53.15365948417826
 31
0.0
 11
39.10208352891772
 21
53.55831324079087
 31
0.0
 11
39.24330233198796
 21
53.98057923492114
 31
0.0
 11
39.3277056897075
 21
54.397516718003
 31
0.0
 11
39.35699999658215
 21
54.82171688957559
 31
0.0
 11
39.32770467684539
 21
55.2459165335491
 31
0.0
 11
39.24330087818706
 21
55.6628535030712
 31
0.0
 11
39.10208251623415
 21
56.08511908673267
 31
0.0
 11
38.91599143633574
 21
56.48977241969593
 31
0.0
 11
38.67785934021046
 21
56.90180445149247
 31
0.0
 11
38.40780648920881
 21
57.29370748697869
 31
0.0
 11
38.09313000189709
 21
57.69157729256491
 31
0.0
 11
37.75700000000006
 21
58.07133036869997
 31
0.0
  0
SPLINE
  5
9D
330
45
100
AcDbEntity
  8
1
  6
Continuous
 62
     7
100
AcDbSpline
210
0.0
220
0.0
230
1.0
 70
     8
 71
     3
 72
    23
 73
    19
 74
    17
 42
0.0000000001
 43
0.0000000001
 44
0.00000001
 40
0.0
 40
0.0
 40
0.0
 40
0.0
 40
0.5071451101029014
 40
1.014414284666531
 40
1.490352341399001
 40
1.966249264051784
 40
2.411642089479156
 40
2.856896309140714
 40
3.282291174607286
 40
3.707501642434231
 40
4.132711653715178
 40
4.558106103350485
 40
5.003359793845259
 40
5.448751991696413
 40
5.924648293907842
 40
6.400585822984787
 40
6.907854660857577
 40
7.414999390704086
 40
7.414999390704086
 40
7.414999390704086
 40
7.414999390704086
 10
37.75700000000006
 20
30.09466963119997
 30
0.0
 10
37.87047518812108
 20
30.22002008412734
 30
0.0
 10
38.09745332414575
 20
30.4707516548471
 30
0.0
 10
38.40567639767048
 20
30.8608803990107
 30
0.0
 10
38.68319114338001
 20
31.26073093209763
 30
0.0
 10
38.9175899866423
 20
31.66390704231801
 30
0.0
 10
39.10951016216161
 20
32.07779864670903
 30
0.0
 10
39.25034126668818
 20
32.49437214137992
 30
0.0
 10
39.33686013745958
 20
32.91873278568086
 30
0.0
 10
39.36706802020538
 20
33.34428673840235
 30
0.0
 10
39.33685902800512
 20
33.76984046244864
 30
0.0
 10
39.25033963329562
 20
34.19420048196606
 30
0.0
 10
39.1095091489937
 20
34.61077359727108
 30
0.0
 10
38.91758971101208
 20
35.02466491789712
 30
0.0
 10
38.68319065930937
 20
35.42784025231434
 30
0.0
 10
38.40567558391518
 20
35.82768993401021
 30
0.0
 10
38.09745294049468
 20
36.21781847374268
 30
0.0
 10
37.87047505699184
 20
36.46854995306206
 30
0.0
 10
37.75700000000006
 20
36.59390035489997
 30
0.0
 11
37.75700000000006
 21
30.09466963119997
 31
0.0
 11
38.09313039824032
 21
30.47442286433977
 31
0.0
 11
38.40780712503427
 21
30.87229290980274
 31
0.0
 11
38.67785981480954
 21
31.26419669721927
 31
0.0
 11
38.91599186816084
 21
31.67622947037826
 31
0.0
 11
39.10208352891772
 21
32.08088322698868
 31
0.0
 11
39.24330233198796
 21
32.50314922110356
 31
0.0
 11
39.3277056897075
 21
32.92008670415227
 31
0.0
 11
39.35699999658215
 21
33.34428687569201
 31
0.0
 11
39.32770467684539
 21
33.76848651965115
 31
0.0
 11
39.24330087818706
 21
34.18542348917121
 31
0.0
 11
39.10208251623415
 21
34.60768907283456
 31
0.0
 11
38.91599143633574
 21
35.01234240581098
 31
0.0
 11
38.67785934021046
 21
35.42437443764042
 31
0.0
 11
38.40780648920881
 21
35.81627747316036
 31
0.0
 11
38.09313000189709
 21
36.21414727876261
 31
0.0
 11
37.75700000000006
 21
36.59390035489997
 31
0.0
  0
SPLINE
  5
9E
330
45
100
AcDbEntity
  8
1
  6
Continuous
 62
     7
100
AcDbSpline
210
0.0
220
0.0
230
1.0
 70
     8
 71
     3
 72
    23
 73
    19
 74
    17
 42
0.0000000001
 43
0.0000000001
 44
0.00000001
 40
0.0
 40
0.0
 40
0.0
 40
0.0
 40
0.8363793885348861
 40
1.672871723234776
 40
2.509588730692913
 40
3.34627152706206
 40
4.182913791081837
 40
5.01954854263128
 40
5.85637624753527
 40
6.693185900252335
 40
7.529994614798775
 40
8.366821408582862
 40
9.203455318749677
 40
10.04009667840397
 40
10.87677803858543
 40
11.71349366979714
 40
12.54998544998025
 40
13.38636425525379
 40
13.38636425525379
 40
13.38636425525379
 40
13.38636425525379
 10
37.75700000000006
 20
37.63169199299997
 30
0.0
 10
37.87112780123046
 20
37.88609113841147
 30
0.0
 10
38.09939881571317
 20
38.39492378374899
 30
0.0
 10
38.40392668787453
 20
39.17442937317566
 30
0.0
 10
38.67516122001802
 20
39.96615488988143
 30
0.0
 10
38.90596601558684
 20
40.77079390237849
 30
0.0
 10
39.09210305732467
 20
41.58694348463131
 30
0.0
 10
39.22920921665991
 20
42.41288610688099
 30
0.0
 10
39.31296601489531
 20
43.24603890604459
 30
0.0
 10
39.34151718579183
 20
44.08300343079912
 30
0.0
 10
39.31296481086088
 20
44.91996760393782
 30
0.0
 10
39.2292075028801
 20
45.75311942620926
 30
0.0
 10
39.09210207363097
 20
46.57906125404226
 30
0.0
 10
38.90596580192585
 20
47.39520994213631
 30
0.0
 10
38.67516066492902
 20
48.19984758488939
 30
0.0
 10
38.403925726137
 20
48.99157176227342
 30
0.0
 10
38.09939839594841
 20
49.77107665442745
 30
0.0
 10
37.8711276600042
 20
50.2799090104963
 30
0.0
 10
37.75700000000006
 20
50.53430800689997
 30
0.0
 11
37.75700000000006
 21
37.63169199299997
 31
0.0
 11
38.09306546267116
 21
38.39758394775968
 31
0.0
 11
38.39834606316847
 21
39.17637992936955
 31
0.0
 11
38.66842349684103
 21
39.96831018538364
 31
0.0
 11
38.89852593462586
 21
40.77272983324511
 31
0.0
 11
39.08393055234725
 21
41.58857013972164
 31
0.0
 11
39.2203079216251
 21
42.4140148202721
 31
0.0
 11
39.30376447689813
 21
43.24667057811975
 31
0.0
 11
39.3319999966419
 21
44.08300373560261
 31
0.0
 11
39.30376338611558
 21
44.91933591755357
 31
0.0
 11
39.22030641764014
 21
45.75199071830106
 31
0.0
 11
39.08392956464564
 21
46.57743463136138
 31
0.0
 11
38.89852548433154
 21
47.39327413254225
 31
0.0
 11
38.66842294452749
 21
48.19769225743181
 31
0.0
 11
38.3983453699761
 21
48.98962101132224
 31
0.0
 11
38.09306503484918
 21
49.76841650135714
 31
0.0
 11
37.75700000000006
 21
50.53430800689997
 31
0.0
  0
SPLINE
  5
9F
330
45
100
AcDbEntity
  8
1
  6
Continuous
 62
     7
100
AcDbSpline
210
0.0
220
0.0
230
1.0
 70
     8
 71
     3
 72
    23
 73
    19
 74
    17
 42
0.0000000001
 43
0.0000000001
 44
0.00000001
 40
0.0
 40
0.0
 40
0.0
 40
0.0
 40
0.5071451101028934
 40
1.01441428466654
 40
1.490352341399004
 40
1.966249264051781
 40
2.411642089481151
 40
2.856896309157291
 40
3.282291174656358
 40
3.70750164251608
 40
4.132711653811359
 40
4.558106103448672
 40
5.00335979394166
 40
5.448751991780852
 40
5.924648293963805
 40
6.400585823012976
 40
6.907854660873192
 40
7.414999390717977
 40
7.414999390717977
 40
7.414999390717977
 40
7.414999390717977
 10
37.75700000000006
 20
51.57209964499997
 30
0.0
 10
37.87047518812108
 20
51.69745009792734
 30
0.0
 10
38.09745332414577
 20
51.94818166864711
 30
0.0
 10
38.40567639767046
 20
52.33831041281071
 30
0.0
 10
38.68319114338
 20
52.73816094589764
 30
0.0
 10
38.91758998664265
 20
53.14133705611856
 30
0.0
 10
39.10951016216413
 20
53.55522866051476
 30
0.0
 10
39.2503412666909
 20
53.97180215520318
 30
0.0
 10
39.33686013745917
 20
54.39616279953188
 30
0.0
 10
39.3670680202053
 20
54.82171675227973
 30
0.0
 10
39.33685902800619
 20
55.24727047634252
 30
0.0
 10
39.25033963329597
 20
55.67163049586486
 30
0.0
 10
39.10950914899547
 20
56.08820361116622
 30
0.0
 10
38.91758971101608
 20
56.50209493177812
 30
0.0
 10
38.6831906593093
 20
56.90527026616705
 30
0.0
 10
38.40567558390973
 20
57.30511994783107
 30
0.0
 10
38.09745294049112
 20
57.69524848754669
 30
0.0
 10
37.87047505699145
 20
57.9459799668625
 30
0.0
 10
37.75700000000006
 20
58.07133036869997
 30
0.0
 11
37.75700000000006
 21
51.57209964499997
 31
0.0
 11
38.09313039824032
 21
51.95185287813976
 31
0.0
 11
38.40780712503427
 21
52.34972292360276
 31
0.0
 11
38.67785981480954
 21
52.74162671101928
 31
0.0
 11
38.91599186816084
 21
53.15365948417826
 31
0.0
 11
39.10208352891772
 21
53.55831324079087
 31
0.0
 11
39.24330233198796
 21
53.98057923492114
 31
0.0
 11
39.3277056897075
 21
54.397516718003
 31
0.0
 11
39.35699999658215
 21
54.82171688957559
 31
0.0
 11
39.32770467684539
 21
55.2459165335491
 31
0.0
 11
39.24330087818706
 21
55.6628535030712
 31
0.0
 11
39.10208251623415
 21
56.08511908673267
 31
0.0
 11
38.91599143633574
 21
56.48977241969593
 31
0.0
 11
38.67785934021046
 21
56.90180445149247
 31
0.0
 11
38.40780648920881
 21
57.29370748697869
 31
0.0
 11
38.09313000189709
 21
57.69157729256491
 31
0.0
 11
37.75700000000006
 21
58.07133036869997
 31
0.0
  0
SPLINE
  5
A0
330
45
100
AcDbEntity
  8
0
  6
Continuous
 62
     7
100
AcDbSpline
210
0.0
220
0.0
230
1.0
 70
     8
 71
     3
 72
    15
 73
    11
 74
     9
 42
0.0000000001
 43
0.0000000001
 44
0.00000001
 40
0.0
 40
0.0
 40
0.0
 40
0.0
 40
0.9486669313132342
 40
1.894170328349509
 40
2.456836455479285
 40
3.027658986949602
 40
3.787432024139965
 40
4.542699268058284
 40
6.109760454317703
 40
7.677529009537228
 40
7.677529009537228
 40
7.677529009537228
 40
7.677529009537228
 10
30.50700000000006
 20
58.07133036869997
 30
0.0
 10
30.18478021138883
 20
58.01439195174139
 30
0.0
 10
29.54141514547518
 20
57.9007049912432
 30
0.0
 10
29.02626131146275
 20
57.16380690579456
 30
0.0
 10
28.8918120252204
 20
56.48161848986416
 30
0.0
 10
28.91008266087849
 20
55.84681348359367
 30
0.0
 10
29.018886185959
 20
55.15876617680963
 30
0.0
 10
29.29470250086106
 20
54.16757672800943
 30
0.0
 10
29.77536283340118
 20
52.95903223519916
 30
0.0
 10
30.26308425996567
 20
52.03448004960524
 30
0.0
 10
30.50700000000006
 20
51.57209964499997
 30
0.0
 11
30.50700000000006
 21
58.07133036869997
 31
0.0
 11
29.60209441009378
 21
57.78652373267538
 31
0.0
 11
29.03194367865856
 21
57.03226594037157
 31
0.0
 11
28.91309793538982
 21
56.48229425025824
 31
0.0
 11
28.91866963141385
 21
55.91149891159682
 31
0.0
 11
29.03334354214718
 21
55.16042969891493
 31
0.0
 11
29.23042392398175
 21
54.43132892890306
 31
0.0
 11
29.80035958287361
 21
52.97158439433398
 31
0.0
 11
30.50700000000006
 21
51.57209964499997
 31
0.0
  0
SPLINE
  5
A1
330
45
100
AcDbEntity
  8
0
  6
Continuous
 62
     7
100
AcDbSpline
210
0.0
220
0.0
230
1.0
 70
     8
 71
     3
 72
    15
 73
    11
 74
     9
 42
0.0000000001
 43
0.0000000001
 44
0.00000001
 40
0.0
 40
0.0
 40
0.0
 40
0.0
 40
2.440360796682485
 40
4.880721593582105
 40
6.102067076908337
 40
7.32340569587327
 40
8.5447076323498
 40
9.766090361128281
 40
11.58331085693313
 40
13.39902450320738
 40
13.39902450320738
 40
13.39902450320738
 40
13.39902450320738
 10
30.50700000000006
 20
50.53430800689997
 30
0.0
 10
30.16807004094206
 20
49.79263449379033
 30
0.0
 10
29.49021012279589
 20
48.30928746750504
 30
0.0
 10
29.06928319187067
 20
46.30188074192171
 30
0.0
 10
28.92654270439484
 20
44.67984600531961
 30
0.0
 10
28.92840017807935
 20
43.45669965511058
 30
0.0
 10
29.03573724743629
 20
42.23839608311017
 30
0.0
 10
29.28602658888963
 20
40.83963425237496
 30
0.0
 10
29.7300242797734
 20
39.27606895317797
 30
0.0
 10
30.24807971883481
 20
38.17966605943927
 30
0.0
 10
30.50700000019506
 20
37.63169199271517
 30
0.0
 11
30.50700000000006
 21
50.53430800689997
 31
0.0
 11
29.57550578992391
 21
48.27871953499749
 31
0.0
 11
29.04984189761074
 21
45.89564624796607
 31
0.0
 11
28.9447032383946
 21
44.67883457314551
 31
0.0
 11
28.94598035451164
 21
43.45749662190122
 31
0.0
 11
29.05372394655046
 21
42.24095655333961
 31
0.0
 11
29.26707694107348
 21
41.03835259946018
 31
0.0
 11
29.77664336635147
 21
39.29403829618722
 31
0.0
 11
30.50700000019506
 21
37.63169199271517
 31
0.0
  0
SPLINE
  5
A2
330
45
100
AcDbEntity
  8
0
  6
Continuous
 62
     7
100
AcDbSpline
210
0.0
220
0.0
230
1.0
 70
     8
 71
     3
 72
    15
 73
    11
 74
     9
 42
0.0000000001
 43
0.0000000001
 44
0.00000001
 40
0.0
 40
0.0
 40
0.0
 40
0.0
 40
1.946609303806168
 40
3.893664558609216
 40
4.554940646026743
 40
5.219509157961911
 40
5.724208672803255
 40
6.218727769719072
 40
6.951979809060723
 40
7.684939748973682
 40
7.684939748973682
 40
7.684939748973682
 40
7.684939748973682
 10
30.50700000010008
 20
36.59390035425307
 30
0.0
 10
30.2071032525475
 20
36.01833745860299
 30
0.0
 10
29.60724105374649
 20
34.86707981092741
 30
0.0
 10
29.09846864442012
 20
33.42480253506844
 30
0.0
 10
28.90649662095871
 20
32.34859127051364
 30
0.0
 10
28.89554719043992
 20
31.73485588072069
 30
0.0
 10
28.99165857200437
 20
31.18471275105148
 30
0.0
 10
29.23808924233653
 20
30.6526149883556
 30
0.0
 10
29.77581132286716
 20
30.21644594645696
 30
0.0
 10
30.26330281361185
 20
30.13525634485484
 30
0.0
 10
30.50699999984406
 20
30.09466963136877
 30
0.0
 11
30.50700000010008
 21
36.59390035425307
 31
0.0
 11
29.64853836905253
 21
34.84680808145123
 31
0.0
 11
29.03194367877052
 21
32.99996343363372
 31
0.0
 11
28.92406235572853
 21
32.34754663132944
 31
0.0
 11
28.91866963137985
 21
31.68299999972273
 31
0.0
 11
29.01378127309744
 21
31.18734348973736
 31
0.0
 11
29.23042392380304
 21
30.74280429111739
 31
0.0
 11
29.79724722377443
 21
30.27764851096602
 31
0.0
 11
30.50699999984406
 21
30.09466963136877
 31
0.0
  0
SPLINE
  5
A3
330
45
100
AcDbEntity
  8
1
  6
Continuous
 62
     7
100
AcDbSpline
210
0.0
220
0.0
230
1.0
 70
     8
 71
     3
 72
    15
 73
    11
 74
     9
 42
0.0000000001
 43
0.0000000001
 44
0.00000001
 40
0.0
 40
0.0
 40
0.0
 40
0.0
 40
1.946609303806168
 40
3.893664558609216
 40
4.554940646026743
 40
5.219509157961911
 40
5.724208672803255
 40
6.218727769719072
 40
6.951979809060723
 40
7.684939748973682
 40
7.684939748973682
 40
7.684939748973682
 40
7.684939748973682
 10
30.50700000010008
 20
36.59390035425307
 30
0.0
 10
30.2071032525475
 20
36.01833745860299
 30
0.0
 10
29.60724105374649
 20
34.86707981092741
 30
0.0
 10
29.09846864442012
 20
33.42480253506844
 30
0.0
 10
28.90649662095871
 20
32.34859127051364
 30
0.0
 10
28.89554719043992
 20
31.73485588072069
 30
0.0
 10
28.99165857200437
 20
31.18471275105148
 30
0.0
 10
29.23808924233653
 20
30.6526149883556
 30
0.0
 10
29.77581132286716
 20
30.21644594645696
 30
0.0
 10
30.26330281361185
 20
30.13525634485484
 30
0.0
 10
30.50699999984406
 20
30.09466963136877
 30
0.0
 11
30.50700000010008
 21
36.59390035425307
 31
0.0
 11
29.64853836905253
 21
34.84680808145123
 31
0.0
 11
29.03194367877052
 21
32.99996343363372
 31
0.0
 11
28.92406235572853
 21
32.34754663132944
 31
0.0
 11
28.91866963137985
 21
31.68299999972273
 31
0.0
 11
29.01378127309744
 21
31.18734348973736
 31
0.0
 11
29.23042392380304
 21
30.74280429111739
 31
0.0
 11
29.79724722377443
 21
30.27764851096602
 31
0.0
 11
30.50699999984406
 21
30.09466963136877
 31
0.0
  0
SPLINE
  5
A4
330
45
100
AcDbEntity
  8
1
  6
Continuous
 62
     7
100
AcDbSpline
210
0.0
220
0.0
230
1.0
 70
     8
 71
     3
 72
    15
 73
    11
 74
     9
 42
0.0000000001
 43
0.0000000001
 44
0.00000001
 40
0.0
 40
0.0
 40
0.0
 40
0.0
 40
2.440360796682485
 40
4.880721593582105
 40
6.102067076908337
 40
7.32340569587327
 40
8.5447076323498
 40
9.766090361128281
 40
11.58331085693313
 40
13.39902450320738
 40
13.39902450320738
 40
13.39902450320738
 40
13.39902450320738
 10
30.50700000000006
 20
50.53430800689997
 30
0.0
 10
30.16807004094206
 20
49.79263449379033
 30
0.0
 10
29.49021012279589
 20
48.30928746750504
 30
0.0
 10
29.06928319187067
 20
46.30188074192171
 30
0.0
 10
28.92654270439484
 20
44.67984600531961
 30
0.0
 10
28.92840017807935
 20
43.45669965511058
 30
0.0
 10
29.03573724743629
 20
42.23839608311017
 30
0.0
 10
29.28602658888963
 20
40.83963425237496
 30
0.0
 10
29.7300242797734
 20
39.27606895317797
 30
0.0
 10
30.24807971883481
 20
38.17966605943927
 30
0.0
 10
30.50700000019506
 20
37.63169199271517
 30
0.0
 11
30.50700000000006
 21
50.53430800689997
 31
0.0
 11
29.57550578992391
 21
48.27871953499749
 31
0.0
 11
29.04984189761074
 21
45.89564624796607
 31
0.0
 11
28.9447032383946
 21
44.67883457314551
 31
0.0
 11
28.94598035451164
 21
43.45749662190122
 31
0.0
 11
29.05372394655046
 21
42.24095655333961
 31
0.0
 11
29.26707694107348
 21
41.03835259946018
 31
0.0
 11
29.77664336635147
 21
39.29403829618722
 31
0.0
 11
30.50700000019506
 21
37.63169199271517
 31
0.0
  0
SPLINE
  5
A5
330
45
100
AcDbEntity
  8
1
  6
Continuous
 62
     7
100
AcDbSpline
210
0.0
220
0.0
230
1.0
 70
     8
 71
     3
 72
    15
 73
    11
 74
     9
 42
0.0000000001
 43
0.0000000001
 44
0.00000001
 40
0.0
 40
0.0
 40
0.0
 40
0.0
 40
0.9486669313132342
 40
1.894170328349509
 40
2.456836455479285
 40
3.027658986949602
 40
3.787432024139965
 40
4.542699268058284
 40
6.109760454317703
 40
7.677529009537228
 40
7.677529009537228
 40
7.677529009537228
 40
7.677529009537228
 10
30.50700000000006
 20
58.07133036869997
 30
0.0
 10
30.18478021138883
 20
58.01439195174139
 30
0.0
 10
29.54141514547518
 20
57.9007049912432
 30
0.0
 10
29.02626131146275
 20
57.16380690579456
 30
0.0
 10
28.8918120252204
 20
56.48161848986416
 30
0.0
 10
28.91008266087849
 20
55.84681348359367
 30
0.0
 10
29.018886185959
 20
55.15876617680963
 30
0.0
 10
29.29470250086106
 20
54.16757672800943
 30
0.0
 10
29.77536283340118
 20
52.95903223519916
 30
0.0
 10
30.26308425996567
 20
52.03448004960524
 30
0.0
 10
30.50700000000006
 20
51.57209964499997
 30
0.0
 11
30.50700000000006
 21
58.07133036869997
 31
0.0
 11
29.60209441009378
 21
57.78652373267538
 31
0.0
 11
29.03194367865856
 21
57.03226594037157
 31
0.0
 11
28.91309793538982
 21
56.48229425025824
 31
0.0
 11
28.91866963141385
 21
55.91149891159682
 31
0.0
 11
29.03334354214718
 21
55.16042969891493
 31
0.0
 11
29.23042392398175
 21
54.43132892890306
 31
0.0
 11
29.80035958287361
 21
52.97158439433398
 31
0.0
 11
30.50700000000006
 21
51.57209964499997
 31
0.0
  0
ENDBLK
  5
47
330
45
100
AcDbEntity
  8
0
100
AcDbBlockEnd
  0
BLOCK
  5
49
330
48
100
AcDbEntity
  8
0
100
AcDbBlockBegin
  2
Urheberrecht_DE-EN
 70
     0
 10
-108.972528313068
 20
66.7156477049102
 30
0.0
  3
Urheberrecht_DE-EN
  1

  0
MTEXT
  5
A7
330
48
100
AcDbEntity
  8
1
 62
     1
100
AcDbMText
 10
-108.972528313068
 20
10.42626078760399
 30
0.0
 40
2.0
 41
0.0
 71
     7
 72
     1
  1
F\U+00fcr diese Unterlage behalten wir das Ur-\Pheberrecht. Sie darf nur f\U+00fcr den von uns \Pbestimmten Zweck benutzt und ohne unsere \PZustimmung weder vervielf\U+00e4ltigt noch\PDritten zug\U+00e4nglich gemacht werden.
  7
CONVERTER_11
 11
0.0
 21
1.0
 31
0.0
 73
     1
 44
0.90036014405762
  0
MTEXT
  5
A8
330
48
100
AcDbEntity
  8
1
 62
     1
100
AcDbMText
 10
-108.972528313068
 20
66.7156477049102
 30
0.0
 40
2.0
 41
0.0
 71
     7
 72
     1
  1
We own the copyright of this document. It \Pdetermined and may neither be copied or \Pmade accessible to outsiders without our\Ppermission.
  7
CONVERTER_11
 11
0.0
 21
1.0
 31
0.0
 73
     1
 44
0.90036014405762
  0
ENDBLK
  5
4A
330
48
100
AcDbEntity
  8
0
100
AcDbBlockEnd
  0
BLOCK
  5
4C
330
4B
100
AcDbEntity
  8
0
100
AcDbBlockBegin
  2
A80_Aussen
 70
     0
 10
-58.99299999999994
 20
44.08299999999997
 30
0.0
  3
A80_Aussen
  1

  0
LWPOLYLINE
  5
A9
330
4B
100
AcDbEntity
  8
1
  6
Continuous
 62
     7
100
AcDbPolyline
 90
        2
 70
     0
 43
0.25
 10
13.2641490973452
 20
56.9727574349666
 10
13.2641490973452
 20
31.0727574349666
  0
LWPOLYLINE
  5
AA
330
4B
100
AcDbEntity
  8
1
  6
Continuous
 62
     7
100
AcDbPolyline
 90
        2
 70
     0
 43
0.25
 10
16.3655405130954
 20
54.2991441455268
 10
16.3655405130954
 20
33.9991441455268
  0
LWPOLYLINE
  5
AB
330
4B
100
AcDbEntity
  8
1
  6
Continuous
 62
     7
100
AcDbPolyline
 90
        2
 70
     0
 43
0.5
 10
18.407
 20
54.16299999999993
 10
18.407
 20
34.003
  0
LWPOLYLINE
  5
AC
330
4B
100
AcDbEntity
  8
1
  6
Continuous
 62
     7
100
AcDbPolyline
 90
        2
 70
     0
 43
0.25
 10
23.20700000000008
 20
34.003
 10
18.407
 20
34.003
  0
LWPOLYLINE
  5
AD
330
4B
100
AcDbEntity
  8
1
  6
Continuous
 62
     7
100
AcDbPolyline
 90
        2
 70
     0
 43
0.5
 10
23.20700000000008
 20
33.083
 10
16.821
 20
33.083
  0
LWPOLYLINE
  5
AE
330
4B
100
AcDbEntity
  8
1
  6
DASHED
 62
     7
100
AcDbPolyline
 90
        2
 70
     0
 43
0.35
 10
12.61857569403979
 20
49.583
 10
8.407
 20
49.583
  0
LWPOLYLINE
  5
AF
330
4B
100
AcDbEntity
  8
1
  6
DASHED
 62
     7
100
AcDbPolyline
 90
        2
 70
     0
 43
0.35
 10
30.40700000000006
 20
52.08299999999996
 10
12.61857569403979
 20
49.583
  0
LWPOLYLINE
  5
B0
330
4B
100
AcDbEntity
  8
1
  6
Continuous
 62
     7
100
AcDbPolyline
 90
        2
 70
     0
 43
0.5
 10
-13.493
 20
58.08299999999993
 10
12.993
 20
58.08299999999993
  0
LWPOLYLINE
  5
B1
330
4B
100
AcDbEntity
  8
1
  6
Continuous
 62
     7
100
AcDbPolyline
 90
        2
 70
     0
 43
0.5
 10
13.7
 20
57.78999999999992
 10
16.114
 20
55.37599999999993
  0
LWPOLYLINE
  5
B2
330
4B
100
AcDbEntity
  8
1
  6
Continuous
 62
     7
100
AcDbPolyline
 90
        2
 70
     0
 43
0.5
 10
16.821
 20
55.08299999999993
 10
23.20700000000008
 20
55.08299999999993
  0
LWPOLYLINE
  5
B3
330
4B
100
AcDbEntity
  8
1
  6
Continuous
 62
     7
100
AcDbPolyline
 90
        2
 70
     0
 43
0.5
 10
18.407
 20
54.16299999999993
 10
18.407
 20
55.08299999999993
  0
LWPOLYLINE
  5
B4
330
4B
100
AcDbEntity
  8
1
  6
Continuous
 62
     7
100
AcDbPolyline
 90
        2
 70
     0
 43
0.25
 10
18.407
 20
54.16299999999993
 10
23.20700000000008
 20
54.16299999999993
  0
LWPOLYLINE
  5
B5
330
4B
100
AcDbEntity
  8
1
  6
DASHED
 62
     7
100
AcDbPolyline
 90
        2
 70
     0
 43
0.35
 10
12.61857569403979
 20
49.583
 10
12.61857569403979
 20
38.583
  0
LWPOLYLINE
  5
B6
330
4B
100
AcDbEntity
  8
1
  6
DASHED
 62
     7
100
AcDbPolyline
 90
        2
 70
     0
 43
0.35
 10
8.407
 20
49.583
 10
8.407
 20
38.583
  0
LWPOLYLINE
  5
B7
330
4B
100
AcDbEntity
  8
1
  6
DASHED
 62
     7
100
AcDbPolyline
 90
        2
 70
     0
 43
0.35
 10
8.407
 20
38.583
 10
12.61857569403979
 20
38.583
  0
LWPOLYLINE
  5
B8
330
4B
100
AcDbEntity
  8
1
  6
DASHED
 62
     7
100
AcDbPolyline
 90
        2
 70
     0
 43
0.35
 10
12.61857569403979
 20
38.583
 10
30.40700000000006
 20
36.08299999999996
  0
LWPOLYLINE
  5
B9
330
4B
100
AcDbEntity
  8
1
  6
Continuous
 62
     7
100
AcDbPolyline
 90
        2
 70
     0
 43
0.5
 10
18.407
 20
33.083
 10
18.407
 20
34.003
  0
LWPOLYLINE
  5
BA
330
4B
100
AcDbEntity
  8
1
  6
Continuous
 62
     7
100
AcDbPolyline
 90
        2
 70
     0
 43
0.5
 10
16.114
 20
32.79
 10
13.7
 20
30.376
  0
LWPOLYLINE
  5
BB
330
4B
100
AcDbEntity
  8
1
  6
Continuous
 62
     7
100
AcDbPolyline
 90
        2
 70
     0
 43
0.5
 10
12.993
 20
30.083
 10
-13.493
 20
30.083
  0
LWPOLYLINE
  5
BC
330
4B
100
AcDbEntity
  8
1
  6
DOT_CENTER
 62
     7
100
AcDbPolyline
 90
        2
 70
     0
 43
0.25
 10
-102.6019999999999
 20
44.08299999999997
 10
43.38900000000007
 20
44.08299999999996
  0
LWPOLYLINE
  5
BD
330
4B
100
AcDbEntity
  8
1
  6
Continuous
 62
     7
100
AcDbPolyline
 90
        2
 70
     0
 43
0.25
 10
-61.21299999999985
 20
14.34399999999999
 10
-61.21299999999985
 20
73.52299999999997
  0
LWPOLYLINE
  5
BE
330
4B
100
AcDbEntity
  8
1
  6
Continuous
 62
     7
100
AcDbPolyline
 90
        2
 70
     0
 43
0.5
 10
-61.49299999999994
 20
74.358
 10
-61.49299999999994
 20
13.80799999999999
  0
LWPOLYLINE
  5
BF
330
4B
100
AcDbEntity
  8
1
  6
Continuous
 62
     7
100
AcDbPolyline
 90
        2
 70
     0
 43
0.5
 10
-98.99299999999994
 20
70.96100000000001
 10
-98.99299999999994
 20
53.60300000000001
  0
LWPOLYLINE
  5
C0
330
4B
100
AcDbEntity
  8
1
  6
Continuous
 62
     7
100
AcDbPolyline
 90
        2
 70
     0
 43
0.5
 10
-98.99299999999994
 20
34.56299999999999
 10
-98.99299999999994
 20
17.20499999999998
  0
LWPOLYLINE
  5
C1
330
4B
100
AcDbEntity
  8
1
  6
Continuous
 62
     7
100
AcDbPolyline
 90
        2
 70
     0
 43
0.5
 10
-32.99299999999994
 20
12.858
 10
-37.47099999999989
 20
12.858
  0
LWPOLYLINE
  5
C2
330
4B
100
AcDbEntity
  8
1
  6
Continuous
 62
     7
100
AcDbPolyline
 90
        2
 70
     0
 43
0.5
 10
-37.47099999999989
 20
12.858
 10
-39.11799999999994
 20
16.606
  0
LWPOLYLINE
  5
C3
330
4B
100
AcDbEntity
  8
1
  6
Continuous
 62
     7
100
AcDbPolyline
 90
        2
 70
     0
 43
0.5
 10
-42.86799999999994
 20
16.606
 10
-44.51499999999987
 20
12.858
  0
LWPOLYLINE
  5
C4
330
4B
100
AcDbEntity
  8
1
  6
Continuous
 62
     7
100
AcDbPolyline
 90
        2
 70
     0
 43
0.5
 10
-44.51499999999987
 20
12.858
 10
-54.99299999999994
 20
12.858
  0
LWPOLYLINE
  5
C5
330
4B
100
AcDbEntity
  8
1
  6
Continuous
 62
     7
100
AcDbPolyline
 90
        2
 70
     0
 43
0.5
 10
-58.99299999999994
 20
83.58299999999997
 10
-58.49299999999994
 20
84.08299999999997
  0
LWPOLYLINE
  5
C6
330
4B
100
AcDbEntity
  8
1
  6
Continuous
 62
     7
100
AcDbPolyline
 90
        2
 70
     0
 43
0.5
 10
-58.49299999999994
 20
84.08299999999997
 10
-56.99299999999994
 20
84.08299999999997
  0
LWPOLYLINE
  5
C7
330
4B
100
AcDbEntity
  8
1
  6
Continuous
 62
     7
100
AcDbPolyline
 90
        2
 70
     0
 43
0.5
 10
-46.99299999999994
 20
84.08299999999997
 10
-44.51499999999987
 20
84.08299999999997
  0
LWPOLYLINE
  5
C8
330
4B
100
AcDbEntity
  8
1
  6
Continuous
 62
     7
100
AcDbPolyline
 90
        2
 70
     0
 43
0.5
 10
-37.47099999999989
 20
84.08299999999997
 10
-32.99299999999994
 20
84.08299999999997
  0
LWPOLYLINE
  5
C9
330
4B
100
AcDbEntity
  8
1
  6
Continuous
 62
     7
100
AcDbPolyline
 90
        2
 70
     0
 43
0.5
 10
-42.86799999999994
 20
80.08299999999997
 10
-42.86799999999994
 20
52.38999999999999
  0
LWPOLYLINE
  5
CA
330
4B
100
AcDbEntity
  8
1
  6
Continuous
 62
     7
100
AcDbPolyline
 90
        2
 70
     0
 43
0.5
 10
-42.86799999999994
 20
35.77600000000001
 10
-42.86799999999994
 20
8.08299999999997
  0
LWPOLYLINE
  5
CB
330
4B
100
AcDbEntity
  8
1
  6
Continuous
 62
     7
100
AcDbPolyline
 90
        2
 70
     0
 43
0.5
 10
-97.49299999999994
 20
36.06299999999999
 10
-98.99299999999994
 20
34.56299999999999
  0
LWPOLYLINE
  5
CC
330
4B
100
AcDbEntity
  8
1
  6
Continuous
 62
     7
100
AcDbPolyline
 90
        2
 70
     0
 43
0.5
 10
-97.49299999999994
 20
36.06299999999999
 10
-92.99299999999994
 20
36.06299999999999
  0
LWPOLYLINE
  5
CD
330
4B
100
AcDbEntity
  8
1
  6
Continuous
 62
     7
100
AcDbPolyline
 90
        2
 70
     0
 43
0.5
 10
-90.99299999999994
 20
50.10300000000001
 10
-90.99299999999994
 20
38.06299999999999
  0
LWPOLYLINE
  5
CE
330
4B
100
AcDbEntity
  8
1
  6
LONG_DASHED
 62
     7
100
AcDbPolyline
 90
        2
 70
     0
 43
0.35
 10
-54.99299999999994
 20
45.08299999999997
 10
-54.99299999999994
 20
43.08299999999997
  0
LWPOLYLINE
  5
CF
330
4B
100
AcDbEntity
  8
1
  6
Continuous
 62
     7
100
AcDbPolyline
 90
        2
 70
     0
 43
0.5
 10
-37.47099999999989
 20
4.08299999999997
 10
-37.47099999999989
 20
12.858
  0
LWPOLYLINE
  5
D0
330
4B
100
AcDbEntity
  8
1
  6
Continuous
 62
     7
100
AcDbPolyline
 90
        2
 70
     0
 43
0.5
 10
-37.47099999999989
 20
19.08299999999997
 10
-37.47099999999989
 20
35.08299999999997
  0
LWPOLYLINE
  5
D1
330
4B
100
AcDbEntity
  8
1
  6
Continuous
 62
     7
100
AcDbPolyline
 90
        2
 70
     0
 43
0.5
 10
-37.47099999999989
 20
53.08299999999997
 10
-37.47099999999989
 20
84.08299999999997
  0
LWPOLYLINE
  5
D2
330
4B
100
AcDbEntity
  8
1
  6
Continuous
 62
     7
100
AcDbPolyline
 90
        2
 70
     0
 43
0.5
 10
-44.51499999999987
 20
4.08299999999997
 10
-44.51499999999987
 20
12.858
  0
LWPOLYLINE
  5
D3
330
4B
100
AcDbEntity
  8
1
  6
Continuous
 62
     7
100
AcDbPolyline
 90
        2
 70
     0
 43
0.5
 10
-44.51499999999987
 20
19.08299999999997
 10
-44.51499999999987
 20
35.08299999999997
  0
LWPOLYLINE
  5
D4
330
4B
100
AcDbEntity
  8
1
  6
Continuous
 62
     7
100
AcDbPolyline
 90
        2
 70
     0
 43
0.5
 10
-44.51499999999987
 20
53.08299999999997
 10
-44.51499999999987
 20
84.08299999999997
  0
LWPOLYLINE
  5
D5
330
4B
100
AcDbEntity
  8
1
  6
Continuous
 62
     7
100
AcDbPolyline
 90
        2
 70
     0
 43
0.5
 10
-32.99299999999994
 20
19.08299999999997
 10
-39.11799999999994
 20
19.08299999999997
  0
LWPOLYLINE
  5
D6
330
4B
100
AcDbEntity
  8
1
  6
Continuous
 62
     7
100
AcDbPolyline
 90
        2
 70
     0
 43
0.5
 10
-42.86799999999994
 20
19.08299999999997
 10
-46.43099999999993
 20
19.08299999999997
  0
LWPOLYLINE
  5
D7
330
4B
100
AcDbEntity
  8
1
  6
Continuous
 62
     7
100
AcDbPolyline
 90
        2
 70
     0
 43
0.5
 10
-61.49299999999994
 20
13.80799999999999
 10
-97.47299999999996
 20
15.60699999999997
  0
LWPOLYLINE
  5
D8
330
4B
100
AcDbEntity
  8
1
  6
DOT_CENTER
 62
     7
100
AcDbPolyline
 90
        2
 70
     0
 43
0.25
 10
-61.49299999999994
 20
13.80799999999999
 10
-59.3119999999999
 20
13.69900000000001
  0
LWPOLYLINE
  5
D9
330
4B
100
AcDbEntity
  8
1
  6
Continuous
 62
     7
100
AcDbPolyline
 90
        2
 70
     0
 43
0.5
 10
-61.49299999999994
 20
74.358
 10
-97.47299999999996
 20
72.55899999999997
  0
LWPOLYLINE
  5
DA
330
4B
100
AcDbEntity
  8
1
  6
DOT_CENTER
 62
     7
100
AcDbPolyline
 90
        2
 70
     0
 43
0.25
 10
-61.49299999999994
 20
74.358
 10
-59.3119999999999
 20
74.46699999999998
  0
LWPOLYLINE
  5
DB
330
4B
100
AcDbEntity
  8
1
  6
Continuous
 62
     7
100
AcDbPolyline
 90
        2
 70
     0
 43
0.5
 10
-58.99299999999994
 20
4.58299999999997
 10
-58.49299999999994
 20
4.08299999999997
  0
LWPOLYLINE
  5
DC
330
4B
100
AcDbEntity
  8
1
  6
Continuous
 62
     7
100
AcDbPolyline
 90
        2
 70
     0
 43
0.5
 10
-58.49299999999994
 20
4.08299999999997
 10
-44.51499999999987
 20
4.08299999999997
  0
LWPOLYLINE
  5
DD
330
4B
100
AcDbEntity
  8
1
  6
Continuous
 62
     7
100
AcDbPolyline
 90
        2
 70
     0
 43
0.5
 10
-37.47099999999989
 20
4.08299999999997
 10
-32.99299999999994
 20
4.08299999999997
  0
LWPOLYLINE
  5
DE
330
4B
100
AcDbEntity
  8
1
  6
DOT_CENTER
 62
     7
100
AcDbPolyline
 90
        2
 70
     0
 43
0.25
 10
-40.99299999999994
 20
84.08299999999997
 10
-40.99299999999994
 20
4.08299999999997
  0
LWPOLYLINE
  5
DF
330
4B
100
AcDbEntity
  8
1
  6
Continuous
 62
     7
100
AcDbPolyline
 90
        2
 70
     0
 43
0.5
 10
-39.11799999999994
 20
80.08299999999997
 10
-39.11799999999994
 20
52.38999999999999
  0
LWPOLYLINE
  5
E0
330
4B
100
AcDbEntity
  8
1
  6
Continuous
 62
     7
100
AcDbPolyline
 90
        2
 70
     0
 43
0.5
 10
-39.11799999999994
 20
35.77600000000001
 10
-39.11799999999994
 20
8.08299999999997
  0
LWPOLYLINE
  5
E1
330
4B
100
AcDbEntity
  8
1
  6
DOT_CENTER
 62
     7
100
AcDbPolyline
 90
        2
 70
     0
 43
0.25
 10
-85.99299999999994
 20
75.774
 10
-85.99299999999994
 20
73.13299999999998
  0
LWPOLYLINE
  5
E2
330
4B
100
AcDbEntity
  8
1
  6
DOT_CENTER
 62
     7
100
AcDbPolyline
 90
        2
 70
     0
 43
0.25
 10
-66.99299999999994
 20
77.017
 10
-66.99299999999994
 20
74.08299999999997
  0
LWPOLYLINE
  5
E3
330
4B
100
AcDbEntity
  8
1
  6
Continuous
 62
     7
100
AcDbPolyline
 90
        2
 70
     0
 43
0.5
 10
-32.99299999999994
 20
84.08299999999997
 10
-32.99299999999994
 20
4.08299999999997
  0
LWPOLYLINE
  5
E4
330
4B
100
AcDbEntity
  8
1
  6
Continuous
 62
     7
100
AcDbPolyline
 90
        2
 70
     0
 43
0.5
 10
-58.99299999999994
 20
83.58299999999997
 10
-58.99299999999994
 20
4.58299999999997
  0
LWPOLYLINE
  5
E5
330
4B
100
AcDbEntity
  8
1
  6
Continuous
 62
     7
100
AcDbPolyline
 90
        2
 70
     0
 43
0.5
 10
-97.49299999999994
 20
52.10300000000001
 10
-98.99299999999994
 20
53.60300000000001
  0
LWPOLYLINE
  5
E6
330
4B
100
AcDbEntity
  8
1
  6
Continuous
 62
     7
100
AcDbPolyline
 90
        2
 70
     0
 43
0.5
 10
-97.49299999999994
 20
52.10300000000001
 10
-92.99299999999994
 20
52.10300000000001
  0
LWPOLYLINE
  5
E7
330
4B
100
AcDbEntity
  8
1
  6
Continuous
 62
     7
100
AcDbPolyline
 90
        2
 70
     0
 43
0.5
 10
-45.99299999999994
 20
53.08299999999997
 10
-42.86799999999994
 20
53.08299999999997
  0
LWPOLYLINE
  5
E8
330
4B
100
AcDbEntity
  8
1
  6
Continuous
 62
     7
100
AcDbPolyline
 90
        2
 70
     0
 43
0.5
 10
-39.11799999999994
 20
53.08299999999997
 10
-32.99299999999994
 20
53.08299999999997
  0
LWPOLYLINE
  5
E9
330
4B
100
AcDbEntity
  8
1
  6
Continuous
 62
     7
100
AcDbPolyline
 90
        2
 70
     0
 43
0.5
 10
-45.99299999999994
 20
35.08299999999997
 10
-42.86799999999994
 20
35.08299999999997
  0
LWPOLYLINE
  5
EA
330
4B
100
AcDbEntity
  8
1
  6
Continuous
 62
     7
100
AcDbPolyline
 90
        2
 70
     0
 43
0.5
 10
-39.11799999999994
 20
35.08299999999997
 10
-32.99299999999994
 20
35.08299999999997
  0
LWPOLYLINE
  5
EB
330
4B
100
AcDbEntity
  8
1
  6
Continuous
 62
     7
100
AcDbPolyline
 90
        2
 70
     0
 43
0.5
 10
-97.49299999999994
 20
32.32900000000001
 10
-98.99299999999994
 20
30.82900000000001
  0
LWPOLYLINE
  5
EC
330
4B
100
AcDbEntity
  8
1
  6
Continuous
 62
     7
100
AcDbPolyline
 90
        2
 70
     0
 43
0.5
 10
-97.49299999999994
 20
36.06299999999999
 10
-97.49299999999994
 20
32.32900000000001
  0
LWPOLYLINE
  5
ED
330
4B
100
AcDbEntity
  8
1
  6
Continuous
 62
     7
100
AcDbPolyline
 90
        2
 70
     0
 43
0.5
 10
-90.99299999999994
 20
50.10300000000001
 10
-90.99299999999994
 20
55.51999999999998
  0
LWPOLYLINE
  5
EE
330
4B
100
AcDbEntity
  8
1
  6
Continuous
 62
     7
100
AcDbPolyline
 90
        2
 70
     0
 43
0.5
 10
-90.99299999999994
 20
38.06299999999999
 10
-90.99299999999994
 20
32.64600000000002
  0
LWPOLYLINE
  5
EF
330
4B
100
AcDbEntity
  8
1
  6
Continuous
 62
     7
100
AcDbPolyline
 90
        2
 70
     0
 43
0.5
 10
-97.49299999999994
 20
55.83699999999999
 10
-98.99299999999994
 20
57.33699999999999
  0
LWPOLYLINE
  5
F0
330
4B
100
AcDbEntity
  8
1
  6
Continuous
 62
     7
100
AcDbPolyline
 90
        2
 70
     0
 43
0.5
 10
-97.49299999999994
 20
52.10300000000001
 10
-97.49299999999994
 20
55.83699999999999
  0
LWPOLYLINE
  5
F1
330
4B
100
AcDbEntity
  8
1
  6
Continuous
 62
     7
100
AcDbPolyline
 90
        2
 70
     0
 43
0.5
 10
-97.49299999999994
 20
55.83699999999999
 10
-92.11799999999994
 20
56.512
  0
LWPOLYLINE
  5
F2
330
4B
100
AcDbEntity
  8
1
  6
Continuous
 62
     7
100
AcDbPolyline
 90
        2
 70
     0
 43
0.5
 10
-97.49299999999994
 20
32.32900000000001
 10
-92.11799999999994
 20
31.654
  0
LWPOLYLINE
  5
F3
330
4B
100
AcDbEntity
  8
1
  6
Continuous
 62
     7
100
AcDbPolyline
 90
        2
 70
     0
 43
0.5
 10
-39.11799999999994
 20
35.77600000000001
 10
-42.86799999999994
 20
35.77600000000001
  0
LWPOLYLINE
  5
F4
330
4B
100
AcDbEntity
  8
1
  6
Continuous
 62
     7
100
AcDbPolyline
 90
        2
 70
     0
 43
0.5
 10
-42.86799999999994
 20
52.38999999999999
 10
-39.11799999999994
 20
52.38999999999999
  0
LWPOLYLINE
  5
F5
330
4B
100
AcDbEntity
  8
1
  6
DOT_CENTER
 62
     7
100
AcDbPolyline
 90
        2
 70
     0
 43
0.25
 10
-70.99299999999994
 20
37.83299999999997
 10
-70.99299999999994
 20
44.08299999999997
  0
LWPOLYLINE
  5
F6
330
4B
100
AcDbEntity
  8
1
  6
DOT_CENTER
 62
     7
100
AcDbPolyline
 90
        2
 70
     0
 43
0.25
 10
-70.99299999999994
 20
44.08299999999997
 10
-70.99299999999994
 20
50.33299999999997
  0
LWPOLYLINE
  5
F7
330
4B
100
AcDbEntity
  8
1
  6
Continuous
 62
     7
100
AcDbPolyline
 90
        2
 70
     0
 43
0.5
 10
-58.99299999999994
 20
12.08299999999997
 10
-58.89999999999986
 20
12.74399999999997
  0
LWPOLYLINE
  5
F8
330
4B
100
AcDbEntity
  8
1
  6
Continuous
 62
     7
100
AcDbPolyline
 90
        2
 70
     0
 43
0.5
 10
-61.49299999999994
 20
13.80799999999999
 10
-61.33999999999992
 20
13.84899999999999
  0
LWPOLYLINE
  5
F9
330
4B
100
AcDbEntity
  8
1
  6
Continuous
 62
     7
100
AcDbPolyline
 90
        2
 70
     0
 43
0.5
 10
-61.0809999999999
 20
13.88299999999998
 10
-59.88999999999987
 20
13.88299999999998
  0
LWPOLYLINE
  5
FA
330
4B
100
AcDbEntity
  8
1
  6
Continuous
 62
     7
100
AcDbPolyline
 90
        2
 70
     0
 43
0.5
 10
-58.99299999999994
 20
76.08299999999997
 10
-58.89999999999986
 20
75.42199999999997
  0
LWPOLYLINE
  5
FB
330
4B
100
AcDbEntity
  8
1
  6
Continuous
 62
     7
100
AcDbPolyline
 90
        2
 70
     0
 43
0.5
 10
-61.49299999999994
 20
74.358
 10
-61.33999999999992
 20
74.31700000000001
  0
LWPOLYLINE
  5
FC
330
4B
100
AcDbEntity
  8
1
  6
Continuous
 62
     7
100
AcDbPolyline
 90
        2
 70
     0
 43
0.5
 10
-61.0809999999999
 20
74.28300000000002
 10
-59.88999999999987
 20
74.28300000000002
  0
LWPOLYLINE
  5
FD
330
4B
100
AcDbEntity
  8
1
  6
DOT_CENTER
 62
     7
100
AcDbPolyline
 90
        2
 70
     0
 43
0.25
 10
-45.99299999999994
 20
33.08299999999997
 10
-45.99299999999994
 20
44.08299999999997
  0
LWPOLYLINE
  5
FE
330
4B
100
AcDbEntity
  8
1
  6
DOT_CENTER
 62
     7
100
AcDbPolyline
 90
        2
 70
     0
 43
0.25
 10
-45.99299999999994
 20
44.08299999999997
 10
-45.99299999999994
 20
55.08299999999997
  0
LWPOLYLINE
  5
FF
330
4B
100
AcDbEntity
  8
1
  6
Continuous
 62
     7
100
AcDbPolyline
 90
        2
 70
     0
 43
0.5
 10
-42.86799999999994
 20
8.08299999999997
 10
-42.86799999999994
 20
6.93599999999998
  0
LWPOLYLINE
  5
100
330
4B
100
AcDbEntity
  8
1
  6
Continuous
 62
     7
100
AcDbPolyline
 90
        2
 70
     0
 43
0.5
 10
-44.51499999999987
 20
4.08299999999997
 10
-42.86799999999994
 20
6.93599999999998
  0
LWPOLYLINE
  5
101
330
4B
100
AcDbEntity
  8
1
  6
Continuous
 62
     7
100
AcDbPolyline
 90
        2
 70
     0
 43
0.5
 10
-41.86799999999994
 20
9.08299999999997
 10
-40.11799999999994
 20
9.08299999999997
  0
LWPOLYLINE
  5
102
330
4B
100
AcDbEntity
  8
1
  6
Continuous
 62
     7
100
AcDbPolyline
 90
        2
 70
     0
 43
0.5
 10
-39.11799999999994
 20
8.08299999999997
 10
-39.11799999999994
 20
6.935
  0
LWPOLYLINE
  5
103
330
4B
100
AcDbEntity
  8
1
  6
Continuous
 62
     7
100
AcDbPolyline
 90
        2
 70
     0
 43
0.5
 10
-37.47099999999989
 20
4.08299999999997
 10
-39.11799999999994
 20
6.935
  0
LWPOLYLINE
  5
104
330
4B
100
AcDbEntity
  8
1
  6
Continuous
 62
     7
100
AcDbPolyline
 90
        2
 70
     0
 43
0.5
 10
-42.86799999999994
 20
80.08299999999997
 10
-42.86799999999994
 20
81.22999999999996
  0
LWPOLYLINE
  5
105
330
4B
100
AcDbEntity
  8
1
  6
Continuous
 62
     7
100
AcDbPolyline
 90
        2
 70
     0
 43
0.5
 10
-44.51499999999987
 20
84.08299999999997
 10
-42.86799999999994
 20
81.22999999999996
  0
LWPOLYLINE
  5
106
330
4B
100
AcDbEntity
  8
1
  6
Continuous
 62
     7
100
AcDbPolyline
 90
        2
 70
     0
 43
0.5
 10
-41.86799999999994
 20
79.08299999999997
 10
-40.11799999999994
 20
79.08299999999997
  0
LWPOLYLINE
  5
107
330
4B
100
AcDbEntity
  8
1
  6
Continuous
 62
     7
100
AcDbPolyline
 90
        2
 70
     0
 43
0.5
 10
-39.11799999999994
 20
80.08299999999997
 10
-39.11799999999994
 20
81.231
  0
LWPOLYLINE
  5
108
330
4B
100
AcDbEntity
  8
1
  6
Continuous
 62
     7
100
AcDbPolyline
 90
        2
 70
     0
 43
0.5
 10
-37.47099999999989
 20
84.08299999999997
 10
-39.11799999999994
 20
81.231
  0
LWPOLYLINE
  5
109
330
4B
100
AcDbEntity
  8
1
  6
DOT_CENTER
 62
     7
100
AcDbPolyline
 90
        2
 70
     0
 43
0.25
 10
-85.99299999999994
 20
73.13299999999998
 10
-85.99299999999994
 20
15.03300000000002
  0
LWPOLYLINE
  5
10A
330
4B
100
AcDbEntity
  8
1
  6
DOT_CENTER
 62
     7
100
AcDbPolyline
 90
        2
 70
     0
 43
0.25
 10
-66.99299999999994
 20
74.08299999999997
 10
-66.99299999999994
 20
14.08299999999997
  0
LWPOLYLINE
  5
10B
330
4B
100
AcDbEntity
  8
1
  6
DOT_CENTER
 62
     7
100
AcDbPolyline
 90
        2
 70
     0
 43
0.25
 10
-66.99299999999994
 20
14.08299999999997
 10
-66.99299999999994
 20
11.66899999999998
  0
LWPOLYLINE
  5
10C
330
4B
100
AcDbEntity
  8
1
  6
DOT_CENTER
 62
     7
100
AcDbPolyline
 90
        2
 70
     0
 43
0.25
 10
-85.99299999999994
 20
15.03300000000002
 10
-85.99299999999994
 20
12.63400000000002
  0
LWPOLYLINE
  5
10D
330
4B
100
AcDbEntity
  8
1
  6
Continuous
 62
     7
100
AcDbPolyline
 90
        2
 70
     0
 43
0.5
 10
-32.993
 20
77.58299999999993
 42
0.4142135623731
 10
-13.493
 20
58.08299999999993
 42
0.4142135623731
  0
LWPOLYLINE
  5
10E
330
4B
100
AcDbEntity
  8
1
  6
Continuous
 62
     7
100
AcDbPolyline
 90
        2
 70
     0
 43
0.5
 10
13.7
 20
57.78999999999992
 42
0.19889611464511
 10
12.993
 20
58.08299999999993
 42
0.19889611464511
  0
LWPOLYLINE
  5
10F
330
4B
100
AcDbEntity
  8
1
  6
Continuous
 62
     7
100
AcDbPolyline
 90
        2
 70
     0
 43
0.5
 10
16.114
 20
55.37599999999993
 42
0.19889611464511
 10
16.821
 20
55.08299999999993
 42
0.19889611464511
  0
LWPOLYLINE
  5
110
330
4B
100
AcDbEntity
  8
1
  6
Continuous
 62
     7
100
AcDbPolyline
 90
        2
 70
     0
 43
0.5
 10
16.821
 20
33.083
 42
0.19889611464511
 10
16.114
 20
32.79
 42
0.19889611464511
  0
LWPOLYLINE
  5
111
330
4B
100
AcDbEntity
  8
1
  6
Continuous
 62
     7
100
AcDbPolyline
 90
        2
 70
     0
 43
0.5
 10
12.993
 20
30.083
 42
0.19889611464511
 10
13.7
 20
30.376
 42
0.19889611464511
  0
LWPOLYLINE
  5
112
330
4B
100
AcDbEntity
  8
1
  6
Continuous
 62
     7
100
AcDbPolyline
 90
        2
 70
     0
 43
0.5
 10
-13.493
 20
30.083
 42
0.4142135623731
 10
-32.993
 20
10.583
 42
0.4142135623731
  0
LWPOLYLINE
  5
113
330
4B
100
AcDbEntity
  8
1
  6
Continuous
 62
     7
100
AcDbPolyline
 90
        2
 70
     0
 43
0.5
 10
-46.43099999999993
 20
19.08299999999997
 42
0.3251335591577
 10
-54.99299999999994
 20
12.858
 42
0.3251335591577
  0
LWPOLYLINE
  5
114
330
4B
100
AcDbEntity
  8
1
  6
Continuous
 62
     7
100
AcDbPolyline
 90
        2
 70
     0
 43
0.5
 10
-90.99299999999994
 20
50.10300000000001
 42
0.4142135623731
 10
-92.99299999999994
 20
52.10300000000001
 42
0.4142135623731
  0
LWPOLYLINE
  5
115
330
4B
100
AcDbEntity
  8
1
  6
Continuous
 62
     7
100
AcDbPolyline
 90
        2
 70
     0
 43
0.5
 10
-92.99299999999994
 20
36.06299999999999
 42
0.4142135623731
 10
-90.99299999999994
 20
38.06299999999999
 42
0.4142135623731
  0
LWPOLYLINE
  5
116
330
4B
100
AcDbEntity
  8
1
  6
Continuous
 62
     7
100
AcDbPolyline
 90
        2
 70
     0
 43
0.5
 10
-98.99299999999994
 20
17.20499999999998
 42
0.39963776093387
 10
-97.47299999999996
 20
15.60699999999997
 42
0.39963776093387
  0
LWPOLYLINE
  5
117
330
4B
100
AcDbEntity
  8
1
  6
Continuous
 62
     7
100
AcDbPolyline
 90
        2
 70
     0
 43
0.5
 10
-97.47299999999996
 20
72.55899999999997
 42
0.39963776093387
 10
-98.99299999999994
 20
70.96100000000001
 42
0.39963776093387
  0
LWPOLYLINE
  5
118
330
4B
100
AcDbEntity
  8
1
  6
Continuous
 62
     7
100
AcDbPolyline
 90
        2
 70
     0
 43
0.5
 10
-92.11799999999994
 20
31.654
 42
0.45136906418799
 10
-90.99299999999994
 20
32.64600000000002
 42
0.45136906418799
  0
LWPOLYLINE
  5
119
330
4B
100
AcDbEntity
  8
1
  6
Continuous
 62
     7
100
AcDbPolyline
 90
        2
 70
     0
 43
0.5
 10
-90.99299999999994
 20
55.51999999999998
 42
0.45136906418796
 10
-92.11799999999994
 20
56.512
 42
0.45136906418796
  0
LWPOLYLINE
  5
11A
330
4B
100
AcDbEntity
  8
1
  6
Continuous
 62
     7
100
AcDbPolyline
 90
        2
 70
     0
 43
0.5
 10
-58.89999999999986
 20
12.74399999999997
 42
0.45558522582841
 10
-59.88999999999987
 20
13.88299999999998
 42
0.45558522582841
  0
LWPOLYLINE
  5
11B
330
4B
100
AcDbEntity
  8
1
  6
Continuous
 62
     7
100
AcDbPolyline
 90
        2
 70
     0
 43
0.5
 10
-61.0809999999999
 20
13.88299999999998
 42
0.06558644904506
 10
-61.33999999999992
 20
13.84899999999999
 42
0.06558644904506
  0
LWPOLYLINE
  5
11C
330
4B
100
AcDbEntity
  8
1
  6
Continuous
 62
     7
100
AcDbPolyline
 90
        2
 70
     0
 43
0.5
 10
-59.88999999999987
 20
74.28300000000002
 42
0.45558522582841
 10
-58.89999999999986
 20
75.42199999999997
 42
0.45558522582841
  0
LWPOLYLINE
  5
11D
330
4B
100
AcDbEntity
  8
1
  6
Continuous
 62
     7
100
AcDbPolyline
 90
        2
 70
     0
 43
0.5
 10
-61.33999999999992
 20
74.31700000000001
 42
0.06558644904507
 10
-61.0809999999999
 20
74.28300000000002
 42
0.06558644904507
  0
LWPOLYLINE
  5
11E
330
4B
100
AcDbEntity
  8
1
  6
Continuous
 62
     7
100
AcDbPolyline
 90
        2
 70
     0
 43
0.5
 10
-45.99299999999994
 20
53.08299999999997
 42
1.0
 10
-45.99299999999994
 20
35.08299999999997
 42
1.0
  0
LWPOLYLINE
  5
11F
330
4B
100
AcDbEntity
  8
1
  6
Continuous
 62
     7
100
AcDbPolyline
 90
        2
 70
     0
 43
0.5
 10
-41.86799999999994
 20
9.08299999999997
 42
0.4142135623731
 10
-42.86799999999994
 20
8.08299999999997
 42
0.4142135623731
  0
LWPOLYLINE
  5
120
330
4B
100
AcDbEntity
  8
1
  6
Continuous
 62
     7
100
AcDbPolyline
 90
        2
 70
     0
 43
0.5
 10
-39.11799999999994
 20
8.08299999999997
 42
0.4142135623731
 10
-40.11799999999994
 20
9.08299999999997
 42
0.4142135623731
  0
LWPOLYLINE
  5
121
330
4B
100
AcDbEntity
  8
1
  6
Continuous
 62
     7
100
AcDbPolyline
 90
        2
 70
     0
 43
0.5
 10
-42.86799999999994
 20
80.08299999999997
 42
0.4142135623731
 10
-41.86799999999994
 20
79.08299999999997
 42
0.4142135623731
  0
LWPOLYLINE
  5
122
330
4B
100
AcDbEntity
  8
1
  6
Continuous
 62
     7
100
AcDbPolyline
 90
        2
 70
     0
 43
0.5
 10
-40.11799999999994
 20
79.08299999999997
 42
0.4142135623731
 10
-39.11799999999994
 20
80.08299999999997
 42
0.4142135623731
  0
LWPOLYLINE
  5
123
330
4B
100
AcDbEntity
  8
1
  6
Continuous
 62
     7
100
AcDbPolyline
 90
        2
 70
     1
 43
0.5
 10
-75.74299999999994
 20
44.08299999999997
 42
1.0
 10
-66.24299999999994
 20
44.08299999999997
 42
1.0
  0
LWPOLYLINE
  5
124
330
4B
100
AcDbEntity
  8
1
  6
Continuous
 62
     7
100
AcDbPolyline
 90
        2
 70
     1
 43
0.5
 10
-75.24299999999994
 20
44.08299999999997
 42
1.0
 10
-66.74299999999994
 20
44.08299999999997
 42
1.0
  0
LEADER
  5
125
330
4B
100
AcDbEntity
  8
1
  6
Continuous
 62
     7
100
AcDbLeader
  3
Standard
 71
     0
 76
     1
 10
-51.99299999999994
 20
84.08299999999997
 30
0.0
  0
LEADER
  5
126
330
4B
100
AcDbEntity
  8
1
  6
Continuous
 62
     7
100
AcDbLeader
  3
Standard
 71
     0
 76
    60
 10
-46.99299999999994
 20
84.08299999999997
 30
0.0
 10
-47.00008667754298
 20
84.06628667602706
 30
0.0
 10
-47.02132630499102
 20
84.04962091494286
 30
0.0
 10
-47.05665867633604
 20
84.03304977046588
 30
0.0
 10
-47.10598363817087
 20
84.01662021528767
 30
0.0
 10
-47.1691613735851
 20
84.0003788207498
 30
0.0
 10
-47.24601279849162
 20
83.98437162483219
 30
0.0
 10
-47.3363200692595
 20
83.96864400165362
 30
0.0
 10
-47.4398272002154
 20
83.95324053285361
 30
0.0
 10
-47.55624078926223
 20
83.93820488122168
 30
0.0
 10
-47.68523084955916
 20
83.9235796669297
 30
0.0
 10
-47.82643174490443
 20
83.90940634672091
 30
0.0
 10
-47.97944322617127
 20
83.89572509639589
 30
0.0
 10
-48.14383156585632
 20
83.88257469693048
 30
0.0
 10
-48.31913078752746
 20
83.8699924245467
 30
0.0
 10
-48.50484398668345
 20
83.85801394504887
 30
0.0
 10
-48.70044473928408
 20
83.84667321272588
 30
0.0
 10
-48.90537859395499
 20
83.83600237410349
 30
0.0
 10
-49.1190646436404
 20
83.8260316768214
 30
0.0
 10
-49.34089717224572
 20
83.8167893838937
 30
0.0
 10
-49.57024737160612
 20
83.80830169359388
 30
0.0
 10
-49.8064651239099
 20
83.80059266519339
 30
0.0
 10
-50.04888084452796
 20
83.79368415076209
 30
0.0
 10
-50.29680738002321
 20
83.78759573322759
 30
0.0
 10
-50.54954195596122
 20
83.78234467086406
 30
0.0
 10
-50.80636816899937
 20
83.77794584837301
 30
0.0
 10
-51.06655801760985
 20
83.77441173468969
 30
0.0
 10
-51.32937396567786
 20
83.7717523476395
 30
0.0
 10
-51.59407103312719
 20
83.7699752255412
 30
0.0
 10
-51.85989890764631
 20
83.76908540583861
 30
0.0
 10
-52.12610407152954
 20
83.76908541082128
 30
0.0
 10
-52.39193193760389
 20
83.7699752404751
 30
0.0
 10
-52.65662898818744
 20
83.7717523724823
 30
0.0
 10
-52.91944491101674
 20
83.77441176937089
 30
0.0
 10
-53.1796347260871
 20
83.77794589279438
 30
0.0
 10
-53.43646089737865
 20
83.78234472489981
 30
0.0
 10
-53.68919542348192
 20
83.78759579672419
 30
0.0
 10
-53.93712190119561
 20
83.79368422353991
 30
0.0
 10
-54.17953755624899
 20
83.80059274704587
 30
0.0
 10
-54.41575523539098
 20
83.80830178428931
 30
0.0
 10
-54.64510535419959
 20
83.81678948317472
 30
0.0
 10
-54.86693779509187
 20
83.82603178440661
 30
0.0
 10
-55.08062375015129
 20
83.83600248968798
 30
0.0
 10
-55.28555750355167
 20
83.84667333598208
 30
0.0
 10
-55.48115814852417
 20
83.85801407562741
 30
0.0
 10
-55.66687123399947
 20
83.8699925620773
 30
0.0
 10
-55.84217033625964
 20
83.88257484102337
 30
0.0
 10
-56.00655855114212
 20
83.8957252466426
 30
0.0
 10
-56.15956990256836
 20
83.9094065026955
 30
0.0
 10
-56.30077066340311
 20
83.92357982819021
 30
0.0
 10
-56.42976058490081
 20
83.93820504731087
 30
0.0
 10
-56.54617403125326
 20
83.95324070330076
 30
0.0
 10
-56.64968101602403
 20
83.9686441759755
 30
0.0
 10
-56.73998813753042
 20
83.98437180253467
 30
0.0
 10
-56.81683941052222
 20
84.00037900132929
 30
0.0
 10
-56.88001699179904
 20
84.01662039823219
 30
0.0
 10
-56.92934179771066
 20
84.0330499552569
 30
0.0
 10
-56.96467401178893
 20
84.04962110105652
 30
0.0
 10
-56.98591348107209
 20
84.06628686293578
 30
0.0
 10
-56.99299999999994
 20
84.08299999999997
 30
0.0
  0
ENDBLK
  5
4D
330
4B
100
AcDbEntity
  8
0
100
AcDbBlockEnd
  0
BLOCK
  5
12E
330
127
100
AcDbEntity
  8
0
100
AcDbBlockBegin
  2
*D4
 70
     1
 10
0.0
 20
0.0
 30
0.0
  3
*D4
  1

  0
LINE
  5
128
330
127
100
AcDbEntity
  8
1
  6
Continuous
 62
     2
100
AcDbLine
 10
63.4643324664137
 20
58.08299999999993
 30
0.0
 11
63.4643324664137
 21
30.083
 31
0.0
  0
LINE
  5
129
330
127
100
AcDbEntity
  8
1
  6
Continuous
 62
     2
100
AcDbLine
 10
14.993
 20
30.083
 30
0.0
 11
65.46433246641371
 21
30.083
 31
0.0
  0
LINE
  5
12A
330
127
100
AcDbEntity
  8
1
  6
Continuous
 62
     2
100
AcDbLine
 10
14.993
 20
58.08299999999993
 30
0.0
 11
65.46433246641371
 21
58.08299999999993
 31
0.0
  0
SOLID
  5
12B
330
127
100
AcDbEntity
  8
1
 62
     2
100
AcDbTrace
 10
63.92511620796959
 20
54.58299999999993
 30
0.0
 11
63.00354872485781
 21
54.58299999999993
 31
0.0
 12
63.4643324664137
 22
58.08299999999993
 32
0.0
 13
63.4643324664137
 23
58.08299999999993
 33
0.0
  0
SOLID
  5
12C
330
127
100
AcDbEntity
  8
1
 62
     2
100
AcDbTrace
 10
63.00354872485781
 20
33.583
 30
0.0
 11
63.92511620796959
 21
33.583
 31
0.0
 12
63.4643324664137
 22
30.083
 32
0.0
 13
63.4643324664137
 23
30.083
 33
0.0
  0
MTEXT
  5
12D
330
127
100
AcDbEntity
  8
1
 62
     3
100
AcDbMText
 10
61.4643324664137
 20
35.1083117685705
 30
0.0
 40
3.5
 41
0.0
 71
     7
 72
     1
  1
\C3;%%c\C3;\C3;28\C2;\H2.45;\S^ ;\C3;
  7
CONVERTER_11
 11
0.0
 21
1.0
 31
0.0
 73
     1
 44
0.60024009603842
  0
ENDBLK
  5
12F
330
127
100
AcDbEntity
  8
0
100
AcDbBlockEnd
  0
BLOCK
  5
139
330
132
100
AcDbEntity
  8
0
100
AcDbBlockBegin
  2
*D5
 70
     1
 10
0.0
 20
0.0
 30
0.0
  3
*D5
  1

  0
LINE
  5
133
330
132
100
AcDbEntity
  8
1
  6
Continuous
 62
     2
100
AcDbLine
 10
53.2962839054982
 20
52.08299999999996
 30
0.0
 11
53.2962839054982
 21
36.08299999999996
 31
0.0
  0
LINE
  5
134
330
132
100
AcDbEntity
  8
1
  6
Continuous
 62
     2
100
AcDbLine
 10
32.40700000000005
 20
36.08299999999996
 30
0.0
 11
55.2962839054982
 21
36.08299999999996
 31
0.0
  0
LINE
  5
135
330
132
100
AcDbEntity
  8
1
  6
Continuous
 62
     2
100
AcDbLine
 10
32.40700000000006
 20
52.08299999999996
 30
0.0
 11
55.2962839054982
 21
52.08299999999996
 31
0.0
  0
SOLID
  5
136
330
132
100
AcDbEntity
  8
1
 62
     2
100
AcDbTrace
 10
53.75706764705409
 20
48.58299999999996
 30
0.0
 11
52.83550016394231
 21
48.58299999999996
 31
0.0
 12
53.2962839054982
 22
52.08299999999996
 32
0.0
 13
53.2962839054982
 23
52.08299999999996
 33
0.0
  0
SOLID
  5
137
330
132
100
AcDbEntity
  8
1
 62
     2
100
AcDbTrace
 10
52.83550016394231
 20
39.58299999999996
 30
0.0
 11
53.75706764705409
 21
39.58299999999996
 31
0.0
 12
53.2962839054982
 22
36.08299999999996
 32
0.0
 13
53.2962839054982
 23
36.08299999999996
 33
0.0
  0
MTEXT
  5
138
330
132
100
AcDbEntity
  8
1
 62
     3
100
AcDbMText
 10
51.2962839054982
 20
35.39225189146363
 30
0.0
 40
3.5
 41
0.0
 71
     7
 72
     1
  1
\C3;%%c\C3;\C3;16\C2;\H2.45;\S^ ;\C3;
  7
CONVERTER_11
 11
0.0
 21
1.0
 31
0.0
 73
     1
 44
0.60024009603842
  0
ENDBLK
  5
13A
330
132
100
AcDbEntity
  8
0
100
AcDbBlockEnd
  0
BLOCK
  5
144
330
13D
100
AcDbEntity
  8
0
100
AcDbBlockBegin
  2
*D6
 70
     1
 10
0.0
 20
0.0
 30
0.0
  3
*D6
  1

  0
LINE
  5
13E
330
13D
100
AcDbEntity
  8
1
  6
Continuous
 62
     2
100
AcDbLine
 10
30.40700000000005
 20
116.054855077356
 30
0.0
 11
-98.99299999999995
 21
116.054855077356
 31
0.0
  0
LINE
  5
13F
330
13D
100
AcDbEntity
  8
1
  6
Continuous
 62
     2
100
AcDbLine
 10
-98.99299999999995
 20
72.96100000000001
 30
0.0
 11
-98.99299999999995
 21
118.054855077356
 31
0.0
  0
LINE
  5
140
330
13D
100
AcDbEntity
  8
1
  6
Continuous
 62
     2
100
AcDbLine
 10
30.40700000000005
 20
54.08299999999996
 30
0.0
 11
30.40700000000005
 21
118.054855077356
 31
0.0
  0
SOLID
  5
141
330
13D
100
AcDbEntity
  8
1
 62
     2
100
AcDbTrace
 10
26.90700000000005
 20
115.5940713358001
 30
0.0
 11
26.90700000000005
 21
116.5156388189119
 31
0.0
 12
30.40700000000005
 22
116.054855077356
 32
0.0
 13
30.40700000000005
 23
116.054855077356
 33
0.0
  0
SOLID
  5
142
330
13D
100
AcDbEntity
  8
1
 62
     2
100
AcDbTrace
 10
-95.49299999999995
 20
116.5156388189119
 30
0.0
 11
-95.49299999999995
 21
115.5940713358001
 31
0.0
 12
-98.99299999999995
 22
116.054855077356
 32
0.0
 13
-98.99299999999995
 23
116.054855077356
 33
0.0
  0
MTEXT
  5
143
330
13D
100
AcDbEntity
  8
1
 62
     3
100
AcDbMText
 10
-39.41083814874072
 20
118.054855077356
 30
0.0
 40
3.5
 41
0.0
 71
     7
 72
     1
  1
\C3;\C3;\C3;129.4\C2;\H2.45;\S^ ;\C3;
  7
CONVERTER_11
 11
0.9999999999970619
 21
2.424068405545306E-6
 31
0.0
 73
     1
 44
0.60024009603842
  0
ENDBLK
  5
145
330
13D
100
AcDbEntity
  8
0
100
AcDbBlockEnd
  0
BLOCK
  5
14F
330
148
100
AcDbEntity
  8
0
100
AcDbBlockBegin
  2
*D7
 70
     1
 10
0.0
 20
0.0
 30
0.0
  3
*D7
  1

  0
LINE
  5
149
330
148
100
AcDbEntity
  8
1
  6
Continuous
 62
     2
100
AcDbLine
 10
-58.99299999999994
 20
108.104843999516
 30
0.0
 11
41.00700000000008
 21
108.104843999516
 31
0.0
  0
LINE
  5
14A
330
148
100
AcDbEntity
  8
1
  6
Continuous
 62
     2
100
AcDbLine
 10
41.00700000000008
 20
56.83299999999997
 30
0.0
 11
41.00700000000008
 21
110.104843999516
 31
0.0
  0
LINE
  5
14B
330
148
100
AcDbEntity
  8
1
  6
Continuous
 62
     2
100
AcDbLine
 10
-58.99299999999994
 20
85.58299999999997
 30
0.0
 11
-58.99299999999994
 21
110.104843999516
 31
0.0
  0
SOLID
  5
14C
330
148
100
AcDbEntity
  8
1
 62
     2
100
AcDbTrace
 10
-55.49299999999994
 20
108.5656277410719
 30
0.0
 11
-55.49299999999994
 21
107.6440602579601
 31
0.0
 12
-58.99299999999994
 22
108.104843999516
 32
0.0
 13
-58.99299999999994
 23
108.104843999516
 33
0.0
  0
SOLID
  5
14D
330
148
100
AcDbEntity
  8
1
 62
     2
100
AcDbTrace
 10
37.50700000000008
 20
107.6440602579601
 30
0.0
 11
37.50700000000008
 21
108.5656277410719
 31
0.0
 12
41.00700000000008
 22
108.104843999516
 32
0.0
 13
41.00700000000008
 23
108.104843999516
 33
0.0
  0
MTEXT
  5
14E
330
148
100
AcDbEntity
  8
1
 62
     3
100
AcDbMText
 10
-14.4347312748136
 20
110.104843999516
 30
0.0
 40
3.5
 41
0.0
 71
     7
 72
     1
  1
\C3;\C3;\C3;100\C2;\H2.45;\S^ ;\C3;
  7
CONVERTER_11
 11
0.9999999999970619
 21
2.424068405545306E-6
 31
0.0
 73
     1
 44
0.60024009603842
  0
ENDBLK
  5
150
330
148
100
AcDbEntity
  8
0
100
AcDbBlockEnd
  0
BLOCK
  5
15A
330
153
100
AcDbEntity
  8
0
100
AcDbBlockBegin
  2
*D8
 70
     1
 10
0.0
 20
0.0
 30
0.0
  3
*D8
  1

  0
LINE
  5
154
330
153
100
AcDbEntity
  8
1
  6
Continuous
 62
     2
100
AcDbLine
 10
30.40700000000007
 20
99.8141181611961
 30
0.0
 11
-58.99299999999994
 21
99.8141181611961
 31
0.0
  0
LINE
  5
155
330
153
100
AcDbEntity
  8
1
  6
Continuous
 62
     2
100
AcDbLine
 10
-58.99299999999994
 20
85.58299999999997
 30
0.0
 11
-58.99299999999994
 21
101.8141181611961
 31
0.0
  0
LINE
  5
156
330
153
100
AcDbEntity
  8
1
  6
Continuous
 62
     2
100
AcDbLine
 10
30.40700000000007
 20
54.08299999999996
 30
0.0
 11
30.40700000000007
 21
101.8141181611961
 31
0.0
  0
SOLID
  5
157
330
153
100
AcDbEntity
  8
1
 62
     2
100
AcDbTrace
 10
26.90700000000007
 20
99.35333441964022
 30
0.0
 11
26.90700000000007
 21
100.274901902752
 31
0.0
 12
30.40700000000007
 22
99.8141181611961
 32
0.0
 13
30.40700000000007
 23
99.8141181611961
 33
0.0
  0
SOLID
  5
158
330
153
100
AcDbEntity
  8
1
 62
     2
100
AcDbTrace
 10
-55.49299999999994
 20
100.274901902752
 30
0.0
 11
-55.49299999999994
 21
99.35333441964022
 31
0.0
 12
-58.99299999999994
 22
99.8141181611961
 32
0.0
 13
-58.99299999999994
 23
99.8141181611961
 33
0.0
  0
MTEXT
  5
159
330
153
100
AcDbEntity
  8
1
 62
     3
100
AcDbMText
 10
-17.09837315510929
 20
101.8141181611961
 30
0.0
 40
3.5
 41
0.0
 71
     7
 72
     1
  1
\C3;\C3;\C3;89.4\C2;\H2.45;\S^ ;\C3;
  7
CONVERTER_11
 11
0.9999999999970619
 21
2.424068405545306E-6
 31
0.0
 73
     1
 44
0.60024009603842
  0
ENDBLK
  5
15B
330
153
100
AcDbEntity
  8
0
100
AcDbBlockEnd
  0
BLOCK
  5
165
330
15E
100
AcDbEntity
  8
0
100
AcDbBlockBegin
  2
*D9
 70
     1
 10
0.0
 20
0.0
 30
0.0
  3
*D9
  1

  0
LINE
  5
15F
330
15E
100
AcDbEntity
  8
1
  6
Continuous
 62
     2
100
AcDbLine
 10
30.40700000000006
 20
91.2962491492239
 30
0.0
 11
-32.99299999999994
 21
91.2962491492239
 31
0.0
  0
LINE
  5
160
330
15E
100
AcDbEntity
  8
1
  6
Continuous
 62
     2
100
AcDbLine
 10
-32.99299999999994
 20
86.08299999999997
 30
0.0
 11
-32.99299999999994
 21
93.2962491492239
 31
0.0
  0
LINE
  5
161
330
15E
100
AcDbEntity
  8
1
  6
Continuous
 62
     2
100
AcDbLine
 10
30.40700000000006
 20
54.08299999999997
 30
0.0
 11
30.40700000000006
 21
93.2962491492239
 31
0.0
  0
SOLID
  5
162
330
15E
100
AcDbEntity
  8
1
 62
     2
100
AcDbTrace
 10
26.90700000000006
 20
90.83546540766801
 30
0.0
 11
26.90700000000006
 21
91.75703289077978
 31
0.0
 12
30.40700000000006
 22
91.2962491492239
 32
0.0
 13
30.40700000000006
 23
91.2962491492239
 33
0.0
  0
SOLID
  5
163
330
15E
100
AcDbEntity
  8
1
 62
     2
100
AcDbTrace
 10
-29.49299999999994
 20
91.75703289077978
 30
0.0
 11
-29.49299999999994
 21
90.83546540766801
 31
0.0
 12
-32.99299999999994
 22
91.2962491492239
 32
0.0
 13
-32.99299999999994
 23
91.2962491492239
 33
0.0
  0
MTEXT
  5
164
330
15E
100
AcDbEntity
  8
1
 62
     3
100
AcDbMText
 10
-5.98088830588573
 20
93.2962491492239
 30
0.0
 40
3.5
 41
0.0
 71
     7
 72
     1
  1
\C3;\C3;\C3;63.4\C2;\H2.45;\S^ ;\C3;
  7
CONVERTER_11
 11
0.9999999999970619
 21
2.424068405545306E-6
 31
0.0
 73
     1
 44
0.60024009603842
  0
ENDBLK
  5
166
330
15E
100
AcDbEntity
  8
0
100
AcDbBlockEnd
  0
BLOCK
  5
16D
330
169
100
AcDbEntity
  8
0
100
AcDbBlockBegin
  2
*D10
 70
     1
 10
0.0
 20
0.0
 30
0.0
  3
*D10
  1

  0
LINE
  5
16A
330
169
100
AcDbEntity
  8
1
  6
Continuous
 62
     2
100
AcDbLine
 10
-15.94921634382188
 20
74.89495415930152
 30
0.0
 11
-26.64684049773416
 21
63.1876368520912
 31
0.0
  0
SOLID
  5
16B
330
169
100
AcDbEntity
  8
1
 62
     2
100
AcDbTrace
 10
-24.62605626954337
 20
66.08224438327355
 30
0.0
 11
-23.94573326519987
 21
65.4605955791325
 31
0.0
 12
-26.64684049773416
 22
63.1876368520912
 32
0.0
 13
-26.64684049773416
 23
63.1876368520912
 33
0.0
  0
MTEXT
  5
16C
330
169
100
AcDbEntity
  8
1
 62
     3
100
AcDbMText
 10
-25.87784956086939
 20
66.99412240300265
 30
0.0
 40
3.5
 41
0.0
 71
     7
 72
     1
  1
\C3; R\C3;\C3;19.5\C2;\H2.45;\S^ ;\C3;
  7
CONVERTER_11
 11
0.6745559229607261
 21
0.7382237511748068
 31
0.0
 73
     1
 44
0.60024009603842
  0
ENDBLK
  5
16E
330
169
100
AcDbEntity
  8
0
100
AcDbBlockEnd
  0
ENDSEC
  0
SECTION
  2
ENTITIES
  0
INSERT
  5
70
330
1F
100
AcDbEntity
  8
0
100
AcDbBlockReference
  2
83-912-16
 10
41.00700000000006
 20
44.08299999999996
 30
0.0
  0
INSERT
  5
71
330
1F
100
AcDbEntity
  8
0
100
AcDbBlockReference
  2
Urheberrecht_DE-EN
 10
-108.972528313068
 20
66.7156477049102
 30
0.0
  0
INSERT
  5
72
330
1F
100
AcDbEntity
  8
0
100
AcDbBlockReference
  2
A80_Aussen
 10
-58.99299999999994
 20
44.08299999999997
 30
0.0
  0
DIMENSION
  5
131
330
1F
100
AcDbEntity
  8
1
100
AcDbDimension
  2
*D4
 10
63.4643324664137
 20
58.08299999999993
 30
0.0
 11
59.7143324664137
 21
43.9633117685705
 31
0.0
 70
    32
  1
<>
 71
     5
 42
-1.0
 53
90.0
  3
ME10_DIM_10
100
AcDbAlignedDimension
 13
12.993
 23
30.083
 33
0.0
 14
12.993
 24
58.08299999999993
 34
0.0
 50
90.0
100
AcDbRotatedDimension
  0
DIMENSION
  5
13C
330
1F
100
AcDbEntity
  8
1
100
AcDbDimension
  2
*D5
 10
53.2962839054982
 20
52.08299999999996
 30
0.0
 11
49.5462839054982
 21
43.82725189146363
 31
0.0
 70
    32
  1
<>
 71
     5
 42
-1.0
 53
90.0
  3
ME10_DIM_11
100
AcDbAlignedDimension
 13
30.40700000000006
 23
36.08299999999996
 33
0.0
 14
30.40700000000006
 24
52.08299999999996
 34
0.0
 50
90.0
100
AcDbRotatedDimension
  0
DIMENSION
  5
147
330
1F
100
AcDbEntity
  8
1
100
AcDbDimension
  2
*D6
 10
30.40700000000005
 20
116.054855077356
 30
0.0
 11
-34.75583814874072
 21
119.804855077356
 31
0.0
 70
    32
  1
<>
 71
     5
 42
-1.0
 53
0.00013888888889
  3
ME10_DIM_12
100
AcDbAlignedDimension
 13
-98.99299999999994
 23
70.96100000000001
 33
0.0
 14
30.40700000000006
 24
52.08299999999996
 34
0.0
100
AcDbRotatedDimension
  0
DIMENSION
  5
152
330
1F
100
AcDbEntity
  8
1
100
AcDbDimension
  2
*D7
 10
-58.99299999999994
 20
108.104843999516
 30
0.0
 11
-11.4947312748136
 21
111.854843999516
 31
0.0
 70
    32
  1
<>
 71
     5
 42
-1.0
 53
0.00013888888889
  3
ME10_DIM_13
100
AcDbAlignedDimension
 13
41.00700000000006
 23
54.83299999999996
 33
0.0
 14
-58.99299999999994
 24
83.58299999999997
 34
0.0
100
AcDbRotatedDimension
  0
DIMENSION
  5
15D
330
1F
100
AcDbEntity
  8
1
100
AcDbDimension
  2
*D8
 10
30.40700000000007
 20
99.8141181611961
 30
0.0
 11
-13.28337315510929
 21
103.5641181611961
 31
0.0
 70
    32
  1
<>
 71
     5
 42
-1.0
 53
0.00013888888889
  3
ME10_DIM_14
100
AcDbAlignedDimension
 13
-58.99299999999994
 23
83.58299999999997
 33
0.0
 14
30.40700000000006
 24
52.08299999999996
 34
0.0
100
AcDbRotatedDimension
  0
DIMENSION
  5
168
330
1F
100
AcDbEntity
  8
1
100
AcDbDimension
  2
*D9
 10
30.40700000000006
 20
91.2962491492239
 30
0.0
 11
-2.16588830588573
 21
95.0462491492239
 31
0.0
 70
    32
  1
<>
 71
     5
 42
-1.0
 53
0.00013888888889
  3
ME10_DIM_15
100
AcDbAlignedDimension
 13
-32.99299999999994
 23
84.08299999999997
 33
0.0
 14
30.40700000000006
 24
52.08299999999996
 34
0.0
100
AcDbRotatedDimension
  0
INSERT
  5
16F
330
1F
100
AcDbEntity
  8
1
100
AcDbBlockReference
  2
*D10
 10
0.0
 20
0.0
 30
0.0
  0
ENDSEC
  0
SECTION
  2
OBJECTS
  0
DICTIONARY
  5
C
330
0
100
AcDbDictionary
281
     1
  3
ACAD_GROUP
350
D
  3
ACAD_LAYOUT
350
1A
  3
ACAD_MLEADERSTYLE
350
172
  3
ACAD_MLINESTYLE
350
17
  3
ACAD_PLOTSETTINGS
350
19
  3
ACAD_PLOTSTYLENAME
350
E
  3
ACAD_SCALELIST
350
4E
  3
ACAD_VISUALSTYLE
350
2A
  3
AcDbVariableDictionary
350
170
  0
DICTIONARY
  5
D
102
{ACAD_REACTORS
330
C
102
}
330
C
100
AcDbDictionary
281
     1
  0
DICTIONARY
  5
1A
102
{ACAD_REACTORS
330
C
102
}
330
C
100
AcDbDictionary
281
     1
  3
Layout1
350
1E
  3
Layout2
350
26
  3
Model
350
22
  0
DICTIONARY
  5
172
102
{ACAD_REACTORS
330
C
102
}
330
C
100
AcDbDictionary
281
     1
  0
DICTIONARY
  5
17
102
{ACAD_REACTORS
330
C
102
}
330
C
100
AcDbDictionary
281
     1
  3
Standard
350
18
  0
DICTIONARY
  5
19
102
{ACAD_REACTORS
330
C
102
}
330
C
100
AcDbDictionary
281
     1
  0
ACDBDICTIONARYWDFLT
  5
E
102
{ACAD_REACTORS
330
C
102
}
330
C
100
AcDbDictionary
281
     1
  3
Normal
350
F
100
AcDbDictionaryWithDefault
340
F
  0
DICTIONARY
  5
4E
102
{ACAD_REACTORS
330
C
102
}
330
C
100
AcDbDictionary
281
     1
  3
A0
350
4F
  3
A1
350
50
  3
A2
350
51
  3
A3
350
52
  3
A4
350
53
  3
A5
350
54
  3
A6
350
55
  3
A7
350
56
  3
A8
350
57
  3
A9
350
58
  3
B0
350
59
  3
B1
350
5A
  3
B2
350
5B
  3
B3
350
5C
  3
B4
350
5D
  3
B5
350
5E
  3
B6
350
5F
  3
B7
350
60
  3
B8
350
61
  3
B9
350
62
  3
C0
350
63
  3
C1
350
64
  3
C2
350
65
  3
C3
350
66
  3
C4
350
67
  3
C5
350
68
  3
C6
350
69
  3
C7
350
6A
  3
C8
350
6B
  3
C9
350
6C
  3
D0
350
6D
  3
D1
350
6E
  3
D2
350
6F
  0
DICTIONARY
  5
2A
102
{ACAD_REACTORS
330
C
102
}
330
C
100
AcDbDictionary
281
     1
  3
2dWireframe
350
2F
  3
3D Hidden
350
31
  3
3dWireframe
350
30
  3
Basic
350
32
  3
Brighten
350
36
  3
ColorChange
350
3A
  3
Conceptual
350
34
  3
Dim
350
35
  3
Facepattern
350
39
  3
Flat
350
2B
  3
FlatWithEdges
350
2C
  3
Gouraud
350
2D
  3
GouraudWithEdges
350
2E
  3
Linepattern
350
38
  3
Realistic
350
33
  3
Thicken
350
37
  0
DICTIONARY
  5
170
102
{ACAD_REACTORS
330
C
102
}
330
C
100
AcDbDictionary
281
     1
  3
CANNOSCALE
350
173
  0
LAYOUT
  5
1E
102
{ACAD_REACTORS
330
1A
102
}
330
1A
100
AcDbPlotSettings
  1

  2
none_device
  4

  6

 40
0.0
 41
0.0
 42
0.0
 43
0.0
 44
0.0
 45
0.0
 46
0.0
 47
0.0
 48
0.0
 49
0.0
140
0.0
141
0.0
142
1.0
143
1.0
 70
   688
 72
     0
 73
     0
 74
     5
  7

 75
    16
147
1.0
148
0.0
149
0.0
100
AcDbLayout
  1
Layout1
 70
     1
 71
     1
 10
0.0
 20
0.0
 11
12.0
 21
9.0
 12
0.0
 22
0.0
 32
0.0
 14
1.00000000000000E+20
 24
1.00000000000000E+20
 34
1.00000000000000E+20
 15
-1.00000000000000E+20
 25
-1.00000000000000E+20
 35
-1.00000000000000E+20
146
0.0
 13
0.0
 23
0.0
 33
0.0
 16
1.0
 26
0.0
 36
0.0
 17
0.0
 27
1.0
 37
0.0
 76
     0
330
1B
  0
LAYOUT
  5
26
102
{ACAD_REACTORS
330
1A
102
}
330
1A
100
AcDbPlotSettings
  1

  2
none_device
  4

  6

 40
0.0
 41
0.0
 42
0.0
 43
0.0
 44
0.0
 45
0.0
 46
0.0
 47
0.0
 48
0.0
 49
0.0
140
0.0
141
0.0
142
1.0
143
1.0
 70
   688
 72
     0
 73
     0
 74
     5
  7

 75
    16
147
1.0
148
0.0
149
0.0
100
AcDbLayout
  1
Layout2
 70
     1
 71
     2
 10
0.0
 20
0.0
 11
0.0
 21
0.0
 12
0.0
 22
0.0
 32
0.0
 14
0.0
 24
0.0
 34
0.0
 15
0.0
 25
0.0
 35
0.0
146
0.0
 13
0.0
 23
0.0
 33
0.0
 16
1.0
 26
0.0
 36
0.0
 17
0.0
 27
1.0
 37
0.0
 76
     0
330
23
  0
LAYOUT
  5
22
102
{ACAD_REACTORS
330
1A
102
}
330
1A
100
AcDbPlotSettings
  1

  2
none_device
  4

  6

 40
0.0
 41
0.0
 42
0.0
 43
0.0
 44
0.0
 45
0.0
 46
0.0
 47
0.0
 48
0.0
 49
0.0
140
0.0
141
0.0
142
1.0
143
1.0
 70
  1712
 72
     0
 73
     0
 74
     0
  7

 75
     0
147
1.0
148
0.0
149
0.0
100
AcDbLayout
  1
Model
 70
     1
 71
     0
 10
0.0
 20
0.0
 11
12.0
 21
9.0
 12
0.0
 22
0.0
 32
0.0
 14
-122.972528313068
 24
3.83299999999997
 34
0.0
 15
65.46433246641371
 25
121.554855077356
 35
0.0
146
0.0
 13
0.0
 23
0.0
 33
0.0
 16
1.0
 26
0.0
 36
0.0
 17
0.0
 27
1.0
 37
0.0
 76
     0
330
1F
331
29
  0
MLINESTYLE
  5
18
102
{ACAD_REACTORS
330
17
102
}
330
17
100
AcDbMlineStyle
  2
Standard
 70
     0
  3

 62
   256
 51
90.0
 52
90.0
 71
     2
 49
0.5
 62
   256
  6
BYLAYER
 49
-0.5
 62
   256
  6
BYLAYER
  0
ACDBPLACEHOLDER
  5
F
102
{ACAD_REACTORS
330
E
102
}
330
E
  0
SCALE
  5
4F
102
{ACAD_REACTORS
330
4E
102
}
330
4E
100
AcDbScale
 70
     0
300
1:1
140
1.0
141
1.0
290
     1
  0
SCALE
  5
50
102
{ACAD_REACTORS
330
4E
102
}
330
4E
100
AcDbScale
 70
     0
300
1:2
140
1.0
141
2.0
290
     0
  0
SCALE
  5
51
102
{ACAD_REACTORS
330
4E
102
}
330
4E
100
AcDbScale
 70
     0
300
1:4
140
1.0
141
4.0
290
     0
  0
SCALE
  5
52
102
{ACAD_REACTORS
330
4E
102
}
330
4E
100
AcDbScale
 70
     0
300
1:5
140
1.0
141
5.0
290
     0
  0
SCALE
  5
53
102
{ACAD_REACTORS
330
4E
102
}
330
4E
100
AcDbScale
 70
     0
300
1:8
140
1.0
141
8.0
290
     0
  0
SCALE
  5
54
102
{ACAD_REACTORS
330
4E
102
}
330
4E
100
AcDbScale
 70
     0
300
1:10
140
1.0
141
10.0
290
     0
  0
SCALE
  5
55
102
{ACAD_REACTORS
330
4E
102
}
330
4E
100
AcDbScale
 70
     0
300
1:16
140
1.0
141
16.0
290
     0
  0
SCALE
  5
56
102
{ACAD_REACTORS
330
4E
102
}
330
4E
100
AcDbScale
 70
     0
300
1:20
140
1.0
141
20.0
290
     0
  0
SCALE
  5
57
102
{ACAD_REACTORS
330
4E
102
}
330
4E
100
AcDbScale
 70
     0
300
1:30
140
1.0
141
30.0
290
     0
  0
SCALE
  5
58
102
{ACAD_REACTORS
330
4E
102
}
330
4E
100
AcDbScale
 70
     0
300
1:40
140
1.0
141
40.0
290
     0
  0
SCALE
  5
59
102
{ACAD_REACTORS
330
4E
102
}
330
4E
100
AcDbScale
 70
     0
300
1:50
140
1.0
141
50.0
290
     0
  0
SCALE
  5
5A
102
{ACAD_REACTORS
330
4E
102
}
330
4E
100
AcDbScale
 70
     0
300
1:100
140
1.0
141
100.0
290
     0
  0
SCALE
  5
5B
102
{ACAD_REACTORS
330
4E
102
}
330
4E
100
AcDbScale
 70
     0
300
2:1
140
2.0
141
1.0
290
     0
  0
SCALE
  5
5C
102
{ACAD_REACTORS
330
4E
102
}
330
4E
100
AcDbScale
 70
     0
300
4:1
140
4.0
141
1.0
290
     0
  0
SCALE
  5
5D
102
{ACAD_REACTORS
330
4E
102
}
330
4E
100
AcDbScale
 70
     0
300
8:1
140
8.0
141
1.0
290
     0
  0
SCALE
  5
5E
102
{ACAD_REACTORS
330
4E
102
}
330
4E
100
AcDbScale
 70
     0
300
10:1
140
10.0
141
1.0
290
     0
  0
SCALE
  5
5F
102
{ACAD_REACTORS
330
4E
102
}
330
4E
100
AcDbScale
 70
     0
300
100:1
140
100.0
141
1.0
290
     0
  0
SCALE
  5
60
102
{ACAD_REACTORS
330
4E
102
}
330
4E
100
AcDbScale
 70
     0
300
1/128" = 1'-0"
140
0.0078125
141
12.0
290
     0
  0
SCALE
  5
61
102
{ACAD_REACTORS
330
4E
102
}
330
4E
100
AcDbScale
 70
     0
300
1/64" = 1'-0"
140
0.015625
141
12.0
290
     0
  0
SCALE
  5
62
102
{ACAD_REACTORS
330
4E
102
}
330
4E
100
AcDbScale
 70
     0
300
1/32" = 1'-0"
140
0.03125
141
12.0
290
     0
  0
SCALE
  5
63
102
{ACAD_REACTORS
330
4E
102
}
330
4E
100
AcDbScale
 70
     0
300
1/16" = 1'-0"
140
0.0625
141
12.0
290
     0
  0
SCALE
  5
64
102
{ACAD_REACTORS
330
4E
102
}
330
4E
100
AcDbScale
 70
     0
300
3/32" = 1'-0"
140
0.09375
141
12.0
290
     0
  0
SCALE
  5
65
102
{ACAD_REACTORS
330
4E
102
}
330
4E
100
AcDbScale
 70
     0
300
1/8" = 1'-0"
140
0.125
141
12.0
290
     0
  0
SCALE
  5
66
102
{ACAD_REACTORS
330
4E
102
}
330
4E
100
AcDbScale
 70
     0
300
3/16" = 1'-0"
140
0.1875
141
12.0
290
     0
  0
SCALE
  5
67
102
{ACAD_REACTORS
330
4E
102
}
330
4E
100
AcDbScale
 70
     0
300
1/4" = 1'-0"
140
0.25
141
12.0
290
     0
  0
SCALE
  5
68
102
{ACAD_REACTORS
330
4E
102
}
330
4E
100
AcDbScale
 70
     0
300
3/8" = 1'-0"
140
0.375
141
12.0
290
     0
  0
SCALE
  5
69
102
{ACAD_REACTORS
330
4E
102
}
330
4E
100
AcDbScale
 70
     0
300
1/2" = 1'-0"
140
0.5
141
12.0
290
     0
  0
SCALE
  5
6A
102
{ACAD_REACTORS
330
4E
102
}
330
4E
100
AcDbScale
 70
     0
300
3/4" = 1'-0"
140
0.75
141
12.0
290
     0
  0
SCALE
  5
6B
102
{ACAD_REACTORS
330
4E
102
}
330
4E
100
AcDbScale
 70
     0
300
1" = 1'-0"
140
1.0
141
12.0
290
     0
  0
SCALE
  5
6C
102
{ACAD_REACTORS
330
4E
102
}
330
4E
100
AcDbScale
 70
     0
300
1-1/2" = 1'-0"
140
1.5
141
12.0
290
     0
  0
SCALE
  5
6D
102
{ACAD_REACTORS
330
4E
102
}
330
4E
100
AcDbScale
 70
     0
300
3" = 1'-0"
140
3.0
141
12.0
290
     0
  0
SCALE
  5
6E
102
{ACAD_REACTORS
330
4E
102
}
330
4E
100
AcDbScale
 70
     0
300
6" = 1'-0"
140
6.0
141
12.0
290
     0
  0
SCALE
  5
6F
102
{ACAD_REACTORS
330
4E
102
}
330
4E
100
AcDbScale
 70
     0
300
1'-0" = 1'-0"
140
12.0
141
12.0
290
     0
  0
VISUALSTYLE
  5
2F
102
{ACAD_REACTORS
330
2A
102
}
330
2A
100
AcDbVisualStyle
  2
2dWireframe
 70
     4
 71
     0
 72
     2
 73
     0
 90
        0
 40
-0.6
 41
-30.0
 62
     5
 63
     7
 74
     1
 91
        4
 64
     7
 65
   257
 75
     1
175
     1
 42
1.0
 92
        0
 66
   257
 43
1.0
 76
     1
 77
     6
 78
     2
 67
     7
 79
     5
170
     0
171
     0
290
     0
174
     0
 93
        1
 44
0.0
173
     0
291
     0
 45
0.0
1001
ACAD
1000
AcDbSavedByObjectVersion
1070
     0
  0
VISUALSTYLE
  5
31
102
{ACAD_REACTORS
330
2A
102
}
330
2A
100
AcDbVisualStyle
  2
3D Hidden
 70
     6
 71
     1
 72
     2
 73
     2
 90
        0
 40
-0.6
 41
-30.0
 62
     5
 63
     7
 74
     2
 91
        2
 64
     7
 65
   257
 75
     2
175
     1
 42
40.0
 92
        0
 66
   257
 43
1.0
 76
     1
 77
     6
 78
     2
 67
     7
 79
     3
170
     0
171
     0
290
     0
174
     0
 93
        1
 44
0.0
173
     0
291
     0
 45
0.0
1001
ACAD
1000
AcDbSavedByObjectVersion
1070
     0
  0
VISUALSTYLE
  5
30
102
{ACAD_REACTORS
330
2A
102
}
330
2A
100
AcDbVisualStyle
  2
3dWireframe
 70
     5
 71
     0
 72
     2
 73
     0
 90
        0
 40
-0.6
 41
-30.0
 62
     5
 63
     7
 74
     1
 91
        4
 64
     7
 65
   257
 75
     1
175
     1
 42
1.0
 92
        0
 66
   257
 43
1.0
 76
     1
 77
     6
 78
     2
 67
     7
 79
     5
170
     0
171
     0
290
     0
174
     0
 93
        1
 44
0.0
173
     0
291
     0
 45
0.0
1001
ACAD
1000
AcDbSavedByObjectVersion
1070
     0
  0
VISUALSTYLE
  5
32
102
{ACAD_REACTORS
330
2A
102
}
330
2A
100
AcDbVisualStyle
  2
Basic
 70
     7
 71
     1
 72
     0
 73
     1
 90
        0
 40
-0.6
 41
-30.0
 62
     5
 63
     7
 74
     0
 91
        4
 64
     7
 65
   257
 75
     1
175
     1
 42
1.0
 92
        8
 66
     7
 43
1.0
 76
     1
 77
     6
 78
     2
 67
     7
 79
     5
170
     0
171
     0
290
     0
174
     0
 93
        1
 44
0.0
173
     0
291
     1
 45
0.0
1001
ACAD
1000
AcDbSavedByObjectVersion
1070
     0
  0
VISUALSTYLE
  5
36
102
{ACAD_REACTORS
330
2A
102
}
330
2A
100
AcDbVisualStyle
  2
Brighten
 70
    12
 71
     2
 72
     2
 73
     0
 90
        0
 40
-0.6
 41
-30.0
 62
     5
 63
     7
 74
     1
 91
        4
 64
     7
 65
   257
 75
     1
175
     1
 42
1.0
 92
        8
 66
     7
 43
1.0
 76
     1
 77
     6
 78
     2
 67
     7
 79
     5
170
     0
171
     0
290
     0
174
     0
 93
        1
 44
50.0
173
     0
291
     1
 45
0.0
1001
ACAD
1000
AcDbSavedByObjectVersion
1070
     0
  0
VISUALSTYLE
  5
3A
102
{ACAD_REACTORS
330
2A
102
}
330
2A
100
AcDbVisualStyle
  2
ColorChange
 70
    16
 71
     2
 72
     2
 73
     3
 90
        0
 40
-0.6
 41
-30.0
 62
     5
 63
     8
 74
     1
 91
        4
 64
     7
 65
   257
 75
     1
175
     1
 42
1.0
 92
        8
 66
     8
 43
1.0
 76
     1
 77
     6
 78
     2
 67
     7
 79
     5
170
     0
171
     0
290
     0
174
     0
 93
        1
 44
0.0
173
     0
291
     1
 45
0.0
1001
ACAD
1000
AcDbSavedByObjectVersion
1070
     0
  0
VISUALSTYLE
  5
34
102
{ACAD_REACTORS
330
2A
102
}
330
2A
100
AcDbVisualStyle
  2
Conceptual
 70
     9
 71
     3
 72
     2
 73
     0
 90
        0
 40
-0.6
 41
-30.0
 62
     5
 63
     7
 74
     2
 91
        2
 64
     7
 65
   257
 75
     1
175
     1
 42
40.0
 92
        8
 66
     7
 43
1.0
 76
     1
 77
     6
 78
     2
 67
     7
 79
     3
170
     0
171
     0
290
     0
174
     0
 93
        1
 44
0.0
173
     0
291
     0
 45
0.0
1001
ACAD
1000
AcDbSavedByObjectVersion
1070
     0
  0
VISUALSTYLE
  5
35
102
{ACAD_REACTORS
330
2A
102
}
330
2A
100
AcDbVisualStyle
  2
Dim
 70
    11
 71
     2
 72
     2
 73
     0
 90
        0
 40
-0.6
 41
-30.0
 62
     5
 63
     7
 74
     1
 91
        4
 64
     7
 65
   257
 75
     1
175
     1
 42
1.0
 92
        8
 66
     7
 43
1.0
 76
     1
 77
     6
 78
     2
 67
     7
 79
     5
170
     0
171
     0
290
     0
174
     0
 93
        1
 44
-50.0
173
     0
291
     1
 45
0.0
1001
ACAD
1000
AcDbSavedByObjectVersion
1070
     0
  0
VISUALSTYLE
  5
39
102
{ACAD_REACTORS
330
2A
102
}
330
2A
100
AcDbVisualStyle
  2
Facepattern
 70
    15
 71
     2
 72
     2
 73
     0
 90
        0
 40
-0.6
 41
-30.0
 62
     5
 63
     7
 74
     1
 91
        4
 64
     7
 65
   257
 75
     1
175
     1
 42
1.0
 92
        8
 66
     7
 43
1.0
 76
     1
 77
     6
 78
     2
 67
     7
 79
     5
170
     0
171
     0
290
     0
174
     0
 93
        1
 44
0.0
173
     0
291
     1
 45
0.0
1001
ACAD
1000
AcDbSavedByObjectVersion
1070
     0
  0
VISUALSTYLE
  5
2B
102
{ACAD_REACTORS
330
2A
102
}
330
2A
100
AcDbVisualStyle
  2
Flat
 70
     0
 71
     2
 72
     1
 73
     1
 90
        2
 40
-0.6
 41
30.0
 62
     5
 63
     7
 74
     0
 91
        4
 64
     7
 65
   257
 75
     1
175
     1
 42
1.0
 92
        8
 66
     7
 43
1.0
 76
     1
 77
     6
 78
     2
 67
     7
 79
     5
170
     0
171
     0
290
     0
174
     0
 93
       13
 44
0.0
173
     0
291
     1
 45
0.0
1001
ACAD
1000
AcDbSavedByObjectVersion
1070
     0
  0
VISUALSTYLE
  5
2C
102
{ACAD_REACTORS
330
2A
102
}
330
2A
100
AcDbVisualStyle
  2
FlatWithEdges
 70
     1
 71
     2
 72
     1
 73
     1
 90
        2
 40
-0.6
 41
30.0
 62
     5
 63
     7
 74
     1
 91
        4
 64
     7
 65
   257
 75
     1
175
     1
 42
1.0
 92
        0
 66
   257
 43
1.0
 76
     1
 77
     6
 78
     2
 67
     7
 79
     5
170
     0
171
     0
290
     0
174
     0
 93
       13
 44
0.0
173
     0
291
     1
 45
0.0
1001
ACAD
1000
AcDbSavedByObjectVersion
1070
     0
  0
VISUALSTYLE
  5
2D
102
{ACAD_REACTORS
330
2A
102
}
330
2A
100
AcDbVisualStyle
  2
Gouraud
 70
     2
 71
     2
 72
     2
 73
     1
 90
        2
 40
-0.6
 41
30.0
 62
     5
 63
     7
 74
     0
 91
        4
 64
     7
 65
   257
 75
     1
175
     1
 42
1.0
 92
        0
 66
     7
 43
1.0
 76
     1
 77
     6
 78
     2
 67
     7
 79
     5
170
     0
171
     0
290
     0
174
     0
 93
       13
 44
0.0
173
     0
291
     1
 45
0.0
1001
ACAD
1000
AcDbSavedByObjectVersion
1070
     0
  0
VISUALSTYLE
  5
2E
102
{ACAD_REACTORS
330
2A
102
}
330
2A
100
AcDbVisualStyle
  2
GouraudWithEdges
 70
     3
 71
     2
 72
     2
 73
     1
 90
        2
 40
-0.6
 41
30.0
 62
     5
 63
     7
 74
     1
 91
        4
 64
     7
 65
   257
 75
     1
175
     1
 42
1.0
 92
        0
 66
   257
 43
1.0
 76
     1
 77
     6
 78
     2
 67
     7
 79
     5
170
     0
171
     0
290
     0
174
     0
 93
       13
 44
0.0
173
     0
291
     1
 45
0.0
1001
ACAD
1000
AcDbSavedByObjectVersion
1070
     0
  0
VISUALSTYLE
  5
38
102
{ACAD_REACTORS
330
2A
102
}
330
2A
100
AcDbVisualStyle
  2
Linepattern
 70
    14
 71
     2
 72
     2
 73
     0
 90
        0
 40
-0.6
 41
-30.0
 62
     5
 63
     7
 74
     1
 91
        4
 64
     7
 65
   257
 75
     7
175
     7
 42
1.0
 92
        8
 66
     7
 43
1.0
 76
     1
 77
     6
 78
     2
 67
     7
 79
     5
170
     0
171
     0
290
     0
174
     0
 93
        1
 44
0.0
173
     0
291
     1
 45
0.0
1001
ACAD
1000
AcDbSavedByObjectVersion
1070
     0
  0
VISUALSTYLE
  5
33
102
{ACAD_REACTORS
330
2A
102
}
330
2A
100
AcDbVisualStyle
  2
Realistic
 70
     8
 71
     2
 72
     2
 73
     0
 90
        0
 40
-0.6
 41
-30.0
 62
     5
 63
     7
 74
     1
 91
        0
 64
     7
 65
   257
 75
     1
175
     1
 42
1.0
 92
        8
 66
     8
 43
1.0
 76
     1
 77
     6
 78
     2
 67
     7
 79
     5
170
     0
171
     0
290
     0
174
     0
 93
       13
 44
0.0
173
     0
291
     0
 45
0.0
1001
ACAD
1000
AcDbSavedByObjectVersion
1070
     0
  0
VISUALSTYLE
  5
37
102
{ACAD_REACTORS
330
2A
102
}
330
2A
100
AcDbVisualStyle
  2
Thicken
 70
    13
 71
     2
 72
     2
 73
     0
 90
        0
 40
-0.6
 41
-30.0
 62
     5
 63
     7
 74
     1
 91
        4
 64
     7
 65
   257
 75
     1
175
     1
 42
1.0
 92
       12
 66
     7
 43
1.0
 76
     1
 77
     6
 78
     2
 67
     7
 79
     5
170
     0
171
     0
290
     0
174
     0
 93
        1
 44
0.0
173
     0
291
     1
 45
0.0
1001
ACAD
1000
AcDbSavedByObjectVersion
1070
     0
  0
DICTIONARYVAR
  5
173
102
{ACAD_REACTORS
330
170
102
}
330
170
100
DictionaryVariables
280
     0
  1
1:1
  0
ENDSEC
  0
EOF
