  0
SECTION
  2
HEADER
  9
$ACADVER
  1
AC1015
  9
$ACADMAINTVER
 70
     6
  9
$DWGCODEPAGE
  3
ANSI_1252
  9
$INSBASE
 10
0.0
 20
0.0
 30
0.0
  9
$EXTMIN
 10
63.1028280414703
 20
293.5294823139728
 30
0.0
  9
$EXTMAX
 10
231.756692058424
 20
402.298869231279
 30
0.0
  9
$LIMMIN
 10
0.0
 20
0.0
  9
$LIMMAX
 10
12.0
 20
9.0
  9
$ORTHOMODE
 70
     0
  9
$REGENMODE
 70
     1
  9
$FILLMODE
 70
     1
  9
$QTEXTMODE
 70
     0
  9
$MIRRTEXT
 70
     1
  9
$LTSCALE
 40
1.0
  9
$ATTMODE
 70
     1
  9
$TEXTSIZE
 40
0.2
  9
$TRACEWID
 40
0.05
  9
$TEXTSTYLE
  7
Standard
  9
$CLAYER
  8
0
  9
$CELTYPE
  6
ByLayer
  9
$CECOLOR
 62
   256
  9
$CELTSCALE
 40
1.0
  9
$DISPSILH
 70
     0
  9
$DIMSCALE
 40
1.0
  9
$DIMASZ
 40
0.18
  9
$DIMEXO
 40
0.0625
  9
$DIMDLI
 40
0.38
  9
$DIMRND
 40
0.0
  9
$DIMDLE
 40
0.0
  9
$DIMEXE
 40
0.18
  9
$DIMTP
 40
0.0
  9
$DIMTM
 40
0.0
  9
$DIMTXT
 40
0.18
  9
$DIMCEN
 40
0.09
  9
$DIMTSZ
 40
0.0
  9
$DIMTOL
 70
     0
  9
$DIMLIM
 70
     0
  9
$DIMTIH
 70
     1
  9
$DIMTOH
 70
     1
  9
$DIMSE1
 70
     0
  9
$DIMSE2
 70
     0
  9
$DIMTAD
 70
     0
  9
$DIMZIN
 70
     0
  9
$DIMBLK
  1

  9
$DIMASO
 70
     1
  9
$DIMSHO
 70
     1
  9
$DIMPOST
  1

  9
$DIMAPOST
  1

  9
$DIMALT
 70
     0
  9
$DIMALTD
 70
     2
  9
$DIMALTF
 40
25.4
  9
$DIMLFAC
 40
1.0
  9
$DIMTOFL
 70
     0
  9
$DIMTVP
 40
0.0
  9
$DIMTIX
 70
     0
  9
$DIMSOXD
 70
     0
  9
$DIMSAH
 70
     0
  9
$DIMBLK1
  1

  9
$DIMBLK2
  1

  9
$DIMSTYLE
  2
Standard
  9
$DIMCLRD
 70
     0
  9
$DIMCLRE
 70
     0
  9
$DIMCLRT
 70
     0
  9
$DIMTFAC
 40
1.0
  9
$DIMGAP
 40
0.09
  9
$DIMJUST
 70
     0
  9
$DIMSD1
 70
     0
  9
$DIMSD2
 70
     0
  9
$DIMTOLJ
 70
     1
  9
$DIMTZIN
 70
     0
  9
$DIMALTZ
 70
     0
  9
$DIMALTTZ
 70
     0
  9
$DIMUPT
 70
     0
  9
$DIMDEC
 70
     4
  9
$DIMTDEC
 70
     4
  9
$DIMALTU
 70
     2
  9
$DIMALTTD
 70
     2
  9
$DIMTXSTY
  7
Standard
  9
$DIMAUNIT
 70
     0
  9
$DIMADEC
 70
     0
  9
$DIMALTRND
 40
0.0
  9
$DIMAZIN
 70
     0
  9
$DIMDSEP
 70
    46
  9
$DIMATFIT
 70
     3
  9
$DIMFRAC
 70
     0
  9
$DIMLDRBLK
  1

  9
$DIMLUNIT
 70
     2
  9
$DIMLWD
 70
    -2
  9
$DIMLWE
 70
    -2
  9
$DIMTMOVE
 70
     0
  9
$LUNITS
 70
     2
  9
$LUPREC
 70
     4
  9
$SKETCHINC
 40
0.1
  9
$FILLETRAD
 40
0.5
  9
$AUNITS
 70
     0
  9
$AUPREC
 70
     0
  9
$MENU
  1
.
  9
$ELEVATION
 40
0.0
  9
$PELEVATION
 40
0.0
  9
$THICKNESS
 40
0.0
  9
$LIMCHECK
 70
     0
  9
$CHAMFERA
 40
0.5
  9
$CHAMFERB
 40
0.5
  9
$CHAMFERC
 40
1.0
  9
$CHAMFERD
 40
0.0
  9
$SKPOLY
 70
     0
  9
$TDCREATE
 40
2456749.747527107
  9
$TDUCREATE
 40
2456749.664193773
  9
$TDUPDATE
 40
2456749.747527118
  9
$TDUUPDATE
 40
2456749.664193785
  9
$TDINDWG
 40
0.0000000116
  9
$TDUSRTIMER
 40
0.0000000116
  9
$USRTIMER
 70
     1
  9
$ANGBASE
 50
0.0
  9
$ANGDIR
 70
     0
  9
$PDMODE
 70
     0
  9
$PDSIZE
 40
0.0
  9
$PLINEWID
 40
0.0
  9
$SPLFRAME
 70
     0
  9
$SPLINETYPE
 70
     6
  9
$SPLINESEGS
 70
     8
  9
$HANDSEED
  5
18C
  9
$SURFTAB1
 70
     6
  9
$SURFTAB2
 70
     6
  9
$SURFTYPE
 70
     6
  9
$SURFU
 70
     6
  9
$SURFV
 70
     6
  9
$UCSBASE
  2

  9
$UCSNAME
  2

  9
$UCSORG
 10
0.0
 20
0.0
 30
0.0
  9
$UCSXDIR
 10
1.0
 20
0.0
 30
0.0
  9
$UCSYDIR
 10
0.0
 20
1.0
 30
0.0
  9
$UCSORTHOREF
  2

  9
$UCSORTHOVIEW
 70
     0
  9
$UCSORGTOP
 10
0.0
 20
0.0
 30
0.0
  9
$UCSORGBOTTOM
 10
0.0
 20
0.0
 30
0.0
  9
$UCSORGLEFT
 10
0.0
 20
0.0
 30
0.0
  9
$UCSORGRIGHT
 10
0.0
 20
0.0
 30
0.0
  9
$UCSORGFRONT
 10
0.0
 20
0.0
 30
0.0
  9
$UCSORGBACK
 10
0.0
 20
0.0
 30
0.0
  9
$PUCSBASE
  2

  9
$PUCSNAME
  2

  9
$PUCSORG
 10
0.0
 20
0.0
 30
0.0
  9
$PUCSXDIR
 10
1.0
 20
0.0
 30
0.0
  9
$PUCSYDIR
 10
0.0
 20
1.0
 30
0.0
  9
$PUCSORTHOREF
  2

  9
$PUCSORTHOVIEW
 70
     0
  9
$PUCSORGTOP
 10
0.0
 20
0.0
 30
0.0
  9
$PUCSORGBOTTOM
 10
0.0
 20
0.0
 30
0.0
  9
$PUCSORGLEFT
 10
0.0
 20
0.0
 30
0.0
  9
$PUCSORGRIGHT
 10
0.0
 20
0.0
 30
0.0
  9
$PUCSORGFRONT
 10
0.0
 20
0.0
 30
0.0
  9
$PUCSORGBACK
 10
0.0
 20
0.0
 30
0.0
  9
$USERI1
 70
     0
  9
$USERI2
 70
     0
  9
$USERI3
 70
     0
  9
$USERI4
 70
     0
  9
$USERI5
 70
     0
  9
$USERR1
 40
16.5
  9
$USERR2
 40
0.0
  9
$USERR3
 40
0.0
  9
$USERR4
 40
0.0
  9
$USERR5
 40
0.0
  9
$WORLDVIEW
 70
     1
  9
$SHADEDGE
 70
     3
  9
$SHADEDIF
 70
    70
  9
$TILEMODE
 70
     1
  9
$MAXACTVP
 70
    64
  9
$PINSBASE
 10
0.0
 20
0.0
 30
0.0
  9
$PLIMCHECK
 70
     0
  9
$PEXTMIN
 10
1.00000000000000E+20
 20
1.00000000000000E+20
 30
1.00000000000000E+20
  9
$PEXTMAX
 10
-1.00000000000000E+20
 20
-1.00000000000000E+20
 30
-1.00000000000000E+20
  9
$PLIMMIN
 10
0.0
 20
0.0
  9
$PLIMMAX
 10
12.0
 20
9.0
  9
$UNITMODE
 70
     0
  9
$VISRETAIN
 70
     1
  9
$PLINEGEN
 70
     0
  9
$PSLTSCALE
 70
     1
  9
$TREEDEPTH
 70
  3020
  9
$CMLSTYLE
  2
Standard
  9
$CMLJUST
 70
     0
  9
$CMLSCALE
 40
1.0
  9
$PROXYGRAPHICS
 70
     1
  9
$MEASUREMENT
 70
     1
  9
$CELWEIGHT
370
    -1
  9
$ENDCAPS
280
     0
  9
$JOINSTYLE
280
     0
  9
$LWDISPLAY
290
     0
  9
$INSUNITS
 70
     1
  9
$HYPERLINKBASE
  1

  9
$STYLESHEET
  1

  9
$XEDIT
290
     1
  9
$CEPSNTYPE
380
     0
  9
$PSTYLEMODE
290
     1
  9
$FINGERPRINTGUID
  2
{D0C5AA8D-EDDE-45D3-A23C-51A8A98D650E}
  9
$VERSIONGUID
  2
{FAEB1C32-E019-11D5-929B-00C0DF256EC4}
  9
$EXTNAMES
290
     1
  9
$PSVPSCALE
 40
0.0
  9
$OLESTARTUP
290
     0
  0
ENDSEC
  0
SECTION
  2
CLASSES
  0
CLASS
  1
ACDBDICTIONARYWDFLT
  2
AcDbDictionaryWithDefault
  3
ObjectDBX Classes
 90
        0
280
     0
281
     0
  0
CLASS
  1
VISUALSTYLE
  2
AcDbVisualStyle
  3
ObjectDBX Classes
 90
     4095
280
     0
281
     0
  0
CLASS
  1
SCALE
  2
AcDbScale
  3
ObjectDBX Classes
 90
     1153
280
     0
281
     0
  0
CLASS
  1

  2
exOdDbPolyline
  3

 90
        0
280
     0
281
     1
  0
CLASS
  1

  2
exOdDbCircle
  3

 90
        0
280
     0
281
     1
  0
CLASS
  1

  2
exOdDbSpline
  3

 90
        0
280
     0
281
     1
  0
CLASS
  1
DICTIONARYVAR
  2
AcDbDictionaryVar
  3
ObjectDBX Classes
 90
        0
280
     0
281
     0
  0
CLASS
  1
ACDBPLACEHOLDER
  2
AcDbPlaceHolder
  3
ObjectDBX Classes
 90
        0
280
     0
281
     0
  0
CLASS
  1
LAYOUT
  2
AcDbLayout
  3
ObjectDBX Classes
 90
        0
280
     0
281
     0
  0
ENDSEC
  0
SECTION
  2
TABLES
  0
TABLE
  2
VPORT
  5
8
330
0
100
AcDbSymbolTable
 70
     1
  0
VPORT
  5
29
330
8
100
AcDbSymbolTableRecord
100
AcDbViewportTableRecord
  2
*Active
 70
     0
 10
0.0
 20
0.0
 11
1.0
 21
1.0
 12
147.4297600499472
 22
347.9141757726259
 13
0.0
 23
0.0
 14
0.5
 24
0.5
 15
0.5
 25
0.5
 16
0.0
 26
0.0
 36
1.0
 17
0.0
 27
0.0
 37
0.0
 40
119.6463256090369
 41
1.60267857142857
 42
50.0
 43
0.0
 44
0.0
 50
0.0
 51
0.0
 71
     0
 72
   100
 73
     1
 74
     3
 75
     0
 76
     0
 77
     0
 78
     0
281
     0
 65
     1
110
0.0
120
0.0
130
0.0
111
1.0
121
0.0
131
0.0
112
0.0
122
1.0
132
0.0
 79
     0
146
0.0
  0
ENDTAB
  0
TABLE
  2
LTYPE
  5
5
330
0
100
AcDbSymbolTable
 70
     8
  0
LTYPE
  5
14
330
5
100
AcDbSymbolTableRecord
100
AcDbLinetypeTableRecord
  2
ByBlock
 70
     0
  3

 72
    65
 73
     0
 40
0.0
  0
LTYPE
  5
15
330
5
100
AcDbSymbolTableRecord
100
AcDbLinetypeTableRecord
  2
ByLayer
 70
     0
  3

 72
    65
 73
     0
 40
0.0
  0
LTYPE
  5
16
330
5
100
AcDbSymbolTableRecord
100
AcDbLinetypeTableRecord
  2
Continuous
 70
     0
  3
Solid line
 72
    65
 73
     0
 40
0.0
  0
LTYPE
  5
3B
330
5
100
AcDbSymbolTableRecord
100
AcDbLinetypeTableRecord
  2
DASHED
 70
     0
  3
Dashed
 72
    65
 73
     2
 40
15.0
 49
7.0
 74
     0
 49
-8.0
 74
     0
  0
LTYPE
  5
3C
330
5
100
AcDbSymbolTableRecord
100
AcDbLinetypeTableRecord
  2
DOTTED
 70
     0
  3
Dotted
 72
    65
 73
     2
 40
1.0
 49
0.0
 74
     0
 49
-1.0
 74
     0
  0
LTYPE
  5
3D
330
5
100
AcDbSymbolTableRecord
100
AcDbLinetypeTableRecord
  2
DOT_CENTER
 70
     0
  3
Dot_Center
 72
    65
 73
     4
 40
14.0
 49
12.0
 74
     0
 49
-1.0
 74
     0
 49
0.0
 74
     0
 49
-1.0
 74
     0
  0
LTYPE
  5
3E
330
5
100
AcDbSymbolTableRecord
100
AcDbLinetypeTableRecord
  2
LONG_DASHED
 70
     0
  3
Long_Dashed
 72
    65
 73
     2
 40
15.0
 49
10.0
 74
     0
 49
-5.0
 74
     0
  0
LTYPE
  5
3F
330
5
100
AcDbSymbolTableRecord
100
AcDbLinetypeTableRecord
  2
DASH_CENTER
 70
     0
  3
Dash_Center
 72
    65
 73
     4
 40
14.0
 49
11.0
 74
     0
 49
-1.0
 74
     0
 49
1.0
 74
     0
 49
-1.0
 74
     0
  0
LTYPE
  5
40
330
5
100
AcDbSymbolTableRecord
100
AcDbLinetypeTableRecord
  2
PHANTOM
 70
     0
  3
Phantom
 72
    65
 73
     6
 40
13.0
 49
10.0
 74
     0
 49
-1.0
 74
     0
 49
0.0
 74
     0
 49
-1.0
 74
     0
 49
0.0
 74
     0
 49
-1.0
 74
     0
  0
LTYPE
  5
41
330
5
100
AcDbSymbolTableRecord
100
AcDbLinetypeTableRecord
  2
CENTER_DASH_DASH
 70
     0
  3
Center_Dash_Dash
 72
    65
 73
     6
 40
14.0
 49
9.0
 74
     0
 49
-1.0
 74
     0
 49
1.0
 74
     0
 49
-1.0
 74
     0
 49
1.0
 74
     0
 49
-1.0
 74
     0
  0
ENDTAB
  0
TABLE
  2
LAYER
  5
2
330
0
100
AcDbSymbolTable
 70
     9
  0
LAYER
  5
10
330
2
100
AcDbSymbolTableRecord
100
AcDbLayerTableRecord
  2
0
 70
     0
 62
     7
  6
Continuous
370
    -3
390
F
  0
LAYER
  5
42
330
2
100
AcDbSymbolTableRecord
100
AcDbLayerTableRecord
  2
1
 70
     0
 62
     7
  6
Continuous
370
    -3
390
F
  0
LAYER
  5
43
330
2
100
AcDbSymbolTableRecord
100
AcDbLayerTableRecord
  2
AUSFORMSCHRAEGEN
 70
     0
 62
     7
  6
Continuous
370
    -3
390
F
  0
LAYER
  5
44
330
2
100
AcDbSymbolTableRecord
100
AcDbLayerTableRecord
  2
BEZUGSACHSEN
 70
     0
 62
     7
  6
Continuous
370
    -3
390
F
  0
LAYER
  5
45
330
2
100
AcDbSymbolTableRecord
100
AcDbLayerTableRecord
  2
BG_STARTBEZUEGE
 70
     0
 62
     7
  6
Continuous
370
    -3
390
F
  0
LAYER
  5
46
330
2
100
AcDbSymbolTableRecord
100
AcDbLayerTableRecord
  2
DEFAULT_2
 70
     0
 62
     7
  6
Continuous
370
    -3
390
F
  0
LAYER
  5
47
330
2
100
AcDbSymbolTableRecord
100
AcDbLayerTableRecord
  2
FASEN
 70
     0
 62
     7
  6
Continuous
370
    -3
390
F
  0
LAYER
  5
48
330
2
100
AcDbSymbolTableRecord
100
AcDbLayerTableRecord
  2
FLAECHEN
 70
     0
 62
     7
  6
Continuous
370
    -3
390
F
  0
LAYER
  5
49
330
2
100
AcDbSymbolTableRecord
100
AcDbLayerTableRecord
  2
RUNDUNGEN
 70
     0
 62
     7
  6
Continuous
370
    -3
390
F
  0
ENDTAB
  0
TABLE
  2
STYLE
  5
3
330
0
100
AcDbSymbolTable
 70
     2
  0
STYLE
  5
11
330
3
100
AcDbSymbolTableRecord
100
AcDbTextStyleTableRecord
  2
Standard
 70
     0
 40
0.0
 41
1.0
 50
0.0
 71
     0
 42
0.2
  3
txt
  4

  0
STYLE
  5
70
330
3
100
AcDbSymbolTableRecord
100
AcDbTextStyleTableRecord
  2
CONVERTER_11
 70
     0
 40
0.0
 41
0.72
 50
0.0
 71
     0
 42
0.2
  3
txt.shx
  4

  0
ENDTAB
  0
TABLE
  2
VIEW
  5
6
330
0
100
AcDbSymbolTable
 70
     0
  0
ENDTAB
  0
TABLE
  2
UCS
  5
7
330
0
100
AcDbSymbolTable
 70
     0
  0
ENDTAB
  0
TABLE
  2
APPID
  5
9
330
0
100
AcDbSymbolTable
 70
     1
  0
APPID
  5
12
330
9
100
AcDbSymbolTableRecord
100
AcDbRegAppTableRecord
  2
ACAD
 70
     0
  0
ENDTAB
  0
TABLE
  2
DIMSTYLE
  5
A
330
0
100
AcDbSymbolTable
 70
     7
100
AcDbDimStyleTable
  0
DIMSTYLE
105
27
330
A
100
AcDbSymbolTableRecord
100
AcDbDimStyleTableRecord
  2
Standard
 70
     0
340
11
  0
DIMSTYLE
105
148
102
{ACAD_REACTORS
330
149
102
}
330
A
100
AcDbSymbolTableRecord
100
AcDbDimStyleTableRecord
  2
ME10_DIM_10
 70
     0
  3
\U+2300<>
 41
3.5
 42
2.0
 44
2.0
 71
     1
 73
     0
 74
     0
 77
     1
 78
     8
140
3.5
146
0.7
147
2.0
172
     1
173
     1
176
     2
177
     2
178
     3
271
     2
272
     0
340
70
  0
DIMSTYLE
105
153
102
{ACAD_REACTORS
330
154
102
}
330
A
100
AcDbSymbolTableRecord
100
AcDbDimStyleTableRecord
  2
ME10_DIM_11
 70
     0
  3
\U+2300<>
 41
3.5
 42
2.0
 44
2.0
 71
     1
 73
     0
 74
     0
 77
     1
 78
     8
140
3.5
146
0.7
147
2.0
172
     1
173
     1
176
     2
177
     2
178
     3
271
     2
272
     0
340
70
  0
DIMSTYLE
105
15E
102
{ACAD_REACTORS
330
15F
102
}
330
A
100
AcDbSymbolTableRecord
100
AcDbDimStyleTableRecord
  2
ME10_DIM_12
 70
     0
  3
<>
 41
3.5
 42
2.0
 44
2.0
 71
     1
 73
     0
 74
     0
 77
     1
 78
     8
140
3.5
146
0.7
147
2.0
172
     1
173
     1
176
     2
177
     2
178
     3
271
     0
272
     0
340
70
  0
DIMSTYLE
105
169
102
{ACAD_REACTORS
330
16A
102
}
330
A
100
AcDbSymbolTableRecord
100
AcDbDimStyleTableRecord
  2
ME10_DIM_13
 70
     0
  3
<>
 41
3.5
 42
2.0
 44
2.0
 71
     1
 73
     0
 74
     0
 77
     1
 78
     8
140
3.5
146
0.7
147
2.0
172
     1
173
     1
176
     2
177
     2
178
     3
271
     2
272
     0
340
70
  0
DIMSTYLE
105
174
102
{ACAD_REACTORS
330
175
102
}
330
A
100
AcDbSymbolTableRecord
100
AcDbDimStyleTableRecord
  2
ME10_DIM_14
 70
     0
  3
<>
 41
3.5
 42
2.0
 44
2.0
 71
     1
 73
     0
 74
     0
 77
     1
 78
     8
140
3.5
146
0.7
147
2.0
172
     1
173
     1
176
     2
177
     2
178
     3
271
     2
272
     0
340
70
  0
DIMSTYLE
105
17F
102
{ACAD_REACTORS
330
180
102
}
330
A
100
AcDbSymbolTableRecord
100
AcDbDimStyleTableRecord
  2
ME10_DIM_15
 70
     0
  3
<>
 41
3.5
 42
2.0
 44
2.0
 71
     1
 73
     0
 74
     0
 77
     1
 78
     8
140
3.5
146
0.7
147
2.0
172
     1
173
     1
176
     2
177
     2
178
     3
271
     0
272
     0
340
70
  0
ENDTAB
  0
TABLE
  2
BLOCK_RECORD
  5
1
330
0
100
AcDbSymbolTable
 70
     9
  0
BLOCK_RECORD
  5
1F
330
1
100
AcDbSymbolTableRecord
100
AcDbBlockTableRecord
  2
*Model_Space
340
22
  0
BLOCK_RECORD
  5
1B
330
1
100
AcDbSymbolTableRecord
100
AcDbBlockTableRecord
  2
*Paper_Space
340
1E
  0
BLOCK_RECORD
  5
23
330
1
100
AcDbSymbolTableRecord
100
AcDbBlockTableRecord
  2
*Paper_Space0
340
26
  0
BLOCK_RECORD
  5
4A
330
1
100
AcDbSymbolTableRecord
100
AcDbBlockTableRecord
  2
Urheberrecht_DE-EN
340
0
102
{BLKREFS
331
6F
102
}
  0
BLOCK_RECORD
  5
13F
330
1
100
AcDbSymbolTableRecord
100
AcDbBlockTableRecord
  2
*D2
340
0
  0
BLOCK_RECORD
  5
14A
330
1
100
AcDbSymbolTableRecord
100
AcDbBlockTableRecord
  2
*D3
340
0
  0
BLOCK_RECORD
  5
155
330
1
100
AcDbSymbolTableRecord
100
AcDbBlockTableRecord
  2
*D4
340
0
  0
BLOCK_RECORD
  5
160
330
1
100
AcDbSymbolTableRecord
100
AcDbBlockTableRecord
  2
*D5
340
0
  0
BLOCK_RECORD
  5
16B
330
1
100
AcDbSymbolTableRecord
100
AcDbBlockTableRecord
  2
*D6
340
0
  0
BLOCK_RECORD
  5
176
330
1
100
AcDbSymbolTableRecord
100
AcDbBlockTableRecord
  2
*D7
340
0
  0
BLOCK_RECORD
  5
181
330
1
100
AcDbSymbolTableRecord
100
AcDbBlockTableRecord
  2
*D8
340
0
102
{BLKREFS
331
187
102
}
  0
ENDTAB
  0
ENDSEC
  0
SECTION
  2
BLOCKS
  0
BLOCK
  5
20
330
1F
100
AcDbEntity
  8
0
100
AcDbBlockBegin
  2
*Model_Space
 70
     0
 10
0.0
 20
0.0
 30
0.0
  3
*Model_Space
  1

  0
ENDBLK
  5
21
330
1F
100
AcDbEntity
  8
0
100
AcDbBlockEnd
  0
BLOCK
  5
1C
330
1B
100
AcDbEntity
 67
     1
  8
0
100
AcDbBlockBegin
  2
*Paper_Space
 70
     0
 10
0.0
 20
0.0
 30
0.0
  3
*Paper_Space
  1

  0
ENDBLK
  5
1D
330
1B
100
AcDbEntity
 67
     1
  8
0
100
AcDbBlockEnd
  0
BLOCK
  5
24
330
23
100
AcDbEntity
  8
0
100
AcDbBlockBegin
  2
*Paper_Space0
 70
     0
 10
0.0
 20
0.0
 30
0.0
  3
*Paper_Space0
  1

  0
ENDBLK
  5
25
330
23
100
AcDbEntity
  8
0
100
AcDbBlockEnd
  0
BLOCK
  5
4B
330
4A
100
AcDbEntity
  8
0
100
AcDbBlockBegin
  2
Urheberrecht_DE-EN
 70
     0
 10
77.1028280414703
 20
349.818869231279
 30
0.0
  3
Urheberrecht_DE-EN
  1

  0
MTEXT
  5
71
330
4A
100
AcDbEntity
  8
1
 62
     1
100
AcDbMText
 10
77.1028280414703
 20
349.818869231279
 30
0.0
 40
2.0
 41
0.0
 71
     7
 72
     1
  1
We own the copyright of this document. It \Pdetermined and may neither be copied or \Pmade accessible to outsiders without our\Ppermission.
  7
CONVERTER_11
 11
0.0
 21
1.0
 31
0.0
 73
     1
 44
0.90036014405762
  0
MTEXT
  5
72
330
4A
100
AcDbEntity
  8
1
 62
     1
100
AcDbMText
 10
77.1028280414703
 20
293.5294823139728
 30
0.0
 40
2.0
 41
0.0
 71
     7
 72
     1
  1
F\U+00fcr diese Unterlage behalten wir das Ur-\Pheberrecht. Sie darf nur f\U+00fcr den von uns \Pbestimmten Zweck benutzt und ohne unsere \PZustimmung weder vervielf\U+00e4ltigt noch\PDritten zug\U+00e4nglich gemacht werden.
  7
CONVERTER_11
 11
0.0
 21
1.0
 31
0.0
 73
     1
 44
0.90036014405762
  0
ENDBLK
  5
4C
330
4A
100
AcDbEntity
  8
0
100
AcDbBlockEnd
  0
BLOCK
  5
146
330
13F
100
AcDbEntity
  8
0
100
AcDbBlockBegin
  2
*D2
 70
     1
 10
0.0
 20
0.0
 30
0.0
  3
*D2
  1

  0
LINE
  5
140
330
13F
100
AcDbEntity
  8
1
  6
Continuous
 62
     2
100
AcDbLine
 10
221.673943767541
 20
341.6842243976
 30
0.0
 11
221.673943767541
 21
316.6842243976
 31
0.0
  0
LINE
  5
141
330
13F
100
AcDbEntity
  8
1
  6
Continuous
 62
     2
100
AcDbLine
 10
199.8521084337
 20
341.6842243976
 30
0.0
 11
223.673943767541
 21
341.6842243976
 31
0.0
  0
LINE
  5
142
330
13F
100
AcDbEntity
  8
1
  6
Continuous
 62
     2
100
AcDbLine
 10
199.8521084337
 20
316.6842243976
 30
0.0
 11
223.673943767541
 21
316.6842243976
 31
0.0
  0
SOLID
  5
143
330
13F
100
AcDbEntity
  8
1
 62
     2
100
AcDbTrace
 10
222.1347275090969
 20
338.1842243976
 30
0.0
 11
221.2131600259851
 21
338.1842243976
 31
0.0
 12
221.673943767541
 22
341.6842243976
 32
0.0
 13
221.673943767541
 23
341.6842243976
 33
0.0
  0
SOLID
  5
144
330
13F
100
AcDbEntity
  8
1
 62
     2
100
AcDbTrace
 10
221.2131600259851
 20
320.1842243976
 30
0.0
 11
222.1347275090969
 21
320.1842243976
 31
0.0
 12
221.673943767541
 22
316.6842243976
 32
0.0
 13
221.673943767541
 23
316.6842243976
 33
0.0
  0
MTEXT
  5
145
330
13F
100
AcDbEntity
  8
1
 62
     3
100
AcDbMText
 10
219.673943767541
 20
320.59492410153
 30
0.0
 40
3.5
 41
0.0
 71
     7
 72
     1
  1
\C3;%%c\C3;\C3;25\C2;\H2.45;\S^ ;\C3;
  7
CONVERTER_11
 11
0.0
 21
1.0
 31
0.0
 73
     1
 44
0.60024009603842
  0
ENDBLK
  5
147
330
13F
100
AcDbEntity
  8
0
100
AcDbBlockEnd
  0
BLOCK
  5
151
330
14A
100
AcDbEntity
  8
0
100
AcDbBlockBegin
  2
*D3
 70
     1
 10
0.0
 20
0.0
 30
0.0
  3
*D3
  1

  0
LINE
  5
14B
330
14A
100
AcDbEntity
  8
1
  6
Continuous
 62
     2
100
AcDbLine
 10
229.756692058424
 20
350.1842243976
 30
0.0
 11
229.756692058424
 21
308.1842243976
 31
0.0
  0
LINE
  5
14C
330
14A
100
AcDbEntity
  8
1
  6
Continuous
 62
     2
100
AcDbLine
 10
210.1777926531
 20
350.1842243976
 30
0.0
 11
231.756692058424
 21
350.1842243976
 31
0.0
  0
LINE
  5
14D
330
14A
100
AcDbEntity
  8
1
  6
Continuous
 62
     2
100
AcDbLine
 10
210.1777926531
 20
308.1842243976
 30
0.0
 11
231.756692058424
 21
308.1842243976
 31
0.0
  0
SOLID
  5
14E
330
14A
100
AcDbEntity
  8
1
 62
     2
100
AcDbTrace
 10
230.2174757999799
 20
346.6842243976
 30
0.0
 11
229.2959083168681
 21
346.6842243976
 31
0.0
 12
229.756692058424
 22
350.1842243976
 32
0.0
 13
229.756692058424
 23
350.1842243976
 33
0.0
  0
SOLID
  5
14F
330
14A
100
AcDbEntity
  8
1
 62
     2
100
AcDbTrace
 10
229.2959083168681
 20
311.6842243976
 30
0.0
 11
230.2174757999799
 21
311.6842243976
 31
0.0
 12
229.756692058424
 22
308.1842243976
 32
0.0
 13
229.756692058424
 23
308.1842243976
 33
0.0
  0
MTEXT
  5
150
330
14A
100
AcDbEntity
  8
1
 62
     3
100
AcDbMText
 10
227.756692058424
 20
321.043965673245
 30
0.0
 40
3.5
 41
0.0
 71
     7
 72
     1
  1
\C3;%%c\C3;\C3;42\C2;\H2.45;\S^ ;\C3;
  7
CONVERTER_11
 11
0.0
 21
1.0
 31
0.0
 73
     1
 44
0.60024009603842
  0
ENDBLK
  5
152
330
14A
100
AcDbEntity
  8
0
100
AcDbBlockEnd
  0
BLOCK
  5
15C
330
155
100
AcDbEntity
  8
0
100
AcDbBlockBegin
  2
*D4
 70
     1
 10
0.0
 20
0.0
 30
0.0
  3
*D4
  1

  0
LINE
  5
156
330
155
100
AcDbEntity
  8
1
  6
Continuous
 62
     2
100
AcDbLine
 10
197.8521084337
 20
362.923594600157
 30
0.0
 11
135.8021084337
 21
362.923594600157
 31
0.0
  0
LINE
  5
157
330
155
100
AcDbEntity
  8
1
  6
Continuous
 62
     2
100
AcDbLine
 10
197.8521084337
 20
347.1842243976
 30
0.0
 11
197.8521084337
 21
364.923594600157
 31
0.0
  0
LINE
  5
158
330
155
100
AcDbEntity
  8
1
  6
Continuous
 62
     2
100
AcDbLine
 10
135.8021084337
 20
356.1841743791
 30
0.0
 11
135.8021084337
 21
364.923594600157
 31
0.0
  0
SOLID
  5
159
330
155
100
AcDbEntity
  8
1
 62
     2
100
AcDbTrace
 10
194.3521084337
 20
362.4628108586011
 30
0.0
 11
194.3521084337
 21
363.3843783417129
 31
0.0
 12
197.8521084337
 22
362.923594600157
 32
0.0
 13
197.8521084337
 23
362.923594600157
 33
0.0
  0
SOLID
  5
15A
330
155
100
AcDbEntity
  8
1
 62
     2
100
AcDbTrace
 10
139.3021084337
 20
363.3843783417129
 30
0.0
 11
139.3021084337
 21
362.4628108586011
 31
0.0
 12
135.8021084337
 22
362.923594600157
 32
0.0
 13
135.8021084337
 23
362.923594600157
 33
0.0
  0
MTEXT
  5
15B
330
155
100
AcDbEntity
  8
1
 62
     3
100
AcDbMText
 10
165.132736917236
 20
364.923594600157
 30
0.0
 40
3.5
 41
0.0
 71
     7
 72
     1
  1
\C3;\C3;\C3;62\C2;\H2.45;\S^ ;\C3;
  7
CONVERTER_11
 11
0.9999999999970619
 21
2.424068405545306E-6
 31
0.0
 73
     1
 44
0.60024009603842
  0
ENDBLK
  5
15D
330
155
100
AcDbEntity
  8
0
100
AcDbBlockEnd
  0
BLOCK
  5
167
330
160
100
AcDbEntity
  8
0
100
AcDbBlockBegin
  2
*D5
 70
     1
 10
0.0
 20
0.0
 30
0.0
  3
*D5
  1

  0
LINE
  5
161
330
160
100
AcDbEntity
  8
1
  6
Continuous
 62
     2
100
AcDbLine
 10
197.8521084337
 20
370.985001612466
 30
0.0
 11
109.8521084337
 21
370.985001612466
 31
0.0
  0
LINE
  5
162
330
160
100
AcDbEntity
  8
1
  6
Continuous
 62
     2
100
AcDbLine
 10
197.8521084337
 20
347.1842243976
 30
0.0
 11
197.8521084337
 21
372.985001612466
 31
0.0
  0
LINE
  5
163
330
160
100
AcDbEntity
  8
1
  6
Continuous
 62
     2
100
AcDbLine
 10
109.8521084337
 20
356.1842243976
 30
0.0
 11
109.8521084337
 21
372.985001612466
 31
0.0
  0
SOLID
  5
164
330
160
100
AcDbEntity
  8
1
 62
     2
100
AcDbTrace
 10
194.3521084337
 20
370.5242178709101
 30
0.0
 11
194.3521084337
 21
371.4457853540219
 31
0.0
 12
197.8521084337
 22
370.985001612466
 32
0.0
 13
197.8521084337
 23
370.985001612466
 33
0.0
  0
SOLID
  5
165
330
160
100
AcDbEntity
  8
1
 62
     2
100
AcDbTrace
 10
113.3521084337
 20
371.4457853540219
 30
0.0
 11
113.3521084337
 21
370.5242178709101
 31
0.0
 12
109.8521084337
 22
370.985001612466
 32
0.0
 13
109.8521084337
 23
370.985001612466
 33
0.0
  0
MTEXT
  5
166
330
160
100
AcDbEntity
  8
1
 62
     3
100
AcDbMText
 10
152.778892404867
 20
372.985001612466
 30
0.0
 40
3.5
 41
0.0
 71
     7
 72
     1
  1
\C3;\C3;\C3;88\C2;\H2.45;\S^ ;\C3;
  7
CONVERTER_11
 11
0.9999999999970619
 21
2.424068405545306E-6
 31
0.0
 73
     1
 44
0.60024009603842
  0
ENDBLK
  5
168
330
160
100
AcDbEntity
  8
0
100
AcDbBlockEnd
  0
BLOCK
  5
172
330
16B
100
AcDbEntity
  8
0
100
AcDbBlockBegin
  2
*D6
 70
     1
 10
0.0
 20
0.0
 30
0.0
  3
*D6
  1

  0
LINE
  5
16C
330
16B
100
AcDbEntity
  8
1
  6
Continuous
 62
     2
100
AcDbLine
 10
109.8521084337
 20
379.674570210149
 30
0.0
 11
209.8521084337
 21
379.674570210149
 31
0.0
  0
LINE
  5
16D
330
16B
100
AcDbEntity
  8
1
  6
Continuous
 62
     2
100
AcDbLine
 10
109.8521084337
 20
356.1842243976
 30
0.0
 11
109.8521084337
 21
381.674570210149
 31
0.0
  0
LINE
  5
16E
330
16B
100
AcDbEntity
  8
1
  6
Continuous
 62
     2
100
AcDbLine
 10
209.8521084337
 20
349.2840194188
 30
0.0
 11
209.8521084337
 21
381.674570210149
 31
0.0
  0
SOLID
  5
16F
330
16B
100
AcDbEntity
  8
1
 62
     2
100
AcDbTrace
 10
113.3521084337
 20
380.1353539517049
 30
0.0
 11
113.3521084337
 21
379.2137864685931
 31
0.0
 12
109.8521084337
 22
379.674570210149
 32
0.0
 13
109.8521084337
 23
379.674570210149
 33
0.0
  0
SOLID
  5
170
330
16B
100
AcDbEntity
  8
1
 62
     2
100
AcDbTrace
 10
206.3521084337
 20
379.2137864685931
 30
0.0
 11
206.3521084337
 21
380.1353539517049
 31
0.0
 12
209.8521084337
 22
379.674570210149
 32
0.0
 13
209.8521084337
 23
379.674570210149
 33
0.0
  0
MTEXT
  5
171
330
16B
100
AcDbEntity
  8
1
 62
     3
100
AcDbMText
 10
155.91724911224
 20
381.674570210149
 30
0.0
 40
3.5
 41
0.0
 71
     7
 72
     1
  1
\C3;\C3;\C3;100\C2;\H2.45;\S^ ;\C3;
  7
CONVERTER_11
 11
0.9999999999970619
 21
2.424068405545306E-6
 31
0.0
 73
     1
 44
0.60024009603842
  0
ENDBLK
  5
173
330
16B
100
AcDbEntity
  8
0
100
AcDbBlockEnd
  0
BLOCK
  5
17D
330
176
100
AcDbEntity
  8
0
100
AcDbBlockBegin
  2
*D7
 70
     1
 10
0.0
 20
0.0
 30
0.0
  3
*D7
  1

  0
LINE
  5
177
330
176
100
AcDbEntity
  8
1
  6
Continuous
 62
     2
100
AcDbLine
 10
197.8521084337
 20
387.84067082002
 30
0.0
 11
84.9521084337
 21
387.84067082002
 31
0.0
  0
LINE
  5
178
330
176
100
AcDbEntity
  8
1
  6
Continuous
 62
     2
100
AcDbLine
 10
197.8521084337
 20
347.1842243976
 30
0.0
 11
197.8521084337
 21
389.84067082002
 31
0.0
  0
LINE
  5
179
330
176
100
AcDbEntity
  8
1
  6
Continuous
 62
     2
100
AcDbLine
 10
84.9521084337
 20
348.2405801788
 30
0.0
 11
84.9521084337
 21
389.84067082002
 31
0.0
  0
SOLID
  5
17A
330
176
100
AcDbEntity
  8
1
 62
     2
100
AcDbTrace
 10
194.3521084337
 20
387.3798870784642
 30
0.0
 11
194.3521084337
 21
388.3014545615759
 31
0.0
 12
197.8521084337
 22
387.84067082002
 32
0.0
 13
197.8521084337
 23
387.84067082002
 33
0.0
  0
SOLID
  5
17B
330
176
100
AcDbEntity
  8
1
 62
     2
100
AcDbTrace
 10
88.4521084337
 20
388.3014545615759
 30
0.0
 11
88.4521084337
 21
387.3798870784642
 31
0.0
 12
84.9521084337
 22
387.84067082002
 32
0.0
 13
84.9521084337
 23
387.84067082002
 33
0.0
  0
MTEXT
  5
17C
330
176
100
AcDbEntity
  8
1
 62
     3
100
AcDbMText
 10
145.135034173058
 20
389.84067082002
 30
0.0
 40
3.5
 41
0.0
 71
     7
 72
     1
  1
\C3;\C3;\C3;113\C2;\H2.45;\S^ ;\C3;
  7
CONVERTER_11
 11
0.9999999999970619
 21
2.424068405545306E-6
 31
0.0
 73
     1
 44
0.60024009603842
  0
ENDBLK
  5
17E
330
176
100
AcDbEntity
  8
0
100
AcDbBlockEnd
  0
BLOCK
  5
185
330
181
100
AcDbEntity
  8
0
100
AcDbBlockBegin
  2
*D8
 70
     1
 10
0.0
 20
0.0
 30
0.0
  3
*D8
  1

  0
LINE
  5
182
330
181
100
AcDbEntity
  8
1
  6
Continuous
 62
     2
100
AcDbLine
 10
146.6707400707371
 20
354.50136372268
 30
0.0
 11
136.7744983952439
 21
347.221395111575
 31
0.0
  0
SOLID
  5
183
330
181
100
AcDbEntity
  8
1
 62
     2
100
AcDbTrace
 10
139.320780709362
 20
349.6665470564021
 30
0.0
 11
139.8668701349644
 21
348.9242041671829
 31
0.0
 12
136.7744983952439
 22
347.221395111575
 32
0.0
 13
136.7744983952439
 23
347.221395111575
 33
0.0
  0
MTEXT
  5
184
330
181
100
AcDbEntity
  8
1
 62
     3
100
AcDbMText
 10
139.5086350592582
 20
351.7155690776014
 30
0.0
 40
3.5
 41
0.0
 71
     7
 72
     1
  1
\C3; R\C3;\C3;5\C2;\H2.45;\S^ ;\C3;
  7
CONVERTER_11
 11
0.8055220076912284
 21
0.592565857204997
 31
0.0
 73
     1
 44
0.60024009603842
  0
ENDBLK
  5
186
330
181
100
AcDbEntity
  8
0
100
AcDbBlockEnd
  0
ENDSEC
  0
SECTION
  2
ENTITIES
  0
INSERT
  5
6F
330
1F
100
AcDbEntity
  8
0
100
AcDbBlockReference
  2
Urheberrecht_DE-EN
 10
77.1028280414703
 20
349.818869231279
 30
0.0
  0
LINE
  5
73
330
1F
100
AcDbEntity
  8
0
  6
Continuous
 62
     7
100
AcDbLine
 10
84.9521084337
 20
312.1278686162
 30
0.0
 11
84.9521084337
 21
322.7642243976
 31
0.0
  0
LINE
  5
74
330
1F
100
AcDbEntity
  8
0
  6
Continuous
 62
     7
100
AcDbLine
 10
84.9521084337
 20
335.6042243976
 30
0.0
 11
84.9521084337
 21
346.2405801788
 31
0.0
  0
LINE
  5
75
330
1F
100
AcDbEntity
  8
0
  6
Continuous
 62
     9
100
AcDbLine
 10
85.9020711914
 20
347.2393275317
 30
0.0
 11
85.9020711914
 21
337.0327369436
 31
0.0
  0
LINE
  5
76
330
1F
100
AcDbEntity
  8
0
  6
Continuous
 62
     9
100
AcDbLine
 10
85.9020711914
 20
321.3357118516
 30
0.0
 11
85.9020711914
 21
311.1291212634
 31
0.0
  0
LINE
  5
77
330
1F
100
AcDbEntity
  8
0
  6
Continuous
 62
     7
100
AcDbLine
 10
86.1021084337
 20
322.8748646381
 30
0.0
 11
86.1021084337
 21
323.9142243976
 31
0.0
  0
LINE
  5
78
330
1F
100
AcDbEntity
  8
0
  6
Continuous
 62
     7
100
AcDbLine
 10
86.1021084337
 20
334.4542243976
 30
0.0
 11
86.1021084337
 21
335.4935841571
 31
0.0
  0
LINE
  5
79
330
1F
100
AcDbEntity
  8
RUNDUNGEN
  6
Continuous
 62
     9
100
AcDbLine
 10
88.1521084337
 20
321.0797536
 30
0.0
 11
88.1521084337
 21
323.9142243976
 31
0.0
  0
LINE
  5
7A
330
1F
100
AcDbEntity
  8
RUNDUNGEN
  6
Continuous
 62
     9
100
AcDbLine
 10
88.1521084337
 20
334.4542243976
 30
0.0
 11
88.1521084337
 21
337.2886951952
 31
0.0
  0
LINE
  5
7B
330
1F
100
AcDbEntity
  8
RUNDUNGEN
  6
Continuous
 62
     7
100
AcDbLine
 10
89.5521084337
 20
335.1153746444
 30
0.0
 11
89.5521084337
 21
323.2530741508
 31
0.0
  0
LINE
  5
7C
330
1F
100
AcDbEntity
  8
0
  6
Continuous
 62
     7
100
AcDbLine
 10
85.6885986436
 20
321.5342243976
 30
0.0
 11
85.6401791647
 21
321.4482666916
 31
0.0
  0
LINE
  5
7D
330
1F
100
AcDbEntity
  8
0
  6
Continuous
 62
     7
100
AcDbLine
 10
85.6401791647
 20
336.9201821036
 30
0.0
 11
85.6885986436
 21
336.8342243976
 31
0.0
  0
LWPOLYLINE
  5
7E
330
1F
100
AcDbEntity
  8
BEZUGSACHSEN
  6
DOT_CENTER
 62
     7
100
AcDbPolyline
 90
        2
 70
     0
 43
0.25
 10
102.3521084337
 20
323.1842243976
 10
102.3521084337
 20
335.1842243976
  0
LINE
  5
7F
330
1F
100
AcDbEntity
  8
0
  6
Continuous
 62
     7
100
AcDbLine
 10
84.9521084337
 20
322.7642243976
 30
0.0
 11
86.1021084337
 21
323.9142243976
 31
0.0
  0
LINE
  5
80
330
1F
100
AcDbEntity
  8
0
  6
Continuous
 62
     7
100
AcDbLine
 10
107.8521084337
 20
348.3390243976
 30
0.0
 11
107.8521084337
 21
310.0294243976
 31
0.0
  0
LINE
  5
81
330
1F
100
AcDbEntity
  8
0
  6
Continuous
 62
     9
100
AcDbLine
 10
108.5222186667
 20
310.2089798934
 30
0.0
 11
108.5222186667
 21
348.1594689018
 31
0.0
  0
LINE
  5
82
330
1F
100
AcDbEntity
  8
0
  6
Continuous
 62
     9
100
AcDbLine
 10
108.6775100938
 20
310.2294243976
 30
0.0
 11
108.6775100938
 21
348.1390243976
 31
0.0
  0
LINE
  5
83
330
1F
100
AcDbEntity
  8
0
  6
Continuous
 62
     9
100
AcDbLine
 10
109.5499388032
 20
310.2294243976
 30
0.0
 11
109.5499388032
 21
348.1390243976
 31
0.0
  0
LINE
  5
84
330
1F
100
AcDbEntity
  8
0
  6
Continuous
 62
     7
100
AcDbLine
 10
109.8521084337
 20
354.1842243976
 30
0.0
 11
109.8521084337
 21
304.1842243976
 31
0.0
  0
LINE
  5
85
330
1F
100
AcDbEntity
  8
0
  6
Continuous
 62
     7
100
AcDbLine
 10
86.1021084337
 20
334.4542243976
 30
0.0
 11
84.9521084337
 21
335.6042243976
 31
0.0
  0
LWPOLYLINE
  5
86
330
1F
100
AcDbEntity
  8
BEZUGSACHSEN
  6
DOT_CENTER
 62
     7
100
AcDbPolyline
 90
        2
 70
     0
 43
0.25
 10
116.8521084337
 20
360.0791218254
 10
116.8521084337
 20
346.0791218254
  0
LINE
  5
87
330
1F
100
AcDbEntity
  8
0
  6
Continuous
 62
     7
100
AcDbLine
 10
129.7646084337
 20
351.6217715671
 30
0.0
 11
131.2440412652
 21
354.1842243976
 31
0.0
  0
LINE
  5
88
330
1F
100
AcDbEntity
  8
FASEN
  6
Continuous
 62
     9
100
AcDbLine
 10
122.5457947066
 20
313.4342243976
 30
0.0
 11
122.5457947066
 21
313.8342243976
 31
0.0
  0
LINE
  5
89
330
1F
100
AcDbEntity
  8
FASEN
  6
Continuous
 62
     9
100
AcDbLine
 10
122.8196084337
 20
323.5667243976
 30
0.0
 11
122.8196084337
 21
323.1667243976
 31
0.0
  0
LINE
  5
8A
330
1F
100
AcDbEntity
  8
FASEN
  6
Continuous
 62
     9
100
AcDbLine
 10
122.8196084337
 20
334.8017243976
 30
0.0
 11
122.8196084337
 21
335.2017243976
 31
0.0
  0
LINE
  5
8B
330
1F
100
AcDbEntity
  8
0
  6
Continuous
 62
     7
100
AcDbLine
 10
124.4601756022
 20
354.1842243976
 30
0.0
 11
124.4601756022
 21
335.2017243976
 31
0.0
  0
LINE
  5
8C
330
1F
100
AcDbEntity
  8
0
  6
Continuous
 62
     7
100
AcDbLine
 10
124.4601756022
 20
323.1667243976
 30
0.0
 11
124.4601756022
 21
313.8342243976
 31
0.0
  0
LINE
  5
8D
330
1F
100
AcDbEntity
  8
0
  6
Continuous
 62
     7
100
AcDbLine
 10
124.4601756022
 20
309.45157379
 30
0.0
 11
124.4601756022
 21
304.1842243976
 31
0.0
  0
LINE
  5
8E
330
1F
100
AcDbEntity
  8
0
  6
Continuous
 62
     9
100
AcDbLine
 10
84.9521084337
 20
322.2270762866
 30
0.0
 11
86.1021084337
 21
322.8748646381
 31
0.0
  0
LINE
  5
8F
330
1F
100
AcDbEntity
  8
0
  6
Continuous
 62
     7
100
AcDbLine
 10
124.4601756022
 20
304.1842243976
 30
0.0
 11
109.8521084337
 21
304.1842243976
 31
0.0
  0
LINE
  5
90
330
1F
100
AcDbEntity
  8
0
  6
Continuous
 62
     7
100
AcDbLine
 10
131.2440412652
 20
304.1842243976
 30
0.0
 11
135.8021084337
 21
304.1842243976
 31
0.0
  0
LINE
  5
91
330
1F
100
AcDbEntity
  8
0
  6
Continuous
 62
     9
100
AcDbLine
 10
86.1021084337
 20
335.4935841571
 30
0.0
 11
84.9521084337
 21
336.1413725086
 31
0.0
  0
LINE
  5
92
330
1F
100
AcDbEntity
  8
0
  6
Continuous
 62
     7
100
AcDbLine
 10
129.7646084337
 20
306.7466772281
 30
0.0
 11
131.2440412652
 21
304.1842243976
 31
0.0
  0
LINE
  5
93
330
1F
100
AcDbEntity
  8
0
  6
Continuous
 62
     7
100
AcDbLine
 10
125.9396084337
 20
351.6217169549
 30
0.0
 11
125.9396084337
 21
335.2017243976
 31
0.0
  0
LINE
  5
94
330
1F
100
AcDbEntity
  8
0
  6
Continuous
 62
     7
100
AcDbLine
 10
125.9396084337
 20
323.1667243976
 30
0.0
 11
125.9396084337
 21
313.8342243976
 31
0.0
  0
LINE
  5
95
330
1F
100
AcDbEntity
  8
0
  6
Continuous
 62
     7
100
AcDbLine
 10
125.9396084337
 20
306.7466910693
 30
0.0
 11
125.9396084337
 21
313.1116351538
 31
0.0
  0
LINE
  5
96
330
1F
100
AcDbEntity
  8
0
  6
Continuous
 62
     9
100
AcDbLine
 10
126.6896084337
 20
307.7092243976
 30
0.0
 11
126.6896084337
 21
324.2480695175
 31
0.0
  0
LINE
  5
97
330
1F
100
AcDbEntity
  8
0
  6
Continuous
 62
     9
100
AcDbLine
 10
126.6896084337
 20
334.1203792777
 30
0.0
 11
126.6896084337
 21
350.6592243976
 31
0.0
  0
LINE
  5
98
330
1F
100
AcDbEntity
  8
0
  6
Continuous
 62
     9
100
AcDbLine
 10
129.0146084337
 20
307.7092243976
 30
0.0
 11
129.0146084337
 21
324.2480695175
 31
0.0
  0
LINE
  5
99
330
1F
100
AcDbEntity
  8
0
  6
Continuous
 62
     9
100
AcDbLine
 10
129.0146084337
 20
334.1203792777
 30
0.0
 11
129.0146084337
 21
350.6592243976
 31
0.0
  0
LINE
  5
9A
330
1F
100
AcDbEntity
  8
0
  6
Continuous
 62
     7
100
AcDbLine
 10
129.7646084337
 20
323.1667243976
 30
0.0
 11
129.7646084337
 21
313.8342243976
 31
0.0
  0
LINE
  5
9B
330
1F
100
AcDbEntity
  8
0
  6
Continuous
 62
     7
100
AcDbLine
 10
129.7646084337
 20
306.7466910693
 30
0.0
 11
129.7646084337
 21
313.1116351538
 31
0.0
  0
LINE
  5
9C
330
1F
100
AcDbEntity
  8
0
  6
Continuous
 62
     7
100
AcDbLine
 10
129.7646084337
 20
335.2017243976
 30
0.0
 11
129.7646084337
 21
351.6217169549
 31
0.0
  0
LINE
  5
9D
330
1F
100
AcDbEntity
  8
0
  6
Continuous
 62
     7
100
AcDbLine
 10
126.6896084337
 20
307.7092243976
 30
0.0
 11
129.0146084337
 21
307.7092243976
 31
0.0
  0
LINE
  5
9E
330
1F
100
AcDbEntity
  8
FLAECHEN
  6
Continuous
 62
     7
100
AcDbLine
 10
208.1777926531
 20
308.1842243976
 30
0.0
 11
189.8521084337
 21
308.1842243976
 31
0.0
  0
LINE
  5
9F
330
1F
100
AcDbEntity
  8
0
  6
Continuous
 62
     7
100
AcDbLine
 10
117.1844347166
 20
309.45157379
 30
0.0
 11
124.4601756022
 21
309.45157379
 31
0.0
  0
LINE
  5
A0
330
1F
100
AcDbEntity
  8
0
  6
Continuous
 62
     7
100
AcDbLine
 10
131.2440412652
 20
309.45157379
 30
0.0
 11
135.8021084337
 21
309.45157379
 31
0.0
  0
LINE
  5
A1
330
1F
100
AcDbEntity
  8
AUSFORMSCHRAEGEN
  6
Continuous
 62
     7
100
AcDbLine
 10
208.1777926531
 20
309.5883128709
 30
0.0
 11
202.7021084337
 21
309.5883128709
 31
0.0
  0
LINE
  5
A2
330
1F
100
AcDbEntity
  8
0
  6
Continuous
 62
     7
100
AcDbLine
 10
109.5499388032
 20
310.2294243976
 30
0.0
 11
108.6775100938
 21
310.2294243976
 31
0.0
  0
LINE
  5
A3
330
1F
100
AcDbEntity
  8
0
  6
Continuous
 62
     7
100
AcDbLine
 10
107.8521084337
 20
310.0294243976
 30
0.0
 11
85.9020711914
 21
311.1291212634
 31
0.0
  0
LINE
  5
A4
330
1F
100
AcDbEntity
  8
0
  6
Continuous
 62
     7
100
AcDbLine
 10
131.2440412652
 20
323.1667243976
 30
0.0
 11
131.2440412652
 21
313.8342243976
 31
0.0
  0
LINE
  5
A5
330
1F
100
AcDbEntity
  8
0
  6
Continuous
 62
     7
100
AcDbLine
 10
131.2440412652
 20
304.1842243976
 30
0.0
 11
131.2440412652
 21
309.45157379
 31
0.0
  0
LINE
  5
A6
330
1F
100
AcDbEntity
  8
0
  6
Continuous
 62
     7
100
AcDbLine
 10
131.2440412652
 20
335.2017243976
 30
0.0
 11
131.2440412652
 21
354.1842243976
 31
0.0
  0
LINE
  5
A7
330
1F
100
AcDbEntity
  8
AUSFORMSCHRAEGEN
  6
Continuous
 62
     7
100
AcDbLine
 10
202.7021084339
 20
312.2091645891
 30
0.0
 11
209.7448443573
 21
312.2091645891
 31
0.0
  0
LINE
  5
A8
330
1F
100
AcDbEntity
  8
AUSFORMSCHRAEGEN
  6
Continuous
 62
     7
100
AcDbLine
 10
208.1777926531
 20
312.847905798
 30
0.0
 11
202.7021084337
 21
312.847905798
 31
0.0
  0
LINE
  5
A9
330
1F
100
AcDbEntity
  8
RUNDUNGEN
  6
Continuous
 62
     7
100
AcDbLine
 10
189.8521084337
 20
313.1842243976
 30
0.0
 11
140.8021084337
 21
313.1842243976
 31
0.0
  0
LINE
  5
AA
330
1F
100
AcDbEntity
  8
0
  6
Continuous
 62
     7
100
AcDbLine
 10
140.8021084337
 20
313.1842243976
 30
0.0
 11
189.8521084337
 21
313.1842243976
 31
0.0
  0
LINE
  5
AB
330
1F
100
AcDbEntity
  8
0
  6
Continuous
 62
     7
100
AcDbLine
 10
122.5457947066
 20
313.4342243976
 30
0.0
 11
125.9764453279
 21
313.4342243976
 31
0.0
  0
LINE
  5
AC
330
1F
100
AcDbEntity
  8
0
  6
Continuous
 62
     7
100
AcDbLine
 10
129.7277715395
 20
313.4342243976
 30
0.0
 11
135.8021084337
 21
313.4342243976
 31
0.0
  0
LINE
  5
AD
330
1F
100
AcDbEntity
  8
0
  6
Continuous
 62
     7
100
AcDbLine
 10
122.5457947066
 20
313.8342243976
 30
0.0
 11
125.9764453279
 21
313.8342243976
 31
0.0
  0
LINE
  5
AE
330
1F
100
AcDbEntity
  8
0
  6
Continuous
 62
     7
100
AcDbLine
 10
129.7277715395
 20
313.8342243976
 30
0.0
 11
135.8021084337
 21
313.8342243976
 31
0.0
  0
LINE
  5
AF
330
1F
100
AcDbEntity
  8
0
  6
Continuous
 62
     7
100
AcDbLine
 10
135.8021084337
 20
354.1841743791
 30
0.0
 11
135.8021084337
 21
335.2017243976
 31
0.0
  0
LINE
  5
B0
330
1F
100
AcDbEntity
  8
FASEN
  6
Continuous
 62
     7
100
AcDbLine
 10
135.8021084337
 20
335.2017243976
 30
0.0
 11
135.8021084337
 21
334.8017243976
 31
0.0
  0
LINE
  5
B1
330
1F
100
AcDbEntity
  8
FASEN
  6
Continuous
 62
     7
100
AcDbLine
 10
135.8021084337
 20
323.5667243976
 30
0.0
 11
135.8021084337
 21
323.1667243976
 31
0.0
  0
LINE
  5
B2
330
1F
100
AcDbEntity
  8
0
  6
Continuous
 62
     7
100
AcDbLine
 10
135.8021084337
 20
323.1667243976
 30
0.0
 11
135.8021084337
 21
313.8342243976
 31
0.0
  0
LINE
  5
B3
330
1F
100
AcDbEntity
  8
0
  6
Continuous
 62
     7
100
AcDbLine
 10
135.8021084337
 20
309.45157379
 30
0.0
 11
135.8021084337
 21
304.1842379417
 31
0.0
  0
LINE
  5
B4
330
1F
100
AcDbEntity
  8
FASEN
  6
Continuous
 62
     7
100
AcDbLine
 10
135.8021084337
 20
309.45157379
 30
0.0
 11
135.8021084337
 21
313.8342243976
 31
0.0
  0
LINE
  5
B5
330
1F
100
AcDbEntity
  8
RUNDUNGEN
  6
Continuous
 62
     7
100
AcDbLine
 10
135.8021084337
 20
323.5667243976
 30
0.0
 11
135.8021084337
 21
327.1372743492
 31
0.0
  0
LINE
  5
B6
330
1F
100
AcDbEntity
  8
RUNDUNGEN
  6
Continuous
 62
     7
100
AcDbLine
 10
135.8021084337
 20
331.2311789888
 30
0.0
 11
135.8021084337
 21
334.8017243976
 31
0.0
  0
LINE
  5
B7
330
1F
100
AcDbEntity
  8
RUNDUNGEN
  6
Continuous
 62
     9
100
AcDbLine
 10
140.8021084337
 20
345.1842243976
 30
0.0
 11
140.8021084337
 21
313.1842243976
 31
0.0
  0
LINE
  5
B8
330
1F
100
AcDbEntity
  8
0
  6
Continuous
 62
     7
100
AcDbLine
 10
124.4601756022
 20
304.1842243976
 30
0.0
 11
125.9396084337
 21
306.7466772281
 31
0.0
  0
LINE
  5
B9
330
1F
100
AcDbEntity
  8
0
  6
Continuous
 62
     7
100
AcDbLine
 10
108.5222186667
 20
310.2089798934
 30
0.0
 11
107.8521084337
 21
310.0294243976
 31
0.0
  0
LWPOLYLINE
  5
BA
330
1F
100
AcDbEntity
  8
DEFAULT_2
  6
DASHED
 62
     8
100
AcDbPolyline
 90
        2
 70
     0
 43
0.35
 10
172.9483144054
 20
320.1842243976
 10
168.8521084337
 20
320.1842243976
  0
LINE
  5
BB
330
1F
100
AcDbEntity
  8
RUNDUNGEN
  6
Continuous
 62
     9
100
AcDbLine
 10
88.9701666099
 20
321.5342243976
 30
0.0
 11
88.1521084337
 21
321.5342243976
 31
0.0
  0
LINE
  5
BC
330
1F
100
AcDbEntity
  8
0
  6
Continuous
 62
     9
100
AcDbLine
 10
88.1521084337
 20
321.5342243976
 30
0.0
 11
85.6885986436
 21
321.5342243976
 31
0.0
  0
LINE
  5
BD
330
1F
100
AcDbEntity
  8
0
  6
Continuous
 62
     7
100
AcDbLine
 10
122.8196084337
 20
323.1667243976
 30
0.0
 11
125.9396084337
 21
323.1667243976
 31
0.0
  0
LINE
  5
BE
330
1F
100
AcDbEntity
  8
0
  6
Continuous
 62
     7
100
AcDbLine
 10
129.7646084337
 20
323.1667243976
 30
0.0
 11
135.8021084337
 21
323.1667243976
 31
0.0
  0
LINE
  5
BF
330
1F
100
AcDbEntity
  8
0
  6
Continuous
 62
     7
100
AcDbLine
 10
135.8021084337
 20
323.5667243976
 30
0.0
 11
129.486143581
 21
323.5667243976
 31
0.0
  0
LINE
  5
C0
330
1F
100
AcDbEntity
  8
0
  6
Continuous
 62
     7
100
AcDbLine
 10
126.2180732865
 20
323.5667243976
 30
0.0
 11
122.8196084337
 21
323.5667243976
 31
0.0
  0
LINE
  5
C1
330
1F
100
AcDbEntity
  8
0
  6
Continuous
 62
     7
100
AcDbLine
 10
88.1521084337
 20
323.9142243976
 30
0.0
 11
86.1021084337
 21
323.9142243976
 31
0.0
  0
LWPOLYLINE
  5
C2
330
1F
100
AcDbEntity
  8
DEFAULT_2
  6
DASHED
 62
     8
100
AcDbPolyline
 90
        2
 70
     0
 43
0.35
 10
197.8521084337
 20
316.6842243976
 10
172.9483144054
 20
320.1842243976
  0
LINE
  5
C3
330
1F
100
AcDbEntity
  8
0
  6
Continuous
 62
     7
100
AcDbLine
 10
124.4601756022
 20
354.1842243976
 30
0.0
 11
125.9396084337
 21
351.6217715671
 31
0.0
  0
LINE
  5
C4
330
1F
100
AcDbEntity
  8
0
  6
Continuous
 62
     7
100
AcDbLine
 10
126.6896084337
 20
324.2480695175
 30
0.0
 11
129.0146084337
 21
324.2480695175
 31
0.0
  0
LINE
  5
C5
330
1F
100
AcDbEntity
  8
AUSFORMSCHRAEGEN
  6
Continuous
 62
     7
100
AcDbLine
 10
208.1777926531
 20
325.9246314705
 30
0.0
 11
201.8521084337
 21
325.9246314705
 31
0.0
  0
LINE
  5
C6
330
1F
100
AcDbEntity
  8
AUSFORMSCHRAEGEN
  6
Continuous
 62
     7
100
AcDbLine
 10
201.8521084339
 20
326.5842243976
 30
0.0
 11
209.7448443573
 21
326.5842243976
 31
0.0
  0
LWPOLYLINE
  5
C7
330
1F
100
AcDbEntity
  8
BG_STARTBEZUEGE
  6
DOT_CENTER
 62
     7
100
AcDbPolyline
 90
        2
 70
     0
 43
0.25
 10
212.8521084338
 20
329.1842243976
 10
81.9521084337
 20
329.1842243976
  0
LINE
  5
C8
330
1F
100
AcDbEntity
  8
AUSFORMSCHRAEGEN
  6
Continuous
 62
     7
100
AcDbLine
 10
209.7448443573
 20
331.7842243976
 30
0.0
 11
201.8521084356
 21
331.7842243976
 31
0.0
  0
LINE
  5
C9
330
1F
100
AcDbEntity
  8
AUSFORMSCHRAEGEN
  6
Continuous
 62
     7
100
AcDbLine
 10
208.1777926531
 20
332.4438173247
 30
0.0
 11
201.8521084337
 21
332.4438173247
 31
0.0
  0
LWPOLYLINE
  5
CA
330
1F
100
AcDbEntity
  8
DEFAULT_2
  6
DASHED
 62
     8
100
AcDbPolyline
 90
        2
 70
     0
 43
0.35
 10
197.8521084337
 20
341.6842243976
 10
172.9483144054
 20
338.1842243976
  0
LINE
  5
CB
330
1F
100
AcDbEntity
  8
0
  6
Continuous
 62
     7
100
AcDbLine
 10
129.0146084337
 20
334.1203792777
 30
0.0
 11
126.6896084337
 21
334.1203792777
 31
0.0
  0
LINE
  5
CC
330
1F
100
AcDbEntity
  8
0
  6
Continuous
 62
     7
100
AcDbLine
 10
88.1521084337
 20
334.4542243976
 30
0.0
 11
86.1021084337
 21
334.4542243976
 31
0.0
  0
LINE
  5
CD
330
1F
100
AcDbEntity
  8
0
  6
Continuous
 62
     7
100
AcDbLine
 10
122.8196084337
 20
334.8017243976
 30
0.0
 11
126.2180732865
 21
334.8017243976
 31
0.0
  0
LINE
  5
CE
330
1F
100
AcDbEntity
  8
0
  6
Continuous
 62
     7
100
AcDbLine
 10
129.486143581
 20
334.8017243976
 30
0.0
 11
135.8021084337
 21
334.8017243976
 31
0.0
  0
LINE
  5
CF
330
1F
100
AcDbEntity
  8
0
  6
Continuous
 62
     7
100
AcDbLine
 10
122.8196084337
 20
335.2017243976
 30
0.0
 11
125.9396084337
 21
335.2017243976
 31
0.0
  0
LINE
  5
D0
330
1F
100
AcDbEntity
  8
0
  6
Continuous
 62
     7
100
AcDbLine
 10
129.7646084337
 20
335.2017243976
 30
0.0
 11
135.8021084337
 21
335.2017243976
 31
0.0
  0
LINE
  5
D1
330
1F
100
AcDbEntity
  8
0
  6
Continuous
 62
     9
100
AcDbLine
 10
88.1521084337
 20
336.8342243976
 30
0.0
 11
85.6885986436
 21
336.8342243976
 31
0.0
  0
LINE
  5
D2
330
1F
100
AcDbEntity
  8
RUNDUNGEN
  6
Continuous
 62
     9
100
AcDbLine
 10
88.1521084337
 20
336.8342243976
 30
0.0
 11
88.9701666099
 21
336.8342243976
 31
0.0
  0
LINE
  5
D3
330
1F
100
AcDbEntity
  8
0
  6
Continuous
 62
     7
100
AcDbLine
 10
108.5222186667
 20
348.1594689018
 30
0.0
 11
107.8521084337
 21
348.3390243976
 31
0.0
  0
LWPOLYLINE
  5
D4
330
1F
100
AcDbEntity
  8
DEFAULT_2
  6
DASHED
 62
     8
100
AcDbPolyline
 90
        2
 70
     0
 43
0.35
 10
172.9483144054
 20
338.1842243976
 10
168.8521084337
 20
338.1842243976
  0
LINE
  5
D5
330
1F
100
AcDbEntity
  8
RUNDUNGEN
  6
Continuous
 62
     7
100
AcDbLine
 10
189.8521084337
 20
345.1842243976
 30
0.0
 11
140.8021084337
 21
345.1842243976
 31
0.0
  0
LINE
  5
D6
330
1F
100
AcDbEntity
  8
0
  6
Continuous
 62
     7
100
AcDbLine
 10
140.8021084337
 20
345.1842243976
 30
0.0
 11
189.8521084337
 21
345.1842243976
 31
0.0
  0
LINE
  5
D7
330
1F
100
AcDbEntity
  8
AUSFORMSCHRAEGEN
  6
Continuous
 62
     7
100
AcDbLine
 10
208.1777926531
 20
345.5205429972
 30
0.0
 11
200.7521084337
 21
345.5205429972
 31
0.0
  0
LINE
  5
D8
330
1F
100
AcDbEntity
  8
AUSFORMSCHRAEGEN
  6
Continuous
 62
     7
100
AcDbLine
 10
209.7448443573
 20
346.1592842061
 30
0.0
 11
200.7521084356
 21
346.1592842061
 31
0.0
  0
LWPOLYLINE
  5
D9
330
1F
100
AcDbEntity
  8
DEFAULT_2
  6
DASHED
 62
     8
100
AcDbPolyline
 90
        2
 70
     0
 43
0.35
 10
168.8521084337
 20
338.1842243976
 10
168.8521084337
 20
320.1842243976
  0
LINE
  5
DA
330
1F
100
AcDbEntity
  8
0
  6
Continuous
 62
     7
100
AcDbLine
 10
107.8521084337
 20
348.3390243976
 30
0.0
 11
85.9020711914
 21
347.2393275317
 31
0.0
  0
LINE
  5
DB
330
1F
100
AcDbEntity
  8
0
  6
Continuous
 62
     7
100
AcDbLine
 10
109.5499388032
 20
348.1390243976
 30
0.0
 11
108.6775100938
 21
348.1390243976
 31
0.0
  0
LINE
  5
DC
330
1F
100
AcDbEntity
  8
AUSFORMSCHRAEGEN
  6
Continuous
 62
     7
100
AcDbLine
 10
208.1777926531
 20
348.7801359243
 30
0.0
 11
200.7521084337
 21
348.7801359243
 31
0.0
  0
LINE
  5
DD
330
1F
100
AcDbEntity
  8
FLAECHEN
  6
Continuous
 62
     7
100
AcDbLine
 10
208.1777926531
 20
350.1842243976
 30
0.0
 11
189.8521084337
 21
350.1842243976
 31
0.0
  0
LINE
  5
DE
330
1F
100
AcDbEntity
  8
0
  6
Continuous
 62
     7
100
AcDbLine
 10
126.6896084337
 20
350.6592243976
 30
0.0
 11
129.0146084337
 21
350.6592243976
 31
0.0
  0
LWPOLYLINE
  5
DF
330
1F
100
AcDbEntity
  8
DEFAULT_2
  6
DASHED
 62
     8
100
AcDbPolyline
 90
        2
 70
     0
 43
0.35
 10
172.9483144054
 20
338.1842243976
 10
172.9483144054
 20
320.1842243976
  0
LINE
  5
E0
330
1F
100
AcDbEntity
  8
BEZUGSACHSEN
  6
Continuous
 62
     7
100
AcDbLine
 10
124.4601756022
 20
354.1842243976
 30
0.0
 11
121.8521084337
 21
354.1842243976
 31
0.0
  0
LINE
  5
E1
330
1F
100
AcDbEntity
  8
BEZUGSACHSEN
  6
Continuous
 62
     7
100
AcDbLine
 10
111.8521084337
 20
354.1842243976
 30
0.0
 11
109.8521084337
 21
354.1842243976
 31
0.0
  0
LINE
  5
E2
330
1F
100
AcDbEntity
  8
0
  6
Continuous
 62
     7
100
AcDbLine
 10
109.8521084337
 20
354.1842243976
 30
0.0
 11
111.8521084337
 21
354.1842243976
 31
0.0
  0
LINE
  5
E3
330
1F
100
AcDbEntity
  8
0
  6
Continuous
 62
     7
100
AcDbLine
 10
121.8521084337
 20
354.1842243976
 30
0.0
 11
124.4601756022
 21
354.1842243976
 31
0.0
  0
LINE
  5
E4
330
1F
100
AcDbEntity
  8
0
  6
Continuous
 62
     7
100
AcDbLine
 10
131.2440412652
 20
354.1842243976
 30
0.0
 11
135.8021084337
 21
354.1842243976
 31
0.0
  0
LINE
  5
E5
330
1F
100
AcDbEntity
  8
FLAECHEN
  6
Continuous
 62
     7
100
AcDbLine
 10
189.8521084337
 20
350.1842243976
 30
0.0
 11
189.8521084337
 21
345.1842243976
 31
0.0
  0
LWPOLYLINE
  5
E6
330
1F
100
AcDbEntity
  8
DEFAULT_2
  6
DASHED
 62
     8
100
AcDbPolyline
 90
        2
 70
     0
 43
0.35
 10
197.8521084337
 20
345.1842243976
 10
197.8521084337
 20
313.1842243976
  0
LINE
  5
E7
330
1F
100
AcDbEntity
  8
AUSFORMSCHRAEGEN
  6
Continuous
 62
     9
100
AcDbLine
 10
200.7521084337
 20
346.1592842061
 30
0.0
 11
200.7521084337
 21
348.7801359243
 31
0.0
  0
LINE
  5
E8
330
1F
100
AcDbEntity
  8
AUSFORMSCHRAEGEN
  6
Continuous
 62
     9
100
AcDbLine
 10
201.8521084339
 20
326.5842243976
 30
0.0
 11
201.8521084337
 21
325.9246314705
 31
0.0
  0
LINE
  5
E9
330
1F
100
AcDbEntity
  8
AUSFORMSCHRAEGEN
  6
Continuous
 62
     9
100
AcDbLine
 10
201.8521084337
 20
331.7842243976
 30
0.0
 11
201.8521084337
 21
332.4438173247
 31
0.0
  0
LINE
  5
EA
330
1F
100
AcDbEntity
  8
AUSFORMSCHRAEGEN
  6
Continuous
 62
     9
100
AcDbLine
 10
202.7021084339
 20
312.2091645891
 30
0.0
 11
202.7021084337
 21
309.5883128709
 31
0.0
  0
LINE
  5
EB
330
1F
100
AcDbEntity
  8
AUSFORMSCHRAEGEN
  6
Continuous
 62
     7
100
AcDbLine
 10
208.1777926531
 20
350.1842243976
 30
0.0
 11
208.1777926531
 21
348.7801359243
 31
0.0
  0
LINE
  5
EC
330
1F
100
AcDbEntity
  8
AUSFORMSCHRAEGEN
  6
Continuous
 62
     7
100
AcDbLine
 10
208.1777926531
 20
345.5205429972
 30
0.0
 11
208.1777926531
 21
332.4438173247
 31
0.0
  0
LINE
  5
ED
330
1F
100
AcDbEntity
  8
AUSFORMSCHRAEGEN
  6
Continuous
 62
     7
100
AcDbLine
 10
208.1777926531
 20
325.9246314705
 30
0.0
 11
208.1777926531
 21
312.847905798
 31
0.0
  0
LINE
  5
EE
330
1F
100
AcDbEntity
  8
AUSFORMSCHRAEGEN
  6
Continuous
 62
     7
100
AcDbLine
 10
208.1777926531
 20
309.5883128709
 30
0.0
 11
208.1777926531
 21
308.1842243976
 31
0.0
  0
LINE
  5
EF
330
1F
100
AcDbEntity
  8
0
  6
Continuous
 62
     7
100
AcDbLine
 10
209.8521084337
 20
347.2840194188
 30
0.0
 11
209.8521084337
 21
311.0842243983
 31
0.0
  0
LINE
  5
F0
330
1F
100
AcDbEntity
  8
FLAECHEN
  6
Continuous
 62
     7
100
AcDbLine
 10
209.8521084337
 20
311.0842243983
 30
0.0
 11
208.1777926531
 21
308.1842243976
 31
0.0
  0
LINE
  5
F1
330
1F
100
AcDbEntity
  8
FLAECHEN
  6
Continuous
 62
     7
100
AcDbLine
 10
209.8521084337
 20
347.2842243976
 30
0.0
 11
208.1777926531
 21
350.1842243976
 31
0.0
  0
LINE
  5
F2
330
1F
100
AcDbEntity
  8
AUSFORMSCHRAEGEN
  6
Continuous
 62
     7
100
AcDbLine
 10
209.7448443573
 20
331.7842243976
 30
0.0
 11
208.1777926531
 21
332.4438173247
 31
0.0
  0
LINE
  5
F3
330
1F
100
AcDbEntity
  8
AUSFORMSCHRAEGEN
  6
Continuous
 62
     7
100
AcDbLine
 10
208.1777926531
 20
325.9246314705
 30
0.0
 11
209.7448443573
 21
326.5842243976
 31
0.0
  0
LINE
  5
F4
330
1F
100
AcDbEntity
  8
RUNDUNGEN
  6
Continuous
 62
     7
100
AcDbLine
 10
135.8031085337
 20
329.1840331897
 30
0.0
 11
135.8021084337
 21
327.1372754485
 31
0.0
  0
LINE
  5
F5
330
1F
100
AcDbEntity
  8
RUNDUNGEN
  6
Continuous
 62
     7
100
AcDbLine
 10
135.8021084337
 20
331.2311733466
 30
0.0
 11
135.8031085337
 21
329.1840331897
 31
0.0
  0
LWPOLYLINE
  5
F6
330
1F
100
AcDbEntity
  8
1
  6
DASHED
 62
     7
100
AcDbPolyline
 90
        2
 70
     0
 43
0.35
 10
197.8521084337
 20
345.1842243976
 10
189.8521084337
 20
345.1842243976
  0
LINE
  5
F7
330
1F
100
AcDbEntity
  8
FLAECHEN
  6
Continuous
 62
     7
100
AcDbLine
 10
189.8521084337
 20
345.1842243976
 30
0.0
 11
189.8521084337
 21
313.1842243976
 31
0.0
  0
LWPOLYLINE
  5
F8
330
1F
100
AcDbEntity
  8
1
  6
DASHED
 62
     7
100
AcDbPolyline
 90
        2
 70
     0
 43
0.35
 10
197.8521084337
 20
313.1842243976
 10
189.8521084337
 20
313.1842243976
  0
LINE
  5
F9
330
1F
100
AcDbEntity
  8
FLAECHEN
  6
Continuous
 62
     7
100
AcDbLine
 10
189.8521084337
 20
313.1842243976
 30
0.0
 11
189.8521084337
 21
308.1842243976
 31
0.0
  0
ARC
  5
FA
330
1F
100
AcDbEntity
  8
0
  6
Continuous
 62
     7
100
AcDbCircle
 10
92.1967200304
 20
313.6342243976
 30
0.0
 40
33.78031736343756
100
AcDbArc
 50
359.660772196785
 51
0.33922780321496
  0
ARC
  5
FB
330
1F
100
AcDbEntity
  8
FASEN
  6
Continuous
 62
     7
100
AcDbCircle
 10
125.0264637813
 20
317.617616206
 30
0.0
 40
11.3217343455995
100
AcDbArc
 50
223.8842578163006
 51
226.1595439826519
  0
ARC
  5
FC
330
1F
100
AcDbEntity
  8
FASEN
  6
Continuous
 62
     7
100
AcDbCircle
 10
122.5457947066
 20
307.8342243976
 30
0.0
 40
6.0
100
AcDbArc
 50
90.0
 51
161.1845969504029
  0
ARC
  5
FD
330
1F
100
AcDbEntity
  8
FASEN
  6
Continuous
 62
     7
100
AcDbCircle
 10
122.5457947066
 20
307.8342243976
 30
0.0
 40
5.599990644599984
100
AcDbArc
 50
90.0
 51
163.2131310087987
  0
ARC
  5
FE
330
1F
100
AcDbEntity
  8
0
  6
Continuous
 62
     7
100
AcDbCircle
 10
127.364948824
 20
313.1122714904
 30
0.0
 40
1.425340532341817
100
AcDbArc
 50
166.945493584537
 51
180.0255794330641
  0
ARC
  5
FF
330
1F
100
AcDbEntity
  8
RUNDUNGEN
  6
Continuous
 62
     7
100
AcDbCircle
 10
88.1521084337
 20
325.3142243976
 30
0.0
 40
1.400000000000034
100
AcDbArc
 50
270.0
 51
353.9429041005092
  0
ARC
  5
100
330
1F
100
AcDbEntity
  8
0
  6
Continuous
 62
     7
100
AcDbCircle
 10
85.9521084337
 20
312.1278686161
 30
0.0
 40
1.0
100
AcDbArc
 50
179.9999999942711
 51
267.1318795167059
  0
ARC
  5
101
330
1F
100
AcDbEntity
  8
0
  6
Continuous
 62
     7
100
AcDbCircle
 10
126.6896084337
 20
306.9592243976
 30
0.0
 40
0.75
100
AcDbArc
 50
90.0
 51
180.0
  0
ARC
  5
102
330
1F
100
AcDbEntity
  8
0
  6
Continuous
 62
     7
100
AcDbCircle
 10
108.6775100938
 20
309.6294243976
 30
0.0
 40
0.5999999999999659
100
AcDbArc
 50
90.0
 51
105.0000000028938
  0
ARC
  5
103
330
1F
100
AcDbEntity
  8
0
  6
Continuous
 62
     7
100
AcDbCircle
 10
109.5499388032
 20
309.6294243976
 30
0.0
 40
0.5999999999998873
100
AcDbArc
 50
59.70317838175942
 51
90.0
  0
ARC
  5
104
330
1F
100
AcDbEntity
  8
0
  6
Continuous
 62
     7
100
AcDbCircle
 10
126.4432283877
 20
323.0912292646
 30
0.0
 40
0.5037304978999921
100
AcDbArc
 50
166.159610936952
 51
171.3804870338136
  0
ARC
  5
105
330
1F
100
AcDbEntity
  8
0
  6
Continuous
 62
     7
100
AcDbCircle
 10
9.1856648457
 20
362.1047599073
 30
0.0
 40
126.7303074976679
100
AcDbArc
 50
335.4508108778776
 51
337.1137532296997
  0
ARC
  5
106
330
1F
100
AcDbEntity
  8
0
  6
Continuous
 62
     7
100
AcDbCircle
 10
122.8196084337
 20
329.1842243976
 30
0.0
 40
6.017499999999984
100
AcDbArc
 50
90.0
 51
270.0
  0
ARC
  5
107
330
1F
100
AcDbEntity
  8
FASEN
  6
Continuous
 62
     7
100
AcDbCircle
 10
122.8196084337
 20
329.1842243976
 30
0.0
 40
5.617499842999962
100
AcDbArc
 50
90.0
 51
270.0
  0
ARC
  5
108
330
1F
100
AcDbEntity
  8
RUNDUNGEN
  6
Continuous
 62
     7
100
AcDbCircle
 10
88.1521084337
 20
333.0542243976
 30
0.0
 40
1.400000000000069
100
AcDbArc
 50
6.05709561601019
 51
90.0
  0
ARC
  5
109
330
1F
100
AcDbEntity
  8
0
  6
Continuous
 62
     7
100
AcDbCircle
 10
85.9521084337
 20
346.2405801791
 30
0.0
 40
0.9999999999712409
100
AcDbArc
 50
92.86812048358074
 51
180.0000000171898
  0
ARC
  5
10A
330
1F
100
AcDbEntity
  8
0
  6
Continuous
 62
     7
100
AcDbCircle
 10
126.6896084337
 20
351.4092243976
 30
0.0
 40
0.75
100
AcDbArc
 50
180.0
 51
270.0
  0
ARC
  5
10B
330
1F
100
AcDbEntity
  8
0
  6
Continuous
 62
     7
100
AcDbCircle
 10
108.6775100938
 20
348.7390243976
 30
0.0
 40
0.6000000000356498
100
AcDbArc
 50
254.9999999971076
 51
270.0
  0
ARC
  5
10C
330
1F
100
AcDbEntity
  8
0
  6
Continuous
 62
     7
100
AcDbCircle
 10
109.5499388032
 20
348.7390243976
 30
0.0
 40
0.6000000000000227
100
AcDbArc
 50
270.0
 51
300.2968216182405
  0
ARC
  5
10D
330
1F
100
AcDbEntity
  8
RUNDUNGEN
  6
Continuous
 62
     7
100
AcDbCircle
 10
175.1221789691
 20
-437.2516354042
 30
0.0
 40
779.4077988409
100
AcDbArc
 50
96.40668094319999
 51
96.57315239320002
  0
ARC
  5
10E
330
1F
100
AcDbEntity
  8
0
  6
Continuous
 62
     7
100
AcDbCircle
 10
163.5074968371
 20
313.6342243976
 30
0.0
 40
33.78031736353757
100
AcDbArc
 50
179.660772196786
 51
180.339227803214
  0
ARC
  5
10F
330
1F
100
AcDbEntity
  8
AUSFORMSCHRAEGEN
  6
Continuous
 62
     7
100
AcDbCircle
 10
178.0599758429
 20
329.1748394171
 30
0.0
 40
31.79213397599964
100
AcDbArc
 50
0.01691361060043
 51
4.707929239614
  0
ARC
  5
110
330
1F
100
AcDbEntity
  8
AUSFORMSCHRAEGEN
  6
Continuous
 62
     7
100
AcDbCircle
 10
201.7955859173
 20
313.5194897093
 30
0.0
 40
8.056529132730686
100
AcDbArc
 50
350.6397545008597
 51
359.9265706095993
  0
ARC
  5
111
330
1F
100
AcDbEntity
  8
RUNDUNGEN
  6
Continuous
 62
     7
100
AcDbCircle
 10
140.8021084337
 20
308.1842243976
 30
0.0
 40
5.0
100
AcDbArc
 50
90.0
 51
175.9090908138999
  0
ARC
  5
112
330
1F
100
AcDbEntity
  8
0
  6
Continuous
 62
     7
100
AcDbCircle
 10
128.3392680435
 20
313.1122714904
 30
0.0
 40
1.425340532244759
100
AcDbArc
 50
359.9744205669342
 51
13.05450641637104
  0
ARC
  5
113
330
1F
100
AcDbEntity
  8
0
  6
Continuous
 62
     7
100
AcDbCircle
 10
129.0146084337
 20
306.9592243976
 30
0.0
 40
0.75
100
AcDbArc
 50
0.0
 51
90.0
  0
ARC
  5
114
330
1F
100
AcDbEntity
  8
RUNDUNGEN
  6
Continuous
 62
     7
100
AcDbCircle
 10
175.1221789691
 20
1095.6200841994
 30
0.0
 40
779.4077988407996
100
AcDbArc
 50
263.4268476068
 51
263.5933190568001
  0
ARC
  5
115
330
1F
100
AcDbEntity
  8
0
  6
Continuous
 62
     7
100
AcDbCircle
 10
246.5185520218
 20
362.1047599073
 30
0.0
 40
126.7303074976998
100
AcDbArc
 50
202.8862467703002
 51
204.5491891221036
  0
ARC
  5
116
330
1F
100
AcDbEntity
  8
AUSFORMSCHRAEGEN
  6
Continuous
 62
     7
100
AcDbCircle
 10
178.0599758184
 20
329.1936093791
 30
0.0
 40
31.79213400055196
100
AcDbArc
 50
355.2920707622139
 51
359.9830863871671
  0
ARC
  5
117
330
1F
100
AcDbEntity
  8
AUSFORMSCHRAEGEN
  6
Continuous
 62
     7
100
AcDbCircle
 10
201.7955859194
 20
344.8696093261
 30
0.0
 40
8.056529130600081
100
AcDbArc
 50
350.6397544996018
 51
359.9265706106968
  0
ARC
  5
118
330
1F
100
AcDbEntity
  8
RUNDUNGEN
  6
Continuous
 62
     7
100
AcDbCircle
 10
140.8021084337
 20
350.1842243976
 30
0.0
 40
5.0
100
AcDbArc
 50
180.0
 51
270.0
  0
ARC
  5
119
330
1F
100
AcDbEntity
  8
AUSFORMSCHRAEGEN
  6
Continuous
 62
     7
100
AcDbCircle
 10
201.8521084337
 20
329.1842243976
 30
0.0
 40
2.599999999999966
100
AcDbArc
 50
89.9999999581302
 51
270.0000000044074
  0
ARC
  5
11A
330
1F
100
AcDbEntity
  8
0
  6
Continuous
 62
     7
100
AcDbCircle
 10
129.0146084337
 20
351.4092243976
 30
0.0
 40
0.75
100
AcDbArc
 50
270.0
 51
0.0
  0
CIRCLE
  5
11B
330
1F
100
AcDbEntity
  8
FASEN
  6
Continuous
 62
     7
100
AcDbCircle
 10
102.3521084337
 20
329.1842243976
 30
0.0
 40
3.0
  0
SPLINE
  5
11C
330
1F
100
AcDbEntity
  8
AUSFORMSCHRAEGEN
  6
Continuous
 62
     7
100
AcDbSpline
210
0.0
220
0.0
230
1.0
 70
     8
 71
     3
 72
    19
 73
    15
 74
    13
 42
0.0000000001
 43
0.0000000001
 44
0.00000001
 40
0.0
 40
0.0
 40
0.0
 40
0.0
 40
0.3549403077968319
 40
0.714708304168198
 40
0.9318862707736835
 40
1.147786043405319
 40
1.387981193527982
 40
1.628586969761262
 40
1.889363961843808
 40
2.150000538616873
 40
2.426375876665406
 40
2.702940928318604
 40
3.28282002372287
 40
3.862364202770369
 40
3.862364202770369
 40
3.862364202770369
 40
3.862364202770369
 10
199.4150419624
 20
311.2414578014
 30
0.0
 10
199.4599377935455
 20
311.3517610507852
 30
0.0
 10
199.5503401024332
 20
311.5738678292507
 30
0.0
 10
199.7591603941354
 20
311.8100126546718
 30
0.0
 10
199.9541459896921
 20
311.9880164392131
 30
0.0
 10
200.1335341668657
 20
312.1235367154723
 30
0.0
 10
200.3289055868573
 20
312.2493916117412
 30
0.0
 10
200.5459303577221
 20
312.3681479403868
 30
0.0
 10
200.7765338530457
 20
312.4750896121625
 30
0.0
 10
201.0245833343544
 20
312.571382320641
 30
0.0
 10
201.282998956614
 20
312.654284767787
 30
0.0
 10
201.6489118109184
 20
312.7478191928487
 30
0.0
 10
202.1221929162109
 20
312.8298456010909
 30
0.0
 10
202.5088463887057
 20
312.8418868917979
 30
0.0
 10
202.7021172797
 20
312.847905798
 30
0.0
 11
199.4150419624
 21
311.2414578014
 31
0.0
 11
199.5669326708498
 21
311.5622565463875
 31
0.0
 11
199.796013846338
 21
311.8396638755084
 31
0.0
 11
199.956694145708
 21
311.9857738018421
 31
0.0
 11
200.1284897861822
 21
312.1165368307779
 31
0.0
 11
200.330257849439
 21
312.2468570471377
 31
0.0
 11
200.5411782346063
 21
312.3626315291175
 31
0.0
 11
200.777658812151
 21
312.472547751959
 31
0.0
 11
201.0205383472798
 21
312.5671043834958
 31
0.0
 11
201.2836821350269
 21
312.6515950602094
 31
0.0
 11
201.551525315783
 21
312.7205026673252
 31
0.0
 11
202.123435011293
 21
312.8163101068511
 31
0.0
 11
202.7021172797
 21
312.847905798
 31
0.0
  0
SPLINE
  5
11D
330
1F
100
AcDbEntity
  8
AUSFORMSCHRAEGEN
  6
Continuous
 62
     7
100
AcDbSpline
210
0.0
220
0.0
230
1.0
 70
     8
 71
     3
 72
     9
 73
     5
 74
     3
 42
0.0000000001
 43
0.0000000001
 44
0.00000001
 40
0.0
 40
0.0
 40
0.0
 40
0.0
 40
1.25520787903722
 40
2.510415749890797
 40
2.510415749890797
 40
2.510415749890797
 40
2.510415749890797
 10
208.1777926531
 20
345.5205429972
 30
0.0
 10
208.4390430720084
 20
345.1937265632626
 30
0.0
 10
208.9615439081221
 20
344.5400936975187
 30
0.0
 10
209.4837442081208
 20
343.8862207025105
 30
0.0
 10
209.744844357269
 20
343.559284206072
 30
0.0
 11
208.1777926531
 21
345.5205429972
 31
0.0
 11
208.9614687757961
 21
344.5400336630715
 31
0.0
 11
209.744844357269
 21
343.559284206072
 31
0.0
  0
SPLINE
  5
11E
330
1F
100
AcDbEntity
  8
AUSFORMSCHRAEGEN
  6
Continuous
 62
     7
100
AcDbSpline
210
0.0
220
0.0
230
1.0
 70
     8
 71
     3
 72
     9
 73
     5
 74
     3
 42
0.0000000001
 43
0.0000000001
 44
0.00000001
 40
0.0
 40
0.0
 40
0.0
 40
0.0
 40
1.255207870880688
 40
2.510415749888306
 40
2.510415749888306
 40
2.510415749888306
 40
2.510415749888306
 10
209.7448443573
 20
314.8091645891
 30
0.0
 10
209.4837442081437
 20
314.4822280926564
 30
0.0
 10
208.9615439081407
 20
313.8283550976525
 30
0.0
 10
208.4390430720107
 20
313.1747222319229
 30
0.0
 10
208.1777926531
 20
312.847905798
 30
0.0
 11
209.7448443573
 21
314.8091645891
 31
0.0
 11
208.9614687758
 21
313.8284151320875
 31
0.0
 11
208.1777926531
 21
312.847905798
 31
0.0
  0
SPLINE
  5
11F
330
1F
100
AcDbEntity
  8
AUSFORMSCHRAEGEN
  6
Continuous
 62
     7
100
AcDbSpline
210
0.0
220
0.0
230
1.0
 70
     8
 71
     3
 72
    19
 73
    15
 74
    13
 42
0.0000000001
 43
0.0000000001
 44
0.00000001
 40
0.0
 40
0.0
 40
0.0
 40
0.0
 40
0.5791534980623425
 40
1.158637828751904
 40
1.435038751420035
 40
1.711252748848792
 40
1.971774577682947
 40
2.232434004491711
 40
2.472928337556681
 40
2.713014540711256
 40
2.928854803715526
 40
3.145970208448057
 40
3.505826345007195
 40
3.860862038694604
 40
3.860862038694604
 40
3.860862038694604
 40
3.860862038694604
 10
200.7521380165
 20
345.5205429972
 30
0.0
 10
200.5589975136064
 20
345.526550938005
 30
0.0
 10
200.1726061792444
 20
345.5385702515599
 30
0.0
 10
199.6996288443449
 20
345.6204825330861
 30
0.0
 10
199.3339385635609
 20
345.7139182611921
 30
0.0
 10
199.0756464035521
 20
345.7967212880482
 30
0.0
 10
198.827680239651
 20
345.8928635343106
 30
0.0
 10
198.5971318758313
 20
345.9996524439221
 30
0.0
 10
198.3801647396084
 20
346.1182799066443
 30
0.0
 10
198.184825035517
 20
346.2440106895237
 30
0.0
 10
198.0054287347684
 20
346.3793897995411
 30
0.0
 10
197.8103213991641
 20
346.5572429178844
 30
0.0
 10
197.6012441705626
 20
346.7931993820297
 30
0.0
 10
197.5105136053978
 20
347.0152352762241
 30
0.0
 10
197.4654542163
 20
347.1255046406
 30
0.0
 11
200.7521380165
 21
345.5205429972
 31
0.0
 11
200.173844248672
 21
345.552088082541
 31
0.0
 11
199.6023136153941
 21
345.6477689308839
 31
0.0
 11
199.3346206431788
 21
345.7166016460587
 31
0.0
 11
199.0716111708896
 21
345.8009828635288
 31
0.0
 11
198.8288018811627
 21
345.8954035822372
 31
0.0
 11
198.5923808644842
 21
346.00516896684
 31
0.0
 11
198.3815156382558
 21
346.1208123004308
 31
0.0
 11
198.1797873416535
 21
346.250993248711
 31
0.0
 11
198.007969098918
 21
346.3816282769271
 31
0.0
 11
197.8472274849054
 21
346.5275776945238
 31
0.0
 11
197.6178086720923
 21
346.8048202730478
 31
0.0
 11
197.4654542163
 21
347.1255046406
 31
0.0
  0
SPLINE
  5
120
330
1F
100
AcDbEntity
  8
AUSFORMSCHRAEGEN
  6
Continuous
 62
     7
100
AcDbSpline
210
0.0
220
0.0
230
1.0
 70
     8
 71
     3
 72
    11
 73
     7
 74
     5
 42
0.0000000001
 43
0.0000000001
 44
0.00000001
 40
0.0
 40
0.0
 40
0.0
 40
0.0
 40
0.1626999568476984
 40
0.3254238112303675
 40
0.8155914045107107
 40
1.305705661706005
 40
1.305705661706005
 40
1.305705661706005
 40
1.305705661706005
 10
209.852108433741
 20
344.859284205174
 30
0.0
 10
209.8517868695243
 20
344.9135195227504
 30
0.0
 10
209.8511436938591
 20
345.0219981240417
 30
0.0
 10
209.8422865476266
 20
345.2937241013961
 30
0.0
 10
209.8161310817026
 20
345.6742188827282
 30
0.0
 10
209.7686057368331
 20
345.9976016299456
 30
0.0
 10
209.7448443573
 20
346.1592842061
 30
0.0
 11
209.852108433741
 21
344.859284205174
 31
0.0
 11
209.850421133099
 21
345.0219754126032
 31
0.0
 11
209.8453548927547
 21
345.1846203817659
 31
0.0
 11
209.8098558039473
 21
345.6735008213379
 31
0.0
 11
209.7448443573
 21
346.1592842061
 31
0.0
  0
SPLINE
  5
121
330
1F
100
AcDbEntity
  8
AUSFORMSCHRAEGEN
  6
Continuous
 62
     7
100
AcDbSpline
210
0.0
220
0.0
230
1.0
 70
     8
 71
     3
 72
     9
 73
     5
 74
     3
 42
0.0000000001
 43
0.0000000001
 44
0.00000001
 40
0.0
 40
0.0
 40
0.0
 40
0.0
 40
1.526803433765628
 40
3.0536068756521
 40
3.0536068756521
 40
3.0536068756521
 40
3.0536068756521
 10
209.7448443573
 20
346.1592842061
 30
0.0
 10
209.483759754088
 20
346.5961470438244
 30
0.0
 10
208.9615905462752
 20
347.469872721597
 30
0.0
 10
208.439058617955
 20
348.3433815226247
 30
0.0
 10
208.1777926531
 20
348.7801359243
 30
0.0
 11
209.7448443573
 21
346.1592842061
 31
0.0
 11
208.9614998675375
 21
347.4698185000875
 31
0.0
 11
208.1777926531
 21
348.7801359243
 31
0.0
  0
SPLINE
  5
122
330
1F
100
AcDbEntity
  8
AUSFORMSCHRAEGEN
  6
Continuous
 62
     7
100
AcDbSpline
210
0.0
220
0.0
230
1.0
 70
     8
 71
     3
 72
    27
 73
    23
 74
    21
 42
0.0000000001
 43
0.0000000001
 44
0.00000001
 40
0.0
 40
0.0
 40
0.0
 40
0.0
 40
0.0918464867299839
 40
0.1837697007630401
 40
0.2720118944809263
 40
0.3602186622418803
 40
0.4479895929222548
 40
0.5357771448531841
 40
0.6264822399182206
 40
0.717194933594219
 40
0.9177719104398419
 40
1.119241390202828
 40
1.357324031646393
 40
1.595228486811999
 40
1.872879958639331
 40
2.150589767647804
 40
2.463077980254444
 40
2.77555066871749
 40
3.11367135210532
 40
3.451811748302576
 40
3.803251954907212
 40
4.154634097462778
 40
4.154634097462778
 40
4.154634097462778
 40
4.154634097462778
 10
197.4654542163
 20
347.1255046406
 30
0.0
 10
197.4576580046518
 20
347.155136028836
 30
0.0
 10
197.4420590685063
 20
347.2144235589658
 30
0.0
 10
197.4302484975891
 20
347.304573553648
 30
0.0
 10
197.4277718193656
 20
347.3941410059142
 30
0.0
 10
197.435262252427
 20
347.4821003778846
 30
0.0
 10
197.4528029527851
 20
347.5684459792981
 30
0.0
 10
197.4800973993715
 20
347.6530886938277
 30
0.0
 10
197.516990273629
 20
347.7350881775367
 30
0.0
 10
197.581083254801
 20
347.8453359035774
 30
0.0
 10
197.6852935376658
 20
347.9737511570098
 30
0.0
 10
197.8456287053574
 20
348.1155214011323
 30
0.0
 10
198.0340256723078
 20
348.2412481558086
 30
0.0
 10
198.2579465454299
 20
348.3559381159059
 30
0.0
 10
198.5033294278219
 20
348.4553321006646
 30
0.0
 10
198.7792341253603
 20
348.5429937412536
 30
0.0
 10
199.0713334750724
 20
348.6159755289546
 30
0.0
 10
199.3867906965538
 20
348.6762198253965
 30
0.0
 10
199.7132063837659
 20
348.7226704922206
 30
0.0
 10
200.0542560818963
 20
348.7556932651605
 30
0.0
 10
200.4007610750249
 20
348.7763544500189
 30
0.0
 10
200.6350501835155
 20
348.7788755022989
 30
0.0
 10
200.7521850598
 20
348.7801359243
 30
0.0
 11
197.4654542163
 21
347.1255046406
 31
0.0
 11
197.4439689362586
 21
347.2148027921273
 31
0.0
 11
197.4316922412855
 21
347.3059025179156
 31
0.0
 11
197.4294297973252
 21
347.3941157034349
 31
0.0
 11
197.4369614050422
 21
347.4820003366994
 31
0.0
 11
197.4543819233064
 21
347.5680251111304
 31
0.0
 11
197.4812893966574
 21
347.6515873164142
 31
0.0
 11
197.5183833725604
 21
347.7343608098917
 31
0.0
 11
197.5638841330133
 21
347.8128367526523
 31
0.0
 11
197.6890063534182
 21
347.9696026724227
 31
0.0
 11
197.8390087535916
 21
348.1040988850764
 31
0.0
 11
198.0363408555699
 21
348.2373031856285
 31
0.0
 11
198.2474776636224
 21
348.3469379341028
 31
0.0
 11
198.5045030993758
 21
348.4519534814456
 31
0.0
 11
198.7689192715866
 21
348.536846507619
 31
0.0
 11
199.071956500365
 21
348.6131178717892
 31
0.0
 11
199.3787776826418
 21
348.672278189077
 31
0.0
 11
199.7134909506664
 21
348.7201595502
 31
0.0
 11
200.0500103968691
 21
348.7532290205293
 31
0.0
 11
200.4008656217227
 21
348.7734979625637
 31
0.0
 11
200.7521850598
 21
348.7801359243
 31
0.0
  0
SPLINE
  5
123
330
1F
100
AcDbEntity
  8
AUSFORMSCHRAEGEN
  6
Continuous
 62
     7
100
AcDbSpline
210
0.0
220
0.0
230
1.0
 70
     8
 71
     3
 72
     9
 73
     5
 74
     3
 42
0.0000000001
 43
0.0000000001
 44
0.00000001
 40
0.0
 40
0.0
 40
0.0
 40
0.0
 40
1.526803441886485
 40
3.0536068756521
 40
3.0536068756521
 40
3.0536068756521
 40
3.0536068756521
 10
208.1777926531
 20
309.5883128709
 30
0.0
 10
208.439058617955
 20
310.0250672725753
 30
0.0
 10
208.9615905462753
 20
310.8985760736029
 30
0.0
 10
209.483759754088
 20
311.7723017513756
 30
0.0
 10
209.7448443573
 20
312.2091645891
 30
0.0
 11
208.1777926531
 21
309.5883128709
 31
0.0
 11
208.9614998675375
 21
310.8986302951125
 31
0.0
 11
209.7448443573
 21
312.2091645891
 31
0.0
  0
SPLINE
  5
124
330
1F
100
AcDbEntity
  8
AUSFORMSCHRAEGEN
  6
Continuous
 62
     7
100
AcDbSpline
210
0.0
220
0.0
230
1.0
 70
     8
 71
     3
 72
    11
 73
     7
 74
     5
 42
0.0000000001
 43
0.0000000001
 44
0.00000001
 40
0.0
 40
0.0
 40
0.0
 40
0.0
 40
0.1626999568100132
 40
0.3254238111873985
 40
0.8155914044676849
 40
1.305705661663035
 40
1.305705661663035
 40
1.305705661663035
 40
1.305705661663035
 10
209.852108433741
 20
313.509164588217
 30
0.0
 10
209.8517868695242
 20
313.5633999057809
 30
0.0
 10
209.8511436938588
 20
313.6718785070579
 30
0.0
 10
209.8422865476264
 20
313.9436044843978
 30
0.0
 10
209.8161310817026
 20
314.3240992657281
 30
0.0
 10
209.7686057368332
 20
314.6474820129456
 30
0.0
 10
209.7448443573
 20
314.8091645891
 30
0.0
 11
209.852108433741
 21
313.509164588217
 31
0.0
 11
209.850421133099
 21
313.6718557956086
 31
0.0
 11
209.8453548927547
 21
313.8345007647659
 31
0.0
 11
209.8098558039473
 21
314.3233812043379
 31
0.0
 11
209.7448443573
 21
314.8091645891
 31
0.0
  0
SPLINE
  5
125
330
1F
100
AcDbEntity
  8
AUSFORMSCHRAEGEN
  6
Continuous
 62
     7
100
AcDbSpline
210
0.0
220
0.0
230
1.0
 70
     8
 71
     3
 72
    11
 73
     7
 74
     5
 42
0.0000000001
 43
0.0000000001
 44
0.00000001
 40
0.0
 40
0.0
 40
0.0
 40
0.0
 40
0.4227224339801921
 40
0.8465976551989749
 40
1.315562239160979
 40
1.783824138639504
 40
1.783824138639504
 40
1.783824138639504
 40
1.783824138639504
 10
200.9618972696
 20
312.5433300628
 30
0.0
 10
201.0928470592237
 20
312.4907497280345
 30
0.0
 10
201.3551037457223
 20
312.3854456690497
 30
0.0
 10
201.7836987987853
 20
312.2868936165762
 30
0.0
 10
202.2333477019612
 20
312.2208830228353
 30
0.0
 10
202.5459329767378
 20
312.2130687807721
 30
0.0
 10
202.7021084339
 20
312.2091645891
 30
0.0
 11
200.9618972696
 21
312.5433300628
 31
0.0
 11
201.3581261901141
 21
312.3960313909174
 31
0.0
 11
201.7699284573932
 21
312.2955868996445
 31
0.0
 11
202.2343225357541
 21
312.2302728812873
 31
0.0
 11
202.7021084339
 21
312.2091645891
 31
0.0
  0
SPLINE
  5
126
330
1F
100
AcDbEntity
  8
AUSFORMSCHRAEGEN
  6
Continuous
 62
     7
100
AcDbSpline
210
0.0
220
0.0
230
1.0
 70
     8
 71
     3
 72
    39
 73
    35
 74
    33
 42
0.0000000001
 43
0.0000000001
 44
0.00000001
 40
0.0
 40
0.0
 40
0.0
 40
0.0
 40
0.3231603793608221
 40
0.6466351130245529
 40
0.9700050415133296
 40
1.293286555265066
 40
1.616038460976853
 40
1.938815989530657
 40
2.26139429650909
 40
2.583962775891452
 40
2.906524066287262
 40
3.229088153507633
 40
3.551900674328291
 40
3.874712787306323
 40
4.197891977282654
 40
4.521071505221156
 40
4.844528740239269
 40
5.1679852906155
 40
5.491442179652394
 40
5.81489975240681
 40
6.138079436035922
 40
6.46125877922031
 40
6.784070946437147
 40
7.106883540347189
 40
7.429448153448567
 40
7.752009920637932
 40
8.07457891463253
 40
8.397157829830652
 40
8.71993532281468
 40
9.042687084424845
 40
9.365969693742745
 40
9.68934070988604
 40
10.01281689348556
 40
10.3359789105797
 40
10.3359789105797
 40
10.3359789105797
 40
10.3359789105797
 10
201.8521136028
 20
325.9246314705
 30
0.0
 10
201.7443535505696
 20
325.9276247154922
 30
0.0
 10
201.5287286225034
 20
325.933614117156
 30
0.0
 10
201.2082190499714
 20
325.9815934824979
 30
0.0
 10
200.893545815688
 20
326.057751872323
 30
0.0
 10
200.5878695380959
 20
326.1641843761913
 30
0.0
 10
200.2940426108399
 20
326.2993441389748
 30
0.0
 10
200.0147739139778
 20
326.4620513849488
 30
0.0
 10
199.7526275860546
 20
326.651004450504
 30
0.0
 10
199.5101043835807
 20
326.864466122134
 30
0.0
 10
199.2896998105151
 20
327.1006979367779
 30
0.0
 10
199.0935001657049
 20
327.3574969610587
 30
0.0
 10
198.9237023559119
 20
327.6325729392946
 30
0.0
 10
198.7819452987837
 20
327.9233288537837
 30
0.0
 10
198.6700017128342
 20
328.2269497840833
 30
0.0
 10
198.58897081424
 20
328.5404669796831
 30
0.0
 10
198.5400221652192
 20
328.8606630164745
 30
0.0
 10
198.5235732217922
 20
329.1842555807613
 30
0.0
 10
198.5400283290623
 20
329.5078479467004
 30
0.0
 10
198.5889832046387
 20
329.8280433173431
 30
0.0
 10
198.6700203539505
 20
330.141559124157
 30
0.0
 10
198.7819700357944
 20
330.4451779366558
 30
0.0
 10
198.9237329151937
 20
330.735931114917
 30
0.0
 10
199.0935362264694
 20
331.0110039467655
 30
0.0
 10
199.2897409874347
 20
331.2677995107925
 30
0.0
 10
199.5101504941231
 20
331.5040274300778
 30
0.0
 10
199.7526784934877
 20
331.7174844690521
 30
0.0
 10
200.0148287744392
 20
331.9064326170767
 30
0.0
 10
200.2941001635571
 20
332.0691354783936
 30
0.0
 10
200.5879297656511
 20
332.2042902990644
 30
0.0
 10
200.8936093068601
 20
332.3107156320977
 30
0.0
 10
201.2082857714672
 20
332.3868660432402
 30
0.0
 10
201.5287978442586
 20
332.4348369978388
 30
0.0
 10
201.7444237832109
 20
332.4408248521377
 30
0.0
 10
201.8521843722
 20
332.4438173247
 30
0.0
 11
201.8521136028
 21
325.9246314705
 31
0.0
 11
201.5293238230358
 21
325.9401036671263
 31
0.0
 11
201.2091642737211
 21
325.9862963754404
 31
0.0
 11
200.894978817597
 21
326.0628183318379
 31
0.0
 11
200.589649967515
 21
326.1690502970897
 31
0.0
 11
200.296441478674
 21
326.3039486837077
 31
0.0
 11
200.0175634327516
 21
326.4664675085922
 31
0.0
 11
199.7558858246908
 21
326.6550983479918
 31
0.0
 11
199.5137885113748
 21
326.868263342248
 31
0.0
 11
199.2937427874733
 21
327.1041142813059
 31
0.0
 11
199.0979553452883
 21
327.3604633945225
 31
0.0
 11
198.9283919516256
 21
327.6351562759887
 31
0.0
 11
198.7869702732059
 21
327.9253416807876
 31
0.0
 11
198.6751648003471
 21
328.2285649072604
 31
0.0
 11
198.594339564914
 21
328.5414743008486
 31
0.0
 11
198.5454410922623
 21
328.8612140735668
 31
0.0
 11
198.5290572263739
 21
329.1842554159982
 31
0.0
 11
198.545447266501
 21
329.5072967843244
 31
0.0
 11
198.5943519756833
 21
329.8270359448787
 31
0.0
 11
198.6751834210689
 21
330.1399438951572
 31
0.0
 11
198.7869949819334
 21
330.4431650400632
 31
0.0
 11
198.9284224436762
 21
330.7333476866295
 31
0.0
 11
199.0979912446148
 21
331.0080373160937
 31
0.0
 11
199.2937839297842
 21
331.2643830866057
 31
0.0
 11
199.5138345864841
 21
331.5002300754317
 31
0.0
 11
199.7559365903083
 21
331.7133905211786
 31
0.0
 11
200.0176182933776
 21
331.9020167198074
 31
0.0
 11
200.2964990340124
 21
332.0645308499007
 31
0.0
 11
200.5897098501339
 21
332.1994238331572
 31
0.0
 11
200.895042220913
 21
332.3056490130431
 31
0.0
 11
201.2092307250781
 21
332.3821630505267
 31
0.0
 11
201.5293927935302
 21
332.4283484516899
 31
0.0
 11
201.8521843722
 21
332.4438173247
 31
0.0
  0
SPLINE
  5
127
330
1F
100
AcDbEntity
  8
AUSFORMSCHRAEGEN
  6
Continuous
 62
     7
100
AcDbSpline
210
0.0
220
0.0
230
1.0
 70
     8
 71
     3
 72
    27
 73
    23
 74
    21
 42
0.0000000001
 43
0.0000000001
 44
0.00000001
 40
0.0
 40
0.0
 40
0.0
 40
0.0
 40
0.3511800548723882
 40
0.7024182167454374
 40
1.040409086096649
 40
1.378380142287089
 40
1.690721041889891
 40
2.00307721194363
 40
2.28070901005658
 40
2.558283751776692
 40
2.796152716451649
 40
3.034196470569591
 40
3.235644588995175
 40
3.436208525484108
 40
3.526900944841228
 40
3.617582659158495
 40
3.705335475232402
 40
3.793075697192588
 40
3.881218684167025
 40
3.969392432117218
 40
4.061245513266981
 40
4.153024726143181
 40
4.153024726143181
 40
4.153024726143181
 40
4.153024726143181
 10
202.7021143053
 20
309.5883128709
 30
0.0
 10
202.5850468033371
 20
309.5895725608009
 30
0.0
 10
202.3508924291729
 20
309.5920921490336
 30
0.0
 10
202.0045714903621
 20
309.612735477946
 30
0.0
 10
201.6636864233563
 20
309.6457231544944
 30
0.0
 10
201.3374093088201
 20
309.6921268952618
 30
0.0
 10
201.0220816335772
 20
309.7523136954551
 30
0.0
 10
200.7300822696941
 20
309.8252235217375
 30
0.0
 10
200.4542493899319
 20
309.9127935403835
 30
0.0
 10
200.2088934759579
 20
310.0120824460386
 30
0.0
 10
199.9849660282893
 20
310.126646582201
 30
0.0
 10
199.7965207214785
 20
310.2522402804783
 30
0.0
 10
199.636097788663
 20
310.3938718959812
 30
0.0
 10
199.5317684434008
 20
310.5221605346956
 30
0.0
 10
199.4675297415844
 20
310.6323006011618
 30
0.0
 10
199.4305281839868
 20
310.7142227742004
 30
0.0
 10
199.4031324993916
 20
310.7988018161129
 30
0.0
 10
199.385474461545
 20
310.8850780543821
 30
0.0
 10
199.3778161620897
 20
310.972967032801
 30
0.0
 10
199.3801146004794
 20
311.0624729416401
 30
0.0
 10
199.3917884418378
 20
311.1525725082274
 30
0.0
 10
199.4072928678259
 20
311.2118373170005
 30
0.0
 10
199.4150419624
 20
311.2414578014
 30
0.0
 11
202.7021143053
 21
309.5883128709
 31
0.0
 11
202.3509968966038
 21
309.5949458378569
 31
0.0
 11
202.0003429140321
 21
309.6151950566703
 31
0.0
 11
201.6639704749929
 21
309.6482315519389
 31
0.0
 11
201.3294014663033
 21
309.6960647333814
 31
0.0
 11
201.02270342952
 21
309.7551676250025
 31
0.0
 11
200.7197822907485
 21
309.8313592298945
 31
0.0
 11
200.4554206471047
 21
309.9161668751474
 31
0.0
 11
200.1984309401435
 21
310.021066959785
 31
0.0
 11
199.987274856547
 21
310.130587518201
 31
0.0
 11
199.7898938101022
 21
310.2636497268815
 31
0.0
 11
199.6398020183783
 21
310.3980141510208
 31
0.0
 11
199.5145190507536
 21
310.5546349371352
 31
0.0
 11
199.4689203348318
 21
310.6330305494814
 31
0.0
 11
199.4317183688559
 21
310.7157299269824
 31
0.0
 11
199.4047084462838
 21
310.799222566248
 31
0.0
 11
199.3871636519156
 21
310.8851907390808
 31
0.0
 11
199.3794726761085
 21
310.9729975443063
 31
0.0
 11
199.3815677225397
 21
311.0611463991374
 31
0.0
 11
199.3936975401296
 21
311.1521950457058
 31
0.0
 11
199.4150419624
 21
311.2414578014
 31
0.0
  0
SPLINE
  5
128
330
1F
100
AcDbEntity
  8
AUSFORMSCHRAEGEN
  6
Continuous
 62
     7
100
AcDbSpline
210
0.0
220
0.0
230
1.0
 70
     8
 71
     3
 72
    11
 73
     7
 74
     5
 42
0.0000000001
 43
0.0000000001
 44
0.00000001
 40
0.0
 40
0.0
 40
0.0
 40
0.0
 40
0.4679622720875758
 40
0.9366253978340124
 40
1.360284420987464
 40
1.7827941118984
 40
1.7827941118984
 40
1.7827941118984
 40
1.7827941118984
 10
200.7521084356
 20
346.1592842061
 30
0.0
 10
200.5960330575055
 20
346.155384848402
 30
0.0
 10
200.2836485517038
 20
346.1475802930498
 30
0.0
 10
199.834263949322
 20
346.0816541676079
 30
0.0
 10
199.4058941428235
 20
345.9832229789624
 30
0.0
 10
199.1437381120957
 20
345.8780548752179
 30
0.0
 10
199.0128381371
 20
345.8255422471
 30
0.0
 11
200.7521084356
 21
346.1592842061
 31
0.0
 11
200.2846212498368
 21
346.1382029527086
 31
0.0
 11
199.8205194426763
 21
346.0729753663299
 31
0.0
 11
199.4089099303554
 21
345.9726529995999
 31
0.0
 11
199.0128381371
 21
345.8255422471
 31
0.0
  0
SPLINE
  5
129
330
1F
100
AcDbEntity
  8
BEZUGSACHSEN
  6
Continuous
 62
     7
100
AcDbSpline
210
0.0
220
0.0
230
1.0
 70
     8
 71
     3
 72
    15
 73
    11
 74
     9
 42
0.0000000001
 43
0.0000000001
 44
0.00000001
 40
0.0
 40
0.0
 40
0.0
 40
0.0
 40
0.9592794727455554
 40
1.918698757739432
 40
2.733413612637074
 40
3.548061682611606
 40
4.096465872369357
 40
4.644852382949068
 40
4.839161107530146
 40
5.033464909270723
 40
5.033464909270723
 40
5.033464909270723
 40
5.033464909270723
 10
116.8521084337
 20
353.6791218254
 30
0.0
 10
116.5323290679195
 20
353.6827499883591
 30
0.0
 10
115.8927237294276
 20
353.6900068430718
 30
0.0
 10
114.9829136076864
 20
353.7454210794293
 30
0.0
 10
114.1236697376406
 20
353.8261435355773
 30
0.0
 10
113.4033982897385
 20
353.9176881836515
 30
0.0
 10
112.7735977579821
 20
354.0144127607598
 30
0.0
 10
112.3496424817295
 20
354.088614199988
 30
0.0
 10
112.0427186800334
 20
354.1465055996688
 30
0.0
 10
111.9156446458977
 20
354.1716515711371
 30
0.0
 10
111.8521084337
 20
354.1842243976
 30
0.0
 11
116.8521084337
 21
353.6791218254
 31
0.0
 11
115.8930130732925
 21
353.6979153475749
 31
0.0
 11
114.935235307242
 21
353.7540145033393
 31
0.0
 11
114.1241249898523
 21
353.8305674119377
 31
0.0
 11
113.3159489221144
 21
353.9330511738169
 31
0.0
 11
112.773899772168
 21
354.0162970408989
 31
0.0
 11
112.2337016481482
 21
354.110709708435
 31
0.0
 11
112.0427720813266
 21
354.1467899102315
 31
0.0
 11
111.8521084337
 21
354.1842243976
 31
0.0
  0
SPLINE
  5
12A
330
1F
100
AcDbEntity
  8
BEZUGSACHSEN
  6
Continuous
 62
     7
100
AcDbSpline
210
0.0
220
0.0
230
1.0
 70
     8
 71
     3
 72
    15
 73
    11
 74
     9
 42
0.0000000001
 43
0.0000000001
 44
0.00000001
 40
0.0
 40
0.0
 40
0.0
 40
0.0
 40
0.1942981503450219
 40
0.3886012245623603
 40
0.936979239970937
 40
1.485374928825757
 40
2.30002737211947
 40
3.11474661860121
 40
4.074175664712375
 40
5.033464878729681
 40
5.033464878729681
 40
5.033464878729681
 40
5.033464878729681
 10
121.8521084337
 20
354.1842243976
 30
0.0
 10
121.7885740677738
 20
354.1716519455754
 30
0.0
 10
121.6615037258437
 20
354.1465067229171
 30
0.0
 10
121.3545864275714
 20
354.0886164489093
 30
0.0
 10
120.9306386446213
 20
354.0144159938841
 30
0.0
 10
120.3008423719358
 20
353.9176914066782
 30
0.0
 10
119.5805708885109
 20
353.8261462966682
 30
0.0
 10
118.7213209119926
 20
353.7454228601651
 30
0.0
 10
117.8115028874694
 20
353.6900072560182
 30
0.0
 10
117.1718910471076
 20
353.6827501259779
 30
0.0
 10
116.8521084337
 20
353.6791218254
 30
0.0
 11
121.8521084337
 21
354.1842243976
 31
0.0
 11
121.6614503292814
 21
354.1467910108045
 31
0.0
 11
121.4705263250583
 21
354.1107118026403
 31
0.0
 11
120.93033663557
 21
354.0163002188489
 31
0.0
 11
120.3882959689711
 21
353.9330551150439
 31
0.0
 11
119.5801156367824
 21
353.8305702184599
 31
0.0
 11
118.7690009920196
 21
353.7540164227408
 31
0.0
 11
117.811213525537
 21
353.6979159452856
 31
0.0
 11
116.8521084337
 21
353.6791218254
 31
0.0
  0
SPLINE
  5
12B
330
1F
100
AcDbEntity
  8
FASEN
  6
Continuous
 62
     7
100
AcDbSpline
210
0.0
220
0.0
230
1.0
 70
     8
 71
     3
 72
    43
 73
    39
 74
    37
 42
0.0000000001
 43
0.0000000001
 44
0.00000001
 40
0.0
 40
0.0
 40
0.0
 40
0.0
 40
0.3536627138529061
 40
0.7077087110917548
 40
1.061386016607981
 40
1.414940912939862
 40
1.768273600879134
 40
2.12167934075589
 40
2.474990473716946
 40
2.828124790675727
 40
3.004861640054027
 40
3.181542282371787
 40
3.358289604688269
 40
3.53509262797233
 40
3.888693190976363
 40
4.242467023578927
 40
4.59637940293571
 40
4.95024737345309
 40
5.303947628043558
 40
5.65766139911034
 40
6.010712555488196
 40
6.36374720068256
 40
6.715806091049068
 40
7.067909115896096
 40
7.419215040208903
 40
7.770346273679402
 40
7.94585477913265
 40
8.121308709965563
 40
8.29675923330818
 40
8.472264989731961
 40
8.823345921607322
 40
9.174601594748406
 40
9.526721241898054
 40
9.878775142200045
 40
10.23179857972583
 40
10.5849361321318
 40
10.93889559955873
 40
11.29248564897086
 40
11.29248564897086
 40
11.29248564897086
 40
11.29248564897086
 10
98.7528600222
 20
329.1842243976
 30
0.0
 10
98.75618984902195
 20
329.3021617073413
 30
0.0
 10
98.762853111379
 20
329.5381641418567
 30
0.0
 10
98.81718906664292
 20
329.8886484490853
 30
0.0
 10
98.90313229217448
 20
330.232260915266
 30
0.0
 10
99.02301943697665
 20
330.5654984182499
 30
0.0
 10
99.17506829838962
 20
330.8851699084419
 30
0.0
 10
99.35788221482309
 20
331.1882377138946
 30
0.0
 10
99.56974541051642
 20
331.4716444628545
 30
0.0
 10
99.76867984969995
 20
331.6893590619525
 30
0.0
 10
99.9400603248426
 20
331.8510206310059
 30
0.0
 10
100.0744868486128
 20
331.965851280668
 30
0.0
 10
100.2144051155807
 20
332.0739586027094
 30
0.0
 10
100.407859467606
 20
332.208774210405
 30
0.0
 10
100.6619042662146
 20
332.3592037167261
 30
0.0
 10
100.9829326807765
 20
332.5091322352798
 30
0.0
 10
101.3171915439763
 20
332.6269619149878
 30
0.0
 10
101.6612923528148
 20
332.7117221498511
 30
0.0
 10
102.0119441569613
 20
332.7625661655058
 30
0.0
 10
102.3656006860426
 20
332.7791802748784
 30
0.0
 10
102.7189726711484
 20
332.7613190123113
 30
0.0
 10
103.0684047391062
 20
332.709358690873
 30
0.0
 10
103.410795477111
 20
332.6236451542154
 30
0.0
 10
103.7426818888253
 20
332.5051989441501
 30
0.0
 10
104.0610694034843
 20
332.3549438141091
 30
0.0
 10
104.3127057796195
 20
332.2045321659953
 30
0.0
 10
104.5042016730224
 20
332.0698590980997
 30
0.0
 10
104.6426526055941
 20
331.9619380623992
 30
0.0
 10
104.7756507194185
 20
331.847365777398
 30
0.0
 10
104.9452814320694
 20
331.6860463354805
 30
0.0
 10
105.1421522371153
 20
331.4688666643224
 30
0.0
 10
105.3518789776563
 20
331.1861189226893
 30
0.0
 10
105.5328393209961
 20
330.8837405150226
 30
0.0
 10
105.6834711392357
 20
330.5645498458017
 30
0.0
 10
105.8023029382019
 20
330.2317761798563
 30
0.0
 10
105.8875480773785
 20
329.8883915534005
 30
0.0
 10
105.9413832374207
 20
329.5380807878997
 30
0.0
 10
105.9480334667219
 20
329.3021354646361
 30
0.0
 10
105.9513568453
 20
329.1842243976
 30
0.0
 11
98.7528600222
 21
329.1842243976
 31
0.0
 11
98.77023318598808
 21
329.5374601380763
 31
0.0
 11
98.82248375506259
 21
329.8876293060397
 31
0.0
 11
98.90881262901135
 21
330.230608841814
 31
0.0
 11
99.02841352444568
 21
330.5633199635571
 31
0.0
 11
99.18019037781379
 21
330.8823932704132
 31
0.0
 11
99.3627481020101
 21
331.1849958056209
 31
0.0
 11
99.57425979665314
 21
331.468000328029
 31
0.0
 11
99.81248715898074
 21
331.7286755467445
 31
0.0
 11
99.94104591264963
 21
331.849954402211
 31
0.0
 11
100.0753819381013
 21
331.9647145069324
 31
0.0
 11
100.2152463554731
 21
332.0727772697108
 31
0.0
 11
100.3603038237403
 21
332.1738596120971
 31
0.0
 11
100.6645352598885
 21
332.3540722404447
 31
0.0
 11
100.985081455886
 21
332.5037587824778
 31
0.0
 11
101.3188502134481
 21
332.6214549537725
 31
0.0
 11
101.6624498802928
 21
332.7060824286393
 31
0.0
 11
102.012485774995
 21
332.7568637491954
 31
0.0
 11
102.3658112115631
 21
332.7734338341736
 31
0.0
 11
102.7184129373647
 21
332.7556253535666
 31
0.0
 11
103.0676020144389
 21
332.7036595074792
 31
0.0
 11
103.4091227657571
 21
332.6181665913686
 31
0.0
 11
103.7407251420675
 21
332.499775695892
 31
0.0
 11
104.05843378182
 21
332.3498521397579
 31
0.0
 11
104.3597955959673
 21
332.1696461462606
 31
0.0
 11
104.5033615615713
 21
332.0686904678337
 31
0.0
 11
104.641744893926
 21
331.960828819547
 31
0.0
 11
104.774669771626
 21
331.8463130432118
 31
0.0
 11
104.9018423961415
 21
331.7253610109357
 31
0.0
 11
105.1376605079752
 21
331.4652694138826
 31
0.0
 11
105.3468940051594
 21
331.1831313420633
 31
0.0
 11
105.5277488944002
 21
330.8810059459999
 31
0.0
 11
105.6780264590546
 21
330.5626372881842
 31
0.0
 11
105.7966631728302
 21
330.2301453670988
 31
0.0
 11
105.8822517819
 21
329.887536667681
 31
0.0
 11
105.9340789868235
 21
329.5373920612525
 31
0.0
 11
105.9513568453
 21
329.1842243976
 31
0.0
  0
SPLINE
  5
12C
330
1F
100
AcDbEntity
  8
0
  6
Continuous
 62
     7
100
AcDbSpline
210
0.0
220
0.0
230
1.0
 70
     8
 71
     3
 72
    27
 73
    23
 74
    21
 42
0.0000000001
 43
0.0000000001
 44
0.00000001
 40
0.0
 40
0.0
 40
0.0
 40
0.0
 40
0.0730306819496527
 40
0.1460817688391432
 40
0.2142068183046227
 40
0.2823160954326999
 40
0.3442738269415412
 40
0.4062919406131075
 40
0.4617913416608685
 40
0.5170559905191033
 40
0.5428520623244205
 40
0.5686432246677778
 40
0.5939867602525554
 40
0.6193292497830712
 40
0.6451121206547984
 40
0.6708991015310035
 40
0.6979696845785669
 40
0.7250453874792376
 40
0.7848430773868827
 40
0.8448837206188757
 40
0.9129318641043339
 40
0.9808740945233718
 40
0.9808740945233718
 40
0.9808740945233718
 40
0.9808740945233718
 10
85.6401791647
 20
321.4482666916
 30
0.0
 10
85.62034679047103
 20
321.4341413574597
 30
0.0
 10
85.5806765008023
 20
321.4058867425284
 30
0.0
 10
85.51990849067278
 20
321.3682948645716
 30
0.0
 10
85.45854122220712
 20
321.3350269631184
 30
0.0
 10
85.39821988229951
 20
321.3079073150299
 30
0.0
 10
85.33773003180119
 20
321.2866421148888
 30
0.0
 10
85.2792866530122
 20
321.2731259068428
 30
0.0
 10
85.22178006935641
 20
321.2676145061156
 30
0.0
 10
85.17606107284342
 20
321.2707824108735
 30
0.0
 10
85.14128591606288
 20
321.2787432680768
 30
0.0
 10
85.11699348884312
 20
321.2871308316285
 30
0.0
 10
85.09397510348356
 20
321.2982187163518
 30
0.0
 10
85.07240405790567
 20
321.3119113242555
 30
0.0
 10
85.05253072177008
 20
321.3282048407486
 30
0.0
 10
85.03426117939216
 20
321.3470789472959
 30
0.0
 10
85.01795960831649
 20
321.3682240577318
 30
0.0
 10
84.9979391003617
 20
321.4005617593676
 30
0.0
 10
84.97837188018286
 20
321.4457825168197
 30
0.0
 10
84.96262934812673
 20
321.5065469764372
 30
0.0
 10
84.95351244104441
 20
321.5714350105049
 30
0.0
 10
84.95257619308953
 20
321.6167837802606
 30
0.0
 10
84.9521084337
 20
321.6394405057
 30
0.0
 11
85.6401791647
 21
321.4482666916
 31
0.0
 11
85.58023930881383
 21
321.4065450643262
 31
0.0
 11
85.51815063116683
 21
321.3680553591599
 31
0.0
 11
85.45815726240546
 21
321.3357781525067
 31
0.0
 11
85.39597121030414
 21
321.3079974297846
 31
0.0
 11
85.3374170200872
 21
321.2877448422522
 31
0.0
 11
85.27692853507058
 21
321.2740558100083
 31
0.0
 11
85.22164734489795
 21
321.2691391516149
 31
0.0
 11
85.1665471250811
 21
321.2733991034408
 31
0.0
 11
85.14140920899061
 21
321.2791889648565
 31
0.0
 11
85.11704448878065
 21
321.2876473609285
 31
0.0
 11
85.09421422073174
 21
321.2986507084534
 31
0.0
 11
85.07282600283537
 21
321.3122443066092
 31
0.0
 11
85.05286786270615
 21
321.3285669618151
 31
0.0
 11
85.03491638429215
 21
321.3470794658451
 31
0.0
 11
85.01834278417624
 21
321.3684834898997
 31
0.0
 11
85.00404729439565
 21
321.3914776774153
 31
0.0
 11
84.9798782699577
 21
321.4461733991493
 31
0.0
 11
84.96434946935491
 21
321.5041711162729
 31
0.0
 11
84.95485669454429
 21
321.5715538815635
 31
0.0
 11
84.9521084337
 21
321.6394405057
 31
0.0
  0
SPLINE
  5
12D
330
1F
100
AcDbEntity
  8
0
  6
Continuous
 62
     7
100
AcDbSpline
210
0.0
220
0.0
230
1.0
 70
     8
 71
     3
 72
    11
 73
     7
 74
     5
 42
0.0000000001
 43
0.0000000001
 44
0.00000001
 40
0.0
 40
0.0
 40
0.0
 40
0.0
 40
0.0719820116788328
 40
0.1441794862678571
 40
0.216307879565224
 40
0.2883301029082102
 40
0.2883301029082102
 40
0.2883301029082102
 40
0.2883301029082102
 10
85.9020711914
 20
321.3357118516
 30
0.0
 10
85.87834435819934
 20
321.3396150387711
 30
0.0
 10
85.83081967054683
 20
321.3474330964774
 30
0.0
 10
85.76295300232148
 20
321.3728668202666
 30
0.0
 10
85.69871618501375
 20
321.40609435048
 30
0.0
 10
85.65968192161985
 20
321.4342161486582
 30
0.0
 10
85.6401791647
 20
321.4482666916
 30
0.0
 11
85.9020711914
 21
321.3357118516
 31
0.0
 11
85.83146106485522
 21
321.3496982748262
 31
0.0
 11
85.76353938244132
 21
321.3741752108089
 31
0.0
 11
85.69962757395108
 21
321.4076085153893
 31
0.0
 11
85.6401791647
 21
321.4482666916
 31
0.0
  0
SPLINE
  5
12E
330
1F
100
AcDbEntity
  8
RUNDUNGEN
  6
Continuous
 62
     7
100
AcDbSpline
210
0.0
220
0.0
230
1.0
 70
     8
 71
     3
 72
    15
 73
    11
 74
     9
 42
0.0000000001
 43
0.0000000001
 44
0.00000001
 40
0.0
 40
0.0
 40
0.0
 40
0.0
 40
0.2286533797777592
 40
0.4574173649258649
 40
0.6866651598281173
 40
0.9158640492091128
 40
1.146314057982666
 40
1.376831724104464
 40
1.609554238698426
 40
1.84204883506491
 40
1.84204883506491
 40
1.84204883506491
 40
1.84204883506491
 10
88.9701666099
 20
336.8342243976
 30
0.0
 10
89.01257137836633
 20
336.7708602568239
 30
0.0
 10
89.09740142754822
 20
336.6441013244486
 30
0.0
 10
89.20887820271915
 20
336.4439198711288
 30
0.0
 10
89.30802645530639
 20
336.2372642789476
 30
0.0
 10
89.39252656418985
 20
336.0235281502952
 30
0.0
 10
89.46130217764508
 20
335.8037345938424
 30
0.0
 10
89.5122792320629
 20
335.5780025470924
 30
0.0
 10
89.5456185143423
 20
335.3480210128051
 30
0.0
 10
89.54994583392465
 20
335.1928981013672
 30
0.0
 10
89.5521084337
 20
335.1153746444
 30
0.0
 11
88.9701666099
 21
336.8342243976
 31
0.0
 11
89.09473955632751
 21
336.6424851238396
 31
0.0
 11
89.20673509447221
 21
336.4430109141369
 31
0.0
 11
89.30555550243398
 21
336.2361557028469
 31
0.0
 11
89.38974342467755
 21
336.0229784886757
 31
0.0
 11
89.45828113419503
 21
335.80295624226
 31
0.0
 11
89.50918437980611
 21
335.5781290775745
 31
0.0
 11
89.54113361792416
 21
335.3476100653812
 31
0.0
 11
89.5521084337
 21
335.1153746444
 31
0.0
  0
SPLINE
  5
12F
330
1F
100
AcDbEntity
  8
RUNDUNGEN
  6
Continuous
 62
     7
100
AcDbSpline
210
0.0
220
0.0
230
1.0
 70
     8
 71
     3
 72
    15
 73
    11
 74
     9
 42
0.0000000001
 43
0.0000000001
 44
0.00000001
 40
0.0
 40
0.0
 40
0.0
 40
0.0
 40
0.127307984757536
 40
0.2549893804144528
 40
0.3793073351394773
 40
0.5035989687784326
 40
0.6245667031883219
 40
0.745559172189521
 40
0.8645937373088622
 40
0.9835510381417474
 40
0.9835510381417474
 40
0.9835510381417474
 40
0.9835510381417474
 10
88.1521084337
 20
337.2886951952
 30
0.0
 10
88.1945876033311
 20
337.2911418393085
 30
0.0
 10
88.27967053953019
 20
337.2960423038514
 30
0.0
 10
88.40531689121501
 20
337.2743781163887
 30
0.0
 10
88.52410290847382
 20
337.2327386439443
 30
0.0
 10
88.63286955715907
 20
337.1738671551279
 30
0.0
 10
88.7317197623718
 20
337.101693118562
 30
0.0
 10
88.82010540653224
 20
337.0197397065859
 30
0.0
 10
88.90015028663085
 20
336.9305010107176
 30
0.0
 10
88.94683288732725
 20
336.8663096553776
 30
0.0
 10
88.9701666099
 20
336.8342243976
 30
0.0
 11
88.1521084337
 21
337.2886951952
 31
0.0
 11
88.27939210210657
 21
337.2911833149699
 31
0.0
 11
88.40542337414976
 21
337.2707221990651
 31
0.0
 11
88.5227823761438
 21
337.2297122183533
 31
0.0
 11
88.63231066485967
 21
337.170958800039
 31
0.0
 11
88.73019765552397
 21
337.0998860920074
 31
0.0
 11
88.8192513504903
 21
337.0179799446933
 31
0.0
 11
88.89857051169463
 21
336.9292235457183
 31
0.0
 11
88.9701666099
 21
336.8342243976
 31
0.0
  0
SPLINE
  5
130
330
1F
100
AcDbEntity
  8
FASEN
  6
Continuous
 62
     7
100
AcDbSpline
210
0.0
220
0.0
230
1.0
 70
     8
 71
     3
 72
    41
 73
    37
 74
    35
 42
0.0000000001
 43
0.0000000001
 44
0.00000001
 40
0.0
 40
0.0
 40
0.0
 40
0.0
 40
0.3535888544107821
 40
0.7075507289679855
 40
1.060684840950077
 40
1.413709983431635
 40
1.765779918096836
 40
2.11787600523544
 40
2.469055569696876
 40
2.820227711307983
 40
3.171084425292017
 40
3.521941346669048
 40
3.87316008529031
 40
4.224381765501494
 40
4.576461723146518
 40
4.928542604224254
 40
5.281581803861262
 40
5.634626310516006
 40
5.988339657522181
 40
6.342041478617223
 40
6.695908397110188
 40
7.049820838118737
 40
7.403595216308279
 40
7.757194007933279
 40
7.933994428147278
 40
8.11073969622064
 40
8.287420502980385
 40
8.464157456733874
 40
8.817287503387425
 40
9.17059225348014
 40
9.523997521718698
 40
9.877334047569416
 40
10.23089310706578
 40
10.5845679153374
 40
10.93860935646094
 40
11.29227461521516
 40
11.29227461521516
 40
11.29227461521516
 40
11.29227461521516
 10
105.9513568453
 20
329.1842243976
 30
0.0
 10
105.9480482351259
 20
329.0663128054145
 30
0.0
 10
105.9414275243445
 20
328.8303652296809
 30
0.0
 10
105.8875506914309
 20
328.4800602853765
 30
0.0
 10
105.8023174032886
 20
328.1366742616505
 30
0.0
 10
105.6834889375947
 20
327.8038930547254
 30
0.0
 10
105.532826252515
 20
327.4847175358564
 30
0.0
 10
105.3518763056191
 20
327.1823717907091
 30
0.0
 10
105.1421751449726
 20
326.8995922322512
 30
0.0
 10
104.9060139701017
 20
326.6390585155999
 30
0.0
 10
104.6453945359282
 20
326.4031553400297
 30
0.0
 10
104.362892782354
 20
326.1939273867157
 30
0.0
 10
104.0610507646458
 20
326.013483168236
 30
0.0
 10
103.7426525367663
 20
325.8632328097481
 30
0.0
 10
103.4107928683212
 20
325.74480863894
 30
0.0
 10
103.0684019126296
 20
325.6590881585226
 30
0.0
 10
102.7189633180842
 20
325.6071260611924
 30
0.0
 10
102.3655919211271
 20
325.5892692233478
 30
0.0
 10
102.0119373875846
 20
325.6058832811095
 30
0.0
 10
101.6612853738693
 20
325.6567273309647
 30
0.0
 10
101.3171859758963
 20
325.7414946857418
 30
0.0
 10
100.9829285139427
 20
325.859326289386
 30
0.0
 10
100.6618937699418
 20
326.0092395672419
 30
0.0
 10
100.4078474806249
 20
326.1596660488513
 30
0.0
 10
100.2144058692221
 20
326.2944964675302
 30
0.0
 10
100.0744974118515
 20
326.4026138048115
 30
0.0
 10
99.94007266458712
 20
326.517445331845
 30
0.0
 10
99.7686879092139
 20
326.6791002496988
 30
0.0
 10
99.56974197094098
 20
326.8967992681286
 30
0.0
 10
99.35786826747935
 20
327.1801945930433
 30
0.0
 10
99.17506924344636
 20
327.483271120723
 30
0.0
 10
99.02303606334868
 20
327.802952108324
 30
0.0
 10
98.9031365795689
 20
328.1361860104898
 30
0.0
 10
98.81718614773136
 20
328.4797981591482
 30
0.0
 10
98.76290870874212
 20
328.8302880498659
 30
0.0
 10
98.75620839719443
 20
329.0662874302759
 30
0.0
 10
98.7528600222
 20
329.1842243976
 30
0.0
 11
105.9513568453
 21
329.1842243976
 31
0.0
 11
105.9341090180602
 21
328.8310564624487
 31
0.0
 11
105.88226295758
 21
328.4809122140985
 31
0.0
 11
105.7966769898235
 21
328.1383064010005
 31
0.0
 11
105.6780398294737
 21
327.8058128290201
 31
0.0
 11
105.5277342860274
 21
327.4874396478247
 31
0.0
 11
105.3468869354331
 21
327.1853371977166
 31
0.0
 11
105.1377211439003
 21
326.9032436704109
 31
0.0
 11
104.9018505204947
 21
326.6430765663066
 31
0.0
 11
104.6417507114625
 21
326.4076014655229
 31
0.0
 11
104.359786664529
 21
326.1988028651563
 31
0.0
 11
104.0583528779161
 21
326.0185467289309
 31
0.0
 11
103.7407177551563
 21
325.8686647839217
 31
0.0
 11
103.4091347055518
 21
325.7502883597896
 31
0.0
 11
103.067593298588
 21
325.6647873998556
 31
0.0
 11
102.7183998188692
 21
325.6128201967155
 31
0.0
 11
102.3658045912755
 21
325.5950148841024
 31
0.0
 11
102.0124796108187
 21
325.6115856425485
 31
0.0
 11
101.6624423412162
 21
325.6623683968575
 31
0.0
 11
101.3188449427549
 21
325.7470006825076
 31
0.0
 11
100.9850761159147
 21
325.8646968427266
 31
0.0
 11
100.6645246700424
 21
326.0143734314525
 31
0.0
 11
100.3602954256519
 21
326.1945862842023
 31
0.0
 11
100.2152473111417
 21
326.2956774958129
 31
0.0
 11
100.0753918546052
 21
326.4037484959159
 31
0.0
 11
99.94105736113272
 21
326.5185106470842
 31
0.0
 11
99.81249498945122
 21
326.6397858193566
 31
0.0
 11
99.5742564959828
 21
326.900445079847
 31
0.0
 11
99.36273972590733
 21
327.1834378402048
 31
0.0
 11
99.18019242643732
 21
327.4860461135137
 31
0.0
 11
99.02842550671863
 21
327.8051283953461
 31
0.0
 11
98.90881699840953
 21
328.1378412043751
 31
0.0
 11
98.8224915951855
 21
328.4808190385921
 31
0.0
 11
98.77026999501776
 21
328.8309879214312
 31
0.0
 11
98.7528600222
 21
329.1842243976
 31
0.0
  0
SPLINE
  5
131
330
1F
100
AcDbEntity
  8
RUNDUNGEN
  6
Continuous
 62
     7
100
AcDbSpline
210
0.0
220
0.0
230
1.0
 70
     8
 71
     3
 72
    15
 73
    11
 74
     9
 42
0.0000000001
 43
0.0000000001
 44
0.00000001
 40
0.0
 40
0.0
 40
0.0
 40
0.0
 40
0.2324947530430813
 40
0.4652174309588883
 40
0.6957353317346157
 40
0.9261855606485323
 40
1.155384407782571
 40
1.384632178797069
 40
1.613395801701238
 40
1.84204880607897
 40
1.84204880607897
 40
1.84204880607897
 40
1.84204880607897
 10
89.5521084337
 20
323.2530741508
 30
0.0
 10
89.54994582673022
 20
323.1755506415918
 30
0.0
 10
89.54561849269157
 20
323.0204276234559
 30
0.0
 10
89.51227915431596
 20
322.7904459112643
 30
0.0
 10
89.46130209552916
 20
322.5647136548421
 30
0.0
 10
89.39252639915455
 20
322.344919974571
 30
0.0
 10
89.30802602453798
 20
322.1311838921611
 30
0.0
 10
89.20887764935128
 20
321.9245285246992
 30
0.0
 10
89.09740114409371
 20
321.7243472158501
 30
0.0
 10
89.01257128307233
 20
321.597588452191
 30
0.0
 10
88.9701666099
 20
321.5342243976
 30
0.0
 11
89.5521084337
 21
323.2530741508
 31
0.0
 11
89.5411335913173
 21
323.0208385742247
 31
0.0
 11
89.50918431563596
 21
322.7903194023545
 31
0.0
 11
89.45828103404637
 21
322.5654920052218
 31
0.0
 11
89.38974319496884
 21
322.3454695685908
 31
0.0
 11
89.30555508480123
 21
322.1322924740567
 31
0.0
 11
89.20673454607672
 21
321.9254373517094
 31
0.0
 11
89.09473926334375
 21
321.7259634140389
 31
0.0
 11
88.9701666099
 21
321.5342243976
 31
0.0
  0
SPLINE
  5
132
330
1F
100
AcDbEntity
  8
RUNDUNGEN
  6
Continuous
 62
     7
100
AcDbSpline
210
0.0
220
0.0
230
1.0
 70
     8
 71
     3
 72
    17
 73
    13
 74
    11
 42
0.0000000001
 43
0.0000000001
 44
0.00000001
 40
0.0
 40
0.0
 40
0.0
 40
0.0
 40
0.1190059192965334
 40
0.2380814744146781
 40
0.3590691915226371
 40
0.4800850747380466
 40
0.6044906460082432
 40
0.7286521943717874
 40
0.7922003881073396
 40
0.8557409871328014
 40
0.919815832120266
 40
0.9838416202330095
 40
0.9838416202330095
 40
0.9838416202330095
 40
0.9838416202330095
 10
88.9701666099
 20
321.5342243976
 30
0.0
 10
88.94682090918575
 20
321.5021278665612
 30
0.0
 10
88.90011584711698
 20
321.4379160233311
 30
0.0
 10
88.82004938461847
 20
321.3486582292108
 30
0.0
 10
88.73167845566209
 20
321.2666565362771
 30
0.0
 10
88.63275369762493
 20
321.1944498639537
 30
0.0
 10
88.52391962475906
 20
321.1358359210025
 30
0.0
 10
88.42535757279231
 20
321.1009559641817
 30
0.0
 10
88.34331104363227
 20
321.0836090142187
 30
0.0
 10
88.27994812442364
 20
321.076215951667
 30
0.0
 10
88.21596082212635
 20
321.0742826201736
 30
0.0
 10
88.17338712856179
 20
321.0779304057047
 30
0.0
 10
88.1521084337
 20
321.0797536
 30
0.0
 11
88.9701666099
 21
321.5342243976
 31
0.0
 11
88.89853465357716
 21
321.4391913945906
 31
0.0
 11
88.81919067382935
 21
321.3504022020925
 31
0.0
 11
88.73015846578757
 21
321.2684797166431
 31
0.0
 11
88.63220727102878
 21
321.1974134979754
 31
0.0
 11
88.52252096789167
 21
321.1387137444224
 31
0.0
 11
88.40533249522595
 21
321.0976899468616
 31
0.0
 11
88.34315266572355
 21
321.0845734789642
 31
0.0
 11
88.28004826175533
 21
321.0771409878388
 31
0.0
 11
88.21599397240225
 21
321.0755180967028
 31
0.0
 11
88.1521084337
 21
321.0797536
 31
0.0
  0
SPLINE
  5
133
330
1F
100
AcDbEntity
  8
0
  6
Continuous
 62
     7
100
AcDbSpline
210
0.0
220
0.0
230
1.0
 70
     8
 71
     3
 72
    11
 73
     7
 74
     5
 42
0.0000000001
 43
0.0000000001
 44
0.00000001
 40
0.0
 40
0.0
 40
0.0
 40
0.0
 40
0.072033561738511
 40
0.1441734620970585
 40
0.2163593594152716
 40
0.2883296530065325
 40
0.2883296530065325
 40
0.2883296530065325
 40
0.2883296530065325
 10
85.6401791647
 20
336.9201821036
 30
0.0
 10
85.6596852181894
 20
336.9342345736461
 30
0.0
 10
85.698726120729
 20
336.9623602585167
 30
0.0
 10
85.76296804543387
 20
336.9955862514311
 30
0.0
 10
85.83083124215094
 20
337.0210174451267
 30
0.0
 10
85.87834823086268
 20
337.0288343411595
 30
0.0
 10
85.9020711914
 20
337.0327369436
 30
0.0
 11
85.6401791647
 21
336.9201821036
 31
0.0
 11
85.69963779067494
 21
336.9608454263111
 31
0.0
 11
85.76356121744548
 21
336.9942813461228
 31
0.0
 11
85.83147254651948
 21
337.0187528633426
 31
0.0
 11
85.9020711914
 21
337.0327369436
 31
0.0
  0
SPLINE
  5
134
330
1F
100
AcDbEntity
  8
0
  6
Continuous
 62
     7
100
AcDbSpline
210
0.0
220
0.0
230
1.0
 70
     8
 71
     3
 72
    27
 73
    23
 74
    21
 42
0.0000000001
 43
0.0000000001
 44
0.00000001
 40
0.0
 40
0.0
 40
0.0
 40
0.0
 40
0.0679422773472343
 40
0.1359904672785071
 40
0.1960311418419934
 40
0.2558288644477292
 40
0.282904575931178
 40
0.3099751665710019
 40
0.335762141884883
 40
0.3615450077319183
 40
0.3868874813036892
 40
0.4122310012530963
 40
0.4380221513361716
 40
0.4638182098018539
 40
0.5190828347051671
 40
0.5745822154054777
 40
0.6366003187577056
 40
0.698558037495274
 40
0.7666673008795113
 40
0.8347923375925614
 40
0.9078434200659989
 40
0.98087409738373
 40
0.98087409738373
 40
0.98087409738373
 40
0.98087409738373
 10
84.9521084337
 20
336.7290082894
 30
0.0
 10
84.95257619376554
 20
336.7516650305041
 30
0.0
 10
84.95351244306966
 20
336.7970138314283
 30
0.0
 10
84.96262936456758
 20
336.8619019059965
 30
0.0
 10
84.9783719225332
 20
336.9226663973107
 30
0.0
 10
84.99793916635812
 20
336.9678871709154
 30
0.0
 10
85.01795969077563
 20
337.0002248815739
 30
0.0
 10
85.03426127515857
 20
337.0213699868792
 30
0.0
 10
85.0525308374793
 20
337.0402440732943
 30
0.0
 10
85.07240418691826
 20
337.0565375595012
 30
0.0
 10
85.09397523625043
 20
337.0702301381171
 30
0.0
 10
85.1169936155435
 20
337.08131800051
 30
0.0
 10
85.14128603039109
 20
337.0897055563753
 30
0.0
 10
85.17606117094495
 20
337.0976664111176
 30
0.0
 10
85.22178015056316
 20
337.1008342980087
 30
0.0
 10
85.27928671288142
 20
337.0953228728029
 30
0.0
 10
85.33773007512022
 20
337.0818066608167
 30
0.0
 10
85.39821991424446
 20
337.0605414654526
 30
0.0
 10
85.45854124185796
 20
337.0334218218584
 30
0.0
 10
85.5199085007478
 20
337.0001539244216
 30
0.0
 10
85.58067650452158
 20
336.9625620500286
 30
0.0
 10
85.62034679173033
 20
336.9343074368453
 30
0.0
 10
85.6401791647
 20
336.9201821036
 30
0.0
 11
84.9521084337
 21
336.7290082894
 31
0.0
 11
84.95485669882237
 21
336.7968949603299
 31
0.0
 11
84.96434948948735
 21
336.8642777702914
 31
0.0
 11
84.97987831316723
 21
336.9222755136713
 31
0.0
 11
85.00404736672839
 21
336.9769712582845
 31
0.0
 11
85.01834286788953
 21
336.9999654488309
 31
0.0
 11
85.03491648483163
 21
337.021369469459
 31
0.0
 11
85.05286797821175
 21
337.0398819512284
 31
0.0
 11
85.07282613378122
 21
337.0562045796182
 31
0.0
 11
85.094214352103
 21
337.0697981473528
 31
0.0
 11
85.11704461322995
 21
337.0808014732273
 31
0.0
 11
85.1414093234822
 21
337.0892598605992
 31
0.0
 11
85.16654722677275
 21
337.0950497181552
 31
0.0
 11
85.22164742392889
 21
337.0993096523165
 31
0.0
 11
85.27692859193812
 21
337.0943929744083
 31
0.0
 11
85.3374170647048
 21
337.0807039347867
 31
0.0
 11
85.39597124252737
 21
337.0604513504902
 31
0.0
 11
85.4581572818095
 21
337.0326706327683
 31
0.0
 11
85.5181506389428
 21
337.0003934314176
 31
0.0
 11
85.58023931264894
 21
336.9619037282757
 31
0.0
 11
85.6401791647
 21
336.9201821036
 31
0.0
  0
SPLINE
  5
135
330
1F
100
AcDbEntity
  8
0
  6
Continuous
 62
     7
100
AcDbSpline
210
0.0
220
0.0
230
1.0
 70
     8
 71
     3
 72
    25
 73
    21
 74
    19
 42
0.0000000001
 43
0.0000000001
 44
0.00000001
 40
0.0
 40
0.0
 40
0.0
 40
0.0
 40
0.0272074182158506
 40
0.0544897104693432
 40
0.0817252616432247
 40
0.1089465264898411
 40
0.1361394923768191
 40
0.1633375028136775
 40
0.1904999128527096
 40
0.2176598701647382
 40
0.2719180517376082
 40
0.3262245621596935
 40
0.3805032120796557
 40
0.434762639432711
 40
0.4890258447844153
 40
0.5432924465859781
 40
0.5975546790023908
 40
0.651817554275197
 40
0.7603351297615395
 40
0.8688543879069193
 40
0.8688543879069193
 40
0.8688543879069193
 40
0.8688543879069193
 10
129.0146084337
 20
324.2480695175
 30
0.0
 10
129.023685106591
 20
324.2476322770179
 30
0.0
 10
129.0418634311173
 20
324.2467565927805
 30
0.0
 10
129.0684653043659
 20
324.2402160509237
 30
0.0
 10
129.0939407610628
 20
324.2304083123644
 30
0.0
 10
129.1180112846284
 20
324.2175706831352
 30
0.0
 10
129.1406336563783
 20
324.2023954446068
 30
0.0
 10
129.1618575119825
 20
324.1853655957275
 30
0.0
 10
129.1818428673384
 20
324.166927296854
 30
0.0
 10
129.2069593711625
 20
324.1408447946491
 30
0.0
 10
129.2358919683757
 20
324.1059788451115
 30
0.0
 10
129.2672605615485
 20
324.0616355616692
 30
0.0
 10
129.2960837125915
 20
324.0156110846923
 30
0.0
 10
129.3227005920967
 20
323.9683015201086
 30
0.0
 10
129.3475113221075
 20
323.9200305772286
 30
0.0
 10
129.3707384976794
 20
323.8709802468577
 30
0.0
 10
129.3926211342055
 20
323.8213172094232
 30
0.0
 10
129.4201657019639
 20
323.75441422709
 30
0.0
 10
129.4521375816395
 20
323.6697862213594
 30
0.0
 10
129.4748081892924
 20
323.6010785164138
 30
0.0
 10
129.486143581
 20
323.5667243976
 30
0.0
 11
129.0146084337
 21
324.2480695175
 31
0.0
 11
129.0417283248101
 21
324.2458888955362
 31
0.0
 11
129.0682916211557
 21
324.2396667770977
 31
0.0
 11
129.0937154780393
 21
324.229899344021
 31
0.0
 11
129.1177798371587
 21
324.2171751984694
 31
0.0
 11
129.1404018403749
 21
324.202085388523
 31
0.0
 11
129.161661472248
 21
324.1851219034936
 31
0.0
 11
129.1816554827216
 21
324.166736146389
 31
0.0
 11
129.2005266953302
 21
324.1472030817069
 31
0.0
 11
129.2353246612364
 21
324.1055731425239
 31
0.0
 11
129.2668413438087
 21
324.0613476318557
 31
0.0
 11
129.2957205375671
 21
324.0153893463677
 31
0.0
 11
129.3223993085
 21
323.9681418211606
 31
0.0
 11
129.3472468196528
 21
323.9199018310637
 31
0.0
 11
129.3705150189458
 21
323.8708767867215
 31
0.0
 11
129.392417225265
 21
323.821231210633
 31
0.0
 11
129.4131164094879
 21
323.7710714318717
 31
0.0
 11
129.451410757014
 21
323.6695351962857
 31
0.0
 11
129.486143581
 21
323.5667243976
 31
0.0
  0
SPLINE
  5
136
330
1F
100
AcDbEntity
  8
0
  6
Continuous
 62
     7
100
AcDbSpline
210
0.0
220
0.0
230
1.0
 70
     8
 71
     3
 72
    25
 73
    21
 74
    19
 42
0.0000000001
 43
0.0000000001
 44
0.00000001
 40
0.0
 40
0.0
 40
0.0
 40
0.0
 40
0.1085025556844284
 40
0.217003362050576
 40
0.271258315797487
 40
0.3255127643023552
 40
0.379771917921641
 40
0.4340272286554244
 40
0.4882788892800788
 40
0.5425511686315465
 40
0.5968541105456201
 40
0.6511051290603996
 40
0.6782579265035664
 40
0.7054161158499199
 40
0.7326228693298035
 40
0.7598194768360829
 40
0.7870692643115117
 40
0.8143404776249533
 40
0.8416356458924327
 40
0.8688504929499734
 40
0.8688504929499734
 40
0.8688504929499734
 40
0.8688504929499734
 10
126.2180732865
 20
323.5667243976
 30
0.0
 10
126.2294069370251
 20
323.6010732274505
 30
0.0
 10
126.2520740553499
 20
323.6697703333668
 30
0.0
 10
126.2840407797293
 20
323.7543855240891
 30
0.0
 10
126.3115806639696
 20
323.8212787249449
 30
0.0
 10
126.333459284152
 20
323.8709350895278
 30
0.0
 10
126.3566814477341
 20
323.9199792541461
 30
0.0
 10
126.3814870814947
 20
323.9682441707962
 30
0.0
 10
126.4080999143844
 20
324.015547579064
 30
0.0
 10
126.4369149856751
 20
324.0615699260836
 30
0.0
 10
126.468265502826
 20
324.1059188050726
 30
0.0
 10
126.4971903383814
 20
324.1407844462952
 30
0.0
 10
126.5223123188939
 20
324.166853209805
 30
0.0
 10
126.5422947596236
 20
324.185292408756
 30
0.0
 10
126.5634966126934
 20
324.2023530597881
 30
0.0
 10
126.5861161588512
 20
324.2175594509441
 30
0.0
 10
126.6102229949968
 20
324.2303809299899
 30
0.0
 10
126.6357326473463
 20
324.2401657190775
 30
0.0
 10
126.6623442815828
 20
324.2467399267099
 30
0.0
 10
126.6805293149546
 20
324.2476267561548
 30
0.0
 10
126.6896084337
 20
324.2480695175
 30
0.0
 11
126.2180732865
 21
323.5667243976
 31
0.0
 11
126.2528007181367
 21
323.669519388149
 31
0.0
 11
126.2910887574667
 21
323.7710400807509
 31
0.0
 11
126.3117844450459
 21
323.821192732941
 31
0.0
 11
126.3336825502467
 21
323.8708316105591
 31
0.0
 11
126.3569460017179
 21
323.9198506637642
 31
0.0
 11
126.3817884897367
 21
323.968084360822
 31
0.0
 11
126.4084620543233
 21
324.0153259064442
 31
0.0
 11
126.437332008908
 21
324.0612824732033
 31
0.0
 11
126.468835155315
 21
324.1055132460541
 31
0.0
 11
126.5036264716794
 21
324.1471394074857
 31
0.0
 11
126.5224973645367
 21
324.1666628244959
 31
0.0
 11
126.5424839060363
 21
324.1850504672882
 31
0.0
 11
126.5637315135735
 21
324.2020430129734
 31
0.0
 11
126.5863457106917
 21
324.2171510753424
 31
0.0
 11
126.6104453542492
 21
324.2298694910401
 31
0.0
 11
126.6359106497658
 21
324.2396284766348
 31
0.0
 11
126.6624826128955
 21
324.2458700298218
 31
0.0
 11
126.6896084337
 21
324.2480695175
 31
0.0
  0
SPLINE
  5
137
330
1F
100
AcDbEntity
  8
0
  6
Continuous
 62
     7
100
AcDbSpline
210
0.0
220
0.0
230
1.0
 70
     8
 71
     3
 72
    25
 73
    21
 74
    19
 42
0.0000000001
 43
0.0000000001
 44
0.00000001
 40
0.0
 40
0.0
 40
0.0
 40
0.0
 40
0.0272067661190426
 40
0.0544881809105603
 40
0.0817226175091511
 40
0.1089430469604608
 40
0.1361366760725861
 40
0.1633351631862442
 40
0.190496825598709
 40
0.2176561383562666
 40
0.2719142873269197
 40
0.326220632212652
 40
0.3804997303518739
 40
0.4347596646264681
 40
0.4890233385676012
 40
0.5432903872780641
 40
0.5975530058151155
 40
0.6518162745953896
 40
0.7603346281255894
 40
0.8688546602878715
 40
0.8688546602878715
 40
0.8688546602878715
 40
0.8688546602878715
 10
126.6896084337
 20
334.1203792777
 30
0.0
 10
126.6805319773778
 20
334.1208162679871
 30
0.0
 10
126.6623541611703
 20
334.1216914475552
 30
0.0
 10
126.635752759235
 20
334.1282303700905
 30
0.0
 10
126.610278519764
 20
334.1380388915783
 30
0.0
 10
126.5862090186798
 20
334.1508773924305
 30
0.0
 10
126.5635861661573
 20
334.166052013141
 30
0.0
 10
126.5423614689036
 20
334.1830810522326
 30
0.0
 10
126.5223762707312
 20
334.2015190989031
 30
0.0
 10
126.4972603211031
 20
334.2276014676714
 30
0.0
 10
126.4683275239625
 20
334.2624668494749
 30
0.0
 10
126.4369581319614
 20
334.3068096839044
 30
0.0
 10
126.4081347109311
 20
334.3528343159174
 30
0.0
 10
126.38151771894
 20
334.4001443608161
 30
0.0
 10
126.3567067256703
 20
334.4484156992294
 30
0.0
 10
126.3334792645778
 20
334.4974663750024
 30
0.0
 10
126.3115964263385
 20
334.5471297709946
 30
0.0
 10
126.2840516532294
 20
334.6140332303877
 30
0.0
 10
126.2520795326734
 20
334.6986618386668
 30
0.0
 10
126.2294087603384
 20
334.7673700341531
 30
0.0
 10
126.2180732865
 20
334.8017243976
 30
0.0
 11
126.6896084337
 21
334.1203792777
 31
0.0
 11
126.6624891258729
 21
334.1225590175086
 31
0.0
 11
126.6359264809611
 21
334.1287800695353
 31
0.0
 11
126.6105039305774
 21
334.1385477954136
 31
0.0
 11
126.5864407208044
 21
334.1512723274259
 31
0.0
 11
126.5638178796241
 21
334.1663620763044
 31
0.0
 11
126.542557310084
 21
334.1833251504393
 31
0.0
 11
126.5225637143861
 21
334.2017102540854
 31
0.0
 11
126.5036930319157
 21
334.2212429347146
 31
0.0
 11
126.4688947540809
 21
334.2628725706661
 31
0.0
 11
126.4373775675884
 21
334.3070975189469
 31
0.0
 11
126.4084979409214
 21
334.3530560617696
 31
0.0
 11
126.3818189713945
 21
334.4003040569913
 31
0.0
 11
126.3569712182649
 21
334.4485444495477
 31
0.0
 11
126.3337027471015
 21
334.4975698595456
 31
0.0
 11
126.3118003428899
 21
334.5472157703566
 31
0.0
 11
126.2911009974867
 21
334.5973759083009
 31
0.0
 11
126.2528063637274
 21
334.6989128674742
 31
0.0
 11
126.2180732865
 21
334.8017243976
 31
0.0
  0
SPLINE
  5
138
330
1F
100
AcDbEntity
  8
0
  6
Continuous
 62
     7
100
AcDbSpline
210
0.0
220
0.0
230
1.0
 70
     8
 71
     3
 72
    25
 73
    21
 74
    19
 42
0.0000000001
 43
0.0000000001
 44
0.00000001
 40
0.0
 40
0.0
 40
0.0
 40
0.0
 40
0.1085285490977289
 40
0.2170554557159035
 40
0.2713241332978196
 40
0.3255921109319906
 40
0.3798650579452394
 40
0.434134774910143
 40
0.4884007825062663
 40
0.5426855351802884
 40
0.596991890640684
 40
0.6512511252795415
 40
0.6784124281182474
 40
0.705575110494358
 40
0.732760208096407
 40
0.7599421722422819
 40
0.7871532997731463
 40
0.8143760192290773
 40
0.8416525758763487
 40
0.8688563237063972
 40
0.8688563237063972
 40
0.8688563237063972
 40
0.8688563237063972
 10
129.486143581
 20
334.8017243976
 30
0.0
 10
129.4748071575966
 20
334.767367357022
 30
0.0
 10
129.452134482356
 20
334.6986537958277
 30
0.0
 10
129.4201594624922
 20
334.6140182746096
 30
0.0
 10
129.3926124040613
 20
334.5471087921893
 30
0.0
 10
129.3707272926887
 20
334.497440322413
 30
0.0
 10
129.3474968685495
 20
334.4483846632011
 30
0.0
 10
129.3226826364603
 20
334.4001082438654
 30
0.0
 10
129.2960627206224
 20
334.3527930424827
 30
0.0
 10
129.2672353648879
 20
334.3067661697806
 30
0.0
 10
129.2358589503965
 20
334.2624254532651
 30
0.0
 10
129.206922015247
 20
334.227562378371
 30
0.0
 10
129.1818052952542
 20
334.2014788735863
 30
0.0
 10
129.1618196187812
 20
334.1830461362696
 30
0.0
 10
129.140591751695
 20
334.1660336240536
 30
0.0
 10
129.1179734082426
 20
334.1508737867135
 30
0.0
 10
129.0939193623431
 20
334.1380308227341
 30
0.0
 10
129.0684568935304
 20
334.1282138445843
 30
0.0
 10
129.0418591034658
 20
334.1216858941474
 30
0.0
 10
129.0236838936897
 20
334.1208144282997
 30
0.0
 10
129.0146084337
 20
334.1203792777
 30
0.0
 11
129.486143581
 21
334.8017243976
 31
0.0
 11
129.4514075780846
 21
334.6989048660376
 31
0.0
 11
129.4131097728204
 21
334.5973599618225
 31
0.0
 11
129.3924084344825
 21
334.547194795048
 31
0.0
 11
129.3705037846737
 21
334.4975440174785
 31
0.0
 11
129.3472323684857
 21
334.4485134763219
 31
0.0
 11
129.3223814343411
 21
334.400267924697
 31
0.0
 11
129.2956990734739
 21
334.3530148697802
 31
0.0
 11
129.2668142201996
 21
334.3070529330912
 31
0.0
 11
129.2352921891128
 21
334.2628314247547
 31
0.0
 11
129.2004897870371
 21
334.2212038214925
 31
0.0
 11
129.1816170842697
 21
334.2016703255906
 31
0.0
 11
129.1616191179208
 21
334.1832884688896
 31
0.0
 11
129.1403613432736
 21
334.1663433649159
 31
0.0
 11
129.11774427959
 21
334.1512659777033
 31
0.0
 11
129.0936929538636
 21
334.1385388730716
 31
0.0
 11
129.068284334839
 21
334.1287675612948
 31
0.0
 11
129.0417252156144
 21
334.1225527621393
 31
0.0
 11
129.0146084337
 21
334.1203792777
 31
0.0
  0
SPLINE
  5
139
330
1F
100
AcDbEntity
  8
0
  6
Continuous
 62
     7
100
AcDbSpline
210
0.0
220
0.0
230
1.0
 70
     8
 71
     3
 72
    13
 73
     9
 74
     7
 42
0.0000000001
 43
0.0000000001
 44
0.00000001
 40
0.0
 40
0.0
 40
0.0
 40
0.0
 40
0.1312848068066564
 40
0.2626131914657799
 40
0.3227000710799198
 40
0.3827285903123909
 40
0.4404671082497929
 40
0.4981359434749441
 40
0.4981359434749441
 40
0.4981359434749441
 40
0.4981359434749441
 10
126.2180732865
 20
334.8017243976
 30
0.0
 10
126.1827484741719
 20
334.8277538447948
 30
0.0
 10
126.1120871240198
 20
334.879821379235
 30
0.0
 10
126.0425803636969
 20
334.9634968809536
 30
0.0
 10
125.9993232344584
 20
335.0353895893616
 30
0.0
 10
125.9746024707041
 20
335.0893968465969
 30
0.0
 10
125.9557615996116
 20
335.1449454948514
 30
0.0
 10
125.9487106645574
 20
335.1828057166574
 30
0.0
 10
125.9451873257
 20
335.2017243976
 30
0.0
 11
126.2180732865
 21
334.8017243976
 31
0.0
 11
126.1156218739636
 21
334.8838182985157
 31
0.0
 11
126.0311421076114
 21
334.9843683541808
 31
0.0
 11
126.0003063187252
 21
335.0359395401816
 31
0.0
 11
125.9752510700165
 21
335.0904891289371
 31
0.0
 11
125.957091528469
 21
335.145297590915
 31
0.0
 11
125.9451873257
 21
335.2017243976
 31
0.0
  0
SPLINE
  5
13A
330
1F
100
AcDbEntity
  8
0
  6
Continuous
 62
     7
100
AcDbSpline
210
0.0
220
0.0
230
1.0
 70
     8
 71
     3
 72
    13
 73
     9
 74
     7
 42
0.0000000001
 43
0.0000000001
 44
0.00000001
 40
0.0
 40
0.0
 40
0.0
 40
0.0
 40
0.0576631896523622
 40
0.1153961315180375
 40
0.1754242231834311
 40
0.2355105400882
 40
0.3668449112219277
 40
0.4981360904430425
 40
0.4981360904430425
 40
0.4981360904430425
 40
0.4981360904430425
 10
129.7590295417
 20
335.2017243976
 30
0.0
 10
129.7555065039645
 20
335.1828075773913
 30
0.0
 10
129.7484561668549
 20
335.1449510542629
 30
0.0
 10
129.7296169522225
 20
335.0894060179876
 30
0.0
 10
129.7048990443893
 20
335.0353999089892
 30
0.0
 10
129.6616438950443
 20
334.9635040259797
 30
0.0
 10
129.5921350449111
 20
334.8798247238517
 30
0.0
 10
129.5214701950771
 20
334.8277549851869
 30
0.0
 10
129.486143581
 20
334.8017243976
 30
0.0
 11
129.7590295417
 21
335.2017243976
 31
0.0
 11
129.7471264622663
 21
335.1453031237675
 31
0.0
 11
129.7289692715527
 21
335.0904997570657
 31
0.0
 11
129.7039159576245
 21
335.0359497501894
 31
0.0
 11
129.6730823251337
 21
334.9843779304949
 31
0.0
 11
129.5886000872964
 21
334.8838221323971
 31
0.0
 11
129.486143581
 21
334.8017243976
 31
0.0
  0
SPLINE
  5
13B
330
1F
100
AcDbEntity
  8
0
  6
Continuous
 62
     7
100
AcDbSpline
210
0.0
220
0.0
230
1.0
 70
     8
 71
     3
 72
    11
 73
     7
 74
     5
 42
0.0000000001
 43
0.0000000001
 44
0.00000001
 40
0.0
 40
0.0
 40
0.0
 40
0.0
 40
0.1068456600813307
 40
0.2142571944367553
 40
0.3333679115843681
 40
0.4521343115260905
 40
0.4521343115260905
 40
0.4521343115260905
 40
0.4521343115260905
 10
125.95412325592
 20
323.211730652895
 30
0.0
 10
125.9648095045113
 20
323.2458393441318
 30
0.0
 10
125.9862385980325
 20
323.31423737251
 30
0.0
 10
126.0452374335979
 20
323.4094907581447
 30
0.0
 10
126.1216533742493
 20
323.4966292495764
 30
0.0
 10
126.185964344899
 20
323.5433819057654
 30
0.0
 10
126.2180732865
 20
323.5667243976
 30
0.0
 11
125.95412325592
 21
323.211730652895
 31
0.0
 11
125.99028269191
 21
323.3122716408905
 31
0.0
 11
126.0454248611458
 21
323.4044485299927
 31
0.0
 11
126.1246546022177
 21
323.4933867729992
 31
0.0
 11
126.2180732865
 21
323.5667243976
 31
0.0
  0
SPLINE
  5
13C
330
1F
100
AcDbEntity
  8
0
  6
Continuous
 62
     7
100
AcDbSpline
210
0.0
220
0.0
230
1.0
 70
     8
 71
     3
 72
    13
 73
     9
 74
     7
 42
0.0000000001
 43
0.0000000001
 44
0.00000001
 40
0.0
 40
0.0
 40
0.0
 40
0.0
 40
0.1312911943630476
 40
0.2626255805396499
 40
0.3227118842491462
 40
0.3827399627537571
 40
0.4404729026296777
 40
0.4981360903158507
 40
0.4981360903158507
 40
0.4981360903158507
 40
0.4981360903158507
 10
129.486143581
 20
323.5667243976
 30
0.0
 10
129.5214701989929
 20
323.540693806757
 30
0.0
 10
129.5921350566318
 20
323.4886240615994
 30
0.0
 10
129.6616439076773
 20
323.4049447523294
 30
0.0
 10
129.7048990520485
 20
323.3330488708048
 30
0.0
 10
129.7296169548467
 20
323.2790427699682
 30
0.0
 10
129.7484561672936
 20
323.2234977390034
 30
0.0
 10
129.7555065041103
 20
323.1856412171668
 30
0.0
 10
129.7590295417
 20
323.1667243976
 30
0.0
 11
129.486143581
 21
323.5667243976
 31
0.0
 11
129.5886000981565
 21
323.4846266521412
 31
0.0
 11
129.6730823420671
 21
323.3840708394985
 31
0.0
 11
129.7039159656721
 21
323.3324990298652
 31
0.0
 11
129.7289692730376
 21
323.2779490344573
 31
0.0
 11
129.7471264627931
 21
323.2231456695341
 31
0.0
 11
129.7590295417
 21
323.1667243976
 31
0.0
  0
SPLINE
  5
13D
330
1F
100
AcDbEntity
  8
0
  6
Continuous
 62
     7
100
AcDbSpline
210
0.0
220
0.0
230
1.0
 70
     8
 71
     3
 72
    11
 73
     7
 74
     5
 42
0.0000000001
 43
0.0000000001
 44
0.00000001
 40
0.0
 40
0.0
 40
0.0
 40
0.0
 40
0.4419689633841574
 40
0.883902053855532
 40
1.150518561878378
 40
1.416734593058846
 40
1.416734593058846
 40
1.416734593058846
 40
1.416734593058846
 10
85.6885986436
 20
321.5342243976
 30
0.0
 10
85.75729874372831
 20
321.6647486417925
 30
0.0
 10
85.8946933678633
 20
321.9257865360292
 30
0.0
 10
86.01961953943939
 20
322.2899555675901
 30
0.0
 10
86.08965590482588
 20
322.6083412984561
 30
0.0
 10
86.09795967111172
 20
322.7860680513508
 30
0.0
 10
86.1021084337
 20
322.8748646381
 30
0.0
 11
85.6885986436
 21
321.5342243976
 31
0.0
 11
85.884343519196
 21
321.9304825309837
 31
0.0
 11
86.02853073998935
 21
322.3482323386599
 31
0.0
 11
86.08217841974344
 21
322.6093956760702
 31
0.0
 11
86.1021084337
 21
322.8748646381
 31
0.0
  0
SPLINE
  5
13E
330
1F
100
AcDbEntity
  8
0
  6
Continuous
 62
     7
100
AcDbSpline
210
0.0
220
0.0
230
1.0
 70
     8
 71
     3
 72
    11
 73
     7
 74
     5
 42
0.0000000001
 43
0.0000000001
 44
0.00000001
 40
0.0
 40
0.0
 40
0.0
 40
0.0
 40
0.3847579053305177
 40
0.7696659746343288
 40
1.093183244054258
 40
1.416570809308465
 40
1.416570809308465
 40
1.416570809308465
 40
1.416570809308465
 10
86.1021084337
 20
335.4935841571
 30
0.0
 10
86.09348039591379
 20
335.6219307294173
 30
0.0
 10
86.07622095297599
 20
335.8786739653715
 30
0.0
 10
85.97037303498935
 20
336.2297682438848
 30
0.0
 10
85.84159489011142
 20
336.5489609103067
 30
0.0
 10
85.73959057516211
 20
336.7391492794001
 30
0.0
 10
85.6885986436
 20
336.8342243976
 30
0.0
 11
86.1021084337
 21
335.4935841571
 31
0.0
 11
86.06191396042021
 21
335.8762368064206
 31
0.0
 11
85.95857687122896
 21
336.247013919809
 31
0.0
 11
85.83626015943028
 21
336.546516917503
 31
0.0
 11
85.6885986436
 21
336.8342243976
 31
0.0
  0
DIMENSION
  5
149
330
1F
100
AcDbEntity
  8
1
100
AcDbDimension
  2
*D2
 10
221.673943767541
 20
341.6842243976
 30
0.0
 11
217.923943767541
 21
329.44992410153
 31
0.0
 70
    32
  1
<>
 71
     5
 42
-1.0
 53
90.0
  3
ME10_DIM_10
100
AcDbAlignedDimension
 13
197.8521084337
 23
316.6842243976
 33
0.0
 14
197.8521084337
 24
341.6842243976
 34
0.0
 50
90.0
100
AcDbRotatedDimension
  0
DIMENSION
  5
154
330
1F
100
AcDbEntity
  8
1
100
AcDbDimension
  2
*D3
 10
229.756692058424
 20
350.1842243976
 30
0.0
 11
226.006692058424
 21
329.898965673245
 31
0.0
 70
    32
  1
<>
 71
     5
 42
-1.0
 53
90.0
  3
ME10_DIM_11
100
AcDbAlignedDimension
 13
208.1777926531
 23
308.1842243976
 33
0.0
 14
208.1777926531
 24
350.1842243976
 34
0.0
 50
90.0
100
AcDbRotatedDimension
  0
DIMENSION
  5
15F
330
1F
100
AcDbEntity
  8
1
100
AcDbDimension
  2
*D4
 10
197.8521084337
 20
362.923594600157
 30
0.0
 11
167.232736917236
 21
366.673594600157
 31
0.0
 70
    32
  1
<>
 71
     5
 42
-1.0
 53
0.00013888888889
  3
ME10_DIM_12
100
AcDbAlignedDimension
 13
135.8021084337
 23
354.1841743791
 33
0.0
 14
197.8521084337
 24
345.1842243976
 34
0.0
100
AcDbRotatedDimension
  0
DIMENSION
  5
16A
330
1F
100
AcDbEntity
  8
1
100
AcDbDimension
  2
*D5
 10
197.8521084337
 20
370.985001612466
 30
0.0
 11
154.878892404867
 21
374.735001612466
 31
0.0
 70
    32
  1
<>
 71
     5
 42
-1.0
 53
0.00013888888889
  3
ME10_DIM_13
100
AcDbAlignedDimension
 13
109.8521084337
 23
354.1842243976
 33
0.0
 14
197.8521084337
 24
345.1842243976
 34
0.0
100
AcDbRotatedDimension
  0
DIMENSION
  5
175
330
1F
100
AcDbEntity
  8
1
100
AcDbDimension
  2
*D6
 10
109.8521084337
 20
379.674570210149
 30
0.0
 11
158.85724911224
 21
383.424570210149
 31
0.0
 70
    32
  1
<>
 71
     5
 42
-1.0
 53
0.00013888888889
  3
ME10_DIM_14
100
AcDbAlignedDimension
 13
209.8521084337
 23
347.2840194188
 33
0.0
 14
109.8521084337
 24
354.1842243976
 34
0.0
100
AcDbRotatedDimension
  0
DIMENSION
  5
180
330
1F
100
AcDbEntity
  8
1
100
AcDbDimension
  2
*D7
 10
197.8521084337
 20
387.84067082002
 30
0.0
 11
147.655034173058
 21
391.59067082002
 31
0.0
 70
    32
  1
<>
 71
     5
 42
-1.0
 53
0.00013888888889
  3
ME10_DIM_15
100
AcDbAlignedDimension
 13
84.9521084337
 23
346.2405801788
 33
0.0
 14
197.8521084337
 24
345.1842243976
 34
0.0
100
AcDbRotatedDimension
  0
INSERT
  5
187
330
1F
100
AcDbEntity
  8
1
100
AcDbBlockReference
  2
*D8
 10
0.0
 20
0.0
 30
0.0
  0
ENDSEC
  0
SECTION
  2
OBJECTS
  0
DICTIONARY
  5
C
330
0
100
AcDbDictionary
281
     1
  3
ACAD_GROUP
350
D
  3
ACAD_LAYOUT
350
1A
  3
ACAD_MLEADERSTYLE
350
18A
  3
ACAD_MLINESTYLE
350
17
  3
ACAD_PLOTSETTINGS
350
19
  3
ACAD_PLOTSTYLENAME
350
E
  3
ACAD_SCALELIST
350
4D
  3
ACAD_VISUALSTYLE
350
2A
  3
AcDbVariableDictionary
350
188
  0
DICTIONARY
  5
D
102
{ACAD_REACTORS
330
C
102
}
330
C
100
AcDbDictionary
281
     1
  0
DICTIONARY
  5
1A
102
{ACAD_REACTORS
330
C
102
}
330
C
100
AcDbDictionary
281
     1
  3
Layout1
350
1E
  3
Layout2
350
26
  3
Model
350
22
  0
DICTIONARY
  5
18A
102
{ACAD_REACTORS
330
C
102
}
330
C
100
AcDbDictionary
281
     1
  0
DICTIONARY
  5
17
102
{ACAD_REACTORS
330
C
102
}
330
C
100
AcDbDictionary
281
     1
  3
Standard
350
18
  0
DICTIONARY
  5
19
102
{ACAD_REACTORS
330
C
102
}
330
C
100
AcDbDictionary
281
     1
  0
ACDBDICTIONARYWDFLT
  5
E
102
{ACAD_REACTORS
330
C
102
}
330
C
100
AcDbDictionary
281
     1
  3
Normal
350
F
100
AcDbDictionaryWithDefault
340
F
  0
DICTIONARY
  5
4D
102
{ACAD_REACTORS
330
C
102
}
330
C
100
AcDbDictionary
281
     1
  3
A0
350
4E
  3
A1
350
4F
  3
A2
350
50
  3
A3
350
51
  3
A4
350
52
  3
A5
350
53
  3
A6
350
54
  3
A7
350
55
  3
A8
350
56
  3
A9
350
57
  3
B0
350
58
  3
B1
350
59
  3
B2
350
5A
  3
B3
350
5B
  3
B4
350
5C
  3
B5
350
5D
  3
B6
350
5E
  3
B7
350
5F
  3
B8
350
60
  3
B9
350
61
  3
C0
350
62
  3
C1
350
63
  3
C2
350
64
  3
C3
350
65
  3
C4
350
66
  3
C5
350
67
  3
C6
350
68
  3
C7
350
69
  3
C8
350
6A
  3
C9
350
6B
  3
D0
350
6C
  3
D1
350
6D
  3
D2
350
6E
  0
DICTIONARY
  5
2A
102
{ACAD_REACTORS
330
C
102
}
330
C
100
AcDbDictionary
281
     1
  3
2dWireframe
350
2F
  3
3D Hidden
350
31
  3
3dWireframe
350
30
  3
Basic
350
32
  3
Brighten
350
36
  3
ColorChange
350
3A
  3
Conceptual
350
34
  3
Dim
350
35
  3
Facepattern
350
39
  3
Flat
350
2B
  3
FlatWithEdges
350
2C
  3
Gouraud
350
2D
  3
GouraudWithEdges
350
2E
  3
Linepattern
350
38
  3
Realistic
350
33
  3
Thicken
350
37
  0
DICTIONARY
  5
188
102
{ACAD_REACTORS
330
C
102
}
330
C
100
AcDbDictionary
281
     1
  3
CANNOSCALE
350
18B
  0
LAYOUT
  5
1E
102
{ACAD_REACTORS
330
1A
102
}
330
1A
100
AcDbPlotSettings
  1

  2
none_device
  4

  6

 40
0.0
 41
0.0
 42
0.0
 43
0.0
 44
0.0
 45
0.0
 46
0.0
 47
0.0
 48
0.0
 49
0.0
140
0.0
141
0.0
142
1.0
143
1.0
 70
   688
 72
     0
 73
     0
 74
     5
  7

 75
    16
147
1.0
148
0.0
149
0.0
100
AcDbLayout
  1
Layout1
 70
     1
 71
     1
 10
0.0
 20
0.0
 11
12.0
 21
9.0
 12
0.0
 22
0.0
 32
0.0
 14
1.00000000000000E+20
 24
1.00000000000000E+20
 34
1.00000000000000E+20
 15
-1.00000000000000E+20
 25
-1.00000000000000E+20
 35
-1.00000000000000E+20
146
0.0
 13
0.0
 23
0.0
 33
0.0
 16
1.0
 26
0.0
 36
0.0
 17
0.0
 27
1.0
 37
0.0
 76
     0
330
1B
  0
LAYOUT
  5
26
102
{ACAD_REACTORS
330
1A
102
}
330
1A
100
AcDbPlotSettings
  1

  2
none_device
  4

  6

 40
0.0
 41
0.0
 42
0.0
 43
0.0
 44
0.0
 45
0.0
 46
0.0
 47
0.0
 48
0.0
 49
0.0
140
0.0
141
0.0
142
1.0
143
1.0
 70
   688
 72
     0
 73
     0
 74
     5
  7

 75
    16
147
1.0
148
0.0
149
0.0
100
AcDbLayout
  1
Layout2
 70
     1
 71
     2
 10
0.0
 20
0.0
 11
0.0
 21
0.0
 12
0.0
 22
0.0
 32
0.0
 14
0.0
 24
0.0
 34
0.0
 15
0.0
 25
0.0
 35
0.0
146
0.0
 13
0.0
 23
0.0
 33
0.0
 16
1.0
 26
0.0
 36
0.0
 17
0.0
 27
1.0
 37
0.0
 76
     0
330
23
  0
LAYOUT
  5
22
102
{ACAD_REACTORS
330
1A
102
}
330
1A
100
AcDbPlotSettings
  1

  2
none_device
  4

  6

 40
0.0
 41
0.0
 42
0.0
 43
0.0
 44
0.0
 45
0.0
 46
0.0
 47
0.0
 48
0.0
 49
0.0
140
0.0
141
0.0
142
1.0
143
1.0
 70
  1712
 72
     0
 73
     0
 74
     0
  7

 75
     0
147
1.0
148
0.0
149
0.0
100
AcDbLayout
  1
Model
 70
     1
 71
     0
 10
0.0
 20
0.0
 11
12.0
 21
9.0
 12
0.0
 22
0.0
 32
0.0
 14
63.1028280414703
 24
293.5294823139728
 34
0.0
 15
231.756692058424
 25
402.298869231279
 35
0.0
146
0.0
 13
0.0
 23
0.0
 33
0.0
 16
1.0
 26
0.0
 36
0.0
 17
0.0
 27
1.0
 37
0.0
 76
     0
330
1F
331
29
  0
MLINESTYLE
  5
18
102
{ACAD_REACTORS
330
17
102
}
330
17
100
AcDbMlineStyle
  2
Standard
 70
     0
  3

 62
   256
 51
90.0
 52
90.0
 71
     2
 49
0.5
 62
   256
  6
BYLAYER
 49
-0.5
 62
   256
  6
BYLAYER
  0
ACDBPLACEHOLDER
  5
F
102
{ACAD_REACTORS
330
E
102
}
330
E
  0
SCALE
  5
4E
102
{ACAD_REACTORS
330
4D
102
}
330
4D
100
AcDbScale
 70
     0
300
1:1
140
1.0
141
1.0
290
     1
  0
SCALE
  5
4F
102
{ACAD_REACTORS
330
4D
102
}
330
4D
100
AcDbScale
 70
     0
300
1:2
140
1.0
141
2.0
290
     0
  0
SCALE
  5
50
102
{ACAD_REACTORS
330
4D
102
}
330
4D
100
AcDbScale
 70
     0
300
1:4
140
1.0
141
4.0
290
     0
  0
SCALE
  5
51
102
{ACAD_REACTORS
330
4D
102
}
330
4D
100
AcDbScale
 70
     0
300
1:5
140
1.0
141
5.0
290
     0
  0
SCALE
  5
52
102
{ACAD_REACTORS
330
4D
102
}
330
4D
100
AcDbScale
 70
     0
300
1:8
140
1.0
141
8.0
290
     0
  0
SCALE
  5
53
102
{ACAD_REACTORS
330
4D
102
}
330
4D
100
AcDbScale
 70
     0
300
1:10
140
1.0
141
10.0
290
     0
  0
SCALE
  5
54
102
{ACAD_REACTORS
330
4D
102
}
330
4D
100
AcDbScale
 70
     0
300
1:16
140
1.0
141
16.0
290
     0
  0
SCALE
  5
55
102
{ACAD_REACTORS
330
4D
102
}
330
4D
100
AcDbScale
 70
     0
300
1:20
140
1.0
141
20.0
290
     0
  0
SCALE
  5
56
102
{ACAD_REACTORS
330
4D
102
}
330
4D
100
AcDbScale
 70
     0
300
1:30
140
1.0
141
30.0
290
     0
  0
SCALE
  5
57
102
{ACAD_REACTORS
330
4D
102
}
330
4D
100
AcDbScale
 70
     0
300
1:40
140
1.0
141
40.0
290
     0
  0
SCALE
  5
58
102
{ACAD_REACTORS
330
4D
102
}
330
4D
100
AcDbScale
 70
     0
300
1:50
140
1.0
141
50.0
290
     0
  0
SCALE
  5
59
102
{ACAD_REACTORS
330
4D
102
}
330
4D
100
AcDbScale
 70
     0
300
1:100
140
1.0
141
100.0
290
     0
  0
SCALE
  5
5A
102
{ACAD_REACTORS
330
4D
102
}
330
4D
100
AcDbScale
 70
     0
300
2:1
140
2.0
141
1.0
290
     0
  0
SCALE
  5
5B
102
{ACAD_REACTORS
330
4D
102
}
330
4D
100
AcDbScale
 70
     0
300
4:1
140
4.0
141
1.0
290
     0
  0
SCALE
  5
5C
102
{ACAD_REACTORS
330
4D
102
}
330
4D
100
AcDbScale
 70
     0
300
8:1
140
8.0
141
1.0
290
     0
  0
SCALE
  5
5D
102
{ACAD_REACTORS
330
4D
102
}
330
4D
100
AcDbScale
 70
     0
300
10:1
140
10.0
141
1.0
290
     0
  0
SCALE
  5
5E
102
{ACAD_REACTORS
330
4D
102
}
330
4D
100
AcDbScale
 70
     0
300
100:1
140
100.0
141
1.0
290
     0
  0
SCALE
  5
5F
102
{ACAD_REACTORS
330
4D
102
}
330
4D
100
AcDbScale
 70
     0
300
1/128" = 1'-0"
140
0.0078125
141
12.0
290
     0
  0
SCALE
  5
60
102
{ACAD_REACTORS
330
4D
102
}
330
4D
100
AcDbScale
 70
     0
300
1/64" = 1'-0"
140
0.015625
141
12.0
290
     0
  0
SCALE
  5
61
102
{ACAD_REACTORS
330
4D
102
}
330
4D
100
AcDbScale
 70
     0
300
1/32" = 1'-0"
140
0.03125
141
12.0
290
     0
  0
SCALE
  5
62
102
{ACAD_REACTORS
330
4D
102
}
330
4D
100
AcDbScale
 70
     0
300
1/16" = 1'-0"
140
0.0625
141
12.0
290
     0
  0
SCALE
  5
63
102
{ACAD_REACTORS
330
4D
102
}
330
4D
100
AcDbScale
 70
     0
300
3/32" = 1'-0"
140
0.09375
141
12.0
290
     0
  0
SCALE
  5
64
102
{ACAD_REACTORS
330
4D
102
}
330
4D
100
AcDbScale
 70
     0
300
1/8" = 1'-0"
140
0.125
141
12.0
290
     0
  0
SCALE
  5
65
102
{ACAD_REACTORS
330
4D
102
}
330
4D
100
AcDbScale
 70
     0
300
3/16" = 1'-0"
140
0.1875
141
12.0
290
     0
  0
SCALE
  5
66
102
{ACAD_REACTORS
330
4D
102
}
330
4D
100
AcDbScale
 70
     0
300
1/4" = 1'-0"
140
0.25
141
12.0
290
     0
  0
SCALE
  5
67
102
{ACAD_REACTORS
330
4D
102
}
330
4D
100
AcDbScale
 70
     0
300
3/8" = 1'-0"
140
0.375
141
12.0
290
     0
  0
SCALE
  5
68
102
{ACAD_REACTORS
330
4D
102
}
330
4D
100
AcDbScale
 70
     0
300
1/2" = 1'-0"
140
0.5
141
12.0
290
     0
  0
SCALE
  5
69
102
{ACAD_REACTORS
330
4D
102
}
330
4D
100
AcDbScale
 70
     0
300
3/4" = 1'-0"
140
0.75
141
12.0
290
     0
  0
SCALE
  5
6A
102
{ACAD_REACTORS
330
4D
102
}
330
4D
100
AcDbScale
 70
     0
300
1" = 1'-0"
140
1.0
141
12.0
290
     0
  0
SCALE
  5
6B
102
{ACAD_REACTORS
330
4D
102
}
330
4D
100
AcDbScale
 70
     0
300
1-1/2" = 1'-0"
140
1.5
141
12.0
290
     0
  0
SCALE
  5
6C
102
{ACAD_REACTORS
330
4D
102
}
330
4D
100
AcDbScale
 70
     0
300
3" = 1'-0"
140
3.0
141
12.0
290
     0
  0
SCALE
  5
6D
102
{ACAD_REACTORS
330
4D
102
}
330
4D
100
AcDbScale
 70
     0
300
6" = 1'-0"
140
6.0
141
12.0
290
     0
  0
SCALE
  5
6E
102
{ACAD_REACTORS
330
4D
102
}
330
4D
100
AcDbScale
 70
     0
300
1'-0" = 1'-0"
140
12.0
141
12.0
290
     0
  0
VISUALSTYLE
  5
2F
102
{ACAD_REACTORS
330
2A
102
}
330
2A
100
AcDbVisualStyle
  2
2dWireframe
 70
     4
 71
     0
 72
     2
 73
     0
 90
        0
 40
-0.6
 41
-30.0
 62
     5
 63
     7
 74
     1
 91
        4
 64
     7
 65
   257
 75
     1
175
     1
 42
1.0
 92
        0
 66
   257
 43
1.0
 76
     1
 77
     6
 78
     2
 67
     7
 79
     5
170
     0
171
     0
290
     0
174
     0
 93
        1
 44
0.0
173
     0
291
     0
 45
0.0
1001
ACAD
1000
AcDbSavedByObjectVersion
1070
     0
  0
VISUALSTYLE
  5
31
102
{ACAD_REACTORS
330
2A
102
}
330
2A
100
AcDbVisualStyle
  2
3D Hidden
 70
     6
 71
     1
 72
     2
 73
     2
 90
        0
 40
-0.6
 41
-30.0
 62
     5
 63
     7
 74
     2
 91
        2
 64
     7
 65
   257
 75
     2
175
     1
 42
40.0
 92
        0
 66
   257
 43
1.0
 76
     1
 77
     6
 78
     2
 67
     7
 79
     3
170
     0
171
     0
290
     0
174
     0
 93
        1
 44
0.0
173
     0
291
     0
 45
0.0
1001
ACAD
1000
AcDbSavedByObjectVersion
1070
     0
  0
VISUALSTYLE
  5
30
102
{ACAD_REACTORS
330
2A
102
}
330
2A
100
AcDbVisualStyle
  2
3dWireframe
 70
     5
 71
     0
 72
     2
 73
     0
 90
        0
 40
-0.6
 41
-30.0
 62
     5
 63
     7
 74
     1
 91
        4
 64
     7
 65
   257
 75
     1
175
     1
 42
1.0
 92
        0
 66
   257
 43
1.0
 76
     1
 77
     6
 78
     2
 67
     7
 79
     5
170
     0
171
     0
290
     0
174
     0
 93
        1
 44
0.0
173
     0
291
     0
 45
0.0
1001
ACAD
1000
AcDbSavedByObjectVersion
1070
     0
  0
VISUALSTYLE
  5
32
102
{ACAD_REACTORS
330
2A
102
}
330
2A
100
AcDbVisualStyle
  2
Basic
 70
     7
 71
     1
 72
     0
 73
     1
 90
        0
 40
-0.6
 41
-30.0
 62
     5
 63
     7
 74
     0
 91
        4
 64
     7
 65
   257
 75
     1
175
     1
 42
1.0
 92
        8
 66
     7
 43
1.0
 76
     1
 77
     6
 78
     2
 67
     7
 79
     5
170
     0
171
     0
290
     0
174
     0
 93
        1
 44
0.0
173
     0
291
     1
 45
0.0
1001
ACAD
1000
AcDbSavedByObjectVersion
1070
     0
  0
VISUALSTYLE
  5
36
102
{ACAD_REACTORS
330
2A
102
}
330
2A
100
AcDbVisualStyle
  2
Brighten
 70
    12
 71
     2
 72
     2
 73
     0
 90
        0
 40
-0.6
 41
-30.0
 62
     5
 63
     7
 74
     1
 91
        4
 64
     7
 65
   257
 75
     1
175
     1
 42
1.0
 92
        8
 66
     7
 43
1.0
 76
     1
 77
     6
 78
     2
 67
     7
 79
     5
170
     0
171
     0
290
     0
174
     0
 93
        1
 44
50.0
173
     0
291
     1
 45
0.0
1001
ACAD
1000
AcDbSavedByObjectVersion
1070
     0
  0
VISUALSTYLE
  5
3A
102
{ACAD_REACTORS
330
2A
102
}
330
2A
100
AcDbVisualStyle
  2
ColorChange
 70
    16
 71
     2
 72
     2
 73
     3
 90
        0
 40
-0.6
 41
-30.0
 62
     5
 63
     8
 74
     1
 91
        4
 64
     7
 65
   257
 75
     1
175
     1
 42
1.0
 92
        8
 66
     8
 43
1.0
 76
     1
 77
     6
 78
     2
 67
     7
 79
     5
170
     0
171
     0
290
     0
174
     0
 93
        1
 44
0.0
173
     0
291
     1
 45
0.0
1001
ACAD
1000
AcDbSavedByObjectVersion
1070
     0
  0
VISUALSTYLE
  5
34
102
{ACAD_REACTORS
330
2A
102
}
330
2A
100
AcDbVisualStyle
  2
Conceptual
 70
     9
 71
     3
 72
     2
 73
     0
 90
        0
 40
-0.6
 41
-30.0
 62
     5
 63
     7
 74
     2
 91
        2
 64
     7
 65
   257
 75
     1
175
     1
 42
40.0
 92
        8
 66
     7
 43
1.0
 76
     1
 77
     6
 78
     2
 67
     7
 79
     3
170
     0
171
     0
290
     0
174
     0
 93
        1
 44
0.0
173
     0
291
     0
 45
0.0
1001
ACAD
1000
AcDbSavedByObjectVersion
1070
     0
  0
VISUALSTYLE
  5
35
102
{ACAD_REACTORS
330
2A
102
}
330
2A
100
AcDbVisualStyle
  2
Dim
 70
    11
 71
     2
 72
     2
 73
     0
 90
        0
 40
-0.6
 41
-30.0
 62
     5
 63
     7
 74
     1
 91
        4
 64
     7
 65
   257
 75
     1
175
     1
 42
1.0
 92
        8
 66
     7
 43
1.0
 76
     1
 77
     6
 78
     2
 67
     7
 79
     5
170
     0
171
     0
290
     0
174
     0
 93
        1
 44
-50.0
173
     0
291
     1
 45
0.0
1001
ACAD
1000
AcDbSavedByObjectVersion
1070
     0
  0
VISUALSTYLE
  5
39
102
{ACAD_REACTORS
330
2A
102
}
330
2A
100
AcDbVisualStyle
  2
Facepattern
 70
    15
 71
     2
 72
     2
 73
     0
 90
        0
 40
-0.6
 41
-30.0
 62
     5
 63
     7
 74
     1
 91
        4
 64
     7
 65
   257
 75
     1
175
     1
 42
1.0
 92
        8
 66
     7
 43
1.0
 76
     1
 77
     6
 78
     2
 67
     7
 79
     5
170
     0
171
     0
290
     0
174
     0
 93
        1
 44
0.0
173
     0
291
     1
 45
0.0
1001
ACAD
1000
AcDbSavedByObjectVersion
1070
     0
  0
VISUALSTYLE
  5
2B
102
{ACAD_REACTORS
330
2A
102
}
330
2A
100
AcDbVisualStyle
  2
Flat
 70
     0
 71
     2
 72
     1
 73
     1
 90
        2
 40
-0.6
 41
30.0
 62
     5
 63
     7
 74
     0
 91
        4
 64
     7
 65
   257
 75
     1
175
     1
 42
1.0
 92
        8
 66
     7
 43
1.0
 76
     1
 77
     6
 78
     2
 67
     7
 79
     5
170
     0
171
     0
290
     0
174
     0
 93
       13
 44
0.0
173
     0
291
     1
 45
0.0
1001
ACAD
1000
AcDbSavedByObjectVersion
1070
     0
  0
VISUALSTYLE
  5
2C
102
{ACAD_REACTORS
330
2A
102
}
330
2A
100
AcDbVisualStyle
  2
FlatWithEdges
 70
     1
 71
     2
 72
     1
 73
     1
 90
        2
 40
-0.6
 41
30.0
 62
     5
 63
     7
 74
     1
 91
        4
 64
     7
 65
   257
 75
     1
175
     1
 42
1.0
 92
        0
 66
   257
 43
1.0
 76
     1
 77
     6
 78
     2
 67
     7
 79
     5
170
     0
171
     0
290
     0
174
     0
 93
       13
 44
0.0
173
     0
291
     1
 45
0.0
1001
ACAD
1000
AcDbSavedByObjectVersion
1070
     0
  0
VISUALSTYLE
  5
2D
102
{ACAD_REACTORS
330
2A
102
}
330
2A
100
AcDbVisualStyle
  2
Gouraud
 70
     2
 71
     2
 72
     2
 73
     1
 90
        2
 40
-0.6
 41
30.0
 62
     5
 63
     7
 74
     0
 91
        4
 64
     7
 65
   257
 75
     1
175
     1
 42
1.0
 92
        0
 66
     7
 43
1.0
 76
     1
 77
     6
 78
     2
 67
     7
 79
     5
170
     0
171
     0
290
     0
174
     0
 93
       13
 44
0.0
173
     0
291
     1
 45
0.0
1001
ACAD
1000
AcDbSavedByObjectVersion
1070
     0
  0
VISUALSTYLE
  5
2E
102
{ACAD_REACTORS
330
2A
102
}
330
2A
100
AcDbVisualStyle
  2
GouraudWithEdges
 70
     3
 71
     2
 72
     2
 73
     1
 90
        2
 40
-0.6
 41
30.0
 62
     5
 63
     7
 74
     1
 91
        4
 64
     7
 65
   257
 75
     1
175
     1
 42
1.0
 92
        0
 66
   257
 43
1.0
 76
     1
 77
     6
 78
     2
 67
     7
 79
     5
170
     0
171
     0
290
     0
174
     0
 93
       13
 44
0.0
173
     0
291
     1
 45
0.0
1001
ACAD
1000
AcDbSavedByObjectVersion
1070
     0
  0
VISUALSTYLE
  5
38
102
{ACAD_REACTORS
330
2A
102
}
330
2A
100
AcDbVisualStyle
  2
Linepattern
 70
    14
 71
     2
 72
     2
 73
     0
 90
        0
 40
-0.6
 41
-30.0
 62
     5
 63
     7
 74
     1
 91
        4
 64
     7
 65
   257
 75
     7
175
     7
 42
1.0
 92
        8
 66
     7
 43
1.0
 76
     1
 77
     6
 78
     2
 67
     7
 79
     5
170
     0
171
     0
290
     0
174
     0
 93
        1
 44
0.0
173
     0
291
     1
 45
0.0
1001
ACAD
1000
AcDbSavedByObjectVersion
1070
     0
  0
VISUALSTYLE
  5
33
102
{ACAD_REACTORS
330
2A
102
}
330
2A
100
AcDbVisualStyle
  2
Realistic
 70
     8
 71
     2
 72
     2
 73
     0
 90
        0
 40
-0.6
 41
-30.0
 62
     5
 63
     7
 74
     1
 91
        0
 64
     7
 65
   257
 75
     1
175
     1
 42
1.0
 92
        8
 66
     8
 43
1.0
 76
     1
 77
     6
 78
     2
 67
     7
 79
     5
170
     0
171
     0
290
     0
174
     0
 93
       13
 44
0.0
173
     0
291
     0
 45
0.0
1001
ACAD
1000
AcDbSavedByObjectVersion
1070
     0
  0
VISUALSTYLE
  5
37
102
{ACAD_REACTORS
330
2A
102
}
330
2A
100
AcDbVisualStyle
  2
Thicken
 70
    13
 71
     2
 72
     2
 73
     0
 90
        0
 40
-0.6
 41
-30.0
 62
     5
 63
     7
 74
     1
 91
        4
 64
     7
 65
   257
 75
     1
175
     1
 42
1.0
 92
       12
 66
     7
 43
1.0
 76
     1
 77
     6
 78
     2
 67
     7
 79
     5
170
     0
171
     0
290
     0
174
     0
 93
        1
 44
0.0
173
     0
291
     1
 45
0.0
1001
ACAD
1000
AcDbSavedByObjectVersion
1070
     0
  0
DICTIONARYVAR
  5
18B
102
{ACAD_REACTORS
330
188
102
}
330
188
100
DictionaryVariables
280
     0
  1
1:1
  0
ENDSEC
  0
EOF
