  0
SECTION
  2
HEADER
  9
$ACADVER
  1
AC1015
  9
$ACADMAINTVER
 70
     6
  9
$DWGCODEPAGE
  3
ANSI_1252
  9
$INSBASE
 10
0.0
 20
0.0
 30
0.0
  9
$EXTMIN
 10
35.2850356314436
 20
258.6813010259307
 30
0.0
  9
$EXTMAX
 10
209.356312168766
 20
367.450687943237
 30
0.0
  9
$LIMMIN
 10
0.0
 20
0.0
  9
$LIMMAX
 10
12.0
 20
9.0
  9
$ORTHOMODE
 70
     0
  9
$REGENMODE
 70
     1
  9
$FILLMODE
 70
     1
  9
$QTEXTMODE
 70
     0
  9
$MIRRTEXT
 70
     1
  9
$LTSCALE
 40
1.0
  9
$ATTMODE
 70
     1
  9
$TEXTSIZE
 40
0.2
  9
$TRACEWID
 40
0.05
  9
$TEXTSTYLE
  7
Standard
  9
$CLAYER
  8
0
  9
$CELTYPE
  6
ByLayer
  9
$CECOLOR
 62
   256
  9
$CELTSCALE
 40
1.0
  9
$DISPSILH
 70
     0
  9
$DIMSCALE
 40
1.0
  9
$DIMASZ
 40
0.18
  9
$DIMEXO
 40
0.0625
  9
$DIMDLI
 40
0.38
  9
$DIMRND
 40
0.0
  9
$DIMDLE
 40
0.0
  9
$DIMEXE
 40
0.18
  9
$DIMTP
 40
0.0
  9
$DIMTM
 40
0.0
  9
$DIMTXT
 40
0.18
  9
$DIMCEN
 40
0.09
  9
$DIMTSZ
 40
0.0
  9
$DIMTOL
 70
     0
  9
$DIMLIM
 70
     0
  9
$DIMTIH
 70
     1
  9
$DIMTOH
 70
     1
  9
$DIMSE1
 70
     0
  9
$DIMSE2
 70
     0
  9
$DIMTAD
 70
     0
  9
$DIMZIN
 70
     0
  9
$DIMBLK
  1

  9
$DIMASO
 70
     1
  9
$DIMSHO
 70
     1
  9
$DIMPOST
  1

  9
$DIMAPOST
  1

  9
$DIMALT
 70
     0
  9
$DIMALTD
 70
     2
  9
$DIMALTF
 40
25.4
  9
$DIMLFAC
 40
1.0
  9
$DIMTOFL
 70
     0
  9
$DIMTVP
 40
0.0
  9
$DIMTIX
 70
     0
  9
$DIMSOXD
 70
     0
  9
$DIMSAH
 70
     0
  9
$DIMBLK1
  1

  9
$DIMBLK2
  1

  9
$DIMSTYLE
  2
Standard
  9
$DIMCLRD
 70
     0
  9
$DIMCLRE
 70
     0
  9
$DIMCLRT
 70
     0
  9
$DIMTFAC
 40
1.0
  9
$DIMGAP
 40
0.09
  9
$DIMJUST
 70
     0
  9
$DIMSD1
 70
     0
  9
$DIMSD2
 70
     0
  9
$DIMTOLJ
 70
     1
  9
$DIMTZIN
 70
     0
  9
$DIMALTZ
 70
     0
  9
$DIMALTTZ
 70
     0
  9
$DIMUPT
 70
     0
  9
$DIMDEC
 70
     4
  9
$DIMTDEC
 70
     4
  9
$DIMALTU
 70
     2
  9
$DIMALTTD
 70
     2
  9
$DIMTXSTY
  7
Standard
  9
$DIMAUNIT
 70
     0
  9
$DIMADEC
 70
     0
  9
$DIMALTRND
 40
0.0
  9
$DIMAZIN
 70
     0
  9
$DIMDSEP
 70
    46
  9
$DIMATFIT
 70
     3
  9
$DIMFRAC
 70
     0
  9
$DIMLDRBLK
  1

  9
$DIMLUNIT
 70
     2
  9
$DIMLWD
 70
    -2
  9
$DIMLWE
 70
    -2
  9
$DIMTMOVE
 70
     0
  9
$LUNITS
 70
     2
  9
$LUPREC
 70
     4
  9
$SKETCHINC
 40
0.1
  9
$FILLETRAD
 40
0.5
  9
$AUNITS
 70
     0
  9
$AUPREC
 70
     0
  9
$MENU
  1
.
  9
$ELEVATION
 40
0.0
  9
$PELEVATION
 40
0.0
  9
$THICKNESS
 40
0.0
  9
$LIMCHECK
 70
     0
  9
$CHAMFERA
 40
0.5
  9
$CHAMFERB
 40
0.5
  9
$CHAMFERC
 40
1.0
  9
$CHAMFERD
 40
0.0
  9
$SKPOLY
 70
     0
  9
$TDCREATE
 40
2456749.747600359
  9
$TDUCREATE
 40
2456749.664267025
  9
$TDUPDATE
 40
2456749.747600371
  9
$TDUUPDATE
 40
2456749.664267037
  9
$TDINDWG
 40
0.0000000116
  9
$TDUSRTIMER
 40
0.0000000116
  9
$USRTIMER
 70
     1
  9
$ANGBASE
 50
0.0
  9
$ANGDIR
 70
     0
  9
$PDMODE
 70
     0
  9
$PDSIZE
 40
0.0
  9
$PLINEWID
 40
0.0
  9
$SPLFRAME
 70
     0
  9
$SPLINETYPE
 70
     6
  9
$SPLINESEGS
 70
     8
  9
$HANDSEED
  5
186
  9
$SURFTAB1
 70
     6
  9
$SURFTAB2
 70
     6
  9
$SURFTYPE
 70
     6
  9
$SURFU
 70
     6
  9
$SURFV
 70
     6
  9
$UCSBASE
  2

  9
$UCSNAME
  2

  9
$UCSORG
 10
0.0
 20
0.0
 30
0.0
  9
$UCSXDIR
 10
1.0
 20
0.0
 30
0.0
  9
$UCSYDIR
 10
0.0
 20
1.0
 30
0.0
  9
$UCSORTHOREF
  2

  9
$UCSORTHOVIEW
 70
     0
  9
$UCSORGTOP
 10
0.0
 20
0.0
 30
0.0
  9
$UCSORGBOTTOM
 10
0.0
 20
0.0
 30
0.0
  9
$UCSORGLEFT
 10
0.0
 20
0.0
 30
0.0
  9
$UCSORGRIGHT
 10
0.0
 20
0.0
 30
0.0
  9
$UCSORGFRONT
 10
0.0
 20
0.0
 30
0.0
  9
$UCSORGBACK
 10
0.0
 20
0.0
 30
0.0
  9
$PUCSBASE
  2

  9
$PUCSNAME
  2

  9
$PUCSORG
 10
0.0
 20
0.0
 30
0.0
  9
$PUCSXDIR
 10
1.0
 20
0.0
 30
0.0
  9
$PUCSYDIR
 10
0.0
 20
1.0
 30
0.0
  9
$PUCSORTHOREF
  2

  9
$PUCSORTHOVIEW
 70
     0
  9
$PUCSORGTOP
 10
0.0
 20
0.0
 30
0.0
  9
$PUCSORGBOTTOM
 10
0.0
 20
0.0
 30
0.0
  9
$PUCSORGLEFT
 10
0.0
 20
0.0
 30
0.0
  9
$PUCSORGRIGHT
 10
0.0
 20
0.0
 30
0.0
  9
$PUCSORGFRONT
 10
0.0
 20
0.0
 30
0.0
  9
$PUCSORGBACK
 10
0.0
 20
0.0
 30
0.0
  9
$USERI1
 70
     0
  9
$USERI2
 70
     0
  9
$USERI3
 70
     0
  9
$USERI4
 70
     0
  9
$USERI5
 70
     0
  9
$USERR1
 40
16.5
  9
$USERR2
 40
0.0
  9
$USERR3
 40
0.0
  9
$USERR4
 40
0.0
  9
$USERR5
 40
0.0
  9
$WORLDVIEW
 70
     1
  9
$SHADEDGE
 70
     3
  9
$SHADEDIF
 70
    70
  9
$TILEMODE
 70
     1
  9
$MAXACTVP
 70
    64
  9
$PINSBASE
 10
0.0
 20
0.0
 30
0.0
  9
$PLIMCHECK
 70
     0
  9
$PEXTMIN
 10
1.00000000000000E+20
 20
1.00000000000000E+20
 30
1.00000000000000E+20
  9
$PEXTMAX
 10
-1.00000000000000E+20
 20
-1.00000000000000E+20
 30
-1.00000000000000E+20
  9
$PLIMMIN
 10
0.0
 20
0.0
  9
$PLIMMAX
 10
12.0
 20
9.0
  9
$UNITMODE
 70
     0
  9
$VISRETAIN
 70
     1
  9
$PLINEGEN
 70
     0
  9
$PSLTSCALE
 70
     1
  9
$TREEDEPTH
 70
  3020
  9
$CMLSTYLE
  2
Standard
  9
$CMLJUST
 70
     0
  9
$CMLSCALE
 40
1.0
  9
$PROXYGRAPHICS
 70
     1
  9
$MEASUREMENT
 70
     1
  9
$CELWEIGHT
370
    -1
  9
$ENDCAPS
280
     0
  9
$JOINSTYLE
280
     0
  9
$LWDISPLAY
290
     0
  9
$INSUNITS
 70
     1
  9
$HYPERLINKBASE
  1

  9
$STYLESHEET
  1

  9
$XEDIT
290
     1
  9
$CEPSNTYPE
380
     0
  9
$PSTYLEMODE
290
     1
  9
$FINGERPRINTGUID
  2
{366E5FFE-936A-4B21-8C98-79FC53075056}
  9
$VERSIONGUID
  2
{FAEB1C32-E019-11D5-929B-00C0DF256EC4}
  9
$EXTNAMES
290
     1
  9
$PSVPSCALE
 40
0.0
  9
$OLESTARTUP
290
     0
  0
ENDSEC
  0
SECTION
  2
CLASSES
  0
CLASS
  1
ACDBDICTIONARYWDFLT
  2
AcDbDictionaryWithDefault
  3
ObjectDBX Classes
 90
        0
280
     0
281
     0
  0
CLASS
  1
VISUALSTYLE
  2
AcDbVisualStyle
  3
ObjectDBX Classes
 90
     4095
280
     0
281
     0
  0
CLASS
  1
SCALE
  2
AcDbScale
  3
ObjectDBX Classes
 90
     1153
280
     0
281
     0
  0
CLASS
  1

  2
exOdDbPolyline
  3

 90
        0
280
     0
281
     1
  0
CLASS
  1

  2
exOdDbCircle
  3

 90
        0
280
     0
281
     1
  0
CLASS
  1

  2
exOdDbSpline
  3

 90
        0
280
     0
281
     1
  0
CLASS
  1
DICTIONARYVAR
  2
AcDbDictionaryVar
  3
ObjectDBX Classes
 90
        0
280
     0
281
     0
  0
CLASS
  1
ACDBPLACEHOLDER
  2
AcDbPlaceHolder
  3
ObjectDBX Classes
 90
        0
280
     0
281
     0
  0
CLASS
  1
LAYOUT
  2
AcDbLayout
  3
ObjectDBX Classes
 90
        0
280
     0
281
     0
  0
ENDSEC
  0
SECTION
  2
TABLES
  0
TABLE
  2
VPORT
  5
8
330
0
100
AcDbSymbolTable
 70
     1
  0
VPORT
  5
29
330
8
100
AcDbSymbolTableRecord
100
AcDbViewportTableRecord
  2
*Active
 70
     0
 10
0.0
 20
0.0
 11
1.0
 21
1.0
 12
122.3206739001048
 22
313.0659944845838
 13
0.0
 23
0.0
 14
0.5
 24
0.5
 15
0.5
 25
0.5
 16
0.0
 26
0.0
 36
1.0
 17
0.0
 27
0.0
 37
0.0
 40
119.646325609037
 41
1.60267857142857
 42
50.0
 43
0.0
 44
0.0
 50
0.0
 51
0.0
 71
     0
 72
   100
 73
     1
 74
     3
 75
     0
 76
     0
 77
     0
 78
     0
281
     0
 65
     1
110
0.0
120
0.0
130
0.0
111
1.0
121
0.0
131
0.0
112
0.0
122
1.0
132
0.0
 79
     0
146
0.0
  0
ENDTAB
  0
TABLE
  2
LTYPE
  5
5
330
0
100
AcDbSymbolTable
 70
     8
  0
LTYPE
  5
14
330
5
100
AcDbSymbolTableRecord
100
AcDbLinetypeTableRecord
  2
ByBlock
 70
     0
  3

 72
    65
 73
     0
 40
0.0
  0
LTYPE
  5
15
330
5
100
AcDbSymbolTableRecord
100
AcDbLinetypeTableRecord
  2
ByLayer
 70
     0
  3

 72
    65
 73
     0
 40
0.0
  0
LTYPE
  5
16
330
5
100
AcDbSymbolTableRecord
100
AcDbLinetypeTableRecord
  2
Continuous
 70
     0
  3
Solid line
 72
    65
 73
     0
 40
0.0
  0
LTYPE
  5
3B
330
5
100
AcDbSymbolTableRecord
100
AcDbLinetypeTableRecord
  2
DASHED
 70
     0
  3
Dashed
 72
    65
 73
     2
 40
15.0
 49
7.0
 74
     0
 49
-8.0
 74
     0
  0
LTYPE
  5
3C
330
5
100
AcDbSymbolTableRecord
100
AcDbLinetypeTableRecord
  2
DOTTED
 70
     0
  3
Dotted
 72
    65
 73
     2
 40
1.0
 49
0.0
 74
     0
 49
-1.0
 74
     0
  0
LTYPE
  5
3D
330
5
100
AcDbSymbolTableRecord
100
AcDbLinetypeTableRecord
  2
DOT_CENTER
 70
     0
  3
Dot_Center
 72
    65
 73
     4
 40
14.0
 49
12.0
 74
     0
 49
-1.0
 74
     0
 49
0.0
 74
     0
 49
-1.0
 74
     0
  0
LTYPE
  5
3E
330
5
100
AcDbSymbolTableRecord
100
AcDbLinetypeTableRecord
  2
LONG_DASHED
 70
     0
  3
Long_Dashed
 72
    65
 73
     2
 40
15.0
 49
10.0
 74
     0
 49
-5.0
 74
     0
  0
LTYPE
  5
3F
330
5
100
AcDbSymbolTableRecord
100
AcDbLinetypeTableRecord
  2
DASH_CENTER
 70
     0
  3
Dash_Center
 72
    65
 73
     4
 40
14.0
 49
11.0
 74
     0
 49
-1.0
 74
     0
 49
1.0
 74
     0
 49
-1.0
 74
     0
  0
LTYPE
  5
40
330
5
100
AcDbSymbolTableRecord
100
AcDbLinetypeTableRecord
  2
PHANTOM
 70
     0
  3
Phantom
 72
    65
 73
     6
 40
13.0
 49
10.0
 74
     0
 49
-1.0
 74
     0
 49
0.0
 74
     0
 49
-1.0
 74
     0
 49
0.0
 74
     0
 49
-1.0
 74
     0
  0
LTYPE
  5
41
330
5
100
AcDbSymbolTableRecord
100
AcDbLinetypeTableRecord
  2
CENTER_DASH_DASH
 70
     0
  3
Center_Dash_Dash
 72
    65
 73
     6
 40
14.0
 49
9.0
 74
     0
 49
-1.0
 74
     0
 49
1.0
 74
     0
 49
-1.0
 74
     0
 49
1.0
 74
     0
 49
-1.0
 74
     0
  0
ENDTAB
  0
TABLE
  2
LAYER
  5
2
330
0
100
AcDbSymbolTable
 70
     8
  0
LAYER
  5
10
330
2
100
AcDbSymbolTableRecord
100
AcDbLayerTableRecord
  2
0
 70
     0
 62
     7
  6
Continuous
370
    -3
390
F
  0
LAYER
  5
42
330
2
100
AcDbSymbolTableRecord
100
AcDbLayerTableRecord
  2
1
 70
     0
 62
     7
  6
Continuous
370
    -3
390
F
  0
LAYER
  5
43
330
2
100
AcDbSymbolTableRecord
100
AcDbLayerTableRecord
  2
BEZUGSACHSEN
 70
     0
 62
     7
  6
Continuous
370
    -3
390
F
  0
LAYER
  5
44
330
2
100
AcDbSymbolTableRecord
100
AcDbLayerTableRecord
  2
DEFAULT_2
 70
     0
 62
     7
  6
Continuous
370
    -3
390
F
  0
LAYER
  5
45
330
2
100
AcDbSymbolTableRecord
100
AcDbLayerTableRecord
  2
FASEN
 70
     0
 62
     7
  6
Continuous
370
    -3
390
F
  0
LAYER
  5
46
330
2
100
AcDbSymbolTableRecord
100
AcDbLayerTableRecord
  2
FLAECHEN
 70
     0
 62
     7
  6
Continuous
370
    -3
390
F
  0
LAYER
  5
47
330
2
100
AcDbSymbolTableRecord
100
AcDbLayerTableRecord
  2
RUNDUNGEN
 70
     0
 62
     7
  6
Continuous
370
    -3
390
F
  0
LAYER
  5
48
330
2
100
AcDbSymbolTableRecord
100
AcDbLayerTableRecord
  2
TEIL_STARTBEZUEGE
 70
     0
 62
     7
  6
Continuous
370
    -3
390
F
  0
ENDTAB
  0
TABLE
  2
STYLE
  5
3
330
0
100
AcDbSymbolTable
 70
     2
  0
STYLE
  5
11
330
3
100
AcDbSymbolTableRecord
100
AcDbTextStyleTableRecord
  2
Standard
 70
     0
 40
0.0
 41
1.0
 50
0.0
 71
     0
 42
0.2
  3
txt
  4

  0
STYLE
  5
6F
330
3
100
AcDbSymbolTableRecord
100
AcDbTextStyleTableRecord
  2
CONVERTER_11
 70
     0
 40
0.0
 41
0.72
 50
0.0
 71
     0
 42
0.2
  3
txt.shx
  4

  0
ENDTAB
  0
TABLE
  2
VIEW
  5
6
330
0
100
AcDbSymbolTable
 70
     0
  0
ENDTAB
  0
TABLE
  2
UCS
  5
7
330
0
100
AcDbSymbolTable
 70
     0
  0
ENDTAB
  0
TABLE
  2
APPID
  5
9
330
0
100
AcDbSymbolTable
 70
     1
  0
APPID
  5
12
330
9
100
AcDbSymbolTableRecord
100
AcDbRegAppTableRecord
  2
ACAD
 70
     0
  0
ENDTAB
  0
TABLE
  2
DIMSTYLE
  5
A
330
0
100
AcDbSymbolTable
 70
     7
100
AcDbDimStyleTable
  0
DIMSTYLE
105
27
330
A
100
AcDbSymbolTableRecord
100
AcDbDimStyleTableRecord
  2
Standard
 70
     0
340
11
  0
DIMSTYLE
105
142
102
{ACAD_REACTORS
330
143
102
}
330
A
100
AcDbSymbolTableRecord
100
AcDbDimStyleTableRecord
  2
ME10_DIM_10
 70
     0
  3
<>
 41
3.5
 42
2.0
 44
2.0
 71
     1
 73
     0
 74
     0
 77
     1
 78
     8
140
3.5
146
0.7
147
2.0
172
     1
173
     1
176
     2
177
     2
178
     3
271
     1
272
     0
340
6F
  0
DIMSTYLE
105
14D
102
{ACAD_REACTORS
330
14E
102
}
330
A
100
AcDbSymbolTableRecord
100
AcDbDimStyleTableRecord
  2
ME10_DIM_11
 70
     0
  3
<>
 41
3.5
 42
2.0
 44
2.0
 71
     1
 73
     0
 74
     0
 77
     1
 78
     8
140
3.5
146
0.7
147
2.0
172
     1
173
     1
176
     2
177
     2
178
     3
271
     2
272
     0
340
6F
  0
DIMSTYLE
105
158
102
{ACAD_REACTORS
330
159
102
}
330
A
100
AcDbSymbolTableRecord
100
AcDbDimStyleTableRecord
  2
ME10_DIM_12
 70
     0
  3
<>
 41
3.5
 42
2.0
 44
2.0
 71
     1
 73
     0
 74
     0
 77
     1
 78
     8
140
3.5
146
0.7
147
2.0
172
     1
173
     1
176
     2
177
     2
178
     3
271
     2
272
     0
340
6F
  0
DIMSTYLE
105
163
102
{ACAD_REACTORS
330
164
102
}
330
A
100
AcDbSymbolTableRecord
100
AcDbDimStyleTableRecord
  2
ME10_DIM_13
 70
     0
  3
<>
 41
3.5
 42
2.0
 44
2.0
 71
     1
 73
     0
 74
     0
 77
     1
 78
     8
140
3.5
146
0.7
147
2.0
172
     1
173
     1
176
     2
177
     2
178
     3
271
     2
272
     0
340
6F
  0
DIMSTYLE
105
16E
102
{ACAD_REACTORS
330
16F
102
}
330
A
100
AcDbSymbolTableRecord
100
AcDbDimStyleTableRecord
  2
ME10_DIM_14
 70
     0
  3
\U+2300<>
 41
3.5
 42
2.0
 44
2.0
 71
     1
 73
     0
 74
     0
 77
     1
 78
     8
140
3.5
146
0.7
147
2.0
172
     1
173
     1
176
     2
177
     2
178
     3
271
     2
272
     0
340
6F
  0
DIMSTYLE
105
179
102
{ACAD_REACTORS
330
17A
102
}
330
A
100
AcDbSymbolTableRecord
100
AcDbDimStyleTableRecord
  2
ME10_DIM_15
 70
     0
  3
\U+2300<>
 41
3.5
 42
2.0
 44
2.0
 71
     1
 73
     0
 74
     0
 77
     1
 78
     8
140
3.5
146
0.7
147
2.0
172
     1
173
     1
176
     2
177
     2
178
     3
271
     2
272
     0
340
6F
  0
ENDTAB
  0
TABLE
  2
BLOCK_RECORD
  5
1
330
0
100
AcDbSymbolTable
 70
     9
  0
BLOCK_RECORD
  5
1F
330
1
100
AcDbSymbolTableRecord
100
AcDbBlockTableRecord
  2
*Model_Space
340
22
  0
BLOCK_RECORD
  5
1B
330
1
100
AcDbSymbolTableRecord
100
AcDbBlockTableRecord
  2
*Paper_Space
340
1E
  0
BLOCK_RECORD
  5
23
330
1
100
AcDbSymbolTableRecord
100
AcDbBlockTableRecord
  2
*Paper_Space0
340
26
  0
BLOCK_RECORD
  5
49
330
1
100
AcDbSymbolTableRecord
100
AcDbBlockTableRecord
  2
Urheberrecht_DE-EN
340
0
102
{BLKREFS
331
6E
102
}
  0
BLOCK_RECORD
  5
139
330
1
100
AcDbSymbolTableRecord
100
AcDbBlockTableRecord
  2
*D2
340
0
  0
BLOCK_RECORD
  5
144
330
1
100
AcDbSymbolTableRecord
100
AcDbBlockTableRecord
  2
*D3
340
0
  0
BLOCK_RECORD
  5
14F
330
1
100
AcDbSymbolTableRecord
100
AcDbBlockTableRecord
  2
*D4
340
0
  0
BLOCK_RECORD
  5
15A
330
1
100
AcDbSymbolTableRecord
100
AcDbBlockTableRecord
  2
*D5
340
0
  0
BLOCK_RECORD
  5
165
330
1
100
AcDbSymbolTableRecord
100
AcDbBlockTableRecord
  2
*D6
340
0
  0
BLOCK_RECORD
  5
170
330
1
100
AcDbSymbolTableRecord
100
AcDbBlockTableRecord
  2
*D7
340
0
  0
BLOCK_RECORD
  5
17B
330
1
100
AcDbSymbolTableRecord
100
AcDbBlockTableRecord
  2
*D8
340
0
102
{BLKREFS
331
181
102
}
  0
ENDTAB
  0
ENDSEC
  0
SECTION
  2
BLOCKS
  0
BLOCK
  5
20
330
1F
100
AcDbEntity
  8
0
100
AcDbBlockBegin
  2
*Model_Space
 70
     0
 10
0.0
 20
0.0
 30
0.0
  3
*Model_Space
  1

  0
ENDBLK
  5
21
330
1F
100
AcDbEntity
  8
0
100
AcDbBlockEnd
  0
BLOCK
  5
1C
330
1B
100
AcDbEntity
 67
     1
  8
0
100
AcDbBlockBegin
  2
*Paper_Space
 70
     0
 10
0.0
 20
0.0
 30
0.0
  3
*Paper_Space
  1

  0
ENDBLK
  5
1D
330
1B
100
AcDbEntity
 67
     1
  8
0
100
AcDbBlockEnd
  0
BLOCK
  5
24
330
23
100
AcDbEntity
  8
0
100
AcDbBlockBegin
  2
*Paper_Space0
 70
     0
 10
0.0
 20
0.0
 30
0.0
  3
*Paper_Space0
  1

  0
ENDBLK
  5
25
330
23
100
AcDbEntity
  8
0
100
AcDbBlockEnd
  0
BLOCK
  5
4A
330
49
100
AcDbEntity
  8
0
100
AcDbBlockBegin
  2
Urheberrecht_DE-EN
 70
     0
 10
49.2850356314436
 20
314.970687943237
 30
0.0
  3
Urheberrecht_DE-EN
  1

  0
MTEXT
  5
70
330
49
100
AcDbEntity
  8
1
 62
     1
100
AcDbMText
 10
49.2850356314436
 20
258.6813010259307
 30
0.0
 40
2.0
 41
0.0
 71
     7
 72
     1
  1
F\U+00fcr diese Unterlage behalten wir das Ur-\Pheberrecht. Sie darf nur f\U+00fcr den von uns \Pbestimmten Zweck benutzt und ohne unsere \PZustimmung weder vervielf\U+00e4ltigt noch\PDritten zug\U+00e4nglich gemacht werden.
  7
CONVERTER_11
 11
0.0
 21
1.0
 31
0.0
 73
     1
 44
0.90036014405762
  0
MTEXT
  5
71
330
49
100
AcDbEntity
  8
1
 62
     1
100
AcDbMText
 10
49.2850356314436
 20
314.970687943237
 30
0.0
 40
2.0
 41
0.0
 71
     7
 72
     1
  1
We own the copyright of this document. It \Pdetermined and may neither be copied or \Pmade accessible to outsiders without our\Ppermission.
  7
CONVERTER_11
 11
0.0
 21
1.0
 31
0.0
 73
     1
 44
0.90036014405762
  0
ENDBLK
  5
4B
330
49
100
AcDbEntity
  8
0
100
AcDbBlockEnd
  0
BLOCK
  5
140
330
139
100
AcDbEntity
  8
0
100
AcDbBlockBegin
  2
*D2
 70
     1
 10
0.0
 20
0.0
 30
0.0
  3
*D2
  1

  0
LINE
  5
13A
330
139
100
AcDbEntity
  8
1
  6
Continuous
 62
     2
100
AcDbLine
 10
173.7261295181001
 20
352.353138546584
 30
0.0
 11
59.37612951810006
 21
352.353138546584
 31
0.0
  0
LINE
  5
13B
330
139
100
AcDbEntity
  8
1
  6
Continuous
 62
     2
100
AcDbLine
 10
173.7261295181001
 20
306.502748494
 30
0.0
 11
173.7261295181001
 21
354.353138546584
 31
0.0
  0
LINE
  5
13C
330
139
100
AcDbEntity
  8
1
  6
Continuous
 62
     2
100
AcDbLine
 10
59.37612951810006
 20
312.5591042752
 30
0.0
 11
59.37612951810006
 21
354.353138546584
 31
0.0
  0
SOLID
  5
13D
330
139
100
AcDbEntity
  8
1
 62
     2
100
AcDbTrace
 10
170.2261295181001
 20
351.8923548050281
 30
0.0
 11
170.2261295181001
 21
352.8139222881398
 31
0.0
 12
173.7261295181001
 22
352.353138546584
 32
0.0
 13
173.7261295181001
 23
352.353138546584
 33
0.0
  0
SOLID
  5
13E
330
139
100
AcDbEntity
  8
1
 62
     2
100
AcDbTrace
 10
62.87612951810006
 20
352.8139222881398
 30
0.0
 11
62.87612951810006
 21
351.8923548050281
 31
0.0
 12
59.37612951810006
 22
352.353138546584
 32
0.0
 13
59.37612951810006
 23
352.353138546584
 33
0.0
  0
MTEXT
  5
13F
330
139
100
AcDbEntity
  8
1
 62
     3
100
AcDbMText
 10
119.761129465313
 20
354.353138546584
 30
0.0
 40
3.5
 41
0.0
 71
     7
 72
     1
  1
\C3;\C3;\C3;114.4\C2;\H2.45;\S^ ;\C3;
  7
CONVERTER_11
 11
0.9999999999970619
 21
2.424068405545306E-6
 31
0.0
 73
     1
 44
0.60024009603842
  0
ENDBLK
  5
141
330
139
100
AcDbEntity
  8
0
100
AcDbBlockEnd
  0
BLOCK
  5
14B
330
144
100
AcDbEntity
  8
0
100
AcDbBlockBegin
  2
*D3
 70
     1
 10
0.0
 20
0.0
 30
0.0
  3
*D3
  1

  0
LINE
  5
145
330
144
100
AcDbEntity
  8
1
  6
Continuous
 62
     2
100
AcDbLine
 10
84.3261295181
 20
344.993086272282
 30
0.0
 11
184.3261295181
 21
344.993086272282
 31
0.0
  0
LINE
  5
146
330
144
100
AcDbEntity
  8
1
  6
Continuous
 62
     2
100
AcDbLine
 10
184.3261295181
 20
306.252748494
 30
0.0
 11
184.3261295181
 21
346.993086272282
 31
0.0
  0
LINE
  5
147
330
144
100
AcDbEntity
  8
1
  6
Continuous
 62
     2
100
AcDbLine
 10
84.3261295181
 20
320.502748494
 30
0.0
 11
84.3261295181
 21
346.993086272282
 31
0.0
  0
SOLID
  5
148
330
144
100
AcDbEntity
  8
1
 62
     2
100
AcDbTrace
 10
87.8261295181
 20
345.4538700138379
 30
0.0
 11
87.8261295181
 21
344.5323025307262
 31
0.0
 12
84.3261295181
 22
344.993086272282
 32
0.0
 13
84.3261295181
 23
344.993086272282
 33
0.0
  0
SOLID
  5
149
330
144
100
AcDbEntity
  8
1
 62
     2
100
AcDbTrace
 10
180.8261295181
 20
344.5323025307262
 30
0.0
 11
180.8261295181
 21
345.4538700138379
 31
0.0
 12
184.3261295181
 22
344.993086272282
 32
0.0
 13
184.3261295181
 23
344.993086272282
 33
0.0
  0
MTEXT
  5
14A
330
144
100
AcDbEntity
  8
1
 62
     3
100
AcDbMText
 10
133.646578762013
 20
346.993086272282
 30
0.0
 40
3.5
 41
0.0
 71
     7
 72
     1
  1
\C3;\C3;\C3;100\C2;\H2.45;\S^ ;\C3;
  7
CONVERTER_11
 11
0.9999999999970619
 21
2.424068405545306E-6
 31
0.0
 73
     1
 44
0.60024009603842
  0
ENDBLK
  5
14C
330
144
100
AcDbEntity
  8
0
100
AcDbBlockEnd
  0
BLOCK
  5
156
330
14F
100
AcDbEntity
  8
0
100
AcDbBlockBegin
  2
*D4
 70
     1
 10
0.0
 20
0.0
 30
0.0
  3
*D4
  1

  0
LINE
  5
150
330
14F
100
AcDbEntity
  8
1
  6
Continuous
 62
     2
100
AcDbLine
 10
173.7261295181
 20
336.387486690021
 30
0.0
 11
84.3261295181
 21
336.387486690021
 31
0.0
  0
LINE
  5
151
330
14F
100
AcDbEntity
  8
1
  6
Continuous
 62
     2
100
AcDbLine
 10
84.3261295181
 20
320.502748494
 30
0.0
 11
84.3261295181
 21
338.387486690021
 31
0.0
  0
LINE
  5
152
330
14F
100
AcDbEntity
  8
1
  6
Continuous
 62
     2
100
AcDbLine
 10
173.7261295181
 20
306.502748494
 30
0.0
 11
173.7261295181
 21
338.387486690021
 31
0.0
  0
SOLID
  5
153
330
14F
100
AcDbEntity
  8
1
 62
     2
100
AcDbTrace
 10
170.2261295181
 20
335.9267029484651
 30
0.0
 11
170.2261295181
 21
336.8482704315769
 31
0.0
 12
173.7261295181
 22
336.387486690021
 32
0.0
 13
173.7261295181
 23
336.387486690021
 33
0.0
  0
SOLID
  5
154
330
14F
100
AcDbEntity
  8
1
 62
     2
100
AcDbTrace
 10
87.8261295181
 20
336.8482704315769
 30
0.0
 11
87.8261295181
 21
335.9267029484651
 31
0.0
 12
84.3261295181
 22
336.387486690021
 32
0.0
 13
84.3261295181
 23
336.387486690021
 33
0.0
  0
MTEXT
  5
155
330
14F
100
AcDbEntity
  8
1
 62
     3
100
AcDbMText
 10
126.090915928416
 20
338.387486690021
 30
0.0
 40
3.5
 41
0.0
 71
     7
 72
     1
  1
\C3;\C3;\C3;89.4\C2;\H2.45;\S^ ;\C3;
  7
CONVERTER_11
 11
0.9999999999970619
 21
2.424068405545306E-6
 31
0.0
 73
     1
 44
0.60024009603842
  0
ENDBLK
  5
157
330
14F
100
AcDbEntity
  8
0
100
AcDbBlockEnd
  0
BLOCK
  5
161
330
15A
100
AcDbEntity
  8
0
100
AcDbBlockBegin
  2
*D5
 70
     1
 10
0.0
 20
0.0
 30
0.0
  3
*D5
  1

  0
LINE
  5
15B
330
15A
100
AcDbEntity
  8
1
  6
Continuous
 62
     2
100
AcDbLine
 10
173.7261295181
 20
328.234813401563
 30
0.0
 11
110.3261295181
 21
328.234813401563
 31
0.0
  0
LINE
  5
15C
330
15A
100
AcDbEntity
  8
1
  6
Continuous
 62
     2
100
AcDbLine
 10
173.7261295181
 20
306.502748494
 30
0.0
 11
173.7261295181
 21
330.234813401563
 31
0.0
  0
LINE
  5
15D
330
15A
100
AcDbEntity
  8
1
  6
Continuous
 62
     2
100
AcDbLine
 10
110.3261295181
 20
320.5026984755
 30
0.0
 11
110.3261295181
 21
330.234813401563
 31
0.0
  0
SOLID
  5
15E
330
15A
100
AcDbEntity
  8
1
 62
     2
100
AcDbTrace
 10
170.2261295181
 20
327.7740296600071
 30
0.0
 11
170.2261295181
 21
328.6955971431188
 31
0.0
 12
173.7261295181
 22
328.234813401563
 32
0.0
 13
173.7261295181
 23
328.234813401563
 33
0.0
  0
SOLID
  5
15F
330
15A
100
AcDbEntity
  8
1
 62
     2
100
AcDbTrace
 10
113.8261295181
 20
328.6955971431188
 30
0.0
 11
113.8261295181
 21
327.7740296600071
 31
0.0
 12
110.3261295181
 22
328.234813401563
 32
0.0
 13
110.3261295181
 23
328.234813401563
 33
0.0
  0
MTEXT
  5
160
330
15A
100
AcDbEntity
  8
1
 62
     3
100
AcDbMText
 10
137.5528240153246
 20
330.234813401563
 30
0.0
 40
3.5
 41
0.0
 71
     7
 72
     1
  1
\C3;\C3;\C3;63.4\C2;\H2.45;\S^ ;\C3;
  7
CONVERTER_11
 11
0.9999999999970619
 21
2.424068405545306E-6
 31
0.0
 73
     1
 44
0.60024009603842
  0
ENDBLK
  5
162
330
15A
100
AcDbEntity
  8
0
100
AcDbBlockEnd
  0
BLOCK
  5
16C
330
165
100
AcDbEntity
  8
0
100
AcDbBlockBegin
  2
*D6
 70
     1
 10
0.0
 20
0.0
 30
0.0
  3
*D6
  1

  0
LINE
  5
166
330
165
100
AcDbEntity
  8
1
  6
Continuous
 62
     2
100
AcDbLine
 10
207.356312168766
 20
307.502748494
 30
0.0
 11
207.356312168766
 21
279.502748494
 31
0.0
  0
LINE
  5
167
330
165
100
AcDbEntity
  8
1
  6
Continuous
 62
     2
100
AcDbLine
 10
183.0761295181
 20
279.502748494
 30
0.0
 11
209.356312168766
 21
279.502748494
 31
0.0
  0
LINE
  5
168
330
165
100
AcDbEntity
  8
1
  6
Continuous
 62
     2
100
AcDbLine
 10
183.0761295181
 20
307.502748494
 30
0.0
 11
209.356312168766
 21
307.502748494
 31
0.0
  0
SOLID
  5
169
330
165
100
AcDbEntity
  8
1
 62
     2
100
AcDbTrace
 10
207.8170959103219
 20
304.002748494
 30
0.0
 11
206.8955284272101
 21
304.002748494
 31
0.0
 12
207.356312168766
 22
307.502748494
 32
0.0
 13
207.356312168766
 23
307.502748494
 33
0.0
  0
SOLID
  5
16A
330
165
100
AcDbEntity
  8
1
 62
     2
100
AcDbTrace
 10
206.8955284272101
 20
283.002748494
 30
0.0
 11
207.8170959103219
 21
283.002748494
 31
0.0
 12
207.356312168766
 22
279.502748494
 32
0.0
 13
207.356312168766
 23
279.502748494
 33
0.0
  0
MTEXT
  5
16B
330
165
100
AcDbEntity
  8
1
 62
     3
100
AcDbMText
 10
205.356312168766
 20
284.391257205264
 30
0.0
 40
3.5
 41
0.0
 71
     7
 72
     1
  1
\C3;%%c\C3;\C3;28\C2;\H2.45;\S^ ;\C3;
  7
CONVERTER_11
 11
0.0
 21
1.0
 31
0.0
 73
     1
 44
0.60024009603842
  0
ENDBLK
  5
16D
330
165
100
AcDbEntity
  8
0
100
AcDbBlockEnd
  0
BLOCK
  5
177
330
170
100
AcDbEntity
  8
0
100
AcDbBlockBegin
  2
*D7
 70
     1
 10
0.0
 20
0.0
 30
0.0
  3
*D7
  1

  0
LINE
  5
171
330
170
100
AcDbEntity
  8
1
  6
Continuous
 62
     2
100
AcDbLine
 10
198.750712586505
 20
301.502748494
 30
0.0
 11
198.750712586505
 21
285.502748494
 31
0.0
  0
LINE
  5
172
330
170
100
AcDbEntity
  8
1
  6
Continuous
 62
     2
100
AcDbLine
 10
175.7261295181
 20
285.502748494
 30
0.0
 11
200.750712586505
 21
285.502748494
 31
0.0
  0
LINE
  5
173
330
170
100
AcDbEntity
  8
1
  6
Continuous
 62
     2
100
AcDbLine
 10
175.7261295181
 20
301.502748494
 30
0.0
 11
200.750712586505
 21
301.502748494
 31
0.0
  0
SOLID
  5
174
330
170
100
AcDbEntity
  8
1
 62
     2
100
AcDbTrace
 10
199.2114963280609
 20
298.002748494
 30
0.0
 11
198.2899288449491
 21
298.002748494
 31
0.0
 12
198.750712586505
 22
301.502748494
 32
0.0
 13
198.750712586505
 23
301.502748494
 33
0.0
  0
SOLID
  5
175
330
170
100
AcDbEntity
  8
1
 62
     2
100
AcDbTrace
 10
198.2899288449491
 20
289.002748494
 30
0.0
 11
199.2114963280609
 21
289.002748494
 31
0.0
 12
198.750712586505
 22
285.502748494
 32
0.0
 13
198.750712586505
 23
285.502748494
 33
0.0
  0
MTEXT
  5
176
330
170
100
AcDbEntity
  8
1
 62
     3
100
AcDbMText
 10
196.750712586505
 20
285.150951925617
 30
0.0
 40
3.5
 41
0.0
 71
     7
 72
     1
  1
\C3;%%c\C3;\C3;16\C2;\H2.45;\S^ ;\C3;
  7
CONVERTER_11
 11
0.0
 21
1.0
 31
0.0
 73
     1
 44
0.60024009603842
  0
ENDBLK
  5
178
330
170
100
AcDbEntity
  8
0
100
AcDbBlockEnd
  0
BLOCK
  5
17F
330
17B
100
AcDbEntity
  8
0
100
AcDbBlockBegin
  2
*D8
 70
     1
 10
0.0
 20
0.0
 30
0.0
  3
*D8
  1

  0
LINE
  5
17C
330
17B
100
AcDbEntity
  8
1
  6
Continuous
 62
     2
100
AcDbLine
 10
121.6969496434444
 20
318.0839720838061
 30
0.0
 11
111.9115249554241
 21
310.066302007244
 31
0.0
  0
SOLID
  5
17D
330
17B
100
AcDbEntity
  8
1
 62
     2
100
AcDbTrace
 10
114.326792606565
 20
312.6409483576842
 30
0.0
 11
114.9108618669592
 21
311.9281021435598
 31
0.0
 12
111.9115249554241
 22
310.066302007244
 32
0.0
 13
111.9115249554241
 23
310.066302007244
 33
0.0
  0
MTEXT
  5
17E
330
17B
100
AcDbEntity
  8
1
 62
     3
100
AcDbMText
 10
114.6899126679348
 20
314.928368682895
 30
0.0
 40
3.5
 41
0.0
 71
     7
 72
     1
  1
\C3; R\C3;\C3;7\C2;\H2.45;\S^ ;\C3;
  7
CONVERTER_11
 11
0.7735149375251251
 21
0.6337780695365703
 31
0.0
 73
     1
 44
0.60024009603842
  0
ENDBLK
  5
180
330
17B
100
AcDbEntity
  8
0
100
AcDbBlockEnd
  0
ENDSEC
  0
SECTION
  2
ENTITIES
  0
INSERT
  5
6E
330
1F
100
AcDbEntity
  8
0
100
AcDbBlockReference
  2
Urheberrecht_DE-EN
 10
49.2850356314436
 20
314.970687943237
 30
0.0
  0
LINE
  5
72
330
1F
100
AcDbEntity
  8
FLAECHEN
  6
Continuous
 62
     7
100
AcDbLine
 10
166.5261295181
 20
304.502748494
 30
0.0
 11
166.5261295181
 21
282.502748494
 31
0.0
  0
LWPOLYLINE
  5
73
330
1F
100
AcDbEntity
  8
1
  6
DASHED
 62
     7
100
AcDbPolyline
 90
        2
 70
     0
 43
0.35
 10
173.7261295181
 20
304.502748494
 10
166.5261295181
 20
304.502748494
  0
LINE
  5
74
330
1F
100
AcDbEntity
  8
FLAECHEN
  6
Continuous
 62
     7
100
AcDbLine
 10
166.5261295181
 20
282.502748494
 30
0.0
 11
166.5261295181
 21
279.502748494
 31
0.0
  0
LWPOLYLINE
  5
75
330
1F
100
AcDbEntity
  8
1
  6
DASHED
 62
     7
100
AcDbPolyline
 90
        2
 70
     0
 43
0.35
 10
173.7261295181
 20
282.502748494
 10
166.5261295181
 20
282.502748494
  0
LINE
  5
76
330
1F
100
AcDbEntity
  8
RUNDUNGEN
  6
Continuous
 62
     7
100
AcDbLine
 10
110.3261295181
 20
295.549697443
 30
0.0
 11
110.3268438402
 21
293.502567013
 31
0.0
  0
LINE
  5
77
330
1F
100
AcDbEntity
  8
RUNDUNGEN
  6
Continuous
 62
     7
100
AcDbLine
 10
110.3268438402
 20
293.502567013
 30
0.0
 11
110.3261295181
 21
291.4557995449
 31
0.0
  0
LINE
  5
78
330
1F
100
AcDbEntity
  8
FLAECHEN
  6
Continuous
 62
     7
100
AcDbLine
 10
184.3261295181
 20
304.252748494
 30
0.0
 11
184.3261295181
 21
282.752748494
 31
0.0
  0
LINE
  5
79
330
1F
100
AcDbEntity
  8
0
  6
Continuous
 62
     7
100
AcDbLine
 10
181.0761295181
 20
279.5144181252
 30
0.0
 11
181.0761295181
 21
279.502748494
 31
0.0
  0
LINE
  5
7A
330
1F
100
AcDbEntity
  8
0
  6
Continuous
 62
     7
100
AcDbLine
 10
181.0761295181
 20
287.0514404871
 30
0.0
 11
181.0761295181
 21
286.0136488489
 31
0.0
  0
LINE
  5
7B
330
1F
100
AcDbEntity
  8
0
  6
Continuous
 62
     7
100
AcDbLine
 10
181.0761295181
 20
300.991848139
 30
0.0
 11
181.0761295181
 21
299.9540565009
 31
0.0
  0
LINE
  5
7C
330
1F
100
AcDbEntity
  8
0
  6
Continuous
 62
     7
100
AcDbLine
 10
181.0761295181
 20
307.502748494
 30
0.0
 11
181.0761295181
 21
307.4910788628
 31
0.0
  0
LINE
  5
7D
330
1F
100
AcDbEntity
  8
FLAECHEN
  6
Continuous
 62
     7
100
AcDbLine
 10
184.3261295181
 20
304.252748494
 30
0.0
 11
181.0761295181
 21
307.502748494
 31
0.0
  0
LINE
  5
7E
330
1F
100
AcDbEntity
  8
FLAECHEN
  6
Continuous
 62
     7
100
AcDbLine
 10
184.3261295181
 20
282.752748494
 30
0.0
 11
181.0761295181
 21
279.502748494
 31
0.0
  0
LINE
  5
7F
330
1F
100
AcDbEntity
  8
0
  6
Continuous
 62
     7
100
AcDbLine
 10
173.8261295181
 20
287.0514404871
 30
0.0
 11
173.8261295181
 21
299.9540565009
 31
0.0
  0
LINE
  5
80
330
1F
100
AcDbEntity
  8
0
  6
Continuous
 62
     7
100
AcDbLine
 10
173.8261295181
 20
286.0136488489
 30
0.0
 11
173.8261295181
 21
279.5144181252
 31
0.0
  0
LINE
  5
81
330
1F
100
AcDbEntity
  8
0
  6
Continuous
 62
     7
100
AcDbLine
 10
173.8261295181
 20
307.4910788628
 30
0.0
 11
173.8261295181
 21
300.991848139
 31
0.0
  0
LWPOLYLINE
  5
82
330
1F
100
AcDbEntity
  8
DEFAULT_2
  6
DASHED
 62
     8
100
AcDbPolyline
 90
        2
 70
     0
 43
0.35
 10
173.7261295181
 20
304.502748494
 10
173.7261295181
 20
282.502748494
  0
LINE
  5
83
330
1F
100
AcDbEntity
  8
FLAECHEN
  6
Continuous
 62
     7
100
AcDbLine
 10
166.5261295181
 20
307.502748494
 30
0.0
 11
166.5261295181
 21
304.502748494
 31
0.0
  0
LINE
  5
84
330
1F
100
AcDbEntity
  8
RUNDUNGEN
  6
Continuous
 62
     9
100
AcDbLine
 10
160.1403430804
 20
304.502748494
 30
0.0
 11
160.1403430804
 21
282.502748494
 31
0.0
  0
LINE
  5
85
330
1F
100
AcDbEntity
  8
RUNDUNGEN
  6
Continuous
 62
     9
100
AcDbLine
 10
159.4332362993
 20
304.7956417128
 30
0.0
 11
159.4332362993
 21
282.2098552752
 31
0.0
  0
LINE
  5
86
330
1F
100
AcDbEntity
  8
RUNDUNGEN
  6
Continuous
 62
     7
100
AcDbLine
 10
159.4332362993
 20
304.7956417128
 30
0.0
 11
157.0190227369
 21
307.2098552752
 31
0.0
  0
LINE
  5
87
330
1F
100
AcDbEntity
  8
0
  6
Continuous
 62
     7
100
AcDbLine
 10
157.0190227369
 20
307.2098552752
 30
0.0
 11
159.4332362993
 21
304.7956417128
 31
0.0
  0
LINE
  5
88
330
1F
100
AcDbEntity
  8
0
  6
Continuous
 62
     7
100
AcDbLine
 10
157.0190227369
 20
279.7956417128
 30
0.0
 11
159.4332362993
 21
282.2098552752
 31
0.0
  0
LINE
  5
89
330
1F
100
AcDbEntity
  8
RUNDUNGEN
  6
Continuous
 62
     9
100
AcDbLine
 10
157.0190227369
 20
279.7956417128
 30
0.0
 11
157.0190227369
 21
307.2098552752
 31
0.0
  0
LINE
  5
8A
330
1F
100
AcDbEntity
  8
RUNDUNGEN
  6
Continuous
 62
     9
100
AcDbLine
 10
156.3119159557
 20
279.502748494
 30
0.0
 11
156.3119159557
 21
307.502748494
 31
0.0
  0
LWPOLYLINE
  5
8B
330
1F
100
AcDbEntity
  8
DEFAULT_2
  6
DASHED
 62
     8
100
AcDbPolyline
 90
        2
 70
     0
 43
0.35
 10
154.1588627815
 20
298.752748494
 10
154.1588627815
 20
288.252748494
  0
LWPOLYLINE
  5
8C
330
1F
100
AcDbEntity
  8
DEFAULT_2
  6
DASHED
 62
     8
100
AcDbPolyline
 90
        2
 70
     0
 43
0.35
 10
151.7261295181
 20
298.752748494
 10
151.7261295181
 20
288.252748494
  0
LINE
  5
8D
330
1F
100
AcDbEntity
  8
0
  6
Continuous
 62
     7
100
AcDbLine
 10
105.7180623496
 20
318.502748494
 30
0.0
 11
110.3261295181
 21
318.502748494
 31
0.0
  0
LINE
  5
8E
330
1F
100
AcDbEntity
  8
0
  6
Continuous
 62
     7
100
AcDbLine
 10
96.3261295181
 20
318.502748494
 30
0.0
 11
98.9341966866
 21
318.502748494
 31
0.0
  0
LINE
  5
8F
330
1F
100
AcDbEntity
  8
0
  6
Continuous
 62
     7
100
AcDbLine
 10
84.3261295181
 20
318.502748494
 30
0.0
 11
86.3261295181
 21
318.502748494
 31
0.0
  0
LINE
  5
90
330
1F
100
AcDbEntity
  8
BEZUGSACHSEN
  6
Continuous
 62
     7
100
AcDbLine
 10
86.3261295181
 20
318.502748494
 30
0.0
 11
84.3261295181
 21
318.502748494
 31
0.0
  0
LINE
  5
91
330
1F
100
AcDbEntity
  8
BEZUGSACHSEN
  6
Continuous
 62
     7
100
AcDbLine
 10
98.9341966866
 20
318.502748494
 30
0.0
 11
96.3261295181
 21
318.502748494
 31
0.0
  0
LINE
  5
92
330
1F
100
AcDbEntity
  8
0
  6
Continuous
 62
     7
100
AcDbLine
 10
101.1636295181
 20
314.977748494
 30
0.0
 11
103.4886295181
 21
314.977748494
 31
0.0
  0
LINE
  5
93
330
1F
100
AcDbEntity
  8
0
  6
Continuous
 62
     7
100
AcDbLine
 10
84.0239598875
 20
312.457548494
 30
0.0
 11
83.1515311781
 21
312.457548494
 31
0.0
  0
LINE
  5
94
330
1F
100
AcDbEntity
  8
0
  6
Continuous
 62
     7
100
AcDbLine
 10
82.3261295181
 20
312.657548494
 30
0.0
 11
60.32609227569999
 21
311.5578516281
 31
0.0
  0
LINE
  5
95
330
1F
100
AcDbEntity
  8
0
  6
Continuous
 62
     7
100
AcDbLine
 10
117.3261295181
 20
307.502748494
 30
0.0
 11
156.3119159557
 21
307.502748494
 31
0.0
  0
LINE
  5
96
330
1F
100
AcDbEntity
  8
RUNDUNGEN
  6
Continuous
 62
     7
100
AcDbLine
 10
156.3119159557
 20
307.502748494
 30
0.0
 11
117.3261295181
 21
307.502748494
 31
0.0
  0
LINE
  5
97
330
1F
100
AcDbEntity
  8
FLAECHEN
  6
Continuous
 62
     7
100
AcDbLine
 10
181.0761295181
 20
307.502748494
 30
0.0
 11
166.5261295181
 21
307.502748494
 31
0.0
  0
LINE
  5
98
330
1F
100
AcDbEntity
  8
0
  6
Continuous
 62
     7
100
AcDbLine
 10
181.0761295181
 20
307.4910788628
 30
0.0
 11
173.8261295181
 21
307.4910788628
 31
0.0
  0
LINE
  5
99
330
1F
100
AcDbEntity
  8
0
  6
Continuous
 62
     7
100
AcDbLine
 10
160.1403430804
 20
304.502748494
 30
0.0
 11
166.5261295181
 21
304.502748494
 31
0.0
  0
LINE
  5
9A
330
1F
100
AcDbEntity
  8
RUNDUNGEN
  6
Continuous
 62
     7
100
AcDbLine
 10
166.5261295181
 20
304.502748494
 30
0.0
 11
160.1403430804
 21
304.502748494
 31
0.0
  0
LINE
  5
9B
330
1F
100
AcDbEntity
  8
0
  6
Continuous
 62
     7
100
AcDbLine
 10
82.9962397511
 20
312.4779929982
 30
0.0
 11
82.3261295181
 21
312.657548494
 31
0.0
  0
LINE
  5
9C
330
1F
100
AcDbEntity
  8
RUNDUNGEN
  6
Continuous
 62
     9
100
AcDbLine
 10
62.5761295181
 20
301.152748494
 30
0.0
 11
63.3941876943
 21
301.152748494
 31
0.0
  0
LINE
  5
9D
330
1F
100
AcDbEntity
  8
0
  6
Continuous
 62
     9
100
AcDbLine
 10
62.5761295181
 20
301.152748494
 30
0.0
 11
60.1126197279
 21
301.152748494
 31
0.0
  0
LINE
  5
9E
330
1F
100
AcDbEntity
  8
0
  6
Continuous
 62
     7
100
AcDbLine
 10
181.0761295181
 20
300.991848139
 30
0.0
 11
173.8261295181
 21
300.991848139
 31
0.0
  0
LINE
  5
9F
330
1F
100
AcDbEntity
  8
0
  6
Continuous
 62
     7
100
AcDbLine
 10
181.0761295181
 20
299.9540565009
 30
0.0
 11
173.8261295181
 21
299.9540565009
 31
0.0
  0
LINE
  5
A0
330
1F
100
AcDbEntity
  8
0
  6
Continuous
 62
     7
100
AcDbLine
 10
104.2386295181
 20
299.520248494
 30
0.0
 11
110.3261295181
 21
299.520248494
 31
0.0
  0
LINE
  5
A1
330
1F
100
AcDbEntity
  8
0
  6
Continuous
 62
     7
100
AcDbLine
 10
97.2936295181
 20
299.520248494
 30
0.0
 11
100.4136295181
 21
299.520248494
 31
0.0
  0
LINE
  5
A2
330
1F
100
AcDbEntity
  8
0
  6
Continuous
 62
     7
100
AcDbLine
 10
103.9601646653
 20
299.120248494
 30
0.0
 11
110.3261295181
 21
299.120248494
 31
0.0
  0
LINE
  5
A3
330
1F
100
AcDbEntity
  8
0
  6
Continuous
 62
     7
100
AcDbLine
 10
97.2936295181
 20
299.120248494
 30
0.0
 11
100.6920943708
 21
299.120248494
 31
0.0
  0
LINE
  5
A4
330
1F
100
AcDbEntity
  8
0
  6
Continuous
 62
     7
100
AcDbLine
 10
62.5761295181
 20
298.772748494
 30
0.0
 11
60.5261295181
 21
298.772748494
 31
0.0
  0
LWPOLYLINE
  5
A5
330
1F
100
AcDbEntity
  8
DEFAULT_2
  6
DASHED
 62
     8
100
AcDbPolyline
 90
        2
 70
     0
 43
0.35
 10
154.1588627815
 20
298.752748494
 10
151.7261295181
 20
298.752748494
  0
LINE
  5
A6
330
1F
100
AcDbEntity
  8
0
  6
Continuous
 62
     7
100
AcDbLine
 10
103.4886295181
 20
298.438903374
 30
0.0
 11
101.1636295181
 21
298.438903374
 31
0.0
  0
LWPOLYLINE
  5
A7
330
1F
100
AcDbEntity
  8
TEIL_STARTBEZUEGE
  6
DOT_CENTER
 62
     7
100
AcDbPolyline
 90
        2
 70
     0
 43
0.25
 10
190.7084412651
 20
293.502748494
 10
56.37612951810004
 20
293.502748494
  0
LWPOLYLINE
  5
A8
330
1F
100
AcDbEntity
  8
DEFAULT_2
  6
DASHED
 62
     8
100
AcDbPolyline
 90
        2
 70
     0
 43
0.35
 10
173.7261295181
 20
301.502748494
 10
154.1588627815
 20
298.752748494
  0
LWPOLYLINE
  5
A9
330
1F
100
AcDbEntity
  8
DEFAULT_2
  6
DASHED
 62
     8
100
AcDbPolyline
 90
        2
 70
     0
 43
0.35
 10
173.7261295181
 20
285.502748494
 10
154.1588627815
 20
288.252748494
  0
LINE
  5
AA
330
1F
100
AcDbEntity
  8
0
  6
Continuous
 62
     7
100
AcDbLine
 10
101.1636295181
 20
288.5665936139
 30
0.0
 11
103.4886295181
 21
288.5665936139
 31
0.0
  0
LINE
  5
AB
330
1F
100
AcDbEntity
  8
0
  6
Continuous
 62
     7
100
AcDbLine
 10
98.9341966866
 20
318.502748494
 30
0.0
 11
100.4136295181
 21
315.9402956635
 31
0.0
  0
LWPOLYLINE
  5
AC
330
1F
100
AcDbEntity
  8
DEFAULT_2
  6
DASHED
 62
     8
100
AcDbPolyline
 90
        2
 70
     0
 43
0.35
 10
154.1588627815
 20
288.252748494
 10
151.7261295181
 20
288.252748494
  0
LINE
  5
AD
330
1F
100
AcDbEntity
  8
0
  6
Continuous
 62
     7
100
AcDbLine
 10
62.5761295181
 20
288.232748494
 30
0.0
 11
60.5261295181
 21
288.232748494
 31
0.0
  0
LINE
  5
AE
330
1F
100
AcDbEntity
  8
0
  6
Continuous
 62
     7
100
AcDbLine
 10
100.6920943708
 20
287.885248494
 30
0.0
 11
97.2936295181
 21
287.885248494
 31
0.0
  0
LINE
  5
AF
330
1F
100
AcDbEntity
  8
0
  6
Continuous
 62
     7
100
AcDbLine
 10
110.3261295181
 20
287.885248494
 30
0.0
 11
103.9601646653
 21
287.885248494
 31
0.0
  0
LINE
  5
B0
330
1F
100
AcDbEntity
  8
0
  6
Continuous
 62
     7
100
AcDbLine
 10
104.2386295181
 20
287.485248494
 30
0.0
 11
110.3261295181
 21
287.485248494
 31
0.0
  0
LINE
  5
B1
330
1F
100
AcDbEntity
  8
0
  6
Continuous
 62
     7
100
AcDbLine
 10
97.2936295181
 20
287.485248494
 30
0.0
 11
100.4136295181
 21
287.485248494
 31
0.0
  0
LINE
  5
B2
330
1F
100
AcDbEntity
  8
0
  6
Continuous
 62
     7
100
AcDbLine
 10
181.0761295181
 20
287.0514404871
 30
0.0
 11
173.8261295181
 21
287.0514404871
 31
0.0
  0
LINE
  5
B3
330
1F
100
AcDbEntity
  8
0
  6
Continuous
 62
     7
100
AcDbLine
 10
181.0761295181
 20
286.0136488489
 30
0.0
 11
173.8261295181
 21
286.0136488489
 31
0.0
  0
LINE
  5
B4
330
1F
100
AcDbEntity
  8
0
  6
Continuous
 62
     9
100
AcDbLine
 10
62.5761295181
 20
285.852748494
 30
0.0
 11
60.1126197279
 21
285.852748494
 31
0.0
  0
LINE
  5
B5
330
1F
100
AcDbEntity
  8
RUNDUNGEN
  6
Continuous
 62
     9
100
AcDbLine
 10
63.3941876943
 20
285.852748494
 30
0.0
 11
62.5761295181
 21
285.852748494
 31
0.0
  0
LINE
  5
B6
330
1F
100
AcDbEntity
  8
0
  6
Continuous
 62
     7
100
AcDbLine
 10
82.9962397511
 20
274.5275039897
 30
0.0
 11
82.3261295181
 21
274.347948494
 31
0.0
  0
LINE
  5
B7
330
1F
100
AcDbEntity
  8
0
  6
Continuous
 62
     7
100
AcDbLine
 10
98.9341966866
 20
268.502748494
 30
0.0
 11
100.4136295181
 21
271.0652013245
 31
0.0
  0
LINE
  5
B8
330
1F
100
AcDbEntity
  8
RUNDUNGEN
  6
Continuous
 62
     9
100
AcDbLine
 10
117.3261295181
 20
307.502748494
 30
0.0
 11
117.3261295181
 21
279.502748494
 31
0.0
  0
LINE
  5
B9
330
1F
100
AcDbEntity
  8
0
  6
Continuous
 62
     7
100
AcDbLine
 10
160.1403430804
 20
282.502748494
 30
0.0
 11
166.5261295181
 21
282.502748494
 31
0.0
  0
LINE
  5
BA
330
1F
100
AcDbEntity
  8
RUNDUNGEN
  6
Continuous
 62
     7
100
AcDbLine
 10
166.5261295181
 20
282.502748494
 30
0.0
 11
160.1403430804
 21
282.502748494
 31
0.0
  0
LINE
  5
BB
330
1F
100
AcDbEntity
  8
0
  6
Continuous
 62
     7
100
AcDbLine
 10
181.0761295181
 20
279.5144181252
 30
0.0
 11
173.8261295181
 21
279.5144181252
 31
0.0
  0
LINE
  5
BC
330
1F
100
AcDbEntity
  8
0
  6
Continuous
 62
     7
100
AcDbLine
 10
117.3261295181
 20
279.502748494
 30
0.0
 11
156.3119159557
 21
279.502748494
 31
0.0
  0
LINE
  5
BD
330
1F
100
AcDbEntity
  8
FLAECHEN
  6
Continuous
 62
     7
100
AcDbLine
 10
181.0761295181
 20
279.502748494
 30
0.0
 11
166.5261295181
 21
279.502748494
 31
0.0
  0
LINE
  5
BE
330
1F
100
AcDbEntity
  8
RUNDUNGEN
  6
Continuous
 62
     7
100
AcDbLine
 10
110.3261295181
 20
295.549702117
 30
0.0
 11
110.3261295181
 21
299.120248494
 31
0.0
  0
LINE
  5
BF
330
1F
100
AcDbEntity
  8
RUNDUNGEN
  6
Continuous
 62
     7
100
AcDbLine
 10
110.3261295181
 20
287.885248494
 30
0.0
 11
110.3261295181
 21
291.4557980241
 31
0.0
  0
LINE
  5
C0
330
1F
100
AcDbEntity
  8
FASEN
  6
Continuous
 62
     7
100
AcDbLine
 10
110.3261295181
 20
273.7700978864
 30
0.0
 11
110.3261295181
 21
278.152748494
 31
0.0
  0
LINE
  5
C1
330
1F
100
AcDbEntity
  8
0
  6
Continuous
 62
     7
100
AcDbLine
 10
110.3261295181
 20
273.7700978864
 30
0.0
 11
110.3261295181
 21
268.5027620381
 31
0.0
  0
LINE
  5
C2
330
1F
100
AcDbEntity
  8
0
  6
Continuous
 62
     7
100
AcDbLine
 10
110.3261295181
 20
287.485248494
 30
0.0
 11
110.3261295181
 21
278.152748494
 31
0.0
  0
LINE
  5
C3
330
1F
100
AcDbEntity
  8
FASEN
  6
Continuous
 62
     7
100
AcDbLine
 10
110.3261295181
 20
287.885248494
 30
0.0
 11
110.3261295181
 21
287.485248494
 31
0.0
  0
LINE
  5
C4
330
1F
100
AcDbEntity
  8
FASEN
  6
Continuous
 62
     7
100
AcDbLine
 10
110.3261295181
 20
299.520248494
 30
0.0
 11
110.3261295181
 21
299.120248494
 31
0.0
  0
LINE
  5
C5
330
1F
100
AcDbEntity
  8
0
  6
Continuous
 62
     7
100
AcDbLine
 10
110.3261295181
 20
318.5026984755
 30
0.0
 11
110.3261295181
 21
299.520248494
 31
0.0
  0
LINE
  5
C6
330
1F
100
AcDbEntity
  8
0
  6
Continuous
 62
     7
100
AcDbLine
 10
104.2017926239
 20
278.152748494
 30
0.0
 11
110.3261295181
 21
278.152748494
 31
0.0
  0
LINE
  5
C7
330
1F
100
AcDbEntity
  8
0
  6
Continuous
 62
     7
100
AcDbLine
 10
97.019815791
 20
278.152748494
 30
0.0
 11
100.4504664123
 21
278.152748494
 31
0.0
  0
LINE
  5
C8
330
1F
100
AcDbEntity
  8
0
  6
Continuous
 62
     7
100
AcDbLine
 10
104.2017926239
 20
277.752748494
 30
0.0
 11
110.3261295181
 21
277.752748494
 31
0.0
  0
LINE
  5
C9
330
1F
100
AcDbEntity
  8
0
  6
Continuous
 62
     7
100
AcDbLine
 10
97.019815791
 20
277.752748494
 30
0.0
 11
100.4504664123
 21
277.752748494
 31
0.0
  0
LINE
  5
CA
330
1F
100
AcDbEntity
  8
0
  6
Continuous
 62
     7
100
AcDbLine
 10
105.7180623496
 20
299.520248494
 30
0.0
 11
105.7180623496
 21
318.502748494
 31
0.0
  0
LINE
  5
CB
330
1F
100
AcDbEntity
  8
0
  6
Continuous
 62
     7
100
AcDbLine
 10
105.7180623496
 20
268.502748494
 30
0.0
 11
105.7180623496
 21
273.7700978864
 31
0.0
  0
LINE
  5
CC
330
1F
100
AcDbEntity
  8
0
  6
Continuous
 62
     7
100
AcDbLine
 10
105.7180623496
 20
287.485248494
 30
0.0
 11
105.7180623496
 21
278.152748494
 31
0.0
  0
LINE
  5
CD
330
1F
100
AcDbEntity
  8
0
  6
Continuous
 62
     7
100
AcDbLine
 10
82.3261295181
 20
274.347948494
 30
0.0
 11
60.32609227570001
 21
275.4476453598
 31
0.0
  0
LINE
  5
CE
330
1F
100
AcDbEntity
  8
0
  6
Continuous
 62
     7
100
AcDbLine
 10
84.0239598875
 20
274.547948494
 30
0.0
 11
83.1515311781
 21
274.547948494
 31
0.0
  0
LINE
  5
CF
330
1F
100
AcDbEntity
  8
0
  6
Continuous
 62
     7
100
AcDbLine
 10
105.7180623496
 20
273.7700978864
 30
0.0
 11
110.3261295181
 21
273.7700978864
 31
0.0
  0
LINE
  5
D0
330
1F
100
AcDbEntity
  8
0
  6
Continuous
 62
     7
100
AcDbLine
 10
91.6584558009
 20
273.7700978864
 30
0.0
 11
98.9341966866
 21
273.7700978864
 31
0.0
  0
LINE
  5
D1
330
1F
100
AcDbEntity
  8
0
  6
Continuous
 62
     7
100
AcDbLine
 10
101.1636295181
 20
272.027748494
 30
0.0
 11
103.4886295181
 21
272.027748494
 31
0.0
  0
LINE
  5
D2
330
1F
100
AcDbEntity
  8
0
  6
Continuous
 62
     7
100
AcDbLine
 10
104.2386295181
 20
299.520248494
 30
0.0
 11
104.2386295181
 21
315.9402410513
 31
0.0
  0
LINE
  5
D3
330
1F
100
AcDbEntity
  8
0
  6
Continuous
 62
     7
100
AcDbLine
 10
104.2386295181
 20
271.0652151657
 30
0.0
 11
104.2386295181
 21
277.4301592502
 31
0.0
  0
LINE
  5
D4
330
1F
100
AcDbEntity
  8
0
  6
Continuous
 62
     7
100
AcDbLine
 10
104.2386295181
 20
287.485248494
 30
0.0
 11
104.2386295181
 21
278.152748494
 31
0.0
  0
LINE
  5
D5
330
1F
100
AcDbEntity
  8
0
  6
Continuous
 62
     9
100
AcDbLine
 10
103.4886295181
 20
298.438903374
 30
0.0
 11
103.4886295181
 21
314.977748494
 31
0.0
  0
LINE
  5
D6
330
1F
100
AcDbEntity
  8
0
  6
Continuous
 62
     9
100
AcDbLine
 10
103.4886295181
 20
272.027748494
 30
0.0
 11
103.4886295181
 21
288.5665936139
 31
0.0
  0
LINE
  5
D7
330
1F
100
AcDbEntity
  8
0
  6
Continuous
 62
     9
100
AcDbLine
 10
101.1636295181
 20
298.438903374
 30
0.0
 11
101.1636295181
 21
314.977748494
 31
0.0
  0
LINE
  5
D8
330
1F
100
AcDbEntity
  8
0
  6
Continuous
 62
     9
100
AcDbLine
 10
101.1636295181
 20
272.027748494
 30
0.0
 11
101.1636295181
 21
288.5665936139
 31
0.0
  0
LINE
  5
D9
330
1F
100
AcDbEntity
  8
0
  6
Continuous
 62
     7
100
AcDbLine
 10
100.4136295181
 20
271.0652151657
 30
0.0
 11
100.4136295181
 21
277.4301592502
 31
0.0
  0
LINE
  5
DA
330
1F
100
AcDbEntity
  8
0
  6
Continuous
 62
     7
100
AcDbLine
 10
100.4136295181
 20
287.485248494
 30
0.0
 11
100.4136295181
 21
278.152748494
 31
0.0
  0
LINE
  5
DB
330
1F
100
AcDbEntity
  8
0
  6
Continuous
 62
     7
100
AcDbLine
 10
100.4136295181
 20
315.9402410513
 30
0.0
 11
100.4136295181
 21
299.520248494
 31
0.0
  0
LINE
  5
DC
330
1F
100
AcDbEntity
  8
0
  6
Continuous
 62
     7
100
AcDbLine
 10
104.2386295181
 20
271.0652013245
 30
0.0
 11
105.7180623496
 21
268.502748494
 31
0.0
  0
LINE
  5
DD
330
1F
100
AcDbEntity
  8
0
  6
Continuous
 62
     9
100
AcDbLine
 10
60.5261295181
 20
299.8121082535
 30
0.0
 11
59.3761295181
 21
300.459896605
 31
0.0
  0
LINE
  5
DE
330
1F
100
AcDbEntity
  8
0
  6
Continuous
 62
     7
100
AcDbLine
 10
105.7180623496
 20
268.502748494
 30
0.0
 11
110.3261295181
 21
268.502748494
 31
0.0
  0
LINE
  5
DF
330
1F
100
AcDbEntity
  8
0
  6
Continuous
 62
     7
100
AcDbLine
 10
98.9341966866
 20
268.502748494
 30
0.0
 11
84.3261295181
 21
268.502748494
 31
0.0
  0
LINE
  5
E0
330
1F
100
AcDbEntity
  8
0
  6
Continuous
 62
     9
100
AcDbLine
 10
59.3761295181
 20
286.545600383
 30
0.0
 11
60.5261295181
 21
287.1933887345
 31
0.0
  0
LINE
  5
E1
330
1F
100
AcDbEntity
  8
0
  6
Continuous
 62
     7
100
AcDbLine
 10
98.9341966866
 20
273.7700978864
 30
0.0
 11
98.9341966866
 21
268.502748494
 31
0.0
  0
LINE
  5
E2
330
1F
100
AcDbEntity
  8
0
  6
Continuous
 62
     7
100
AcDbLine
 10
98.9341966866
 20
287.485248494
 30
0.0
 11
98.9341966866
 21
278.152748494
 31
0.0
  0
LINE
  5
E3
330
1F
100
AcDbEntity
  8
0
  6
Continuous
 62
     7
100
AcDbLine
 10
98.9341966866
 20
318.502748494
 30
0.0
 11
98.9341966866
 21
299.520248494
 31
0.0
  0
LINE
  5
E4
330
1F
100
AcDbEntity
  8
FASEN
  6
Continuous
 62
     9
100
AcDbLine
 10
97.2936295181
 20
299.120248494
 30
0.0
 11
97.2936295181
 21
299.520248494
 31
0.0
  0
LINE
  5
E5
330
1F
100
AcDbEntity
  8
FASEN
  6
Continuous
 62
     9
100
AcDbLine
 10
97.2936295181
 20
287.885248494
 30
0.0
 11
97.2936295181
 21
287.485248494
 31
0.0
  0
LINE
  5
E6
330
1F
100
AcDbEntity
  8
FASEN
  6
Continuous
 62
     9
100
AcDbLine
 10
97.019815791
 20
277.752748494
 30
0.0
 11
97.019815791
 21
278.152748494
 31
0.0
  0
LINE
  5
E7
330
1F
100
AcDbEntity
  8
0
  6
Continuous
 62
     7
100
AcDbLine
 10
104.2386295181
 20
315.9402956635
 30
0.0
 11
105.7180623496
 21
318.502748494
 31
0.0
  0
LWPOLYLINE
  5
E8
330
1F
100
AcDbEntity
  8
BEZUGSACHSEN
  6
DOT_CENTER
 62
     7
100
AcDbPolyline
 90
        2
 70
     0
 43
0.25
 10
91.3261295181
 20
324.3976459218
 10
91.3261295181
 20
310.3976459218
  0
LINE
  5
E9
330
1F
100
AcDbEntity
  8
0
  6
Continuous
 62
     7
100
AcDbLine
 10
60.5261295181
 20
298.772748494
 30
0.0
 11
59.3761295181
 21
299.922748494
 31
0.0
  0
LINE
  5
EA
330
1F
100
AcDbEntity
  8
0
  6
Continuous
 62
     7
100
AcDbLine
 10
84.3261295181
 20
318.502748494
 30
0.0
 11
84.3261295181
 21
268.502748494
 31
0.0
  0
LINE
  5
EB
330
1F
100
AcDbEntity
  8
0
  6
Continuous
 62
     9
100
AcDbLine
 10
84.0239598875
 20
274.547948494
 30
0.0
 11
84.0239598875
 21
312.457548494
 31
0.0
  0
LINE
  5
EC
330
1F
100
AcDbEntity
  8
0
  6
Continuous
 62
     9
100
AcDbLine
 10
83.1515311781
 20
274.547948494
 30
0.0
 11
83.1515311781
 21
312.457548494
 31
0.0
  0
LINE
  5
ED
330
1F
100
AcDbEntity
  8
0
  6
Continuous
 62
     9
100
AcDbLine
 10
82.9962397511
 20
274.5275039897
 30
0.0
 11
82.9962397511
 21
312.4779929982
 31
0.0
  0
LINE
  5
EE
330
1F
100
AcDbEntity
  8
0
  6
Continuous
 62
     7
100
AcDbLine
 10
82.3261295181
 20
312.657548494
 30
0.0
 11
82.3261295181
 21
274.347948494
 31
0.0
  0
LINE
  5
EF
330
1F
100
AcDbEntity
  8
0
  6
Continuous
 62
     7
100
AcDbLine
 10
59.3761295181
 20
287.082748494
 30
0.0
 11
60.5261295181
 21
288.232748494
 31
0.0
  0
LWPOLYLINE
  5
F0
330
1F
100
AcDbEntity
  8
BEZUGSACHSEN
  6
DOT_CENTER
 62
     7
100
AcDbPolyline
 90
        2
 70
     0
 43
0.25
 10
76.8261295181
 20
287.502748494
 10
76.8261295181
 20
299.502748494
  0
LINE
  5
F1
330
1F
100
AcDbEntity
  8
0
  6
Continuous
 62
     7
100
AcDbLine
 10
60.0642002491
 20
301.2387062
 30
0.0
 11
60.1126197279
 21
301.152748494
 31
0.0
  0
LINE
  5
F2
330
1F
100
AcDbEntity
  8
0
  6
Continuous
 62
     7
100
AcDbLine
 10
60.1126197279
 20
285.852748494
 30
0.0
 11
60.0642002491
 21
285.7667907879
 31
0.0
  0
LINE
  5
F3
330
1F
100
AcDbEntity
  8
RUNDUNGEN
  6
Continuous
 62
     7
100
AcDbLine
 10
63.97612951810001
 20
299.4338987408
 30
0.0
 11
63.97612951810001
 21
287.5715982472
 31
0.0
  0
LINE
  5
F4
330
1F
100
AcDbEntity
  8
RUNDUNGEN
  6
Continuous
 62
     9
100
AcDbLine
 10
62.5761295181
 20
298.772748494
 30
0.0
 11
62.5761295181
 21
301.6072192916
 31
0.0
  0
LINE
  5
F5
330
1F
100
AcDbEntity
  8
RUNDUNGEN
  6
Continuous
 62
     9
100
AcDbLine
 10
62.5761295181
 20
285.3982776964
 30
0.0
 11
62.5761295181
 21
288.232748494
 31
0.0
  0
LINE
  5
F6
330
1F
100
AcDbEntity
  8
0
  6
Continuous
 62
     7
100
AcDbLine
 10
60.5261295181
 20
298.772748494
 30
0.0
 11
60.5261295181
 21
299.8121082535
 31
0.0
  0
LINE
  5
F7
330
1F
100
AcDbEntity
  8
0
  6
Continuous
 62
     7
100
AcDbLine
 10
60.5261295181
 20
287.1933887345
 30
0.0
 11
60.5261295181
 21
288.232748494
 31
0.0
  0
LINE
  5
F8
330
1F
100
AcDbEntity
  8
0
  6
Continuous
 62
     9
100
AcDbLine
 10
60.32609227570001
 20
285.654235948
 30
0.0
 11
60.32609227570001
 21
275.4476453598
 31
0.0
  0
LINE
  5
F9
330
1F
100
AcDbEntity
  8
0
  6
Continuous
 62
     9
100
AcDbLine
 10
60.32609227569999
 20
311.5578516281
 30
0.0
 11
60.32609227570001
 21
301.35126104
 31
0.0
  0
LINE
  5
FA
330
1F
100
AcDbEntity
  8
0
  6
Continuous
 62
     7
100
AcDbLine
 10
59.3761295181
 20
299.922748494
 30
0.0
 11
59.3761295181
 21
310.5591042752
 31
0.0
  0
LINE
  5
FB
330
1F
100
AcDbEntity
  8
0
  6
Continuous
 62
     7
100
AcDbLine
 10
59.3761295181
 20
276.4463927125
 30
0.0
 11
59.3761295181
 21
287.082748494
 31
0.0
  0
ARC
  5
FC
330
1F
100
AcDbEntity
  8
0
  6
Continuous
 62
     7
100
AcDbCircle
 10
103.4886295181
 20
315.727748494
 30
0.0
 40
0.75
100
AcDbArc
 50
270.0
 51
0.0
  0
ARC
  5
FD
330
1F
100
AcDbEntity
  8
RUNDUNGEN
  6
Continuous
 62
     7
100
AcDbCircle
 10
156.3119159557
 20
306.502748494
 30
0.0
 40
1.00000000001906
100
AcDbArc
 50
45.0
 51
90.0
  0
ARC
  5
FE
330
1F
100
AcDbEntity
  8
RUNDUNGEN
  6
Continuous
 62
     7
100
AcDbCircle
 10
160.1403430804
 20
305.502748494
 30
0.0
 40
0.9999999999483181
100
AcDbArc
 50
225.0000000040532
 51
270.0
  0
ARC
  5
FF
330
1F
100
AcDbEntity
  8
RUNDUNGEN
  6
Continuous
 62
     7
100
AcDbCircle
 10
117.3261295181
 20
314.502748494
 30
0.0
 40
7.0
100
AcDbArc
 50
180.0
 51
270.0
  0
ARC
  5
100
330
1F
100
AcDbEntity
  8
0
  6
Continuous
 62
     7
100
AcDbCircle
 10
220.992573106
 20
326.4232840037
 30
0.0
 40
126.7303074975999
100
AcDbArc
 50
202.8862467703002
 51
204.5491891221411
  0
ARC
  5
101
330
1F
100
AcDbEntity
  8
RUNDUNGEN
  6
Continuous
 62
     7
100
AcDbCircle
 10
149.5462000535
 20
1059.9386082962
 30
0.0
 40
779.4077988413
100
AcDbArc
 50
263.4268476068
 51
263.5933190568001
  0
ARC
  5
102
330
1F
100
AcDbEntity
  8
0
  6
Continuous
 62
     7
100
AcDbCircle
 10
103.4886295181
 20
271.277748494
 30
0.0
 40
0.75
100
AcDbArc
 50
0.0
 51
90.0
  0
ARC
  5
103
330
1F
100
AcDbEntity
  8
RUNDUNGEN
  6
Continuous
 62
     7
100
AcDbCircle
 10
156.3119159557
 20
280.502748494
 30
0.0
 40
1.0
100
AcDbArc
 50
270.0
 51
315.0
  0
ARC
  5
104
330
1F
100
AcDbEntity
  8
RUNDUNGEN
  6
Continuous
 62
     7
100
AcDbCircle
 10
160.1403430804
 20
281.502748494
 30
0.0
 40
1.0
100
AcDbArc
 50
90.0
 51
134.9999999959468
  0
ARC
  5
105
330
1F
100
AcDbEntity
  8
0
  6
Continuous
 62
     7
100
AcDbCircle
 10
102.8132891278
 20
277.4307955868
 30
0.0
 40
1.425340532344747
100
AcDbArc
 50
359.9744205669359
 51
13.05450641546304
  0
ARC
  5
106
330
1F
100
AcDbEntity
  8
RUNDUNGEN
  6
Continuous
 62
     7
100
AcDbCircle
 10
117.3261295181
 20
272.502748494
 30
0.0
 40
7.0
100
AcDbArc
 50
90.0
 51
180.0
  0
ARC
  5
107
330
1F
100
AcDbEntity
  8
0
  6
Continuous
 62
     7
100
AcDbCircle
 10
137.9815179214
 20
277.952748494
 30
0.0
 40
33.78031736343758
100
AcDbArc
 50
179.660772196785
 51
180.339227803215
  0
ARC
  5
108
330
1F
100
AcDbEntity
  8
RUNDUNGEN
  6
Continuous
 62
     7
100
AcDbCircle
 10
149.5462000535
 20
-472.9331113088
 30
0.0
 40
779.4077988417997
100
AcDbArc
 50
96.40668094319999
 51
96.57315239320002
  0
ARC
  5
109
330
1F
100
AcDbEntity
  8
0
  6
Continuous
 62
     7
100
AcDbCircle
 10
84.0239598875
 20
313.057548494
 30
0.0
 40
0.6000000000000227
100
AcDbArc
 50
270.0
 51
300.2968216182172
  0
ARC
  5
10A
330
1F
100
AcDbEntity
  8
0
  6
Continuous
 62
     7
100
AcDbCircle
 10
83.1515311781
 20
313.057548494
 30
0.0
 40
0.6000000000097125
100
AcDbArc
 50
255.0000000063303
 51
270.0
  0
ARC
  5
10B
330
1F
100
AcDbEntity
  8
0
  6
Continuous
 62
     7
100
AcDbCircle
 10
101.1636295181
 20
315.727748494
 30
0.0
 40
0.75
100
AcDbArc
 50
180.0
 51
270.0
  0
ARC
  5
10C
330
1F
100
AcDbEntity
  8
0
  6
Continuous
 62
     7
100
AcDbCircle
 10
60.3761295181
 20
310.5591042755
 30
0.0
 40
0.9999999999763015
100
AcDbArc
 50
92.86812048930308
 51
180.0000000171866
  0
ARC
  5
10D
330
1F
100
AcDbEntity
  8
RUNDUNGEN
  6
Continuous
 62
     7
100
AcDbCircle
 10
62.5761295181
 20
297.372748494
 30
0.0
 40
1.400000000000068
100
AcDbArc
 50
6.05709561601253
 51
90.0
  0
ARC
  5
10E
330
1F
100
AcDbEntity
  8
FASEN
  6
Continuous
 62
     7
100
AcDbCircle
 10
97.2936295181
 20
293.502748494
 30
0.0
 40
5.617499843000019
100
AcDbArc
 50
90.0
 51
270.0
  0
ARC
  5
10F
330
1F
100
AcDbEntity
  8
0
  6
Continuous
 62
     7
100
AcDbCircle
 10
97.2936295181
 20
293.502748494
 30
0.0
 40
6.017499999999984
100
AcDbArc
 50
90.0
 51
270.0
  0
ARC
  5
110
330
1F
100
AcDbEntity
  8
0
  6
Continuous
 62
     7
100
AcDbCircle
 10
-16.3403140699
 20
326.4232840037
 30
0.0
 40
126.730307497668
100
AcDbArc
 50
335.4508108778776
 51
337.1137532296999
  0
ARC
  5
111
330
1F
100
AcDbEntity
  8
0
  6
Continuous
 62
     7
100
AcDbCircle
 10
100.917249472
 20
287.409753361
 30
0.0
 40
0.503730497900196
100
AcDbArc
 50
166.1596109368512
 51
171.3804870339454
  0
ARC
  5
112
330
1F
100
AcDbEntity
  8
0
  6
Continuous
 62
     7
100
AcDbCircle
 10
84.0239598875
 20
273.947948494
 30
0.0
 40
0.599999999999744
100
AcDbArc
 50
59.70317838178284
 51
90.0
  0
ARC
  5
113
330
1F
100
AcDbEntity
  8
0
  6
Continuous
 62
     7
100
AcDbCircle
 10
83.1515311781
 20
273.947948494
 30
0.0
 40
0.6000000000000227
100
AcDbArc
 50
90.0
 51
104.999999996141
  0
ARC
  5
114
330
1F
100
AcDbEntity
  8
0
  6
Continuous
 62
     7
100
AcDbCircle
 10
101.1636295181
 20
271.277748494
 30
0.0
 40
0.75
100
AcDbArc
 50
90.0
 51
180.0
  0
ARC
  5
115
330
1F
100
AcDbEntity
  8
0
  6
Continuous
 62
     7
100
AcDbCircle
 10
60.3761295181
 20
276.4463927124
 30
0.0
 40
1.0
100
AcDbArc
 50
179.9999999942679
 51
267.131879510698
  0
ARC
  5
116
330
1F
100
AcDbEntity
  8
RUNDUNGEN
  6
Continuous
 62
     7
100
AcDbCircle
 10
62.5761295181
 20
289.632748494
 30
0.0
 40
1.399999999999977
100
AcDbArc
 50
270.0
 51
353.9429041005092
  0
ARC
  5
117
330
1F
100
AcDbEntity
  8
0
  6
Continuous
 62
     7
100
AcDbCircle
 10
101.8389699083
 20
277.4307955868
 30
0.0
 40
1.4253405322444
100
AcDbArc
 50
166.945493583629
 51
180.0255794330658
  0
ARC
  5
118
330
1F
100
AcDbEntity
  8
FASEN
  6
Continuous
 62
     7
100
AcDbCircle
 10
97.019815791
 20
272.152748494
 30
0.0
 40
5.599990644600041
100
AcDbArc
 50
90.0
 51
163.2131310087998
  0
ARC
  5
119
330
1F
100
AcDbEntity
  8
FASEN
  6
Continuous
 62
     7
100
AcDbCircle
 10
97.019815791
 20
272.152748494
 30
0.0
 40
6.0
100
AcDbArc
 50
90.0
 51
161.1845969504023
  0
ARC
  5
11A
330
1F
100
AcDbEntity
  8
FASEN
  6
Continuous
 62
     7
100
AcDbCircle
 10
99.5004848658
 20
281.9361403025
 30
0.0
 40
11.32173434580011
100
AcDbArc
 50
223.8842578163005
 51
226.1595439822725
  0
ARC
  5
11B
330
1F
100
AcDbEntity
  8
0
  6
Continuous
 62
     7
100
AcDbCircle
 10
66.6707411147
 20
277.952748494
 30
0.0
 40
33.78031736353757
100
AcDbArc
 50
359.6607721967861
 51
0.33922780321396
  0
CIRCLE
  5
11C
330
1F
100
AcDbEntity
  8
FASEN
  6
Continuous
 62
     7
100
AcDbCircle
 10
76.8261295181
 20
293.502748494
 30
0.0
 40
3.0
  0
SPLINE
  5
11D
330
1F
100
AcDbEntity
  8
0
  6
Continuous
 62
     7
100
AcDbSpline
210
0.0
220
0.0
230
1.0
 70
     8
 71
     3
 72
    11
 73
     7
 74
     5
 42
0.0000000001
 43
0.0000000001
 44
0.00000001
 40
0.0
 40
0.0
 40
0.0
 40
0.0
 40
0.4419689634229246
 40
0.883902053898377
 40
1.150518561921151
 40
1.416734593101624
 40
1.416734593101624
 40
1.416734593101624
 40
1.416734593101624
 10
60.1126197279
 20
285.852748494
 30
0.0
 10
60.18131982806294
 20
285.9832727381897
 30
0.0
 10
60.3187144522618
 20
286.2443106324104
 30
0.0
 10
60.44364062383863
 20
286.6084796639895
 30
0.0
 10
60.51367698922589
 20
286.926865394856
 30
0.0
 10
60.52198075551172
 20
287.1045921477507
 30
0.0
 10
60.5261295181
 20
287.1933887345
 30
0.0
 11
60.1126197279
 21
285.852748494
 31
0.0
 11
60.30836460358352
 21
286.2490066273838
 31
0.0
 11
60.45255182438937
 21
286.6667564350599
 31
0.0
 11
60.50619950414339
 21
286.9279197724702
 31
0.0
 11
60.5261295181
 21
287.1933887345
 31
0.0
  0
SPLINE
  5
11E
330
1F
100
AcDbEntity
  8
0
  6
Continuous
 62
     7
100
AcDbSpline
210
0.0
220
0.0
230
1.0
 70
     8
 71
     3
 72
    11
 73
     7
 74
     5
 42
0.0000000001
 43
0.0000000001
 44
0.00000001
 40
0.0
 40
0.0
 40
0.0
 40
0.0
 40
0.3847579053304047
 40
0.7696659746342687
 40
1.093183244058874
 40
1.416570809353089
 40
1.416570809353089
 40
1.416570809353089
 40
1.416570809353089
 10
60.5261295181
 20
299.8121082535
 30
0.0
 10
60.5175014803139
 20
299.9404548258174
 30
0.0
 10
60.50024203737633
 20
300.1971980617718
 30
0.0
 10
60.39439411938761
 20
300.5482923402852
 30
0.0
 10
60.26561597450919
 20
300.8674850067255
 30
0.0
 10
60.16361165949654
 20
301.0576733758029
 30
0.0
 10
60.1126197279
 20
301.152748494
 30
0.0
 11
60.5261295181
 21
299.8121082535
 31
0.0
 11
60.48593504482022
 21
300.1947609028205
 31
0.0
 11
60.38259795562897
 21
300.565538016209
 31
0.0
 11
60.26028124381779
 21
300.865041013903
 31
0.0
 11
60.1126197279
 21
301.152748494
 31
0.0
  0
SPLINE
  5
11F
330
1F
100
AcDbEntity
  8
0
  6
Continuous
 62
     7
100
AcDbSpline
210
0.0
220
0.0
230
1.0
 70
     8
 71
     3
 72
    15
 73
    11
 74
     9
 42
0.0000000001
 43
0.0000000001
 44
0.00000001
 40
0.0
 40
0.0
 40
0.0
 40
0.0
 40
1.946609304275208
 40
3.893664559151262
 40
4.554940646568913
 40
5.21950915850424
 40
5.724208673345673
 40
6.218727770261423
 40
6.951979809631421
 40
7.684939749713448
 40
7.684939749713448
 40
7.684939749713448
 40
7.684939749713448
 10
173.8261295181
 20
286.0136488489
 30
0.0
 10
173.5262327705947
 20
285.4380859530518
 30
0.0
 10
172.9263705719493
 20
284.286828305097
 30
0.0
 10
172.4175981625219
 20
282.8445510290946
 30
0.0
 10
172.225626139059
 20
281.7683397645135
 30
0.0
 10
172.2146767085398
 20
281.1546043747202
 30
0.0
 10
172.3107880901044
 20
280.6044612450524
 30
0.0
 10
172.5572187604401
 20
280.0723634823418
 30
0.0
 10
173.0949408410333
 20
279.6361944404364
 30
0.0
 10
173.5824323318223
 20
279.5550048387381
 30
0.0
 10
173.8261295181
 20
279.5144181252
 30
0.0
 11
173.8261295181
 21
286.0136488489
 31
0.0
 11
172.96766788714
 21
284.2665565755325
 31
0.0
 11
172.3510731968705
 21
282.4197119276339
 31
0.0
 11
172.2431918738284
 21
281.7672951253295
 31
0.0
 11
172.2377991494798
 21
281.1027484937226
 31
0.0
 11
172.3329107911974
 21
280.6070919837372
 31
0.0
 11
172.549553441903
 21
280.1625527851173
 31
0.0
 11
173.1163767418939
 21
279.697397004945
 31
0.0
 11
173.8261295181
 21
279.5144181252
 31
0.0
  0
SPLINE
  5
120
330
1F
100
AcDbEntity
  8
0
  6
Continuous
 62
     7
100
AcDbSpline
210
0.0
220
0.0
230
1.0
 70
     8
 71
     3
 72
    15
 73
    11
 74
     9
 42
0.0000000001
 43
0.0000000001
 44
0.00000001
 40
0.0
 40
0.0
 40
0.0
 40
0.0
 40
2.440360796682471
 40
4.880721593582054
 40
6.102067076908356
 40
7.323405695873154
 40
8.544707632349596
 40
9.766090361128015
 40
11.58331085687994
 40
13.39902450277745
 40
13.39902450277745
 40
13.39902450277745
 40
13.39902450277745
 10
173.8261295181
 20
299.9540565009
 30
0.0
 10
173.487199559042
 20
299.2123829877904
 30
0.0
 10
172.8093396408958
 20
297.7290359615051
 30
0.0
 10
172.3884127099706
 20
295.7216292359218
 30
0.0
 10
172.2456722224948
 20
294.0995944993197
 30
0.0
 10
172.2475296961794
 20
292.8764481491107
 30
0.0
 10
172.3548667655358
 20
291.6581445771103
 30
0.0
 10
172.6051561069882
 20
290.2593827463932
 30
0.0
 10
173.0491537978179
 20
288.6958174473306
 30
0.0
 10
173.5672092368016
 20
287.5994145537141
 30
0.0
 10
173.8261295181
 20
287.0514404871
 30
0.0
 11
173.8261295181
 21
299.9540565009
 31
0.0
 11
172.8946353080238
 21
297.6984680289975
 31
0.0
 11
172.3689714157107
 21
295.3153947419661
 31
0.0
 11
172.2638327564945
 21
294.0985830671455
 31
0.0
 11
172.2651098726116
 21
292.8772451159014
 31
0.0
 11
172.3728534646503
 21
291.6607050473398
 31
0.0
 11
172.5862064591734
 21
290.4581010934605
 31
0.0
 11
173.095772884427
 21
288.7137867902355
 31
0.0
 11
173.8261295181
 21
287.0514404871
 31
0.0
  0
SPLINE
  5
121
330
1F
100
AcDbEntity
  8
0
  6
Continuous
 62
     7
100
AcDbSpline
210
0.0
220
0.0
230
1.0
 70
     8
 71
     3
 72
    15
 73
    11
 74
     9
 42
0.0000000001
 43
0.0000000001
 44
0.00000001
 40
0.0
 40
0.0
 40
0.0
 40
0.0
 40
0.9486669313395427
 40
1.894170328385824
 40
2.456836455515607
 40
3.027658986985867
 40
3.787432024176239
 40
4.542699268094557
 40
6.109760454353905
 40
7.677529009573487
 40
7.677529009573487
 40
7.677529009573487
 40
7.677529009573487
 10
173.8261295181
 20
307.4910788628
 30
0.0
 10
173.5039097294896
 20
307.4341404458069
 30
0.0
 10
172.8605446635831
 20
307.3204534852409
 30
0.0
 10
172.3453908295637
 20
306.5835553998003
 30
0.0
 10
172.2109415433203
 20
305.9013669838636
 30
0.0
 10
172.2292121789785
 20
305.2665619775939
 30
0.0
 10
172.338015704059
 20
304.5785146708096
 30
0.0
 10
172.613832018961
 20
303.5873252220096
 30
0.0
 10
173.0944923515012
 20
302.3787807291992
 30
0.0
 10
173.5822137780657
 20
301.4542285436053
 30
0.0
 10
173.8261295181
 20
300.991848139
 30
0.0
 11
173.8261295181
 21
307.4910788628
 31
0.0
 11
172.9212239281937
 21
307.2062722266879
 31
0.0
 11
172.3510731967585
 21
306.4520144343716
 31
0.0
 11
172.2322274534898
 21
305.9020427442582
 31
0.0
 11
172.2377991495138
 21
305.3312474055969
 31
0.0
 11
172.3524730602471
 21
304.580178192915
 31
0.0
 11
172.5495534420817
 21
303.8510774229031
 31
0.0
 11
173.1194891009736
 21
302.3913328883341
 31
0.0
 11
173.8261295181
 21
300.991848139
 31
0.0
  0
SPLINE
  5
122
330
1F
100
AcDbEntity
  8
0
  6
Continuous
 62
     7
100
AcDbSpline
210
0.0
220
0.0
230
1.0
 70
     8
 71
     3
 72
    13
 73
     9
 74
     7
 42
0.0000000001
 43
0.0000000001
 44
0.00000001
 40
0.0
 40
0.0
 40
0.0
 40
0.0
 40
0.1312911944515881
 40
0.2626255806528166
 40
0.3227118843439915
 40
0.3827399628179338
 40
0.4404729026737566
 40
0.4981360903708481
 40
0.4981360903708481
 40
0.4981360903708481
 40
0.4981360903708481
 10
103.9601646653
 20
287.885248494
 30
0.0
 10
103.9954912833257
 20
287.8592179031502
 30
0.0
 10
104.066156141013
 20
287.8071481579915
 30
0.0
 10
104.1356649920633
 20
287.7234688486827
 30
0.0
 10
104.1789201364448
 20
287.6515729671756
 30
0.0
 10
104.2036380392323
 20
287.5975668663556
 30
0.0
 10
104.2224772516124
 20
287.5420218353861
 30
0.0
 10
104.2295275884826
 20
287.5041653135645
 30
0.0
 10
104.2330506261
 20
287.485248494
 30
0.0
 11
103.9601646653
 21
287.885248494
 31
0.0
 11
104.062621182544
 21
287.8031507485088
 31
0.0
 11
104.1471034264671
 21
287.7025949358444
 31
0.0
 11
104.1779370500689
 21
287.6510231262305
 31
0.0
 11
104.2029903574116
 21
287.5964731308459
 31
0.0
 11
104.2211475471332
 21
287.5416697659327
 31
0.0
 11
104.2330506261
 21
287.485248494
 31
0.0
  0
SPLINE
  5
123
330
1F
100
AcDbEntity
  8
0
  6
Continuous
 62
     7
100
AcDbSpline
210
0.0
220
0.0
230
1.0
 70
     8
 71
     3
 72
    11
 73
     7
 74
     5
 42
0.0000000001
 43
0.0000000001
 44
0.00000001
 40
0.0
 40
0.0
 40
0.0
 40
0.0
 40
0.1068456601101442
 40
0.214257194471884
 40
0.3333679116111689
 40
0.4521343114840801
 40
0.4521343114840801
 40
0.4521343114840801
 40
0.4521343114840801
 10
100.42814434022
 20
287.530254749296
 30
0.0
 10
100.4388305888458
 20
287.5643634405308
 30
0.0
 10
100.460259682434
 20
287.6327614688977
 30
0.0
 10
100.5192585179925
 20
287.7280148545411
 30
0.0
 10
100.59567445863
 20
287.8151533459524
 30
0.0
 10
100.6599854292314
 20
287.8619060021615
 30
0.0
 10
100.6920943708
 20
287.885248494
 30
0.0
 11
100.42814434022
 21
287.530254749296
 31
0.0
 11
100.4643037762976
 21
287.6307957372906
 31
0.0
 11
100.5194459455458
 21
287.7229726263927
 31
0.0
 11
100.5986756866052
 21
287.8119108693992
 31
0.0
 11
100.6920943708
 21
287.885248494
 31
0.0
  0
SPLINE
  5
124
330
1F
100
AcDbEntity
  8
0
  6
Continuous
 62
     7
100
AcDbSpline
210
0.0
220
0.0
230
1.0
 70
     8
 71
     3
 72
    13
 73
     9
 74
     7
 42
0.0000000001
 43
0.0000000001
 44
0.00000001
 40
0.0
 40
0.0
 40
0.0
 40
0.0
 40
0.0576631897543933
 40
0.1153961316232471
 40
0.175424223256668
 40
0.2355105401274227
 40
0.366844911250847
 40
0.4981360904944718
 40
0.4981360904944718
 40
0.4981360904944718
 40
0.4981360904944718
 10
104.2330506261
 20
299.520248494
 30
0.0
 10
104.2295275883316
 20
299.5013316737632
 30
0.0
 10
104.2224772511621
 20
299.4634751506115
 30
0.0
 10
104.2036380365395
 20
299.4079301143105
 30
0.0
 10
104.1789201287249
 20
299.3539240053256
 30
0.0
 10
104.1356649793974
 20
299.2820281223341
 30
0.0
 10
104.0661561292291
 20
299.1983488202433
 30
0.0
 10
103.9954912793861
 20
299.1462790815862
 30
0.0
 10
103.9601646653
 20
299.120248494
 30
0.0
 11
104.2330506261
 21
299.520248494
 31
0.0
 11
104.2211475465803
 21
299.4638272200814
 31
0.0
 11
104.2029903558641
 21
299.4090238533771
 31
0.0
 11
104.1779370419592
 21
299.3544738465253
 31
0.0
 11
104.1471034094878
 21
299.3029020268588
 31
0.0
 11
104.0626211716288
 21
299.2023462287926
 31
0.0
 11
103.9601646653
 21
299.120248494
 31
0.0
  0
SPLINE
  5
125
330
1F
100
AcDbEntity
  8
0
  6
Continuous
 62
     7
100
AcDbSpline
210
0.0
220
0.0
230
1.0
 70
     8
 71
     3
 72
    13
 73
     9
 74
     7
 42
0.0000000001
 43
0.0000000001
 44
0.00000001
 40
0.0
 40
0.0
 40
0.0
 40
0.0
 40
0.1312848067671855
 40
0.2626131914524971
 40
0.3227000710711197
 40
0.3827285903040612
 40
0.44046710823753
 40
0.4981359434446229
 40
0.4981359434446229
 40
0.4981359434446229
 40
0.4981359434446229
 10
100.6920943708
 20
299.120248494
 30
0.0
 10
100.6567695584935
 20
299.1462779411997
 30
0.0
 10
100.5861082083671
 20
299.1983454756632
 30
0.0
 10
100.5166014480118
 20
299.2820209773466
 30
0.0
 10
100.4733443187586
 20
299.3539136857598
 30
0.0
 10
100.4486235550068
 20
299.4079209429955
 30
0.0
 10
100.4297826839069
 20
299.4634695912434
 30
0.0
 10
100.4227317489222
 20
299.5013298130564
 30
0.0
 10
100.4192084101
 20
299.520248494
 30
0.0
 11
100.6920943708
 21
299.120248494
 31
0.0
 11
100.5896429583141
 21
299.2023423949157
 31
0.0
 11
100.5051631919213
 21
299.3028924505808
 31
0.0
 11
100.4743274030265
 21
299.3544636365817
 31
0.0
 11
100.4492721543165
 21
299.409013225337
 31
0.0
 11
100.4311126127815
 21
299.463821687315
 31
0.0
 11
100.4192084101
 21
299.520248494
 31
0.0
  0
SPLINE
  5
126
330
1F
100
AcDbEntity
  8
0
  6
Continuous
 62
     7
100
AcDbSpline
210
0.0
220
0.0
230
1.0
 70
     8
 71
     3
 72
    27
 73
    23
 74
    21
 42
0.0000000001
 43
0.0000000001
 44
0.00000001
 40
0.0
 40
0.0
 40
0.0
 40
0.0
 40
0.0679422773459752
 40
0.1359904672704989
 40
0.1960311418289739
 40
0.2558288644337137
 40
0.2829045759171143
 40
0.3099751665570325
 40
0.335762141870832
 40
0.3615450077178977
 40
0.3868874812888574
 40
0.412231001233791
 40
0.4380221513096452
 40
0.4638182097750557
 40
0.5190828347110243
 40
0.5745822154468828
 40
0.6366003188124437
 40
0.6985580375398146
 40
0.7666673008939489
 40
0.834792337577168
 40
0.9078434200473506
 40
0.9808740974349488
 40
0.9808740974349488
 40
0.9808740974349488
 40
0.9808740974349488
 10
59.3761295181
 20
301.0475323858
 30
0.0
 10
59.37659727815777
 20
301.0701891269035
 30
0.0
 10
59.37753352744632
 20
301.1155379278248
 30
0.0
 10
59.38665044888386
 20
301.1804260023973
 30
0.0
 10
59.40239300683419
 20
301.2411904937127
 30
0.0
 10
59.42196025065823
 20
301.2864112673157
 30
0.0
 10
59.44198077507569
 20
301.318748977974
 30
0.0
 10
59.45828235945849
 20
301.3398940832793
 30
0.0
 10
59.47655192177937
 20
301.3587681696943
 30
0.0
 10
59.496425271218
 20
301.3750616559011
 30
0.0
 10
59.51799632054882
 20
301.3887542345161
 30
0.0
 10
59.54101469984188
 20
301.3998420969005
 30
0.0
 10
59.56530711469459
 20
301.4082296527404
 30
0.0
 10
59.60008225526452
 20
301.4161905074478
 30
0.0
 10
59.64580123490073
 20
301.4193583943452
 30
0.0
 10
59.70330779725131
 20
301.4138469691883
 30
0.0
 10
59.76175115950919
 20
301.4003307572202
 30
0.0
 10
59.82224099862444
 20
301.3790655618561
 30
0.0
 10
59.88256232621077
 20
301.3519459182583
 30
0.0
 10
59.94392958507379
 20
301.3186780208158
 30
0.0
 10
60.0046975888497
 20
301.2810861464052
 30
0.0
 10
60.04436787609975
 20
301.2528315332423
 30
0.0
 10
60.0642002491
 20
301.2387062
 30
0.0
 11
59.3761295181
 21
301.0475323858
 31
0.0
 11
59.37887778319264
 21
301.1154190567299
 31
0.0
 11
59.38837057380924
 21
301.1828018666914
 31
0.0
 11
59.40389939746996
 21
301.2407996100712
 31
0.0
 11
59.42806845102839
 21
301.2954953546845
 31
0.0
 11
59.44236395218954
 21
301.3184895452309
 31
0.0
 11
59.45893756913164
 21
301.3398935658591
 31
0.0
 11
59.47688906251177
 21
301.3584060476284
 31
0.0
 11
59.49684721808123
 21
301.3747286760182
 31
0.0
 11
59.51823543640302
 21
301.3883222437513
 31
0.0
 11
59.54106569752997
 21
301.3993255696155
 31
0.0
 11
59.56543040778291
 21
301.4077839569633
 31
0.0
 11
59.59056831107849
 21
301.4135738144964
 31
0.0
 11
59.64566850826725
 21
301.4178337486594
 31
0.0
 11
59.70094967631521
 21
301.4129170707854
 31
0.0
 11
59.7614381491001
 21
301.3992280311838
 31
0.0
 11
59.81999232691285
 21
301.3789754468901
 31
0.0
 11
59.88217836616207
 21
301.3511947291684
 31
0.0
 11
59.94217172326142
 21
301.3189175278176
 31
0.0
 11
60.00426039696377
 21
301.2804278246757
 31
0.0
 11
60.0642002491
 21
301.2387062
 31
0.0
  0
SPLINE
  5
127
330
1F
100
AcDbEntity
  8
0
  6
Continuous
 62
     7
100
AcDbSpline
210
0.0
220
0.0
230
1.0
 70
     8
 71
     3
 72
    25
 73
    21
 74
    19
 42
0.0000000001
 43
0.0000000001
 44
0.00000001
 40
0.0
 40
0.0
 40
0.0
 40
0.0
 40
0.1085285490977335
 40
0.2170554557158599
 40
0.2713241332977759
 40
0.3255921109319932
 40
0.3798650579451968
 40
0.4341347749101444
 40
0.4884007825062608
 40
0.5426855351802904
 40
0.5969918906407026
 40
0.651251125279551
 40
0.678412428118247
 40
0.7055751104943085
 40
0.7327602080947706
 40
0.7599421722284941
 40
0.7871532997313675
 40
0.8143760191640633
 40
0.8416525758078228
 40
0.8688563236380185
 40
0.8688563236380185
 40
0.8688563236380185
 40
0.8688563236380185
 10
103.9601646653
 20
299.120248494
 30
0.0
 10
103.9488282418966
 20
299.0858914534219
 30
0.0
 10
103.926155566656
 20
299.0171778922278
 30
0.0
 10
103.8941805467921
 20
298.9325423710098
 30
0.0
 10
103.8666334883612
 20
298.8656328885892
 30
0.0
 10
103.8447483769887
 20
298.8159644188131
 30
0.0
 10
103.8215179528494
 20
298.7669087596012
 30
0.0
 10
103.7967037207603
 20
298.7186323402653
 30
0.0
 10
103.7700838049224
 20
298.6713171388828
 30
0.0
 10
103.7412564491879
 20
298.6252902661806
 30
0.0
 10
103.7098800346965
 20
298.5809495496651
 30
0.0
 10
103.6809430995469
 20
298.5460864747708
 30
0.0
 10
103.6558263795543
 20
298.5200029699864
 30
0.0
 10
103.6358407030816
 20
298.50157023267
 30
0.0
 10
103.6146128359991
 20
298.4845577204567
 30
0.0
 10
103.5919944925629
 20
298.4693978831183
 30
0.0
 10
103.567940446691
 20
298.4565549191323
 30
0.0
 10
103.542477977907
 20
298.4467379409631
 30
0.0
 10
103.5158801878648
 20
298.4402099904692
 30
0.0
 10
103.4977049780897
 20
298.4393385246069
 30
0.0
 10
103.4886295181
 20
298.438903374
 30
0.0
 11
103.9601646653
 21
299.120248494
 31
0.0
 11
103.9254286623846
 21
299.0174289624376
 31
0.0
 11
103.8871308571204
 21
298.9158840582225
 31
0.0
 11
103.8664295187824
 21
298.8657188914481
 31
0.0
 11
103.8445248689737
 21
298.8160681138785
 31
0.0
 11
103.8212534527857
 21
298.767037572722
 31
0.0
 11
103.7964025186411
 21
298.718792021097
 31
0.0
 11
103.7697201577739
 21
298.6715389661802
 31
0.0
 11
103.7408353044996
 21
298.6255770294912
 31
0.0
 11
103.7093132734127
 21
298.5813555211547
 31
0.0
 11
103.6745108713371
 21
298.5397279178924
 31
0.0
 11
103.6556381685697
 21
298.5201944219905
 31
0.0
 11
103.6356402022209
 21
298.5018125652896
 31
0.0
 11
103.6143824275757
 21
298.4848674613159
 31
0.0
 11
103.5917653639066
 21
298.4697900741033
 31
0.0
 11
103.5677140382136
 21
298.4570629694684
 31
0.0
 11
103.5423054192223
 21
298.4472916576698
 31
0.0
 11
103.5157463000123
 21
298.4410768584673
 31
0.0
 11
103.4886295181
 21
298.438903374
 31
0.0
  0
SPLINE
  5
128
330
1F
100
AcDbEntity
  8
0
  6
Continuous
 62
     7
100
AcDbSpline
210
0.0
220
0.0
230
1.0
 70
     8
 71
     3
 72
    25
 73
    21
 74
    19
 42
0.0000000001
 43
0.0000000001
 44
0.00000001
 40
0.0
 40
0.0
 40
0.0
 40
0.0
 40
0.027206766147243
 40
0.0544881809808908
 40
0.0817226175766183
 40
0.1089430470027332
 40
0.1361366761039741
 40
0.163335163224575
 40
0.1904968256558654
 40
0.2176561384333387
 40
0.2719142874198094
 40
0.3262206322874987
 40
0.3804997303825744
 40
0.4347596646244352
 40
0.489023338575625
 40
0.5432903873133728
 40
0.5975530058643579
 40
0.6518162746503366
 40
0.7603346281991082
 40
0.8688546603728938
 40
0.8688546603728938
 40
0.8688546603728938
 40
0.8688546603728938
 10
101.1636295181
 20
298.438903374
 30
0.0
 10
101.1545530617685
 20
298.439340364295
 30
0.0
 10
101.1363752455378
 20
298.440215543879
 30
0.0
 10
101.1097738435914
 20
298.4467544664652
 30
0.0
 10
101.0842996041239
 20
298.4565629879726
 30
0.0
 10
101.0602301030598
 20
298.4694014888349
 30
0.0
 10
101.0376072505502
 20
298.4845761095462
 30
0.0
 10
101.0163825532895
 20
298.5016051486365
 30
0.0
 10
100.9963973550934
 20
298.5200431953037
 30
0.0
 10
100.9712814054308
 20
298.546125564064
 30
0.0
 10
100.9423486082726
 20
298.5809909458615
 30
0.0
 10
100.9109792162818
 20
298.6253337802798
 30
0.0
 10
100.8821557952779
 20
298.671358412272
 30
0.0
 10
100.8555388033163
 20
298.718668457162
 30
0.0
 10
100.8307278100666
 20
298.7669397955872
 30
0.0
 10
100.8075003489813
 20
298.8159904713825
 30
0.0
 10
100.7856175107399
 20
298.8656538673908
 30
0.0
 10
100.7580727376173
 20
298.9325573267919
 30
0.0
 10
100.7261006170039
 20
299.0171859350619
 30
0.0
 10
100.7034298446483
 20
299.0858941305523
 30
0.0
 10
100.6920943708
 20
299.120248494
 30
0.0
 11
101.1636295181
 21
298.438903374
 31
0.0
 11
101.1365102102468
 21
298.4410831138367
 31
0.0
 11
101.1099475653028
 21
298.4473041659103
 31
0.0
 11
101.0845250149306
 21
298.4570718918104
 31
0.0
 11
101.0604618051877
 21
298.4697964238259
 31
0.0
 11
101.0378389640204
 21
298.4848861727044
 31
0.0
 11
101.0165783944715
 21
298.5018492468392
 31
0.0
 11
100.9965847987481
 21
298.5202343504853
 31
0.0
 11
100.977714116249
 21
298.5397670311146
 31
0.0
 11
100.9429158383872
 21
298.5813966670641
 31
0.0
 11
100.911398651905
 21
298.6256216153302
 31
0.0
 11
100.8825190252714
 21
298.6715801581217
 31
0.0
 11
100.8558400557778
 21
298.7188281533246
 31
0.0
 11
100.8309923026628
 21
298.7670685458999
 31
0.0
 11
100.8077238315015
 21
298.8160939559289
 31
0.0
 11
100.7858214272885
 21
298.8657398667545
 31
0.0
 11
100.7651220818756
 21
298.915900004701
 31
0.0
 11
100.7268274480635
 21
299.0174369638742
 31
0.0
 11
100.6920943708
 21
299.120248494
 31
0.0
  0
SPLINE
  5
129
330
1F
100
AcDbEntity
  8
0
  6
Continuous
 62
     7
100
AcDbSpline
210
0.0
220
0.0
230
1.0
 70
     8
 71
     3
 72
    25
 73
    21
 74
    19
 42
0.0000000001
 43
0.0000000001
 44
0.00000001
 40
0.0
 40
0.0
 40
0.0
 40
0.0
 40
0.1085025556844822
 40
0.2170033620505716
 40
0.2712583157975932
 40
0.3255127643024093
 40
0.3797719179216829
 40
0.4340272286554728
 40
0.4882788892779563
 40
0.5425511686146469
 40
0.5968541105001534
 40
0.6511051290110856
 40
0.6782579264705406
 40
0.7054161158344924
 40
0.7326228693277379
 40
0.7598194768521905
 40
0.7870692643465421
 40
0.8143404776526397
 40
0.8416356458899953
 40
0.8688504930068989
 40
0.8688504930068989
 40
0.8688504930068989
 40
0.8688504930068989
 10
100.6920943708
 20
287.885248494
 30
0.0
 10
100.7034280213251
 20
287.9195973238505
 30
0.0
 10
100.7260951396499
 20
287.9882944297669
 30
0.0
 10
100.7580618640293
 20
288.0729096204891
 30
0.0
 10
100.7856017482695
 20
288.1398028213449
 30
0.0
 10
100.8074803684521
 20
288.189459185928
 30
0.0
 10
100.8307025320341
 20
288.2385033505462
 30
0.0
 10
100.8555081657943
 20
288.2867682671956
 30
0.0
 10
100.8821209986813
 20
288.3340716754585
 30
0.0
 10
100.9109360699702
 20
288.3800940224617
 30
0.0
 10
100.9422865871334
 20
288.4244429014229
 30
0.0
 10
100.9712114226921
 20
288.4593085426343
 30
0.0
 10
100.9963334031944
 20
288.4853773061676
 30
0.0
 10
101.0163158439339
 20
288.5038165051324
 30
0.0
 10
101.0375176970456
 20
288.5208771561399
 30
0.0
 10
101.0601372432399
 20
288.5360835472696
 30
0.0
 10
101.0842440793847
 20
288.5489050263336
 30
0.0
 10
101.109753731712
 20
288.5586898154618
 30
0.0
 10
101.1363653659521
 20
288.5652640231178
 30
0.0
 10
101.1545503993344
 20
288.566150852557
 30
0.0
 10
101.1636295181
 20
288.5665936139
 30
0.0
 11
100.6920943708
 21
287.885248494
 31
0.0
 11
100.7268218024367
 21
287.9880434845491
 31
0.0
 11
100.7651098417666
 21
288.0895641771509
 31
0.0
 11
100.7858055293459
 21
288.1397168293411
 31
0.0
 11
100.8077036345468
 21
288.1893557069591
 31
0.0
 11
100.8309670860179
 21
288.2383747601643
 31
0.0
 11
100.8558095740367
 21
288.286608457222
 31
0.0
 11
100.8824831386233
 21
288.3338500028418
 31
0.0
 11
100.911353093208
 21
288.3798065695834
 31
0.0
 11
100.942856239615
 21
288.4240373423991
 31
0.0
 11
100.9776475559793
 21
288.4656635038257
 31
0.0
 11
100.9965184488388
 21
288.4851869208566
 31
0.0
 11
101.016504990353
 21
288.503574563659
 31
0.0
 11
101.0377525979234
 21
288.5205671093239
 31
0.0
 11
101.060366795075
 21
288.5356751716758
 31
0.0
 11
101.084466438644
 21
288.5483935873922
 31
0.0
 11
101.1099317341408
 21
288.5581525730181
 31
0.0
 11
101.1365036972361
 21
288.5643941262197
 31
0.0
 11
101.1636295181
 21
288.5665936139
 31
0.0
  0
SPLINE
  5
12A
330
1F
100
AcDbEntity
  8
0
  6
Continuous
 62
     7
100
AcDbSpline
210
0.0
220
0.0
230
1.0
 70
     8
 71
     3
 72
    25
 73
    21
 74
    19
 42
0.0000000001
 43
0.0000000001
 44
0.00000001
 40
0.0
 40
0.0
 40
0.0
 40
0.0
 40
0.0272074181286075
 40
0.0544897103699657
 40
0.0817252615438809
 40
0.108946526390433
 40
0.1361394922774465
 40
0.1633375027143048
 40
0.190499912753288
 40
0.2176598700653885
 40
0.2719180516382058
 40
0.326224562060253
 40
0.3805032119813823
 40
0.4347626393415926
 40
0.4890258447078537
 40
0.5432924465189681
 40
0.5975546789310219
 40
0.6518175541936965
 40
0.7603351296696321
 40
0.8688543878137915
 40
0.8688543878137915
 40
0.8688543878137915
 40
0.8688543878137915
 10
103.4886295181
 20
288.5665936139
 30
0.0
 10
103.4977061909617
 20
288.5661563734163
 30
0.0
 10
103.5158845154545
 20
288.5652806891744
 30
0.0
 10
103.5424863886694
 20
288.5587401473215
 30
0.0
 10
103.5679618453628
 20
288.5489324087644
 30
0.0
 10
103.5920323689283
 20
288.5360947795352
 30
0.0
 10
103.6146547406784
 20
288.5209195410068
 30
0.0
 10
103.6358785962825
 20
288.5038896921275
 30
0.0
 10
103.6558639516385
 20
288.485451393254
 30
0.0
 10
103.6809804554624
 20
288.459368891049
 30
0.0
 10
103.7099130526756
 20
288.4245029415114
 30
0.0
 10
103.7412816458487
 20
288.3801596580689
 30
0.0
 10
103.7701047968932
 20
288.3341351810897
 30
0.0
 10
103.7967216764111
 20
288.2868256165048
 30
0.0
 10
103.8215324064563
 20
288.2385546736309
 30
0.0
 10
103.8447595820544
 20
288.1895043432648
 30
0.0
 10
103.8666422185669
 20
288.1398413058258
 30
0.0
 10
103.8941867862865
 20
288.0729383234856
 30
0.0
 10
103.9261586659409
 20
287.9883103177553
 30
0.0
 10
103.9488292735925
 20
287.9196026128134
 30
0.0
 10
103.9601646653
 20
287.885248494
 30
0.0
 11
103.4886295181
 21
288.5665936139
 31
0.0
 11
103.5157494091226
 21
288.5644129919362
 31
0.0
 11
103.5423127054557
 21
288.5581908734977
 31
0.0
 11
103.5677365623393
 21
288.5484234404209
 31
0.0
 11
103.5918009214587
 21
288.5356992948693
 31
0.0
 11
103.6144229246749
 21
288.5206094849229
 31
0.0
 11
103.635682556548
 21
288.5036459998936
 31
0.0
 11
103.6556765670216
 21
288.485260242789
 31
0.0
 11
103.6745477796301
 21
288.4657271781068
 31
0.0
 11
103.7093457455364
 21
288.4240972389239
 31
0.0
 11
103.7408624281087
 21
288.3798717282558
 31
0.0
 11
103.7697416218692
 21
288.3339134427677
 31
0.0
 11
103.7964203928166
 21
288.2866659175606
 31
0.0
 11
103.8212679040012
 21
288.2384259274637
 31
0.0
 11
103.8445361033166
 21
288.1894008831216
 31
0.0
 11
103.8664383096249
 21
288.1397553070329
 31
0.0
 11
103.8871374938212
 21
288.0895955282717
 31
0.0
 11
103.9254318413182
 21
287.9880592926858
 31
0.0
 11
103.9601646653
 21
287.885248494
 31
0.0
  0
SPLINE
  5
12B
330
1F
100
AcDbEntity
  8
0
  6
Continuous
 62
     7
100
AcDbSpline
210
0.0
220
0.0
230
1.0
 70
     8
 71
     3
 72
    11
 73
     7
 74
     5
 42
0.0000000001
 43
0.0000000001
 44
0.00000001
 40
0.0
 40
0.0
 40
0.0
 40
0.0
 40
0.0720335617178602
 40
0.144173462054263
 40
0.2163593593842478
 40
0.2883296529141866
 40
0.2883296529141866
 40
0.2883296529141866
 40
0.2883296529141866
 10
60.0642002491
 20
301.2387062
 30
0.0
 10
60.08370630258105
 20
301.2527586700458
 30
0.0
 10
60.12274720510361
 20
301.2808843549153
 30
0.0
 10
60.18698912979235
 20
301.3141103478404
 30
0.0
 10
60.25485232649162
 20
301.3395415415144
 30
0.0
 10
60.30236931518427
 20
301.3473584375567
 30
0.0
 10
60.32609227570001
 20
301.35126104
 30
0.0
 11
60.0642002491
 21
301.2387062
 31
0.0
 11
60.12365887504992
 21
301.2793695227111
 31
0.0
 11
60.1875823017955
 21
301.3128054425227
 31
0.0
 11
60.25549363088201
 21
301.3372769597426
 31
0.0
 11
60.32609227570001
 21
301.35126104
 31
0.0
  0
SPLINE
  5
12C
330
1F
100
AcDbEntity
  8
FASEN
  6
Continuous
 62
     7
100
AcDbSpline
210
0.0
220
0.0
230
1.0
 70
     8
 71
     3
 72
    41
 73
    37
 74
    35
 42
0.0000000001
 43
0.0000000001
 44
0.00000001
 40
0.0
 40
0.0
 40
0.0
 40
0.0
 40
0.3535888544107253
 40
0.7075507289680434
 40
1.060684840950018
 40
1.413709983431688
 40
1.765779918096786
 40
2.117876005235446
 40
2.469055569696882
 40
2.820227711307947
 40
3.171084425291981
 40
3.521941346669046
 40
3.873160085290321
 40
4.224381765501505
 40
4.576461723146515
 40
4.928542604224238
 40
5.281581803859174
 40
5.634626310499412
 40
5.988339657474357
 40
6.342041478550844
 40
6.695908397061995
 40
7.049820838099992
 40
7.403595216302768
 40
7.757194007929553
 40
7.933994428142269
 40
8.110739696206975
 40
8.287420502947365
 40
8.464157456680303
 40
8.817287503313581
 40
9.170592253407518
 40
9.52399752166689
 40
9.877334047533363
 40
10.23089310701502
 40
10.58456791527754
 40
10.93860935643301
 40
11.29227461521323
 40
11.29227461521323
 40
11.29227461521323
 40
11.29227461521323
 10
80.4253779296
 20
293.502748494
 30
0.0
 10
80.42206931942587
 20
293.3848369018145
 30
0.0
 10
80.41544860864451
 20
293.148889326081
 30
0.0
 10
80.361571775731
 20
292.7985843817767
 30
0.0
 10
80.27633848758862
 20
292.4551983580504
 30
0.0
 10
80.15751002189471
 20
292.1224171511253
 30
0.0
 10
80.00684733681491
 20
291.8032416322563
 30
0.0
 10
79.8258973899191
 20
291.5008958871091
 30
0.0
 10
79.61619622927262
 20
291.2181163286513
 30
0.0
 10
79.38003505440167
 20
290.957582612
 30
0.0
 10
79.11941562022812
 20
290.7216794364297
 30
0.0
 10
78.83691386665403
 20
290.5124514831156
 30
0.0
 10
78.53507184894578
 20
290.3320072646359
 30
0.0
 10
78.21667362106622
 20
290.1817569061481
 30
0.0
 10
77.8848139526212
 20
290.0633327353399
 30
0.0
 10
77.54242299693021
 20
289.977612254923
 30
0.0
 10
77.19298440239046
 20
289.9256501575933
 30
0.0
 10
76.83961300544928
 20
289.9077933197475
 30
0.0
 10
76.48595847192817
 20
289.9244073775097
 30
0.0
 10
76.13530645822415
 20
289.9752514273688
 30
0.0
 10
75.79120706024113
 20
290.060018782144
 30
0.0
 10
75.45694959826399
 20
290.1778503857825
 30
0.0
 10
75.13591485424676
 20
290.3277636636391
 30
0.0
 10
74.88186856492572
 20
290.4781901452507
 30
0.0
 10
74.68842695352515
 20
290.613020563928
 30
0.0
 10
74.54851849616547
 20
290.7211379012078
 30
0.0
 10
74.41409374892498
 20
290.8359694282446
 30
0.0
 10
74.24270899357992
 20
290.9976243460984
 30
0.0
 10
74.04376305529462
 20
291.2153233644963
 30
0.0
 10
73.83188935178833
 20
291.4987186893799
 30
0.0
 10
73.64909032774781
 20
291.8017952170715
 30
0.0
 10
73.49705714765555
 20
292.1214762046824
 30
0.0
 10
73.37715766386744
 20
292.454710106842
 30
0.0
 10
73.29120723202671
 20
292.798322255503
 30
0.0
 10
73.23692979304309
 20
293.148812146238
 30
0.0
 10
73.23022948149472
 20
293.3848115266672
 30
0.0
 10
73.2268811065
 20
293.502748494
 30
0.0
 11
80.4253779296
 21
293.502748494
 31
0.0
 11
80.40813010236023
 21
293.1495805588488
 31
0.0
 11
80.35628404187999
 21
292.7994363104984
 31
0.0
 11
80.27069807412352
 21
292.4568304974005
 31
0.0
 11
80.15206091377371
 21
292.12433692542
 31
0.0
 11
80.00175537032743
 21
291.8059637442248
 31
0.0
 11
79.8209080197331
 21
291.5038612941166
 31
0.0
 11
79.61174222820024
 21
291.2217677668109
 31
0.0
 11
79.37587160479472
 21
290.9616006627066
 31
0.0
 11
79.11577179576251
 21
290.726125561923
 31
0.0
 11
78.83380774882902
 21
290.5173269615563
 31
0.0
 11
78.53237396221613
 21
290.3370708253308
 31
0.0
 11
78.21473883945632
 21
290.1871888803217
 31
0.0
 11
77.88315578985184
 21
290.0688124561896
 31
0.0
 11
77.541614382888
 21
289.9833114962556
 31
0.0
 11
77.19242090317128
 21
289.9313442931155
 31
0.0
 11
76.83982567559212
 21
289.9135389805024
 31
0.0
 11
76.48650069516654
 21
289.9301097389485
 31
0.0
 11
76.13646342558285
 21
289.9808924932576
 31
0.0
 11
75.79286602710285
 21
290.0655247789076
 31
0.0
 11
75.45909720023133
 21
290.1832209391266
 31
0.0
 11
75.1385457543445
 21
290.3328975278525
 31
0.0
 11
74.83431650995188
 21
290.5131103806023
 31
0.0
 11
74.68926839544329
 21
290.6142015922129
 31
0.0
 11
74.54941293891767
 21
290.7222725923159
 31
0.0
 11
74.41507844546994
 21
290.8370347434833
 31
0.0
 11
74.28651607381123
 21
290.9583099157499
 31
0.0
 11
74.04827758033777
 21
291.2189691762083
 31
0.0
 11
73.83676081022733
 21
291.5019619365415
 31
0.0
 11
73.65421351073982
 21
291.8045702098641
 31
0.0
 11
73.50244659101864
 21
292.1236524917127
 31
0.0
 11
73.38283808270955
 21
292.4563653007262
 31
0.0
 11
73.2965126794855
 21
292.7993431349338
 31
0.0
 11
73.24429107931778
 21
293.1495120178051
 31
0.0
 11
73.2268811065
 21
293.502748494
 31
0.0
  0
SPLINE
  5
12D
330
1F
100
AcDbEntity
  8
0
  6
Continuous
 62
     7
100
AcDbSpline
210
0.0
220
0.0
230
1.0
 70
     8
 71
     3
 72
    11
 73
     7
 74
     5
 42
0.0000000001
 43
0.0000000001
 44
0.00000001
 40
0.0
 40
0.0
 40
0.0
 40
0.0
 40
0.0719820116788537
 40
0.1441794862678839
 40
0.2163078795483594
 40
0.2883301027697391
 40
0.2883301027697391
 40
0.2883301027697391
 40
0.2883301027697391
 10
60.32609227570001
 20
285.654235948
 30
0.0
 10
60.30236544249932
 20
285.6581391351709
 30
0.0
 10
60.25484075484677
 20
285.6659571928772
 30
0.0
 10
60.18697408662686
 20
285.691390916665
 30
0.0
 10
60.12273726935943
 20
285.724618446854
 30
0.0
 10
60.0837030059923
 20
285.7527402449896
 30
0.0
 10
60.0642002491
 20
285.7667907879
 30
0.0
 11
60.32609227570001
 21
285.654235948
 31
0.0
 11
60.25548214915521
 21
285.6682223712262
 31
0.0
 11
60.18756046674133
 21
285.6926993072089
 31
0.0
 11
60.12364865826358
 21
285.7261326117767
 31
0.0
 11
60.0642002491
 21
285.7667907879
 31
0.0
  0
SPLINE
  5
12E
330
1F
100
AcDbEntity
  8
0
  6
Continuous
 62
     7
100
AcDbSpline
210
0.0
220
0.0
230
1.0
 70
     8
 71
     3
 72
    27
 73
    23
 74
    21
 42
0.0000000001
 43
0.0000000001
 44
0.00000001
 40
0.0
 40
0.0
 40
0.0
 40
0.0
 40
0.0730306819695423
 40
0.1460817688492189
 40
0.2142068182869367
 40
0.2823160954003717
 40
0.3442738269293298
 40
0.4062919406310078
 40
0.4617913416865985
 40
0.5170559905156956
 40
0.5428520622957178
 40
0.5686432246297247
 40
0.5939867602332365
 40
0.6193292497785153
 40
0.6451121206373475
 40
0.6708991014986243
 40
0.6979696845515907
 40
0.7250453874657492
 40
0.7848430773852642
 40
0.8448837206135392
 40
0.9129318640922492
 40
0.9808740945100287
 40
0.9808740945100287
 40
0.9808740945100287
 40
0.9808740945100287
 10
60.0642002491
 20
285.7667907879
 30
0.0
 10
60.04436787483726
 20
285.7526654537964
 30
0.0
 10
60.00469758510907
 20
285.7244108389443
 30
0.0
 10
59.94392957499714
 20
285.686818960975
 30
0.0
 10
59.88256230655388
 20
285.6535510595157
 30
0.0
 10
59.82224096665618
 20
285.6264314114225
 30
0.0
 10
59.76175111614268
 20
285.6051662112878
 30
0.0
 10
59.7033077373334
 20
285.5916500032447
 30
0.0
 10
59.6458011536752
 20
285.5861386025164
 30
0.0
 10
59.600082157177
 20
285.5893065072707
 30
0.0
 10
59.56530700041903
 20
285.5972673644787
 30
0.0
 10
59.54101457320688
 20
285.6056549280347
 30
0.0
 10
59.51799618783586
 20
285.6167428127515
 30
0.0
 10
59.4964251422433
 20
285.6304354206461
 30
0.0
 10
59.47655180611906
 20
285.6467289371479
 30
0.0
 10
59.45828226376286
 20
285.6656030437048
 30
0.0
 10
59.44198069267971
 20
285.6867481541353
 30
0.0
 10
59.42196018468822
 20
285.7190858557602
 30
0.0
 10
59.40239296448517
 20
285.7643066132125
 30
0.0
 10
59.38665043244306
 20
285.8250710728361
 30
0.0
 10
59.37753352542112
 20
285.8899591069083
 30
0.0
 10
59.37659727748179
 20
285.9353078766611
 30
0.0
 10
59.3761295181
 20
285.9579646021
 30
0.0
 11
60.0642002491
 21
285.7667907879
 31
0.0
 11
60.00426039312866
 21
285.7250691607137
 31
0.0
 11
59.94217171548546
 21
285.68657945556
 31
0.0
 11
59.88217834675564
 21
285.6543022489067
 31
0.0
 11
59.81999229467036
 21
285.6265215261846
 31
0.0
 11
59.76143810443215
 21
285.6062689386521
 31
0.0
 11
59.70094961938466
 21
285.5925799064082
 31
0.0
 11
59.64566842920416
 21
285.5876632480149
 31
0.0
 11
59.59056820941653
 21
285.5919231998408
 31
0.0
 11
59.56543029335202
 21
285.5977130612565
 31
0.0
 11
59.54106557315195
 21
285.6061714573286
 31
0.0
 11
59.51823530508228
 21
285.6171748048534
 31
0.0
 11
59.49684708716834
 21
285.6307684030091
 31
0.0
 11
59.47688894705583
 21
285.6470910582151
 31
0.0
 11
59.45893746866327
 21
285.6656035622451
 31
0.0
 11
59.44236386853854
 21
285.6870075862998
 31
0.0
 11
59.42806837873221
 21
285.7100017738152
 31
0.0
 11
59.40389935426502
 21
285.7646974955493
 31
0.0
 11
59.38837055367683
 21
285.822695212673
 31
0.0
 11
59.37887777891458
 21
285.8900779779636
 31
0.0
 11
59.3761295181
 21
285.9579646021
 31
0.0
  0
SPLINE
  5
12F
330
1F
100
AcDbEntity
  8
RUNDUNGEN
  6
Continuous
 62
     7
100
AcDbSpline
210
0.0
220
0.0
230
1.0
 70
     8
 71
     3
 72
    17
 73
    13
 74
    11
 42
0.0000000001
 43
0.0000000001
 44
0.00000001
 40
0.0
 40
0.0
 40
0.0
 40
0.0
 40
0.1190059193336551
 40
0.2380814744384815
 40
0.3590691915544666
 40
0.4800850747943359
 40
0.6044906460778388
 40
0.7286521944434283
 40
0.7922003881789758
 40
0.8557409872044371
 40
0.9198158321794143
 40
0.9838416202048391
 40
0.9838416202048391
 40
0.9838416202048391
 40
0.9838416202048391
 10
63.3941876943
 20
285.852748494
 30
0.0
 10
63.37084199356066
 20
285.8206519629648
 30
0.0
 10
63.32413693145161
 20
285.7564401197555
 30
0.0
 10
63.24407046897979
 20
285.6671823255992
 30
0.0
 10
63.15569954000524
 20
285.5851806326723
 30
0.0
 10
63.05677478194384
 20
285.5129739603577
 30
0.0
 10
62.9479407090644
 20
285.4543600174047
 30
0.0
 10
62.84937865709303
 20
285.4194800605818
 30
0.0
 10
62.76733212793225
 20
285.4021331106188
 30
0.0
 10
62.70396920872782
 20
285.394740048068
 30
0.0
 10
62.6399819064637
 20
285.3928067165722
 30
0.0
 10
62.59740821293261
 20
285.3964545021049
 30
0.0
 10
62.5761295181
 20
285.3982776964
 30
0.0
 11
63.3941876943
 21
285.852748494
 31
0.0
 11
63.32255573791556
 21
285.7577154909906
 31
0.0
 11
63.24321175818774
 21
285.6689262984925
 31
0.0
 11
63.15417955013505
 21
285.5870038130431
 31
0.0
 11
63.05622835534604
 21
285.5159375943754
 31
0.0
 11
62.94654205219383
 21
285.4572378408224
 31
0.0
 11
62.82935357952595
 21
285.4162140432616
 31
0.0
 11
62.76717375002355
 21
285.4030975753643
 31
0.0
 11
62.70406934605533
 21
285.3956650842388
 31
0.0
 11
62.64001505671474
 21
285.3940421931027
 31
0.0
 11
62.5761295181
 21
285.3982776964
 31
0.0
  0
SPLINE
  5
130
330
1F
100
AcDbEntity
  8
RUNDUNGEN
  6
Continuous
 62
     7
100
AcDbSpline
210
0.0
220
0.0
230
1.0
 70
     8
 71
     3
 72
    15
 73
    11
 74
     9
 42
0.0000000001
 43
0.0000000001
 44
0.00000001
 40
0.0
 40
0.0
 40
0.0
 40
0.0
 40
0.2324947531035794
 40
0.4652174309916579
 40
0.695735331750647
 40
0.9261855606580736
 40
1.155384407781126
 40
1.384632178790576
 40
1.613395801704549
 40
1.84204880604874
 40
1.84204880604874
 40
1.84204880604874
 40
1.84204880604874
 10
63.97612951810001
 20
287.5715982472
 30
0.0
 10
63.97396691112422
 20
287.4940747379714
 30
0.0
 10
63.96963957707433
 20
287.3389517198244
 30
0.0
 10
63.9363002386328
 20
287.1089700076366
 30
0.0
 10
63.88532317982764
 20
286.8832377512371
 30
0.0
 10
63.81654748346828
 20
286.6634440709742
 30
0.0
 10
63.73204710888682
 20
286.4497079885587
 30
0.0
 10
63.63289873371694
 20
286.2430526210892
 30
0.0
 10
63.52142222842264
 20
286.0428713122732
 30
0.0
 10
63.43659236744597
 20
285.9161125485946
 30
0.0
 10
63.3941876943
 20
285.852748494
 30
0.0
 11
63.97612951810001
 21
287.5715982472
 31
0.0
 11
63.96515467568907
 21
287.3393626705655
 31
0.0
 11
63.93320539996076
 21
287.1088434987298
 31
0.0
 11
63.88230211835155
 21
286.8840161016187
 31
0.0
 11
63.81376427928564
 21
286.6639936649908
 31
0.0
 11
63.72957616914822
 21
286.4508165704567
 31
0.0
 11
63.63075563043506
 21
286.2439614481095
 31
0.0
 11
63.51876034768227
 21
286.0444875104388
 31
0.0
 11
63.3941876943
 21
285.852748494
 31
0.0
  0
SPLINE
  5
131
330
1F
100
AcDbEntity
  8
RUNDUNGEN
  6
Continuous
 62
     7
100
AcDbSpline
210
0.0
220
0.0
230
1.0
 70
     8
 71
     3
 72
    15
 73
    11
 74
     9
 42
0.0000000001
 43
0.0000000001
 44
0.00000001
 40
0.0
 40
0.0
 40
0.0
 40
0.0
 40
0.1273079847291115
 40
0.2549893803394651
 40
0.3793073350463722
 40
0.5035989686959468
 40
0.6245667031302838
 40
0.7455591721395054
 40
0.8645937372455798
 40
0.9835510381154925
 40
0.9835510381154925
 40
0.9835510381154925
 40
0.9835510381154925
 10
62.5761295181
 20
301.6072192916
 30
0.0
 10
62.6186086877217
 20
301.609665935709
 30
0.0
 10
62.70369162389591
 20
301.6145664002523
 30
0.0
 10
62.8293379755488
 20
301.5929022127855
 30
0.0
 10
62.94812399278695
 20
301.5512627403382
 30
0.0
 10
63.05689064147862
 20
301.4923912515234
 30
0.0
 10
63.15574084671497
 20
301.4202172149667
 30
0.0
 10
63.24412649089354
 20
301.3382638029976
 30
0.0
 10
63.32417137096545
 20
301.2490251070932
 30
0.0
 10
63.37085397170218
 20
301.184833751774
 30
0.0
 10
63.3941876943
 20
301.152748494
 30
0.0
 11
62.5761295181
 21
301.6072192916
 31
0.0
 11
62.70341318647814
 21
301.6097074113699
 31
0.0
 11
62.82944445847416
 21
301.589246295465
 31
0.0
 11
62.946803460449
 21
301.5482363147533
 31
0.0
 11
63.05633174917693
 21
301.489482896439
 31
0.0
 11
63.15421873987144
 21
301.4184101884074
 31
0.0
 11
63.24327243484868
 21
301.3365040410932
 31
0.0
 11
63.32259159603303
 21
301.2477476421183
 31
0.0
 11
63.3941876943
 21
301.152748494
 31
0.0
  0
SPLINE
  5
132
330
1F
100
AcDbEntity
  8
RUNDUNGEN
  6
Continuous
 62
     7
100
AcDbSpline
210
0.0
220
0.0
230
1.0
 70
     8
 71
     3
 72
    15
 73
    11
 74
     9
 42
0.0000000001
 43
0.0000000001
 44
0.00000001
 40
0.0
 40
0.0
 40
0.0
 40
0.0
 40
0.2286533797624644
 40
0.4574173648876289
 40
0.6866651597804743
 40
0.9158640491602712
 40
1.146314057934692
 40
1.376831724061335
 40
1.609554238661803
 40
1.842048835029564
 40
1.842048835029564
 40
1.842048835029564
 40
1.842048835029564
 10
63.3941876943
 20
301.152748494
 30
0.0
 10
63.43659246275866
 20
301.0893843532247
 30
0.0
 10
63.52142251192386
 20
300.9626254208533
 30
0.0
 10
63.63289928704098
 20
300.7624439675214
 30
0.0
 10
63.73204753960802
 20
300.5557883753438
 30
0.0
 10
63.81654764848997
 20
300.3420522466945
 30
0.0
 10
63.88532326194594
 20
300.1222586902403
 30
0.0
 10
63.93630031638076
 20
299.8965266434914
 30
0.0
 10
63.96963959872027
 20
299.6665451092083
 30
0.0
 10
63.97396691831733
 20
299.5114221977676
 30
0.0
 10
63.97612951810001
 20
299.4338987408
 30
0.0
 11
63.3941876943
 21
301.152748494
 31
0.0
 11
63.51876064069943
 21
300.9610092202396
 31
0.0
 11
63.63075617879727
 21
300.7615350105369
 31
0.0
 11
63.7295765867371
 21
300.5546797992469
 31
0.0
 11
63.81376450897755
 21
300.3415025850757
 31
0.0
 11
63.88230221849813
 21
300.12148033866
 31
0.0
 11
63.93320546413091
 21
299.8966531739745
 31
0.0
 11
63.96515470229593
 21
299.6661341617811
 31
0.0
 11
63.97612951810001
 21
299.4338987408
 31
0.0
  0
SPLINE
  5
133
330
1F
100
AcDbEntity
  8
FASEN
  6
Continuous
 62
     7
100
AcDbSpline
210
0.0
220
0.0
230
1.0
 70
     8
 71
     3
 72
    43
 73
    39
 74
    37
 42
0.0000000001
 43
0.0000000001
 44
0.00000001
 40
0.0
 40
0.0
 40
0.0
 40
0.0
 40
0.3536627137935758
 40
0.7077087110664965
 40
1.061386016603942
 40
1.41494091293877
 40
1.76827360087799
 40
2.121679340754747
 40
2.474990473715786
 40
2.828124790674577
 40
3.004861640052876
 40
3.181542282370589
 40
3.358289604686572
 40
3.535092627967351
 40
3.888693190955015
 40
4.242467023547176
 40
4.596379402909228
 40
4.95024737343399
 40
5.303947628026561
 40
5.657661399093437
 40
6.010712555471287
 40
6.363747200665646
 40
6.715806091034608
 40
7.06790911589815
 40
7.419215040246388
 40
7.770346273746195
 40
7.945854779204132
 40
8.121308710037741
 40
8.296759233380877
 40
8.472264989808684
 40
8.823345921707848
 40
9.174601594868648
 40
9.526721242004834
 40
9.878775142278867
 40
10.23179857978979
 40
10.58493613218849
 40
10.93889559960849
 40
11.29248564901931
 40
11.29248564901931
 40
11.29248564901931
 40
11.29248564901931
 10
73.2268811065
 20
293.502748494
 30
0.0
 10
73.23021093332332
 20
293.6206858037214
 30
0.0
 10
73.23687419568407
 20
293.8566882382282
 30
0.0
 10
73.29121015094175
 20
294.2071725454559
 30
0.0
 10
73.3771533764714
 20
294.5507850116575
 30
0.0
 10
73.49704052127623
 20
294.8840225146491
 30
0.0
 10
73.64908938268964
 20
295.2036940048419
 30
0.0
 10
73.8319032991231
 20
295.5067618102946
 30
0.0
 10
74.04376649481638
 20
295.7901685592545
 30
0.0
 10
74.24270093399997
 20
296.0078831583523
 30
0.0
 10
74.41408140914255
 20
296.1695447274059
 30
0.0
 10
74.54850793291271
 20
296.2843753770678
 30
0.0
 10
74.68842619987954
 20
296.3924826991084
 30
0.0
 10
74.88188055190247
 20
296.527298306796
 30
0.0
 10
75.13592535051758
 20
296.6777278130879
 30
0.0
 10
75.4569537650847
 20
296.8276563316108
 30
0.0
 10
75.79121262827702
 20
296.9454860113376
 30
0.0
 10
76.13531343711178
 20
297.0302462462383
 30
0.0
 10
76.48596524126047
 20
297.0810902619057
 30
0.0
 10
76.83962177034265
 20
297.0977043712784
 30
0.0
 10
77.19299375544838
 20
297.0798431087114
 30
0.0
 10
77.542425823407
 20
297.027882787273
 30
0.0
 10
77.88481656141786
 20
296.9421692506134
 30
0.0
 10
78.21670297315019
 20
296.8237230405459
 30
0.0
 10
78.53509048784127
 20
296.6734679105101
 30
0.0
 10
78.78672686400587
 20
296.5230562623998
 30
0.0
 10
78.97822275742077
 20
296.3883831945009
 30
0.0
 10
79.11667368999402
 20
296.2804621587993
 30
0.0
 10
79.24967180381982
 20
296.1658898737969
 30
0.0
 10
79.41930251647408
 20
296.004570431869
 30
0.0
 10
79.61617332151387
 20
295.7873907606834
 30
0.0
 10
79.8259000620458
 20
295.5046430190323
 30
0.0
 10
80.00686040539301
 20
295.2022646113793
 30
0.0
 10
80.15749222363894
 20
294.8830739421817
 30
0.0
 10
80.27632402260252
 20
294.5503002762529
 30
0.0
 10
80.3615691617606
 20
294.2069156498008
 30
0.0
 10
80.41540432174271
 20
293.8566048842964
 30
0.0
 10
80.42205455102922
 20
293.6206595610356
 30
0.0
 10
80.4253779296
 20
293.502748494
 30
0.0
 11
73.2268811065
 21
293.502748494
 31
0.0
 11
73.24425427028807
 21
293.8559842344168
 31
0.0
 11
73.2965048393626
 21
294.2061534024148
 31
0.0
 11
73.38283371331134
 21
294.549132938211
 31
0.0
 11
73.50243460874569
 21
294.8818440599572
 31
0.0
 11
73.65421146211379
 21
295.2009173668132
 31
0.0
 11
73.83676918631011
 21
295.5035199020209
 31
0.0
 11
74.04828088095312
 21
295.786524424429
 31
0.0
 11
74.28650824328074
 21
296.0471996431445
 31
0.0
 11
74.41506699694962
 21
296.168478498611
 31
0.0
 11
74.5494030224013
 21
296.2832386033323
 31
0.0
 11
74.6892674397731
 21
296.3913013661099
 31
0.0
 11
74.83432490804029
 21
296.4923837084904
 31
0.0
 11
75.13855634418853
 21
296.6725963368059
 31
0.0
 11
75.45910254018602
 21
296.8222828788145
 31
0.0
 11
75.79287129774814
 21
296.939979050125
 31
0.0
 11
76.13647096459279
 21
297.0246065250226
 31
0.0
 11
76.48650685929496
 21
297.0753878455933
 31
0.0
 11
76.83983229586315
 21
297.0919579305735
 31
0.0
 11
77.19243402166467
 21
297.0741494499666
 31
0.0
 11
77.54162309873885
 21
297.0221836038792
 31
0.0
 11
77.88314385005967
 21
296.9366906877686
 31
0.0
 11
78.21474622638755
 21
296.818299792292
 31
0.0
 11
78.53245486617921
 21
296.6683762361578
 31
0.0
 11
78.83381668036066
 21
296.4881702426605
 31
0.0
 11
78.97738264597044
 21
296.3872145642337
 31
0.0
 11
79.11576597832604
 21
296.279352915947
 31
0.0
 11
79.24869085602596
 21
296.164837139611
 31
0.0
 11
79.37586348054148
 21
296.0438851073291
 31
0.0
 11
79.61168159237522
 21
295.7837935102438
 31
0.0
 11
79.82091508955936
 21
295.5016554384
 31
0.0
 11
80.00176997880016
 21
295.1995300423523
 31
0.0
 11
80.1520475434546
 21
294.8811613845675
 31
0.0
 11
80.27068425722713
 21
294.5486694634968
 31
0.0
 11
80.35627286627509
 21
294.206060764081
 31
0.0
 11
80.4081000711517
 21
293.8559161576525
 31
0.0
 11
80.4253779296
 21
293.502748494
 31
0.0
  0
SPLINE
  5
134
330
1F
100
AcDbEntity
  8
BEZUGSACHSEN
  6
Continuous
 62
     7
100
AcDbSpline
210
0.0
220
0.0
230
1.0
 70
     8
 71
     3
 72
    15
 73
    11
 74
     9
 42
0.0000000001
 43
0.0000000001
 44
0.00000001
 40
0.0
 40
0.0
 40
0.0
 40
0.0
 40
0.1942981503602245
 40
0.3886012246070369
 40
0.9369792400625974
 40
1.485374928924168
 40
2.300027372215244
 40
3.11474661867864
 40
4.074175664741106
 40
5.033464878728261
 40
5.033464878728261
 40
5.033464878728261
 40
5.033464878728261
 10
96.3261295181
 20
318.502748494
 30
0.0
 10
96.26259515216867
 20
318.4901760419751
 30
0.0
 10
96.13552481022374
 20
318.4650308193156
 30
0.0
 10
95.82860751191927
 20
318.4071405453121
 30
0.0
 10
95.40465972894125
 20
318.3329400902874
 30
0.0
 10
94.77486345623888
 20
318.2362155030783
 30
0.0
 10
94.0545919728187
 20
318.1446703930694
 30
0.0
 10
93.1953419963238
 20
318.0639469565662
 30
0.0
 10
92.28552397183307
 20
318.0085313524176
 30
0.0
 10
91.6459121314976
 20
318.0012742223778
 30
0.0
 10
91.3261295181
 20
317.9976459218
 30
0.0
 11
96.3261295181
 21
318.502748494
 31
0.0
 11
96.13547141366585
 21
318.4653151072045
 31
0.0
 11
95.94454740941285
 21
318.4292358990402
 31
0.0
 11
95.40435771987686
 21
318.3348243152489
 31
0.0
 11
94.86231705327107
 21
318.2515792114439
 31
0.0
 11
94.05413672108504
 21
318.14909431486
 31
0.0
 11
93.24302207634062
 21
318.0725405191408
 31
0.0
 11
92.28523460990685
 21
318.0164400416855
 31
0.0
 11
91.3261295181
 21
317.9976459218
 31
0.0
  0
SPLINE
  5
135
330
1F
100
AcDbEntity
  8
BEZUGSACHSEN
  6
Continuous
 62
     7
100
AcDbSpline
210
0.0
220
0.0
230
1.0
 70
     8
 71
     3
 72
    15
 73
    11
 74
     9
 42
0.0000000001
 43
0.0000000001
 44
0.00000001
 40
0.0
 40
0.0
 40
0.0
 40
0.0
 40
0.9592794728029136
 40
1.918698757760582
 40
2.733413612643388
 40
3.54806168263899
 40
4.096465872428869
 40
4.644852383039799
 40
4.83916110761643
 40
5.033464909274458
 40
5.033464909274458
 40
5.033464909274458
 40
5.033464909274458
 10
91.3261295181
 20
317.9976459218
 30
0.0
 10
91.00635015230039
 20
318.0012740847586
 30
0.0
 10
90.36674481380142
 20
318.0085309394699
 30
0.0
 10
89.4569346920581
 20
318.0639451758297
 30
0.0
 10
88.59769082202263
 20
318.1446676319792
 30
0.0
 10
87.87741937410547
 20
318.2362122800325
 30
0.0
 10
87.24761884231283
 20
318.3329368570897
 30
0.0
 10
86.82366356604052
 20
318.4071382963227
 30
0.0
 10
86.51673976437186
 20
318.4650296960487
 30
0.0
 10
86.38966573026872
 20
318.4901756675321
 30
0.0
 10
86.3261295181
 20
318.502748494
 30
0.0
 11
91.3261295181
 21
317.9976459218
 31
0.0
 11
90.3670341576351
 21
318.0164394439749
 31
0.0
 11
89.40925639162087
 21
318.0725385997392
 31
0.0
 11
88.59814607424572
 21
318.1490915083338
 31
0.0
 11
87.7899700064831
 21
318.2515752701857
 31
0.0
 11
87.24792085649952
 21
318.3348211372373
 31
0.0
 11
86.70772273245143
 21
318.4292338047928
 31
0.0
 11
86.51679316563957
 21
318.4653140066164
 31
0.0
 11
86.3261295181
 21
318.502748494
 31
0.0
  0
SPLINE
  5
136
330
1F
100
AcDbEntity
  8
0
  6
Continuous
 62
     7
100
AcDbSpline
210
0.0
220
0.0
230
1.0
 70
     8
 71
     3
 72
    23
 73
    19
 74
    17
 42
0.0000000001
 43
0.0000000001
 44
0.00000001
 40
0.0
 40
0.0
 40
0.0
 40
0.0
 40
0.5071451100919879
 40
1.014414284642869
 40
1.490352341402168
 40
1.966249264075499
 40
2.411642089478795
 40
2.85689630912068
 40
3.282291174610415
 40
3.707501642470381
 40
4.132711653764726
 40
4.558106103401587
 40
5.003359793896323
 40
5.448751991747464
 40
5.924648293958945
 40
6.400585823035877
 40
6.90785466090865
 40
7.414999390755151
 40
7.414999390755151
 40
7.414999390755151
 40
7.414999390755151
 10
181.0761295181
 20
300.991848139
 30
0.0
 10
181.1896047061848
 20
301.1171985919546
 30
0.0
 10
181.4165828421366
 20
301.3679301627282
 30
0.0
 10
181.7248059157003
 20
301.7580589068593
 30
0.0
 10
182.0023206614293
 20
302.1579094399481
 30
0.0
 10
182.2367195047053
 20
302.5610855501697
 30
0.0
 10
182.4286396802115
 20
302.9749771545593
 30
0.0
 10
182.5694707847192
 20
303.3915506492283
 30
0.0
 10
182.6559896555102
 20
303.8159112935363
 30
0.0
 10
182.6861975382928
 20
304.2414652462787
 30
0.0
 10
182.6559885461062
 20
304.6670189703431
 30
0.0
 10
182.5694691513957
 20
305.0913789898657
 30
0.0
 10
182.4286386670936
 20
305.5079521051711
 30
0.0
 10
182.2367192291121
 20
305.9218434257972
 30
0.0
 10
182.0023201774093
 20
306.3250187602143
 30
0.0
 10
181.7248051020152
 20
306.7248684419102
 30
0.0
 10
181.4165824585945
 20
307.1149969816427
 30
0.0
 10
181.1896045750918
 20
307.3657284609621
 30
0.0
 10
181.0761295181
 20
307.4910788628
 30
0.0
 11
181.0761295181
 21
300.991848139
 31
0.0
 11
181.4122599162551
 21
301.3716013722006
 31
0.0
 11
181.7269366430525
 21
301.7694714176446
 31
0.0
 11
181.9969893328592
 21
302.161375205072
 31
0.0
 11
182.2351213862275
 21
302.573407978245
 31
0.0
 11
182.4212130469662
 21
302.9780617348372
 31
0.0
 11
182.5624318500209
 21
303.4003277289366
 31
0.0
 11
182.6468352077601
 21
303.8172652120049
 31
0.0
 11
182.6761295146657
 21
304.2414653835756
 31
0.0
 11
182.6468341949433
 21
304.6656650275492
 31
0.0
 11
182.562430396287
 21
305.0826019970713
 31
0.0
 11
182.4212120343341
 21
305.5048675807346
 31
0.0
 11
182.2351209544357
 21
305.909520913711
 31
0.0
 11
181.9969888583104
 21
306.3215529455405
 31
0.0
 11
181.7269360073087
 21
306.7134559810604
 31
0.0
 11
181.412259519997
 21
307.1113257866626
 31
0.0
 11
181.0761295181
 21
307.4910788628
 31
0.0
  0
SPLINE
  5
137
330
1F
100
AcDbEntity
  8
0
  6
Continuous
 62
     7
100
AcDbSpline
210
0.0
220
0.0
230
1.0
 70
     8
 71
     3
 72
    23
 73
    19
 74
    17
 42
0.0000000001
 43
0.0000000001
 44
0.00000001
 40
0.0
 40
0.0
 40
0.0
 40
0.0
 40
0.8363793884300678
 40
1.672871723125512
 40
2.509588730579902
 40
3.346271526940763
 40
4.182913790957856
 40
5.019548542509265
 40
5.856376247416428
 40
6.693185900134046
 40
7.529994614681126
 40
8.366821408466821
 40
9.20345531863058
 40
10.04009667827797
 40
10.87677803845541
 40
11.71349366966645
 40
12.54998544984955
 40
13.38636425512307
 40
13.38636425512307
 40
13.38636425512307
 40
13.38636425512307
 10
181.0761295181
 20
287.0514404871
 30
0.0
 10
181.1902573193053
 20
287.3058396324843
 30
0.0
 10
181.4185283337514
 20
287.8146722777978
 30
0.0
 10
181.7230562059432
 20
288.5941778671719
 30
0.0
 10
181.994290738067
 20
289.3859033838795
 30
0.0
 10
182.2250955336002
 20
290.1905423963815
 30
0.0
 10
182.411232575325
 20
291.0066919786337
 30
0.0
 10
182.5483387346724
 20
291.8326346008816
 30
0.0
 10
182.6320955329451
 20
292.6657874000431
 30
0.0
 10
182.6606467038668
 20
293.5027519247992
 30
0.0
 10
182.6320943289107
 20
294.3397160979387
 30
0.0
 10
182.5483370209053
 20
295.1728679202066
 30
0.0
 10
182.4112315916814
 20
295.9988097480401
 30
0.0
 10
182.2250953200129
 20
296.814958436138
 30
0.0
 10
181.9942901830284
 20
297.6195960788911
 30
0.0
 10
181.7230552442368
 20
298.4113202562737
 30
0.0
 10
181.4185279140484
 20
299.1908251484275
 30
0.0
 10
181.1902571781042
 20
299.6996575044963
 30
0.0
 10
181.0761295181
 20
299.9540565009
 30
0.0
 11
181.0761295181
 21
287.0514404871
 31
0.0
 11
181.4121949807096
 21
287.8173324417722
 31
0.0
 11
181.7174755812267
 21
288.5961284233696
 31
0.0
 11
181.9875530148878
 21
289.3880586793836
 31
0.0
 11
182.2176554526424
 21
290.1924783272451
 31
0.0
 11
182.4030600703514
 21
291.0083186337217
 31
0.0
 11
182.5394374396417
 21
291.8337633142721
 31
0.0
 11
182.622893994946
 21
292.6664190721198
 31
0.0
 11
182.6511295147085
 21
293.5027522296026
 31
0.0
 11
182.6228929041655
 21
294.3390844115536
 31
0.0
 11
182.5394359356734
 21
295.1717392123011
 31
0.0
 11
182.4030590826977
 21
295.9971831253614
 31
0.0
 11
182.2176550024148
 21
296.8130226265423
 31
0.0
 11
181.9875524626253
 21
297.6174407514318
 31
0.0
 11
181.717474888076
 21
298.4093695053223
 31
0.0
 11
181.4121945529491
 21
299.1881649953572
 31
0.0
 11
181.0761295181
 21
299.9540565009
 31
0.0
  0
SPLINE
  5
138
330
1F
100
AcDbEntity
  8
0
  6
Continuous
 62
     7
100
AcDbSpline
210
0.0
220
0.0
230
1.0
 70
     8
 71
     3
 72
    23
 73
    19
 74
    17
 42
0.0000000001
 43
0.0000000001
 44
0.00000001
 40
0.0
 40
0.0
 40
0.0
 40
0.0
 40
0.5071451100464436
 40
1.01441428461226
 40
1.490352341362572
 40
1.966249264023797
 40
2.411642089445633
 40
2.856896309116791
 40
3.28229117461778
 40
3.707501642465271
 40
4.132711653726838
 40
4.558106103331219
 40
5.003359793811399
 40
5.448751991660526
 40
5.924648293872006
 40
6.400585822948939
 40
6.907854660821712
 40
7.414999390668212
 40
7.414999390668212
 40
7.414999390668212
 40
7.414999390668212
 10
181.0761295181
 20
279.5144181252
 30
0.0
 10
181.1896047061884
 20
279.6397685781311
 30
0.0
 10
181.4165828421611
 20
279.890500148873
 30
0.0
 10
181.7248059156891
 20
280.2806288930163
 30
0.0
 10
182.0023206614291
 20
280.6804794260938
 30
0.0
 10
182.2367195047135
 20
281.0836555363103
 30
0.0
 10
182.4286396802131
 20
281.4975471407164
 30
0.0
 10
182.5694707847165
 20
281.9141206354076
 30
0.0
 10
182.6559896555085
 20
282.3384812797245
 30
0.0
 10
182.6861975382931
 20
282.7640352324555
 30
0.0
 10
182.6559885461065
 20
283.1895889564942
 30
0.0
 10
182.5694691513929
 20
283.6139489759888
 30
0.0
 10
182.4286386670911
 20
284.0305220912769
 30
0.0
 10
182.2367192291116
 20
284.4444134118977
 30
0.0
 10
182.0023201774094
 20
284.8475887463144
 30
0.0
 10
181.7248051020151
 20
285.2474384280102
 30
0.0
 10
181.4165824585946
 20
285.6375669677427
 30
0.0
 10
181.1896045750918
 20
285.8882984470621
 30
0.0
 10
181.0761295181
 20
286.0136488489
 30
0.0
 11
181.0761295181
 21
279.5144181252
 31
0.0
 11
181.4122599162551
 21
279.8941713583398
 31
0.0
 11
181.7269366430525
 21
280.2920414038028
 31
0.0
 11
181.9969893328592
 21
280.6839451912193
 31
0.0
 11
182.2351213862275
 21
281.0959779643783
 31
0.0
 11
182.4212130469662
 21
281.500631720991
 31
0.0
 11
182.5624318500209
 21
281.9228977151212
 31
0.0
 11
182.6468352077601
 21
282.339835198201
 31
0.0
 11
182.6761295146657
 21
282.7640353697592
 31
0.0
 11
182.6468341949433
 21
283.1882350136999
 31
0.0
 11
182.562430396287
 21
283.6051719831888
 31
0.0
 11
182.4212120343341
 21
284.0274375668368
 31
0.0
 11
182.2351209544357
 21
284.432090899811
 31
0.0
 11
181.9969888583104
 21
284.8441229316405
 31
0.0
 11
181.7269360073087
 21
285.2360259671604
 31
0.0
 11
181.412259519997
 21
285.6338957727626
 31
0.0
 11
181.0761295181
 21
286.0136488489
 31
0.0
  0
DIMENSION
  5
143
330
1F
100
AcDbEntity
  8
1
100
AcDbDimension
  2
*D2
 10
173.7261295181001
 20
352.353138546584
 30
0.0
 11
123.996129465313
 21
356.103138546584
 31
0.0
 70
    32
  1
<>
 71
     5
 42
-1.0
 53
0.00013888888889
  3
ME10_DIM_10
100
AcDbAlignedDimension
 13
59.3761295181
 23
310.5591042752
 33
0.0
 14
173.7261295181
 24
304.502748494
 34
0.0
100
AcDbRotatedDimension
  0
DIMENSION
  5
14E
330
1F
100
AcDbEntity
  8
1
100
AcDbDimension
  2
*D3
 10
84.3261295181
 20
344.993086272282
 30
0.0
 11
136.586578762013
 21
348.743086272282
 31
0.0
 70
    32
  1
<>
 71
     5
 42
-1.0
 53
0.00013888888889
  3
ME10_DIM_11
100
AcDbAlignedDimension
 13
184.3261295181
 23
304.252748494
 33
0.0
 14
84.3261295181
 24
318.502748494
 34
0.0
100
AcDbRotatedDimension
  0
DIMENSION
  5
159
330
1F
100
AcDbEntity
  8
1
100
AcDbDimension
  2
*D4
 10
173.7261295181
 20
336.387486690021
 30
0.0
 11
129.905915928416
 21
340.137486690021
 31
0.0
 70
    32
  1
<>
 71
     5
 42
-1.0
 53
0.00013888888889
  3
ME10_DIM_12
100
AcDbAlignedDimension
 13
84.3261295181
 23
318.502748494
 33
0.0
 14
173.7261295181
 24
304.502748494
 34
0.0
100
AcDbRotatedDimension
  0
DIMENSION
  5
164
330
1F
100
AcDbEntity
  8
1
100
AcDbDimension
  2
*D5
 10
173.7261295181
 20
328.234813401563
 30
0.0
 11
141.3678240153246
 21
331.984813401563
 31
0.0
 70
    32
  1
<>
 71
     5
 42
-1.0
 53
0.00013888888889
  3
ME10_DIM_13
100
AcDbAlignedDimension
 13
110.3261295181
 23
318.5026984755
 33
0.0
 14
173.7261295181
 24
304.502748494
 34
0.0
100
AcDbRotatedDimension
  0
DIMENSION
  5
16F
330
1F
100
AcDbEntity
  8
1
100
AcDbDimension
  2
*D6
 10
207.356312168766
 20
307.502748494
 30
0.0
 11
203.606312168766
 21
293.246257205264
 31
0.0
 70
    32
  1
<>
 71
     5
 42
-1.0
 53
90.0
  3
ME10_DIM_14
100
AcDbAlignedDimension
 13
181.0761295181
 23
279.502748494
 33
0.0
 14
181.0761295181
 24
307.502748494
 34
0.0
 50
90.0
100
AcDbRotatedDimension
  0
DIMENSION
  5
17A
330
1F
100
AcDbEntity
  8
1
100
AcDbDimension
  2
*D7
 10
198.750712586505
 20
301.502748494
 30
0.0
 11
195.000712586505
 21
293.585951925617
 31
0.0
 70
    32
  1
<>
 71
     5
 42
-1.0
 53
90.0
  3
ME10_DIM_15
100
AcDbAlignedDimension
 13
173.7261295181
 23
285.502748494
 33
0.0
 14
173.7261295181
 24
301.502748494
 34
0.0
 50
90.0
100
AcDbRotatedDimension
  0
INSERT
  5
181
330
1F
100
AcDbEntity
  8
1
100
AcDbBlockReference
  2
*D8
 10
0.0
 20
0.0
 30
0.0
  0
ENDSEC
  0
SECTION
  2
OBJECTS
  0
DICTIONARY
  5
C
330
0
100
AcDbDictionary
281
     1
  3
ACAD_GROUP
350
D
  3
ACAD_LAYOUT
350
1A
  3
ACAD_MLEADERSTYLE
350
184
  3
ACAD_MLINESTYLE
350
17
  3
ACAD_PLOTSETTINGS
350
19
  3
ACAD_PLOTSTYLENAME
350
E
  3
ACAD_SCALELIST
350
4C
  3
ACAD_VISUALSTYLE
350
2A
  3
AcDbVariableDictionary
350
182
  0
DICTIONARY
  5
D
102
{ACAD_REACTORS
330
C
102
}
330
C
100
AcDbDictionary
281
     1
  0
DICTIONARY
  5
1A
102
{ACAD_REACTORS
330
C
102
}
330
C
100
AcDbDictionary
281
     1
  3
Layout1
350
1E
  3
Layout2
350
26
  3
Model
350
22
  0
DICTIONARY
  5
184
102
{ACAD_REACTORS
330
C
102
}
330
C
100
AcDbDictionary
281
     1
  0
DICTIONARY
  5
17
102
{ACAD_REACTORS
330
C
102
}
330
C
100
AcDbDictionary
281
     1
  3
Standard
350
18
  0
DICTIONARY
  5
19
102
{ACAD_REACTORS
330
C
102
}
330
C
100
AcDbDictionary
281
     1
  0
ACDBDICTIONARYWDFLT
  5
E
102
{ACAD_REACTORS
330
C
102
}
330
C
100
AcDbDictionary
281
     1
  3
Normal
350
F
100
AcDbDictionaryWithDefault
340
F
  0
DICTIONARY
  5
4C
102
{ACAD_REACTORS
330
C
102
}
330
C
100
AcDbDictionary
281
     1
  3
A0
350
4D
  3
A1
350
4E
  3
A2
350
4F
  3
A3
350
50
  3
A4
350
51
  3
A5
350
52
  3
A6
350
53
  3
A7
350
54
  3
A8
350
55
  3
A9
350
56
  3
B0
350
57
  3
B1
350
58
  3
B2
350
59
  3
B3
350
5A
  3
B4
350
5B
  3
B5
350
5C
  3
B6
350
5D
  3
B7
350
5E
  3
B8
350
5F
  3
B9
350
60
  3
C0
350
61
  3
C1
350
62
  3
C2
350
63
  3
C3
350
64
  3
C4
350
65
  3
C5
350
66
  3
C6
350
67
  3
C7
350
68
  3
C8
350
69
  3
C9
350
6A
  3
D0
350
6B
  3
D1
350
6C
  3
D2
350
6D
  0
DICTIONARY
  5
2A
102
{ACAD_REACTORS
330
C
102
}
330
C
100
AcDbDictionary
281
     1
  3
2dWireframe
350
2F
  3
3D Hidden
350
31
  3
3dWireframe
350
30
  3
Basic
350
32
  3
Brighten
350
36
  3
ColorChange
350
3A
  3
Conceptual
350
34
  3
Dim
350
35
  3
Facepattern
350
39
  3
Flat
350
2B
  3
FlatWithEdges
350
2C
  3
Gouraud
350
2D
  3
GouraudWithEdges
350
2E
  3
Linepattern
350
38
  3
Realistic
350
33
  3
Thicken
350
37
  0
DICTIONARY
  5
182
102
{ACAD_REACTORS
330
C
102
}
330
C
100
AcDbDictionary
281
     1
  3
CANNOSCALE
350
185
  0
LAYOUT
  5
1E
102
{ACAD_REACTORS
330
1A
102
}
330
1A
100
AcDbPlotSettings
  1

  2
none_device
  4

  6

 40
0.0
 41
0.0
 42
0.0
 43
0.0
 44
0.0
 45
0.0
 46
0.0
 47
0.0
 48
0.0
 49
0.0
140
0.0
141
0.0
142
1.0
143
1.0
 70
   688
 72
     0
 73
     0
 74
     5
  7

 75
    16
147
1.0
148
0.0
149
0.0
100
AcDbLayout
  1
Layout1
 70
     1
 71
     1
 10
0.0
 20
0.0
 11
12.0
 21
9.0
 12
0.0
 22
0.0
 32
0.0
 14
1.00000000000000E+20
 24
1.00000000000000E+20
 34
1.00000000000000E+20
 15
-1.00000000000000E+20
 25
-1.00000000000000E+20
 35
-1.00000000000000E+20
146
0.0
 13
0.0
 23
0.0
 33
0.0
 16
1.0
 26
0.0
 36
0.0
 17
0.0
 27
1.0
 37
0.0
 76
     0
330
1B
  0
LAYOUT
  5
26
102
{ACAD_REACTORS
330
1A
102
}
330
1A
100
AcDbPlotSettings
  1

  2
none_device
  4

  6

 40
0.0
 41
0.0
 42
0.0
 43
0.0
 44
0.0
 45
0.0
 46
0.0
 47
0.0
 48
0.0
 49
0.0
140
0.0
141
0.0
142
1.0
143
1.0
 70
   688
 72
     0
 73
     0
 74
     5
  7

 75
    16
147
1.0
148
0.0
149
0.0
100
AcDbLayout
  1
Layout2
 70
     1
 71
     2
 10
0.0
 20
0.0
 11
0.0
 21
0.0
 12
0.0
 22
0.0
 32
0.0
 14
0.0
 24
0.0
 34
0.0
 15
0.0
 25
0.0
 35
0.0
146
0.0
 13
0.0
 23
0.0
 33
0.0
 16
1.0
 26
0.0
 36
0.0
 17
0.0
 27
1.0
 37
0.0
 76
     0
330
23
  0
LAYOUT
  5
22
102
{ACAD_REACTORS
330
1A
102
}
330
1A
100
AcDbPlotSettings
  1

  2
none_device
  4

  6

 40
0.0
 41
0.0
 42
0.0
 43
0.0
 44
0.0
 45
0.0
 46
0.0
 47
0.0
 48
0.0
 49
0.0
140
0.0
141
0.0
142
1.0
143
1.0
 70
  1712
 72
     0
 73
     0
 74
     0
  7

 75
     0
147
1.0
148
0.0
149
0.0
100
AcDbLayout
  1
Model
 70
     1
 71
     0
 10
0.0
 20
0.0
 11
12.0
 21
9.0
 12
0.0
 22
0.0
 32
0.0
 14
35.2850356314436
 24
258.6813010259307
 34
0.0
 15
209.356312168766
 25
367.450687943237
 35
0.0
146
0.0
 13
0.0
 23
0.0
 33
0.0
 16
1.0
 26
0.0
 36
0.0
 17
0.0
 27
1.0
 37
0.0
 76
     0
330
1F
331
29
  0
MLINESTYLE
  5
18
102
{ACAD_REACTORS
330
17
102
}
330
17
100
AcDbMlineStyle
  2
Standard
 70
     0
  3

 62
   256
 51
90.0
 52
90.0
 71
     2
 49
0.5
 62
   256
  6
BYLAYER
 49
-0.5
 62
   256
  6
BYLAYER
  0
ACDBPLACEHOLDER
  5
F
102
{ACAD_REACTORS
330
E
102
}
330
E
  0
SCALE
  5
4D
102
{ACAD_REACTORS
330
4C
102
}
330
4C
100
AcDbScale
 70
     0
300
1:1
140
1.0
141
1.0
290
     1
  0
SCALE
  5
4E
102
{ACAD_REACTORS
330
4C
102
}
330
4C
100
AcDbScale
 70
     0
300
1:2
140
1.0
141
2.0
290
     0
  0
SCALE
  5
4F
102
{ACAD_REACTORS
330
4C
102
}
330
4C
100
AcDbScale
 70
     0
300
1:4
140
1.0
141
4.0
290
     0
  0
SCALE
  5
50
102
{ACAD_REACTORS
330
4C
102
}
330
4C
100
AcDbScale
 70
     0
300
1:5
140
1.0
141
5.0
290
     0
  0
SCALE
  5
51
102
{ACAD_REACTORS
330
4C
102
}
330
4C
100
AcDbScale
 70
     0
300
1:8
140
1.0
141
8.0
290
     0
  0
SCALE
  5
52
102
{ACAD_REACTORS
330
4C
102
}
330
4C
100
AcDbScale
 70
     0
300
1:10
140
1.0
141
10.0
290
     0
  0
SCALE
  5
53
102
{ACAD_REACTORS
330
4C
102
}
330
4C
100
AcDbScale
 70
     0
300
1:16
140
1.0
141
16.0
290
     0
  0
SCALE
  5
54
102
{ACAD_REACTORS
330
4C
102
}
330
4C
100
AcDbScale
 70
     0
300
1:20
140
1.0
141
20.0
290
     0
  0
SCALE
  5
55
102
{ACAD_REACTORS
330
4C
102
}
330
4C
100
AcDbScale
 70
     0
300
1:30
140
1.0
141
30.0
290
     0
  0
SCALE
  5
56
102
{ACAD_REACTORS
330
4C
102
}
330
4C
100
AcDbScale
 70
     0
300
1:40
140
1.0
141
40.0
290
     0
  0
SCALE
  5
57
102
{ACAD_REACTORS
330
4C
102
}
330
4C
100
AcDbScale
 70
     0
300
1:50
140
1.0
141
50.0
290
     0
  0
SCALE
  5
58
102
{ACAD_REACTORS
330
4C
102
}
330
4C
100
AcDbScale
 70
     0
300
1:100
140
1.0
141
100.0
290
     0
  0
SCALE
  5
59
102
{ACAD_REACTORS
330
4C
102
}
330
4C
100
AcDbScale
 70
     0
300
2:1
140
2.0
141
1.0
290
     0
  0
SCALE
  5
5A
102
{ACAD_REACTORS
330
4C
102
}
330
4C
100
AcDbScale
 70
     0
300
4:1
140
4.0
141
1.0
290
     0
  0
SCALE
  5
5B
102
{ACAD_REACTORS
330
4C
102
}
330
4C
100
AcDbScale
 70
     0
300
8:1
140
8.0
141
1.0
290
     0
  0
SCALE
  5
5C
102
{ACAD_REACTORS
330
4C
102
}
330
4C
100
AcDbScale
 70
     0
300
10:1
140
10.0
141
1.0
290
     0
  0
SCALE
  5
5D
102
{ACAD_REACTORS
330
4C
102
}
330
4C
100
AcDbScale
 70
     0
300
100:1
140
100.0
141
1.0
290
     0
  0
SCALE
  5
5E
102
{ACAD_REACTORS
330
4C
102
}
330
4C
100
AcDbScale
 70
     0
300
1/128" = 1'-0"
140
0.0078125
141
12.0
290
     0
  0
SCALE
  5
5F
102
{ACAD_REACTORS
330
4C
102
}
330
4C
100
AcDbScale
 70
     0
300
1/64" = 1'-0"
140
0.015625
141
12.0
290
     0
  0
SCALE
  5
60
102
{ACAD_REACTORS
330
4C
102
}
330
4C
100
AcDbScale
 70
     0
300
1/32" = 1'-0"
140
0.03125
141
12.0
290
     0
  0
SCALE
  5
61
102
{ACAD_REACTORS
330
4C
102
}
330
4C
100
AcDbScale
 70
     0
300
1/16" = 1'-0"
140
0.0625
141
12.0
290
     0
  0
SCALE
  5
62
102
{ACAD_REACTORS
330
4C
102
}
330
4C
100
AcDbScale
 70
     0
300
3/32" = 1'-0"
140
0.09375
141
12.0
290
     0
  0
SCALE
  5
63
102
{ACAD_REACTORS
330
4C
102
}
330
4C
100
AcDbScale
 70
     0
300
1/8" = 1'-0"
140
0.125
141
12.0
290
     0
  0
SCALE
  5
64
102
{ACAD_REACTORS
330
4C
102
}
330
4C
100
AcDbScale
 70
     0
300
3/16" = 1'-0"
140
0.1875
141
12.0
290
     0
  0
SCALE
  5
65
102
{ACAD_REACTORS
330
4C
102
}
330
4C
100
AcDbScale
 70
     0
300
1/4" = 1'-0"
140
0.25
141
12.0
290
     0
  0
SCALE
  5
66
102
{ACAD_REACTORS
330
4C
102
}
330
4C
100
AcDbScale
 70
     0
300
3/8" = 1'-0"
140
0.375
141
12.0
290
     0
  0
SCALE
  5
67
102
{ACAD_REACTORS
330
4C
102
}
330
4C
100
AcDbScale
 70
     0
300
1/2" = 1'-0"
140
0.5
141
12.0
290
     0
  0
SCALE
  5
68
102
{ACAD_REACTORS
330
4C
102
}
330
4C
100
AcDbScale
 70
     0
300
3/4" = 1'-0"
140
0.75
141
12.0
290
     0
  0
SCALE
  5
69
102
{ACAD_REACTORS
330
4C
102
}
330
4C
100
AcDbScale
 70
     0
300
1" = 1'-0"
140
1.0
141
12.0
290
     0
  0
SCALE
  5
6A
102
{ACAD_REACTORS
330
4C
102
}
330
4C
100
AcDbScale
 70
     0
300
1-1/2" = 1'-0"
140
1.5
141
12.0
290
     0
  0
SCALE
  5
6B
102
{ACAD_REACTORS
330
4C
102
}
330
4C
100
AcDbScale
 70
     0
300
3" = 1'-0"
140
3.0
141
12.0
290
     0
  0
SCALE
  5
6C
102
{ACAD_REACTORS
330
4C
102
}
330
4C
100
AcDbScale
 70
     0
300
6" = 1'-0"
140
6.0
141
12.0
290
     0
  0
SCALE
  5
6D
102
{ACAD_REACTORS
330
4C
102
}
330
4C
100
AcDbScale
 70
     0
300
1'-0" = 1'-0"
140
12.0
141
12.0
290
     0
  0
VISUALSTYLE
  5
2F
102
{ACAD_REACTORS
330
2A
102
}
330
2A
100
AcDbVisualStyle
  2
2dWireframe
 70
     4
 71
     0
 72
     2
 73
     0
 90
        0
 40
-0.6
 41
-30.0
 62
     5
 63
     7
 74
     1
 91
        4
 64
     7
 65
   257
 75
     1
175
     1
 42
1.0
 92
        0
 66
   257
 43
1.0
 76
     1
 77
     6
 78
     2
 67
     7
 79
     5
170
     0
171
     0
290
     0
174
     0
 93
        1
 44
0.0
173
     0
291
     0
 45
0.0
1001
ACAD
1000
AcDbSavedByObjectVersion
1070
     0
  0
VISUALSTYLE
  5
31
102
{ACAD_REACTORS
330
2A
102
}
330
2A
100
AcDbVisualStyle
  2
3D Hidden
 70
     6
 71
     1
 72
     2
 73
     2
 90
        0
 40
-0.6
 41
-30.0
 62
     5
 63
     7
 74
     2
 91
        2
 64
     7
 65
   257
 75
     2
175
     1
 42
40.0
 92
        0
 66
   257
 43
1.0
 76
     1
 77
     6
 78
     2
 67
     7
 79
     3
170
     0
171
     0
290
     0
174
     0
 93
        1
 44
0.0
173
     0
291
     0
 45
0.0
1001
ACAD
1000
AcDbSavedByObjectVersion
1070
     0
  0
VISUALSTYLE
  5
30
102
{ACAD_REACTORS
330
2A
102
}
330
2A
100
AcDbVisualStyle
  2
3dWireframe
 70
     5
 71
     0
 72
     2
 73
     0
 90
        0
 40
-0.6
 41
-30.0
 62
     5
 63
     7
 74
     1
 91
        4
 64
     7
 65
   257
 75
     1
175
     1
 42
1.0
 92
        0
 66
   257
 43
1.0
 76
     1
 77
     6
 78
     2
 67
     7
 79
     5
170
     0
171
     0
290
     0
174
     0
 93
        1
 44
0.0
173
     0
291
     0
 45
0.0
1001
ACAD
1000
AcDbSavedByObjectVersion
1070
     0
  0
VISUALSTYLE
  5
32
102
{ACAD_REACTORS
330
2A
102
}
330
2A
100
AcDbVisualStyle
  2
Basic
 70
     7
 71
     1
 72
     0
 73
     1
 90
        0
 40
-0.6
 41
-30.0
 62
     5
 63
     7
 74
     0
 91
        4
 64
     7
 65
   257
 75
     1
175
     1
 42
1.0
 92
        8
 66
     7
 43
1.0
 76
     1
 77
     6
 78
     2
 67
     7
 79
     5
170
     0
171
     0
290
     0
174
     0
 93
        1
 44
0.0
173
     0
291
     1
 45
0.0
1001
ACAD
1000
AcDbSavedByObjectVersion
1070
     0
  0
VISUALSTYLE
  5
36
102
{ACAD_REACTORS
330
2A
102
}
330
2A
100
AcDbVisualStyle
  2
Brighten
 70
    12
 71
     2
 72
     2
 73
     0
 90
        0
 40
-0.6
 41
-30.0
 62
     5
 63
     7
 74
     1
 91
        4
 64
     7
 65
   257
 75
     1
175
     1
 42
1.0
 92
        8
 66
     7
 43
1.0
 76
     1
 77
     6
 78
     2
 67
     7
 79
     5
170
     0
171
     0
290
     0
174
     0
 93
        1
 44
50.0
173
     0
291
     1
 45
0.0
1001
ACAD
1000
AcDbSavedByObjectVersion
1070
     0
  0
VISUALSTYLE
  5
3A
102
{ACAD_REACTORS
330
2A
102
}
330
2A
100
AcDbVisualStyle
  2
ColorChange
 70
    16
 71
     2
 72
     2
 73
     3
 90
        0
 40
-0.6
 41
-30.0
 62
     5
 63
     8
 74
     1
 91
        4
 64
     7
 65
   257
 75
     1
175
     1
 42
1.0
 92
        8
 66
     8
 43
1.0
 76
     1
 77
     6
 78
     2
 67
     7
 79
     5
170
     0
171
     0
290
     0
174
     0
 93
        1
 44
0.0
173
     0
291
     1
 45
0.0
1001
ACAD
1000
AcDbSavedByObjectVersion
1070
     0
  0
VISUALSTYLE
  5
34
102
{ACAD_REACTORS
330
2A
102
}
330
2A
100
AcDbVisualStyle
  2
Conceptual
 70
     9
 71
     3
 72
     2
 73
     0
 90
        0
 40
-0.6
 41
-30.0
 62
     5
 63
     7
 74
     2
 91
        2
 64
     7
 65
   257
 75
     1
175
     1
 42
40.0
 92
        8
 66
     7
 43
1.0
 76
     1
 77
     6
 78
     2
 67
     7
 79
     3
170
     0
171
     0
290
     0
174
     0
 93
        1
 44
0.0
173
     0
291
     0
 45
0.0
1001
ACAD
1000
AcDbSavedByObjectVersion
1070
     0
  0
VISUALSTYLE
  5
35
102
{ACAD_REACTORS
330
2A
102
}
330
2A
100
AcDbVisualStyle
  2
Dim
 70
    11
 71
     2
 72
     2
 73
     0
 90
        0
 40
-0.6
 41
-30.0
 62
     5
 63
     7
 74
     1
 91
        4
 64
     7
 65
   257
 75
     1
175
     1
 42
1.0
 92
        8
 66
     7
 43
1.0
 76
     1
 77
     6
 78
     2
 67
     7
 79
     5
170
     0
171
     0
290
     0
174
     0
 93
        1
 44
-50.0
173
     0
291
     1
 45
0.0
1001
ACAD
1000
AcDbSavedByObjectVersion
1070
     0
  0
VISUALSTYLE
  5
39
102
{ACAD_REACTORS
330
2A
102
}
330
2A
100
AcDbVisualStyle
  2
Facepattern
 70
    15
 71
     2
 72
     2
 73
     0
 90
        0
 40
-0.6
 41
-30.0
 62
     5
 63
     7
 74
     1
 91
        4
 64
     7
 65
   257
 75
     1
175
     1
 42
1.0
 92
        8
 66
     7
 43
1.0
 76
     1
 77
     6
 78
     2
 67
     7
 79
     5
170
     0
171
     0
290
     0
174
     0
 93
        1
 44
0.0
173
     0
291
     1
 45
0.0
1001
ACAD
1000
AcDbSavedByObjectVersion
1070
     0
  0
VISUALSTYLE
  5
2B
102
{ACAD_REACTORS
330
2A
102
}
330
2A
100
AcDbVisualStyle
  2
Flat
 70
     0
 71
     2
 72
     1
 73
     1
 90
        2
 40
-0.6
 41
30.0
 62
     5
 63
     7
 74
     0
 91
        4
 64
     7
 65
   257
 75
     1
175
     1
 42
1.0
 92
        8
 66
     7
 43
1.0
 76
     1
 77
     6
 78
     2
 67
     7
 79
     5
170
     0
171
     0
290
     0
174
     0
 93
       13
 44
0.0
173
     0
291
     1
 45
0.0
1001
ACAD
1000
AcDbSavedByObjectVersion
1070
     0
  0
VISUALSTYLE
  5
2C
102
{ACAD_REACTORS
330
2A
102
}
330
2A
100
AcDbVisualStyle
  2
FlatWithEdges
 70
     1
 71
     2
 72
     1
 73
     1
 90
        2
 40
-0.6
 41
30.0
 62
     5
 63
     7
 74
     1
 91
        4
 64
     7
 65
   257
 75
     1
175
     1
 42
1.0
 92
        0
 66
   257
 43
1.0
 76
     1
 77
     6
 78
     2
 67
     7
 79
     5
170
     0
171
     0
290
     0
174
     0
 93
       13
 44
0.0
173
     0
291
     1
 45
0.0
1001
ACAD
1000
AcDbSavedByObjectVersion
1070
     0
  0
VISUALSTYLE
  5
2D
102
{ACAD_REACTORS
330
2A
102
}
330
2A
100
AcDbVisualStyle
  2
Gouraud
 70
     2
 71
     2
 72
     2
 73
     1
 90
        2
 40
-0.6
 41
30.0
 62
     5
 63
     7
 74
     0
 91
        4
 64
     7
 65
   257
 75
     1
175
     1
 42
1.0
 92
        0
 66
     7
 43
1.0
 76
     1
 77
     6
 78
     2
 67
     7
 79
     5
170
     0
171
     0
290
     0
174
     0
 93
       13
 44
0.0
173
     0
291
     1
 45
0.0
1001
ACAD
1000
AcDbSavedByObjectVersion
1070
     0
  0
VISUALSTYLE
  5
2E
102
{ACAD_REACTORS
330
2A
102
}
330
2A
100
AcDbVisualStyle
  2
GouraudWithEdges
 70
     3
 71
     2
 72
     2
 73
     1
 90
        2
 40
-0.6
 41
30.0
 62
     5
 63
     7
 74
     1
 91
        4
 64
     7
 65
   257
 75
     1
175
     1
 42
1.0
 92
        0
 66
   257
 43
1.0
 76
     1
 77
     6
 78
     2
 67
     7
 79
     5
170
     0
171
     0
290
     0
174
     0
 93
       13
 44
0.0
173
     0
291
     1
 45
0.0
1001
ACAD
1000
AcDbSavedByObjectVersion
1070
     0
  0
VISUALSTYLE
  5
38
102
{ACAD_REACTORS
330
2A
102
}
330
2A
100
AcDbVisualStyle
  2
Linepattern
 70
    14
 71
     2
 72
     2
 73
     0
 90
        0
 40
-0.6
 41
-30.0
 62
     5
 63
     7
 74
     1
 91
        4
 64
     7
 65
   257
 75
     7
175
     7
 42
1.0
 92
        8
 66
     7
 43
1.0
 76
     1
 77
     6
 78
     2
 67
     7
 79
     5
170
     0
171
     0
290
     0
174
     0
 93
        1
 44
0.0
173
     0
291
     1
 45
0.0
1001
ACAD
1000
AcDbSavedByObjectVersion
1070
     0
  0
VISUALSTYLE
  5
33
102
{ACAD_REACTORS
330
2A
102
}
330
2A
100
AcDbVisualStyle
  2
Realistic
 70
     8
 71
     2
 72
     2
 73
     0
 90
        0
 40
-0.6
 41
-30.0
 62
     5
 63
     7
 74
     1
 91
        0
 64
     7
 65
   257
 75
     1
175
     1
 42
1.0
 92
        8
 66
     8
 43
1.0
 76
     1
 77
     6
 78
     2
 67
     7
 79
     5
170
     0
171
     0
290
     0
174
     0
 93
       13
 44
0.0
173
     0
291
     0
 45
0.0
1001
ACAD
1000
AcDbSavedByObjectVersion
1070
     0
  0
VISUALSTYLE
  5
37
102
{ACAD_REACTORS
330
2A
102
}
330
2A
100
AcDbVisualStyle
  2
Thicken
 70
    13
 71
     2
 72
     2
 73
     0
 90
        0
 40
-0.6
 41
-30.0
 62
     5
 63
     7
 74
     1
 91
        4
 64
     7
 65
   257
 75
     1
175
     1
 42
1.0
 92
       12
 66
     7
 43
1.0
 76
     1
 77
     6
 78
     2
 67
     7
 79
     5
170
     0
171
     0
290
     0
174
     0
 93
        1
 44
0.0
173
     0
291
     1
 45
0.0
1001
ACAD
1000
AcDbSavedByObjectVersion
1070
     0
  0
DICTIONARYVAR
  5
185
102
{ACAD_REACTORS
330
182
102
}
330
182
100
DictionaryVariables
280
     0
  1
1:1
  0
ENDSEC
  0
EOF
