  0
SECTION
  2
HEADER
  9
$ACADVER
  1
AC1015
  9
$ACADMAINTVER
 70
     6
  9
$DWGCODEPAGE
  3
ANSI_1252
  9
$INSBASE
 10
0.0
 20
0.0
 30
0.0
  9
$EXTMIN
 10
89.8712125847
 20
288.4680654211527
 30
0.0
  9
$EXTMAX
 10
215.846154422987
 20
387.065167988944
 30
0.0
  9
$LIMMIN
 10
0.0
 20
0.0
  9
$LIMMAX
 10
12.0
 20
9.0
  9
$ORTHOMODE
 70
     0
  9
$REGENMODE
 70
     1
  9
$FILLMODE
 70
     1
  9
$QTEXTMODE
 70
     0
  9
$MIRRTEXT
 70
     1
  9
$LTSCALE
 40
1.0
  9
$ATTMODE
 70
     1
  9
$TEXTSIZE
 40
0.2
  9
$TRACEWID
 40
0.05
  9
$TEXTSTYLE
  7
Standard
  9
$CLAYER
  8
0
  9
$CELTYPE
  6
ByLayer
  9
$CECOLOR
 62
   256
  9
$CELTSCALE
 40
1.0
  9
$DISPSILH
 70
     0
  9
$DIMSCALE
 40
1.0
  9
$DIMASZ
 40
0.18
  9
$DIMEXO
 40
0.0625
  9
$DIMDLI
 40
0.38
  9
$DIMRND
 40
0.0
  9
$DIMDLE
 40
0.0
  9
$DIMEXE
 40
0.18
  9
$DIMTP
 40
0.0
  9
$DIMTM
 40
0.0
  9
$DIMTXT
 40
0.18
  9
$DIMCEN
 40
0.09
  9
$DIMTSZ
 40
0.0
  9
$DIMTOL
 70
     0
  9
$DIMLIM
 70
     0
  9
$DIMTIH
 70
     1
  9
$DIMTOH
 70
     1
  9
$DIMSE1
 70
     0
  9
$DIMSE2
 70
     0
  9
$DIMTAD
 70
     0
  9
$DIMZIN
 70
     0
  9
$DIMBLK
  1

  9
$DIMASO
 70
     1
  9
$DIMSHO
 70
     1
  9
$DIMPOST
  1

  9
$DIMAPOST
  1

  9
$DIMALT
 70
     0
  9
$DIMALTD
 70
     2
  9
$DIMALTF
 40
25.4
  9
$DIMLFAC
 40
1.0
  9
$DIMTOFL
 70
     0
  9
$DIMTVP
 40
0.0
  9
$DIMTIX
 70
     0
  9
$DIMSOXD
 70
     0
  9
$DIMSAH
 70
     0
  9
$DIMBLK1
  1

  9
$DIMBLK2
  1

  9
$DIMSTYLE
  2
Standard
  9
$DIMCLRD
 70
     0
  9
$DIMCLRE
 70
     0
  9
$DIMCLRT
 70
     0
  9
$DIMTFAC
 40
1.0
  9
$DIMGAP
 40
0.09
  9
$DIMJUST
 70
     0
  9
$DIMSD1
 70
     0
  9
$DIMSD2
 70
     0
  9
$DIMTOLJ
 70
     1
  9
$DIMTZIN
 70
     0
  9
$DIMALTZ
 70
     0
  9
$DIMALTTZ
 70
     0
  9
$DIMUPT
 70
     0
  9
$DIMDEC
 70
     4
  9
$DIMTDEC
 70
     4
  9
$DIMALTU
 70
     2
  9
$DIMALTTD
 70
     2
  9
$DIMTXSTY
  7
Standard
  9
$DIMAUNIT
 70
     0
  9
$DIMADEC
 70
     0
  9
$DIMALTRND
 40
0.0
  9
$DIMAZIN
 70
     0
  9
$DIMDSEP
 70
    46
  9
$DIMATFIT
 70
     3
  9
$DIMFRAC
 70
     0
  9
$DIMLDRBLK
  1

  9
$DIMLUNIT
 70
     2
  9
$DIMLWD
 70
    -2
  9
$DIMLWE
 70
    -2
  9
$DIMTMOVE
 70
     0
  9
$LUNITS
 70
     2
  9
$LUPREC
 70
     4
  9
$SKETCHINC
 40
0.1
  9
$FILLETRAD
 40
0.5
  9
$AUNITS
 70
     0
  9
$AUPREC
 70
     0
  9
$MENU
  1
.
  9
$ELEVATION
 40
0.0
  9
$PELEVATION
 40
0.0
  9
$THICKNESS
 40
0.0
  9
$LIMCHECK
 70
     0
  9
$CHAMFERA
 40
0.5
  9
$CHAMFERB
 40
0.5
  9
$CHAMFERC
 40
1.0
  9
$CHAMFERD
 40
0.0
  9
$SKPOLY
 70
     0
  9
$TDCREATE
 40
2456749.741638426
  9
$TDUCREATE
 40
2456749.658305093
  9
$TDUPDATE
 40
2456749.741638437
  9
$TDUUPDATE
 40
2456749.658305104
  9
$TDINDWG
 40
0.0000000116
  9
$TDUSRTIMER
 40
0.0000000116
  9
$USRTIMER
 70
     1
  9
$ANGBASE
 50
0.0
  9
$ANGDIR
 70
     0
  9
$PDMODE
 70
     0
  9
$PDSIZE
 40
0.0
  9
$PLINEWID
 40
0.0
  9
$SPLFRAME
 70
     0
  9
$SPLINETYPE
 70
     6
  9
$SPLINESEGS
 70
     8
  9
$HANDSEED
  5
18B
  9
$SURFTAB1
 70
     6
  9
$SURFTAB2
 70
     6
  9
$SURFTYPE
 70
     6
  9
$SURFU
 70
     6
  9
$SURFV
 70
     6
  9
$UCSBASE
  2

  9
$UCSNAME
  2

  9
$UCSORG
 10
0.0
 20
0.0
 30
0.0
  9
$UCSXDIR
 10
1.0
 20
0.0
 30
0.0
  9
$UCSYDIR
 10
0.0
 20
1.0
 30
0.0
  9
$UCSORTHOREF
  2

  9
$UCSORTHOVIEW
 70
     0
  9
$UCSORGTOP
 10
0.0
 20
0.0
 30
0.0
  9
$UCSORGBOTTOM
 10
0.0
 20
0.0
 30
0.0
  9
$UCSORGLEFT
 10
0.0
 20
0.0
 30
0.0
  9
$UCSORGRIGHT
 10
0.0
 20
0.0
 30
0.0
  9
$UCSORGFRONT
 10
0.0
 20
0.0
 30
0.0
  9
$UCSORGBACK
 10
0.0
 20
0.0
 30
0.0
  9
$PUCSBASE
  2

  9
$PUCSNAME
  2

  9
$PUCSORG
 10
0.0
 20
0.0
 30
0.0
  9
$PUCSXDIR
 10
1.0
 20
0.0
 30
0.0
  9
$PUCSYDIR
 10
0.0
 20
1.0
 30
0.0
  9
$PUCSORTHOREF
  2

  9
$PUCSORTHOVIEW
 70
     0
  9
$PUCSORGTOP
 10
0.0
 20
0.0
 30
0.0
  9
$PUCSORGBOTTOM
 10
0.0
 20
0.0
 30
0.0
  9
$PUCSORGLEFT
 10
0.0
 20
0.0
 30
0.0
  9
$PUCSORGRIGHT
 10
0.0
 20
0.0
 30
0.0
  9
$PUCSORGFRONT
 10
0.0
 20
0.0
 30
0.0
  9
$PUCSORGBACK
 10
0.0
 20
0.0
 30
0.0
  9
$USERI1
 70
     0
  9
$USERI2
 70
     0
  9
$USERI3
 70
     0
  9
$USERI4
 70
     0
  9
$USERI5
 70
     0
  9
$USERR1
 40
16.5
  9
$USERR2
 40
0.0
  9
$USERR3
 40
0.0
  9
$USERR4
 40
0.0
  9
$USERR5
 40
0.0
  9
$WORLDVIEW
 70
     1
  9
$SHADEDGE
 70
     3
  9
$SHADEDIF
 70
    70
  9
$TILEMODE
 70
     1
  9
$MAXACTVP
 70
    64
  9
$PINSBASE
 10
0.0
 20
0.0
 30
0.0
  9
$PLIMCHECK
 70
     0
  9
$PEXTMIN
 10
1.00000000000000E+20
 20
1.00000000000000E+20
 30
1.00000000000000E+20
  9
$PEXTMAX
 10
-1.00000000000000E+20
 20
-1.00000000000000E+20
 30
-1.00000000000000E+20
  9
$PLIMMIN
 10
0.0
 20
0.0
  9
$PLIMMAX
 10
12.0
 20
9.0
  9
$UNITMODE
 70
     0
  9
$VISRETAIN
 70
     1
  9
$PLINEGEN
 70
     0
  9
$PSLTSCALE
 70
     1
  9
$TREEDEPTH
 70
  3020
  9
$CMLSTYLE
  2
Standard
  9
$CMLJUST
 70
     0
  9
$CMLSCALE
 40
1.0
  9
$PROXYGRAPHICS
 70
     1
  9
$MEASUREMENT
 70
     1
  9
$CELWEIGHT
370
    -1
  9
$ENDCAPS
280
     0
  9
$JOINSTYLE
280
     0
  9
$LWDISPLAY
290
     0
  9
$INSUNITS
 70
     1
  9
$HYPERLINKBASE
  1

  9
$STYLESHEET
  1

  9
$XEDIT
290
     1
  9
$CEPSNTYPE
380
     0
  9
$PSTYLEMODE
290
     1
  9
$FINGERPRINTGUID
  2
{9DDF6BD4-6B8A-476B-8557-CD4E39FB79FC}
  9
$VERSIONGUID
  2
{FAEB1C32-E019-11D5-929B-00C0DF256EC4}
  9
$EXTNAMES
290
     1
  9
$PSVPSCALE
 40
0.0
  9
$OLESTARTUP
290
     0
  0
ENDSEC
  0
SECTION
  2
CLASSES
  0
CLASS
  1
ACDBDICTIONARYWDFLT
  2
AcDbDictionaryWithDefault
  3
ObjectDBX Classes
 90
        0
280
     0
281
     0
  0
CLASS
  1
VISUALSTYLE
  2
AcDbVisualStyle
  3
ObjectDBX Classes
 90
     4095
280
     0
281
     0
  0
CLASS
  1
SCALE
  2
AcDbScale
  3
ObjectDBX Classes
 90
     1153
280
     0
281
     0
  0
CLASS
  1

  2
exOdDbPolyline
  3

 90
        0
280
     0
281
     1
  0
CLASS
  1

  2
exOdDbCircle
  3

 90
        0
280
     0
281
     1
  0
CLASS
  1

  2
exOdDbSpline
  3

 90
        0
280
     0
281
     1
  0
CLASS
  1
DICTIONARYVAR
  2
AcDbDictionaryVar
  3
ObjectDBX Classes
 90
        0
280
     0
281
     0
  0
CLASS
  1
ACDBPLACEHOLDER
  2
AcDbPlaceHolder
  3
ObjectDBX Classes
 90
        0
280
     0
281
     0
  0
CLASS
  1
LAYOUT
  2
AcDbLayout
  3
ObjectDBX Classes
 90
        0
280
     0
281
     0
  0
ENDSEC
  0
SECTION
  2
TABLES
  0
TABLE
  2
VPORT
  5
8
330
0
100
AcDbSymbolTable
 70
     1
  0
VPORT
  5
29
330
8
100
AcDbSymbolTableRecord
100
AcDbViewportTableRecord
  2
*Active
 70
     0
 10
0.0
 20
0.0
 11
1.0
 21
1.0
 12
152.8586835038435
 22
337.7666167050484
 13
0.0
 23
0.0
 14
0.5
 24
0.5
 15
0.5
 25
0.5
 16
0.0
 26
0.0
 36
1.0
 17
0.0
 27
0.0
 37
0.0
 40
108.4568128245704
 41
1.60267857142857
 42
50.0
 43
0.0
 44
0.0
 50
0.0
 51
0.0
 71
     0
 72
   100
 73
     1
 74
     3
 75
     0
 76
     0
 77
     0
 78
     0
281
     0
 65
     1
110
0.0
120
0.0
130
0.0
111
1.0
121
0.0
131
0.0
112
0.0
122
1.0
132
0.0
 79
     0
146
0.0
  0
ENDTAB
  0
TABLE
  2
LTYPE
  5
5
330
0
100
AcDbSymbolTable
 70
     8
  0
LTYPE
  5
14
330
5
100
AcDbSymbolTableRecord
100
AcDbLinetypeTableRecord
  2
ByBlock
 70
     0
  3

 72
    65
 73
     0
 40
0.0
  0
LTYPE
  5
15
330
5
100
AcDbSymbolTableRecord
100
AcDbLinetypeTableRecord
  2
ByLayer
 70
     0
  3

 72
    65
 73
     0
 40
0.0
  0
LTYPE
  5
16
330
5
100
AcDbSymbolTableRecord
100
AcDbLinetypeTableRecord
  2
Continuous
 70
     0
  3
Solid line
 72
    65
 73
     0
 40
0.0
  0
LTYPE
  5
3B
330
5
100
AcDbSymbolTableRecord
100
AcDbLinetypeTableRecord
  2
DASHED
 70
     0
  3
Dashed
 72
    65
 73
     2
 40
15.0
 49
7.0
 74
     0
 49
-8.0
 74
     0
  0
LTYPE
  5
3C
330
5
100
AcDbSymbolTableRecord
100
AcDbLinetypeTableRecord
  2
DOTTED
 70
     0
  3
Dotted
 72
    65
 73
     2
 40
1.0
 49
0.0
 74
     0
 49
-1.0
 74
     0
  0
LTYPE
  5
3D
330
5
100
AcDbSymbolTableRecord
100
AcDbLinetypeTableRecord
  2
DOT_CENTER
 70
     0
  3
Dot_Center
 72
    65
 73
     4
 40
14.0
 49
12.0
 74
     0
 49
-1.0
 74
     0
 49
0.0
 74
     0
 49
-1.0
 74
     0
  0
LTYPE
  5
3E
330
5
100
AcDbSymbolTableRecord
100
AcDbLinetypeTableRecord
  2
LONG_DASHED
 70
     0
  3
Long_Dashed
 72
    65
 73
     2
 40
15.0
 49
10.0
 74
     0
 49
-5.0
 74
     0
  0
LTYPE
  5
3F
330
5
100
AcDbSymbolTableRecord
100
AcDbLinetypeTableRecord
  2
DASH_CENTER
 70
     0
  3
Dash_Center
 72
    65
 73
     4
 40
14.0
 49
11.0
 74
     0
 49
-1.0
 74
     0
 49
1.0
 74
     0
 49
-1.0
 74
     0
  0
LTYPE
  5
40
330
5
100
AcDbSymbolTableRecord
100
AcDbLinetypeTableRecord
  2
PHANTOM
 70
     0
  3
Phantom
 72
    65
 73
     6
 40
13.0
 49
10.0
 74
     0
 49
-1.0
 74
     0
 49
0.0
 74
     0
 49
-1.0
 74
     0
 49
0.0
 74
     0
 49
-1.0
 74
     0
  0
LTYPE
  5
41
330
5
100
AcDbSymbolTableRecord
100
AcDbLinetypeTableRecord
  2
CENTER_DASH_DASH
 70
     0
  3
Center_Dash_Dash
 72
    65
 73
     6
 40
14.0
 49
9.0
 74
     0
 49
-1.0
 74
     0
 49
1.0
 74
     0
 49
-1.0
 74
     0
 49
1.0
 74
     0
 49
-1.0
 74
     0
  0
ENDTAB
  0
TABLE
  2
LAYER
  5
2
330
0
100
AcDbSymbolTable
 70
     9
  0
LAYER
  5
10
330
2
100
AcDbSymbolTableRecord
100
AcDbLayerTableRecord
  2
0
 70
     0
 62
     7
  6
Continuous
370
    -3
390
F
  0
LAYER
  5
42
330
2
100
AcDbSymbolTableRecord
100
AcDbLayerTableRecord
  2
1
 70
     0
 62
     7
  6
Continuous
370
    -3
390
F
  0
LAYER
  5
43
330
2
100
AcDbSymbolTableRecord
100
AcDbLayerTableRecord
  2
AUSFORMSCHRAEGEN
 70
     0
 62
     7
  6
Continuous
370
    -3
390
F
  0
LAYER
  5
44
330
2
100
AcDbSymbolTableRecord
100
AcDbLayerTableRecord
  2
BEZUGSACHSEN
 70
     0
 62
     7
  6
Continuous
370
    -3
390
F
  0
LAYER
  5
45
330
2
100
AcDbSymbolTableRecord
100
AcDbLayerTableRecord
  2
BG_STARTBEZUEGE
 70
     0
 62
     7
  6
Continuous
370
    -3
390
F
  0
LAYER
  5
46
330
2
100
AcDbSymbolTableRecord
100
AcDbLayerTableRecord
  2
DEFAULT_2
 70
     0
 62
     7
  6
Continuous
370
    -3
390
F
  0
LAYER
  5
47
330
2
100
AcDbSymbolTableRecord
100
AcDbLayerTableRecord
  2
FASEN
 70
     0
 62
     7
  6
Continuous
370
    -3
390
F
  0
LAYER
  5
48
330
2
100
AcDbSymbolTableRecord
100
AcDbLayerTableRecord
  2
FLAECHEN
 70
     0
 62
     7
  6
Continuous
370
    -3
390
F
  0
LAYER
  5
49
330
2
100
AcDbSymbolTableRecord
100
AcDbLayerTableRecord
  2
RUNDUNGEN
 70
     0
 62
     7
  6
Continuous
370
    -3
390
F
  0
ENDTAB
  0
TABLE
  2
STYLE
  5
3
330
0
100
AcDbSymbolTable
 70
     2
  0
STYLE
  5
11
330
3
100
AcDbSymbolTableRecord
100
AcDbTextStyleTableRecord
  2
Standard
 70
     0
 40
0.0
 41
1.0
 50
0.0
 71
     0
 42
0.2
  3
txt
  4

  0
STYLE
  5
70
330
3
100
AcDbSymbolTableRecord
100
AcDbTextStyleTableRecord
  2
CONVERTER_11
 70
     0
 40
0.0
 41
0.72
 50
0.0
 71
     0
 42
0.2
  3
txt.shx
  4

  0
ENDTAB
  0
TABLE
  2
VIEW
  5
6
330
0
100
AcDbSymbolTable
 70
     0
  0
ENDTAB
  0
TABLE
  2
UCS
  5
7
330
0
100
AcDbSymbolTable
 70
     0
  0
ENDTAB
  0
TABLE
  2
APPID
  5
9
330
0
100
AcDbSymbolTable
 70
     1
  0
APPID
  5
12
330
9
100
AcDbSymbolTableRecord
100
AcDbRegAppTableRecord
  2
ACAD
 70
     0
  0
ENDTAB
  0
TABLE
  2
DIMSTYLE
  5
A
330
0
100
AcDbSymbolTable
 70
     7
100
AcDbDimStyleTable
  0
DIMSTYLE
105
27
330
A
100
AcDbSymbolTableRecord
100
AcDbDimStyleTableRecord
  2
Standard
 70
     0
340
11
  0
DIMSTYLE
105
147
102
{ACAD_REACTORS
330
148
102
}
330
A
100
AcDbSymbolTableRecord
100
AcDbDimStyleTableRecord
  2
ME10_DIM_10
 70
     0
  3
<>
 41
3.5
 42
2.0
 44
2.0
 71
     1
 73
     0
 74
     0
 77
     1
 78
     8
140
3.5
146
0.7
147
2.0
172
     1
173
     1
176
     2
177
     2
178
     3
271
     0
272
     0
340
70
  0
DIMSTYLE
105
152
102
{ACAD_REACTORS
330
153
102
}
330
A
100
AcDbSymbolTableRecord
100
AcDbDimStyleTableRecord
  2
ME10_DIM_11
 70
     0
  3
<>
 41
3.5
 42
2.0
 44
2.0
 71
     1
 73
     0
 74
     0
 77
     1
 78
     8
140
3.5
146
0.7
147
2.0
172
     1
173
     1
176
     2
177
     2
178
     3
271
     2
272
     0
340
70
  0
DIMSTYLE
105
15D
102
{ACAD_REACTORS
330
15E
102
}
330
A
100
AcDbSymbolTableRecord
100
AcDbDimStyleTableRecord
  2
ME10_DIM_12
 70
     0
  3
<>
 41
3.5
 42
2.0
 44
2.0
 71
     1
 73
     0
 74
     0
 77
     1
 78
     8
140
3.5
146
0.7
147
2.0
172
     1
173
     1
176
     2
177
     2
178
     3
271
     2
272
     0
340
70
  0
DIMSTYLE
105
168
102
{ACAD_REACTORS
330
169
102
}
330
A
100
AcDbSymbolTableRecord
100
AcDbDimStyleTableRecord
  2
ME10_DIM_13
 70
     0
  3
<>
 41
3.5
 42
2.0
 44
2.0
 71
     1
 73
     0
 74
     0
 77
     1
 78
     8
140
3.5
146
0.7
147
2.0
172
     1
173
     1
176
     2
177
     2
178
     3
271
     0
272
     0
340
70
  0
DIMSTYLE
105
173
102
{ACAD_REACTORS
330
174
102
}
330
A
100
AcDbSymbolTableRecord
100
AcDbDimStyleTableRecord
  2
ME10_DIM_14
 70
     0
  3
\U+2300<>
 41
3.5
 42
2.0
 44
2.0
 71
     1
 73
     0
 74
     0
 77
     1
 78
     8
140
3.5
146
0.7
147
2.0
172
     1
173
     1
176
     2
177
     2
178
     3
271
     2
272
     0
340
70
  0
DIMSTYLE
105
17E
102
{ACAD_REACTORS
330
17F
102
}
330
A
100
AcDbSymbolTableRecord
100
AcDbDimStyleTableRecord
  2
ME10_DIM_15
 70
     0
  3
\U+2300<>
 41
3.5
 42
2.0
 44
2.0
 71
     1
 73
     0
 74
     0
 77
     1
 78
     8
140
3.5
146
0.7
147
2.0
172
     1
173
     1
176
     2
177
     2
178
     3
271
     2
272
     0
340
70
  0
ENDTAB
  0
TABLE
  2
BLOCK_RECORD
  5
1
330
0
100
AcDbSymbolTable
 70
     9
  0
BLOCK_RECORD
  5
1F
330
1
100
AcDbSymbolTableRecord
100
AcDbBlockTableRecord
  2
*Model_Space
340
22
  0
BLOCK_RECORD
  5
1B
330
1
100
AcDbSymbolTableRecord
100
AcDbBlockTableRecord
  2
*Paper_Space
340
1E
  0
BLOCK_RECORD
  5
23
330
1
100
AcDbSymbolTableRecord
100
AcDbBlockTableRecord
  2
*Paper_Space0
340
26
  0
BLOCK_RECORD
  5
4A
330
1
100
AcDbSymbolTableRecord
100
AcDbBlockTableRecord
  2
Urheberrecht_DE-EN_horizontal
340
0
102
{BLKREFS
331
6F
102
}
  0
BLOCK_RECORD
  5
13E
330
1
100
AcDbSymbolTableRecord
100
AcDbBlockTableRecord
  2
*D2
340
0
  0
BLOCK_RECORD
  5
149
330
1
100
AcDbSymbolTableRecord
100
AcDbBlockTableRecord
  2
*D3
340
0
  0
BLOCK_RECORD
  5
154
330
1
100
AcDbSymbolTableRecord
100
AcDbBlockTableRecord
  2
*D4
340
0
  0
BLOCK_RECORD
  5
15F
330
1
100
AcDbSymbolTableRecord
100
AcDbBlockTableRecord
  2
*D5
340
0
  0
BLOCK_RECORD
  5
16A
330
1
100
AcDbSymbolTableRecord
100
AcDbBlockTableRecord
  2
*D6
340
0
  0
BLOCK_RECORD
  5
175
330
1
100
AcDbSymbolTableRecord
100
AcDbBlockTableRecord
  2
*D7
340
0
  0
BLOCK_RECORD
  5
180
330
1
100
AcDbSymbolTableRecord
100
AcDbBlockTableRecord
  2
*D8
340
0
102
{BLKREFS
331
186
102
}
  0
ENDTAB
  0
ENDSEC
  0
SECTION
  2
BLOCKS
  0
BLOCK
  5
20
330
1F
100
AcDbEntity
  8
0
100
AcDbBlockBegin
  2
*Model_Space
 70
     0
 10
0.0
 20
0.0
 30
0.0
  3
*Model_Space
  1

  0
ENDBLK
  5
21
330
1F
100
AcDbEntity
  8
0
100
AcDbBlockEnd
  0
BLOCK
  5
1C
330
1B
100
AcDbEntity
 67
     1
  8
0
100
AcDbBlockBegin
  2
*Paper_Space
 70
     0
 10
0.0
 20
0.0
 30
0.0
  3
*Paper_Space
  1

  0
ENDBLK
  5
1D
330
1B
100
AcDbEntity
 67
     1
  8
0
100
AcDbBlockEnd
  0
BLOCK
  5
24
330
23
100
AcDbEntity
  8
0
100
AcDbBlockBegin
  2
*Paper_Space0
 70
     0
 10
0.0
 20
0.0
 30
0.0
  3
*Paper_Space0
  1

  0
ENDBLK
  5
25
330
23
100
AcDbEntity
  8
0
100
AcDbBlockEnd
  0
BLOCK
  5
4B
330
4A
100
AcDbEntity
  8
0
100
AcDbBlockBegin
  2
Urheberrecht_DE-EN_horizontal
 70
     0
 10
146.04485996887
 20
295.866073431057
 30
0.0
  3
Urheberrecht_DE-EN_horizontal
  1

  0
MTEXT
  5
71
330
4A
100
AcDbEntity
  8
1
 62
     1
100
AcDbMText
 10
148.880464496817
 20
289.0680654211527
 30
0.0
 40
2.0
 41
0.0
 71
     7
 72
     1
  1
We own the copyright of this document. It \Pdetermined and may neither be copied or \Pmade accessible to outsiders without our\Ppermission.
  7
CONVERTER_11
 73
     1
 44
0.90036014405762
  0
MTEXT
  5
72
330
4A
100
AcDbEntity
  8
1
 62
     1
100
AcDbMText
 10
92.59107757951078
 20
289.0680654211527
 30
0.0
 40
2.0
 41
0.0
 71
     7
 72
     1
  1
F\U+00fcr diese Unterlage behalten wir das Ur-\Pheberrecht. Sie darf nur f\U+00fcr den von uns \Pbestimmten Zweck benutzt und ohne unsere \PZustimmung weder vervielf\U+00e4ltigt noch\PDritten zug\U+00e4nglich gemacht werden.
  7
CONVERTER_11
 73
     1
 44
0.90036014405762
  0
ENDBLK
  5
4C
330
4A
100
AcDbEntity
  8
0
100
AcDbBlockEnd
  0
BLOCK
  5
145
330
13E
100
AcDbEntity
  8
0
100
AcDbBlockBegin
  2
*D2
 70
     1
 10
0.0
 20
0.0
 30
0.0
  3
*D2
  1

  0
LINE
  5
13F
330
13E
100
AcDbEntity
  8
1
  6
Continuous
 62
     2
100
AcDbLine
 10
180.8962125847
 20
381.565167988944
 30
0.0
 11
92.9962125847
 21
381.565167988944
 31
0.0
  0
LINE
  5
140
330
13E
100
AcDbEntity
  8
1
  6
Continuous
 62
     2
100
AcDbLine
 10
180.8962125847
 20
345.1257647779
 30
0.0
 11
180.8962125847
 21
383.565167988944
 31
0.0
  0
LINE
  5
141
330
13E
100
AcDbEntity
  8
1
  6
Continuous
 62
     2
100
AcDbLine
 10
92.9962125847
 20
342.5717514024
 30
0.0
 11
92.9962125847
 21
383.565167988944
 31
0.0
  0
SOLID
  5
142
330
13E
100
AcDbEntity
  8
1
 62
     2
100
AcDbTrace
 10
177.3962125847
 20
381.1043842473881
 30
0.0
 11
177.3962125847
 21
382.0259517304999
 31
0.0
 12
180.8962125847
 22
381.565167988944
 32
0.0
 13
180.8962125847
 23
381.565167988944
 33
0.0
  0
SOLID
  5
143
330
13E
100
AcDbEntity
  8
1
 62
     2
100
AcDbTrace
 10
96.4962125847
 20
382.0259517304999
 30
0.0
 11
96.4962125847
 21
381.1043842473881
 31
0.0
 12
92.9962125847
 22
381.565167988944
 32
0.0
 13
92.9962125847
 23
381.565167988944
 33
0.0
  0
MTEXT
  5
144
330
13E
100
AcDbEntity
  8
1
 62
     3
100
AcDbMText
 10
136.238647540752
 20
383.565167988944
 30
0.0
 40
3.5
 41
0.0
 71
     7
 72
     1
  1
\C3;\C3;\C3;88\C2;\H2.45;\S^ ;\C3;
  7
CONVERTER_11
 11
0.9999999999970619
 21
2.424068405545306E-6
 31
0.0
 73
     1
 44
0.60024009603842
  0
ENDBLK
  5
146
330
13E
100
AcDbEntity
  8
0
100
AcDbBlockEnd
  0
BLOCK
  5
150
330
149
100
AcDbEntity
  8
0
100
AcDbBlockBegin
  2
*D3
 70
     1
 10
0.0
 20
0.0
 30
0.0
  3
*D3
  1

  0
LINE
  5
14A
330
149
100
AcDbEntity
  8
1
  6
Continuous
 62
     2
100
AcDbLine
 10
112.8962125847
 20
374.633634309424
 30
0.0
 11
192.8962125847
 21
374.633634309424
 31
0.0
  0
LINE
  5
14B
330
149
100
AcDbEntity
  8
1
  6
Continuous
 62
     2
100
AcDbLine
 10
192.8962125847
 20
347.2255597991
 30
0.0
 11
192.8962125847
 21
376.633634309424
 31
0.0
  0
LINE
  5
14C
330
149
100
AcDbEntity
  8
1
  6
Continuous
 62
     2
100
AcDbLine
 10
112.8962125847
 20
349.1257647779
 30
0.0
 11
112.8962125847
 21
376.633634309424
 31
0.0
  0
SOLID
  5
14D
330
149
100
AcDbEntity
  8
1
 62
     2
100
AcDbTrace
 10
116.3962125847
 20
375.0944180509799
 30
0.0
 11
116.3962125847
 21
374.1728505678681
 31
0.0
 12
112.8962125847
 22
374.633634309424
 32
0.0
 13
112.8962125847
 23
374.633634309424
 33
0.0
  0
SOLID
  5
14E
330
149
100
AcDbEntity
  8
1
 62
     2
100
AcDbTrace
 10
189.3962125847
 20
374.1728505678681
 30
0.0
 11
189.3962125847
 21
375.0944180509799
 31
0.0
 12
192.8962125847
 22
374.633634309424
 32
0.0
 13
192.8962125847
 23
374.633634309424
 33
0.0
  0
MTEXT
  5
14F
330
149
100
AcDbEntity
  8
1
 62
     3
100
AcDbMText
 10
149.45477175637
 20
376.633634309424
 30
0.0
 40
3.5
 41
0.0
 71
     7
 72
     1
  1
\C3;\C3;\C3;80\C2;\H2.45;\S^ ;\C3;
  7
CONVERTER_11
 11
0.9999999999970619
 21
2.424068405545306E-6
 31
0.0
 73
     1
 44
0.60024009603842
  0
ENDBLK
  5
151
330
149
100
AcDbEntity
  8
0
100
AcDbBlockEnd
  0
BLOCK
  5
15B
330
154
100
AcDbEntity
  8
0
100
AcDbBlockBegin
  2
*D4
 70
     1
 10
0.0
 20
0.0
 30
0.0
  3
*D4
  1

  0
LINE
  5
155
330
154
100
AcDbEntity
  8
1
  6
Continuous
 62
     2
100
AcDbLine
 10
180.8962125847
 20
367.055157486483
 30
0.0
 11
112.8962125847
 21
367.055157486483
 31
0.0
  0
LINE
  5
156
330
154
100
AcDbEntity
  8
1
  6
Continuous
 62
     2
100
AcDbLine
 10
112.8962125847
 20
349.1257647779
 30
0.0
 11
112.8962125847
 21
369.055157486483
 31
0.0
  0
LINE
  5
157
330
154
100
AcDbEntity
  8
1
  6
Continuous
 62
     2
100
AcDbLine
 10
180.8962125847
 20
345.1257647779
 30
0.0
 11
180.8962125847
 21
369.055157486483
 31
0.0
  0
SOLID
  5
158
330
154
100
AcDbEntity
  8
1
 62
     2
100
AcDbTrace
 10
177.3962125847
 20
366.5943737449271
 30
0.0
 11
177.3962125847
 21
367.5159412280389
 31
0.0
 12
180.8962125847
 22
367.055157486483
 32
0.0
 13
180.8962125847
 23
367.055157486483
 33
0.0
  0
SOLID
  5
159
330
154
100
AcDbEntity
  8
1
 62
     2
100
AcDbTrace
 10
116.3962125847
 20
367.5159412280389
 30
0.0
 11
116.3962125847
 21
366.5943737449271
 31
0.0
 12
112.8962125847
 22
367.055157486483
 32
0.0
 13
112.8962125847
 23
367.055157486483
 33
0.0
  0
MTEXT
  5
15A
330
154
100
AcDbEntity
  8
1
 62
     3
100
AcDbMText
 10
143.447442567453
 20
369.055157486483
 30
0.0
 40
3.5
 41
0.0
 71
     7
 72
     1
  1
\C3;\C3;\C3;68\C2;\H2.45;\S^ ;\C3;
  7
CONVERTER_11
 11
0.9999999999970619
 21
2.424068405545306E-6
 31
0.0
 73
     1
 44
0.60024009603842
  0
ENDBLK
  5
15C
330
154
100
AcDbEntity
  8
0
100
AcDbBlockEnd
  0
BLOCK
  5
166
330
15F
100
AcDbEntity
  8
0
100
AcDbBlockBegin
  2
*D5
 70
     1
 10
0.0
 20
0.0
 30
0.0
  3
*D5
  1

  0
LINE
  5
160
330
15F
100
AcDbEntity
  8
1
  6
Continuous
 62
     2
100
AcDbLine
 10
180.8962125847
 20
358.829737520119
 30
0.0
 11
132.8462125847
 21
358.829737520119
 31
0.0
  0
LINE
  5
161
330
15F
100
AcDbEntity
  8
1
  6
Continuous
 62
     2
100
AcDbLine
 10
132.8462125847
 20
349.125722439
 30
0.0
 11
132.8462125847
 21
360.829737520119
 31
0.0
  0
LINE
  5
162
330
15F
100
AcDbEntity
  8
1
  6
Continuous
 62
     2
100
AcDbLine
 10
180.8962125847
 20
345.1257647779
 30
0.0
 11
180.8962125847
 21
360.829737520119
 31
0.0
  0
SOLID
  5
163
330
15F
100
AcDbEntity
  8
1
 62
     2
100
AcDbTrace
 10
177.3962125847
 20
358.3689537785631
 30
0.0
 11
177.3962125847
 21
359.2905212616749
 31
0.0
 12
180.8962125847
 22
358.829737520119
 32
0.0
 13
180.8962125847
 23
358.829737520119
 33
0.0
  0
SOLID
  5
164
330
15F
100
AcDbEntity
  8
1
 62
     2
100
AcDbTrace
 10
136.3462125847
 20
359.2905212616749
 30
0.0
 11
136.3462125847
 21
358.3689537785631
 31
0.0
 12
132.8462125847
 22
358.829737520119
 32
0.0
 13
132.8462125847
 23
358.829737520119
 33
0.0
  0
MTEXT
  5
165
330
15F
100
AcDbEntity
  8
1
 62
     3
100
AcDbMText
 10
153.428851065961
 20
360.829737520119
 30
0.0
 40
3.5
 41
0.0
 71
     7
 72
     1
  1
\C3;\C3;\C3;48\C2;\H2.45;\S^ ;\C3;
  7
CONVERTER_11
 11
0.9999999999970619
 21
2.424068405545306E-6
 31
0.0
 73
     1
 44
0.60024009603842
  0
ENDBLK
  5
167
330
15F
100
AcDbEntity
  8
0
100
AcDbBlockEnd
  0
BLOCK
  5
171
330
16A
100
AcDbEntity
  8
0
100
AcDbBlockBegin
  2
*D6
 70
     1
 10
0.0
 20
0.0
 30
0.0
  3
*D6
  1

  0
LINE
  5
16B
330
16A
100
AcDbEntity
  8
1
  6
Continuous
 62
     2
100
AcDbLine
 10
213.846154422987
 20
348.1257647779
 30
0.0
 11
213.846154422987
 21
306.1257647779
 31
0.0
  0
LINE
  5
16C
330
16A
100
AcDbEntity
  8
1
  6
Continuous
 62
     2
100
AcDbLine
 10
193.2218968041
 20
306.1257647779
 30
0.0
 11
215.846154422987
 21
306.1257647779
 31
0.0
  0
LINE
  5
16D
330
16A
100
AcDbEntity
  8
1
  6
Continuous
 62
     2
100
AcDbLine
 10
193.2218968041
 20
348.1257647779
 30
0.0
 11
215.846154422987
 21
348.1257647779
 31
0.0
  0
SOLID
  5
16E
330
16A
100
AcDbEntity
  8
1
 62
     2
100
AcDbTrace
 10
214.3069381645429
 20
344.6257647779
 30
0.0
 11
213.3853706814311
 21
344.6257647779
 31
0.0
 12
213.846154422987
 22
348.1257647779
 32
0.0
 13
213.846154422987
 23
348.1257647779
 33
0.0
  0
SOLID
  5
16F
330
16A
100
AcDbEntity
  8
1
 62
     2
100
AcDbTrace
 10
213.3853706814311
 20
309.6257647779
 30
0.0
 11
214.3069381645429
 21
309.6257647779
 31
0.0
 12
213.846154422987
 22
306.1257647779
 32
0.0
 13
213.846154422987
 23
306.1257647779
 33
0.0
  0
MTEXT
  5
170
330
16A
100
AcDbEntity
  8
1
 62
     3
100
AcDbMText
 10
211.846154422987
 20
318.736625737751
 30
0.0
 40
3.5
 41
0.0
 71
     7
 72
     1
  1
\C3;%%c\C3;\C3;42\C2;\H2.45;\S^ ;\C3;
  7
CONVERTER_11
 11
0.0
 21
1.0
 31
0.0
 73
     1
 44
0.60024009603842
  0
ENDBLK
  5
172
330
16A
100
AcDbEntity
  8
0
100
AcDbBlockEnd
  0
BLOCK
  5
17C
330
175
100
AcDbEntity
  8
0
100
AcDbBlockBegin
  2
*D7
 70
     1
 10
0.0
 20
0.0
 30
0.0
  3
*D7
  1

  0
LINE
  5
176
330
175
100
AcDbEntity
  8
1
  6
Continuous
 62
     2
100
AcDbLine
 10
205.066211762262
 20
339.6257647779
 30
0.0
 11
205.066211762262
 21
314.6257647779
 31
0.0
  0
LINE
  5
177
330
175
100
AcDbEntity
  8
1
  6
Continuous
 62
     2
100
AcDbLine
 10
182.8962125847
 20
314.6257647779
 30
0.0
 11
207.066211762262
 21
314.6257647779
 31
0.0
  0
LINE
  5
178
330
175
100
AcDbEntity
  8
1
  6
Continuous
 62
     2
100
AcDbLine
 10
182.8962125847
 20
339.6257647779
 30
0.0
 11
207.066211762262
 21
339.6257647779
 31
0.0
  0
SOLID
  5
179
330
175
100
AcDbEntity
  8
1
 62
     2
100
AcDbTrace
 10
205.5269955038179
 20
336.1257647779
 30
0.0
 11
204.6054280207061
 21
336.1257647779
 31
0.0
 12
205.066211762262
 22
339.6257647779
 32
0.0
 13
205.066211762262
 23
339.6257647779
 33
0.0
  0
SOLID
  5
17A
330
175
100
AcDbEntity
  8
1
 62
     2
100
AcDbTrace
 10
204.6054280207061
 20
318.1257647779
 30
0.0
 11
205.5269955038179
 21
318.1257647779
 31
0.0
 12
205.066211762262
 22
314.6257647779
 32
0.0
 13
205.066211762262
 23
314.6257647779
 33
0.0
  0
MTEXT
  5
17B
330
175
100
AcDbEntity
  8
1
 62
     3
100
AcDbMText
 10
203.066211762262
 20
318.274523492449
 30
0.0
 40
3.5
 41
0.0
 71
     7
 72
     1
  1
\C3;%%c\C3;\C3;25\C2;\H2.45;\S^ ;\C3;
  7
CONVERTER_11
 11
0.0
 21
1.0
 31
0.0
 73
     1
 44
0.60024009603842
  0
ENDBLK
  5
17D
330
175
100
AcDbEntity
  8
0
100
AcDbBlockEnd
  0
BLOCK
  5
184
330
180
100
AcDbEntity
  8
0
100
AcDbBlockBegin
  2
*D8
 70
     1
 10
0.0
 20
0.0
 30
0.0
  3
*D8
  1

  0
LINE
  5
181
330
180
100
AcDbEntity
  8
1
  6
Continuous
 62
     2
100
AcDbLine
 10
143.7136111406705
 20
348.8308193601845
 30
0.0
 11
132.9435756558601
 21
343.6953619727343
 31
0.0
  0
SOLID
  5
182
330
180
100
AcDbEntity
  8
1
 62
     2
100
AcDbTrace
 10
135.9044822918594
 20
345.6176922121515
 30
0.0
 11
136.3011275217402
 21
344.7858513694767
 31
0.0
 12
132.9435756558601
 22
343.6953619727343
 32
0.0
 13
132.9435756558601
 23
343.6953619727343
 33
0.0
  0
MTEXT
  5
183
330
180
100
AcDbEntity
  8
1
 62
     3
100
AcDbMText
 10
136.9134545385727
 20
347.8040427598741
 30
0.0
 40
3.5
 41
0.0
 71
     7
 72
     1
  1
\C3; R\C3;\C3;1\C2;\H2.45;\S^ ;\C3;
  7
CONVERTER_11
 11
0.9026369288398975
 21
0.4304028051656701
 31
0.0
 73
     1
 44
0.60024009603842
  0
ENDBLK
  5
185
330
180
100
AcDbEntity
  8
0
100
AcDbBlockEnd
  0
ENDSEC
  0
SECTION
  2
ENTITIES
  0
INSERT
  5
6F
330
1F
100
AcDbEntity
  8
0
100
AcDbBlockReference
  2
Urheberrecht_DE-EN_horizontal
 10
146.04485996887
 20
295.866073431057
 30
0.0
  0
LINE
  5
73
330
1F
100
AcDbEntity
  8
FLAECHEN
  6
Continuous
 62
     7
100
AcDbLine
 10
172.8962125847
 20
311.1257647779
 30
0.0
 11
172.8962125847
 21
306.1257647779
 31
0.0
  0
LWPOLYLINE
  5
74
330
1F
100
AcDbEntity
  8
1
  6
DASHED
 62
     7
100
AcDbPolyline
 90
        2
 70
     0
 43
0.35
 10
180.8962125847
 20
311.1257647779
 10
172.8962125847
 20
311.1257647779
  0
LINE
  5
75
330
1F
100
AcDbEntity
  8
FLAECHEN
  6
Continuous
 62
     7
100
AcDbLine
 10
172.8962125847
 20
343.1257647779
 30
0.0
 11
172.8962125847
 21
311.1257647779
 31
0.0
  0
LWPOLYLINE
  5
76
330
1F
100
AcDbEntity
  8
1
  6
DASHED
 62
     7
100
AcDbPolyline
 90
        2
 70
     0
 43
0.35
 10
180.8962125847
 20
343.1257647779
 10
172.8962125847
 20
343.1257647779
  0
LINE
  5
77
330
1F
100
AcDbEntity
  8
AUSFORMSCHRAEGEN
  6
Continuous
 62
     7
100
AcDbLine
 10
191.2218968041
 20
323.8661718507
 30
0.0
 11
192.7889485083
 21
324.5257647779
 31
0.0
  0
LINE
  5
78
330
1F
100
AcDbEntity
  8
AUSFORMSCHRAEGEN
  6
Continuous
 62
     7
100
AcDbLine
 10
192.7889485083
 20
329.7257647779
 30
0.0
 11
191.2218968041
 21
330.385357705
 31
0.0
  0
LINE
  5
79
330
1F
100
AcDbEntity
  8
FLAECHEN
  6
Continuous
 62
     7
100
AcDbLine
 10
192.8962125847
 20
345.2257647779
 30
0.0
 11
191.2218968041
 21
348.1257647779
 31
0.0
  0
LINE
  5
7A
330
1F
100
AcDbEntity
  8
FLAECHEN
  6
Continuous
 62
     7
100
AcDbLine
 10
192.8962125847
 20
309.0257647786
 30
0.0
 11
191.2218968041
 21
306.1257647779
 31
0.0
  0
LINE
  5
7B
330
1F
100
AcDbEntity
  8
0
  6
Continuous
 62
     7
100
AcDbLine
 10
192.8962125847
 20
345.2255597991
 30
0.0
 11
192.8962125847
 21
309.0257647786
 31
0.0
  0
LINE
  5
7C
330
1F
100
AcDbEntity
  8
AUSFORMSCHRAEGEN
  6
Continuous
 62
     7
100
AcDbLine
 10
191.2218968041
 20
307.5298532512
 30
0.0
 11
191.2218968041
 21
306.1257647779
 31
0.0
  0
LINE
  5
7D
330
1F
100
AcDbEntity
  8
AUSFORMSCHRAEGEN
  6
Continuous
 62
     7
100
AcDbLine
 10
191.2218968041
 20
323.8661718507
 30
0.0
 11
191.2218968041
 21
310.7894461783
 31
0.0
  0
LINE
  5
7E
330
1F
100
AcDbEntity
  8
AUSFORMSCHRAEGEN
  6
Continuous
 62
     7
100
AcDbLine
 10
191.2218968041
 20
343.4620833774
 30
0.0
 11
191.2218968041
 21
330.385357705
 31
0.0
  0
LINE
  5
7F
330
1F
100
AcDbEntity
  8
AUSFORMSCHRAEGEN
  6
Continuous
 62
     7
100
AcDbLine
 10
191.2218968041
 20
348.1257647779
 30
0.0
 11
191.2218968041
 21
346.7216763046
 31
0.0
  0
LINE
  5
80
330
1F
100
AcDbEntity
  8
AUSFORMSCHRAEGEN
  6
Continuous
 62
     9
100
AcDbLine
 10
185.7462125849
 20
310.1507049694
 30
0.0
 11
185.7462125847
 21
307.5298532512
 31
0.0
  0
LINE
  5
81
330
1F
100
AcDbEntity
  8
AUSFORMSCHRAEGEN
  6
Continuous
 62
     9
100
AcDbLine
 10
184.8962125847
 20
329.7257647779
 30
0.0
 11
184.8962125847
 21
330.385357705
 31
0.0
  0
LINE
  5
82
330
1F
100
AcDbEntity
  8
AUSFORMSCHRAEGEN
  6
Continuous
 62
     9
100
AcDbLine
 10
184.8962125848
 20
324.5257647779
 30
0.0
 11
184.8962125847
 21
323.8661718507
 31
0.0
  0
LINE
  5
83
330
1F
100
AcDbEntity
  8
AUSFORMSCHRAEGEN
  6
Continuous
 62
     9
100
AcDbLine
 10
183.7962125847
 20
344.1008245864
 30
0.0
 11
183.7962125847
 21
346.7216763046
 31
0.0
  0
LWPOLYLINE
  5
84
330
1F
100
AcDbEntity
  8
DEFAULT_2
  6
DASHED
 62
     8
100
AcDbPolyline
 90
        2
 70
     0
 43
0.35
 10
180.8962125847
 20
343.1257647779
 10
180.8962125847
 20
311.1257647779
  0
LINE
  5
85
330
1F
100
AcDbEntity
  8
FLAECHEN
  6
Continuous
 62
     7
100
AcDbLine
 10
172.8962125847
 20
348.1257647779
 30
0.0
 11
172.8962125847
 21
343.1257647779
 31
0.0
  0
LINE
  5
86
330
1F
100
AcDbEntity
  8
FLAECHEN
  6
Continuous
 62
     7
100
AcDbLine
 10
191.2218968041
 20
348.1257647779
 30
0.0
 11
172.8962125847
 21
348.1257647779
 31
0.0
  0
LINE
  5
87
330
1F
100
AcDbEntity
  8
0
  6
Continuous
 62
     7
100
AcDbLine
 10
130.9313722836
 20
347.1257647779
 30
0.0
 11
132.8462125847
 21
347.1257647779
 31
0.0
  0
LINE
  5
88
330
1F
100
AcDbEntity
  8
0
  6
Continuous
 62
     7
100
AcDbLine
 10
124.8962125847
 20
347.1257647779
 30
0.0
 11
126.8610528858
 21
347.1257647779
 31
0.0
  0
LINE
  5
89
330
1F
100
AcDbEntity
  8
0
  6
Continuous
 62
     7
100
AcDbLine
 10
112.8962125847
 20
347.1257647779
 30
0.0
 11
114.8962125847
 21
347.1257647779
 31
0.0
  0
LINE
  5
8A
330
1F
100
AcDbEntity
  8
BEZUGSACHSEN
  6
Continuous
 62
     7
100
AcDbLine
 10
114.8962125847
 20
347.1257647779
 30
0.0
 11
112.8962125847
 21
347.1257647779
 31
0.0
  0
LINE
  5
8B
330
1F
100
AcDbEntity
  8
BEZUGSACHSEN
  6
Continuous
 62
     7
100
AcDbLine
 10
126.8610528858
 20
347.1257647779
 30
0.0
 11
124.8962125847
 21
347.1257647779
 31
0.0
  0
LINE
  5
8C
330
1F
100
AcDbEntity
  8
AUSFORMSCHRAEGEN
  6
Continuous
 62
     7
100
AcDbLine
 10
191.2218968041
 20
346.7216763046
 30
0.0
 11
183.7962125847
 21
346.7216763046
 31
0.0
  0
LINE
  5
8D
330
1F
100
AcDbEntity
  8
0
  6
Continuous
 62
     7
100
AcDbLine
 10
128.1087125847
 20
344.5007647779
 30
0.0
 11
129.6837125847
 21
344.5007647779
 31
0.0
  0
LINE
  5
8E
330
1F
100
AcDbEntity
  8
AUSFORMSCHRAEGEN
  6
Continuous
 62
     7
100
AcDbLine
 10
192.7889485083
 20
344.1008245864
 30
0.0
 11
183.7962125866
 21
344.1008245864
 31
0.0
  0
LINE
  5
8F
330
1F
100
AcDbEntity
  8
AUSFORMSCHRAEGEN
  6
Continuous
 62
     7
100
AcDbLine
 10
191.2218968041
 20
343.4620833774
 30
0.0
 11
183.7962125847
 21
343.4620833774
 31
0.0
  0
LINE
  5
90
330
1F
100
AcDbEntity
  8
0
  6
Continuous
 62
     7
100
AcDbLine
 10
133.8462125847
 20
343.1257647779
 30
0.0
 11
172.8962125847
 21
343.1257647779
 31
0.0
  0
LINE
  5
91
330
1F
100
AcDbEntity
  8
RUNDUNGEN
  6
Continuous
 62
     7
100
AcDbLine
 10
172.8962125847
 20
343.1257647779
 30
0.0
 11
133.8462125847
 21
343.1257647779
 31
0.0
  0
LINE
  5
92
330
1F
100
AcDbEntity
  8
0
  6
Continuous
 62
     7
100
AcDbLine
 10
110.8962125847
 20
342.2294647779
 30
0.0
 11
93.7561827908
 21
341.3707492852
 31
0.0
  0
LINE
  5
93
330
1F
100
AcDbEntity
  8
0
  6
Continuous
 62
     7
100
AcDbLine
 10
112.7420354214
 20
342.0294647779
 30
0.0
 11
111.6952837453
 21
342.0294647779
 31
0.0
  0
LWPOLYLINE
  5
94
330
1F
100
AcDbEntity
  8
DEFAULT_2
  6
DASHED
 62
     8
100
AcDbPolyline
 90
        2
 70
     0
 43
0.35
 10
155.9924185564
 20
336.1257647779
 10
155.9924185564
 20
318.1257647779
  0
LINE
  5
95
330
1F
100
AcDbEntity
  8
0
  6
Continuous
 62
     7
100
AcDbLine
 10
111.5917561272
 20
342.0430944473
 30
0.0
 11
111.6952837453
 21
342.0294647779
 31
0.0
  0
LWPOLYLINE
  5
96
330
1F
100
AcDbEntity
  8
DEFAULT_2
  6
DASHED
 62
     8
100
AcDbPolyline
 90
        2
 70
     0
 43
0.35
 10
155.9924185564
 20
336.1257647779
 10
151.8962125847
 20
336.1257647779
  0
LWPOLYLINE
  5
97
330
1F
100
AcDbEntity
  8
DEFAULT_2
  6
DASHED
 62
     8
100
AcDbPolyline
 90
        2
 70
     0
 43
0.35
 10
151.8962125847
 20
336.1257647779
 10
151.8962125847
 20
318.1257647779
  0
LINE
  5
98
330
1F
100
AcDbEntity
  8
0
  6
Continuous
 62
     7
100
AcDbLine
 10
111.5917561272
 20
342.0430944473
 30
0.0
 11
110.8962125847
 21
342.2294647779
 31
0.0
  0
LINE
  5
99
330
1F
100
AcDbEntity
  8
RUNDUNGEN
  6
Continuous
 62
     9
100
AcDbLine
 10
95.6962125847
 20
333.0307647779
 30
0.0
 11
96.2889332811
 21
333.0307647779
 31
0.0
  0
LINE
  5
9A
330
1F
100
AcDbEntity
  8
0
  6
Continuous
 62
     9
100
AcDbLine
 10
95.6962125847
 20
333.0307647779
 30
0.0
 11
93.6125307352
 21
333.0307647779
 31
0.0
  0
LINE
  5
9B
330
1F
100
AcDbEntity
  8
0
  6
Continuous
 62
     7
100
AcDbLine
 10
129.9337125847
 20
331.6402647779
 30
0.0
 11
132.8462125847
 21
331.6402647779
 31
0.0
  0
LINE
  5
9C
330
1F
100
AcDbEntity
  8
0
  6
Continuous
 62
     7
100
AcDbLine
 10
125.3607125847
 20
331.6402647779
 30
0.0
 11
127.8587125847
 21
331.6402647779
 31
0.0
  0
LINE
  5
9D
330
1F
100
AcDbEntity
  8
0
  6
Continuous
 62
     7
100
AcDbLine
 10
129.7784640574
 20
331.2402647779
 30
0.0
 11
132.8462125847
 21
331.2402647779
 31
0.0
  0
LINE
  5
9E
330
1F
100
AcDbEntity
  8
0
  6
Continuous
 62
     7
100
AcDbLine
 10
125.3607125847
 20
331.2402647779
 30
0.0
 11
128.013961112
 21
331.2402647779
 31
0.0
  0
LWPOLYLINE
  5
9F
330
1F
100
AcDbEntity
  8
DEFAULT_2
  6
DASHED
 62
     8
100
AcDbPolyline
 90
        2
 70
     0
 43
0.35
 10
180.8962125847
 20
339.6257647779
 10
155.9924185564
 20
336.1257647779
  0
LINE
  5
A0
330
1F
100
AcDbEntity
  8
0
  6
Continuous
 62
     7
100
AcDbLine
 10
129.6837125847
 20
331.1606904277
 30
0.0
 11
128.1087125847
 21
331.1606904277
 31
0.0
  0
LINE
  5
A1
330
1F
100
AcDbEntity
  8
0
  6
Continuous
 62
     7
100
AcDbLine
 10
95.6962125847
 20
331.1507647779
 30
0.0
 11
93.9462125847
 21
331.1507647779
 31
0.0
  0
LINE
  5
A2
330
1F
100
AcDbEntity
  8
AUSFORMSCHRAEGEN
  6
Continuous
 62
     7
100
AcDbLine
 10
191.2218968041
 20
330.385357705
 30
0.0
 11
184.8962125847
 21
330.385357705
 31
0.0
  0
LINE
  5
A3
330
1F
100
AcDbEntity
  8
AUSFORMSCHRAEGEN
  6
Continuous
 62
     7
100
AcDbLine
 10
192.7889485083
 20
329.7257647779
 30
0.0
 11
184.8962125866
 21
329.7257647779
 31
0.0
  0
LWPOLYLINE
  5
A4
330
1F
100
AcDbEntity
  8
BG_STARTBEZUEGE
  6
DOT_CENTER
 62
     7
100
AcDbPolyline
 90
        2
 70
     0
 43
0.25
 10
195.8962125848
 20
327.1257647779
 10
89.9962125847
 20
327.1257647779
  0
LINE
  5
A5
330
1F
100
AcDbEntity
  8
AUSFORMSCHRAEGEN
  6
Continuous
 62
     7
100
AcDbLine
 10
184.8962125848
 20
324.5257647779
 30
0.0
 11
192.7889485083
 21
324.5257647779
 31
0.0
  0
LINE
  5
A6
330
1F
100
AcDbEntity
  8
0
  6
Continuous
 62
     7
100
AcDbLine
 10
126.8610528858
 20
347.1257647779
 30
0.0
 11
127.8587125847
 21
345.3977674907
 31
0.0
  0
LINE
  5
A7
330
1F
100
AcDbEntity
  8
AUSFORMSCHRAEGEN
  6
Continuous
 62
     7
100
AcDbLine
 10
191.2218968041
 20
323.8661718507
 30
0.0
 11
184.8962125847
 21
323.8661718507
 31
0.0
  0
LINE
  5
A8
330
1F
100
AcDbEntity
  8
0
  6
Continuous
 62
     7
100
AcDbLine
 10
95.6962125847
 20
323.1007647779
 30
0.0
 11
93.9462125847
 21
323.1007647779
 31
0.0
  0
LINE
  5
A9
330
1F
100
AcDbEntity
  8
0
  6
Continuous
 62
     7
100
AcDbLine
 10
128.1087125847
 20
323.090839128
 30
0.0
 11
129.6837125847
 21
323.090839128
 31
0.0
  0
LINE
  5
AA
330
1F
100
AcDbEntity
  8
0
  6
Continuous
 62
     7
100
AcDbLine
 10
128.013961112
 20
323.0112647779
 30
0.0
 11
125.3607125847
 21
323.0112647779
 31
0.0
  0
LINE
  5
AB
330
1F
100
AcDbEntity
  8
0
  6
Continuous
 62
     7
100
AcDbLine
 10
132.8462125847
 20
323.0112647779
 30
0.0
 11
129.7784640574
 21
323.0112647779
 31
0.0
  0
LINE
  5
AC
330
1F
100
AcDbEntity
  8
0
  6
Continuous
 62
     7
100
AcDbLine
 10
129.9337125847
 20
322.6112647779
 30
0.0
 11
132.8462125847
 21
322.6112647779
 31
0.0
  0
LINE
  5
AD
330
1F
100
AcDbEntity
  8
0
  6
Continuous
 62
     7
100
AcDbLine
 10
125.3607125847
 20
322.6112647779
 30
0.0
 11
127.8587125847
 21
322.6112647779
 31
0.0
  0
LINE
  5
AE
330
1F
100
AcDbEntity
  8
0
  6
Continuous
 62
     9
100
AcDbLine
 10
95.6962125847
 20
321.2207647779
 30
0.0
 11
93.6125307352
 21
321.2207647779
 31
0.0
  0
LINE
  5
AF
330
1F
100
AcDbEntity
  8
RUNDUNGEN
  6
Continuous
 62
     9
100
AcDbLine
 10
96.2889332811
 20
321.2207647779
 30
0.0
 11
95.6962125847
 21
321.2207647779
 31
0.0
  0
LINE
  5
B0
330
1F
100
AcDbEntity
  8
0
  6
Continuous
 62
     7
100
AcDbLine
 10
111.5917561272
 20
312.2084351084
 30
0.0
 11
110.8962125847
 21
312.0220647779
 31
0.0
  0
LINE
  5
B1
330
1F
100
AcDbEntity
  8
0
  6
Continuous
 62
     7
100
AcDbLine
 10
126.8610528858
 20
307.1257647779
 30
0.0
 11
127.8587125847
 21
308.853762065
 31
0.0
  0
LWPOLYLINE
  5
B2
330
1F
100
AcDbEntity
  8
DEFAULT_2
  6
DASHED
 62
     8
100
AcDbPolyline
 90
        2
 70
     0
 43
0.35
 10
180.8962125847
 20
314.6257647779
 10
155.9924185564
 20
318.1257647779
  0
LWPOLYLINE
  5
B3
330
1F
100
AcDbEntity
  8
DEFAULT_2
  6
DASHED
 62
     8
100
AcDbPolyline
 90
        2
 70
     0
 43
0.35
 10
155.9924185564
 20
318.1257647779
 10
151.8962125847
 20
318.1257647779
  0
LINE
  5
B4
330
1F
100
AcDbEntity
  8
RUNDUNGEN
  6
Continuous
 62
     9
100
AcDbLine
 10
133.8462125847
 20
343.1257647779
 30
0.0
 11
133.8462125847
 21
311.1257647779
 31
0.0
  0
LINE
  5
B5
330
1F
100
AcDbEntity
  8
RUNDUNGEN
  6
Continuous
 62
     7
100
AcDbLine
 10
132.8462125847
 20
328.9669574908
 30
0.0
 11
132.8462125847
 21
331.2402647779
 31
0.0
  0
LINE
  5
B6
330
1F
100
AcDbEntity
  8
RUNDUNGEN
  6
Continuous
 62
     7
100
AcDbLine
 10
132.8462125847
 20
323.0112647779
 30
0.0
 11
132.8462125847
 21
325.2845531295
 31
0.0
  0
LINE
  5
B7
330
1F
100
AcDbEntity
  8
FASEN
  6
Continuous
 62
     7
100
AcDbLine
 10
132.8462125847
 20
311.0143557768
 30
0.0
 11
132.8462125847
 21
315.2757647779
 31
0.0
  0
LINE
  5
B8
330
1F
100
AcDbEntity
  8
0
  6
Continuous
 62
     7
100
AcDbLine
 10
132.8462125847
 20
311.0143557768
 30
0.0
 11
132.8462125847
 21
307.1258261271
 31
0.0
  0
LINE
  5
B9
330
1F
100
AcDbEntity
  8
0
  6
Continuous
 62
     7
100
AcDbLine
 10
132.8462125847
 20
322.6112647779
 30
0.0
 11
132.8462125847
 21
315.2757647779
 31
0.0
  0
LINE
  5
BA
330
1F
100
AcDbEntity
  8
FASEN
  6
Continuous
 62
     7
100
AcDbLine
 10
132.8462125847
 20
323.0112647779
 30
0.0
 11
132.8462125847
 21
322.6112647779
 31
0.0
  0
LINE
  5
BB
330
1F
100
AcDbEntity
  8
FASEN
  6
Continuous
 62
     7
100
AcDbLine
 10
132.8462125847
 20
331.6402647779
 30
0.0
 11
132.8462125847
 21
331.2402647779
 31
0.0
  0
LINE
  5
BC
330
1F
100
AcDbEntity
  8
0
  6
Continuous
 62
     7
100
AcDbLine
 10
132.8462125847
 20
347.125722439
 30
0.0
 11
132.8462125847
 21
331.6402647779
 31
0.0
  0
LINE
  5
BD
330
1F
100
AcDbEntity
  8
0
  6
Continuous
 62
     7
100
AcDbLine
 10
125.3325808264
 20
315.2757647779
 30
0.0
 11
132.8462125847
 21
315.2757647779
 31
0.0
  0
LINE
  5
BE
330
1F
100
AcDbEntity
  8
FASEN
  6
Continuous
 62
     7
100
AcDbLine
 10
125.3325808264
 20
314.8757647779
 30
0.0
 11
132.8462125847
 21
314.8757647779
 31
0.0
  0
LINE
  5
BF
330
1F
100
AcDbEntity
  8
0
  6
Continuous
 62
     7
100
AcDbLine
 10
128.1087125847
 20
314.4187539177
 30
0.0
 11
129.6837125847
 21
314.4187539177
 31
0.0
  0
LINE
  5
C0
330
1F
100
AcDbEntity
  8
0
  6
Continuous
 62
     7
100
AcDbLine
 10
111.5917561272
 20
312.2084351084
 30
0.0
 11
111.6952837453
 21
312.2220647779
 31
0.0
  0
LINE
  5
C1
330
1F
100
AcDbEntity
  8
0
  6
Continuous
 62
     7
100
AcDbLine
 10
130.9313722836
 20
331.6402647779
 30
0.0
 11
130.9313722836
 21
347.1257647779
 31
0.0
  0
LINE
  5
C2
330
1F
100
AcDbEntity
  8
0
  6
Continuous
 62
     7
100
AcDbLine
 10
130.9313722836
 20
307.1257647779
 30
0.0
 11
130.9313722836
 21
311.0143557768
 31
0.0
  0
LINE
  5
C3
330
1F
100
AcDbEntity
  8
0
  6
Continuous
 62
     7
100
AcDbLine
 10
130.9313722836
 20
322.6112647779
 30
0.0
 11
130.9313722836
 21
315.2757647779
 31
0.0
  0
LINE
  5
C4
330
1F
100
AcDbEntity
  8
0
  6
Continuous
 62
     7
100
AcDbLine
 10
129.9337125847
 20
331.4312884675
 30
0.0
 11
129.9337125847
 21
345.3977060719
 31
0.0
  0
LINE
  5
C5
330
1F
100
AcDbEntity
  8
0
  6
Continuous
 62
     7
100
AcDbLine
 10
129.9337125847
 20
315.2757647779
 30
0.0
 11
129.9337125847
 21
322.8202410883
 31
0.0
  0
LINE
  5
C6
330
1F
100
AcDbEntity
  8
0
  6
Continuous
 62
     7
100
AcDbLine
 10
129.9337125847
 20
308.8538229397
 30
0.0
 11
129.9337125847
 21
314.078997937
 31
0.0
  0
LINE
  5
C7
330
1F
100
AcDbEntity
  8
0
  6
Continuous
 62
     9
100
AcDbLine
 10
129.6837125847
 20
331.1606904277
 30
0.0
 11
129.6837125847
 21
344.5007647779
 31
0.0
  0
LINE
  5
C8
330
1F
100
AcDbEntity
  8
0
  6
Continuous
 62
     9
100
AcDbLine
 10
129.6837125847
 20
309.7507647779
 30
0.0
 11
129.6837125847
 21
314.4187539177
 31
0.0
  0
LINE
  5
C9
330
1F
100
AcDbEntity
  8
0
  6
Continuous
 62
     9
100
AcDbLine
 10
129.6837125847
 20
323.090839128
 30
0.0
 11
129.6837125847
 21
315.2757647779
 31
0.0
  0
LINE
  5
CA
330
1F
100
AcDbEntity
  8
0
  6
Continuous
 62
     7
100
AcDbLine
 10
110.8962125847
 20
312.0220647779
 30
0.0
 11
93.7561827908
 21
312.8807802705
 31
0.0
  0
LINE
  5
CB
330
1F
100
AcDbEntity
  8
0
  6
Continuous
 62
     7
100
AcDbLine
 10
112.7420354214
 20
312.2220647779
 30
0.0
 11
111.6952837453
 21
312.2220647779
 31
0.0
  0
LINE
  5
CC
330
1F
100
AcDbEntity
  8
0
  6
Continuous
 62
     7
100
AcDbLine
 10
133.8462125847
 20
311.1257647779
 30
0.0
 11
172.8962125847
 21
311.1257647779
 31
0.0
  0
LINE
  5
CD
330
1F
100
AcDbEntity
  8
RUNDUNGEN
  6
Continuous
 62
     7
100
AcDbLine
 10
172.8962125847
 20
311.1257647779
 30
0.0
 11
133.8462125847
 21
311.1257647779
 31
0.0
  0
LINE
  5
CE
330
1F
100
AcDbEntity
  8
0
  6
Continuous
 62
     7
100
AcDbLine
 10
130.9313722836
 20
311.0143557768
 30
0.0
 11
132.8462125847
 21
311.0143557768
 31
0.0
  0
LINE
  5
CF
330
1F
100
AcDbEntity
  8
0
  6
Continuous
 62
     7
100
AcDbLine
 10
121.2395288679
 20
311.0143557768
 30
0.0
 11
126.8610528858
 21
311.0143557768
 31
0.0
  0
LINE
  5
D0
330
1F
100
AcDbEntity
  8
AUSFORMSCHRAEGEN
  6
Continuous
 62
     7
100
AcDbLine
 10
191.2218968041
 20
310.7894461783
 30
0.0
 11
185.7462125847
 21
310.7894461783
 31
0.0
  0
LINE
  5
D1
330
1F
100
AcDbEntity
  8
AUSFORMSCHRAEGEN
  6
Continuous
 62
     7
100
AcDbLine
 10
185.7462125849
 20
310.1507049694
 30
0.0
 11
192.7889485083
 21
310.1507049694
 31
0.0
  0
LINE
  5
D2
330
1F
100
AcDbEntity
  8
0
  6
Continuous
 62
     7
100
AcDbLine
 10
128.1087125847
 20
309.7507647779
 30
0.0
 11
129.6837125847
 21
309.7507647779
 31
0.0
  0
LINE
  5
D3
330
1F
100
AcDbEntity
  8
0
  6
Continuous
 62
     9
100
AcDbLine
 10
128.1087125847
 20
331.1606904277
 30
0.0
 11
128.1087125847
 21
344.5007647779
 31
0.0
  0
LINE
  5
D4
330
1F
100
AcDbEntity
  8
0
  6
Continuous
 62
     9
100
AcDbLine
 10
128.1087125847
 20
309.7507647779
 30
0.0
 11
128.1087125847
 21
314.4187539177
 31
0.0
  0
LINE
  5
D5
330
1F
100
AcDbEntity
  8
0
  6
Continuous
 62
     9
100
AcDbLine
 10
128.1087125847
 20
323.090839128
 30
0.0
 11
128.1087125847
 21
315.2757647779
 31
0.0
  0
LINE
  5
D6
330
1F
100
AcDbEntity
  8
0
  6
Continuous
 62
     7
100
AcDbLine
 10
127.8587125847
 20
315.2757647779
 30
0.0
 11
127.8587125847
 21
322.8202410883
 31
0.0
  0
LINE
  5
D7
330
1F
100
AcDbEntity
  8
0
  6
Continuous
 62
     7
100
AcDbLine
 10
127.8587125847
 20
308.8538229397
 30
0.0
 11
127.8587125847
 21
314.078997937
 31
0.0
  0
LINE
  5
D8
330
1F
100
AcDbEntity
  8
0
  6
Continuous
 62
     7
100
AcDbLine
 10
127.8587125847
 20
345.3977060719
 30
0.0
 11
127.8587125847
 21
331.4312884675
 31
0.0
  0
LINE
  5
D9
330
1F
100
AcDbEntity
  8
0
  6
Continuous
 62
     7
100
AcDbLine
 10
126.8610528858
 20
311.0143557768
 30
0.0
 11
126.8610528858
 21
307.1257647779
 31
0.0
  0
LINE
  5
DA
330
1F
100
AcDbEntity
  8
0
  6
Continuous
 62
     7
100
AcDbLine
 10
126.8610528858
 20
322.6112647779
 30
0.0
 11
126.8610528858
 21
315.2757647779
 31
0.0
  0
LINE
  5
DB
330
1F
100
AcDbEntity
  8
0
  6
Continuous
 62
     7
100
AcDbLine
 10
126.8610528858
 20
347.1257647779
 30
0.0
 11
126.8610528858
 21
331.6402647779
 31
0.0
  0
LINE
  5
DC
330
1F
100
AcDbEntity
  8
0
  6
Continuous
 62
     7
100
AcDbLine
 10
129.9337125847
 20
308.853762065
 30
0.0
 11
130.9313722836
 21
307.1257647779
 31
0.0
  0
LINE
  5
DD
330
1F
100
AcDbEntity
  8
0
  6
Continuous
 62
     9
100
AcDbLine
 10
93.9462125847
 20
331.9615126199
 30
0.0
 11
92.9962125847
 21
332.5018262103
 31
0.0
  0
LINE
  5
DE
330
1F
100
AcDbEntity
  8
AUSFORMSCHRAEGEN
  6
Continuous
 62
     7
100
AcDbLine
 10
191.2218968041
 20
307.5298532512
 30
0.0
 11
185.7462125847
 21
307.5298532512
 31
0.0
  0
LINE
  5
DF
330
1F
100
AcDbEntity
  8
0
  6
Continuous
 62
     7
100
AcDbLine
 10
130.9313722836
 20
307.1257647779
 30
0.0
 11
132.8462125847
 21
307.1257647779
 31
0.0
  0
LINE
  5
E0
330
1F
100
AcDbEntity
  8
0
  6
Continuous
 62
     7
100
AcDbLine
 10
126.8610528858
 20
307.1257647779
 30
0.0
 11
112.8962125847
 21
307.1257647779
 31
0.0
  0
LINE
  5
E1
330
1F
100
AcDbEntity
  8
FLAECHEN
  6
Continuous
 62
     7
100
AcDbLine
 10
191.2218968041
 20
306.1257647779
 30
0.0
 11
172.8962125847
 21
306.1257647779
 31
0.0
  0
LINE
  5
E2
330
1F
100
AcDbEntity
  8
0
  6
Continuous
 62
     9
100
AcDbLine
 10
92.9962125847
 20
321.7497033454
 30
0.0
 11
93.9462125847
 21
322.2900169358
 31
0.0
  0
LINE
  5
E3
330
1F
100
AcDbEntity
  8
0
  6
Continuous
 62
     7
100
AcDbLine
 10
129.9337125847
 20
345.3977674907
 30
0.0
 11
130.9313722836
 21
347.1257647779
 31
0.0
  0
LINE
  5
E4
330
1F
100
AcDbEntity
  8
FASEN
  6
Continuous
 62
     9
100
AcDbLine
 10
125.3607125847
 20
331.2402647779
 30
0.0
 11
125.3607125847
 21
331.6402647779
 31
0.0
  0
LINE
  5
E5
330
1F
100
AcDbEntity
  8
FASEN
  6
Continuous
 62
     9
100
AcDbLine
 10
125.3607125847
 20
323.0112647779
 30
0.0
 11
125.3607125847
 21
322.6112647779
 31
0.0
  0
LINE
  5
E6
330
1F
100
AcDbEntity
  8
FASEN
  6
Continuous
 62
     9
100
AcDbLine
 10
125.3325808264
 20
314.8757647779
 30
0.0
 11
125.3325808264
 21
315.2757647779
 31
0.0
  0
LWPOLYLINE
  5
E7
330
1F
100
AcDbEntity
  8
BEZUGSACHSEN
  6
DOT_CENTER
 62
     7
100
AcDbPolyline
 90
        2
 70
     0
 43
0.25
 10
119.8962125847
 20
352.8906815089
 10
119.8962125847
 20
338.8906815089
  0
LINE
  5
E8
330
1F
100
AcDbEntity
  8
0
  6
Continuous
 62
     7
100
AcDbLine
 10
93.9462125847
 20
331.1507647779
 30
0.0
 11
92.9962125847
 21
332.1007647779
 31
0.0
  0
LINE
  5
E9
330
1F
100
AcDbEntity
  8
0
  6
Continuous
 62
     7
100
AcDbLine
 10
92.9962125847
 20
322.1507647779
 30
0.0
 11
93.9462125847
 21
323.1007647779
 31
0.0
  0
LINE
  5
EA
330
1F
100
AcDbEntity
  8
0
  6
Continuous
 62
     7
100
AcDbLine
 10
112.8962125847
 20
347.1257647779
 30
0.0
 11
112.8962125847
 21
307.1257647779
 31
0.0
  0
LINE
  5
EB
330
1F
100
AcDbEntity
  8
0
  6
Continuous
 62
     9
100
AcDbLine
 10
112.7420354214
 20
312.2220647779
 30
0.0
 11
112.7420354214
 21
342.0294647779
 31
0.0
  0
LINE
  5
EC
330
1F
100
AcDbEntity
  8
0
  6
Continuous
 62
     9
100
AcDbLine
 10
111.6952837453
 20
312.2220647779
 30
0.0
 11
111.6952837453
 21
342.0294647779
 31
0.0
  0
LINE
  5
ED
330
1F
100
AcDbEntity
  8
0
  6
Continuous
 62
     9
100
AcDbLine
 10
111.5917561272
 20
312.2084351084
 30
0.0
 11
111.5917561272
 21
342.0430944473
 31
0.0
  0
LINE
  5
EE
330
1F
100
AcDbEntity
  8
0
  6
Continuous
 62
     7
100
AcDbLine
 10
110.8962125847
 20
342.2294647779
 30
0.0
 11
110.8962125847
 21
312.0220647779
 31
0.0
  0
LWPOLYLINE
  5
EF
330
1F
100
AcDbEntity
  8
BEZUGSACHSEN
  6
DOT_CENTER
 62
     7
100
AcDbPolyline
 90
        2
 70
     0
 43
0.25
 10
106.8962125847
 20
321.8257647779
 10
106.8962125847
 20
332.4257647779
  0
LINE
  5
F0
330
1F
100
AcDbEntity
  8
0
  6
Continuous
 62
     7
100
AcDbLine
 10
93.5576472136
 20
333.1272630827
 30
0.0
 11
93.6125307352
 21
333.0307647779
 31
0.0
  0
LINE
  5
F1
330
1F
100
AcDbEntity
  8
0
  6
Continuous
 62
     7
100
AcDbLine
 10
93.6125307352
 20
321.2207647779
 30
0.0
 11
93.5576472136
 21
321.124266473
 31
0.0
  0
LINE
  5
F2
330
1F
100
AcDbEntity
  8
RUNDUNGEN
  6
Continuous
 62
     7
100
AcDbLine
 10
96.5962125847
 20
331.941056987
 30
0.0
 11
96.5962125847
 21
322.3104725688
 31
0.0
  0
LINE
  5
F3
330
1F
100
AcDbEntity
  8
RUNDUNGEN
  6
Continuous
 62
     9
100
AcDbLine
 10
95.6962125847
 20
331.1507647779
 30
0.0
 11
95.6962125847
 21
333.4347842859
 31
0.0
  0
LINE
  5
F4
330
1F
100
AcDbEntity
  8
RUNDUNGEN
  6
Continuous
 62
     9
100
AcDbLine
 10
95.6962125847
 20
320.8167452699
 30
0.0
 11
95.6962125847
 21
323.1007647779
 31
0.0
  0
LINE
  5
F5
330
1F
100
AcDbEntity
  8
0
  6
Continuous
 62
     7
100
AcDbLine
 10
93.9462125847
 20
331.1507647779
 30
0.0
 11
93.9462125847
 21
331.9615126199
 31
0.0
  0
LINE
  5
F6
330
1F
100
AcDbEntity
  8
0
  6
Continuous
 62
     7
100
AcDbLine
 10
93.9462125847
 20
322.2900169358
 30
0.0
 11
93.9462125847
 21
323.1007647779
 31
0.0
  0
LINE
  5
F7
330
1F
100
AcDbEntity
  8
0
  6
Continuous
 62
     9
100
AcDbLine
 10
93.7561827908
 20
321.0409325194
 30
0.0
 11
93.7561827908
 21
312.8807802705
 31
0.0
  0
LINE
  5
F8
330
1F
100
AcDbEntity
  8
0
  6
Continuous
 62
     9
100
AcDbLine
 10
93.7561827908
 20
341.3707492852
 30
0.0
 11
93.7561827908
 21
333.2105970364
 31
0.0
  0
LINE
  5
F9
330
1F
100
AcDbEntity
  8
0
  6
Continuous
 62
     7
100
AcDbLine
 10
92.9962125847
 20
332.1007647779
 30
0.0
 11
92.9962125847
 21
340.5717514024
 31
0.0
  0
LINE
  5
FA
330
1F
100
AcDbEntity
  8
0
  6
Continuous
 62
     7
100
AcDbLine
 10
92.9962125847
 20
313.6797781527
 30
0.0
 11
92.9962125847
 21
322.1507647779
 31
0.0
  0
ARC
  5
FB
330
1F
100
AcDbEntity
  8
0
  6
Continuous
 62
     7
100
AcDbCircle
 10
129.6837125847
 20
344.7507647779
 30
0.0
 40
0.25
100
AcDbArc
 50
270.0
 51
0.0
  0
ARC
  5
FC
330
1F
100
AcDbEntity
  8
RUNDUNGEN
  6
Continuous
 62
     7
100
AcDbCircle
 10
133.8462125847
 20
344.1257647779
 30
0.0
 40
1.0
100
AcDbArc
 50
180.0
 51
270.0
  0
ARC
  5
FD
330
1F
100
AcDbEntity
  8
AUSFORMSCHRAEGEN
  6
Continuous
 62
     7
100
AcDbCircle
 10
184.8962125847
 20
327.1257647779
 30
0.0
 40
2.600000000000023
100
AcDbArc
 50
89.9999999581302
 51
270.0000000022034
  0
ARC
  5
FE
330
1F
100
AcDbEntity
  8
AUSFORMSCHRAEGEN
  6
Continuous
 62
     7
100
AcDbCircle
 10
184.8396900704
 20
342.8111497064
 30
0.0
 40
8.056529130600081
100
AcDbArc
 50
350.6397544996018
 51
359.9265706106968
  0
ARC
  5
FF
330
1F
100
AcDbEntity
  8
AUSFORMSCHRAEGEN
  6
Continuous
 62
     7
100
AcDbCircle
 10
161.1040799694
 20
327.1351497594
 30
0.0
 40
31.79213400055196
100
AcDbArc
 50
355.2920707622139
 51
359.9830863871671
  0
ARC
  5
100
330
1F
100
AcDbEntity
  8
0
  6
Continuous
 62
     7
100
AcDbCircle
 10
233.989871485
 20
359.0130638068
 30
0.0
 40
113.6878631614003
100
AcDbArc
 50
203.754563597
 51
204.9733896764018
  0
ARC
  5
101
330
1F
100
AcDbEntity
  8
RUNDUNGEN
  6
Continuous
 62
     7
100
AcDbCircle
 10
161.6252302665
 20
899.8472058639
 30
0.0
 40
582.7717474862751
100
AcDbArc
 50
263.3122116895969
 51
263.5042170251
  0
ARC
  5
102
330
1F
100
AcDbEntity
  8
0
  6
Continuous
 62
     7
100
AcDbCircle
 10
129.6837125847
 20
309.5007647779
 30
0.0
 40
0.25
100
AcDbArc
 50
0.0
 51
90.0
  0
ARC
  5
103
330
1F
100
AcDbEntity
  8
RUNDUNGEN
  6
Continuous
 62
     7
100
AcDbCircle
 10
133.8462125847
 20
310.1257647779
 30
0.0
 40
1.0
100
AcDbArc
 50
90.0
 51
173.5714279367997
  0
ARC
  5
104
330
1F
100
AcDbEntity
  8
AUSFORMSCHRAEGEN
  6
Continuous
 62
     7
100
AcDbCircle
 10
184.8396900683
 20
311.4610300896
 30
0.0
 40
8.056529132730686
100
AcDbArc
 50
350.6397545008597
 51
359.9265706095993
  0
ARC
  5
105
330
1F
100
AcDbEntity
  8
AUSFORMSCHRAEGEN
  6
Continuous
 62
     7
100
AcDbCircle
 10
161.1040799939
 20
327.1163797974
 30
0.0
 40
31.79213397599964
100
AcDbArc
 50
0.01691361060043
 51
4.707929239614
  0
ARC
  5
106
330
1F
100
AcDbEntity
  8
RUNDUNGEN
  6
Continuous
 62
     7
100
AcDbCircle
 10
161.6252302665
 20
-245.5956763082
 30
0.0
 40
582.7717474862995
100
AcDbArc
 50
96.49578297490002
 51
96.68778831040194
  0
ARC
  5
107
330
1F
100
AcDbEntity
  8
0
  6
Continuous
 62
     7
100
AcDbCircle
 10
128.1087125847
 20
344.7507647779
 30
0.0
 40
0.2499999999999858
100
AcDbArc
 50
180.0
 51
270.0
  0
ARC
  5
108
330
1F
100
AcDbEntity
  8
0
  6
Continuous
 62
     7
100
AcDbCircle
 10
112.7420354214
 20
342.4294647779
 30
0.0
 40
0.4000000000000341
100
AcDbArc
 50
270.0
 51
292.6984354595335
  0
ARC
  5
109
330
1F
100
AcDbEntity
  8
0
  6
Continuous
 62
     7
100
AcDbCircle
 10
111.6952837453
 20
342.4294647779
 30
0.0
 40
0.4000000000967822
100
AcDbArc
 50
254.9999999949662
 51
270.0
  0
ARC
  5
10A
330
1F
100
AcDbEntity
  8
0
  6
Continuous
 62
     7
100
AcDbCircle
 10
93.7962125847
 20
340.5717514031
 30
0.0
 40
0.8000000000000014
100
AcDbArc
 50
92.86812048780064
 51
180.0000000501317
  0
ARC
  5
10B
330
1F
100
AcDbEntity
  8
RUNDUNGEN
  6
Continuous
 62
     7
100
AcDbCircle
 10
95.6962125847
 20
330.2507647779
 30
0.0
 40
0.8999999999999764
100
AcDbArc
 50
7.01196301020755
 51
90.0
  0
ARC
  5
10C
330
1F
100
AcDbEntity
  8
FASEN
  6
Continuous
 62
     7
100
AcDbCircle
 10
125.3607125847
 20
327.1257647779
 30
0.0
 40
4.114498623500026
100
AcDbArc
 50
90.0
 51
270.0
  0
ARC
  5
10D
330
1F
100
AcDbEntity
  8
0
  6
Continuous
 62
     7
100
AcDbCircle
 10
125.3607125847
 20
327.1257647779
 30
0.0
 40
4.514499999999998
100
AcDbArc
 50
90.0
 51
270.0
  0
ARC
  5
10E
330
1F
100
AcDbEntity
  8
0
  6
Continuous
 62
     7
100
AcDbCircle
 10
23.8025536844
 20
359.0130638068
 30
0.0
 40
113.6878631613514
100
AcDbArc
 50
335.0266103235982
 51
336.245436403
  0
ARC
  5
10F
330
1F
100
AcDbEntity
  8
0
  6
Continuous
 62
     7
100
AcDbCircle
 10
128.1087125847
 20
309.5007647779
 30
0.0
 40
0.25
100
AcDbArc
 50
90.0
 51
180.0
  0
ARC
  5
110
330
1F
100
AcDbEntity
  8
0
  6
Continuous
 62
     7
100
AcDbCircle
 10
112.7420354214
 20
311.8220647779
 30
0.0
 40
0.3999999999998922
100
AcDbArc
 50
67.30156454046652
 51
90.0
  0
ARC
  5
111
330
1F
100
AcDbEntity
  8
0
  6
Continuous
 62
     7
100
AcDbCircle
 10
93.7962125847
 20
313.6797781526
 30
0.0
 40
0.7999999999999972
100
AcDbArc
 50
179.9999999928389
 51
267.1318795121994
  0
ARC
  5
112
330
1F
100
AcDbEntity
  8
RUNDUNGEN
  6
Continuous
 62
     7
100
AcDbCircle
 10
95.6962125847
 20
324.0007647779
 30
0.0
 40
0.8999999999999773
100
AcDbArc
 50
270.0
 51
352.9880362154778
  0
ARC
  5
113
330
1F
100
AcDbEntity
  8
FASEN
  6
Continuous
 62
     7
100
AcDbCircle
 10
125.3325808264
 20
310.7757647779
 30
0.0
 40
4.099981300799982
100
AcDbArc
 50
90.0
 51
176.6639061997959
  0
ARC
  5
114
330
1F
100
AcDbEntity
  8
FASEN
  6
Continuous
 62
     7
100
AcDbCircle
 10
125.3325808264
 20
310.7757647779
 30
0.0
 40
4.5
100
AcDbArc
 50
90.0
 51
173.1003589696013
  0
ARC
  5
115
330
1F
100
AcDbEntity
  8
FASEN
  6
Continuous
 62
     7
100
AcDbCircle
 10
127.2311745247
 20
318.8247006333
 30
0.0
 40
9.84384601950019
100
AcDbArc
 50
229.7068180621994
 51
232.5066621077201
  0
CIRCLE
  5
116
330
1F
100
AcDbEntity
  8
FASEN
  6
Continuous
 62
     7
100
AcDbCircle
 10
106.8962125847
 20
327.1257647779
 30
0.0
 40
2.300000000000011
  0
SPLINE
  5
117
330
1F
100
AcDbEntity
  8
0
  6
Continuous
 62
     7
100
AcDbSpline
210
0.0
220
0.0
230
1.0
 70
     8
 71
     3
 72
    11
 73
     7
 74
     5
 42
0.0000000001
 43
0.0000000001
 44
0.00000001
 40
0.0
 40
0.0
 40
0.0
 40
0.0
 40
0.303045553228819
 40
0.6062117027754741
 40
0.8687239931824592
 40
1.131137294180587
 40
1.131137294180587
 40
1.131137294180587
 40
1.131137294180587
 10
93.9462125847
 20
331.9615126199
 30
0.0
 10
93.93937693761916
 20
332.0626008244023
 30
0.0
 10
93.92570292322655
 20
332.2648174612374
 30
0.0
 10
93.84137822429105
 20
332.5437542569284
 30
0.0
 10
93.73756639495161
 20
332.7997602968501
 30
0.0
 10
93.6542040483495
 20
332.9537729653495
 30
0.0
 10
93.6125307352
 20
333.0307647779
 30
0.0
 11
93.9462125847
 21
331.9615126199
 31
0.0
 11
93.9144178050399
 21
332.2628856434408
 31
0.0
 11
93.83283471171441
 21
332.5548683708656
 31
0.0
 11
93.73316326759809
 21
332.7977228660731
 31
0.0
 11
93.6125307352
 21
333.0307647779
 31
0.0
  0
SPLINE
  5
118
330
1F
100
AcDbEntity
  8
0
  6
Continuous
 62
     7
100
AcDbSpline
210
0.0
220
0.0
230
1.0
 70
     8
 71
     3
 72
    11
 73
     7
 74
     5
 42
0.0000000001
 43
0.0000000001
 44
0.00000001
 40
0.0
 40
0.0
 40
0.0
 40
0.0
 40
0.3498700338309877
 40
0.6997119068323805
 40
0.9156479955277035
 40
1.131263567835726
 40
1.131263567835726
 40
1.131263567835726
 40
1.131263567835726
 10
93.6125307352
 20
321.2207647779
 30
0.0
 10
93.66737030912975
 20
321.323848171337
 30
0.0
 10
93.7770450429848
 20
321.5300066610903
 30
0.0
 10
93.87811349130651
 20
321.8192184297825
 30
0.0
 10
93.9357840774218
 20
322.0741507236541
 30
0.0
 10
93.94273813721662
 20
322.218097168423
 30
0.0
 10
93.9462125847
 20
322.2900169358
 30
0.0
 11
93.6125307352
 21
321.2207647779
 31
0.0
 11
93.76893852224202
 21
321.533727466931
 31
0.0
 11
93.88498211644844
 21
321.8637626474024
 31
0.0
 11
93.92957435418555
 21
322.0750442763592
 31
0.0
 11
93.9462125847
 21
322.2900169358
 31
0.0
  0
SPLINE
  5
119
330
1F
100
AcDbEntity
  8
FASEN
  6
Continuous
 62
     7
100
AcDbSpline
210
0.0
220
0.0
230
1.0
 70
     8
 71
     3
 72
    39
 73
    35
 74
    33
 42
0.0000000001
 43
0.0000000001
 44
0.00000001
 40
0.0
 40
0.0
 40
0.0
 40
0.0
 40
0.2848465271522844
 40
0.5699950254420767
 40
0.8548279990995961
 40
1.139573863669562
 40
1.424121623270993
 40
1.708693335885032
 40
1.99314288484895
 40
2.277585056617209
 40
2.562155108703898
 40
2.846728268131441
 40
3.131563712635919
 40
3.416399690386397
 40
3.701411923405203
 40
3.986425214701138
 40
4.271294282711289
 40
4.55616267729986
 40
4.840487507629279
 40
5.124810921871615
 40
5.408342462629911
 40
5.691871377324741
 40
5.974681937636545
 40
6.257491624534135
 40
6.53999373442503
 40
6.822493529487098
 40
7.105252300175297
 40
7.388018966441923
 40
7.67153342741645
 40
7.955027376593534
 40
8.239336777416874
 40
8.523729022445242
 40
8.80880836349863
 40
9.09359628804676
 40
9.09359628804676
 40
9.09359628804676
 40
9.09359628804676
 10
103.9969641731
 20
327.1257647779
 30
0.0
 10
103.9996607536405
 20
327.2207527280956
 30
0.0
 10
104.0050567734171
 20
327.4108293269917
 30
0.0
 10
104.0487720110126
 20
327.6931110709762
 30
0.0
 10
104.1180074371673
 20
327.9698462458898
 30
0.0
 10
104.2146261662868
 20
328.2381965218026
 30
0.0
 10
104.3371870506168
 20
328.4955792323064
 30
0.0
 10
104.4845130389622
 20
328.7395379668033
 30
0.0
 10
104.655257530445
 20
328.9676685488279
 30
0.0
 10
104.847651172175
 20
329.1778644321793
 30
0.0
 10
105.0599305796281
 20
329.3680157313985
 30
0.0
 10
105.2899551560245
 20
329.5364844099045
 30
0.0
 10
105.5355111633448
 20
329.6815521217069
 30
0.0
 10
105.7941754724502
 20
329.8020359152911
 30
0.0
 10
106.0634210328074
 20
329.8967087423028
 30
0.0
 10
106.3405818516983
 20
329.9648449308627
 30
0.0
 10
106.6229974595781
 20
330.0057552104209
 30
0.0
 10
106.907814591909
 20
330.0191887154574
 30
0.0
 10
107.1924099238259
 20
330.0049588387406
 30
0.0
 10
107.4738573804524
 20
329.9633389224156
 30
0.0
 10
107.7496601820725
 20
329.8945873046549
 30
0.0
 10
108.0170014969588
 20
329.7995142810087
 30
0.0
 10
108.2735151697556
 20
329.6787878371987
 30
0.0
 10
108.516693580802
 20
329.5337132485218
 30
0.0
 10
108.7442872974868
 20
329.365411684432
 30
0.0
 10
108.9542246751509
 20
329.1755648249428
 30
0.0
 10
109.1444003579331
 20
328.9658039990787
 30
0.0
 10
109.3132192468101
 20
328.7380844656615
 30
0.0
 10
109.4588561325931
 20
328.4945920867539
 30
0.0
 10
109.5800862494435
 20
328.2375267212101
 30
0.0
 10
109.675664741721
 20
327.9694961602355
 30
0.0
 10
109.7441828482874
 20
327.6929125966374
 30
0.0
 10
109.7874089795297
 20
327.4107623653189
 30
0.0
 10
109.7927779058901
 20
327.2207315813052
 30
0.0
 10
109.7954609963
 20
327.1257647779
 30
0.0
 11
103.9969641731
 21
327.1257647779
 31
0.0
 11
104.01098589484
 21
327.4102659823793
 31
0.0
 11
104.0530483008924
 21
327.692295094483
 31
0.0
 11
104.1225891798628
 21
327.9685085790101
 31
0.0
 11
104.2189805881567
 21
328.2364430930183
 31
0.0
 11
104.3413184041715
 21
328.4933494694804
 31
0.0
 11
104.4884422365243
 21
328.7369385447156
 31
0.0
 11
104.6588668219205
 21
328.9646818357218
 31
0.0
 11
104.8509302472314
 21
329.174488865485
 31
0.0
 11
105.0628700936144
 21
329.3643878282514
 31
0.0
 11
105.2924583715731
 21
329.5325279653114
 31
0.0
 11
105.5376742405246
 21
329.6774431407087
 31
0.0
 11
105.795875432998
 21
329.7977081748058
 31
0.0
 11
106.0647383887959
 21
329.8922845141829
 31
0.0
 11
106.3415127024615
 21
329.9603180023359
 31
0.0
 11
106.6234361282851
 21
330.0011783484052
 31
0.0
 11
106.9079892089017
 21
330.0145778464193
 31
0.0
 11
107.1919596221159
 21
330.0003858218686
 31
0.0
 11
107.4732190212705
 21
329.9587570544886
 31
0.0
 11
107.7483313282622
 21
329.8901760575106
 31
0.0
 11
108.0154554698462
 21
329.7951321810585
 31
0.0
 11
108.2713437916203
 21
329.6747038629456
 31
0.0
 11
108.5141958855741
 21
329.5297756756756
 31
0.0
 11
108.7413483439436
 21
329.3618197208853
 31
0.0
 11
108.9508595703688
 21
329.1723172665162
 31
0.0
 11
109.140804482803
 21
328.9628573595138
 31
0.0
 11
109.3091944030124
 21
328.7356970145514
 31
0.0
 11
109.4547513786348
 21
328.49239963185
 31
0.0
 11
109.5756888196694
 21
328.2359957423008
 31
0.0
 11
109.6711209459541
 21
327.9681813575689
 31
0.0
 11
109.7399164157183
 21
327.6922354708951
 31
0.0
 11
109.7815510343219
 21
327.4102127958685
 31
0.0
 11
109.7954609963
 21
327.1257647779
 31
0.0
  0
SPLINE
  5
11A
330
1F
100
AcDbEntity
  8
0
  6
Continuous
 62
     7
100
AcDbSpline
210
0.0
220
0.0
230
1.0
 70
     8
 71
     3
 72
    15
 73
    11
 74
     9
 42
0.0000000001
 43
0.0000000001
 44
0.00000001
 40
0.0
 40
0.0
 40
0.0
 40
0.0
 40
0.0373441319688753
 40
0.0747531397226285
 40
0.1085741033618796
 40
0.1423582381042995
 40
0.1732178197983197
 40
0.2040858640306422
 40
0.2333658259115307
 40
0.2625567184336165
 40
0.2625567184336165
 40
0.2625567184336165
 40
0.2625567184336165
 10
129.7784640574
 20
323.0112647779
 30
0.0
 10
129.7901094542508
 20
323.006813362793
 30
0.0
 10
129.8134204788219
 20
322.9979027993948
 30
0.0
 10
129.8446052847153
 20
322.9791647362385
 30
0.0
 10
129.87195709512
 20
322.9571660192502
 30
0.0
 10
129.8942158116359
 20
322.9328532878587
 30
0.0
 10
129.9118960984804
 20
322.9062148035454
 30
0.0
 10
129.9243771386535
 20
322.8784419557454
 30
0.0
 10
129.9322156491395
 20
322.8494929778349
 30
0.0
 10
129.9332141131706
 20
322.8299818109463
 30
0.0
 10
129.9337125847
 20
322.8202410883
 30
0.0
 11
129.7784640574
 21
323.0112647779
 31
0.0
 11
129.8129409653889
 21
322.9969146208266
 31
0.0
 11
129.8451100439678
 21
322.9778205315709
 31
0.0
 11
129.8713846404889
 21
322.9565249179582
 31
0.0
 11
129.8941539619607
 21
322.931566437235
 31
0.0
 11
129.9111544934489
 21
322.9058119092555
 31
0.0
 11
129.9238123012871
 21
322.8776584715354
 31
0.0
 11
129.9311873862986
 21
322.849322552831
 31
0.0
 11
129.9337125847
 21
322.8202410883
 31
0.0
  0
SPLINE
  5
11B
330
1F
100
AcDbEntity
  8
0
  6
Continuous
 62
     7
100
AcDbSpline
210
0.0
220
0.0
230
1.0
 70
     8
 71
     3
 72
    15
 73
    11
 74
     9
 42
0.0000000001
 43
0.0000000001
 44
0.00000001
 40
0.0
 40
0.0
 40
0.0
 40
0.0
 40
0.0291971572004868
 40
0.0584835574205841
 40
0.0893488988896724
 40
0.1202055469585415
 40
0.1539855679913754
 40
0.1878025723852291
 40
0.2252119881382816
 40
0.2625564687668127
 40
0.2625564687668127
 40
0.2625564687668127
 40
0.2625564687668127
 10
127.8587125847
 20
322.8202410883
 30
0.0
 10
127.8592114010615
 20
322.8299839047222
 30
0.0
 10
127.8602105584492
 20
322.8494993171217
 30
0.0
 10
127.8680523452721
 20
322.8784509588611
 30
0.0
 10
127.8805345466758
 20
322.9062234555063
 30
0.0
 10
127.8982134999845
 20
322.9328589242553
 30
0.0
 10
127.9204704283556
 20
322.9571683044587
 30
0.0
 10
127.9478205908532
 20
322.9791649133375
 30
0.0
 10
127.9790043791788
 20
322.9979025693851
 30
0.0
 10
128.0023156175112
 20
323.0068132884999
 30
0.0
 10
128.013961112
 20
323.0112647779
 30
0.0
 11
127.8587125847
 21
322.8202410883
 31
0.0
 11
127.8612393084909
 21
322.849328708613
 31
0.0
 11
127.8686179901123
 21
322.8776703439819
 31
0.0
 11
127.8812760192981
 21
322.9058207187775
 31
0.0
 11
127.8982755367858
 21
322.9315724009601
 31
0.0
 11
127.9210427117281
 21
322.9565272715494
 31
0.0
 11
127.9473145352616
 21
322.9778200185397
 31
0.0
 11
127.9794839262758
 21
322.9969143807642
 31
0.0
 11
128.013961112
 21
323.0112647779
 31
0.0
  0
SPLINE
  5
11C
330
1F
100
AcDbEntity
  8
0
  6
Continuous
 62
     7
100
AcDbSpline
210
0.0
220
0.0
230
1.0
 70
     8
 71
     3
 72
    15
 73
    11
 74
     9
 42
0.0000000001
 43
0.0000000001
 44
0.00000001
 40
0.0
 40
0.0
 40
0.0
 40
0.0
 40
0.0373413955961511
 40
0.0747477270078755
 40
0.108566083810442
 40
0.1423474448016538
 40
0.1732055488277628
 40
0.204072366170895
 40
0.2333590819102065
 40
0.2625565342832166
 40
0.2625565342832166
 40
0.2625565342832166
 40
0.2625565342832166
 10
128.013961112
 20
331.2402647779
 30
0.0
 10
128.0023165662005
 20
331.2447158553757
 30
0.0
 10
127.9790072250081
 20
331.253625750647
 30
0.0
 10
127.9478244715287
 20
331.2723619139623
 30
0.0
 10
127.9204738206777
 20
331.2943577230343
 30
0.0
 10
127.8982154500704
 20
331.3186676862997
 30
0.0
 10
127.8805354522859
 20
331.3453041989033
 30
0.0
 10
127.868052728034
 20
331.3730776555915
 30
0.0
 10
127.8602106275596
 20
331.402029935958
 30
0.0
 10
127.8592114239642
 20
331.4215455524344
 30
0.0
 10
127.8587125847
 20
331.4312884675
 30
0.0
 11
128.013961112
 21
331.2402647779
 31
0.0
 11
127.9794866811183
 21
331.2546137653363
 31
0.0
 11
127.9473195574595
 21
331.2737059046927
 31
0.0
 11
127.9210461324168
 21
331.2949988235475
 31
0.0
 11
127.8982775677549
 21
331.3199542400668
 31
0.0
 11
127.8812769911441
 21
331.3457069676696
 31
0.0
 11
127.8686182542347
 21
331.3738586424467
 31
0.0
 11
127.8612393996489
 21
331.4022005588215
 31
0.0
 11
127.8587125847
 21
331.4312884675
 31
0.0
  0
SPLINE
  5
11D
330
1F
100
AcDbEntity
  8
0
  6
Continuous
 62
     7
100
AcDbSpline
210
0.0
220
0.0
230
1.0
 70
     8
 71
     3
 72
    19
 73
    15
 74
    13
 42
0.0000000001
 43
0.0000000001
 44
0.00000001
 40
0.0
 40
0.0
 40
0.0
 40
0.0
 40
0.0290936470211542
 40
0.0582617353053601
 40
0.0873904532140251
 40
0.1165074751930083
 40
0.1456047854813477
 40
0.1747042911605351
 40
0.2037980858539788
 40
0.2328996448930996
 40
0.2909367193466204
 40
0.3491211706293823
 40
0.4072902895711886
 40
0.46532661652983
 40
0.46532661652983
 40
0.46532661652983
 40
0.46532661652983
 10
129.6837125847
 20
314.4187539177
 30
0.0
 10
129.6934192990203
 20
314.4182936444809
 30
0.0
 10
129.7128575640137
 20
314.4173719203523
 30
0.0
 10
129.7412922130898
 20
314.4102732807542
 30
0.0
 10
129.7683748555274
 20
314.3993201290978
 30
0.0
 10
129.7936498518215
 20
314.3846818059862
 30
0.0
 10
129.8168637366047
 20
314.3670151810932
 30
0.0
 10
129.8378986199687
 20
314.3468283926824
 30
0.0
 10
129.856733260079
 20
314.3245841004426
 30
0.0
 10
129.8788895358553
 20
314.2927465853383
 30
0.0
 10
129.9013548532847
 20
314.2495525660923
 30
0.0
 10
129.9200194370779
 20
314.1943405293347
 30
0.0
 10
129.9315942928253
 20
314.1371189610219
 30
0.0
 10
129.9330070255346
 20
314.0983568467377
 30
0.0
 10
129.9337125847
 20
314.078997937
 30
0.0
 11
129.6837125847
 21
314.4187539177
 31
0.0
 11
129.7127126934961
 21
314.4164228263661
 31
0.0
 11
129.7410780335428
 21
314.4096268821205
 31
0.0
 11
129.7680806529002
 21
314.3987025626981
 31
0.0
 11
129.7933131844619
 21
314.3841725826599
 31
0.0
 11
129.8165010234322
 21
314.3665948242731
 31
0.0
 11
129.8375330669474
 21
314.3464842704183
 31
0.0
 11
129.8563659473967
 21
314.3243083487092
 31
0.0
 11
129.8730236435345
 21
314.3004457860243
 31
0.0
 11
129.8999536602162
 21
314.2490349290713
 31
0.0
 11
129.918838206673
 21
314.1940003556088
 31
0.0
 11
129.9300244495386
 21
314.1369169572428
 31
0.0
 11
129.9337125847
 21
314.078997937
 31
0.0
  0
SPLINE
  5
11E
330
1F
100
AcDbEntity
  8
0
  6
Continuous
 62
     7
100
AcDbSpline
210
0.0
220
0.0
230
1.0
 70
     8
 71
     3
 72
    19
 73
    15
 74
    13
 42
0.0000000001
 43
0.0000000001
 44
0.00000001
 40
0.0
 40
0.0
 40
0.0
 40
0.0
 40
0.0580397028416728
 40
0.1162122440307256
 40
0.1743901948634755
 40
0.2324205837810941
 40
0.2615164358314878
 40
0.2906047870876356
 40
0.3197019405632076
 40
0.3487963879389989
 40
0.3779163313847076
 40
0.407048787136847
 40
0.4362246475794851
 40
0.4653253928323845
 40
0.4653253928323845
 40
0.4653253928323845
 40
0.4653253928323845
 10
127.8587125847
 20
314.078997937
 30
0.0
 10
127.8594182527711
 20
314.098357974406
 30
0.0
 10
127.8608312040108
 20
314.1371223594963
 30
0.0
 10
127.8724070554874
 20
314.1943438742757
 30
0.0
 10
127.8910712686725
 20
314.2495525359259
 30
0.0
 10
127.9135334116202
 20
314.2927410193478
 30
0.0
 10
127.9356855624613
 20
314.3245741245773
 30
0.0
 10
127.9545157579795
 20
314.346816176939
 30
0.0
 10
127.9755451955922
 20
314.3670034380769
 30
0.0
 10
127.9987566805133
 20
314.3846721712682
 30
0.0
 10
128.0240336952031
 20
314.3993098948898
 30
0.0
 10
128.0511209609282
 20
314.4102637245712
 30
0.0
 10
128.0795602689143
 20
314.4173692812886
 30
0.0
 10
128.0990034998399
 20
314.4182927690036
 30
0.0
 10
128.1087125847
 20
314.4187539177
 30
0.0
 11
127.8587125847
 21
314.078997937
 31
0.0
 11
127.8624012657951
 21
314.1369203051985
 31
0.0
 11
127.8735890645673
 21
314.194006885995
 31
0.0
 11
127.8924721662228
 21
314.2490350827214
 31
0.0
 11
127.9193988057034
 21
314.3004401614998
 31
0.0
 11
127.936052586978
 21
314.324298497062
 31
0.0
 11
127.9548803318104
 21
314.3464716385473
 31
0.0
 11
127.9759081869949
 21
314.3665831687407
 31
0.0
 11
127.9990921941357
 21
314.3841612426112
 31
0.0
 11
128.0243275591881
 21
314.3986921564488
 31
0.0
 11
128.0513336461441
 21
314.4096178713211
 31
0.0
 11
128.0797056254113
 21
314.4164194612111
 31
0.0
 11
128.1087125847
 21
314.4187539177
 31
0.0
  0
SPLINE
  5
11F
330
1F
100
AcDbEntity
  8
0
  6
Continuous
 62
     7
100
AcDbSpline
210
0.0
220
0.0
230
1.0
 70
     8
 71
     3
 72
    17
 73
    13
 74
    11
 42
0.0000000001
 43
0.0000000001
 44
0.00000001
 40
0.0
 40
0.0
 40
0.0
 40
0.0
 40
0.0161052166653851
 40
0.0322114217089311
 40
0.044297572149348
 40
0.0563844320922888
 40
0.0684883750400368
 40
0.0805914434591771
 40
0.092708331148766
 40
0.1048350425851986
 40
0.1170106598135687
 40
0.1291252294182466
 40
0.1291252294182466
 40
0.1291252294182466
 40
0.1291252294182466
 10
129.7784640574
 20
331.2402647779
 30
0.0
 10
129.7757245775318
 20
331.2356468765955
 30
0.0
 10
129.7702454496734
 20
331.2264107905857
 30
0.0
 10
129.761934040099
 20
331.2141931440598
 30
0.0
 10
129.7538213440278
 20
331.2034888335942
 30
0.0
 10
129.7459757534777
 20
331.1942774294197
 30
0.0
 10
129.73753297072
 20
331.1855959647755
 30
0.0
 10
129.72836073393
 20
331.1776670675391
 30
0.0
 10
129.7183841345154
 20
331.1707310360514
 30
0.0
 10
129.7075138484439
 20
331.1652598815339
 30
0.0
 10
129.6958624274386
 20
331.1614827547382
 30
0.0
 10
129.6877557408682
 20
331.1609540938248
 30
0.0
 10
129.6837125847
 20
331.1606904277
 30
0.0
 11
129.7784640574
 21
331.2402647779
 31
0.0
 11
129.7701044773156
 21
331.2264990441872
 31
0.0
 11
129.7610529312441
 21
331.2131769064225
 31
0.0
 11
129.7537317027185
 21
331.2035605326079
 31
0.0
 11
129.7458806863103
 21
331.194370661845
 31
0.0
 11
129.7374123914658
 21
331.1857223430887
 31
0.0
 11
129.7282313343055
 21
331.1778361238058
 31
0.0
 11
129.7182415351496
 21
331.1709788007053
 31
0.0
 11
129.7073985347151
 21
331.1655486559704
 31
0.0
 11
129.695758685901
 21
331.1619766013131
 31
0.0
 11
129.6837125847
 21
331.1606904277
 31
0.0
  0
SPLINE
  5
120
330
1F
100
AcDbEntity
  8
0
  6
Continuous
 62
     7
100
AcDbSpline
210
0.0
220
0.0
230
1.0
 70
     8
 71
     3
 72
    13
 73
     9
 74
     7
 42
0.0000000001
 43
0.0000000001
 44
0.00000001
 40
0.0
 40
0.0
 40
0.0
 40
0.0
 40
0.0161159233021878
 40
0.032392146584379
 40
0.0565136430262709
 40
0.080735715406471
 40
0.1049176589827362
 40
0.1290332870054899
 40
0.1290332870054899
 40
0.1290332870054899
 40
0.1290332870054899
 10
128.1087125847
 20
331.1606904277
 30
0.0
 10
128.1033321881572
 20
331.1611733280848
 30
0.0
 10
128.0925178779729
 20
331.1621439321115
 30
0.0
 10
128.074962639149
 20
331.1696375834838
 30
0.0
 10
128.0573428960269
 20
331.1823208322696
 30
0.0
 10
128.0409309658763
 20
331.2002004245687
 30
0.0
 10
128.0264076513141
 20
331.219567034791
 30
0.0
 10
128.0181061589505
 20
331.2333718484848
 30
0.0
 10
128.013961112
 20
331.2402647779
 30
0.0
 11
128.1087125847
 21
331.1606904277
 31
0.0
 11
128.0927575649553
 21
331.1629620634163
 31
0.0
 11
128.0776486632058
 21
331.1690148753461
 31
0.0
 11
128.0579284864561
 21
331.1829059235267
 31
0.0
 11
128.0412373300402
 21
331.200459102381
 31
0.0
 11
128.026738045495
 21
331.2198120645006
 31
0.0
 11
128.013961112
 21
331.2402647779
 31
0.0
  0
SPLINE
  5
121
330
1F
100
AcDbEntity
  8
0
  6
Continuous
 62
     7
100
AcDbSpline
210
0.0
220
0.0
230
1.0
 70
     8
 71
     3
 72
    17
 73
    13
 74
    11
 42
0.0000000001
 43
0.0000000001
 44
0.00000001
 40
0.0
 40
0.0
 40
0.0
 40
0.0
 40
0.0161034838368802
 40
0.0322076500192374
 40
0.0442920544392424
 40
0.0563777824011995
 40
0.0684771683877529
 40
0.0805744754658237
 40
0.0926944165995977
 40
0.1048260721773781
 40
0.1170058953107383
 40
0.1291230711632282
 40
0.1291230711632282
 40
0.1291230711632282
 40
0.1291230711632282
 10
128.013961112
 20
323.0112647779
 30
0.0
 10
128.0167000389009
 20
323.0158823310017
 30
0.0
 10
128.0221780087579
 20
323.0251176328626
 30
0.0
 10
128.0304879205177
 20
323.0373341505151
 30
0.0
 10
128.0386025221218
 20
323.0480350037169
 30
0.0
 10
128.046447160938
 20
323.0572437876091
 30
0.0
 10
128.0548822204812
 20
323.0659272368644
 30
0.0
 10
128.0640493357079
 20
323.0738587669525
 30
0.0
 10
128.0740308247358
 20
323.0807898127825
 30
0.0
 10
128.0849072738088
 20
323.0862564609109
 30
0.0
 10
128.0965596370664
 20
323.0900425492939
 30
0.0
 10
128.1046685715031
 20
323.0905740585785
 30
0.0
 10
128.1087125847
 20
323.090839128
 30
0.0
 11
128.013961112
 21
323.0112647779
 31
0.0
 11
128.0223190643588
 21
323.0250294727405
 31
0.0
 11
128.0313696749763
 21
323.0383497811408
 31
0.0
 11
128.0386916992955
 21
323.0479633543608
 31
0.0
 11
128.046542021827
 21
323.0571523290872
 31
0.0
 11
128.0550033363731
 21
323.0658011034167
 31
0.0
 11
128.0641776577123
 21
323.0736863216449
 31
0.0
 11
128.0741726356151
 21
323.0805414941307
 31
0.0
 11
128.0850219742422
 21
323.0859700223301
 31
0.0
 11
128.0966643861748
 21
323.0895480575385
 31
0.0
 11
128.1087125847
 21
323.090839128
 31
0.0
  0
SPLINE
  5
122
330
1F
100
AcDbEntity
  8
0
  6
Continuous
 62
     7
100
AcDbSpline
210
0.0
220
0.0
230
1.0
 70
     8
 71
     3
 72
    13
 73
     9
 74
     7
 42
0.0000000001
 43
0.0000000001
 44
0.00000001
 40
0.0
 40
0.0
 40
0.0
 40
0.0
 40
0.0161119176620209
 40
0.0323835566845884
 40
0.0565085410393329
 40
0.080735137978024
 40
0.1049182738520749
 40
0.1290347651052016
 40
0.1290347651052016
 40
0.1290347651052016
 40
0.1290347651052016
 10
129.6837125847
 20
323.090839128
 30
0.0
 10
129.6890916468614
 20
323.0903568226103
 30
0.0
 10
129.6999030951365
 20
323.08938743062
 30
0.0
 10
129.7174585194539
 20
323.0818988220355
 30
0.0
 10
129.7350797027952
 20
323.0692147158377
 30
0.0
 10
129.7514921657691
 20
323.0513315487985
 30
0.0
 10
129.7660168053494
 20
323.0319632326501
 30
0.0
 10
129.774318791789
 20
323.0181579132143
 30
0.0
 10
129.7784640574
 20
323.0112647779
 30
0.0
 11
129.6837125847
 21
323.090839128
 31
0.0
 11
129.6996638941623
 21
323.0885698512024
 31
0.0
 11
129.7147697212548
 21
323.0825216924467
 31
0.0
 11
129.7344934086069
 21
323.0686295713936
 31
0.0
 11
129.7511867344641
 21
323.0510722119379
 31
0.0
 11
129.7656864918933
 21
323.0317181143047
 31
0.0
 11
129.7784640574
 21
323.0112647779
 31
0.0
  0
SPLINE
  5
123
330
1F
100
AcDbEntity
  8
0
  6
Continuous
 62
     7
100
AcDbSpline
210
0.0
220
0.0
230
1.0
 70
     8
 71
     3
 72
    11
 73
     7
 74
     5
 42
0.0000000001
 43
0.0000000001
 44
0.00000001
 40
0.0
 40
0.0
 40
0.0
 40
0.0
 40
0.0543555269307663
 40
0.1087869225701606
 40
0.1632830353545938
 40
0.2176296539566843
 40
0.2176296539566843
 40
0.2176296539566843
 40
0.2176296539566843
 10
93.5576472136
 20
333.1272630827
 30
0.0
 10
93.5725235826184
 20
333.1376429091905
 30
0.0
 10
93.60229708488968
 20
333.1584170501928
 30
0.0
 10
93.65105157877531
 20
333.182941575768
 30
0.0
 10
93.70240001098736
 20
333.2017530429375
 30
0.0
 10
93.73827162060388
 20
333.2076517391752
 30
0.0
 10
93.7561827908
 20
333.2105970364
 30
0.0
 11
93.5576472136
 21
333.1272630827
 31
0.0
 11
93.6029526413075
 21
333.15729542407
 31
0.0
 11
93.65146481735152
 21
333.1819803507809
 31
0.0
 11
93.70285850983953
 21
333.2001053247412
 31
0.0
 11
93.7561827908
 21
333.2105970364
 31
0.0
  0
SPLINE
  5
124
330
1F
100
AcDbEntity
  8
0
  6
Continuous
 62
     7
100
AcDbSpline
210
0.0
220
0.0
230
1.0
 70
     8
 71
     3
 72
    15
 73
    11
 74
     9
 42
0.0000000001
 43
0.0000000001
 44
0.00000001
 40
0.0
 40
0.0
 40
0.0
 40
0.0
 40
0.0291928827821024
 40
0.0584749030775106
 40
0.0893472907908755
 40
0.1202111504036694
 40
0.1539964536632633
 40
0.1878186151631316
 40
0.2252201506139875
 40
0.2625568083494675
 40
0.2625568083494675
 40
0.2625568083494675
 40
0.2625568083494675
 10
129.9337125847
 20
331.4312884675
 30
0.0
 10
129.9332140044329
 20
331.4215470795866
 30
0.0
 10
129.9322153215342
 20
331.4020345594175
 30
0.0
 10
129.9243753638009
 20
331.3730830411577
 30
0.0
 10
129.9118922321938
 20
331.3453072076866
 30
0.0
 10
129.8942090261912
 20
331.3186666678858
 30
0.0
 10
129.8719472434973
 20
331.2943537050195
 30
0.0
 10
129.8445952435652
 20
331.2723579342633
 30
0.0
 10
129.8134135744289
 20
331.2536237906353
 30
0.0
 10
129.7901071525689
 20
331.2447152043969
 30
0.0
 10
129.7784640574
 20
331.2402647779
 30
0.0
 11
129.9337125847
 21
331.4312884675
 31
0.0
 11
129.9311869123207
 21
331.402205046378
 31
0.0
 11
129.9238107307794
 21
331.3738672860845
 31
0.0
 11
129.9111504405587
 21
331.3457102021685
 31
0.0
 11
129.8941464550604
 21
331.3199528283238
 31
0.0
 11
129.871374800134
 21
331.2949948947505
 31
0.0
 11
129.8450978403221
 21
331.2737002946939
 31
0.0
 11
129.8129342773682
 21
331.2546115526663
 31
0.0
 11
129.7784640574
 21
331.2402647779
 31
0.0
  0
SPLINE
  5
125
330
1F
100
AcDbEntity
  8
RUNDUNGEN
  6
Continuous
 62
     7
100
AcDbSpline
210
0.0
220
0.0
230
1.0
 70
     8
 71
     3
 72
    17
 73
    13
 74
    11
 42
0.0000000001
 43
0.0000000001
 44
0.00000001
 40
0.0
 40
0.0
 40
0.0
 40
0.0
 40
0.0921565574810356
 40
0.1843584530746681
 40
0.27771724101634
 40
0.3711392572755866
 40
0.4672851120717167
 40
0.5631242133035648
 40
0.612486568255142
 40
0.6618539014422519
 40
0.7118003920366311
 40
0.7616858912436801
 40
0.7616858912436801
 40
0.7616858912436801
 40
0.7616858912436801
 10
96.2889332811
 20
321.2207647779
 30
0.0
 10
96.27362164807211
 20
321.1941177738592
 30
0.0
 10
96.24299084917702
 20
321.1408106562942
 30
0.0
 10
96.18924960088086
 20
321.0652508476509
 30
0.0
 10
96.12880094938161
 20
320.994388578205
 30
0.0
 10
96.05933564076321
 20
320.9302008794294
 30
0.0
 10
95.98072130411452
 20
320.8759723967141
 30
0.0
 10
95.9072289730889
 20
320.8419834643089
 30
0.0
 10
95.84474939837266
 20
320.8241296425945
 30
0.0
 10
95.7958069898782
 20
320.8158425093548
 30
0.0
 10
95.7460093082988
 20
320.8127287069441
 30
0.0
 10
95.7128047305612
 20
320.8154069609992
 30
0.0
 10
95.6962125847
 20
320.8167452699
 30
0.0
 11
96.2889332811
 21
321.2207647779
 31
0.0
 11
96.24173787018452
 21
321.1416103448259
 31
0.0
 11
96.18841221971269
 21
321.0663935611084
 31
0.0
 11
96.1274684600785
 21
320.9956707115646
 31
0.0
 11
96.05862678807101
 21
320.9325161605239
 31
0.0
 11
95.97923747505435
 21
320.8782818321587
 31
0.0
 11
95.89202571787862
 21
320.8385421450028
 31
0.0
 11
95.84455183515634
 21
320.8250191074137
 31
0.0
 11
95.79588529443797
 21
320.8167304766152
 31
0.0
 11
95.74601797681771
 21
320.8139193280857
 31
0.0
 11
95.6962125847
 21
320.8167452699
 31
0.0
  0
SPLINE
  5
126
330
1F
100
AcDbEntity
  8
RUNDUNGEN
  6
Continuous
 62
     7
100
AcDbSpline
210
0.0
220
0.0
230
1.0
 70
     8
 71
     3
 72
    11
 73
     7
 74
     5
 42
0.0000000001
 43
0.0000000001
 44
0.00000001
 40
0.0
 40
0.0
 40
0.0
 40
0.0
 40
0.2869328098231252
 40
0.5747586398890561
 40
0.8592750661990991
 40
1.143349105409753
 40
1.143349105409753
 40
1.143349105409753
 40
1.143349105409753
 10
96.5962125847
 20
322.3104725688
 30
0.0
 10
96.5916334084954
 20
322.2147440586233
 30
0.0
 10
96.58246080432791
 20
322.0229891026749
 30
0.0
 10
96.51521273824405
 20
321.7432045538302
 30
0.0
 10
96.41937684450245
 20
321.4736265141077
 30
0.0
 10
96.33239190959827
 20
321.3050082926327
 30
0.0
 10
96.2889332811
 20
321.2207647779
 30
0.0
 11
96.5962125847
 21
322.3104725688
 31
0.0
 11
96.57355065078697
 21
322.0244360779386
 31
0.0
 11
96.51008422637693
 21
321.7436946997526
 31
0.0
 11
96.41347881729536
 21
321.476081187806
 31
0.0
 11
96.2889332811
 21
321.2207647779
 31
0.0
  0
SPLINE
  5
127
330
1F
100
AcDbEntity
  8
RUNDUNGEN
  6
Continuous
 62
     7
100
AcDbSpline
210
0.0
220
0.0
230
1.0
 70
     8
 71
     3
 72
    17
 73
    13
 74
    11
 42
0.0000000001
 43
0.0000000001
 44
0.00000001
 40
0.0
 40
0.0
 40
0.0
 40
0.0
 40
0.04988665727494
 40
0.0998344446224076
 40
0.1492040595463771
 40
0.1985685183084382
 40
0.2944064655915201
 40
0.3905515039606903
 40
0.4839722008126951
 40
0.5773295177896994
 40
0.6695303450236421
 40
0.7616858721210709
 40
0.7616858721210709
 40
0.7616858721210709
 40
0.7616858721210709
 10
95.6962125847
 20
333.4347842859
 30
0.0
 10
95.71280514008569
 20
333.4361224164973
 30
0.0
 10
95.74601058302943
 20
333.4388003174095
 30
0.0
 10
95.79580973919225
 20
333.4356849957698
 30
0.0
 10
95.8447540382789
 20
333.4273980168703
 30
0.0
 10
95.90723494951408
 20
333.4095448131156
 30
0.0
 10
95.98072709264042
 20
333.3755550873109
 30
0.0
 10
96.05933953338273
 20
333.3213258424246
 30
0.0
 10
96.12880341966566
 20
333.2571384372341
 30
0.0
 10
96.1892510069911
 20
333.1862769595854
 30
0.0
 10
96.24299140118114
 20
333.11071801116
 30
0.0
 10
96.27362182996853
 20
333.0574114894849
 30
0.0
 10
96.2889332811
 20
333.0307647779
 30
0.0
 11
95.6962125847
 21
333.4347842859
 31
0.0
 11
95.74601917609498
 21
333.4376095341514
 31
0.0
 11
95.79588773404436
 21
333.4347973483543
 31
0.0
 11
95.84455655864956
 21
333.4265085372641
 31
0.0
 11
95.89203260546394
 21
333.412985417515
 31
0.0
 11
95.9792430596953
 21
333.3732456538997
 31
0.0
 11
96.05863089471652
 21
333.3190106093837
 31
0.0
 11
96.12747103584155
 21
333.2558563413554
 31
0.0
 11
96.18841356781672
 21
333.1851343756757
 31
0.0
 11
96.241738451455
 21
333.1099183579162
 31
0.0
 11
96.2889332811
 21
333.0307647779
 31
0.0
  0
SPLINE
  5
128
330
1F
100
AcDbEntity
  8
RUNDUNGEN
  6
Continuous
 62
     7
100
AcDbSpline
210
0.0
220
0.0
230
1.0
 70
     8
 71
     3
 72
    11
 73
     7
 74
     5
 42
0.0000000001
 43
0.0000000001
 44
0.00000001
 40
0.0
 40
0.0
 40
0.0
 40
0.0
 40
0.4602587934031266
 40
0.9205185387926923
 40
1.380778773594093
 40
1.841037439488557
 40
1.841037439488557
 40
1.841037439488557
 40
1.841037439488557
 10
132.8512251475
 20
327.1255990713
 30
0.0
 10
132.8510854500651
 20
326.9721794614129
 30
0.0
 10
132.8508060549065
 20
326.6653399243099
 30
0.0
 10
132.8491070607314
 20
326.2050831212531
 30
0.0
 10
132.846890249461
 20
325.7448285632181
 30
0.0
 10
132.846438472697
 20
325.437989022683
 30
0.0
 10
132.8462125847
 20
325.2845695139
 30
0.0
 11
132.8512251475
 21
327.1255990713
 31
0.0
 11
132.8505927389284
 21
326.6653407123707
 31
0.0
 11
132.8490207584672
 21
326.2050836514759
 31
0.0
 11
132.8471467720917
 21
325.744827231733
 31
0.0
 11
132.8462125847
 21
325.2845695139
 31
0.0
  0
SPLINE
  5
129
330
1F
100
AcDbEntity
  8
RUNDUNGEN
  6
Continuous
 62
     7
100
AcDbSpline
210
0.0
220
0.0
230
1.0
 70
     8
 71
     3
 72
    11
 73
     7
 74
     5
 42
0.0000000001
 43
0.0000000001
 44
0.00000001
 40
0.0
 40
0.0
 40
0.0
 40
0.0
 40
0.2840740418872029
 40
0.5685904708861084
 40
0.8564162982519679
 40
1.143349105245754
 40
1.143349105245754
 40
1.143349105245754
 40
1.143349105245754
 10
96.2889332811
 20
333.0307647779
 30
0.0
 10
96.332391909909
 20
332.946521262317
 30
0.0
 10
96.41937684543645
 20
332.7779030391374
 30
0.0
 10
96.5152127384581
 20
332.5083249982083
 30
0.0
 10
96.58246080429508
 20
332.2285404503323
 30
0.0
 10
96.5916334084852
 20
332.0367854962315
 30
0.0
 10
96.5962125847
 20
331.941056987
 30
0.0
 11
96.2889332811
 21
333.0307647779
 31
0.0
 11
96.41347881805336
 21
332.7754483653858
 31
0.0
 11
96.51008422727205
 21
332.5078348506299
 31
0.0
 11
96.57355065087826
 21
332.2270934750305
 31
0.0
 11
96.5962125847
 21
331.941056987
 31
0.0
  0
SPLINE
  5
12A
330
1F
100
AcDbEntity
  8
RUNDUNGEN
  6
Continuous
 62
     7
100
AcDbSpline
210
0.0
220
0.0
230
1.0
 70
     8
 71
     3
 72
    11
 73
     7
 74
     5
 42
0.0000000001
 43
0.0000000001
 44
0.00000001
 40
0.0
 40
0.0
 40
0.0
 40
0.0
 40
0.46034151875113
 40
0.9206846071772699
 40
1.38102720592994
 40
1.841368852306999
 40
1.841368852306999
 40
1.841368852306999
 40
1.841368852306999
 10
132.8462125847
 20
328.9669600418
 30
0.0
 10
132.8464385487189
 20
328.8135129154484
 30
0.0
 10
132.8468904775272
 20
328.5066181395205
 30
0.0
 10
132.8491078299749
 20
328.0462807298369
 30
0.0
 10
132.8508067932711
 20
327.5859410722725
 30
0.0
 10
132.8510856961866
 20
327.279046299138
 30
0.0
 10
132.8512251475
 20
327.1255990713
 30
0.0
 11
132.8462125847
 21
328.9669600418
 31
0.0
 11
132.8471470523421
 21
328.5066194715085
 31
0.0
 11
132.8490214323683
 21
328.0462801990569
 31
0.0
 11
132.8505933593787
 21
327.5859402841334
 31
0.0
 11
132.8512251475
 21
327.1255990713
 31
0.0
  0
SPLINE
  5
12B
330
1F
100
AcDbEntity
  8
0
  6
Continuous
 62
     7
100
AcDbSpline
210
0.0
220
0.0
230
1.0
 70
     8
 71
     3
 72
    11
 73
     7
 74
     5
 42
0.0000000001
 43
0.0000000001
 44
0.00000001
 40
0.0
 40
0.0
 40
0.0
 40
0.0
 40
0.0543309617980037
 40
0.1088117187036873
 40
0.1632583665298513
 40
0.2176288252217975
 40
0.2176288252217975
 40
0.2176288252217975
 40
0.2176288252217975
 10
93.7561827908
 20
321.0409325194
 30
0.0
 10
93.7382768109168
 20
321.0438771809904
 30
0.0
 10
93.7024154828327
 20
321.0497746228554
 30
0.0
 10
93.65107205835645
 20
321.0685836366808
 30
0.0
 10
93.60231055262071
 20
321.0931053532278
 30
0.0
 10
93.57252804245573
 20
321.113884282585
 30
0.0
 10
93.5576472136
 20
321.124266473
 30
0.0
 11
93.7561827908
 21
321.0409325194
 31
0.0
 11
93.70287395498744
 21
321.0514216296676
 31
0.0
 11
93.6514942392481
 21
321.0695400645768
 31
0.0
 11
93.60296644820052
 21
321.0942279351927
 31
0.0
 11
93.5576472136
 21
321.124266473
 31
0.0
  0
SPLINE
  5
12C
330
1F
100
AcDbEntity
  8
0
  6
Continuous
 62
     7
100
AcDbSpline
210
0.0
220
0.0
230
1.0
 70
     8
 71
     3
 72
    23
 73
    19
 74
    17
 42
0.0000000001
 43
0.0000000001
 44
0.00000001
 40
0.0
 40
0.0
 40
0.0
 40
0.0
 40
0.059763502084766
 40
0.1195426310436278
 40
0.1753624598953429
 40
0.2311738661895975
 40
0.2819685060328876
 40
0.3327872069509309
 40
0.3780904632075874
 40
0.4233393316917023
 40
0.4647820467396963
 40
0.5060598178590228
 40
0.5483601944886989
 40
0.590862636818754
 40
0.6390023298462547
 40
0.6871915007967707
 40
0.7420554294624415
 40
0.7968569385272628
 40
0.7968569385272628
 40
0.7968569385272628
 40
0.7968569385272628
 10
93.5576472136
 20
321.124266473
 30
0.0
 10
93.54157978562795
 20
321.1124832789888
 30
0.0
 10
93.509440728396
 20
321.0889138099141
 30
0.0
 10
93.46017804567191
 20
321.0573719481457
 30
0.0
 10
93.41039852060828
 20
321.0292578445053
 30
0.0
 10
93.36139617967565
 20
321.0060978747577
 30
0.0
 10
93.312190688649
 20
320.9876601745432
 30
0.0
 10
93.26465218156767
 20
320.975422716334
 30
0.0
 10
93.21776149057285
 20
320.9694595624264
 30
0.0
 10
93.17351280508731
 20
320.9712455531273
 30
0.0
 10
93.13186369298208
 20
320.9817515714813
 30
0.0
 10
93.09425985134264
 20
321.000689533069
 30
0.0
 10
93.06266308745076
 20
321.0290763845849
 30
0.0
 10
93.03673238934167
 20
321.0653618398664
 30
0.0
 10
93.01771151920858
 20
321.1078729816303
 30
0.0
 10
93.00488056707911
 20
321.1567427991872
 30
0.0
 10
92.9973874272672
 20
321.2089720723336
 30
0.0
 10
92.99660405026103
 20
321.245543286871
 30
0.0
 10
92.9962125847
 20
321.2638184863
 30
0.0
 11
93.5576472136
 21
321.124266473
 31
0.0
 11
93.50908433308362
 21
321.0894336893417
 31
0.0
 11
93.45877236700397
 21
321.0571497873427
 31
0.0
 11
93.41008125276826
 21
321.0298545737051
 31
0.0
 11
93.35956492279148
 21
321.0061266686518
 31
0.0
 11
93.31191866037199
 21
320.9885218649249
 31
0.0
 11
93.26264960238169
 21
320.9760679383254
 31
0.0
 11
93.21766311059281
 21
320.9707199869433
 31
0.0
 11
93.17246758398176
 21
320.9729164553456
 31
0.0
 11
93.13232245526744
 21
320.9832056375803
 31
0.0
 11
93.09559027315169
 21
321.0020364948522
 31
0.0
 11
93.06388594067862
 21
321.0300393012375
 31
0.0
 11
93.03898875524773
 21
321.0644861844294
 31
0.0
 11
93.01897270880619
 21
321.1082673211167
 31
0.0
 11
93.00628970497701
 21
321.1547575094447
 31
0.0
 11
92.99849129558524
 21
321.2090643734638
 31
0.0
 11
92.9962125847
 21
321.2638184863
 31
0.0
  0
SPLINE
  5
12D
330
1F
100
AcDbEntity
  8
0
  6
Continuous
 62
     7
100
AcDbSpline
210
0.0
220
0.0
230
1.0
 70
     8
 71
     3
 72
    23
 73
    19
 74
    17
 42
0.0000000001
 43
0.0000000001
 44
0.00000001
 40
0.0
 40
0.0
 40
0.0
 40
0.0
 40
0.0548015920510901
 40
0.1096656057058162
 40
0.1578548539440464
 40
0.205994621135564
 40
0.2484971176801579
 40
0.2907975468338333
 40
0.3320753431737903
 40
0.373518089140398
 40
0.4187669596111527
 40
0.4640702101504826
 40
0.5148888565867534
 40
0.5656834469840901
 40
0.6214947220964285
 40
0.6773144168902973
 40
0.7370934750419736
 40
0.7968569074147953
 40
0.7968569074147953
 40
0.7968569074147953
 40
0.7968569074147953
 10
92.9962125847
 20
332.9877110694
 30
0.0
 10
92.996604052669
 20
333.005986296546
 30
0.0
 10
92.99738743450749
 20
333.0425575671855
 30
0.0
 10
93.00488060439702
 20
333.0947869190069
 30
0.0
 10
93.0177115895882
 20
333.1436568097239
 30
0.0
 10
93.03673252582402
 20
333.1861680009913
 30
0.0
 10
93.06266333304549
 20
333.2224534560402
 30
0.0
 10
93.09426020680681
 20
333.2508402553772
 30
0.0
 10
93.13186414262587
 20
333.2697781131469
 30
0.0
 10
93.17351330149857
 20
333.2802840138805
 30
0.0
 10
93.21776199513141
 20
333.2820699379196
 30
0.0
 10
93.26465266143578
 20
333.2761067407602
 30
0.0
 10
93.31219111737258
 20
333.2638692297747
 30
0.0
 10
93.36139651427825
 20
333.2454315046671
 30
0.0
 10
93.4103987522671
 20
333.2222715652882
 30
0.0
 10
93.46017818185511
 20
333.1941575206139
 30
0.0
 10
93.50944078610374
 20
333.1626157058956
 30
0.0
 10
93.54157980476566
 20
333.1390462634863
 30
0.0
 10
93.5576472136
 20
333.1272630827
 30
0.0
 11
92.9962125847
 21
332.9877110694
 31
0.0
 11
92.99849130675337
 21
333.0424652648296
 31
0.0
 11
93.00628974420366
 21
333.0967722106803
 31
0.0
 11
93.01897278602408
 21
333.1432624687561
 31
0.0
 11
93.03898890568782
 21
333.1870436535146
 31
0.0
 11
93.0638861893909
 21
333.2214905325711
 31
0.0
 11
93.09559063523945
 21
333.2494932899357
 31
0.0
 11
93.13232289774342
 21
333.2683240456832
 31
0.0
 11
93.17246808473958
 21
333.2786131250539
 31
0.0
 11
93.21766361702883
 21
333.2808095175438
 31
0.0
 11
93.26265009710556
 21
333.2754615160727
 31
0.0
 11
93.31191908715621
 21
333.2630075430117
 31
0.0
 11
93.35956528564517
 21
333.2454027089261
 31
0.0
 11
93.41008148774672
 21
333.2216748401869
 31
0.0
 11
93.45877248500611
 21
333.1943796920326
 31
0.0
 11
93.50908439094493
 21
333.1620958274203
 31
0.0
 11
93.5576472136
 21
333.1272630827
 31
0.0
  0
SPLINE
  5
12E
330
1F
100
AcDbEntity
  8
FASEN
  6
Continuous
 62
     7
100
AcDbSpline
210
0.0
220
0.0
230
1.0
 70
     8
 71
     3
 72
    39
 73
    35
 74
    33
 42
0.0000000001
 43
0.0000000001
 44
0.00000001
 40
0.0
 40
0.0
 40
0.0
 40
0.0
 40
0.2847861066945258
 40
0.5698668871184628
 40
0.8542588888511815
 40
1.138565866150634
 40
1.422059508600141
 40
1.705574316262981
 40
1.988341250796863
 40
2.271100210952563
 40
2.553600174721846
 40
2.836102358209207
 40
3.11891237352916
 40
3.401723418037309
 40
3.685252285795082
 40
3.968783633826358
 40
4.253107110685475
 40
4.537432086674761
 40
4.822300428893534
 40
5.107169447822804
 40
5.392182981171766
 40
5.677195371046415
 40
5.96203111440943
 40
6.246866460535671
 40
6.53143974230601
 40
6.816009783134295
 40
7.100451807584541
 40
7.384901200579908
 40
7.669472595315067
 40
7.954020693423803
 40
8.23876889394238
 40
8.5236017879165
 40
8.808748199091056
 40
9.09359629991251
 40
9.09359629991251
 40
9.09359629991251
 40
9.09359629991251
 10
109.7954609963
 20
327.1257647779
 30
0.0
 10
109.79278944399
 20
327.0307978919906
 30
0.0
 10
109.7874435750628
 20
326.840765856086
 30
0.0
 10
109.7441863384991
 20
326.5586192448364
 30
0.0
 10
109.675663121509
 20
326.2820385167876
 30
0.0
 10
109.5800861207897
 20
326.0140083833099
 30
0.0
 10
109.4588585198976
 20
325.7569427739284
 30
0.0
 10
109.3132236057011
 20
325.5134490581834
 30
0.0
 10
109.1444056429384
 20
325.2857284691347
 30
0.0
 10
108.9542305579373
 20
325.075966828873
 30
0.0
 10
108.7442940567798
 20
324.8861187962764
 30
0.0
 10
108.5167006696474
 20
324.7178163848495
 30
0.0
 10
108.2735215274117
 20
324.5727423622396
 30
0.0
 10
108.017007261795
 20
324.4520166673198
 30
0.0
 10
107.7496661566869
 20
324.3569429410886
 30
0.0
 10
107.4738636300783
 20
324.2881903646451
 30
0.0
 10
107.1924161169089
 20
324.2465705813906
 30
0.0
 10
106.9078207158729
 20
324.2323411705233
 30
0.0
 10
106.6230035859366
 20
324.2457747143359
 30
0.0
 10
106.3405878909504
 20
324.2866845971448
 30
0.0
 10
106.0634267456531
 20
324.3548199117913
 30
0.0
 10
105.794180900453
 20
324.4494921921265
 30
0.0
 10
105.5355168654307
 20
324.5699764970914
 30
0.0
 10
105.2899611621159
 20
324.7150445094841
 30
0.0
 10
105.0599359596248
 20
324.8835122768736
 30
0.0
 10
104.8476557748349
 20
325.0736627454034
 30
0.0
 10
104.6552623878608
 20
325.2838587550702
 30
0.0
 10
104.4845177809126
 20
325.5119889119649
 30
0.0
 10
104.3371894819292
 20
325.7559461143368
 30
0.0
 10
104.2146253846576
 20
326.013328245923
 30
0.0
 10
104.1180050450885
 20
326.2816787699477
 30
0.0
 10
104.0487755640499
 20
326.558416785017
 30
0.0
 10
104.0050952227277
 20
326.8407021991559
 30
0.0
 10
103.999673577158
 20
327.0307770772951
 30
0.0
 10
103.9969641731
 20
327.1257647779
 30
0.0
 11
109.7954609963
 21
327.1257647779
 31
0.0
 11
109.7815747746565
 21
326.8413174200028
 31
0.0
 11
109.7399240928653
 21
326.5592956618467
 31
0.0
 11
109.6711201976734
 21
326.2833521265791
 31
0.0
 11
109.5756891527454
 21
326.0155399293119
 31
0.0
 11
109.4547538433948
 21
325.7591353734601
 31
0.0
 11
109.3091985883638
 21
325.5158365573985
 31
0.0
 11
109.1408096904703
 21
325.2886751206802
 31
0.0
 11
108.9508654873315
 21
325.0792143146991
 31
0.0
 11
108.7413549940075
 21
324.8897107983285
 31
0.0
 11
108.514202883341
 21
324.7217542494985
 31
0.0
 11
108.2713502113588
 21
324.5768263899395
 31
0.0
 11
108.0154611776341
 21
324.4563984475208
 31
0.0
 11
107.7483372453121
 21
324.3613541229512
 31
0.0
 11
107.473225309691
 21
324.2927724330096
 31
0.0
 11
107.191965848314
 21
324.2511436583564
 31
0.0
 11
106.9079952725411
 21
324.2369519683044
 31
0.0
 11
106.6234422460252
 21
324.2503515018463
 31
0.0
 11
106.3415188086045
 21
324.2912114257157
 31
0.0
 11
106.0647440719947
 21
324.3592442072746
 31
0.0
 11
105.7958808155903
 21
324.4538201647779
 31
0.0
 11
105.5376799852753
 21
324.5740854212813
 31
0.0
 11
105.2924642947885
 21
324.7190007052989
 31
0.0
 11
105.0628754122452
 21
324.8871402238842
 31
0.0
 11
104.8509349783612
 21
325.0770385140872
 31
0.0
 11
104.6588716049857
 21
325.2868453916699
 31
0.0
 11
104.4884465962131
 21
325.5145881710511
 31
0.0
 11
104.3413208493573
 21
325.7581757185852
 31
0.0
 11
104.2189803434111
 21
326.0150811890254
 31
0.0
 11
104.1225877834729
 21
326.2830177712368
 31
0.0
 11
104.0530565161532
 21
326.5592335932938
 31
0.0
 11
104.0110122292964
 21
326.8412632969571
 31
0.0
 11
103.9969641731
 21
327.1257647779
 31
0.0
  0
SPLINE
  5
12F
330
1F
100
AcDbEntity
  8
BEZUGSACHSEN
  6
Continuous
 62
     7
100
AcDbSpline
210
0.0
220
0.0
230
1.0
 70
     8
 71
     3
 72
    15
 73
    11
 74
     9
 42
0.0000000001
 43
0.0000000001
 44
0.00000001
 40
0.0
 40
0.0
 40
0.0
 40
0.0
 40
0.1966144690960979
 40
0.39323686651526
 40
0.9453924839746459
 40
1.497573379399568
 40
2.314268097577434
 40
3.131064801077671
 40
4.091946561202689
 40
5.052604325777475
 40
5.052604325777475
 40
5.052604325777475
 40
5.052604325777475
 10
124.8962125847
 20
347.1257647779
 30
0.0
 10
124.832592289791
 20
347.1100241075536
 30
0.0
 10
124.705349134535
 20
347.0785421321307
 30
0.0
 10
124.3986441191399
 20
347.0061406226565
 30
0.0
 10
123.9750190554545
 20
346.9131933225027
 30
0.0
 10
123.3462163255012
 20
346.7918644099066
 30
0.0
 10
122.6266054827456
 20
346.6766455854946
 30
0.0
 10
121.7676867760262
 20
346.5747141430653
 30
0.0
 10
120.8570380687248
 20
346.504527325049
 30
0.0
 10
120.2164628552365
 20
346.4952964222649
 30
0.0
 10
119.8962125847
 20
346.4906815089
 30
0.0
 11
124.8962125847
 21
347.1257647779
 31
0.0
 11
124.7052689343581
 21
347.0788843784555
 31
0.0
 11
124.5139243164589
 21
347.0336339158299
 31
0.0
 11
123.9745578627571
 21
346.9154829339755
 31
0.0
 11
123.4323720556821
 21
346.8108966448231
 31
0.0
 11
122.6258919145347
 21
346.6821331226807
 31
0.0
 11
121.8148314369595
 21
346.5855010546893
 31
0.0
 11
120.8565743063983
 21
346.5145290273155
 31
0.0
 11
119.8962125847
 21
346.4906815089
 31
0.0
  0
SPLINE
  5
130
330
1F
100
AcDbEntity
  8
BEZUGSACHSEN
  6
Continuous
 62
     7
100
AcDbSpline
210
0.0
220
0.0
230
1.0
 70
     8
 71
     3
 72
    15
 73
    11
 74
     9
 42
0.0000000001
 43
0.0000000001
 44
0.00000001
 40
0.0
 40
0.0
 40
0.0
 40
0.0
 40
0.9606477049538308
 40
1.921519378122504
 40
2.738310931239104
 40
3.555000523389607
 40
4.107190715970482
 40
4.659355623390368
 40
4.855983959589505
 40
5.052604368543502
 40
5.052604368543502
 40
5.052604368543502
 40
5.052604368543502
 10
119.8962125847
 20
346.4906815089
 30
0.0
 10
119.575965668254
 20
346.4952962591769
 30
0.0
 10
118.9353971720595
 20
346.5045268356271
 30
0.0
 10
118.0247568023406
 20
346.5747119395039
 30
0.0
 10
117.1658447575853
 20
346.6766419581659
 30
0.0
 10
116.4462341363282
 20
346.7918600524278
 30
0.0
 10
115.8174268394688
 20
346.913188988225
 30
0.0
 10
115.3937937033639
 20
347.006137658011
 30
0.0
 10
115.0870817927922
 20
347.0785406736969
 30
0.0
 10
114.9598347990343
 20
347.1100236213803
 30
0.0
 10
114.8962125847
 20
347.1257647779
 30
0.0
 11
119.8962125847
 21
346.4906815089
 31
0.0
 11
118.9358609077599
 21
346.5145283038914
 31
0.0
 11
117.9776137678306
 21
346.5854986576686
 31
0.0
 11
117.1665583228289
 21
346.6821294311098
 31
0.0
 11
116.3600831097977
 21
346.8108913070405
 31
0.0
 11
115.8178880425323
 21
346.9154786763332
 31
0.0
 11
115.2785124128588
 21
347.0336311841372
 31
0.0
 11
115.0871619999866
 21
347.0788829475291
 31
0.0
 11
114.8962125847
 21
347.1257647779
 31
0.0
  0
SPLINE
  5
131
330
1F
100
AcDbEntity
  8
AUSFORMSCHRAEGEN
  6
Continuous
 62
     7
100
AcDbSpline
210
0.0
220
0.0
230
1.0
 70
     8
 71
     3
 72
    11
 73
     7
 74
     5
 42
0.0000000001
 43
0.0000000001
 44
0.00000001
 40
0.0
 40
0.0
 40
0.0
 40
0.0
 40
0.4679622721715334
 40
0.9366253979064665
 40
1.360284421015668
 40
1.7827941119014
 40
1.7827941119014
 40
1.7827941119014
 40
1.7827941119014
 10
183.7962125866
 20
344.1008245864
 30
0.0
 10
183.6401372084774
 20
344.096925228703
 30
0.0
 10
183.3277527026514
 20
344.0891206733538
 30
0.0
 10
182.8783681002598
 20
344.0231945479126
 30
0.0
 10
182.4499982937908
 20
343.9247633592587
 30
0.0
 10
182.1878422630868
 20
343.8195952555175
 30
0.0
 10
182.0569422881
 20
343.7670826274
 30
0.0
 11
183.7962125866
 21
344.1008245864
 31
0.0
 11
183.3287254007527
 21
344.0797433330086
 31
0.0
 11
182.8646235936039
 21
344.0145157466299
 31
0.0
 11
182.4530140813285
 21
343.9141933798999
 31
0.0
 11
182.0569422881
 21
343.7670826274
 31
0.0
  0
SPLINE
  5
132
330
1F
100
AcDbEntity
  8
AUSFORMSCHRAEGEN
  6
Continuous
 62
     7
100
AcDbSpline
210
0.0
220
0.0
230
1.0
 70
     8
 71
     3
 72
    27
 73
    23
 74
    21
 42
0.0000000001
 43
0.0000000001
 44
0.00000001
 40
0.0
 40
0.0
 40
0.0
 40
0.0
 40
0.3511800548718627
 40
0.702418216743105
 40
1.04040908609535
 40
1.378380142287728
 40
1.69072104188703
 40
2.00307721193747
 40
2.280709010059595
 40
2.55828375180827
 40
2.796152716514779
 40
3.034196470630651
 40
3.235644589013428
 40
3.43620852548347
 40
3.526900944858294
 40
3.617582659196859
 40
3.705335475280167
 40
3.793075697241857
 40
3.881218684216235
 40
3.96939243216637
 40
4.061245513314486
 40
4.153024726170381
 40
4.153024726170381
 40
4.153024726170381
 40
4.153024726170381
 10
185.7462184563
 20
307.5298532512
 30
0.0
 10
185.6291509543373
 20
307.5311129410935
 30
0.0
 10
185.3949965801739
 20
307.5336325293117
 30
0.0
 10
185.0486756413605
 20
307.5542758581767
 30
0.0
 10
184.7077905743555
 20
307.5872635347466
 30
0.0
 10
184.3815134598233
 20
307.6336672755359
 30
0.0
 10
184.0661857845774
 20
307.6938540757016
 30
0.0
 10
183.7741864206879
 20
307.7667639019647
 30
0.0
 10
183.4983535409223
 20
307.8543339206412
 30
0.0
 10
183.2529976269381
 20
307.9536228263306
 30
0.0
 10
183.0290701792489
 20
308.0681869624931
 30
0.0
 10
182.8406248724267
 20
308.1937806607446
 30
0.0
 10
182.6802019396173
 20
308.3354122762246
 30
0.0
 10
182.575872594382
 20
308.4637009149441
 30
0.0
 10
182.5116338925839
 20
308.5738409814285
 30
0.0
 10
182.4746323349891
 20
308.6557631544858
 30
0.0
 10
182.4472366503926
 20
308.740342196409
 30
0.0
 10
182.4295786125449
 20
308.8266184346817
 30
0.0
 10
182.4219203130901
 20
308.9145074131008
 30
0.0
 10
182.424218751478
 20
309.0040133219403
 30
0.0
 10
182.4358925928425
 20
309.0941128885165
 30
0.0
 10
182.4513970187612
 20
309.1533776972988
 30
0.0
 10
182.4591461133
 20
309.1829981817
 30
0.0
 11
185.7462184563
 21
307.5298532512
 31
0.0
 11
185.3951010476038
 21
307.5364862181306
 31
0.0
 11
185.0444470650321
 21
307.5567354369122
 31
0.0
 11
184.7080746259929
 21
307.5897719321913
 31
0.0
 11
184.3735056173033
 21
307.6376051136475
 31
0.0
 11
184.06680758052
 21
307.6967080052499
 31
0.0
 11
183.7638864417485
 21
307.7728996101285
 31
0.0
 11
183.499524798102
 21
307.8577072554033
 31
0.0
 11
183.2425350911226
 21
307.9626073400718
 31
0.0
 11
183.031379007495
 21
308.0721278984963
 31
0.0
 11
182.8339979610394
 21
308.205190107157
 31
0.0
 11
182.6839061693427
 21
308.3395545312626
 31
0.0
 11
182.5586232017483
 21
308.496175317377
 31
0.0
 11
182.5130244858311
 21
308.5745709297464
 31
0.0
 11
182.4758225198559
 21
308.657270307271
 31
0.0
 11
182.4488125972838
 21
308.7407629465466
 31
0.0
 11
182.4312678029156
 21
308.8267311193808
 31
0.0
 11
182.4235768271085
 21
308.9145379246063
 31
0.0
 11
182.4256718735397
 21
309.0026867794373
 31
0.0
 11
182.4378016911171
 21
309.0937354260058
 31
0.0
 11
182.4591461133
 21
309.1829981817
 31
0.0
  0
SPLINE
  5
133
330
1F
100
AcDbEntity
  8
AUSFORMSCHRAEGEN
  6
Continuous
 62
     7
100
AcDbSpline
210
0.0
220
0.0
230
1.0
 70
     8
 71
     3
 72
    39
 73
    35
 74
    33
 42
0.0000000001
 43
0.0000000001
 44
0.00000001
 40
0.0
 40
0.0
 40
0.0
 40
0.0
 40
0.3231603793621692
 40
0.6466351130326169
 40
0.9700050415265306
 40
1.293286555279276
 40
1.616038460991088
 40
1.938815989544892
 40
2.261394296523325
 40
2.583962775905687
 40
2.906524066301516
 40
3.229088153521825
 40
3.551900674342498
 40
3.874712787320581
 40
4.197891977296839
 40
4.521071505235348
 40
4.844528740251443
 40
5.167985290613025
 40
5.491442179618752
 40
5.814899752354686
 40
6.138079435999391
 40
6.46125877919436
 40
6.784070946382593
 40
7.106883540268575
 40
7.429448153393298
 40
7.752009920606284
 40
8.074578914577332
 40
8.397157829752171
 40
8.719935322761772
 40
9.042687084413405
 40
9.365969693746985
 40
9.689340709871502
 40
10.01281689343704
 40
10.33597891059045
 40
10.33597891059045
 40
10.33597891059045
 40
10.33597891059045
 10
184.8962177538
 20
323.8661718507
 30
0.0
 10
184.7884577015691
 20
323.8691650956995
 30
0.0
 10
184.5728327735002
 20
323.8751544973781
 30
0.0
 10
184.2523232009724
 20
323.92313386278
 30
0.0
 10
183.9376499666902
 20
323.9992922526222
 30
0.0
 10
183.6319736890963
 20
324.1057247564911
 30
0.0
 10
183.3381467618399
 20
324.2408845192748
 30
0.0
 10
183.0588780649778
 20
324.4035917652488
 30
0.0
 10
182.7967317370546
 20
324.5925448308041
 30
0.0
 10
182.5542085345807
 20
324.806006502434
 30
0.0
 10
182.3338039615151
 20
325.0422383170778
 30
0.0
 10
182.137604316705
 20
325.2990373413587
 30
0.0
 10
181.9678065069118
 20
325.5741133195945
 30
0.0
 10
181.8260494497838
 20
325.8648692340839
 30
0.0
 10
181.7141058638342
 20
326.1684901643831
 30
0.0
 10
181.6330749652402
 20
326.4820073599824
 30
0.0
 10
181.58412631622
 20
326.8022033967682
 30
0.0
 10
181.5676773727921
 20
327.1257959610389
 30
0.0
 10
181.5841324800624
 20
327.4493883269566
 30
0.0
 10
181.6330873556428
 20
327.7695836975873
 30
0.0
 10
181.7141245049504
 20
328.0830995044043
 30
0.0
 10
181.8260741867729
 20
328.3867183169098
 30
0.0
 10
181.967837066144
 20
328.6774714951695
 30
0.0
 10
182.13764037741
 20
328.9525443270131
 30
0.0
 10
182.3338451383856
 20
329.2093398910421
 30
0.0
 10
182.5542546450784
 20
329.4455678103336
 30
0.0
 10
182.7967826444373
 20
329.659024849303
 30
0.0
 10
183.0589329253876
 20
329.847972997317
 30
0.0
 10
183.3382043145143
 20
330.0106758586464
 30
0.0
 10
183.6320339166254
 20
330.1458306793465
 30
0.0
 10
183.9377134578437
 20
330.2522560123926
 30
0.0
 10
184.2523899224371
 20
330.328406423539
 30
0.0
 10
184.57290199523
 20
330.3763773781437
 30
0.0
 10
184.788527934191
 20
330.382365232439
 30
0.0
 10
184.8962885232
 20
330.385357705
 30
0.0
 11
184.8962177538
 21
323.8661718507
 31
0.0
 11
184.5734279740358
 21
323.8816440473544
 31
0.0
 11
184.2532684247211
 21
323.9278367557154
 31
0.0
 11
183.939082968597
 21
324.0043587121349
 31
0.0
 11
183.633754118515
 21
324.1105906773897
 31
0.0
 11
183.340545629674
 21
324.2454890640077
 31
0.0
 11
183.0616675837516
 21
324.4080078888922
 31
0.0
 11
182.7999899756907
 21
324.5966387282919
 31
0.0
 11
182.5578926623748
 21
324.8098037225481
 31
0.0
 11
182.3378469384733
 21
325.0456546616059
 31
0.0
 11
182.1420594962883
 21
325.3020037748225
 31
0.0
 11
181.9724961026256
 21
325.5766966562887
 31
0.0
 11
181.8310744242059
 21
325.8668820610876
 31
0.0
 11
181.7192689513472
 21
326.1701052875604
 31
0.0
 11
181.638443715914
 21
326.4830146811486
 31
0.0
 11
181.5895452432623
 21
326.8027544538647
 31
0.0
 11
181.5731613773739
 21
327.1257957962814
 31
0.0
 11
181.589551417501
 21
327.4488371645764
 31
0.0
 11
181.6384561266833
 21
327.768576325112
 31
0.0
 11
181.7192875720668
 21
328.0814842754071
 31
0.0
 11
181.8310991329167
 21
328.3847054203299
 31
0.0
 11
181.9725265946283
 21
328.6748880668795
 31
0.0
 11
182.1420953955482
 21
328.949577696327
 31
0.0
 11
182.3378880807342
 21
329.2059234668557
 31
0.0
 11
182.5579387374508
 21
329.4417704556984
 31
0.0
 11
182.8000407412583
 21
329.6549309014286
 31
0.0
 11
183.0617224443109
 21
329.8435571000407
 31
0.0
 11
183.3406031849645
 21
330.0060712301528
 31
0.0
 11
183.6338140011172
 21
330.1409642134406
 31
0.0
 11
183.9391463719079
 21
330.247189393341
 31
0.0
 11
184.2533348760531
 21
330.3237034308268
 31
0.0
 11
184.5734969444709
 21
330.3698888319899
 31
0.0
 11
184.8962885232
 21
330.385357705
 31
0.0
  0
SPLINE
  5
134
330
1F
100
AcDbEntity
  8
AUSFORMSCHRAEGEN
  6
Continuous
 62
     7
100
AcDbSpline
210
0.0
220
0.0
230
1.0
 70
     8
 71
     3
 72
    11
 73
     7
 74
     5
 42
0.0000000001
 43
0.0000000001
 44
0.00000001
 40
0.0
 40
0.0
 40
0.0
 40
0.0
 40
0.4227224339271778
 40
0.8465976551178425
 40
1.315562239103553
 40
1.783824138608026
 40
1.783824138608026
 40
1.783824138608026
 40
1.783824138608026
 10
184.0060014206
 20
310.484870443
 30
0.0
 10
184.1369512102181
 20
310.4322901082697
 30
0.0
 10
184.3992078967129
 20
310.3269860493523
 30
0.0
 10
184.8278029497508
 20
310.2284339968689
 30
0.0
 10
185.2774518529365
 20
310.1624234031364
 30
0.0
 10
185.5900371277293
 20
310.1546091610725
 30
0.0
 10
185.7462125849
 20
310.1507049694
 30
0.0
 11
184.0060014206
 21
310.484870443
 31
0.0
 11
184.4022303410901
 21
310.3375717712049
 31
0.0
 11
184.8140326083433
 21
310.2371272799445
 31
0.0
 11
185.2784266867281
 21
310.1718132615873
 31
0.0
 11
185.7462125849
 21
310.1507049694
 31
0.0
  0
SPLINE
  5
135
330
1F
100
AcDbEntity
  8
AUSFORMSCHRAEGEN
  6
Continuous
 62
     7
100
AcDbSpline
210
0.0
220
0.0
230
1.0
 70
     8
 71
     3
 72
    11
 73
     7
 74
     5
 42
0.0000000001
 43
0.0000000001
 44
0.00000001
 40
0.0
 40
0.0
 40
0.0
 40
0.0
 40
0.1626999567952424
 40
0.3254238111439351
 40
0.8155914043904827
 40
1.305705661659241
 40
1.305705661659241
 40
1.305705661659241
 40
1.305705661659241
 10
192.896212584741
 20
311.450704968517
 30
0.0
 10
192.8958910205242
 20
311.5049402860759
 30
0.0
 10
192.8952478448589
 20
311.6134188873385
 30
0.0
 10
192.886390698619
 20
311.8851448646528
 30
0.0
 10
192.8602352326211
 20
312.2656396459799
 30
0.0
 10
192.8127098878078
 20
312.5890223932178
 30
0.0
 10
192.7889485083
 20
312.7507049694
 30
0.0
 11
192.896212584741
 21
311.450704968517
 31
0.0
 11
192.8945252840983
 21
311.6133961758938
 31
0.0
 11
192.8894590437485
 21
311.7760411450223
 31
0.0
 11
192.8539599548997
 21
312.2649215845574
 31
0.0
 11
192.7889485083
 21
312.7507049694
 31
0.0
  0
SPLINE
  5
136
330
1F
100
AcDbEntity
  8
AUSFORMSCHRAEGEN
  6
Continuous
 62
     7
100
AcDbSpline
210
0.0
220
0.0
230
1.0
 70
     8
 71
     3
 72
     9
 73
     5
 74
     3
 42
0.0000000001
 43
0.0000000001
 44
0.00000001
 40
0.0
 40
0.0
 40
0.0
 40
0.0
 40
1.526803441835046
 40
3.053606875652096
 40
3.053606875652096
 40
3.053606875652096
 40
3.053606875652096
 10
191.2218968041
 20
307.5298532512
 30
0.0
 10
191.4831627689406
 20
307.966607652864
 30
0.0
 10
192.0056946972499
 20
308.8401164538982
 30
0.0
 10
192.5278639050736
 20
309.7138421316641
 30
0.0
 10
192.7889485083
 20
310.1507049694
 30
0.0
 11
191.2218968041
 21
307.5298532512
 31
0.0
 11
192.0056040185
 21
308.840170675375
 31
0.0
 11
192.7889485083
 21
310.1507049694
 31
0.0
  0
SPLINE
  5
137
330
1F
100
AcDbEntity
  8
AUSFORMSCHRAEGEN
  6
Continuous
 62
     7
100
AcDbSpline
210
0.0
220
0.0
230
1.0
 70
     8
 71
     3
 72
    27
 73
    23
 74
    21
 42
0.0000000001
 43
0.0000000001
 44
0.00000001
 40
0.0
 40
0.0
 40
0.0
 40
0.0
 40
0.0918464868150873
 40
0.1837697008605408
 40
0.2720118945784234
 40
0.3602186623382505
 40
0.4479895930122521
 40
0.5357771449360641
 40
0.62648224000493
 40
0.7171949336938017
 40
0.9177719105580733
 40
1.119241390317029
 40
1.357324031742562
 40
1.595228486892398
 40
1.872879958713495
 40
2.150589767724939
 40
2.463077980337792
 40
2.775550668794458
 40
3.113671352151721
 40
3.451811748315427
 40
3.803251954916917
 40
4.154634097557761
 40
4.154634097557761
 40
4.154634097557761
 40
4.154634097557761
 10
180.5095583673
 20
345.0670450208
 30
0.0
 10
180.5017621556526
 20
345.0966764090654
 30
0.0
 10
180.4861632195149
 20
345.1559639392304
 30
0.0
 10
180.4743526485883
 20
345.2461139339435
 30
0.0
 10
180.4718759703659
 20
345.3356813862138
 30
0.0
 10
180.4793664034142
 20
345.4236407581819
 30
0.0
 10
180.4969071037352
 20
345.5099863595973
 30
0.0
 10
180.524201550295
 20
345.5946290741333
 30
0.0
 10
180.5610944245665
 20
345.676628557841
 30
0.0
 10
180.6251874057762
 20
345.786876283873
 30
0.0
 10
180.7293976886573
 20
345.9152915373012
 30
0.0
 10
180.8897328563524
 20
346.0570617814186
 30
0.0
 10
181.078129823309
 20
346.1827885360649
 30
0.0
 10
181.3020506964355
 20
346.2974784961233
 30
0.0
 10
181.5474335788261
 20
346.396872480866
 30
0.0
 10
181.8233382763619
 20
346.4845341214649
 30
0.0
 10
182.1154376260661
 20
346.5575159091998
 30
0.0
 10
182.4308948475299
 20
346.6177602056806
 30
0.0
 10
182.7573105347163
 20
346.6642108725206
 30
0.0
 10
183.0983602328241
 20
346.6972336454618
 30
0.0
 10
183.4448652259691
 20
346.7178948303205
 30
0.0
 10
183.6791543344871
 20
346.7204158825995
 30
0.0
 10
183.7962892108
 20
346.7216763046
 30
0.0
 11
180.5095583673
 21
345.0670450208
 31
0.0
 11
180.4880730872587
 21
345.1563431724148
 31
0.0
 11
180.4757963922855
 21
345.2474428982156
 31
0.0
 11
180.4735339483231
 21
345.3356560837349
 31
0.0
 11
180.4810655560256
 21
345.4235407169995
 31
0.0
 11
180.4984860742583
 21
345.5095654914304
 31
0.0
 11
180.5253935475861
 21
345.5931276967141
 31
0.0
 11
180.5624875234983
 21
345.6759011901917
 31
0.0
 11
180.6079882839768
 21
345.7543771329523
 31
0.0
 11
180.7331105044136
 21
345.9111430527211
 31
0.0
 11
180.8831129045916
 21
346.0456392653637
 31
0.0
 11
181.0804450065699
 21
346.1788435658836
 31
0.0
 11
181.2915818146224
 21
346.2884783143236
 31
0.0
 11
181.5486072503758
 21
346.3934938616499
 31
0.0
 11
181.8130234225866
 21
346.4783868878331
 31
0.0
 11
182.1160606513632
 21
346.5546582520362
 31
0.0
 11
182.4228818336269
 21
346.6138185693581
 31
0.0
 11
182.7575951016182
 21
346.6616999304977
 31
0.0
 11
183.0941145477869
 21
346.6947694008292
 31
0.0
 11
183.4449697726374
 21
346.7150383428637
 31
0.0
 11
183.7962892108
 21
346.7216763046
 31
0.0
  0
SPLINE
  5
138
330
1F
100
AcDbEntity
  8
AUSFORMSCHRAEGEN
  6
Continuous
 62
     7
100
AcDbSpline
210
0.0
220
0.0
230
1.0
 70
     8
 71
     3
 72
     9
 73
     5
 74
     3
 42
0.0000000001
 43
0.0000000001
 44
0.00000001
 40
0.0
 40
0.0
 40
0.0
 40
0.0
 40
1.526803433784911
 40
3.053606875652091
 40
3.053606875652091
 40
3.053606875652091
 40
3.053606875652091
 10
192.7889485083
 20
344.1008245864
 30
0.0
 10
192.5278639050709
 20
344.5376874241217
 30
0.0
 10
192.0056946972305
 20
345.4114131018778
 30
0.0
 10
191.4831627689378
 20
346.2849219029218
 30
0.0
 10
191.2218968041
 20
346.7216763046
 30
0.0
 11
192.7889485083
 21
344.1008245864
 31
0.0
 11
192.0056040185
 21
345.4113588803875
 31
0.0
 11
191.2218968041
 21
346.7216763046
 31
0.0
  0
SPLINE
  5
139
330
1F
100
AcDbEntity
  8
AUSFORMSCHRAEGEN
  6
Continuous
 62
     7
100
AcDbSpline
210
0.0
220
0.0
230
1.0
 70
     8
 71
     3
 72
    11
 73
     7
 74
     5
 42
0.0000000001
 43
0.0000000001
 44
0.00000001
 40
0.0
 40
0.0
 40
0.0
 40
0.0
 40
0.1626999568328707
 40
0.3254238111868473
 40
0.8155914044335083
 40
1.305705661702267
 40
1.305705661702267
 40
1.305705661702267
 40
1.305705661702267
 10
192.896212584741
 20
342.800824585474
 30
0.0
 10
192.8958910205243
 20
342.8550599030455
 30
0.0
 10
192.8952478448593
 20
342.9635385043223
 30
0.0
 10
192.8863906986192
 20
343.235264481651
 30
0.0
 10
192.8602352326211
 20
343.6157592629799
 30
0.0
 10
192.8127098878077
 20
343.9391420102178
 30
0.0
 10
192.7889485083
 20
344.1008245864
 30
0.0
 11
192.896212584741
 21
342.800824585474
 31
0.0
 11
192.8945252840983
 21
342.9635157928884
 31
0.0
 11
192.8894590437485
 21
343.1261607620222
 31
0.0
 11
192.8539599548997
 21
343.6150412015574
 31
0.0
 11
192.7889485083
 21
344.1008245864
 31
0.0
  0
SPLINE
  5
13A
330
1F
100
AcDbEntity
  8
AUSFORMSCHRAEGEN
  6
Continuous
 62
     7
100
AcDbSpline
210
0.0
220
0.0
230
1.0
 70
     8
 71
     3
 72
    19
 73
    15
 74
    13
 42
0.0000000001
 43
0.0000000001
 44
0.00000001
 40
0.0
 40
0.0
 40
0.0
 40
0.0
 40
0.5791534981008294
 40
1.158637828851399
 40
1.43503875152847
 40
1.711252748943591
 40
1.971774577748422
 40
2.232434004542235
 40
2.472928337623899
 40
2.713014540793078
 40
2.928854803785312
 40
3.145970208497205
 40
3.505826345031542
 40
3.860862038638431
 40
3.860862038638431
 40
3.860862038638431
 40
3.860862038638431
 10
183.7962421675
 20
343.4620833774
 30
0.0
 10
183.6031016645936
 20
343.4680913182154
 30
0.0
 10
183.2167103301986
 20
343.4801106317913
 30
0.0
 10
182.743732995272
 20
343.5620229133725
 30
0.0
 10
182.3780427144718
 20
343.655458641489
 30
0.0
 10
182.1197505544747
 20
343.7382616683449
 30
0.0
 10
181.8717843905964
 20
343.8344039146132
 30
0.0
 10
181.6412360267899
 20
343.9411928242304
 30
0.0
 10
181.4242688905566
 20
344.0598202869439
 30
0.0
 10
181.2289291864517
 20
344.1855510698152
 30
0.0
 10
181.0495328857143
 20
344.3209301798382
 30
0.0
 10
180.8544255501423
 20
344.4987832981893
 30
0.0
 10
180.6453483215809
 20
344.7347397623073
 30
0.0
 10
180.5546177564015
 20
344.9567756564556
 30
0.0
 10
180.5095583673
 20
345.0670450208
 30
0.0
 11
183.7962421675
 21
343.4620833774
 31
0.0
 11
183.2179483996355
 21
343.4936284627776
 31
0.0
 11
182.6464177663045
 21
343.5893093111735
 31
0.0
 11
182.3787247940824
 21
343.6581420263575
 31
0.0
 11
182.1157153218079
 21
343.7425232438288
 31
0.0
 11
181.8729060321124
 21
343.8369439625372
 31
0.0
 11
181.6364850154505
 21
343.94670934714
 31
0.0
 11
181.425619789203
 21
344.0623526807308
 31
0.0
 11
181.2238914925834
 21
344.1925336290111
 31
0.0
 11
181.052073249863
 21
344.3231686572271
 31
0.0
 11
180.8913316358782
 21
344.4691180748238
 31
0.0
 11
180.6619128230889
 21
344.7463606533353
 31
0.0
 11
180.5095583673
 21
345.0670450208
 31
0.0
  0
SPLINE
  5
13B
330
1F
100
AcDbEntity
  8
AUSFORMSCHRAEGEN
  6
Continuous
 62
     7
100
AcDbSpline
210
0.0
220
0.0
230
1.0
 70
     8
 71
     3
 72
     9
 73
     5
 74
     3
 42
0.0000000001
 43
0.0000000001
 44
0.00000001
 40
0.0
 40
0.0
 40
0.0
 40
0.0
 40
1.255207870909983
 40
2.510415749888269
 40
2.510415749888269
 40
2.510415749888269
 40
2.510415749888269
 10
192.7889485083
 20
312.7507049694
 30
0.0
 10
192.5278483591468
 20
312.4237684729415
 30
0.0
 10
192.0056480591621
 20
311.769895477923
 30
0.0
 10
191.4831472230138
 20
311.1162626122078
 30
0.0
 10
191.2218968041
 20
310.7894461783
 30
0.0
 11
192.7889485083
 21
312.7507049694
 31
0.0
 11
192.0055729268
 21
311.76995551235
 31
0.0
 11
191.2218968041
 21
310.7894461783
 31
0.0
  0
SPLINE
  5
13C
330
1F
100
AcDbEntity
  8
AUSFORMSCHRAEGEN
  6
Continuous
 62
     7
100
AcDbSpline
210
0.0
220
0.0
230
1.0
 70
     8
 71
     3
 72
     9
 73
     5
 74
     3
 42
0.0000000001
 43
0.0000000001
 44
0.00000001
 40
0.0
 40
0.0
 40
0.0
 40
0.0
 40
1.255207878968883
 40
2.510415749812689
 40
2.510415749812689
 40
2.510415749812689
 40
2.510415749812689
 10
191.2218968041
 20
343.4620833774
 30
0.0
 10
191.4831472230115
 20
343.1352669434943
 30
0.0
 10
192.0056480591434
 20
342.4816340777984
 30
0.0
 10
192.5278483591238
 20
341.8277610828087
 30
0.0
 10
192.788948508269
 20
341.500824586372
 30
0.0
 11
191.2218968041
 21
343.4620833774
 31
0.0
 11
192.0055729267961
 21
342.481574043359
 31
0.0
 11
192.788948508269
 21
341.500824586372
 31
0.0
  0
SPLINE
  5
13D
330
1F
100
AcDbEntity
  8
AUSFORMSCHRAEGEN
  6
Continuous
 62
     7
100
AcDbSpline
210
0.0
220
0.0
230
1.0
 70
     8
 71
     3
 72
    19
 73
    15
 74
    13
 42
0.0000000001
 43
0.0000000001
 44
0.00000001
 40
0.0
 40
0.0
 40
0.0
 40
0.0
 40
0.3549403078066404
 40
0.7147083041644486
 40
0.9318862707813476
 40
1.147786043428693
 40
1.387981193558711
 40
1.628586969792945
 40
1.889363961874176
 40
2.150000538638066
 40
2.426375876664013
 40
2.702940928298438
 40
3.282820023724625
 40
3.862364202804277
 40
3.862364202804277
 40
3.862364202804277
 40
3.862364202804277
 10
182.4591461133
 20
309.1829981817
 30
0.0
 10
182.504041944479
 20
309.293301431074
 30
0.0
 10
182.5944442534313
 20
309.5154082095099
 30
0.0
 10
182.8032645451454
 20
309.7515530349138
 30
0.0
 10
182.9982501406939
 20
309.929556819471
 30
0.0
 10
183.1776383178611
 20
310.0650770957577
 30
0.0
 10
183.3730097378545
 20
310.1909319920397
 30
0.0
 10
183.5900345087214
 20
310.3096883206864
 30
0.0
 10
183.8206380040421
 20
310.4166299924609
 30
0.0
 10
184.068687485339
 20
310.5129227009387
 30
0.0
 10
184.3271031075799
 20
310.5958251480876
 30
0.0
 10
184.6930159618767
 20
310.6893595731549
 30
0.0
 10
185.1662970671825
 20
310.7713859813903
 30
0.0
 10
185.552950539695
 20
310.7834272720976
 30
0.0
 10
185.7462214307
 20
310.7894461783
 30
0.0
 11
182.4591461133
 21
309.1829981817
 31
0.0
 11
182.6110368218372
 21
309.5037969266569
 31
0.0
 11
182.840117997338
 21
309.7812042557499
 31
0.0
 11
183.000798296708
 21
309.9273141821006
 31
0.0
 11
183.1725939371822
 21
310.0580772110623
 31
0.0
 11
183.3743620004389
 21
310.1883974274357
 31
0.0
 11
183.5852823856063
 21
310.3041719094174
 31
0.0
 11
183.8217629631495
 21
310.4140881322589
 31
0.0
 11
184.0646424982685
 21
310.5086447637959
 31
0.0
 11
184.3277862859919
 21
310.5931354405095
 31
0.0
 11
184.5956294667286
 21
310.6620430476252
 31
0.0
 11
185.1675391622608
 21
310.7578504871511
 31
0.0
 11
185.7462214307
 21
310.7894461783
 31
0.0
  0
DIMENSION
  5
148
330
1F
100
AcDbEntity
  8
1
100
AcDbDimension
  2
*D2
 10
180.8962125847
 20
381.565167988944
 30
0.0
 11
138.338647540752
 21
385.315167988944
 31
0.0
 70
    32
  1
<>
 71
     5
 42
-1.0
 53
0.00013888888889
  3
ME10_DIM_10
100
AcDbAlignedDimension
 13
92.9962125847
 23
340.5717514024
 33
0.0
 14
180.8962125847
 24
343.1257647779
 34
0.0
100
AcDbRotatedDimension
  0
DIMENSION
  5
153
330
1F
100
AcDbEntity
  8
1
100
AcDbDimension
  2
*D3
 10
112.8962125847
 20
374.633634309424
 30
0.0
 11
151.55477175637
 21
378.383634309424
 31
0.0
 70
    32
  1
<>
 71
     5
 42
-1.0
 53
0.00013888888889
  3
ME10_DIM_11
100
AcDbAlignedDimension
 13
192.8962125847
 23
345.2255597991
 33
0.0
 14
112.8962125847
 24
347.1257647779
 34
0.0
100
AcDbRotatedDimension
  0
DIMENSION
  5
15E
330
1F
100
AcDbEntity
  8
1
100
AcDbDimension
  2
*D4
 10
180.8962125847
 20
367.055157486483
 30
0.0
 11
145.547442567453
 21
370.805157486483
 31
0.0
 70
    32
  1
<>
 71
     5
 42
-1.0
 53
0.00013888888889
  3
ME10_DIM_12
100
AcDbAlignedDimension
 13
112.8962125847
 23
347.1257647779
 33
0.0
 14
180.8962125847
 24
343.1257647779
 34
0.0
100
AcDbRotatedDimension
  0
DIMENSION
  5
169
330
1F
100
AcDbEntity
  8
1
100
AcDbDimension
  2
*D5
 10
180.8962125847
 20
358.829737520119
 30
0.0
 11
155.528851065961
 21
362.579737520119
 31
0.0
 70
    32
  1
<>
 71
     5
 42
-1.0
 53
0.00013888888889
  3
ME10_DIM_13
100
AcDbAlignedDimension
 13
132.8462125847
 23
347.125722439
 33
0.0
 14
180.8962125847
 24
343.1257647779
 34
0.0
100
AcDbRotatedDimension
  0
DIMENSION
  5
174
330
1F
100
AcDbEntity
  8
1
100
AcDbDimension
  2
*D6
 10
213.846154422987
 20
348.1257647779
 30
0.0
 11
210.096154422987
 21
327.591625737751
 31
0.0
 70
    32
  1
<>
 71
     5
 42
-1.0
 53
90.0
  3
ME10_DIM_14
100
AcDbAlignedDimension
 13
191.2218968041
 23
306.1257647779
 33
0.0
 14
191.2218968041
 24
348.1257647779
 34
0.0
 50
90.0
100
AcDbRotatedDimension
  0
DIMENSION
  5
17F
330
1F
100
AcDbEntity
  8
1
100
AcDbDimension
  2
*D7
 10
205.066211762262
 20
339.6257647779
 30
0.0
 11
201.316211762262
 21
327.129523492449
 31
0.0
 70
    32
  1
<>
 71
     5
 42
-1.0
 53
90.0
  3
ME10_DIM_15
100
AcDbAlignedDimension
 13
180.8962125847
 23
314.6257647779
 33
0.0
 14
180.8962125847
 24
339.6257647779
 34
0.0
 50
90.0
100
AcDbRotatedDimension
  0
INSERT
  5
186
330
1F
100
AcDbEntity
  8
1
100
AcDbBlockReference
  2
*D8
 10
0.0
 20
0.0
 30
0.0
  0
ENDSEC
  0
SECTION
  2
OBJECTS
  0
DICTIONARY
  5
C
330
0
100
AcDbDictionary
281
     1
  3
ACAD_GROUP
350
D
  3
ACAD_LAYOUT
350
1A
  3
ACAD_MLEADERSTYLE
350
189
  3
ACAD_MLINESTYLE
350
17
  3
ACAD_PLOTSETTINGS
350
19
  3
ACAD_PLOTSTYLENAME
350
E
  3
ACAD_SCALELIST
350
4D
  3
ACAD_VISUALSTYLE
350
2A
  3
AcDbVariableDictionary
350
187
  0
DICTIONARY
  5
D
102
{ACAD_REACTORS
330
C
102
}
330
C
100
AcDbDictionary
281
     1
  0
DICTIONARY
  5
1A
102
{ACAD_REACTORS
330
C
102
}
330
C
100
AcDbDictionary
281
     1
  3
Layout1
350
1E
  3
Layout2
350
26
  3
Model
350
22
  0
DICTIONARY
  5
189
102
{ACAD_REACTORS
330
C
102
}
330
C
100
AcDbDictionary
281
     1
  0
DICTIONARY
  5
17
102
{ACAD_REACTORS
330
C
102
}
330
C
100
AcDbDictionary
281
     1
  3
Standard
350
18
  0
DICTIONARY
  5
19
102
{ACAD_REACTORS
330
C
102
}
330
C
100
AcDbDictionary
281
     1
  0
ACDBDICTIONARYWDFLT
  5
E
102
{ACAD_REACTORS
330
C
102
}
330
C
100
AcDbDictionary
281
     1
  3
Normal
350
F
100
AcDbDictionaryWithDefault
340
F
  0
DICTIONARY
  5
4D
102
{ACAD_REACTORS
330
C
102
}
330
C
100
AcDbDictionary
281
     1
  3
A0
350
4E
  3
A1
350
4F
  3
A2
350
50
  3
A3
350
51
  3
A4
350
52
  3
A5
350
53
  3
A6
350
54
  3
A7
350
55
  3
A8
350
56
  3
A9
350
57
  3
B0
350
58
  3
B1
350
59
  3
B2
350
5A
  3
B3
350
5B
  3
B4
350
5C
  3
B5
350
5D
  3
B6
350
5E
  3
B7
350
5F
  3
B8
350
60
  3
B9
350
61
  3
C0
350
62
  3
C1
350
63
  3
C2
350
64
  3
C3
350
65
  3
C4
350
66
  3
C5
350
67
  3
C6
350
68
  3
C7
350
69
  3
C8
350
6A
  3
C9
350
6B
  3
D0
350
6C
  3
D1
350
6D
  3
D2
350
6E
  0
DICTIONARY
  5
2A
102
{ACAD_REACTORS
330
C
102
}
330
C
100
AcDbDictionary
281
     1
  3
2dWireframe
350
2F
  3
3D Hidden
350
31
  3
3dWireframe
350
30
  3
Basic
350
32
  3
Brighten
350
36
  3
ColorChange
350
3A
  3
Conceptual
350
34
  3
Dim
350
35
  3
Facepattern
350
39
  3
Flat
350
2B
  3
FlatWithEdges
350
2C
  3
Gouraud
350
2D
  3
GouraudWithEdges
350
2E
  3
Linepattern
350
38
  3
Realistic
350
33
  3
Thicken
350
37
  0
DICTIONARY
  5
187
102
{ACAD_REACTORS
330
C
102
}
330
C
100
AcDbDictionary
281
     1
  3
CANNOSCALE
350
18A
  0
LAYOUT
  5
1E
102
{ACAD_REACTORS
330
1A
102
}
330
1A
100
AcDbPlotSettings
  1

  2
none_device
  4

  6

 40
0.0
 41
0.0
 42
0.0
 43
0.0
 44
0.0
 45
0.0
 46
0.0
 47
0.0
 48
0.0
 49
0.0
140
0.0
141
0.0
142
1.0
143
1.0
 70
   688
 72
     0
 73
     0
 74
     5
  7

 75
    16
147
1.0
148
0.0
149
0.0
100
AcDbLayout
  1
Layout1
 70
     1
 71
     1
 10
0.0
 20
0.0
 11
12.0
 21
9.0
 12
0.0
 22
0.0
 32
0.0
 14
1.00000000000000E+20
 24
1.00000000000000E+20
 34
1.00000000000000E+20
 15
-1.00000000000000E+20
 25
-1.00000000000000E+20
 35
-1.00000000000000E+20
146
0.0
 13
0.0
 23
0.0
 33
0.0
 16
1.0
 26
0.0
 36
0.0
 17
0.0
 27
1.0
 37
0.0
 76
     0
330
1B
  0
LAYOUT
  5
26
102
{ACAD_REACTORS
330
1A
102
}
330
1A
100
AcDbPlotSettings
  1

  2
none_device
  4

  6

 40
0.0
 41
0.0
 42
0.0
 43
0.0
 44
0.0
 45
0.0
 46
0.0
 47
0.0
 48
0.0
 49
0.0
140
0.0
141
0.0
142
1.0
143
1.0
 70
   688
 72
     0
 73
     0
 74
     5
  7

 75
    16
147
1.0
148
0.0
149
0.0
100
AcDbLayout
  1
Layout2
 70
     1
 71
     2
 10
0.0
 20
0.0
 11
0.0
 21
0.0
 12
0.0
 22
0.0
 32
0.0
 14
0.0
 24
0.0
 34
0.0
 15
0.0
 25
0.0
 35
0.0
146
0.0
 13
0.0
 23
0.0
 33
0.0
 16
1.0
 26
0.0
 36
0.0
 17
0.0
 27
1.0
 37
0.0
 76
     0
330
23
  0
LAYOUT
  5
22
102
{ACAD_REACTORS
330
1A
102
}
330
1A
100
AcDbPlotSettings
  1

  2
none_device
  4

  6

 40
0.0
 41
0.0
 42
0.0
 43
0.0
 44
0.0
 45
0.0
 46
0.0
 47
0.0
 48
0.0
 49
0.0
140
0.0
141
0.0
142
1.0
143
1.0
 70
  1712
 72
     0
 73
     0
 74
     0
  7

 75
     0
147
1.0
148
0.0
149
0.0
100
AcDbLayout
  1
Model
 70
     1
 71
     0
 10
0.0
 20
0.0
 11
12.0
 21
9.0
 12
0.0
 22
0.0
 32
0.0
 14
89.8712125847
 24
288.4680654211527
 34
0.0
 15
215.846154422987
 25
387.065167988944
 35
0.0
146
0.0
 13
0.0
 23
0.0
 33
0.0
 16
1.0
 26
0.0
 36
0.0
 17
0.0
 27
1.0
 37
0.0
 76
     0
330
1F
331
29
  0
MLINESTYLE
  5
18
102
{ACAD_REACTORS
330
17
102
}
330
17
100
AcDbMlineStyle
  2
Standard
 70
     0
  3

 62
   256
 51
90.0
 52
90.0
 71
     2
 49
0.5
 62
   256
  6
BYLAYER
 49
-0.5
 62
   256
  6
BYLAYER
  0
ACDBPLACEHOLDER
  5
F
102
{ACAD_REACTORS
330
E
102
}
330
E
  0
SCALE
  5
4E
102
{ACAD_REACTORS
330
4D
102
}
330
4D
100
AcDbScale
 70
     0
300
1:1
140
1.0
141
1.0
290
     1
  0
SCALE
  5
4F
102
{ACAD_REACTORS
330
4D
102
}
330
4D
100
AcDbScale
 70
     0
300
1:2
140
1.0
141
2.0
290
     0
  0
SCALE
  5
50
102
{ACAD_REACTORS
330
4D
102
}
330
4D
100
AcDbScale
 70
     0
300
1:4
140
1.0
141
4.0
290
     0
  0
SCALE
  5
51
102
{ACAD_REACTORS
330
4D
102
}
330
4D
100
AcDbScale
 70
     0
300
1:5
140
1.0
141
5.0
290
     0
  0
SCALE
  5
52
102
{ACAD_REACTORS
330
4D
102
}
330
4D
100
AcDbScale
 70
     0
300
1:8
140
1.0
141
8.0
290
     0
  0
SCALE
  5
53
102
{ACAD_REACTORS
330
4D
102
}
330
4D
100
AcDbScale
 70
     0
300
1:10
140
1.0
141
10.0
290
     0
  0
SCALE
  5
54
102
{ACAD_REACTORS
330
4D
102
}
330
4D
100
AcDbScale
 70
     0
300
1:16
140
1.0
141
16.0
290
     0
  0
SCALE
  5
55
102
{ACAD_REACTORS
330
4D
102
}
330
4D
100
AcDbScale
 70
     0
300
1:20
140
1.0
141
20.0
290
     0
  0
SCALE
  5
56
102
{ACAD_REACTORS
330
4D
102
}
330
4D
100
AcDbScale
 70
     0
300
1:30
140
1.0
141
30.0
290
     0
  0
SCALE
  5
57
102
{ACAD_REACTORS
330
4D
102
}
330
4D
100
AcDbScale
 70
     0
300
1:40
140
1.0
141
40.0
290
     0
  0
SCALE
  5
58
102
{ACAD_REACTORS
330
4D
102
}
330
4D
100
AcDbScale
 70
     0
300
1:50
140
1.0
141
50.0
290
     0
  0
SCALE
  5
59
102
{ACAD_REACTORS
330
4D
102
}
330
4D
100
AcDbScale
 70
     0
300
1:100
140
1.0
141
100.0
290
     0
  0
SCALE
  5
5A
102
{ACAD_REACTORS
330
4D
102
}
330
4D
100
AcDbScale
 70
     0
300
2:1
140
2.0
141
1.0
290
     0
  0
SCALE
  5
5B
102
{ACAD_REACTORS
330
4D
102
}
330
4D
100
AcDbScale
 70
     0
300
4:1
140
4.0
141
1.0
290
     0
  0
SCALE
  5
5C
102
{ACAD_REACTORS
330
4D
102
}
330
4D
100
AcDbScale
 70
     0
300
8:1
140
8.0
141
1.0
290
     0
  0
SCALE
  5
5D
102
{ACAD_REACTORS
330
4D
102
}
330
4D
100
AcDbScale
 70
     0
300
10:1
140
10.0
141
1.0
290
     0
  0
SCALE
  5
5E
102
{ACAD_REACTORS
330
4D
102
}
330
4D
100
AcDbScale
 70
     0
300
100:1
140
100.0
141
1.0
290
     0
  0
SCALE
  5
5F
102
{ACAD_REACTORS
330
4D
102
}
330
4D
100
AcDbScale
 70
     0
300
1/128" = 1'-0"
140
0.0078125
141
12.0
290
     0
  0
SCALE
  5
60
102
{ACAD_REACTORS
330
4D
102
}
330
4D
100
AcDbScale
 70
     0
300
1/64" = 1'-0"
140
0.015625
141
12.0
290
     0
  0
SCALE
  5
61
102
{ACAD_REACTORS
330
4D
102
}
330
4D
100
AcDbScale
 70
     0
300
1/32" = 1'-0"
140
0.03125
141
12.0
290
     0
  0
SCALE
  5
62
102
{ACAD_REACTORS
330
4D
102
}
330
4D
100
AcDbScale
 70
     0
300
1/16" = 1'-0"
140
0.0625
141
12.0
290
     0
  0
SCALE
  5
63
102
{ACAD_REACTORS
330
4D
102
}
330
4D
100
AcDbScale
 70
     0
300
3/32" = 1'-0"
140
0.09375
141
12.0
290
     0
  0
SCALE
  5
64
102
{ACAD_REACTORS
330
4D
102
}
330
4D
100
AcDbScale
 70
     0
300
1/8" = 1'-0"
140
0.125
141
12.0
290
     0
  0
SCALE
  5
65
102
{ACAD_REACTORS
330
4D
102
}
330
4D
100
AcDbScale
 70
     0
300
3/16" = 1'-0"
140
0.1875
141
12.0
290
     0
  0
SCALE
  5
66
102
{ACAD_REACTORS
330
4D
102
}
330
4D
100
AcDbScale
 70
     0
300
1/4" = 1'-0"
140
0.25
141
12.0
290
     0
  0
SCALE
  5
67
102
{ACAD_REACTORS
330
4D
102
}
330
4D
100
AcDbScale
 70
     0
300
3/8" = 1'-0"
140
0.375
141
12.0
290
     0
  0
SCALE
  5
68
102
{ACAD_REACTORS
330
4D
102
}
330
4D
100
AcDbScale
 70
     0
300
1/2" = 1'-0"
140
0.5
141
12.0
290
     0
  0
SCALE
  5
69
102
{ACAD_REACTORS
330
4D
102
}
330
4D
100
AcDbScale
 70
     0
300
3/4" = 1'-0"
140
0.75
141
12.0
290
     0
  0
SCALE
  5
6A
102
{ACAD_REACTORS
330
4D
102
}
330
4D
100
AcDbScale
 70
     0
300
1" = 1'-0"
140
1.0
141
12.0
290
     0
  0
SCALE
  5
6B
102
{ACAD_REACTORS
330
4D
102
}
330
4D
100
AcDbScale
 70
     0
300
1-1/2" = 1'-0"
140
1.5
141
12.0
290
     0
  0
SCALE
  5
6C
102
{ACAD_REACTORS
330
4D
102
}
330
4D
100
AcDbScale
 70
     0
300
3" = 1'-0"
140
3.0
141
12.0
290
     0
  0
SCALE
  5
6D
102
{ACAD_REACTORS
330
4D
102
}
330
4D
100
AcDbScale
 70
     0
300
6" = 1'-0"
140
6.0
141
12.0
290
     0
  0
SCALE
  5
6E
102
{ACAD_REACTORS
330
4D
102
}
330
4D
100
AcDbScale
 70
     0
300
1'-0" = 1'-0"
140
12.0
141
12.0
290
     0
  0
VISUALSTYLE
  5
2F
102
{ACAD_REACTORS
330
2A
102
}
330
2A
100
AcDbVisualStyle
  2
2dWireframe
 70
     4
 71
     0
 72
     2
 73
     0
 90
        0
 40
-0.6
 41
-30.0
 62
     5
 63
     7
 74
     1
 91
        4
 64
     7
 65
   257
 75
     1
175
     1
 42
1.0
 92
        0
 66
   257
 43
1.0
 76
     1
 77
     6
 78
     2
 67
     7
 79
     5
170
     0
171
     0
290
     0
174
     0
 93
        1
 44
0.0
173
     0
291
     0
 45
0.0
1001
ACAD
1000
AcDbSavedByObjectVersion
1070
     0
  0
VISUALSTYLE
  5
31
102
{ACAD_REACTORS
330
2A
102
}
330
2A
100
AcDbVisualStyle
  2
3D Hidden
 70
     6
 71
     1
 72
     2
 73
     2
 90
        0
 40
-0.6
 41
-30.0
 62
     5
 63
     7
 74
     2
 91
        2
 64
     7
 65
   257
 75
     2
175
     1
 42
40.0
 92
        0
 66
   257
 43
1.0
 76
     1
 77
     6
 78
     2
 67
     7
 79
     3
170
     0
171
     0
290
     0
174
     0
 93
        1
 44
0.0
173
     0
291
     0
 45
0.0
1001
ACAD
1000
AcDbSavedByObjectVersion
1070
     0
  0
VISUALSTYLE
  5
30
102
{ACAD_REACTORS
330
2A
102
}
330
2A
100
AcDbVisualStyle
  2
3dWireframe
 70
     5
 71
     0
 72
     2
 73
     0
 90
        0
 40
-0.6
 41
-30.0
 62
     5
 63
     7
 74
     1
 91
        4
 64
     7
 65
   257
 75
     1
175
     1
 42
1.0
 92
        0
 66
   257
 43
1.0
 76
     1
 77
     6
 78
     2
 67
     7
 79
     5
170
     0
171
     0
290
     0
174
     0
 93
        1
 44
0.0
173
     0
291
     0
 45
0.0
1001
ACAD
1000
AcDbSavedByObjectVersion
1070
     0
  0
VISUALSTYLE
  5
32
102
{ACAD_REACTORS
330
2A
102
}
330
2A
100
AcDbVisualStyle
  2
Basic
 70
     7
 71
     1
 72
     0
 73
     1
 90
        0
 40
-0.6
 41
-30.0
 62
     5
 63
     7
 74
     0
 91
        4
 64
     7
 65
   257
 75
     1
175
     1
 42
1.0
 92
        8
 66
     7
 43
1.0
 76
     1
 77
     6
 78
     2
 67
     7
 79
     5
170
     0
171
     0
290
     0
174
     0
 93
        1
 44
0.0
173
     0
291
     1
 45
0.0
1001
ACAD
1000
AcDbSavedByObjectVersion
1070
     0
  0
VISUALSTYLE
  5
36
102
{ACAD_REACTORS
330
2A
102
}
330
2A
100
AcDbVisualStyle
  2
Brighten
 70
    12
 71
     2
 72
     2
 73
     0
 90
        0
 40
-0.6
 41
-30.0
 62
     5
 63
     7
 74
     1
 91
        4
 64
     7
 65
   257
 75
     1
175
     1
 42
1.0
 92
        8
 66
     7
 43
1.0
 76
     1
 77
     6
 78
     2
 67
     7
 79
     5
170
     0
171
     0
290
     0
174
     0
 93
        1
 44
50.0
173
     0
291
     1
 45
0.0
1001
ACAD
1000
AcDbSavedByObjectVersion
1070
     0
  0
VISUALSTYLE
  5
3A
102
{ACAD_REACTORS
330
2A
102
}
330
2A
100
AcDbVisualStyle
  2
ColorChange
 70
    16
 71
     2
 72
     2
 73
     3
 90
        0
 40
-0.6
 41
-30.0
 62
     5
 63
     8
 74
     1
 91
        4
 64
     7
 65
   257
 75
     1
175
     1
 42
1.0
 92
        8
 66
     8
 43
1.0
 76
     1
 77
     6
 78
     2
 67
     7
 79
     5
170
     0
171
     0
290
     0
174
     0
 93
        1
 44
0.0
173
     0
291
     1
 45
0.0
1001
ACAD
1000
AcDbSavedByObjectVersion
1070
     0
  0
VISUALSTYLE
  5
34
102
{ACAD_REACTORS
330
2A
102
}
330
2A
100
AcDbVisualStyle
  2
Conceptual
 70
     9
 71
     3
 72
     2
 73
     0
 90
        0
 40
-0.6
 41
-30.0
 62
     5
 63
     7
 74
     2
 91
        2
 64
     7
 65
   257
 75
     1
175
     1
 42
40.0
 92
        8
 66
     7
 43
1.0
 76
     1
 77
     6
 78
     2
 67
     7
 79
     3
170
     0
171
     0
290
     0
174
     0
 93
        1
 44
0.0
173
     0
291
     0
 45
0.0
1001
ACAD
1000
AcDbSavedByObjectVersion
1070
     0
  0
VISUALSTYLE
  5
35
102
{ACAD_REACTORS
330
2A
102
}
330
2A
100
AcDbVisualStyle
  2
Dim
 70
    11
 71
     2
 72
     2
 73
     0
 90
        0
 40
-0.6
 41
-30.0
 62
     5
 63
     7
 74
     1
 91
        4
 64
     7
 65
   257
 75
     1
175
     1
 42
1.0
 92
        8
 66
     7
 43
1.0
 76
     1
 77
     6
 78
     2
 67
     7
 79
     5
170
     0
171
     0
290
     0
174
     0
 93
        1
 44
-50.0
173
     0
291
     1
 45
0.0
1001
ACAD
1000
AcDbSavedByObjectVersion
1070
     0
  0
VISUALSTYLE
  5
39
102
{ACAD_REACTORS
330
2A
102
}
330
2A
100
AcDbVisualStyle
  2
Facepattern
 70
    15
 71
     2
 72
     2
 73
     0
 90
        0
 40
-0.6
 41
-30.0
 62
     5
 63
     7
 74
     1
 91
        4
 64
     7
 65
   257
 75
     1
175
     1
 42
1.0
 92
        8
 66
     7
 43
1.0
 76
     1
 77
     6
 78
     2
 67
     7
 79
     5
170
     0
171
     0
290
     0
174
     0
 93
        1
 44
0.0
173
     0
291
     1
 45
0.0
1001
ACAD
1000
AcDbSavedByObjectVersion
1070
     0
  0
VISUALSTYLE
  5
2B
102
{ACAD_REACTORS
330
2A
102
}
330
2A
100
AcDbVisualStyle
  2
Flat
 70
     0
 71
     2
 72
     1
 73
     1
 90
        2
 40
-0.6
 41
30.0
 62
     5
 63
     7
 74
     0
 91
        4
 64
     7
 65
   257
 75
     1
175
     1
 42
1.0
 92
        8
 66
     7
 43
1.0
 76
     1
 77
     6
 78
     2
 67
     7
 79
     5
170
     0
171
     0
290
     0
174
     0
 93
       13
 44
0.0
173
     0
291
     1
 45
0.0
1001
ACAD
1000
AcDbSavedByObjectVersion
1070
     0
  0
VISUALSTYLE
  5
2C
102
{ACAD_REACTORS
330
2A
102
}
330
2A
100
AcDbVisualStyle
  2
FlatWithEdges
 70
     1
 71
     2
 72
     1
 73
     1
 90
        2
 40
-0.6
 41
30.0
 62
     5
 63
     7
 74
     1
 91
        4
 64
     7
 65
   257
 75
     1
175
     1
 42
1.0
 92
        0
 66
   257
 43
1.0
 76
     1
 77
     6
 78
     2
 67
     7
 79
     5
170
     0
171
     0
290
     0
174
     0
 93
       13
 44
0.0
173
     0
291
     1
 45
0.0
1001
ACAD
1000
AcDbSavedByObjectVersion
1070
     0
  0
VISUALSTYLE
  5
2D
102
{ACAD_REACTORS
330
2A
102
}
330
2A
100
AcDbVisualStyle
  2
Gouraud
 70
     2
 71
     2
 72
     2
 73
     1
 90
        2
 40
-0.6
 41
30.0
 62
     5
 63
     7
 74
     0
 91
        4
 64
     7
 65
   257
 75
     1
175
     1
 42
1.0
 92
        0
 66
     7
 43
1.0
 76
     1
 77
     6
 78
     2
 67
     7
 79
     5
170
     0
171
     0
290
     0
174
     0
 93
       13
 44
0.0
173
     0
291
     1
 45
0.0
1001
ACAD
1000
AcDbSavedByObjectVersion
1070
     0
  0
VISUALSTYLE
  5
2E
102
{ACAD_REACTORS
330
2A
102
}
330
2A
100
AcDbVisualStyle
  2
GouraudWithEdges
 70
     3
 71
     2
 72
     2
 73
     1
 90
        2
 40
-0.6
 41
30.0
 62
     5
 63
     7
 74
     1
 91
        4
 64
     7
 65
   257
 75
     1
175
     1
 42
1.0
 92
        0
 66
   257
 43
1.0
 76
     1
 77
     6
 78
     2
 67
     7
 79
     5
170
     0
171
     0
290
     0
174
     0
 93
       13
 44
0.0
173
     0
291
     1
 45
0.0
1001
ACAD
1000
AcDbSavedByObjectVersion
1070
     0
  0
VISUALSTYLE
  5
38
102
{ACAD_REACTORS
330
2A
102
}
330
2A
100
AcDbVisualStyle
  2
Linepattern
 70
    14
 71
     2
 72
     2
 73
     0
 90
        0
 40
-0.6
 41
-30.0
 62
     5
 63
     7
 74
     1
 91
        4
 64
     7
 65
   257
 75
     7
175
     7
 42
1.0
 92
        8
 66
     7
 43
1.0
 76
     1
 77
     6
 78
     2
 67
     7
 79
     5
170
     0
171
     0
290
     0
174
     0
 93
        1
 44
0.0
173
     0
291
     1
 45
0.0
1001
ACAD
1000
AcDbSavedByObjectVersion
1070
     0
  0
VISUALSTYLE
  5
33
102
{ACAD_REACTORS
330
2A
102
}
330
2A
100
AcDbVisualStyle
  2
Realistic
 70
     8
 71
     2
 72
     2
 73
     0
 90
        0
 40
-0.6
 41
-30.0
 62
     5
 63
     7
 74
     1
 91
        0
 64
     7
 65
   257
 75
     1
175
     1
 42
1.0
 92
        8
 66
     8
 43
1.0
 76
     1
 77
     6
 78
     2
 67
     7
 79
     5
170
     0
171
     0
290
     0
174
     0
 93
       13
 44
0.0
173
     0
291
     0
 45
0.0
1001
ACAD
1000
AcDbSavedByObjectVersion
1070
     0
  0
VISUALSTYLE
  5
37
102
{ACAD_REACTORS
330
2A
102
}
330
2A
100
AcDbVisualStyle
  2
Thicken
 70
    13
 71
     2
 72
     2
 73
     0
 90
        0
 40
-0.6
 41
-30.0
 62
     5
 63
     7
 74
     1
 91
        4
 64
     7
 65
   257
 75
     1
175
     1
 42
1.0
 92
       12
 66
     7
 43
1.0
 76
     1
 77
     6
 78
     2
 67
     7
 79
     5
170
     0
171
     0
290
     0
174
     0
 93
        1
 44
0.0
173
     0
291
     1
 45
0.0
1001
ACAD
1000
AcDbSavedByObjectVersion
1070
     0
  0
DICTIONARYVAR
  5
18A
102
{ACAD_REACTORS
330
187
102
}
330
187
100
DictionaryVariables
280
     0
  1
1:1
  0
ENDSEC
  0
EOF
