  0
SECTION
  2
HEADER
  9
$ACADVER
  1
AC1015
  9
$ACADMAINTVER
 70
     6
  9
$DWGCODEPAGE
  3
ANSI_1252
  9
$INSBASE
 10
0.0
 20
0.0
 30
0.0
  9
$EXTMIN
 10
83.12264412215175
 20
278.1242221901627
 30
0.0
  9
$EXTMAX
 10
211.951059470334
 20
374.073612609514
 30
0.0
  9
$LIMMIN
 10
0.0
 20
0.0
  9
$LIMMAX
 10
12.0
 20
9.0
  9
$ORTHOMODE
 70
     0
  9
$REGENMODE
 70
     1
  9
$FILLMODE
 70
     1
  9
$QTEXTMODE
 70
     0
  9
$MIRRTEXT
 70
     1
  9
$LTSCALE
 40
1.0
  9
$ATTMODE
 70
     1
  9
$TEXTSIZE
 40
0.2
  9
$TRACEWID
 40
0.05
  9
$TEXTSTYLE
  7
Standard
  9
$CLAYER
  8
0
  9
$CELTYPE
  6
ByLayer
  9
$CECOLOR
 62
   256
  9
$CELTSCALE
 40
1.0
  9
$DISPSILH
 70
     0
  9
$DIMSCALE
 40
1.0
  9
$DIMASZ
 40
0.18
  9
$DIMEXO
 40
0.0625
  9
$DIMDLI
 40
0.38
  9
$DIMRND
 40
0.0
  9
$DIMDLE
 40
0.0
  9
$DIMEXE
 40
0.18
  9
$DIMTP
 40
0.0
  9
$DIMTM
 40
0.0
  9
$DIMTXT
 40
0.18
  9
$DIMCEN
 40
0.09
  9
$DIMTSZ
 40
0.0
  9
$DIMTOL
 70
     0
  9
$DIMLIM
 70
     0
  9
$DIMTIH
 70
     1
  9
$DIMTOH
 70
     1
  9
$DIMSE1
 70
     0
  9
$DIMSE2
 70
     0
  9
$DIMTAD
 70
     0
  9
$DIMZIN
 70
     0
  9
$DIMBLK
  1

  9
$DIMASO
 70
     1
  9
$DIMSHO
 70
     1
  9
$DIMPOST
  1

  9
$DIMAPOST
  1

  9
$DIMALT
 70
     0
  9
$DIMALTD
 70
     2
  9
$DIMALTF
 40
25.4
  9
$DIMLFAC
 40
1.0
  9
$DIMTOFL
 70
     0
  9
$DIMTVP
 40
0.0
  9
$DIMTIX
 70
     0
  9
$DIMSOXD
 70
     0
  9
$DIMSAH
 70
     0
  9
$DIMBLK1
  1

  9
$DIMBLK2
  1

  9
$DIMSTYLE
  2
Standard
  9
$DIMCLRD
 70
     0
  9
$DIMCLRE
 70
     0
  9
$DIMCLRT
 70
     0
  9
$DIMTFAC
 40
1.0
  9
$DIMGAP
 40
0.09
  9
$DIMJUST
 70
     0
  9
$DIMSD1
 70
     0
  9
$DIMSD2
 70
     0
  9
$DIMTOLJ
 70
     1
  9
$DIMTZIN
 70
     0
  9
$DIMALTZ
 70
     0
  9
$DIMALTTZ
 70
     0
  9
$DIMUPT
 70
     0
  9
$DIMDEC
 70
     4
  9
$DIMTDEC
 70
     4
  9
$DIMALTU
 70
     2
  9
$DIMALTTD
 70
     2
  9
$DIMTXSTY
  7
Standard
  9
$DIMAUNIT
 70
     0
  9
$DIMADEC
 70
     0
  9
$DIMALTRND
 40
0.0
  9
$DIMAZIN
 70
     0
  9
$DIMDSEP
 70
    46
  9
$DIMATFIT
 70
     3
  9
$DIMFRAC
 70
     0
  9
$DIMLDRBLK
  1

  9
$DIMLUNIT
 70
     2
  9
$DIMLWD
 70
    -2
  9
$DIMLWE
 70
    -2
  9
$DIMTMOVE
 70
     0
  9
$LUNITS
 70
     2
  9
$LUPREC
 70
     4
  9
$SKETCHINC
 40
0.1
  9
$FILLETRAD
 40
0.5
  9
$AUNITS
 70
     0
  9
$AUPREC
 70
     0
  9
$MENU
  1
.
  9
$ELEVATION
 40
0.0
  9
$PELEVATION
 40
0.0
  9
$THICKNESS
 40
0.0
  9
$LIMCHECK
 70
     0
  9
$CHAMFERA
 40
0.5
  9
$CHAMFERB
 40
0.5
  9
$CHAMFERC
 40
1.0
  9
$CHAMFERD
 40
0.0
  9
$SKPOLY
 70
     0
  9
$TDCREATE
 40
2456749.741703541
  9
$TDUCREATE
 40
2456749.658370208
  9
$TDUPDATE
 40
2456749.741703553
  9
$TDUUPDATE
 40
2456749.65837022
  9
$TDINDWG
 40
0.0000000116
  9
$TDUSRTIMER
 40
0.0000000116
  9
$USRTIMER
 70
     1
  9
$ANGBASE
 50
0.0
  9
$ANGDIR
 70
     0
  9
$PDMODE
 70
     0
  9
$PDSIZE
 40
0.0
  9
$PLINEWID
 40
0.0
  9
$SPLFRAME
 70
     0
  9
$SPLINETYPE
 70
     6
  9
$SPLINESEGS
 70
     8
  9
$HANDSEED
  5
1A2
  9
$SURFTAB1
 70
     6
  9
$SURFTAB2
 70
     6
  9
$SURFTYPE
 70
     6
  9
$SURFU
 70
     6
  9
$SURFV
 70
     6
  9
$UCSBASE
  2

  9
$UCSNAME
  2

  9
$UCSORG
 10
0.0
 20
0.0
 30
0.0
  9
$UCSXDIR
 10
1.0
 20
0.0
 30
0.0
  9
$UCSYDIR
 10
0.0
 20
1.0
 30
0.0
  9
$UCSORTHOREF
  2

  9
$UCSORTHOVIEW
 70
     0
  9
$UCSORGTOP
 10
0.0
 20
0.0
 30
0.0
  9
$UCSORGBOTTOM
 10
0.0
 20
0.0
 30
0.0
  9
$UCSORGLEFT
 10
0.0
 20
0.0
 30
0.0
  9
$UCSORGRIGHT
 10
0.0
 20
0.0
 30
0.0
  9
$UCSORGFRONT
 10
0.0
 20
0.0
 30
0.0
  9
$UCSORGBACK
 10
0.0
 20
0.0
 30
0.0
  9
$PUCSBASE
  2

  9
$PUCSNAME
  2

  9
$PUCSORG
 10
0.0
 20
0.0
 30
0.0
  9
$PUCSXDIR
 10
1.0
 20
0.0
 30
0.0
  9
$PUCSYDIR
 10
0.0
 20
1.0
 30
0.0
  9
$PUCSORTHOREF
  2

  9
$PUCSORTHOVIEW
 70
     0
  9
$PUCSORGTOP
 10
0.0
 20
0.0
 30
0.0
  9
$PUCSORGBOTTOM
 10
0.0
 20
0.0
 30
0.0
  9
$PUCSORGLEFT
 10
0.0
 20
0.0
 30
0.0
  9
$PUCSORGRIGHT
 10
0.0
 20
0.0
 30
0.0
  9
$PUCSORGFRONT
 10
0.0
 20
0.0
 30
0.0
  9
$PUCSORGBACK
 10
0.0
 20
0.0
 30
0.0
  9
$USERI1
 70
     0
  9
$USERI2
 70
     0
  9
$USERI3
 70
     0
  9
$USERI4
 70
     0
  9
$USERI5
 70
     0
  9
$USERR1
 40
16.5
  9
$USERR2
 40
0.0
  9
$USERR3
 40
0.0
  9
$USERR4
 40
0.0
  9
$USERR5
 40
0.0
  9
$WORLDVIEW
 70
     1
  9
$SHADEDGE
 70
     3
  9
$SHADEDIF
 70
    70
  9
$TILEMODE
 70
     1
  9
$MAXACTVP
 70
    64
  9
$PINSBASE
 10
0.0
 20
0.0
 30
0.0
  9
$PLIMCHECK
 70
     0
  9
$PEXTMIN
 10
1.00000000000000E+20
 20
1.00000000000000E+20
 30
1.00000000000000E+20
  9
$PEXTMAX
 10
-1.00000000000000E+20
 20
-1.00000000000000E+20
 30
-1.00000000000000E+20
  9
$PLIMMIN
 10
0.0
 20
0.0
  9
$PLIMMAX
 10
12.0
 20
9.0
  9
$UNITMODE
 70
     0
  9
$VISRETAIN
 70
     1
  9
$PLINEGEN
 70
     0
  9
$PSLTSCALE
 70
     1
  9
$TREEDEPTH
 70
  3020
  9
$CMLSTYLE
  2
Standard
  9
$CMLJUST
 70
     0
  9
$CMLSCALE
 40
1.0
  9
$PROXYGRAPHICS
 70
     1
  9
$MEASUREMENT
 70
     1
  9
$CELWEIGHT
370
    -1
  9
$ENDCAPS
280
     0
  9
$JOINSTYLE
280
     0
  9
$LWDISPLAY
290
     0
  9
$INSUNITS
 70
     1
  9
$HYPERLINKBASE
  1

  9
$STYLESHEET
  1

  9
$XEDIT
290
     1
  9
$CEPSNTYPE
380
     0
  9
$PSTYLEMODE
290
     1
  9
$FINGERPRINTGUID
  2
{7A953A9B-99DF-4C35-B100-BEFB58ABA990}
  9
$VERSIONGUID
  2
{FAEB1C32-E019-11D5-929B-00C0DF256EC4}
  9
$EXTNAMES
290
     1
  9
$PSVPSCALE
 40
0.0
  9
$OLESTARTUP
290
     0
  0
ENDSEC
  0
SECTION
  2
CLASSES
  0
CLASS
  1
ACDBDICTIONARYWDFLT
  2
AcDbDictionaryWithDefault
  3
ObjectDBX Classes
 90
        0
280
     0
281
     0
  0
CLASS
  1
VISUALSTYLE
  2
AcDbVisualStyle
  3
ObjectDBX Classes
 90
     4095
280
     0
281
     0
  0
CLASS
  1
SCALE
  2
AcDbScale
  3
ObjectDBX Classes
 90
     1153
280
     0
281
     0
  0
CLASS
  1

  2
exOdDbPolyline
  3

 90
        0
280
     0
281
     1
  0
CLASS
  1

  2
exOdDbCircle
  3

 90
        0
280
     0
281
     1
  0
CLASS
  1

  2
exOdDbSpline
  3

 90
        0
280
     0
281
     1
  0
CLASS
  1
DICTIONARYVAR
  2
AcDbDictionaryVar
  3
ObjectDBX Classes
 90
        0
280
     0
281
     0
  0
CLASS
  1
ACDBPLACEHOLDER
  2
AcDbPlaceHolder
  3
ObjectDBX Classes
 90
        0
280
     0
281
     0
  0
CLASS
  1
LAYOUT
  2
AcDbLayout
  3
ObjectDBX Classes
 90
        0
280
     0
281
     0
  0
ENDSEC
  0
SECTION
  2
TABLES
  0
TABLE
  2
VPORT
  5
8
330
0
100
AcDbSymbolTable
 70
     1
  0
VPORT
  5
29
330
8
100
AcDbSymbolTableRecord
100
AcDbViewportTableRecord
  2
*Active
 70
     0
 10
0.0
 20
0.0
 11
1.0
 21
1.0
 12
147.5368517962429
 22
326.0989173998383
 13
0.0
 23
0.0
 14
0.5
 24
0.5
 15
0.5
 25
0.5
 16
0.0
 26
0.0
 36
1.0
 17
0.0
 27
0.0
 37
0.0
 40
105.5443294612864
 41
1.60267857142857
 42
50.0
 43
0.0
 44
0.0
 50
0.0
 51
0.0
 71
     0
 72
   100
 73
     1
 74
     3
 75
     0
 76
     0
 77
     0
 78
     0
281
     0
 65
     1
110
0.0
120
0.0
130
0.0
111
1.0
121
0.0
131
0.0
112
0.0
122
1.0
132
0.0
 79
     0
146
0.0
  0
ENDTAB
  0
TABLE
  2
LTYPE
  5
5
330
0
100
AcDbSymbolTable
 70
     9
  0
LTYPE
  5
14
330
5
100
AcDbSymbolTableRecord
100
AcDbLinetypeTableRecord
  2
ByBlock
 70
     0
  3

 72
    65
 73
     0
 40
0.0
  0
LTYPE
  5
15
330
5
100
AcDbSymbolTableRecord
100
AcDbLinetypeTableRecord
  2
ByLayer
 70
     0
  3

 72
    65
 73
     0
 40
0.0
  0
LTYPE
  5
16
330
5
100
AcDbSymbolTableRecord
100
AcDbLinetypeTableRecord
  2
Continuous
 70
     0
  3
Solid line
 72
    65
 73
     0
 40
0.0
  0
LTYPE
  5
3B
330
5
100
AcDbSymbolTableRecord
100
AcDbLinetypeTableRecord
  2
DASHED
 70
     0
  3
Dashed
 72
    65
 73
     2
 40
15.0
 49
7.0
 74
     0
 49
-8.0
 74
     0
  0
LTYPE
  5
3C
330
5
100
AcDbSymbolTableRecord
100
AcDbLinetypeTableRecord
  2
DOTTED
 70
     0
  3
Dotted
 72
    65
 73
     2
 40
1.0
 49
0.0
 74
     0
 49
-1.0
 74
     0
  0
LTYPE
  5
3D
330
5
100
AcDbSymbolTableRecord
100
AcDbLinetypeTableRecord
  2
DOT_CENTER
 70
     0
  3
Dot_Center
 72
    65
 73
     4
 40
14.0
 49
12.0
 74
     0
 49
-1.0
 74
     0
 49
0.0
 74
     0
 49
-1.0
 74
     0
  0
LTYPE
  5
3E
330
5
100
AcDbSymbolTableRecord
100
AcDbLinetypeTableRecord
  2
LONG_DASHED
 70
     0
  3
Long_Dashed
 72
    65
 73
     2
 40
15.0
 49
10.0
 74
     0
 49
-5.0
 74
     0
  0
LTYPE
  5
3F
330
5
100
AcDbSymbolTableRecord
100
AcDbLinetypeTableRecord
  2
DASH_CENTER
 70
     0
  3
Dash_Center
 72
    65
 73
     4
 40
14.0
 49
11.0
 74
     0
 49
-1.0
 74
     0
 49
1.0
 74
     0
 49
-1.0
 74
     0
  0
LTYPE
  5
40
330
5
100
AcDbSymbolTableRecord
100
AcDbLinetypeTableRecord
  2
PHANTOM
 70
     0
  3
Phantom
 72
    65
 73
     6
 40
13.0
 49
10.0
 74
     0
 49
-1.0
 74
     0
 49
0.0
 74
     0
 49
-1.0
 74
     0
 49
0.0
 74
     0
 49
-1.0
 74
     0
  0
LTYPE
  5
41
330
5
100
AcDbSymbolTableRecord
100
AcDbLinetypeTableRecord
  2
CENTER_DASH_DASH
 70
     0
  3
Center_Dash_Dash
 72
    65
 73
     6
 40
14.0
 49
9.0
 74
     0
 49
-1.0
 74
     0
 49
1.0
 74
     0
 49
-1.0
 74
     0
 49
1.0
 74
     0
 49
-1.0
 74
     0
  0
LTYPE
  5
42
330
5
100
AcDbSymbolTableRecord
100
AcDbLinetypeTableRecord
  2
HIDDEN
 70
     0
  3
HIDDEN
 72
    65
 73
     2
 40
4.0
 49
2.0
 74
     0
 49
-2.0
 74
     0
  0
ENDTAB
  0
TABLE
  2
LAYER
  5
2
330
0
100
AcDbSymbolTable
 70
     8
  0
LAYER
  5
10
330
2
100
AcDbSymbolTableRecord
100
AcDbLayerTableRecord
  2
0
 70
     0
 62
     7
  6
Continuous
370
    -3
390
F
  0
LAYER
  5
43
330
2
100
AcDbSymbolTableRecord
100
AcDbLayerTableRecord
  2
1
 70
     0
 62
     7
  6
Continuous
370
    -3
390
F
  0
LAYER
  5
44
330
2
100
AcDbSymbolTableRecord
100
AcDbLayerTableRecord
  2
BEZUGSACHSEN
 70
     0
 62
     7
  6
Continuous
370
    -3
390
F
  0
LAYER
  5
45
330
2
100
AcDbSymbolTableRecord
100
AcDbLayerTableRecord
  2
BG_STARTBEZUEGE
 70
     0
 62
     7
  6
Continuous
370
    -3
390
F
  0
LAYER
  5
46
330
2
100
AcDbSymbolTableRecord
100
AcDbLayerTableRecord
  2
DEFAULT_2
 70
     0
 62
     7
  6
Continuous
370
    -3
390
F
  0
LAYER
  5
47
330
2
100
AcDbSymbolTableRecord
100
AcDbLayerTableRecord
  2
FASEN
 70
     0
 62
     7
  6
Continuous
370
    -3
390
F
  0
LAYER
  5
48
330
2
100
AcDbSymbolTableRecord
100
AcDbLayerTableRecord
  2
FLAECHEN
 70
     0
 62
     7
  6
Continuous
370
    -3
390
F
  0
LAYER
  5
49
330
2
100
AcDbSymbolTableRecord
100
AcDbLayerTableRecord
  2
RUNDUNGEN
 70
     0
 62
     7
  6
Continuous
370
    -3
390
F
  0
ENDTAB
  0
TABLE
  2
STYLE
  5
3
330
0
100
AcDbSymbolTable
 70
     2
  0
STYLE
  5
11
330
3
100
AcDbSymbolTableRecord
100
AcDbTextStyleTableRecord
  2
Standard
 70
     0
 40
0.0
 41
1.0
 50
0.0
 71
     0
 42
0.2
  3
txt
  4

  0
STYLE
  5
70
330
3
100
AcDbSymbolTableRecord
100
AcDbTextStyleTableRecord
  2
CONVERTER_11
 70
     0
 40
0.0
 41
0.72
 50
0.0
 71
     0
 42
0.2
  3
txt.shx
  4

  0
ENDTAB
  0
TABLE
  2
VIEW
  5
6
330
0
100
AcDbSymbolTable
 70
     0
  0
ENDTAB
  0
TABLE
  2
UCS
  5
7
330
0
100
AcDbSymbolTable
 70
     0
  0
ENDTAB
  0
TABLE
  2
APPID
  5
9
330
0
100
AcDbSymbolTable
 70
     1
  0
APPID
  5
12
330
9
100
AcDbSymbolTableRecord
100
AcDbRegAppTableRecord
  2
ACAD
 70
     0
  0
ENDTAB
  0
TABLE
  2
DIMSTYLE
  5
A
330
0
100
AcDbSymbolTable
 70
     7
100
AcDbDimStyleTable
  0
DIMSTYLE
105
27
330
A
100
AcDbSymbolTableRecord
100
AcDbDimStyleTableRecord
  2
Standard
 70
     0
340
11
  0
DIMSTYLE
105
15E
102
{ACAD_REACTORS
330
15F
102
}
330
A
100
AcDbSymbolTableRecord
100
AcDbDimStyleTableRecord
  2
ME10_DIM_10
 70
     0
  3
\U+2300<>
 41
3.5
 42
2.0
 44
2.0
 71
     1
 73
     0
 74
     0
 77
     1
 78
     8
140
3.5
146
0.7
147
2.0
172
     1
173
     1
176
     2
177
     2
178
     3
271
     2
272
     0
340
70
  0
DIMSTYLE
105
169
102
{ACAD_REACTORS
330
16A
102
}
330
A
100
AcDbSymbolTableRecord
100
AcDbDimStyleTableRecord
  2
ME10_DIM_11
 70
     0
  3
\U+2300<>
 41
3.5
 42
2.0
 44
2.0
 71
     1
 73
     0
 74
     0
 77
     1
 78
     8
140
3.5
146
0.7
147
2.0
172
     1
173
     1
176
     2
177
     2
178
     3
271
     2
272
     0
340
70
  0
DIMSTYLE
105
174
102
{ACAD_REACTORS
330
175
102
}
330
A
100
AcDbSymbolTableRecord
100
AcDbDimStyleTableRecord
  2
ME10_DIM_12
 70
     0
  3
<>
 41
3.5
 42
2.0
 44
2.0
 71
     1
 73
     0
 74
     0
 77
     1
 78
     8
140
3.5
146
0.7
147
2.0
172
     1
173
     1
176
     2
177
     2
178
     3
271
     2
272
     0
340
70
  0
DIMSTYLE
105
17F
102
{ACAD_REACTORS
330
180
102
}
330
A
100
AcDbSymbolTableRecord
100
AcDbDimStyleTableRecord
  2
ME10_DIM_13
 70
     0
  3
<>
 41
3.5
 42
2.0
 44
2.0
 71
     1
 73
     0
 74
     0
 77
     1
 78
     8
140
3.5
146
0.7
147
2.0
172
     1
173
     1
176
     2
177
     2
178
     3
271
     2
272
     0
340
70
  0
DIMSTYLE
105
18A
102
{ACAD_REACTORS
330
18B
102
}
330
A
100
AcDbSymbolTableRecord
100
AcDbDimStyleTableRecord
  2
ME10_DIM_14
 70
     0
  3
<>
 41
3.5
 42
2.0
 44
2.0
 71
     1
 73
     0
 74
     0
 77
     1
 78
     8
140
3.5
146
0.7
147
2.0
172
     1
173
     1
176
     2
177
     2
178
     3
271
     2
272
     0
340
70
  0
DIMSTYLE
105
195
102
{ACAD_REACTORS
330
196
102
}
330
A
100
AcDbSymbolTableRecord
100
AcDbDimStyleTableRecord
  2
ME10_DIM_15
 70
     0
  3
<>
 41
3.5
 42
2.0
 44
2.0
 71
     1
 73
     0
 74
     0
 77
     1
 78
     8
140
3.5
146
0.7
147
2.0
172
     1
173
     1
176
     2
177
     2
178
     3
271
     2
272
     0
340
70
  0
ENDTAB
  0
TABLE
  2
BLOCK_RECORD
  5
1
330
0
100
AcDbSymbolTable
 70
     9
  0
BLOCK_RECORD
  5
1F
330
1
100
AcDbSymbolTableRecord
100
AcDbBlockTableRecord
  2
*Model_Space
340
22
  0
BLOCK_RECORD
  5
1B
330
1
100
AcDbSymbolTableRecord
100
AcDbBlockTableRecord
  2
*Paper_Space
340
1E
  0
BLOCK_RECORD
  5
23
330
1
100
AcDbSymbolTableRecord
100
AcDbBlockTableRecord
  2
*Paper_Space0
340
26
  0
BLOCK_RECORD
  5
4A
330
1
100
AcDbSymbolTableRecord
100
AcDbBlockTableRecord
  2
Urheberrecht_DE-EN_horizontal
340
0
102
{BLKREFS
331
6F
102
}
  0
BLOCK_RECORD
  5
155
330
1
100
AcDbSymbolTableRecord
100
AcDbBlockTableRecord
  2
*D2
340
0
  0
BLOCK_RECORD
  5
160
330
1
100
AcDbSymbolTableRecord
100
AcDbBlockTableRecord
  2
*D3
340
0
  0
BLOCK_RECORD
  5
16B
330
1
100
AcDbSymbolTableRecord
100
AcDbBlockTableRecord
  2
*D4
340
0
  0
BLOCK_RECORD
  5
176
330
1
100
AcDbSymbolTableRecord
100
AcDbBlockTableRecord
  2
*D5
340
0
  0
BLOCK_RECORD
  5
181
330
1
100
AcDbSymbolTableRecord
100
AcDbBlockTableRecord
  2
*D6
340
0
  0
BLOCK_RECORD
  5
18C
330
1
100
AcDbSymbolTableRecord
100
AcDbBlockTableRecord
  2
*D7
340
0
  0
BLOCK_RECORD
  5
197
330
1
100
AcDbSymbolTableRecord
100
AcDbBlockTableRecord
  2
*D8
340
0
102
{BLKREFS
331
19D
102
}
  0
ENDTAB
  0
ENDSEC
  0
SECTION
  2
BLOCKS
  0
BLOCK
  5
20
330
1F
100
AcDbEntity
  8
0
100
AcDbBlockBegin
  2
*Model_Space
 70
     0
 10
0.0
 20
0.0
 30
0.0
  3
*Model_Space
  1

  0
ENDBLK
  5
21
330
1F
100
AcDbEntity
  8
0
100
AcDbBlockEnd
  0
BLOCK
  5
1C
330
1B
100
AcDbEntity
 67
     1
  8
0
100
AcDbBlockBegin
  2
*Paper_Space
 70
     0
 10
0.0
 20
0.0
 30
0.0
  3
*Paper_Space
  1

  0
ENDBLK
  5
1D
330
1B
100
AcDbEntity
 67
     1
  8
0
100
AcDbBlockEnd
  0
BLOCK
  5
24
330
23
100
AcDbEntity
  8
0
100
AcDbBlockBegin
  2
*Paper_Space0
 70
     0
 10
0.0
 20
0.0
 30
0.0
  3
*Paper_Space0
  1

  0
ENDBLK
  5
25
330
23
100
AcDbEntity
  8
0
100
AcDbBlockEnd
  0
BLOCK
  5
4B
330
4A
100
AcDbEntity
  8
0
100
AcDbBlockBegin
  2
Urheberrecht_DE-EN_horizontal
 70
     0
 10
136.576426511511
 20
285.522230200067
 30
0.0
  3
Urheberrecht_DE-EN_horizontal
  1

  0
MTEXT
  5
71
330
4A
100
AcDbEntity
  8
1
 62
     1
100
AcDbMText
 10
83.12264412215175
 20
278.7242221901627
 30
0.0
 40
2.0
 41
0.0
 71
     7
 72
     1
  1
F\U+00fcr diese Unterlage behalten wir das Ur-\Pheberrecht. Sie darf nur f\U+00fcr den von uns \Pbestimmten Zweck benutzt und ohne unsere \PZustimmung weder vervielf\U+00e4ltigt noch\PDritten zug\U+00e4nglich gemacht werden.
  7
CONVERTER_11
 73
     1
 44
0.90036014405762
  0
MTEXT
  5
72
330
4A
100
AcDbEntity
  8
1
 62
     1
100
AcDbMText
 10
139.4120310394579
 20
278.7242221901627
 30
0.0
 40
2.0
 41
0.0
 71
     7
 72
     1
  1
We own the copyright of this document. It \Pdetermined and may neither be copied or \Pmade accessible to outsiders without our\Ppermission.
  7
CONVERTER_11
 73
     1
 44
0.90036014405762
  0
ENDBLK
  5
4C
330
4A
100
AcDbEntity
  8
0
100
AcDbBlockEnd
  0
BLOCK
  5
15C
330
155
100
AcDbEntity
  8
0
100
AcDbBlockBegin
  2
*D2
 70
     1
 10
0.0
 20
0.0
 30
0.0
  3
*D2
  1

  0
LINE
  5
156
330
155
100
AcDbEntity
  8
1
  6
Continuous
 62
     2
100
AcDbLine
 10
200.501292639703
 20
325.4553087349
 30
0.0
 11
200.501292639703
 21
309.4553087349
 31
0.0
  0
LINE
  5
157
330
155
100
AcDbEntity
  8
1
  6
Continuous
 62
     2
100
AcDbLine
 10
181.0668674699
 20
325.4553087349
 30
0.0
 11
202.501292639703
 21
325.4553087349
 31
0.0
  0
LINE
  5
158
330
155
100
AcDbEntity
  8
1
  6
Continuous
 62
     2
100
AcDbLine
 10
181.0668674699
 20
309.4553087349
 30
0.0
 11
202.501292639703
 21
309.4553087349
 31
0.0
  0
SOLID
  5
159
330
155
100
AcDbEntity
  8
1
 62
     2
100
AcDbTrace
 10
200.9620763812589
 20
321.9553087349
 30
0.0
 11
200.0405088981471
 21
321.9553087349
 31
0.0
 12
200.501292639703
 22
325.4553087349
 32
0.0
 13
200.501292639703
 23
325.4553087349
 33
0.0
  0
SOLID
  5
15A
330
155
100
AcDbEntity
  8
1
 62
     2
100
AcDbTrace
 10
200.0405088981471
 20
312.9553087349
 30
0.0
 11
200.9620763812589
 21
312.9553087349
 31
0.0
 12
200.501292639703
 22
309.4553087349
 32
0.0
 13
200.501292639703
 23
309.4553087349
 33
0.0
  0
MTEXT
  5
15B
330
155
100
AcDbEntity
  8
1
 62
     3
100
AcDbMText
 10
198.501292639703
 20
308.958503377329
 30
0.0
 40
3.5
 41
0.0
 71
     7
 72
     1
  1
\C3;%%c\C3;\C3;16\C2;\H2.45;\S^ ;\C3;
  7
CONVERTER_11
 11
0.0
 21
1.0
 31
0.0
 73
     1
 44
0.60024009603842
  0
ENDBLK
  5
15D
330
155
100
AcDbEntity
  8
0
100
AcDbBlockEnd
  0
BLOCK
  5
167
330
160
100
AcDbEntity
  8
0
100
AcDbBlockBegin
  2
*D3
 70
     1
 10
0.0
 20
0.0
 30
0.0
  3
*D3
  1

  0
LINE
  5
161
330
160
100
AcDbEntity
  8
1
  6
Continuous
 62
     2
100
AcDbLine
 10
209.951059470334
 20
331.4553087349
 30
0.0
 11
209.951059470334
 21
303.4553087349
 31
0.0
  0
LINE
  5
162
330
160
100
AcDbEntity
  8
1
  6
Continuous
 62
     2
100
AcDbLine
 10
188.4168674699
 20
331.4553087349
 30
0.0
 11
211.951059470334
 21
331.4553087349
 31
0.0
  0
LINE
  5
163
330
160
100
AcDbEntity
  8
1
  6
Continuous
 62
     2
100
AcDbLine
 10
188.4168674699
 20
303.4553087349
 30
0.0
 11
211.951059470334
 21
303.4553087349
 31
0.0
  0
SOLID
  5
164
330
160
100
AcDbEntity
  8
1
 62
     2
100
AcDbTrace
 10
210.4118432118899
 20
327.9553087349
 30
0.0
 11
209.4902757287781
 21
327.9553087349
 31
0.0
 12
209.951059470334
 22
331.4553087349
 32
0.0
 13
209.951059470334
 23
331.4553087349
 33
0.0
  0
SOLID
  5
165
330
160
100
AcDbEntity
  8
1
 62
     2
100
AcDbTrace
 10
209.4902757287781
 20
306.9553087349
 30
0.0
 11
210.4118432118899
 21
306.9553087349
 31
0.0
 12
209.951059470334
 22
303.4553087349
 32
0.0
 13
209.951059470334
 23
303.4553087349
 33
0.0
  0
MTEXT
  5
166
330
160
100
AcDbEntity
  8
1
 62
     3
100
AcDbMText
 10
207.951059470334
 20
308.853495605016
 30
0.0
 40
3.5
 41
0.0
 71
     7
 72
     1
  1
\C3;%%c\C3;\C3;28\C2;\H2.45;\S^ ;\C3;
  7
CONVERTER_11
 11
0.0
 21
1.0
 31
0.0
 73
     1
 44
0.60024009603842
  0
ENDBLK
  5
168
330
160
100
AcDbEntity
  8
0
100
AcDbBlockEnd
  0
BLOCK
  5
172
330
16B
100
AcDbEntity
  8
0
100
AcDbBlockBegin
  2
*D4
 70
     1
 10
0.0
 20
0.0
 30
0.0
  3
*D4
  1

  0
LINE
  5
16C
330
16B
100
AcDbEntity
  8
1
  6
Continuous
 62
     2
100
AcDbLine
 10
179.0668674699
 20
345.05231930063
 30
0.0
 11
129.6668674699
 21
345.05231930063
 31
0.0
  0
LINE
  5
16D
330
16B
100
AcDbEntity
  8
1
  6
Continuous
 62
     2
100
AcDbLine
 10
179.0668674699
 20
330.4553087349
 30
0.0
 11
179.0668674699
 21
347.05231930063
 31
0.0
  0
LINE
  5
16E
330
16B
100
AcDbEntity
  8
1
  6
Continuous
 62
     2
100
AcDbLine
 10
129.6668674699
 20
339.4552663961
 30
0.0
 11
129.6668674699
 21
347.05231930063
 31
0.0
  0
SOLID
  5
16F
330
16B
100
AcDbEntity
  8
1
 62
     2
100
AcDbTrace
 10
175.5668674699
 20
344.5915355590741
 30
0.0
 11
175.5668674699
 21
345.5131030421859
 31
0.0
 12
179.0668674699
 22
345.05231930063
 32
0.0
 13
179.0668674699
 23
345.05231930063
 33
0.0
  0
SOLID
  5
170
330
16B
100
AcDbEntity
  8
1
 62
     2
100
AcDbTrace
 10
133.1668674699
 20
345.5131030421859
 30
0.0
 11
133.1668674699
 21
344.5915355590741
 31
0.0
 12
129.6668674699
 22
345.05231930063
 32
0.0
 13
129.6668674699
 23
345.05231930063
 33
0.0
  0
MTEXT
  5
171
330
16B
100
AcDbEntity
  8
1
 62
     3
100
AcDbMText
 10
149.4518164321096
 20
347.05231930063
 30
0.0
 40
3.5
 41
0.0
 71
     7
 72
     1
  1
\C3;\C3;\C3;49.4\C2;\H2.45;\S^ ;\C3;
  7
CONVERTER_11
 11
0.9999999999970619
 21
2.424068405545306E-6
 31
0.0
 73
     1
 44
0.60024009603842
  0
ENDBLK
  5
173
330
16B
100
AcDbEntity
  8
0
100
AcDbBlockEnd
  0
BLOCK
  5
17D
330
176
100
AcDbEntity
  8
0
100
AcDbBlockBegin
  2
*D5
 70
     1
 10
0.0
 20
0.0
 30
0.0
  3
*D5
  1

  0
LINE
  5
177
330
176
100
AcDbEntity
  8
1
  6
Continuous
 62
     2
100
AcDbLine
 10
179.0668674699
 20
352.464910635042
 30
0.0
 11
109.6668674699
 21
352.464910635042
 31
0.0
  0
LINE
  5
178
330
176
100
AcDbEntity
  8
1
  6
Continuous
 62
     2
100
AcDbLine
 10
179.0668674699
 20
330.4553087349
 30
0.0
 11
179.0668674699
 21
354.464910635042
 31
0.0
  0
LINE
  5
179
330
176
100
AcDbEntity
  8
1
  6
Continuous
 62
     2
100
AcDbLine
 10
109.6668674699
 20
339.4553087349
 30
0.0
 11
109.6668674699
 21
354.464910635042
 31
0.0
  0
SOLID
  5
17A
330
176
100
AcDbEntity
  8
1
 62
     2
100
AcDbTrace
 10
175.5668674699
 20
352.0041268934861
 30
0.0
 11
175.5668674699
 21
352.9256943765978
 31
0.0
 12
179.0668674699
 22
352.464910635042
 32
0.0
 13
179.0668674699
 23
352.464910635042
 33
0.0
  0
SOLID
  5
17B
330
176
100
AcDbEntity
  8
1
 62
     2
100
AcDbTrace
 10
113.1668674699
 20
352.9256943765978
 30
0.0
 11
113.1668674699
 21
352.0041268934861
 31
0.0
 12
109.6668674699
 22
352.464910635042
 32
0.0
 13
109.6668674699
 23
352.464910635042
 33
0.0
  0
MTEXT
  5
17C
330
176
100
AcDbEntity
  8
1
 62
     3
100
AcDbMText
 10
139.836398357357
 20
354.464910635042
 30
0.0
 40
3.5
 41
0.0
 71
     7
 72
     1
  1
\C3;\C3;\C3;69.4\C2;\H2.45;\S^ ;\C3;
  7
CONVERTER_11
 11
0.9999999999970619
 21
2.424068405545306E-6
 31
0.0
 73
     1
 44
0.60024009603842
  0
ENDBLK
  5
17E
330
176
100
AcDbEntity
  8
0
100
AcDbBlockEnd
  0
BLOCK
  5
188
330
181
100
AcDbEntity
  8
0
100
AcDbBlockBegin
  2
*D6
 70
     1
 10
0.0
 20
0.0
 30
0.0
  3
*D6
  1

  0
LINE
  5
182
330
181
100
AcDbEntity
  8
1
  6
Continuous
 62
     2
100
AcDbLine
 10
109.6668674699
 20
360.662305686662
 30
0.0
 11
189.6668674699
 21
360.662305686662
 31
0.0
  0
LINE
  5
183
330
181
100
AcDbEntity
  8
1
  6
Continuous
 62
     2
100
AcDbLine
 10
109.6668674699
 20
339.4553087349
 30
0.0
 11
109.6668674699
 21
362.662305686662
 31
0.0
  0
LINE
  5
184
330
181
100
AcDbEntity
  8
1
  6
Continuous
 62
     2
100
AcDbLine
 10
189.6668674699
 20
330.2053087349
 30
0.0
 11
189.6668674699
 21
362.662305686662
 31
0.0
  0
SOLID
  5
185
330
181
100
AcDbEntity
  8
1
 62
     2
100
AcDbTrace
 10
113.1668674699
 20
361.1230894282179
 30
0.0
 11
113.1668674699
 21
360.2015219451062
 31
0.0
 12
109.6668674699
 22
360.662305686662
 32
0.0
 13
109.6668674699
 23
360.662305686662
 33
0.0
  0
SOLID
  5
186
330
181
100
AcDbEntity
  8
1
 62
     2
100
AcDbTrace
 10
186.1668674699
 20
360.2015219451062
 30
0.0
 11
186.1668674699
 21
361.1230894282179
 31
0.0
 12
189.6668674699
 22
360.662305686662
 32
0.0
 13
189.6668674699
 23
360.662305686662
 33
0.0
  0
MTEXT
  5
187
330
181
100
AcDbEntity
  8
1
 62
     3
100
AcDbMText
 10
147.385579070538
 20
362.662305686662
 30
0.0
 40
3.5
 41
0.0
 71
     7
 72
     1
  1
\C3;\C3;\C3;80\C2;\H2.45;\S^ ;\C3;
  7
CONVERTER_11
 11
0.9999999999970619
 21
2.424068405545306E-6
 31
0.0
 73
     1
 44
0.60024009603842
  0
ENDBLK
  5
189
330
181
100
AcDbEntity
  8
0
100
AcDbBlockEnd
  0
BLOCK
  5
193
330
18C
100
AcDbEntity
  8
0
100
AcDbBlockBegin
  2
*D7
 70
     1
 10
0.0
 20
0.0
 30
0.0
  3
*D7
  1

  0
LINE
  5
18D
330
18C
100
AcDbEntity
  8
1
  6
Continuous
 62
     2
100
AcDbLine
 10
179.0668674699
 20
368.573612609514
 30
0.0
 11
89.66686746990004
 21
368.573612609514
 31
0.0
  0
LINE
  5
18E
330
18C
100
AcDbEntity
  8
1
  6
Continuous
 62
     2
100
AcDbLine
 10
179.0668674699
 20
330.4553087349
 30
0.0
 11
179.0668674699
 21
370.573612609514
 31
0.0
  0
LINE
  5
18F
330
18C
100
AcDbEntity
  8
1
  6
Continuous
 62
     2
100
AcDbLine
 10
89.66686746990004
 20
332.9012953595
 30
0.0
 11
89.66686746990004
 21
370.573612609514
 31
0.0
  0
SOLID
  5
190
330
18C
100
AcDbEntity
  8
1
 62
     2
100
AcDbTrace
 10
175.5668674699
 20
368.1128288679581
 30
0.0
 11
175.5668674699
 21
369.0343963510699
 31
0.0
 12
179.0668674699
 22
368.573612609514
 32
0.0
 13
179.0668674699
 23
368.573612609514
 33
0.0
  0
SOLID
  5
191
330
18C
100
AcDbEntity
  8
1
 62
     2
100
AcDbTrace
 10
93.16686746990004
 20
369.0343963510699
 30
0.0
 11
93.16686746990004
 21
368.1128288679581
 31
0.0
 12
89.66686746990004
 22
368.573612609514
 32
0.0
 13
89.66686746990004
 23
368.573612609514
 33
0.0
  0
MTEXT
  5
192
330
18C
100
AcDbEntity
  8
1
 62
     3
100
AcDbMText
 10
129.73427243516
 20
370.573612609514
 30
0.0
 40
3.5
 41
0.0
 71
     7
 72
     1
  1
\C3;\C3;\C3;89.4\C2;\H2.45;\S^ ;\C3;
  7
CONVERTER_11
 11
0.9999999999970619
 21
2.424068405545306E-6
 31
0.0
 73
     1
 44
0.60024009603842
  0
ENDBLK
  5
194
330
18C
100
AcDbEntity
  8
0
100
AcDbBlockEnd
  0
BLOCK
  5
19B
330
197
100
AcDbEntity
  8
0
100
AcDbBlockBegin
  2
*D8
 70
     1
 10
0.0
 20
0.0
 30
0.0
  3
*D8
  1

  0
LINE
  5
198
330
197
100
AcDbEntity
  8
1
  6
Continuous
 62
     2
100
AcDbLine
 10
138.9417071075667
 20
338.8544942060075
 30
0.0
 11
130.2104225580027
 21
332.7331361550422
 31
0.0
  0
SOLID
  5
199
330
197
100
AcDbEntity
  8
1
 62
     2
100
AcDbTrace
 10
132.8117585802323
 20
335.1196341240196
 30
0.0
 11
133.3407913302001
 21
334.3650408723996
 31
0.0
 12
130.2104225580027
 22
332.7331361550422
 32
0.0
 13
130.2104225580027
 23
332.7331361550422
 33
0.0
  0
MTEXT
  5
19A
330
197
100
AcDbEntity
  8
1
 62
     3
100
AcDbMText
 10
131.7179849722356
 20
336.2326172997574
 30
0.0
 40
3.5
 41
0.0
 71
     7
 72
     1
  1
\C3; R\C3;\C3;3\C2;\H2.45;\S^ ;\C3;
  7
CONVERTER_11
 11
0.8188149706324233
 21
0.5740575266192613
 31
0.0
 73
     1
 44
0.60024009603842
  0
ENDBLK
  5
19C
330
197
100
AcDbEntity
  8
0
100
AcDbBlockEnd
  0
ENDSEC
  0
SECTION
  2
ENTITIES
  0
INSERT
  5
6F
330
1F
100
AcDbEntity
  8
0
100
AcDbBlockReference
  2
Urheberrecht_DE-EN_horizontal
 10
136.576426511511
 20
285.522230200067
 30
0.0
  0
LINE
  5
73
330
1F
100
AcDbEntity
  8
0
  6
Continuous
 62
     7
100
AcDbLine
 10
89.66686746990001
 20
304.0093221098
 30
0.0
 11
89.66686746990001
 21
312.4803087349
 31
0.0
  0
LINE
  5
74
330
1F
100
AcDbEntity
  8
0
  6
Continuous
 62
     7
100
AcDbLine
 10
89.66686746990001
 20
322.4303087349
 30
0.0
 11
89.66686746990001
 21
330.9012953595
 31
0.0
  0
LINE
  5
75
330
1F
100
AcDbEntity
  8
0
  6
Continuous
 62
     7
100
AcDbLine
 10
90.426837676
 20
331.7002932423
 30
0.0
 11
90.426837676
 21
323.5401409934
 31
0.0
  0
LINE
  5
76
330
1F
100
AcDbEntity
  8
0
  6
Continuous
 62
     7
100
AcDbLine
 10
90.426837676
 20
311.3704764765
 30
0.0
 11
90.42683767600002
 21
303.2103242276
 31
0.0
  0
LINE
  5
77
330
1F
100
AcDbEntity
  8
0
  6
Continuous
 62
     7
100
AcDbLine
 10
90.6168674699
 20
312.6195608929
 30
0.0
 11
90.6168674699
 21
313.4303087349
 31
0.0
  0
LINE
  5
78
330
1F
100
AcDbEntity
  8
0
  6
Continuous
 62
     7
100
AcDbLine
 10
90.6168674699
 20
321.4803087349
 30
0.0
 11
90.6168674699
 21
322.291056577
 31
0.0
  0
LINE
  5
79
330
1F
100
AcDbEntity
  8
RUNDUNGEN
  6
Continuous
 62
     7
100
AcDbLine
 10
92.3668674699
 20
311.1462892269
 30
0.0
 11
92.3668674699
 21
313.4303087349
 31
0.0
  0
LINE
  5
7A
330
1F
100
AcDbEntity
  8
RUNDUNGEN
  6
Continuous
 62
     7
100
AcDbLine
 10
92.3668674699
 20
321.4803087349
 30
0.0
 11
92.3668674699
 21
323.7643282429
 31
0.0
  0
LINE
  5
7B
330
1F
100
AcDbEntity
  8
RUNDUNGEN
  6
Continuous
 62
     7
100
AcDbLine
 10
93.2668674699
 20
322.270600944
 30
0.0
 11
93.2668674699
 21
312.6400165259
 31
0.0
  0
LINE
  5
7C
330
1F
100
AcDbEntity
  8
0
  6
Continuous
 62
     7
100
AcDbLine
 10
90.2831856204
 20
311.5503087349
 30
0.0
 11
90.2283020988
 21
311.4538104301
 31
0.0
  0
LINE
  5
7D
330
1F
100
AcDbEntity
  8
0
  6
Continuous
 62
     7
100
AcDbLine
 10
90.2283020988
 20
323.4568070398
 30
0.0
 11
90.2831856204
 21
323.3603087349
 31
0.0
  0
LWPOLYLINE
  5
7E
330
1F
100
AcDbEntity
  8
BEZUGSACHSEN
  6
DOT_CENTER
 62
     7
100
AcDbPolyline
 90
        2
 70
     0
 43
0.25
 10
103.6668674699
 20
312.1553087349
 10
103.6668674699
 20
322.7553087349
  0
LINE
  5
7F
330
1F
100
AcDbEntity
  8
0
  6
Continuous
 62
     7
100
AcDbLine
 10
107.6668674699
 20
332.5590087349
 30
0.0
 11
107.6668674699
 21
302.3516087349
 31
0.0
  0
LINE
  5
80
330
1F
100
AcDbEntity
  8
0
  6
Continuous
 62
     7
100
AcDbLine
 10
89.66686746990001
 20
312.4803087349
 30
0.0
 11
90.6168674699
 21
313.4303087349
 31
0.0
  0
LINE
  5
81
330
1F
100
AcDbEntity
  8
0
  6
Continuous
 62
     7
100
AcDbLine
 10
108.3624110124
 20
302.5379790655
 30
0.0
 11
108.3624110124
 21
332.3726384044
 31
0.0
  0
LINE
  5
82
330
1F
100
AcDbEntity
  8
0
  6
Continuous
 62
     7
100
AcDbLine
 10
108.4659386304
 20
302.5516087349
 30
0.0
 11
108.4659386304
 21
332.3590087349
 31
0.0
  0
LINE
  5
83
330
1F
100
AcDbEntity
  8
0
  6
Continuous
 62
     7
100
AcDbLine
 10
109.5126903066
 20
302.5516087349
 30
0.0
 11
109.5126903066
 21
332.3590087349
 31
0.0
  0
LINE
  5
84
330
1F
100
AcDbEntity
  8
0
  6
Continuous
 62
     7
100
AcDbLine
 10
109.6668674699
 20
337.4553087349
 30
0.0
 11
109.6668674699
 21
297.4553087349
 31
0.0
  0
LINE
  5
85
330
1F
100
AcDbEntity
  8
0
  6
Continuous
 62
     7
100
AcDbLine
 10
90.6168674699
 20
321.4803087349
 30
0.0
 11
89.66686746990001
 21
322.4303087349
 31
0.0
  0
LWPOLYLINE
  5
86
330
1F
100
AcDbEntity
  8
BEZUGSACHSEN
  6
DOT_CENTER
 62
     7
100
AcDbPolyline
 90
        2
 70
     0
 43
0.25
 10
116.6668674699
 20
343.220225466
 10
116.6668674699
 20
329.220225466
  0
LINE
  5
87
330
1F
100
AcDbEntity
  8
FASEN
  6
Continuous
 62
     7
100
AcDbLine
 10
122.1032357116
 20
305.2053087349
 30
0.0
 11
122.1032357116
 21
305.6053087349
 31
0.0
  0
LINE
  5
88
330
1F
100
AcDbEntity
  8
FASEN
  6
Continuous
 62
     7
100
AcDbLine
 10
122.1313674699
 20
313.3408087349
 30
0.0
 11
122.1313674699
 21
312.9408087349
 31
0.0
  0
LINE
  5
89
330
1F
100
AcDbEntity
  8
FASEN
  6
Continuous
 62
     7
100
AcDbLine
 10
122.1313674699
 20
321.5698087349
 30
0.0
 11
122.1313674699
 21
321.9698087349
 31
0.0
  0
LINE
  5
8A
330
1F
100
AcDbEntity
  8
0
  6
Continuous
 62
     7
100
AcDbLine
 10
126.7043674699
 20
335.7273114478
 30
0.0
 11
127.7020271688
 21
337.4553087349
 31
0.0
  0
LINE
  5
8B
330
1F
100
AcDbEntity
  8
0
  6
Continuous
 62
     7
100
AcDbLine
 10
89.66686746990001
 20
312.0792473025
 30
0.0
 11
90.6168674699
 21
312.6195608929
 31
0.0
  0
LINE
  5
8C
330
1F
100
AcDbEntity
  8
0
  6
Continuous
 62
     7
100
AcDbLine
 10
123.631707771
 20
297.4553087349
 30
0.0
 11
109.6668674699
 21
297.4553087349
 31
0.0
  0
LINE
  5
8D
330
1F
100
AcDbEntity
  8
0
  6
Continuous
 62
     7
100
AcDbLine
 10
127.7020271688
 20
297.4553087349
 30
0.0
 11
129.6668674699
 21
297.4553087349
 31
0.0
  0
LINE
  5
8E
330
1F
100
AcDbEntity
  8
0
  6
Continuous
 62
     7
100
AcDbLine
 10
90.6168674699
 20
322.291056577
 30
0.0
 11
89.66686746990001
 21
322.8313701674
 31
0.0
  0
LINE
  5
8F
330
1F
100
AcDbEntity
  8
0
  6
Continuous
 62
     7
100
AcDbLine
 10
126.7043674699
 20
299.1833060221
 30
0.0
 11
127.7020271688
 21
297.4553087349
 31
0.0
  0
LINE
  5
90
330
1F
100
AcDbEntity
  8
0
  6
Continuous
 62
     7
100
AcDbLine
 10
123.631707771
 20
337.4553087349
 30
0.0
 11
123.631707771
 21
321.9698087349
 31
0.0
  0
LINE
  5
91
330
1F
100
AcDbEntity
  8
0
  6
Continuous
 62
     7
100
AcDbLine
 10
123.631707771
 20
312.9408087349
 30
0.0
 11
123.631707771
 21
305.6053087349
 31
0.0
  0
LINE
  5
92
330
1F
100
AcDbEntity
  8
0
  6
Continuous
 62
     7
100
AcDbLine
 10
123.631707771
 20
301.3438997339
 30
0.0
 11
123.631707771
 21
297.4553087349
 31
0.0
  0
LINE
  5
93
330
1F
100
AcDbEntity
  8
0
  6
Continuous
 62
     7
100
AcDbLine
 10
124.6293674699
 20
335.727250029
 30
0.0
 11
124.6293674699
 21
321.7608324245
 31
0.0
  0
LINE
  5
94
330
1F
100
AcDbEntity
  8
0
  6
Continuous
 62
     7
100
AcDbLine
 10
124.6293674699
 20
299.1833668967
 30
0.0
 11
124.6293674699
 21
304.4085418941
 31
0.0
  0
LINE
  5
95
330
1F
100
AcDbEntity
  8
0
  6
Continuous
 62
     7
100
AcDbLine
 10
124.6293674699
 20
305.6053087349
 30
0.0
 11
124.6293674699
 21
313.1497850453
 31
0.0
  0
LINE
  5
96
330
1F
100
AcDbEntity
  8
0
  6
Continuous
 62
     7
100
AcDbLine
 10
124.8793674699
 20
313.4203830851
 30
0.0
 11
124.8793674699
 21
305.6053087349
 31
0.0
  0
LINE
  5
97
330
1F
100
AcDbEntity
  8
0
  6
Continuous
 62
     7
100
AcDbLine
 10
124.8793674699
 20
300.0803087349
 30
0.0
 11
124.8793674699
 21
304.7482978748
 31
0.0
  0
LINE
  5
98
330
1F
100
AcDbEntity
  8
0
  6
Continuous
 62
     7
100
AcDbLine
 10
124.8793674699
 20
321.4902343848
 30
0.0
 11
124.8793674699
 21
334.8303087349
 31
0.0
  0
LINE
  5
99
330
1F
100
AcDbEntity
  8
0
  6
Continuous
 62
     7
100
AcDbLine
 10
124.8793674699
 20
300.0803087349
 30
0.0
 11
126.4543674699
 21
300.0803087349
 31
0.0
  0
LINE
  5
9A
330
1F
100
AcDbEntity
  8
0
  6
Continuous
 62
     7
100
AcDbLine
 10
118.010183753
 20
301.3438997339
 30
0.0
 11
123.631707771
 21
301.3438997339
 31
0.0
  0
LINE
  5
9B
330
1F
100
AcDbEntity
  8
0
  6
Continuous
 62
     7
100
AcDbLine
 10
127.7020271688
 20
301.3438997339
 30
0.0
 11
129.6668674699
 21
301.3438997339
 31
0.0
  0
LINE
  5
9C
330
1F
100
AcDbEntity
  8
0
  6
Continuous
 62
     7
100
AcDbLine
 10
109.5126903066
 20
302.5516087349
 30
0.0
 11
108.4659386304
 21
302.5516087349
 31
0.0
  0
LINE
  5
9D
330
1F
100
AcDbEntity
  8
0
  6
Continuous
 62
     7
100
AcDbLine
 10
107.6668674699
 20
302.3516087349
 30
0.0
 11
90.42683767600002
 21
303.2103242276
 31
0.0
  0
LINE
  5
9E
330
1F
100
AcDbEntity
  8
0
  6
Continuous
 62
     7
100
AcDbLine
 10
126.4543674699
 20
313.4203830851
 30
0.0
 11
126.4543674699
 21
305.6053087349
 31
0.0
  0
LINE
  5
9F
330
1F
100
AcDbEntity
  8
0
  6
Continuous
 62
     7
100
AcDbLine
 10
126.4543674699
 20
300.0803087349
 30
0.0
 11
126.4543674699
 21
304.7482978748
 31
0.0
  0
LINE
  5
A0
330
1F
100
AcDbEntity
  8
0
  6
Continuous
 62
     7
100
AcDbLine
 10
126.4543674699
 20
321.4902343848
 30
0.0
 11
126.4543674699
 21
334.8303087349
 31
0.0
  0
LINE
  5
A1
330
1F
100
AcDbEntity
  8
0
  6
Continuous
 62
     7
100
AcDbLine
 10
126.7043674699
 20
299.1833668967
 30
0.0
 11
126.7043674699
 21
304.4085418941
 31
0.0
  0
LINE
  5
A2
330
1F
100
AcDbEntity
  8
0
  6
Continuous
 62
     7
100
AcDbLine
 10
126.7043674699
 20
305.6053087349
 30
0.0
 11
126.7043674699
 21
313.1497850453
 31
0.0
  0
LINE
  5
A3
330
1F
100
AcDbEntity
  8
0
  6
Continuous
 62
     7
100
AcDbLine
 10
126.7043674699
 20
321.7608324245
 30
0.0
 11
126.7043674699
 21
335.727250029
 31
0.0
  0
LINE
  5
A4
330
1F
100
AcDbEntity
  8
0
  6
Continuous
 62
     7
100
AcDbLine
 10
127.7020271688
 20
312.9408087349
 30
0.0
 11
127.7020271688
 21
305.6053087349
 31
0.0
  0
LINE
  5
A5
330
1F
100
AcDbEntity
  8
0
  6
Continuous
 62
     7
100
AcDbLine
 10
127.7020271688
 20
297.4553087349
 30
0.0
 11
127.7020271688
 21
301.3438997339
 31
0.0
  0
LINE
  5
A6
330
1F
100
AcDbEntity
  8
0
  6
Continuous
 62
     7
100
AcDbLine
 10
127.7020271688
 20
321.9698087349
 30
0.0
 11
127.7020271688
 21
337.4553087349
 31
0.0
  0
LINE
  5
A7
330
1F
100
AcDbEntity
  8
FLAECHEN
  6
Continuous
 62
     7
100
AcDbLine
 10
186.4168674699
 20
303.4553087349
 30
0.0
 11
171.8668674699
 21
303.4553087349
 31
0.0
  0
LINE
  5
A8
330
1F
100
AcDbEntity
  8
1
  6
Continuous
 62
     7
100
AcDbLine
 10
186.4168674699
 20
303.4553087349
 30
0.0
 11
171.8668674699
 21
303.4553087349
 31
0.0
  0
LINE
  5
A9
330
1F
100
AcDbEntity
  8
0
  6
Continuous
 62
     7
100
AcDbLine
 10
132.6668674699
 20
303.4553087349
 30
0.0
 11
161.6526539075
 21
303.4553087349
 31
0.0
  0
LINE
  5
AA
330
1F
100
AcDbEntity
  8
0
  6
Continuous
 62
     7
100
AcDbLine
 10
186.4168674699
 20
303.4669783662
 30
0.0
 11
179.1668674699
 21
303.4669783662
 31
0.0
  0
LINE
  5
AB
330
1F
100
AcDbEntity
  8
1
  6
Continuous
 62
     7
100
AcDbLine
 10
186.4168674699
 20
303.4669783662
 30
0.0
 11
179.1668674699
 21
303.4669783662
 31
0.0
  0
LINE
  5
AC
330
1F
100
AcDbEntity
  8
0
  6
Continuous
 62
     7
100
AcDbLine
 10
124.8793674699
 20
304.7482978748
 30
0.0
 11
126.4543674699
 21
304.7482978748
 31
0.0
  0
LINE
  5
AD
330
1F
100
AcDbEntity
  8
FASEN
  6
Continuous
 62
     7
100
AcDbLine
 10
122.1032357116
 20
305.2053087349
 30
0.0
 11
129.6668674699
 21
305.2053087349
 31
0.0
  0
LINE
  5
AE
330
1F
100
AcDbEntity
  8
0
  6
Continuous
 62
     7
100
AcDbLine
 10
122.1032357116
 20
305.6053087349
 30
0.0
 11
129.6668674699
 21
305.6053087349
 31
0.0
  0
LINE
  5
AF
330
1F
100
AcDbEntity
  8
RUNDUNGEN
  6
Continuous
 62
     7
100
AcDbLine
 10
171.8668674699
 20
306.4553087349
 30
0.0
 11
165.4810810323
 21
306.4553087349
 31
0.0
  0
LINE
  5
B0
330
1F
100
AcDbEntity
  8
0
  6
Continuous
 62
     7
100
AcDbLine
 10
165.4810810323
 20
306.4553087349
 30
0.0
 11
171.8668674699
 21
306.4553087349
 31
0.0
  0
LINE
  5
B1
330
1F
100
AcDbEntity
  8
0
  6
Continuous
 62
     7
100
AcDbLine
 10
129.6668674699
 20
337.4552663961
 30
0.0
 11
129.6668674699
 21
321.9698087349
 31
0.0
  0
LINE
  5
B2
330
1F
100
AcDbEntity
  8
FASEN
  6
Continuous
 62
     7
100
AcDbLine
 10
129.6668674699
 20
321.9698087349
 30
0.0
 11
129.6668674699
 21
321.5698087349
 31
0.0
  0
LINE
  5
B3
330
1F
100
AcDbEntity
  8
FASEN
  6
Continuous
 62
     7
100
AcDbLine
 10
129.6668674699
 20
313.3408087349
 30
0.0
 11
129.6668674699
 21
312.9408087349
 31
0.0
  0
LINE
  5
B4
330
1F
100
AcDbEntity
  8
0
  6
Continuous
 62
     7
100
AcDbLine
 10
129.6668674699
 20
312.9408087349
 30
0.0
 11
129.6668674699
 21
305.6053087349
 31
0.0
  0
LINE
  5
B5
330
1F
100
AcDbEntity
  8
0
  6
Continuous
 62
     7
100
AcDbLine
 10
129.6668674699
 20
301.3438997339
 30
0.0
 11
129.6668674699
 21
297.4553700842
 31
0.0
  0
LINE
  5
B6
330
1F
100
AcDbEntity
  8
FASEN
  6
Continuous
 62
     7
100
AcDbLine
 10
129.6668674699
 20
301.3438997339
 30
0.0
 11
129.6668674699
 21
305.6053087349
 31
0.0
  0
LINE
  5
B7
330
1F
100
AcDbEntity
  8
RUNDUNGEN
  6
Continuous
 62
     7
100
AcDbLine
 10
129.6668674699
 20
313.3408087349
 30
0.0
 11
129.6668674699
 21
315.6141009444
 31
0.0
  0
LINE
  5
B8
330
1F
100
AcDbEntity
  8
RUNDUNGEN
  6
Continuous
 62
     7
100
AcDbLine
 10
129.6668674699
 20
319.296500256
 30
0.0
 11
129.6668674699
 21
321.5698087349
 31
0.0
  0
LINE
  5
B9
330
1F
100
AcDbEntity
  8
RUNDUNGEN
  6
Continuous
 62
     7
100
AcDbLine
 10
132.6668674699
 20
331.4553087349
 30
0.0
 11
132.6668674699
 21
303.4553087349
 31
0.0
  0
LINE
  5
BA
330
1F
100
AcDbEntity
  8
0
  6
Continuous
 62
     7
100
AcDbLine
 10
108.3624110124
 20
302.5379790655
 30
0.0
 11
108.4659386304
 21
302.5516087349
 31
0.0
  0
LINE
  5
BB
330
1F
100
AcDbEntity
  8
0
  6
Continuous
 62
     7
100
AcDbLine
 10
186.4168674699
 20
309.9662090899
 30
0.0
 11
179.1668674699
 21
309.9662090899
 31
0.0
  0
LINE
  5
BC
330
1F
100
AcDbEntity
  8
1
  6
Continuous
 62
     7
100
AcDbLine
 10
186.4168674699
 20
309.9662090899
 30
0.0
 11
179.1668674699
 21
309.9662090899
 31
0.0
  0
LINE
  5
BD
330
1F
100
AcDbEntity
  8
0
  6
Continuous
 62
     7
100
AcDbLine
 10
123.631707771
 20
297.4553087349
 30
0.0
 11
124.6293674699
 21
299.1833060221
 31
0.0
  0
LINE
  5
BE
330
1F
100
AcDbEntity
  8
0
  6
Continuous
 62
     7
100
AcDbLine
 10
108.3624110124
 20
302.5379790655
 30
0.0
 11
107.6668674699
 21
302.3516087349
 31
0.0
  0
LINE
  5
BF
330
1F
100
AcDbEntity
  8
0
  6
Continuous
 62
     7
100
AcDbLine
 10
186.4168674699
 20
311.004000728
 30
0.0
 11
179.1668674699
 21
311.004000728
 31
0.0
  0
LINE
  5
C0
330
1F
100
AcDbEntity
  8
1
  6
Continuous
 62
     7
100
AcDbLine
 10
186.4168674699
 20
311.004000728
 30
0.0
 11
179.1668674699
 21
311.004000728
 31
0.0
  0
LINE
  5
C1
330
1F
100
AcDbEntity
  8
RUNDUNGEN
  6
Continuous
 62
     7
100
AcDbLine
 10
92.95958816630001
 20
311.5503087349
 30
0.0
 11
92.3668674699
 21
311.5503087349
 31
0.0
  0
LINE
  5
C2
330
1F
100
AcDbEntity
  8
0
  6
Continuous
 62
     7
100
AcDbLine
 10
92.3668674699
 20
311.5503087349
 30
0.0
 11
90.2831856204
 21
311.5503087349
 31
0.0
  0
LWPOLYLINE
  5
C3
330
1F
100
AcDbEntity
  8
DEFAULT_2
  6
DASHED
 62
     7
100
AcDbPolyline
 90
        2
 70
     0
 43
0.35
 10
159.4996007333
 20
312.2053087349
 10
157.0668674699
 20
312.2053087349
  0
LINE
  5
C4
330
1F
100
AcDbEntity
  8
0
  6
Continuous
 62
     7
100
AcDbLine
 10
122.1313674699
 20
312.9408087349
 30
0.0
 11
124.6293674699
 21
312.9408087349
 31
0.0
  0
LINE
  5
C5
330
1F
100
AcDbEntity
  8
0
  6
Continuous
 62
     7
100
AcDbLine
 10
126.7043674699
 20
312.9408087349
 30
0.0
 11
129.6668674699
 21
312.9408087349
 31
0.0
  0
LINE
  5
C6
330
1F
100
AcDbEntity
  8
0
  6
Continuous
 62
     7
100
AcDbLine
 10
129.6668674699
 20
313.3408087349
 30
0.0
 11
126.5491189426
 21
313.3408087349
 31
0.0
  0
LINE
  5
C7
330
1F
100
AcDbEntity
  8
0
  6
Continuous
 62
     7
100
AcDbLine
 10
124.7846159972
 20
313.3408087349
 30
0.0
 11
122.1313674699
 21
313.3408087349
 31
0.0
  0
LINE
  5
C8
330
1F
100
AcDbEntity
  8
0
  6
Continuous
 62
     7
100
AcDbLine
 10
124.8793674699
 20
313.4203830851
 30
0.0
 11
126.4543674699
 21
313.4203830851
 31
0.0
  0
LINE
  5
C9
330
1F
100
AcDbEntity
  8
0
  6
Continuous
 62
     7
100
AcDbLine
 10
92.3668674699
 20
313.4303087349
 30
0.0
 11
90.6168674699
 21
313.4303087349
 31
0.0
  0
LINE
  5
CA
330
1F
100
AcDbEntity
  8
0
  6
Continuous
 62
     7
100
AcDbLine
 10
123.631707771
 20
337.4553087349
 30
0.0
 11
124.6293674699
 21
335.7273114478
 31
0.0
  0
LWPOLYLINE
  5
CB
330
1F
100
AcDbEntity
  8
BG_STARTBEZUEGE
  6
DOT_CENTER
 62
     7
100
AcDbPolyline
 90
        2
 70
     0
 43
0.25
 10
192.6668674699
 20
317.4553087349
 10
86.6668674699
 20
317.4553087349
  0
LWPOLYLINE
  5
CC
330
1F
100
AcDbEntity
  8
DEFAULT_2
  6
DASHED
 62
     7
100
AcDbPolyline
 90
        2
 70
     0
 43
0.35
 10
179.0668674699
 20
309.4553087349
 10
159.4996007333
 20
312.2053087349
  0
LWPOLYLINE
  5
CD
330
1F
100
AcDbEntity
  8
DEFAULT_2
  6
DASHED
 62
     7
100
AcDbPolyline
 90
        2
 70
     0
 43
0.35
 10
179.0668674699
 20
325.4553087349
 10
159.4996007333
 20
322.7053087349
  0
LINE
  5
CE
330
1F
100
AcDbEntity
  8
0
  6
Continuous
 62
     7
100
AcDbLine
 10
92.3668674699
 20
321.4803087349
 30
0.0
 11
90.6168674699
 21
321.4803087349
 31
0.0
  0
LINE
  5
CF
330
1F
100
AcDbEntity
  8
0
  6
Continuous
 62
     7
100
AcDbLine
 10
126.4543674699
 20
321.4902343848
 30
0.0
 11
124.8793674699
 21
321.4902343848
 31
0.0
  0
LINE
  5
D0
330
1F
100
AcDbEntity
  8
0
  6
Continuous
 62
     7
100
AcDbLine
 10
122.1313674699
 20
321.5698087349
 30
0.0
 11
124.7846159972
 21
321.5698087349
 31
0.0
  0
LINE
  5
D1
330
1F
100
AcDbEntity
  8
0
  6
Continuous
 62
     7
100
AcDbLine
 10
126.5491189426
 20
321.5698087349
 30
0.0
 11
129.6668674699
 21
321.5698087349
 31
0.0
  0
LINE
  5
D2
330
1F
100
AcDbEntity
  8
0
  6
Continuous
 62
     7
100
AcDbLine
 10
122.1313674699
 20
321.9698087349
 30
0.0
 11
124.6293674699
 21
321.9698087349
 31
0.0
  0
LINE
  5
D3
330
1F
100
AcDbEntity
  8
0
  6
Continuous
 62
     7
100
AcDbLine
 10
126.7043674699
 20
321.9698087349
 30
0.0
 11
129.6668674699
 21
321.9698087349
 31
0.0
  0
LWPOLYLINE
  5
D4
330
1F
100
AcDbEntity
  8
DEFAULT_2
  6
DASHED
 62
     7
100
AcDbPolyline
 90
        2
 70
     0
 43
0.35
 10
159.4996007333
 20
322.7053087349
 10
157.0668674699
 20
322.7053087349
  0
LINE
  5
D5
330
1F
100
AcDbEntity
  8
0
  6
Continuous
 62
     7
100
AcDbLine
 10
92.3668674699
 20
323.3603087349
 30
0.0
 11
90.2831856204
 21
323.3603087349
 31
0.0
  0
LINE
  5
D6
330
1F
100
AcDbEntity
  8
RUNDUNGEN
  6
Continuous
 62
     7
100
AcDbLine
 10
92.3668674699
 20
323.3603087349
 30
0.0
 11
92.95958816630001
 21
323.3603087349
 31
0.0
  0
LINE
  5
D7
330
1F
100
AcDbEntity
  8
0
  6
Continuous
 62
     7
100
AcDbLine
 10
186.4168674699
 20
323.9066167418
 30
0.0
 11
179.1668674699
 21
323.9066167418
 31
0.0
  0
LINE
  5
D8
330
1F
100
AcDbEntity
  8
1
  6
Continuous
 62
     7
100
AcDbLine
 10
186.4168674699
 20
323.9066167418
 30
0.0
 11
179.1668674699
 21
323.9066167418
 31
0.0
  0
LINE
  5
D9
330
1F
100
AcDbEntity
  8
0
  6
Continuous
 62
     7
100
AcDbLine
 10
108.3624110124
 20
332.3726384044
 30
0.0
 11
107.6668674699
 21
332.5590087349
 31
0.0
  0
LINE
  5
DA
330
1F
100
AcDbEntity
  8
0
  6
Continuous
 62
     7
100
AcDbLine
 10
186.4168674699
 20
324.94440838
 30
0.0
 11
179.1668674699
 21
324.94440838
 31
0.0
  0
LINE
  5
DB
330
1F
100
AcDbEntity
  8
1
  6
Continuous
 62
     7
100
AcDbLine
 10
186.4168674699
 20
324.94440838
 30
0.0
 11
179.1668674699
 21
324.94440838
 31
0.0
  0
LINE
  5
DC
330
1F
100
AcDbEntity
  8
0
  6
Continuous
 62
     7
100
AcDbLine
 10
108.3624110124
 20
332.3726384044
 30
0.0
 11
108.4659386304
 21
332.3590087349
 31
0.0
  0
LINE
  5
DD
330
1F
100
AcDbEntity
  8
RUNDUNGEN
  6
Continuous
 62
     7
100
AcDbLine
 10
171.8668674699
 20
328.4553087349
 30
0.0
 11
165.4810810323
 21
328.4553087349
 31
0.0
  0
LINE
  5
DE
330
1F
100
AcDbEntity
  8
0
  6
Continuous
 62
     7
100
AcDbLine
 10
186.4168674699
 20
331.4436391037
 30
0.0
 11
179.1668674699
 21
331.4436391037
 31
0.0
  0
LINE
  5
DF
330
1F
100
AcDbEntity
  8
1
  6
Continuous
 62
     7
100
AcDbLine
 10
186.4168674699
 20
331.4436391037
 30
0.0
 11
179.1668674699
 21
331.4436391037
 31
0.0
  0
LINE
  5
E0
330
1F
100
AcDbEntity
  8
FLAECHEN
  6
Continuous
 62
     7
100
AcDbLine
 10
186.4168674699
 20
331.4553087349
 30
0.0
 11
171.8668674699
 21
331.4553087349
 31
0.0
  0
LINE
  5
E1
330
1F
100
AcDbEntity
  8
1
  6
Continuous
 62
     7
100
AcDbLine
 10
186.4168674699
 20
331.4553087349
 30
0.0
 11
171.8668674699
 21
331.4553087349
 31
0.0
  0
LINE
  5
E2
330
1F
100
AcDbEntity
  8
RUNDUNGEN
  6
Continuous
 62
     7
100
AcDbLine
 10
161.6526539075
 20
331.4553087349
 30
0.0
 11
132.6668674699
 21
331.4553087349
 31
0.0
  0
LINE
  5
E3
330
1F
100
AcDbEntity
  8
0
  6
Continuous
 62
     7
100
AcDbLine
 10
132.6668674699
 20
331.4553087349
 30
0.0
 11
161.6526539075
 21
331.4553087349
 31
0.0
  0
LWPOLYLINE
  5
E4
330
1F
100
AcDbEntity
  8
DEFAULT_2
  6
DASHED
 62
     7
100
AcDbPolyline
 90
        2
 70
     0
 43
0.35
 10
157.0668674699
 20
322.7053087349
 10
157.0668674699
 20
312.2053087349
  0
LINE
  5
E5
330
1F
100
AcDbEntity
  8
0
  6
Continuous
 62
     7
100
AcDbLine
 10
107.6668674699
 20
332.5590087349
 30
0.0
 11
90.426837676
 21
331.7002932423
 31
0.0
  0
LINE
  5
E6
330
1F
100
AcDbEntity
  8
0
  6
Continuous
 62
     7
100
AcDbLine
 10
109.5126903066
 20
332.3590087349
 30
0.0
 11
108.4659386304
 21
332.3590087349
 31
0.0
  0
LINE
  5
E7
330
1F
100
AcDbEntity
  8
0
  6
Continuous
 62
     7
100
AcDbLine
 10
124.8793674699
 20
334.8303087349
 30
0.0
 11
126.4543674699
 21
334.8303087349
 31
0.0
  0
LWPOLYLINE
  5
E8
330
1F
100
AcDbEntity
  8
DEFAULT_2
  6
DASHED
 62
     7
100
AcDbPolyline
 90
        2
 70
     0
 43
0.35
 10
159.4996007333
 20
322.7053087349
 10
159.4996007333
 20
312.2053087349
  0
LINE
  5
E9
330
1F
100
AcDbEntity
  8
RUNDUNGEN
  6
Continuous
 62
     7
100
AcDbLine
 10
161.6526539075
 20
303.4553087349
 30
0.0
 11
161.6526539075
 21
331.4553087349
 31
0.0
  0
LINE
  5
EA
330
1F
100
AcDbEntity
  8
BEZUGSACHSEN
  6
Continuous
 62
     7
100
AcDbLine
 10
123.631707771
 20
337.4553087349
 30
0.0
 11
121.6668674699
 21
337.4553087349
 31
0.0
  0
LINE
  5
EB
330
1F
100
AcDbEntity
  8
BEZUGSACHSEN
  6
Continuous
 62
     7
100
AcDbLine
 10
111.6668674699
 20
337.4553087349
 30
0.0
 11
109.6668674699
 21
337.4553087349
 31
0.0
  0
LINE
  5
EC
330
1F
100
AcDbEntity
  8
0
  6
Continuous
 62
     7
100
AcDbLine
 10
109.6668674699
 20
337.4553087349
 30
0.0
 11
111.6668674699
 21
337.4553087349
 31
0.0
  0
LINE
  5
ED
330
1F
100
AcDbEntity
  8
0
  6
Continuous
 62
     7
100
AcDbLine
 10
121.6668674699
 20
337.4553087349
 30
0.0
 11
123.631707771
 21
337.4553087349
 31
0.0
  0
LINE
  5
EE
330
1F
100
AcDbEntity
  8
0
  6
Continuous
 62
     7
100
AcDbLine
 10
127.7020271688
 20
337.4553087349
 30
0.0
 11
129.6668674699
 21
337.4553087349
 31
0.0
  0
LINE
  5
EF
330
1F
100
AcDbEntity
  8
RUNDUNGEN
  6
Continuous
 62
     7
100
AcDbLine
 10
162.3597606887
 20
303.7482019538
 30
0.0
 11
162.3597606887
 21
331.1624155161
 31
0.0
  0
LINE
  5
F0
330
1F
100
AcDbEntity
  8
RUNDUNGEN
  6
Continuous
 62
     7
100
AcDbLine
 10
164.7739742511
 20
328.7482019538
 30
0.0
 11
164.7739742511
 21
306.1624155161
 31
0.0
  0
LINE
  5
F1
330
1F
100
AcDbEntity
  8
0
  6
Continuous
 62
     7
100
AcDbLine
 10
162.3597606887
 20
303.7482019538
 30
0.0
 11
164.7739742511
 21
306.1624155161
 31
0.0
  0
LINE
  5
F2
330
1F
100
AcDbEntity
  8
RUNDUNGEN
  6
Continuous
 62
     7
100
AcDbLine
 10
165.4810810323
 20
328.4553087349
 30
0.0
 11
165.4810810323
 21
306.4553087349
 31
0.0
  0
LINE
  5
F3
330
1F
100
AcDbEntity
  8
0
  6
Continuous
 62
     7
100
AcDbLine
 10
162.3597606887
 20
331.1624155161
 30
0.0
 11
164.7739742511
 21
328.7482019538
 31
0.0
  0
LINE
  5
F4
330
1F
100
AcDbEntity
  8
RUNDUNGEN
  6
Continuous
 62
     7
100
AcDbLine
 10
164.7739742511
 20
328.7482019538
 30
0.0
 11
162.3597606887
 21
331.1624155161
 31
0.0
  0
LINE
  5
F5
330
1F
100
AcDbEntity
  8
1
  6
Continuous
 62
     7
100
AcDbLine
 10
171.8668674699
 20
331.4553087349
 30
0.0
 11
171.8668674699
 21
328.4553087349
 31
0.0
  0
LWPOLYLINE
  5
F6
330
1F
100
AcDbEntity
  8
DEFAULT_2
  6
DASHED
 62
     7
100
AcDbPolyline
 90
        2
 70
     0
 43
0.35
 10
179.0668674699
 20
328.4553087349
 10
179.0668674699
 20
306.4553087349
  0
LINE
  5
F7
330
1F
100
AcDbEntity
  8
0
  6
Continuous
 62
     7
100
AcDbLine
 10
179.1668674699
 20
331.4436391037
 30
0.0
 11
179.1668674699
 21
324.94440838
 31
0.0
  0
LINE
  5
F8
330
1F
100
AcDbEntity
  8
1
  6
Continuous
 62
     7
100
AcDbLine
 10
179.1668674699
 20
331.4436391037
 30
0.0
 11
179.1668674699
 21
324.94440838
 31
0.0
  0
LINE
  5
F9
330
1F
100
AcDbEntity
  8
0
  6
Continuous
 62
     7
100
AcDbLine
 10
179.1668674699
 20
309.9662090899
 30
0.0
 11
179.1668674699
 21
306.4553087349
 31
0.0
  0
LINE
  5
FA
330
1F
100
AcDbEntity
  8
1
  6
Continuous
 62
     7
100
AcDbLine
 10
179.1668674699
 20
309.9662090899
 30
0.0
 11
179.1668674699
 21
306.4553087349
 31
0.0
  0
LINE
  5
FB
330
1F
100
AcDbEntity
  8
0
  6
Continuous
 62
     7
100
AcDbLine
 10
179.1668674699
 20
311.004000728
 30
0.0
 11
179.1668674699
 21
323.9066167418
 31
0.0
  0
LINE
  5
FC
330
1F
100
AcDbEntity
  8
1
  6
Continuous
 62
     7
100
AcDbLine
 10
179.1668674699
 20
311.004000728
 30
0.0
 11
179.1668674699
 21
323.9066167418
 31
0.0
  0
LINE
  5
FD
330
1F
100
AcDbEntity
  8
1
  6
HIDDEN
 62
     7
100
AcDbLine
 10
179.1668674699
 20
324.8538489527
 30
0.0
 11
179.1668674699
 21
324.94440838
 31
0.0
  0
LINE
  5
FE
330
1F
100
AcDbEntity
  8
DEFAULT_2
  6
HIDDEN
 62
     7
100
AcDbLine
 10
179.1668674699
 20
324.8538489527
 30
0.0
 11
179.1668674699
 21
324.94440838
 31
0.0
  0
LINE
  5
FF
330
1F
100
AcDbEntity
  8
1
  6
HIDDEN
 62
     7
100
AcDbLine
 10
179.1668674699
 20
331.4436391037
 30
0.0
 11
179.1668674699
 21
331.4475959906
 31
0.0
  0
LINE
  5
100
330
1F
100
AcDbEntity
  8
DEFAULT_2
  6
HIDDEN
 62
     7
100
AcDbLine
 10
179.1668674699
 20
331.4436391037
 30
0.0
 11
179.1668674699
 21
331.4475959906
 31
0.0
  0
LINE
  5
101
330
1F
100
AcDbEntity
  8
FLAECHEN
  6
Continuous
 62
     7
100
AcDbLine
 10
189.6668674699
 20
306.7053087349
 30
0.0
 11
186.4168674699
 21
303.4553087349
 31
0.0
  0
LINE
  5
102
330
1F
100
AcDbEntity
  8
1
  6
Continuous
 62
     7
100
AcDbLine
 10
189.6668674699
 20
306.7053087349
 30
0.0
 11
186.4168674699
 21
303.4553087349
 31
0.0
  0
LINE
  5
103
330
1F
100
AcDbEntity
  8
FLAECHEN
  6
Continuous
 62
     7
100
AcDbLine
 10
189.6668674699
 20
328.2053087349
 30
0.0
 11
186.4168674699
 21
331.4553087349
 31
0.0
  0
LINE
  5
104
330
1F
100
AcDbEntity
  8
1
  6
Continuous
 62
     7
100
AcDbLine
 10
189.6668674699
 20
328.2053087349
 30
0.0
 11
186.4168674699
 21
331.4553087349
 31
0.0
  0
LINE
  5
105
330
1F
100
AcDbEntity
  8
0
  6
Continuous
 62
     7
100
AcDbLine
 10
186.4168674699
 20
331.4553087349
 30
0.0
 11
186.4168674699
 21
331.4436391037
 31
0.0
  0
LINE
  5
106
330
1F
100
AcDbEntity
  8
1
  6
Continuous
 62
     7
100
AcDbLine
 10
186.4168674699
 20
331.4553087349
 30
0.0
 11
186.4168674699
 21
331.4436391037
 31
0.0
  0
LINE
  5
107
330
1F
100
AcDbEntity
  8
0
  6
Continuous
 62
     7
100
AcDbLine
 10
186.4168674699
 20
324.94440838
 30
0.0
 11
186.4168674699
 21
323.9066167418
 31
0.0
  0
LINE
  5
108
330
1F
100
AcDbEntity
  8
1
  6
Continuous
 62
     7
100
AcDbLine
 10
186.4168674699
 20
324.94440838
 30
0.0
 11
186.4168674699
 21
323.9066167418
 31
0.0
  0
LINE
  5
109
330
1F
100
AcDbEntity
  8
0
  6
Continuous
 62
     7
100
AcDbLine
 10
186.4168674699
 20
311.004000728
 30
0.0
 11
186.4168674699
 21
309.9662090899
 31
0.0
  0
LINE
  5
10A
330
1F
100
AcDbEntity
  8
1
  6
Continuous
 62
     7
100
AcDbLine
 10
186.4168674699
 20
311.004000728
 30
0.0
 11
186.4168674699
 21
309.9662090899
 31
0.0
  0
LINE
  5
10B
330
1F
100
AcDbEntity
  8
0
  6
Continuous
 62
     7
100
AcDbLine
 10
186.4168674699
 20
303.4669783662
 30
0.0
 11
186.4168674699
 21
303.4553087349
 31
0.0
  0
LINE
  5
10C
330
1F
100
AcDbEntity
  8
1
  6
Continuous
 62
     7
100
AcDbLine
 10
186.4168674699
 20
303.4669783662
 30
0.0
 11
186.4168674699
 21
303.4553087349
 31
0.0
  0
LINE
  5
10D
330
1F
100
AcDbEntity
  8
FLAECHEN
  6
Continuous
 62
     7
100
AcDbLine
 10
189.6668674699
 20
328.2053087349
 30
0.0
 11
189.6668674699
 21
306.7053087349
 31
0.0
  0
LINE
  5
10E
330
1F
100
AcDbEntity
  8
1
  6
Continuous
 62
     7
100
AcDbLine
 10
189.6668674699
 20
328.2053087349
 30
0.0
 11
189.6668674699
 21
306.7053087349
 31
0.0
  0
LWPOLYLINE
  5
10F
330
1F
100
AcDbEntity
  8
1
  6
DASHED
 62
     7
100
AcDbPolyline
 90
        2
 70
     0
 43
0.35
 10
171.8668674699
 20
328.4553087349
 10
179.0668674699
 20
328.4553087349
  0
LINE
  5
110
330
1F
100
AcDbEntity
  8
1
  6
Continuous
 62
     7
100
AcDbLine
 10
171.8668674699
 20
328.4553087349
 30
0.0
 11
171.8668674699
 21
306.4553087349
 31
0.0
  0
LWPOLYLINE
  5
111
330
1F
100
AcDbEntity
  8
1
  6
DASHED
 62
     7
100
AcDbPolyline
 90
        2
 70
     0
 43
0.35
 10
171.8668674699
 20
306.4553087349
 10
179.0668674699
 20
306.4553087349
  0
LINE
  5
112
330
1F
100
AcDbEntity
  8
1
  6
Continuous
 62
     7
100
AcDbLine
 10
171.8668674699
 20
306.4553087349
 30
0.0
 11
171.8668674699
 21
303.4553087349
 31
0.0
  0
LINE
  5
113
330
1F
100
AcDbEntity
  8
1
  6
Continuous
 62
     7
100
AcDbLine
 10
179.1668674699
 20
306.4553087349
 30
0.0
 11
179.1668674699
 21
303.4669783662
 31
0.0
  0
ARC
  5
114
330
1F
100
AcDbEntity
  8
FASEN
  6
Continuous
 62
     7
100
AcDbCircle
 10
124.0018294099
 20
309.1542445904
 30
0.0
 40
9.84384601950019
100
AcDbArc
 50
229.7068180621994
 51
232.5066621072585
  0
ARC
  5
115
330
1F
100
AcDbEntity
  8
FASEN
  6
Continuous
 62
     7
100
AcDbCircle
 10
122.1032357116
 20
301.1053087349
 30
0.0
 40
4.5
100
AcDbArc
 50
90.0
 51
173.1003589696013
  0
ARC
  5
116
330
1F
100
AcDbEntity
  8
FASEN
  6
Continuous
 62
     7
100
AcDbCircle
 10
122.1032357116
 20
301.1053087349
 30
0.0
 40
4.099981300799982
100
AcDbArc
 50
90.0
 51
176.6639061997959
  0
ARC
  5
117
330
1F
100
AcDbEntity
  8
RUNDUNGEN
  6
Continuous
 62
     7
100
AcDbCircle
 10
92.3668674699
 20
314.3303087349
 30
0.0
 40
0.8999999999999773
100
AcDbArc
 50
270.0
 51
352.9880362154771
  0
ARC
  5
118
330
1F
100
AcDbEntity
  8
0
  6
Continuous
 62
     7
100
AcDbCircle
 10
90.46686746990001
 20
304.0093221097
 30
0.0
 40
0.7999999999999972
100
AcDbArc
 50
179.9999999928389
 51
267.1318795122004
  0
ARC
  5
119
330
1F
100
AcDbEntity
  8
0
  6
Continuous
 62
     7
100
AcDbCircle
 10
109.5126903066
 20
302.1516087349
 30
0.0
 40
0.3999999999998922
100
AcDbArc
 50
67.30156454046652
 51
90.0
  0
ARC
  5
11A
330
1F
100
AcDbEntity
  8
0
  6
Continuous
 62
     7
100
AcDbCircle
 10
124.8793674699
 20
299.8303087349
 30
0.0
 40
0.25
100
AcDbArc
 50
90.0
 51
180.0
  0
ARC
  5
11B
330
1F
100
AcDbEntity
  8
0
  6
Continuous
 62
     7
100
AcDbCircle
 10
20.5732085698
 20
349.3426077638
 30
0.0
 40
113.6878631611278
100
AcDbArc
 50
335.0266103236013
 51
336.245436403
  0
ARC
  5
11C
330
1F
100
AcDbEntity
  8
0
  6
Continuous
 62
     7
100
AcDbCircle
 10
122.1313674699
 20
317.4553087349
 30
0.0
 40
4.514500000000055
100
AcDbArc
 50
90.0
 51
270.0
  0
ARC
  5
11D
330
1F
100
AcDbEntity
  8
FASEN
  6
Continuous
 62
     7
100
AcDbCircle
 10
122.1313674699
 20
317.4553087349
 30
0.0
 40
4.114498623500026
100
AcDbArc
 50
90.0
 51
270.0
  0
ARC
  5
11E
330
1F
100
AcDbEntity
  8
RUNDUNGEN
  6
Continuous
 62
     7
100
AcDbCircle
 10
92.3668674699
 20
320.5803087349
 30
0.0
 40
0.8999999999999906
100
AcDbArc
 50
7.01196301020744
 51
90.0
  0
ARC
  5
11F
330
1F
100
AcDbEntity
  8
0
  6
Continuous
 62
     7
100
AcDbCircle
 10
90.46686746990001
 20
330.9012953602
 30
0.0
 40
0.8000000000000014
100
AcDbArc
 50
92.86812048780064
 51
180.0000000501317
  0
ARC
  5
120
330
1F
100
AcDbEntity
  8
0
  6
Continuous
 62
     7
100
AcDbCircle
 10
108.4659386304
 20
332.7590087349
 30
0.0
 40
0.3999999999743193
100
AcDbArc
 50
255.0000000050954
 51
270.0
  0
ARC
  5
121
330
1F
100
AcDbEntity
  8
0
  6
Continuous
 62
     7
100
AcDbCircle
 10
109.5126903066
 20
332.7590087349
 30
0.0
 40
0.4000000000000341
100
AcDbArc
 50
270.0
 51
292.6984354595335
  0
ARC
  5
122
330
1F
100
AcDbEntity
  8
0
  6
Continuous
 62
     7
100
AcDbCircle
 10
124.8793674699
 20
335.0803087349
 30
0.0
 40
0.25
100
AcDbArc
 50
180.0
 51
270.0
  0
ARC
  5
123
330
1F
100
AcDbEntity
  8
RUNDUNGEN
  6
Continuous
 62
     7
100
AcDbCircle
 10
158.2958851571
 20
-255.2661323986
 30
0.0
 40
582.7717475341003
100
AcDbArc
 50
96.4957829749
 51
96.68778831039998
  0
ARC
  5
124
330
1F
100
AcDbEntity
  8
RUNDUNGEN
  6
Continuous
 62
     7
100
AcDbCircle
 10
132.6668674699
 20
300.4553087349
 30
0.0
 40
3.0
100
AcDbArc
 50
90.0
 51
174.9999997875975
  0
ARC
  5
125
330
1F
100
AcDbEntity
  8
RUNDUNGEN
  6
Continuous
 62
     7
100
AcDbCircle
 10
161.6526539075
 20
304.4553087349
 30
0.0
 40
1.0
100
AcDbArc
 50
270.0
 51
315.0000000040521
  0
ARC
  5
126
330
1F
100
AcDbEntity
  8
RUNDUNGEN
  6
Continuous
 62
     7
100
AcDbCircle
 10
165.4810810323
 20
305.4553087349
 30
0.0
 40
1.0
100
AcDbArc
 50
90.0
 51
135.0
  0
ARC
  5
127
330
1F
100
AcDbEntity
  8
0
  6
Continuous
 62
     7
100
AcDbCircle
 10
126.4543674699
 20
299.8303087349
 30
0.0
 40
0.25
100
AcDbArc
 50
0.0
 51
90.0
  0
ARC
  5
128
330
1F
100
AcDbEntity
  8
RUNDUNGEN
  6
Continuous
 62
     7
100
AcDbCircle
 10
158.2958851571
 20
890.1767498685
 30
0.0
 40
582.7717475341
100
AcDbArc
 50
263.3122116896
 51
263.5042170251
  0
ARC
  5
129
330
1F
100
AcDbEntity
  8
0
  6
Continuous
 62
     7
100
AcDbCircle
 10
230.7605263702
 20
349.3426077639
 30
0.0
 40
113.6878631614003
100
AcDbArc
 50
203.754563597
 51
204.9733896764018
  0
ARC
  5
12A
330
1F
100
AcDbEntity
  8
RUNDUNGEN
  6
Continuous
 62
     7
100
AcDbCircle
 10
132.6668674699
 20
334.4553087349
 30
0.0
 40
3.0
100
AcDbArc
 50
180.0
 51
270.0
  0
ARC
  5
12B
330
1F
100
AcDbEntity
  8
RUNDUNGEN
  6
Continuous
 62
     7
100
AcDbCircle
 10
161.6526539075
 20
330.4553087349
 30
0.0
 40
1.00000000001904
100
AcDbArc
 50
45.00000000000115
 51
90.0
  0
ARC
  5
12C
330
1F
100
AcDbEntity
  8
RUNDUNGEN
  6
Continuous
 62
     7
100
AcDbCircle
 10
165.4810810323
 20
329.4553087349
 30
0.0
 40
0.9999999999483181
100
AcDbArc
 50
224.9999999959468
 51
270.0
  0
ARC
  5
12D
330
1F
100
AcDbEntity
  8
0
  6
Continuous
 62
     7
100
AcDbCircle
 10
126.4543674699
 20
335.0803087349
 30
0.0
 40
0.25
100
AcDbArc
 50
270.0
 51
0.0
  0
CIRCLE
  5
12E
330
1F
100
AcDbEntity
  8
FASEN
  6
Continuous
 62
     7
100
AcDbCircle
 10
103.6668674699
 20
317.4553087349
 30
0.0
 40
2.299999999999997
  0
SPLINE
  5
12F
330
1F
100
AcDbEntity
  8
0
  6
Continuous
 62
     7
100
AcDbSpline
210
0.0
220
0.0
230
1.0
 70
     8
 71
     3
 72
    23
 73
    19
 74
    17
 42
0.0000000001
 43
0.0000000001
 44
0.00000001
 40
0.0
 40
0.0
 40
0.0
 40
0.0
 40
0.5071451100652674
 40
1.014414284584521
 40
1.490352341335355
 40
1.966249264029092
 40
2.411642089473931
 40
2.856896309137901
 40
3.282291174604395
 40
3.70750164243138
 40
4.132711653712366
 40
4.558106103347627
 40
5.003359793842425
 40
5.448751991693618
 40
5.924648293904986
 40
6.400585822981903
 40
6.907854660854675
 40
7.414999390701237
 40
7.414999390701237
 40
7.414999390701237
 40
7.414999390701237
 10
186.4168674699
 20
303.4669783662
 30
0.0
 10
186.5303426580124
 20
303.5923288191183
 30
0.0
 10
186.7573207940183
 20
303.8430603898182
 30
0.0
 10
187.065543867523
 20
304.2331891339705
 30
0.0
 10
187.3430586132377
 20
304.6330396670596
 30
0.0
 10
187.5774574565246
 20
305.0362157772952
 30
0.0
 10
187.769377632059
 20
305.4501073817021
 30
0.0
 10
187.9102087365879
 20
305.8666808763791
 30
0.0
 10
187.9967276073595
 20
306.2910415206809
 30
0.0
 10
188.0269354901052
 20
306.7165954734023
 30
0.0
 10
187.9967264979051
 20
307.1421491974487
 30
0.0
 10
187.9102071031955
 20
307.5665092169661
 30
0.0
 10
187.7693766188936
 20
307.9830823322711
 30
0.0
 10
187.5774571809121
 20
308.3969736528972
 30
0.0
 10
187.3430581292092
 20
308.8001489873143
 30
0.0
 10
187.0655430538152
 20
309.1999986690103
 30
0.0
 10
186.7573204103946
 20
309.5901272087427
 30
0.0
 10
186.5303425268918
 20
309.8408586880621
 30
0.0
 10
186.4168674699
 20
309.9662090899
 30
0.0
 11
186.4168674699
 21
303.4669783662
 31
0.0
 11
186.7529978681136
 21
303.8467315993132
 31
0.0
 11
187.067674594876
 21
304.2446016447445
 31
0.0
 11
187.3377272846645
 21
304.6365054321743
 31
0.0
 11
187.5758593380457
 21
305.0485382053632
 31
0.0
 11
187.7619509988158
 21
305.4531919619868
 31
0.0
 11
187.9031698018879
 21
305.8754579561036
 31
0.0
 11
187.9875731596074
 21
306.2923954391522
 31
0.0
 11
188.016867466482
 21
306.716595610692
 31
0.0
 11
187.9875721467453
 21
307.1407952546512
 31
0.0
 11
187.903168348087
 21
307.5577322241712
 31
0.0
 11
187.7619499861341
 21
307.9799978078346
 31
0.0
 11
187.5758589062357
 21
308.3846511408111
 31
0.0
 11
187.3377268101104
 21
308.7966831726404
 31
0.0
 11
187.0676739591088
 21
309.1885862081604
 31
0.0
 11
186.752997471797
 21
309.5864560137626
 31
0.0
 11
186.4168674699
 21
309.9662090899
 31
0.0
  0
SPLINE
  5
130
330
1F
100
AcDbEntity
  8
0
  6
Continuous
 62
     7
100
AcDbSpline
210
0.0
220
0.0
230
1.0
 70
     8
 71
     3
 72
    23
 73
    19
 74
    17
 42
0.0000000001
 43
0.0000000001
 44
0.00000001
 40
0.0
 40
0.0
 40
0.0
 40
0.0
 40
0.8363793885110514
 40
1.672871723223459
 40
2.509588730687951
 40
3.346271527053962
 40
4.182913791066787
 40
5.019548542613216
 40
5.856376247518869
 40
6.693185900236474
 40
7.529994614783498
 40
8.36682140856925
 40
9.203455318733011
 40
10.04009667838041
 40
10.87677803855479
 40
11.71349366974516
 40
12.5499854498846
 40
13.3863642551324
 40
13.3863642551324
 40
13.3863642551324
 40
13.3863642551324
 10
186.4168674699
 20
311.004000728
 30
0.0
 10
186.5309952711033
 20
311.2583998734146
 30
0.0
 10
186.7592662855366
 20
311.7672325187694
 30
0.0
 10
187.0637941577561
 20
312.5467381081704
 30
0.0
 10
187.335028689916
 20
313.3384636248771
 30
0.0
 10
187.5658334854739
 20
314.1431026373765
 30
0.0
 10
187.751970527175
 20
314.9592522196334
 30
0.0
 10
187.8890766864852
 20
315.7851948418838
 30
0.0
 10
187.9728334847451
 20
316.6183476410437
 30
0.0
 10
188.0013846556668
 20
317.4553121657991
 30
0.0
 10
187.9728322807107
 20
318.2922763389388
 30
0.0
 10
187.8890749727053
 20
319.1254281612066
 30
0.0
 10
187.7519695434814
 20
319.9513699890401
 30
0.0
 10
187.5658332718131
 20
320.7675186771371
 30
0.0
 10
187.3350281348308
 20
321.5721563198825
 30
0.0
 10
187.0637931960419
 20
322.3638804972425
 30
0.0
 10
186.7592658658437
 20
323.1433853893603
 30
0.0
 10
186.5309951299034
 20
323.6522177454054
 30
0.0
 10
186.4168674699
 20
323.9066167418
 30
0.0
 11
186.4168674699
 21
311.004000728
 31
0.0
 11
186.7529329325117
 21
311.7698926827597
 31
0.0
 11
187.0582135330434
 21
312.5486886643696
 31
0.0
 11
187.3282909667358
 21
313.3406189203836
 31
0.0
 11
187.5583934045091
 21
314.1450385682451
 31
0.0
 11
187.7437980221993
 21
314.9608788747216
 31
0.0
 11
187.8801753914584
 21
315.7863235552721
 31
0.0
 11
187.9636319467481
 21
316.6189793131198
 31
0.0
 11
187.9918674665085
 21
317.4553124706026
 31
0.0
 11
187.9636308559655
 21
318.2916446525536
 31
0.0
 11
187.8801738874734
 21
319.1242994533011
 31
0.0
 11
187.7437970344976
 21
319.9497433663614
 31
0.0
 11
187.5583929542148
 21
320.7655828675423
 31
0.0
 11
187.3282904144253
 21
321.5700009924287
 31
0.0
 11
187.058212839876
 21
322.3619297462973
 31
0.0
 11
186.7529325047491
 21
323.1407252362853
 31
0.0
 11
186.4168674699
 21
323.9066167418
 31
0.0
  0
SPLINE
  5
131
330
1F
100
AcDbEntity
  8
0
  6
Continuous
 62
     7
100
AcDbSpline
210
0.0
220
0.0
230
1.0
 70
     8
 71
     3
 72
    23
 73
    19
 74
    17
 42
0.0000000001
 43
0.0000000001
 44
0.00000001
 40
0.0
 40
0.0
 40
0.0
 40
0.0
 40
0.5071451100852302
 40
1.014414284629228
 40
1.490352341369203
 40
1.966249264037004
 40
2.411642089471875
 40
2.856896309148622
 40
3.282291174645648
 40
3.707501642491063
 40
4.132711653753504
 40
4.558106103358402
 40
5.003359793838537
 40
5.448751991687664
 40
5.924648293899081
 40
6.400585822976044
 40
6.907854660848817
 40
7.414999390695336
 40
7.414999390695336
 40
7.414999390695336
 40
7.414999390695336
 10
186.4168674699
 20
324.94440838
 30
0.0
 10
186.5303426580131
 20
325.0697588329268
 30
0.0
 10
186.7573207940215
 20
325.3204904036448
 30
0.0
 10
187.0655438675106
 20
325.7106191478235
 30
0.0
 10
187.3430586132339
 20
326.1104696809006
 30
0.0
 10
187.5774574565285
 20
326.513645791114
 30
0.0
 10
187.7693776320633
 20
326.9275373955127
 30
0.0
 10
187.9102087365905
 20
327.3441108902023
 30
0.0
 10
187.996727607358
 20
327.7684715345258
 30
0.0
 10
188.0269354901052
 20
328.1940254872571
 30
0.0
 10
187.9967264979065
 20
328.6195792112936
 30
0.0
 10
187.9102071031932
 20
329.0439392307888
 30
0.0
 10
187.769376618891
 20
329.4605123460768
 30
0.0
 10
187.5774571809117
 20
329.8744036666977
 30
0.0
 10
187.3430581292093
 20
330.2775790011143
 30
0.0
 10
187.0655430538152
 20
330.6774286828103
 30
0.0
 10
186.7573204103946
 20
331.0675572225426
 30
0.0
 10
186.5303425268918
 20
331.3182887018621
 30
0.0
 10
186.4168674699
 20
331.4436391037
 30
0.0
 11
186.4168674699
 21
324.94440838
 31
0.0
 11
186.7529978681136
 21
325.3241616131398
 31
0.0
 11
187.067674594876
 21
325.7220316586028
 31
0.0
 11
187.3377272846645
 21
326.1139354460193
 31
0.0
 11
187.5758593380457
 21
326.5259682191783
 31
0.0
 11
187.7619509988158
 21
326.9306219757909
 31
0.0
 11
187.9031698018879
 21
327.3528879699212
 31
0.0
 11
187.9875731596074
 21
327.769825453001
 31
0.0
 11
188.016867466482
 21
328.1940256245592
 31
0.0
 11
187.9875721467453
 21
328.6182252684998
 31
0.0
 11
187.903168348087
 21
329.0351622379889
 31
0.0
 11
187.7619499861341
 21
329.4574278216368
 31
0.0
 11
187.5758589062357
 21
329.862081154611
 31
0.0
 11
187.3377268101104
 21
330.2741131864404
 31
0.0
 11
187.0676739591088
 21
330.6660162219604
 31
0.0
 11
186.752997471797
 21
331.0638860275626
 31
0.0
 11
186.4168674699
 21
331.4436391037
 31
0.0
  0
SPLINE
  5
132
330
1F
100
AcDbEntity
  8
BEZUGSACHSEN
  6
Continuous
 62
     7
100
AcDbSpline
210
0.0
220
0.0
230
1.0
 70
     8
 71
     3
 72
    15
 73
    11
 74
     9
 42
0.0000000001
 43
0.0000000001
 44
0.00000001
 40
0.0
 40
0.0
 40
0.0
 40
0.0
 40
0.9606477050133023
 40
1.921519378163104
 40
2.738310931299041
 40
3.555000523483472
 40
4.107190716067504
 40
4.65935562344231
 40
4.855983959609306
 40
5.052604368527332
 40
5.052604368527332
 40
5.052604368527332
 40
5.052604368527332
 10
116.6668674699
 20
336.820225466
 30
0.0
 10
116.3466205534341
 20
336.8248402162684
 30
0.0
 10
115.7060520572261
 20
336.8340707927013
 30
0.0
 10
114.7954116874835
 20
336.9042558965376
 30
0.0
 10
113.9364996427193
 20
337.0061859152265
 30
0.0
 10
113.2168890214478
 20
337.1214040095167
 30
0.0
 10
112.5880817245929
 20
337.2427329453223
 30
0.0
 10
112.1644485885115
 20
337.3356816151017
 30
0.0
 10
111.8577366779825
 20
337.4080846308029
 30
0.0
 10
111.7304896842307
 20
337.4395675784158
 30
0.0
 10
111.6668674699
 20
337.4553087349
 30
0.0
 11
116.6668674699
 21
336.820225466
 31
0.0
 11
115.7065157928997
 21
336.844072260964
 31
0.0
 11
114.7482686529872
 21
336.9150426147119
 31
0.0
 11
113.9372132079681
 21
337.0116733881707
 31
0.0
 11
113.1307379949073
 21
337.1404352641309
 31
0.0
 11
112.5885429276403
 21
337.2450226334321
 31
0.0
 11
112.0491672980132
 21
337.3631751412372
 31
0.0
 11
111.8578168851711
 21
337.4084269046166
 31
0.0
 11
111.6668674699
 21
337.4553087349
 31
0.0
  0
SPLINE
  5
133
330
1F
100
AcDbEntity
  8
BEZUGSACHSEN
  6
Continuous
 62
     7
100
AcDbSpline
210
0.0
220
0.0
230
1.0
 70
     8
 71
     3
 72
    15
 73
    11
 74
     9
 42
0.0000000001
 43
0.0000000001
 44
0.00000001
 40
0.0
 40
0.0
 40
0.0
 40
0.0
 40
0.1966144690899918
 40
0.3932368665327185
 40
0.9453924840108326
 40
1.497573379405908
 40
2.314268097556853
 40
3.131064801053224
 40
4.091946561178267
 40
5.05260432575304
 40
5.05260432575304
 40
5.05260432575304
 40
5.05260432575304
 10
121.6668674699
 20
337.4553087349
 30
0.0
 10
121.6032471749846
 20
337.4395680645884
 30
0.0
 10
121.476004019706
 20
337.4080860892329
 30
0.0
 10
121.1692990042993
 20
337.3356845797572
 30
0.0
 10
120.7456739406081
 20
337.2427372796091
 30
0.0
 10
120.1168712106696
 20
337.1214083670038
 30
0.0
 10
119.3972603679341
 20
337.0061895425932
 30
0.0
 10
118.5383416612249
 20
336.9042581001651
 30
0.0
 10
117.6276929539248
 20
336.834071282149
 30
0.0
 10
116.9871177404365
 20
336.824840379365
 30
0.0
 10
116.6668674699
 20
336.820225466
 30
0.0
 11
121.6668674699
 21
337.4553087349
 31
0.0
 11
121.475923819543
 21
337.408428335543
 31
0.0
 11
121.2845792016165
 21
337.3631778729299
 31
0.0
 11
120.7452127478956
 21
337.2450268910756
 31
0.0
 11
120.2030269408509
 21
337.1404406019232
 31
0.0
 11
119.3965467997308
 21
337.0116770797807
 31
0.0
 11
118.5854863221595
 21
336.9150450117893
 31
0.0
 11
117.6272291915982
 21
336.8440729844155
 31
0.0
 11
116.6668674699
 21
336.820225466
 31
0.0
  0
SPLINE
  5
134
330
1F
100
AcDbEntity
  8
RUNDUNGEN
  6
Continuous
 62
     7
100
AcDbSpline
210
0.0
220
0.0
230
1.0
 70
     8
 71
     3
 72
    11
 73
     7
 74
     5
 42
0.0000000001
 43
0.0000000001
 44
0.00000001
 40
0.0
 40
0.0
 40
0.0
 40
0.0
 40
0.284074041807677
 40
0.5685904708503445
 40
0.8564162982426413
 40
1.143349105239851
 40
1.143349105239851
 40
1.143349105239851
 40
1.143349105239851
 10
92.95958816630001
 20
323.3603087349
 30
0.0
 10
93.00304679508432
 20
323.2760652193346
 30
0.0
 10
93.0900317305812
 20
323.1074469961537
 30
0.0
 10
93.18586762363462
 20
322.8378689552413
 30
0.0
 10
93.253115689494
 20
322.5580844073436
 30
0.0
 10
93.26228829368496
 20
322.3663294532325
 30
0.0
 10
93.2668674699
 20
322.270600944
 30
0.0
 11
92.95958816630001
 21
323.3603087349
 31
0.0
 11
93.08413370319387
 21
323.1049923224452
 31
0.0
 11
93.1807391124468
 21
322.8373788076552
 31
0.0
 11
93.2442055360751
 21
322.5566374320337
 31
0.0
 11
93.2668674699
 21
322.270600944
 31
0.0
  0
SPLINE
  5
135
330
1F
100
AcDbEntity
  8
RUNDUNGEN
  6
Continuous
 62
     7
100
AcDbSpline
210
0.0
220
0.0
230
1.0
 70
     8
 71
     3
 72
    17
 73
    13
 74
    11
 42
0.0000000001
 43
0.0000000001
 44
0.00000001
 40
0.0
 40
0.0
 40
0.0
 40
0.0
 40
0.0498866572798976
 40
0.0998344446266611
 40
0.1492040595506541
 40
0.1985685183127153
 40
0.2944064655938186
 40
0.3905515039505625
 40
0.4839722007803533
 40
0.5773295177501437
 40
0.6695303450130221
 40
0.7616858721989209
 40
0.7616858721989209
 40
0.7616858721989209
 40
0.7616858721989209
 10
92.3668674699
 20
323.7643282429
 30
0.0
 10
92.38346002528517
 20
323.765666373533
 30
0.0
 10
92.41666546822601
 20
323.7683442745163
 30
0.0
 10
92.46646462439303
 20
323.765228952868
 30
0.0
 10
92.51540892347879
 20
323.7569419739708
 30
0.0
 10
92.57788983471349
 20
323.7390887702156
 30
0.0
 10
92.6513819778356
 20
323.7050990444134
 30
0.0
 10
92.72999441856513
 20
323.6508697995288
 30
0.0
 10
92.79945830482116
 20
323.5866823943286
 30
0.0
 10
92.85990589213215
 20
323.5158209166706
 30
0.0
 10
92.91364628637746
 20
323.4402619682384
 30
0.0
 10
92.944276715164
 20
323.3869554465167
 30
0.0
 10
92.95958816630001
 20
323.3603087349
 30
0.0
 11
92.3668674699
 21
323.7643282429
 31
0.0
 11
92.41667406129497
 21
323.7671534912389
 31
0.0
 11
92.46654261924435
 21
323.7643413054544
 31
0.0
 11
92.51521144384957
 21
323.7560524943641
 31
0.0
 11
92.56268749066395
 21
323.7425293746149
 31
0.0
 11
92.64989794489314
 21
323.7027896109997
 31
0.0
 11
92.7292857798993
 21
323.6485545664837
 31
0.0
 11
92.79812592099414
 21
323.5854002984553
 31
0.0
 11
92.85906845295833
 21
323.5146783327756
 31
0.0
 11
92.91239333662908
 21
323.4394623150038
 31
0.0
 11
92.95958816630001
 21
323.3603087349
 31
0.0
  0
SPLINE
  5
136
330
1F
100
AcDbEntity
  8
0
  6
Continuous
 62
     7
100
AcDbSpline
210
0.0
220
0.0
230
1.0
 70
     8
 71
     3
 72
    11
 73
     7
 74
     5
 42
0.0000000001
 43
0.0000000001
 44
0.00000001
 40
0.0
 40
0.0
 40
0.0
 40
0.0
 40
0.0543309618759607
 40
0.1088117187645079
 40
0.1632583665602023
 40
0.2176288252425683
 40
0.2176288252425683
 40
0.2176288252425683
 40
0.2176288252425683
 10
90.426837676
 20
311.3704764765
 30
0.0
 10
90.4089316960889
 20
311.3734211380805
 30
0.0
 10
90.37307036798035
 20
311.3793185799202
 30
0.0
 10
90.32172694347807
 20
311.3981275937132
 30
0.0
 10
90.27296543778866
 20
311.4226493103127
 30
0.0
 10
90.24318292764691
 20
311.4434282396787
 30
0.0
 10
90.2283020988
 20
311.4538104301
 30
0.0
 11
90.426837676
 21
311.3704764765
 31
0.0
 11
90.37352884010306
 21
311.3809655867425
 31
0.0
 11
90.32214912437307
 21
311.3990840216268
 31
0.0
 11
90.2736213333724
 21
311.4237718922677
 31
0.0
 11
90.2283020988
 21
311.4538104301
 31
0.0
  0
SPLINE
  5
137
330
1F
100
AcDbEntity
  8
RUNDUNGEN
  6
Continuous
 62
     7
100
AcDbSpline
210
0.0
220
0.0
230
1.0
 70
     8
 71
     3
 72
    11
 73
     7
 74
     5
 42
0.0000000001
 43
0.0000000001
 44
0.00000001
 40
0.0
 40
0.0
 40
0.0
 40
0.0
 40
0.2869328098533258
 40
0.5747586399706023
 40
0.8592750662924946
 40
1.143349105494992
 40
1.143349105494992
 40
1.143349105494992
 40
1.143349105494992
 10
93.2668674699
 20
312.6400165259
 30
0.0
 10
93.26228829368748
 20
312.5442880157133
 30
0.0
 10
93.25311568950383
 20
312.3525330597382
 30
0.0
 10
93.18586762338602
 20
312.0727485108715
 30
0.0
 10
93.09003172968525
 20
311.8031704711157
 30
0.0
 10
93.00304679479152
 20
311.6345522496333
 30
0.0
 10
92.95958816630001
 20
311.5503087349
 30
0.0
 11
93.2668674699
 21
312.6400165259
 31
0.0
 11
93.2442055359619
 21
312.3539800350103
 31
0.0
 11
93.18073911152695
 21
312.0732386567773
 31
0.0
 11
93.08413370247047
 21
311.805625144809
 31
0.0
 11
92.95958816630001
 21
311.5503087349
 31
0.0
  0
SPLINE
  5
138
330
1F
100
AcDbEntity
  8
RUNDUNGEN
  6
Continuous
 62
     7
100
AcDbSpline
210
0.0
220
0.0
230
1.0
 70
     8
 71
     3
 72
    17
 73
    13
 74
    11
 42
0.0000000001
 43
0.0000000001
 44
0.00000001
 40
0.0
 40
0.0
 40
0.0
 40
0.0
 40
0.0921565574363263
 40
0.1843584530000121
 40
0.2777172409271879
 40
0.3711392571841097
 40
0.4672851119835841
 40
0.5631242132412178
 40
0.6124865682205822
 40
0.6618539014331931
 40
0.7118003920270277
 40
0.7616858911433795
 40
0.7616858911433795
 40
0.7616858911433795
 40
0.7616858911433795
 10
92.95958816630001
 20
311.5503087349
 30
0.0
 10
92.94427653324317
 20
311.523661730894
 30
0.0
 10
92.91364573428766
 20
311.4703546133942
 30
0.0
 10
92.85990448605988
 20
311.3947948047428
 30
0.0
 10
92.79945583457632
 20
311.3239325353009
 30
0.0
 10
92.729990525962
 20
311.2597448365281
 30
0.0
 10
92.65137618930518
 20
311.2055163538083
 30
0.0
 10
92.57788385825663
 20
311.1715274214048
 30
0.0
 10
92.51540428351211
 20
311.1536735996953
 30
0.0
 10
92.46646187499903
 20
311.1453864664554
 30
0.0
 10
92.41666419344449
 20
311.1422726640499
 30
0.0
 10
92.38345961573312
 20
311.1449509180353
 30
0.0
 10
92.3668674699
 20
311.1462892269
 30
0.0
 11
92.95958816630001
 21
311.5503087349
 31
0.0
 11
92.91239275532502
 21
311.4711543019135
 31
0.0
 11
92.8590671048874
 21
311.3959375182084
 31
0.0
 11
92.79812334527536
 21
311.3252146686647
 31
0.0
 11
92.72928167327102
 21
311.2620601176239
 31
0.0
 11
92.6498923602503
 21
311.2078257892588
 31
0.0
 11
92.56268060304625
 21
311.1680861021028
 31
0.0
 11
92.51520672029508
 21
311.1545630645137
 31
0.0
 11
92.46654017955083
 21
311.1462744337152
 31
0.0
 11
92.41667286193183
 21
311.1434632851732
 31
0.0
 11
92.3668674699
 21
311.1462892269
 31
0.0
  0
SPLINE
  5
139
330
1F
100
AcDbEntity
  8
0
  6
Continuous
 62
     7
100
AcDbSpline
210
0.0
220
0.0
230
1.0
 70
     8
 71
     3
 72
    15
 73
    11
 74
     9
 42
0.0000000001
 43
0.0000000001
 44
0.00000001
 40
0.0
 40
0.0
 40
0.0
 40
0.0
 40
0.0291928827203767
 40
0.0584749030355299
 40
0.0893472907402888
 40
0.1202111503278771
 40
0.1539964535774123
 40
0.1878186150881962
 40
0.2252201505635957
 40
0.2625568083103551
 40
0.2625568083103551
 40
0.2625568083103551
 40
0.2625568083103551
 10
126.7043674699
 20
321.7608324245
 30
0.0
 10
126.7038688896307
 20
321.7510910366076
 30
0.0
 10
126.7028702067261
 20
321.7315785164534
 30
0.0
 10
126.6950302490062
 20
321.7026269982077
 30
0.0
 10
126.6825471173988
 20
321.6748511647406
 30
0.0
 10
126.6648639113854
 20
321.6482106249644
 30
0.0
 10
126.6426021286895
 20
321.623897662112
 30
0.0
 10
126.6152501287594
 20
321.6019018913432
 30
0.0
 10
126.5840684596365
 20
321.5831677476617
 30
0.0
 10
126.5607620377701
 20
321.5742591614052
 30
0.0
 10
126.5491189426
 20
321.5698087349
 30
0.0
 11
126.7043674699
 21
321.7608324245
 31
0.0
 11
126.7018417975207
 21
321.7317490034399
 31
0.0
 11
126.6944656159794
 21
321.703411243126
 31
0.0
 11
126.6818053257587
 21
321.6752541592195
 31
0.0
 11
126.6648013402605
 21
321.649496785405
 31
0.0
 11
126.642029685334
 21
321.6245388518453
 31
0.0
 11
126.6157527255221
 21
321.6032442517713
 31
0.0
 11
126.5835891625682
 21
321.5841555096957
 31
0.0
 11
126.5491189426
 21
321.5698087349
 31
0.0
  0
SPLINE
  5
13A
330
1F
100
AcDbEntity
  8
0
  6
Continuous
 62
     7
100
AcDbSpline
210
0.0
220
0.0
230
1.0
 70
     8
 71
     3
 72
    23
 73
    19
 74
    17
 42
0.0000000001
 43
0.0000000001
 44
0.00000001
 40
0.0
 40
0.0
 40
0.0
 40
0.0
 40
0.0548015920485912
 40
0.1096656056858727
 40
0.1578548538913127
 40
0.2059946210535183
 40
0.248497117590096
 40
0.2907975467522652
 40
0.3320753431053707
 40
0.3735180890679654
 40
0.4187669595089154
 40
0.4640702100266685
 40
0.5148888564762485
 40
0.5656834468912875
 40
0.6214947219917393
 40
0.6773144167758771
 40
0.7370934749540097
 40
0.7968569073484282
 40
0.7968569073484282
 40
0.7968569073484282
 40
0.7968569073484282
 10
89.66686746990001
 20
323.3172550265
 30
0.0
 10
89.66725893786894
 20
323.3355302536451
 30
0.0
 10
89.66804231970718
 20
323.372101524278
 30
0.0
 10
89.67553548959475
 20
323.4243308760823
 30
0.0
 10
89.68836647478841
 20
323.4732007667714
 30
0.0
 10
89.70738741102898
 20
323.5157119580109
 30
0.0
 10
89.73331821825124
 20
323.5519974130465
 30
0.0
 10
89.76491509200963
 20
323.5803842123908
 30
0.0
 10
89.80251902781745
 20
323.5993220701921
 30
0.0
 10
89.84416818667381
 20
323.6098279709652
 30
0.0
 10
89.88841688028955
 20
323.6116138950202
 30
0.0
 10
89.93530754658062
 20
323.6056506978563
 30
0.0
 10
89.98284600252079
 20
323.5934131868734
 30
0.0
 10
90.03205139943663
 20
323.574975461774
 30
0.0
 10
90.08105363742126
 20
323.551815522388
 30
0.0
 10
90.1308330670042
 20
323.5237014777027
 30
0.0
 10
90.18009567127675
 20
323.4921596629983
 30
0.0
 10
90.21223468995711
 20
323.468590220587
 30
0.0
 10
90.2283020988
 20
323.4568070398
 30
0.0
 11
89.66686746990001
 21
323.3172550265
 31
0.0
 11
89.66914619195337
 21
323.372009221927
 31
0.0
 11
89.67694462940365
 21
323.4263161677602
 31
0.0
 11
89.68962767122409
 21
323.4728064258019
 31
0.0
 11
89.70964379088782
 21
323.5165876105282
 31
0.0
 11
89.73454107459091
 21
323.5510344895748
 31
0.0
 11
89.76624552043944
 21
323.5790372469523
 31
0.0
 11
89.80297778294164
 21
323.5978680027321
 31
0.0
 11
89.84312296992528
 21
323.6081570821354
 31
0.0
 11
89.8883185021839
 21
323.6103534746416
 31
0.0
 11
89.93330498223918
 21
323.6050054731727
 31
0.0
 11
89.98257397230356
 21
323.5925515001117
 31
0.0
 11
90.03022017081139
 21
323.5749466660261
 31
0.0
 11
90.08073637289978
 21
323.5512187972869
 31
0.0
 11
90.12942737014801
 21
323.5239236491325
 31
0.0
 11
90.17973927611827
 21
323.4916397845203
 31
0.0
 11
90.2283020988
 21
323.4568070398
 31
0.0
  0
SPLINE
  5
13B
330
1F
100
AcDbEntity
  8
0
  6
Continuous
 62
     7
100
AcDbSpline
210
0.0
220
0.0
230
1.0
 70
     8
 71
     3
 72
    11
 73
     7
 74
     5
 42
0.0000000001
 43
0.0000000001
 44
0.00000001
 40
0.0
 40
0.0
 40
0.0
 40
0.0
 40
0.0543555268953088
 40
0.1087869225308075
 40
0.1632830352859679
 40
0.2176296539300324
 40
0.2176296539300324
 40
0.2176296539300324
 40
0.2176296539300324
 10
90.2283020988
 20
323.4568070398
 30
0.0
 10
90.2431784678217
 20
323.4671868662638
 30
0.0
 10
90.27295197010827
 20
323.4879610072186
 30
0.0
 10
90.32170646393783
 20
323.5124855328421
 30
0.0
 10
90.37305489614582
 20
323.5312970000556
 30
0.0
 10
90.40892650578223
 20
323.5371956962133
 30
0.0
 10
90.426837676
 20
323.5401409934
 30
0.0
 11
90.2283020988
 21
323.4568070398
 31
0.0
 11
90.27360752650436
 21
323.4868393811105
 31
0.0
 11
90.32211970252649
 21
323.511524307856
 31
0.0
 11
90.37351339498015
 21
323.5296492818256
 31
0.0
 11
90.426837676
 21
323.5401409934
 31
0.0
  0
SPLINE
  5
13C
330
1F
100
AcDbEntity
  8
RUNDUNGEN
  6
Continuous
 62
     7
100
AcDbSpline
210
0.0
220
0.0
230
1.0
 70
     8
 71
     3
 72
     9
 73
     5
 74
     3
 42
0.0000000001
 43
0.0000000001
 44
0.00000001
 40
0.0
 40
0.0
 40
0.0
 40
0.0
 40
0.9205229741725208
 40
1.841045948221583
 40
1.841045948221583
 40
1.841045948221583
 40
1.841045948221583
 10
129.6685345997
 20
317.4551586644
 30
0.0
 10
129.6682567106646
 20
317.1483177988437
 30
0.0
 10
129.6677009325938
 20
316.534636067772
 30
0.0
 10
129.6671452907979
 20
315.920954336577
 30
0.0
 10
129.6668674699
 20
315.614113471
 30
0.0
 11
129.6685345997
 21
317.4551586644
 31
0.0
 11
129.6677009666625
 21
316.5346360677
 31
0.0
 11
129.6668674699
 21
315.614113471
 31
0.0
  0
SPLINE
  5
13D
330
1F
100
AcDbEntity
  8
0
  6
Continuous
 62
     7
100
AcDbSpline
210
0.0
220
0.0
230
1.0
 70
     8
 71
     3
 72
    13
 73
     9
 74
     7
 42
0.0000000001
 43
0.0000000001
 44
0.00000001
 40
0.0
 40
0.0
 40
0.0
 40
0.0
 40
0.0161119176392569
 40
0.0323835566237055
 40
0.0565085409526849
 40
0.0807351378882818
 40
0.1049182737798392
 40
0.1290347651535735
 40
0.1290347651535735
 40
0.1290347651535735
 40
0.1290347651535735
 10
126.4543674699
 20
313.4203830851
 30
0.0
 10
126.4597465320541
 20
313.4199007797109
 30
0.0
 10
126.4705579803094
 20
313.4189313877226
 30
0.0
 10
126.4881134045922
 20
313.4114427791286
 30
0.0
 10
126.5057345879025
 20
313.3987586729295
 30
0.0
 10
126.5221470508747
 20
313.3808755058942
 30
0.0
 10
126.5366716904763
 20
313.3615071897061
 30
0.0
 10
126.5449736769588
 20
313.3477018702429
 30
0.0
 10
126.5491189426
 20
313.3408087349
 30
0.0
 11
126.4543674699
 21
313.4203830851
 31
0.0
 11
126.4703187793394
 21
313.4181138083023
 31
0.0
 11
126.4854246063907
 21
313.4120656495467
 31
0.0
 11
126.5051482937114
 21
313.3981735284937
 31
0.0
 11
126.5218416195641
 21
313.380616169038
 31
0.0
 11
126.5363413770058
 21
313.3612620713923
 31
0.0
 11
126.5491189426
 21
313.3408087349
 31
0.0
  0
SPLINE
  5
13E
330
1F
100
AcDbEntity
  8
0
  6
Continuous
 62
     7
100
AcDbSpline
210
0.0
220
0.0
230
1.0
 70
     8
 71
     3
 72
    17
 73
    13
 74
    11
 42
0.0000000001
 43
0.0000000001
 44
0.00000001
 40
0.0
 40
0.0
 40
0.0
 40
0.0
 40
0.0161034839116642
 40
0.0322076501043572
 40
0.0442920545243535
 40
0.0563777824863631
 40
0.0684771684713744
 40
0.0805744755384464
 40
0.0926944166447035
 40
0.1048260721927072
 40
0.1170058953240507
 40
0.129123071261482
 40
0.129123071261482
 40
0.129123071261482
 40
0.129123071261482
 10
124.7846159972
 20
313.3408087349
 30
0.0
 10
124.7873549240978
 20
313.3454262880327
 30
0.0
 10
124.7928328939376
 20
313.3546615899371
 30
0.0
 10
124.8011428057161
 20
313.366878107612
 30
0.0
 10
124.8092574073217
 20
313.377578960817
 30
0.0
 10
124.8171020461376
 20
313.3867877447087
 30
0.0
 10
124.825537105678
 20
313.3954711939612
 30
0.0
 10
124.8347042208881
 20
313.4034027240469
 30
0.0
 10
124.8446857098845
 20
313.4103337698818
 30
0.0
 10
124.8555621589327
 20
313.4158004180174
 30
0.0
 10
124.8672145222092
 20
313.4195865064025
 30
0.0
 10
124.8753234566743
 20
313.4201180156806
 30
0.0
 10
124.8793674699
 20
313.4203830851
 30
0.0
 11
124.7846159972
 21
313.3408087349
 31
0.0
 11
124.7929739495588
 21
313.354573429828
 31
0.0
 11
124.8020245601763
 21
313.3678937382408
 31
0.0
 11
124.8093465844955
 21
313.3775073114608
 31
0.0
 11
124.817196907027
 21
313.3866962861872
 31
0.0
 11
124.825658221571
 21
313.3953450605167
 31
0.0
 11
124.8348325428957
 21
313.4032302787448
 31
0.0
 11
124.8448275207651
 21
313.4100854512307
 31
0.0
 11
124.8556768593589
 21
313.4155139794302
 31
0.0
 11
124.8673192712893
 21
313.4190920146384
 31
0.0
 11
124.8793674699
 21
313.4203830851
 31
0.0
  0
SPLINE
  5
13F
330
1F
100
AcDbEntity
  8
0
  6
Continuous
 62
     7
100
AcDbSpline
210
0.0
220
0.0
230
1.0
 70
     8
 71
     3
 72
    13
 73
     9
 74
     7
 42
0.0000000001
 43
0.0000000001
 44
0.00000001
 40
0.0
 40
0.0
 40
0.0
 40
0.0
 40
0.0161159233219329
 40
0.0323921466302146
 40
0.0565136430993111
 40
0.0807357155062288
 40
0.1049176590781177
 40
0.1290332869823522
 40
0.1290332869823522
 40
0.1290332869823522
 40
0.1290332869823522
 10
124.8793674699
 20
321.4902343848
 30
0.0
 10
124.8739870733507
 20
321.4907172851794
 30
0.0
 10
124.8631727631514
 20
321.4916878891952
 30
0.0
 10
124.8456175242783
 20
321.4991815405128
 30
0.0
 10
124.8279977811254
 20
321.5118647893142
 30
0.0
 10
124.8115858509866
 20
321.5297443816449
 30
0.0
 10
124.797062536444
 20
321.5491109918423
 30
0.0
 10
124.7887610441206
 20
321.5629158055127
 30
0.0
 10
124.7846159972
 20
321.5698087349
 30
0.0
 11
124.8793674699
 21
321.4902343848
 31
0.0
 11
124.8634124501322
 21
321.4925060204945
 31
0.0
 11
124.8483035483418
 21
321.4985588323921
 31
0.0
 11
124.8285833715606
 21
321.5124498805753
 31
0.0
 11
124.8118922151402
 21
321.5300030594622
 31
0.0
 11
124.7973929306075
 21
321.5493560215857
 31
0.0
 11
124.7846159972
 21
321.5698087349
 31
0.0
  0
SPLINE
  5
140
330
1F
100
AcDbEntity
  8
0
  6
Continuous
 62
     7
100
AcDbSpline
210
0.0
220
0.0
230
1.0
 70
     8
 71
     3
 72
    17
 73
    13
 74
    11
 42
0.0000000001
 43
0.0000000001
 44
0.00000001
 40
0.0
 40
0.0
 40
0.0
 40
0.0
 40
0.0161052165920597
 40
0.0322114216365457
 40
0.0442975720962172
 40
0.0563844320588193
 40
0.0684883750158045
 40
0.0805914434363678
 40
0.0927083311258689
 40
0.1048350425623524
 40
0.1170106597787641
 40
0.1291252292964464
 40
0.1291252292964464
 40
0.1291252292964464
 40
0.1291252292964464
 10
126.5491189426
 20
321.5698087349
 30
0.0
 10
126.5463794627284
 20
321.565190833626
 30
0.0
 10
126.5409003348505
 20
321.5559547476561
 30
0.0
 10
126.5325889252775
 20
321.5437371011512
 30
0.0
 10
126.5244762291724
 20
321.533032790694
 30
0.0
 10
126.5166306385929
 20
321.523821386524
 30
0.0
 10
126.5081878558229
 20
321.5151399218782
 30
0.0
 10
126.4990156190304
 20
321.5072110246395
 30
0.0
 10
126.4890390196154
 20
321.5002749931513
 30
0.0
 10
126.4781687335472
 20
321.4948038386365
 30
0.0
 10
126.4665173125754
 20
321.4910267118462
 30
0.0
 10
126.4584106260388
 20
321.4904980509268
 30
0.0
 10
126.4543674699
 20
321.4902343848
 30
0.0
 11
126.5491189426
 21
321.5698087349
 31
0.0
 11
126.5407593625127
 21
321.5560430012748
 31
0.0
 11
126.5317078164213
 21
321.5427208635225
 31
0.0
 11
126.5243865878637
 21
321.5331044897079
 31
0.0
 11
126.5165355714253
 21
321.523914618945
 31
0.0
 11
126.5080672765677
 21
321.5152663001887
 31
0.0
 11
126.4988862194055
 21
321.5073800809058
 31
0.0
 11
126.4888964202496
 21
321.5005227578054
 31
0.0
 11
126.4780534198152
 21
321.4950926130704
 31
0.0
 11
126.4664135710135
 21
321.4915205584131
 31
0.0
 11
126.4543674699
 21
321.4902343848
 31
0.0
  0
SPLINE
  5
141
330
1F
100
AcDbEntity
  8
RUNDUNGEN
  6
Continuous
 62
     7
100
AcDbSpline
210
0.0
220
0.0
230
1.0
 70
     8
 71
     3
 72
     9
 73
     5
 74
     3
 42
0.0000000001
 43
0.0000000001
 44
0.00000001
 40
0.0
 40
0.0
 40
0.0
 40
0.0
 40
0.9206730446610044
 40
1.841346089198503
 40
1.841346089198503
 40
1.841346089198503
 40
1.841346089198503
 10
129.6668674699
 20
319.2965039989
 30
0.0
 10
129.6671453589542
 20
318.9896131098271
 30
0.0
 10
129.6677011370625
 20
318.375831331722
 30
0.0
 10
129.6682567788208
 20
317.7620495534936
 30
0.0
 10
129.6685345997
 20
317.4551586644
 30
0.0
 11
129.6668674699
 21
319.2965039989
 31
0.0
 11
129.667701102975
 21
318.37583133165
 31
0.0
 11
129.6685345997
 21
317.4551586644
 31
0.0
  0
SPLINE
  5
142
330
1F
100
AcDbEntity
  8
FASEN
  6
Continuous
 62
     7
100
AcDbSpline
210
0.0
220
0.0
230
1.0
 70
     8
 71
     3
 72
    39
 73
    35
 74
    33
 42
0.0000000001
 43
0.0000000001
 44
0.00000001
 40
0.0
 40
0.0
 40
0.0
 40
0.0
 40
0.2848465272396604
 40
0.5699950255418235
 40
0.8548279991973549
 40
1.13957386375357
 40
1.424121623324829
 40
1.708693335910404
 40
1.993142884864356
 40
2.277585056641755
 40
2.562155108750683
 40
2.846728268197986
 40
3.13156371270986
 40
3.416399690461215
 40
3.701411923478068
 40
3.986425214759845
 40
4.271294282738723
 40
4.556162677307944
 40
4.840487507655602
 40
5.12481092191711
 40
5.408342462654598
 40
5.691871377323315
 40
5.974681937646841
 40
6.257491624577662
 40
6.539993734500074
 40
6.822493529586036
 40
7.105252300283695
 40
7.388018966543315
 40
7.671533427500741
 40
7.955027376663641
 40
8.23933677747907
 40
8.52372902248575
 40
8.808808363506945
 40
9.093596288118622
 40
9.093596288118622
 40
9.093596288118622
 40
9.093596288118622
 10
100.7676190583
 20
317.4553087349
 30
0.0
 10
100.7703156388395
 20
317.5502966851249
 30
0.0
 10
100.7757116586132
 20
317.7403732840543
 30
0.0
 10
100.8194268962111
 20
318.0226550280717
 30
0.0
 10
100.8886623223659
 20
318.299390202984
 30
0.0
 10
100.9852810514831
 20
318.5677404788816
 30
0.0
 10
101.107841935817
 20
318.8251231893573
 30
0.0
 10
101.2551679241677
 20
319.069081923824
 30
0.0
 10
101.4259124156511
 20
319.2972125058352
 30
0.0
 10
101.61830605738
 20
319.5074083891965
 30
0.0
 10
101.8305854648271
 20
319.6975596884474
 30
0.0
 10
102.0606100412188
 20
319.8660283669881
 30
0.0
 10
102.3061660485419
 20
320.0110960788056
 30
0.0
 10
102.5648303576494
 20
320.1315798723908
 30
0.0
 10
102.8340759180016
 20
320.2262526994008
 30
0.0
 10
103.111236736876
 20
320.2943888879611
 30
0.0
 10
103.3936523447337
 20
320.3352991675217
 30
0.0
 10
103.6784694770554
 20
320.3487326725451
 30
0.0
 10
103.9630648089768
 20
320.3345027957896
 30
0.0
 10
104.2445122656046
 20
320.292882879445
 30
0.0
 10
104.5203150672198
 20
320.2241312617066
 30
0.0
 10
104.7876563821037
 20
320.1290582380882
 30
0.0
 10
105.0441700549149
 20
320.0083317942933
 30
0.0
 10
105.2873484659881
 20
319.8632572056102
 30
0.0
 10
105.514942182684
 20
319.6949556414842
 30
0.0
 10
105.7248795603456
 20
319.5051087819606
 30
0.0
 10
105.9150552431277
 20
319.2953479560852
 30
0.0
 10
106.0838741319948
 20
319.0676284226659
 30
0.0
 10
106.2295110177441
 20
318.8241360437528
 30
0.0
 10
106.3507411345577
 20
318.5670706782059
 30
0.0
 10
106.446319626818
 20
318.2990401172423
 30
0.0
 10
106.5148377333882
 20
318.0224565536655
 30
0.0
 10
106.5580638646282
 20
317.7403063223462
 30
0.0
 10
106.563432791056
 20
317.550275538325
 30
0.0
 10
106.5661158815
 20
317.4553087349
 30
0.0
 11
100.7676190583
 21
317.4553087349
 31
0.0
 11
100.78164078004
 21
317.7398099394667
 31
0.0
 11
100.8237031860924
 21
318.021839051583
 31
0.0
 11
100.8932440650628
 21
318.298052536108
 31
0.0
 11
100.9896354733567
 21
318.5659870501016
 31
0.0
 11
101.1119732893715
 21
318.8228934265304
 31
0.0
 11
101.2590971217243
 21
319.0664825017323
 31
0.0
 11
101.4295217071205
 21
319.294225792726
 31
0.0
 11
101.6215851324314
 21
319.5040328225016
 31
0.0
 11
101.8335249788144
 21
319.6939317853013
 31
0.0
 11
102.0631132567731
 21
319.8620719223948
 31
0.0
 11
102.3083291257246
 21
320.0069870978066
 31
0.0
 11
102.566530318198
 21
320.1272521319058
 31
0.0
 11
102.8353932739938
 21
320.2218284712829
 31
0.0
 11
103.1121675876449
 21
320.289861959436
 31
0.0
 11
103.3940910134371
 21
320.3307223055031
 31
0.0
 11
103.6786440940351
 21
320.3441218035026
 31
0.0
 11
103.9626145072659
 21
320.3299297789206
 31
0.0
 11
104.2438739064372
 21
320.2883010115219
 31
0.0
 11
104.5189862134121
 21
320.2197200145628
 31
0.0
 11
104.7861103549795
 21
320.1246761381419
 31
0.0
 11
105.0419986767725
 21
320.0042478200415
 31
0.0
 11
105.2848507707575
 21
319.8593196327589
 31
0.0
 11
105.5120032291415
 21
319.6913636779353
 31
0.0
 11
105.7215144555688
 21
319.501861223533
 31
0.0
 11
105.9114593680009
 21
319.2924013165158
 31
0.0
 11
106.0798492881958
 21
319.0652409715514
 31
0.0
 11
106.2254062637848
 21
318.82194358885
 31
0.0
 11
106.3463437047862
 21
318.5655396993007
 31
0.0
 11
106.4417758310562
 21
318.297725314572
 31
0.0
 11
106.5105713008183
 21
318.02177942792
 31
0.0
 11
106.5522059194344
 21
317.7397567529278
 31
0.0
 11
106.5661158815
 21
317.4553087349
 31
0.0
  0
SPLINE
  5
143
330
1F
100
AcDbEntity
  8
0
  6
Continuous
 62
     7
100
AcDbSpline
210
0.0
220
0.0
230
1.0
 70
     8
 71
     3
 72
    15
 73
    11
 74
     9
 42
0.0000000001
 43
0.0000000001
 44
0.00000001
 40
0.0
 40
0.0
 40
0.0
 40
0.0
 40
0.037341395631089
 40
0.074747727055073
 40
0.1085660838641042
 40
0.1423474448653432
 40
0.1732055489139586
 40
0.2040723662764654
 40
0.2333590820048004
 40
0.2625565342902061
 40
0.2625565342902061
 40
0.2625565342902061
 40
0.2625565342902061
 10
124.7846159972
 20
321.5698087349
 30
0.0
 10
124.7729714514021
 20
321.5742598124102
 30
0.0
 10
124.7496621102201
 20
321.583169707748
 30
0.0
 10
124.7184793567159
 20
321.6019058710456
 30
0.0
 10
124.6911287058236
 20
321.6239016800822
 30
0.0
 10
124.6688703351763
 20
321.6482116433311
 30
0.0
 10
124.6511903373872
 20
321.6748481559546
 30
0.0
 10
124.6387076131584
 20
321.7026216126667
 30
0.0
 10
124.6308655127447
 20
321.7315738930209
 30
0.0
 10
124.6298663091588
 20
321.7510895094639
 30
0.0
 10
124.6293674699
 20
321.7608324245
 30
0.0
 11
124.7846159972
 21
321.5698087349
 31
0.0
 11
124.7501415663159
 21
321.5841577224215
 31
0.0
 11
124.7179744426402
 21
321.6032498617735
 31
0.0
 11
124.6917010175638
 21
321.6245427805969
 31
0.0
 11
124.6689324528693
 21
321.6494981971001
 31
0.0
 11
124.6519318762492
 21
321.6752509247237
 31
0.0
 11
124.6392731393611
 21
321.7034025995316
 31
0.0
 11
124.6318942848214
 21
321.7317445159071
 31
0.0
 11
124.6293674699
 21
321.7608324245
 31
0.0
  0
SPLINE
  5
144
330
1F
100
AcDbEntity
  8
0
  6
Continuous
 62
     7
100
AcDbSpline
210
0.0
220
0.0
230
1.0
 70
     8
 71
     3
 72
    15
 73
    11
 74
     9
 42
0.0000000001
 43
0.0000000001
 44
0.00000001
 40
0.0
 40
0.0
 40
0.0
 40
0.0
 40
0.0291971572277826
 40
0.0584835574926578
 40
0.0893488989827484
 40
0.1202055470543534
 40
0.1539855680852908
 40
0.1878025724638318
 40
0.2252119881798727
 40
0.2625564688284686
 40
0.2625564688284686
 40
0.2625564688284686
 40
0.2625564688284686
 10
124.6293674699
 20
313.1497850453
 30
0.0
 10
124.6298662862621
 20
313.1595278617311
 30
0.0
 10
124.6308654436513
 20
313.1790432741544
 30
0.0
 10
124.6387072304675
 20
313.2079949159274
 30
0.0
 10
124.6511894318711
 20
313.2357674125986
 30
0.0
 10
124.6688683851835
 20
313.262402881354
 30
0.0
 10
124.691125313551
 20
313.2867122615544
 30
0.0
 10
124.7184754760256
 20
313.3087088704286
 30
0.0
 10
124.7496592643267
 20
313.3274465265075
 30
0.0
 10
124.7729705026879
 20
313.3363572455384
 30
0.0
 10
124.7846159972
 20
313.3408087349
 30
0.0
 11
124.6293674699
 21
313.1497850453
 31
0.0
 11
124.6318941936909
 21
313.1788726656404
 31
0.0
 11
124.6392728753123
 21
313.2072143010556
 31
0.0
 11
124.6519309044981
 21
313.2353646758742
 31
0.0
 11
124.6689304219858
 21
313.2611163580601
 31
0.0
 11
124.6916975969252
 21
313.2860712286493
 31
0.0
 11
124.7179694204391
 21
313.3073639756397
 31
0.0
 11
124.7501388114177
 21
313.3264583378516
 31
0.0
 11
124.7846159972
 21
313.3408087349
 31
0.0
  0
SPLINE
  5
145
330
1F
100
AcDbEntity
  8
0
  6
Continuous
 62
     7
100
AcDbSpline
210
0.0
220
0.0
230
1.0
 70
     8
 71
     3
 72
    15
 73
    11
 74
     9
 42
0.0000000001
 43
0.0000000001
 44
0.00000001
 40
0.0
 40
0.0
 40
0.0
 40
0.0
 40
0.0373441319455599
 40
0.074753139708912
 40
0.1085741033392758
 40
0.1423582380597101
 40
0.1732178197431907
 40
0.2040858639739637
 40
0.233365825866951
 40
0.2625567184761921
 40
0.2625567184761921
 40
0.2625567184761921
 40
0.2625567184761921
 10
126.5491189426
 20
313.3408087349
 30
0.0
 10
126.5607643394536
 20
313.3363573198192
 30
0.0
 10
126.5840753640405
 20
313.3274467564695
 30
0.0
 10
126.6152601699048
 20
313.3087086932738
 30
0.0
 10
126.6426119803153
 20
313.2867099763095
 30
0.0
 10
126.6648706968398
 20
313.2623972449427
 30
0.0
 10
126.6825509836823
 20
313.2357587606414
 30
0.0
 10
126.6950320238561
 20
313.2079859128413
 30
0.0
 10
126.7028705343461
 20
313.1790369348978
 30
0.0
 10
126.7038689983724
 20
313.1595257679757
 30
0.0
 10
126.7043674699
 20
313.1497850453
 30
0.0
 11
126.5491189426
 21
313.3408087349
 31
0.0
 11
126.5835958505889
 21
313.3264585778871
 31
0.0
 11
126.6157649291678
 21
313.3073644886127
 31
0.0
 11
126.6420395256889
 21
313.2860688750141
 31
0.0
 11
126.6648088471607
 21
313.2611103943207
 31
0.0
 11
126.6818093786489
 21
313.2353558663538
 31
0.0
 11
126.6944671864871
 21
313.2072024286354
 31
0.0
 11
126.7018422714986
 21
313.1788665099185
 31
0.0
 11
126.7043674699
 21
313.1497850453
 31
0.0
  0
SPLINE
  5
146
330
1F
100
AcDbEntity
  8
FASEN
  6
Continuous
 62
     7
100
AcDbSpline
210
0.0
220
0.0
230
1.0
 70
     8
 71
     3
 72
    39
 73
    35
 74
    33
 42
0.0000000001
 43
0.0000000001
 44
0.00000001
 40
0.0
 40
0.0
 40
0.0
 40
0.0
 40
0.2847861066373156
 40
0.5698668870805104
 40
0.8542588887939635
 40
1.138565866053749
 40
1.422059508484836
 40
1.705574316152418
 40
1.988341250704863
 40
2.271100210873116
 40
2.553600174628547
 40
2.836102358090713
 40
3.118912373400993
 40
3.401723417926577
 40
3.685252285724304
 40
3.968783633778374
 40
4.253107110616281
 40
4.537432086572767
 40
4.822300428777607
 40
5.107169447705124
 40
5.3921829810541
 40
5.677195370928736
 40
5.962031114291751
 40
6.246866460418033
 40
6.531439742188327
 40
6.816009783016623
 40
7.100451807466849
 40
7.384901200462179
 40
7.669472595196709
 40
7.954020693298575
 40
8.238768893798923
 40
8.523601787764703
 40
8.808748198954065
 40
9.093596299712862
 40
9.093596299712862
 40
9.093596299712862
 40
9.093596299712862
 10
106.5661158815
 20
317.4553087349
 30
0.0
 10
106.5634443291532
 20
317.3603418490114
 30
0.0
 10
106.5580984601516
 20
317.170309813123
 30
0.0
 10
106.5148412236175
 20
316.8881632018922
 30
0.0
 10
106.4463180066623
 20
316.6115824738471
 30
0.0
 10
106.3507410059729
 20
316.3435523403863
 30
0.0
 10
106.229513405092
 20
316.0864867310181
 30
0.0
 10
106.0838784908844
 20
315.8429930152772
 30
0.0
 10
105.9150605280898
 20
315.615272426237
 30
0.0
 10
105.7248854430728
 20
315.4055107859835
 30
0.0
 10
105.5149489419346
 20
315.2156627533798
 30
0.0
 10
105.2873555548281
 20
315.0473603419447
 30
0.0
 10
105.0441764125996
 20
314.9022863193331
 30
0.0
 10
104.7876621469707
 20
314.7815606244028
 30
0.0
 10
104.5203210418452
 20
314.6864868981416
 30
0.0
 10
104.2445185152274
 20
314.6177343216747
 30
0.0
 10
103.9630710020643
 20
314.5761145384406
 30
0.0
 10
103.6784756010493
 20
314.5618851276107
 30
0.0
 10
103.3936584711307
 20
314.5753186714366
 30
0.0
 10
103.1112427761499
 20
314.6162285542451
 30
0.0
 10
102.834081630853
 20
314.6843638688912
 30
0.0
 10
102.564835785653
 20
314.7790361492264
 30
0.0
 10
102.3061717506307
 20
314.8995204541915
 30
0.0
 10
102.0606160473159
 20
315.0445884665841
 30
0.0
 10
101.8305908448247
 20
315.2130562339735
 30
0.0
 10
101.6183106600349
 20
315.4032067025034
 30
0.0
 10
101.4259172730609
 20
315.6134027121701
 30
0.0
 10
101.2551726661127
 20
315.8415328690647
 30
0.0
 10
101.1078443671307
 20
316.0854900714342
 30
0.0
 10
100.9852802698476
 20
316.3428722030045
 30
0.0
 10
100.8886599302368
 20
316.6112227270016
 30
0.0
 10
100.8194304491777
 20
316.8879607420644
 30
0.0
 10
100.7757501079105
 20
317.1702461561931
 30
0.0
 10
100.770328462352
 20
317.3603210343161
 30
0.0
 10
100.7676190583
 20
317.4553087349
 30
0.0
 11
106.5661158815
 21
317.4553087349
 31
0.0
 11
106.5522296597711
 21
317.1708613770642
 31
0.0
 11
106.510578977982
 21
316.8888396188884
 31
0.0
 11
106.4417750828234
 21
316.6128960836323
 31
0.0
 11
106.3463440379288
 21
316.3450838863953
 31
0.0
 11
106.2254087285906
 21
316.088679330558
 31
0.0
 11
106.079853473547
 21
315.8453805144985
 31
0.0
 11
105.9114645756223
 21
315.6182190777802
 31
0.0
 11
105.7215203724648
 21
315.4087582717991
 31
0.0
 11
105.5120098791596
 21
315.2192547554284
 31
0.0
 11
105.2848577685243
 21
315.0512982065986
 31
0.0
 11
105.0420050965546
 21
314.9063703470375
 31
0.0
 11
104.7861160628175
 21
314.7859424046042
 31
0.0
 11
104.5189921304643
 21
314.6908980800033
 31
0.0
 11
104.2438801948244
 21
314.6223163900429
 31
0.0
 11
103.962620733466
 21
314.5806876154084
 31
0.0
 11
103.6786501577244
 21
314.5664959253876
 31
0.0
 11
103.3940971312232
 21
314.5798954589442
 31
0.0
 11
103.1121736938045
 21
314.6207553828157
 31
0.0
 11
102.8353989571947
 21
314.6887881643746
 31
0.0
 11
102.5665357007903
 21
314.7833641218779
 31
0.0
 11
102.3083348704753
 21
314.9036293783813
 31
0.0
 11
102.0631191799884
 21
315.0485446623989
 31
0.0
 11
101.8335302974452
 21
315.2166841809841
 31
0.0
 11
101.6215898635612
 21
315.4065824711872
 31
0.0
 11
101.4295264901857
 21
315.6163893487699
 31
0.0
 11
101.2591014814131
 21
315.844132128151
 31
0.0
 11
101.1119757345553
 21
316.0877196756831
 31
0.0
 11
100.9896352285945
 21
316.3446251461088
 31
0.0
 11
100.8932426686261
 21
316.61256172829
 31
0.0
 11
100.8237114012949
 21
316.8887775503354
 31
0.0
 11
100.7816671144704
 21
317.1708072540185
 31
0.0
 11
100.7676190583
 21
317.4553087349
 31
0.0
  0
SPLINE
  5
147
330
1F
100
AcDbEntity
  8
0
  6
Continuous
 62
     7
100
AcDbSpline
210
0.0
220
0.0
230
1.0
 70
     8
 71
     3
 72
    23
 73
    19
 74
    17
 42
0.0000000001
 43
0.0000000001
 44
0.00000001
 40
0.0
 40
0.0
 40
0.0
 40
0.0
 40
0.0597635021323403
 40
0.1195426310615884
 40
0.1753624598955028
 40
0.2311738661870836
 40
0.2819685060304067
 40
0.3327872069484364
 40
0.3780904632053761
 40
0.4233393316886931
 40
0.4647820467309521
 40
0.5060598178536955
 40
0.5483601945189424
 40
0.5908626368934432
 40
0.6390023299424031
 40
0.6871915008908389
 40
0.7420554295497945
 40
0.7968569386132655
 40
0.7968569386132655
 40
0.7968569386132655
 40
0.7968569386132655
 10
90.2283020988
 20
311.4538104301
 30
0.0
 10
90.21223467080583
 20
311.4420272360927
 30
0.0
 10
90.18009561355038
 20
311.4184577670406
 30
0.0
 10
90.13083293084804
 20
311.3869159052397
 30
0.0
 10
90.08105340580114
 20
311.3588018016022
 30
0.0
 10
90.03205106487485
 20
311.3356418318575
 30
0.0
 10
89.982845573849
 20
311.3172041316433
 30
0.0
 10
89.93530706676758
 20
311.3049666734336
 30
0.0
 10
89.88841637577303
 20
311.2990035195268
 30
0.0
 10
89.8441676902907
 20
311.3007895102133
 30
0.0
 10
89.80251857817797
 20
311.3112955285309
 30
0.0
 10
89.76491473651603
 20
311.3302334901031
 30
0.0
 10
89.73331797260113
 20
311.3586203416364
 30
0.0
 10
89.70738727446387
 20
311.3949057969388
 30
0.0
 10
89.68836640431226
 20
311.437416938719
 30
0.0
 10
89.67553545219542
 20
311.4862867562854
 30
0.0
 10
89.66804231244393
 20
311.5385160294369
 30
0.0
 10
89.66725893545328
 20
311.5750872439716
 30
0.0
 10
89.66686746990001
 20
311.5933624434
 30
0.0
 11
90.2283020988
 21
311.4538104301
 31
0.0
 11
90.17973921822511
 21
311.4189776464416
 31
0.0
 11
90.12942725218065
 21
311.3866937444427
 31
0.0
 11
90.08073613796535
 21
311.3593985308051
 31
0.0
 11
90.03021980799149
 21
311.3356706257518
 31
0.0
 11
89.98257354557198
 21
311.3180658220249
 31
0.0
 11
89.93330448758171
 21
311.3056118954253
 31
0.0
 11
89.8883179957928
 21
311.300263944041
 31
0.0
 11
89.84312246918176
 21
311.3024604124272
 31
0.0
 11
89.8029773404655
 21
311.3127495946313
 31
0.0
 11
89.76624515833623
 21
311.3315804518843
 31
0.0
 11
89.73454082583112
 21
311.359583258287
 31
0.0
 11
89.70964364036722
 21
311.3940301415099
 31
0.0
 11
89.68962759391137
 21
311.4378112782143
 31
0.0
 11
89.67694459009884
 21
311.4843014665446
 31
0.0
 11
89.6691461807555
 21
311.5386083305639
 31
0.0
 11
89.66686746990001
 21
311.5933624434
 31
0.0
  0
SPLINE
  5
148
330
1F
100
AcDbEntity
  8
0
  6
Continuous
 62
     7
100
AcDbSpline
210
0.0
220
0.0
230
1.0
 70
     8
 71
     3
 72
    19
 73
    15
 74
    13
 42
0.0000000001
 43
0.0000000001
 44
0.00000001
 40
0.0
 40
0.0
 40
0.0
 40
0.0
 40
0.0580397028417295
 40
0.1162122440307823
 40
0.1743901948621224
 40
0.2324205837661994
 40
0.261516435801421
 40
0.2906047870504771
 40
0.3197019405407435
 40
0.3487963879302138
 40
0.3779163313623389
 40
0.4070487871058233
 40
0.4362246475798311
 40
0.465325392858728
 40
0.465325392858728
 40
0.465325392858728
 40
0.465325392858728
 10
124.6293674699
 20
304.4085418941
 30
0.0
 10
124.6300731379711
 20
304.427901931506
 30
0.0
 10
124.6314860892108
 20
304.4666663165962
 30
0.0
 10
124.6430619406874
 20
304.5238878313754
 30
0.0
 10
124.6617261538706
 20
304.5790964930206
 30
0.0
 10
124.684188296795
 20
304.6222849764409
 30
0.0
 10
124.706340447601
 20
304.6541180816805
 30
0.0
 10
124.7251706431099
 20
304.6763601340481
 30
0.0
 10
124.7462000807425
 20
304.6965473951765
 30
0.0
 10
124.769411565675
 20
304.7142161283592
 30
0.0
 10
124.7946885803545
 20
304.7288538519916
 30
0.0
 10
124.8217758460819
 20
304.7398076816784
 30
0.0
 10
124.8502151540869
 20
304.7469132383872
 30
0.0
 10
124.8696583850313
 20
304.7478367261032
 30
0.0
 10
124.8793674699
 20
304.7482978748
 30
0.0
 11
124.6293674699
 21
304.4085418941
 31
0.0
 11
124.6330561509951
 21
304.4664642622986
 31
0.0
 11
124.6442439497673
 21
304.523550843095
 31
0.0
 11
124.6631270514186
 21
304.5785790398214
 31
0.0
 11
124.6900536908701
 21
304.6299841185997
 31
0.0
 11
124.7067074721181
 21
304.653842454162
 31
0.0
 11
124.7255352169396
 21
304.6760155956472
 31
0.0
 11
124.7465630721443
 21
304.6961271258407
 31
0.0
 11
124.7697470793024
 21
304.7137051997112
 31
0.0
 11
124.7949824443391
 21
304.7282361135487
 31
0.0
 11
124.8219885312858
 21
304.7391618284211
 31
0.0
 11
124.8503605105852
 21
304.7459634183111
 31
0.0
 11
124.8793674699
 21
304.7482978748
 31
0.0
  0
SPLINE
  5
149
330
1F
100
AcDbEntity
  8
0
  6
Continuous
 62
     7
100
AcDbSpline
210
0.0
220
0.0
230
1.0
 70
     8
 71
     3
 72
    19
 73
    15
 74
    13
 42
0.0000000001
 43
0.0000000001
 44
0.00000001
 40
0.0
 40
0.0
 40
0.0
 40
0.0
 40
0.0290936469953675
 40
0.058261735251592
 40
0.0873904531826081
 40
0.1165074751970931
 40
0.1456047854856741
 40
0.1747042911448145
 40
0.203798085826633
 40
0.2328996448606778
 40
0.2909367192997906
 40
0.3491211705769532
 40
0.4072902895243497
 40
0.465326616484677
 40
0.465326616484677
 40
0.465326616484677
 40
0.465326616484677
 10
126.4543674699
 20
304.7482978748
 30
0.0
 10
126.464074184212
 20
304.7478376015815
 30
0.0
 10
126.4835124491877
 20
304.7469158774537
 30
0.0
 10
126.5119470982487
 20
304.7398172378329
 30
0.0
 10
126.539029740683
 20
304.7288640861437
 30
0.0
 10
126.5643047369919
 20
304.7142257630222
 30
0.0
 10
126.5875186217971
 20
304.6965591381505
 30
0.0
 10
126.6085535051726
 20
304.6763723497659
 30
0.0
 10
126.6273881452809
 20
304.6541280575398
 30
0.0
 10
126.6495444210471
 20
304.6222905424407
 30
0.0
 10
126.6720097384473
 20
304.5790965231877
 30
0.0
 10
126.6906743222121
 20
304.5238844864284
 30
0.0
 10
126.7022491780032
 20
304.4666629181249
 30
0.0
 10
126.7036619107272
 20
304.4279008038382
 30
0.0
 10
126.7043674699
 20
304.4085418941
 30
0.0
 11
126.4543674699
 21
304.7482978748
 31
0.0
 11
126.4833675786701
 21
304.7459667834641
 31
0.0
 11
126.5117329186845
 21
304.7391708392038
 31
0.0
 11
126.5387355380533
 21
304.7282465197501
 31
0.0
 11
126.5639680696452
 21
304.7137165396932
 31
0.0
 11
126.5871559086301
 21
304.6961387813253
 31
0.0
 11
126.6081879521474
 21
304.6760282275016
 31
0.0
 11
126.6270208325958
 21
304.653852305807
 31
0.0
 11
126.6436785287278
 21
304.6299897431243
 31
0.0
 11
126.6706085453784
 21
304.5785788861713
 31
0.0
 11
126.689493091818
 21
304.5235443127088
 31
0.0
 11
126.700679334713
 21
304.4664609143428
 31
0.0
 11
126.7043674699
 21
304.4085418941
 31
0.0
  0
SPLINE
  5
14A
330
1F
100
AcDbEntity
  8
1
  6
Continuous
 62
     7
100
AcDbSpline
210
0.0
220
0.0
230
1.0
 70
     8
 71
     3
 72
    23
 73
    19
 74
    17
 42
0.0000000001
 43
0.0000000001
 44
0.00000001
 40
0.0
 40
0.0
 40
0.0
 40
0.0
 40
0.5071451100652674
 40
1.014414284584521
 40
1.490352341335355
 40
1.966249264029092
 40
2.411642089473931
 40
2.856896309137901
 40
3.282291174604395
 40
3.70750164243138
 40
4.132711653712366
 40
4.558106103347627
 40
5.003359793842425
 40
5.448751991693618
 40
5.924648293904986
 40
6.400585822981903
 40
6.907854660854675
 40
7.414999390701237
 40
7.414999390701237
 40
7.414999390701237
 40
7.414999390701237
 10
186.4168674699
 20
303.4669783662
 30
0.0
 10
186.5303426580124
 20
303.5923288191183
 30
0.0
 10
186.7573207940183
 20
303.8430603898182
 30
0.0
 10
187.065543867523
 20
304.2331891339705
 30
0.0
 10
187.3430586132377
 20
304.6330396670596
 30
0.0
 10
187.5774574565246
 20
305.0362157772952
 30
0.0
 10
187.769377632059
 20
305.4501073817021
 30
0.0
 10
187.9102087365879
 20
305.8666808763791
 30
0.0
 10
187.9967276073595
 20
306.2910415206809
 30
0.0
 10
188.0269354901052
 20
306.7165954734023
 30
0.0
 10
187.9967264979051
 20
307.1421491974487
 30
0.0
 10
187.9102071031955
 20
307.5665092169661
 30
0.0
 10
187.7693766188936
 20
307.9830823322711
 30
0.0
 10
187.5774571809121
 20
308.3969736528972
 30
0.0
 10
187.3430581292092
 20
308.8001489873143
 30
0.0
 10
187.0655430538152
 20
309.1999986690103
 30
0.0
 10
186.7573204103946
 20
309.5901272087427
 30
0.0
 10
186.5303425268918
 20
309.8408586880621
 30
0.0
 10
186.4168674699
 20
309.9662090899
 30
0.0
 11
186.4168674699
 21
303.4669783662
 31
0.0
 11
186.7529978681136
 21
303.8467315993132
 31
0.0
 11
187.067674594876
 21
304.2446016447445
 31
0.0
 11
187.3377272846645
 21
304.6365054321743
 31
0.0
 11
187.5758593380457
 21
305.0485382053632
 31
0.0
 11
187.7619509988158
 21
305.4531919619868
 31
0.0
 11
187.9031698018879
 21
305.8754579561036
 31
0.0
 11
187.9875731596074
 21
306.2923954391522
 31
0.0
 11
188.016867466482
 21
306.716595610692
 31
0.0
 11
187.9875721467453
 21
307.1407952546512
 31
0.0
 11
187.903168348087
 21
307.5577322241712
 31
0.0
 11
187.7619499861341
 21
307.9799978078346
 31
0.0
 11
187.5758589062357
 21
308.3846511408111
 31
0.0
 11
187.3377268101104
 21
308.7966831726404
 31
0.0
 11
187.0676739591088
 21
309.1885862081604
 31
0.0
 11
186.752997471797
 21
309.5864560137626
 31
0.0
 11
186.4168674699
 21
309.9662090899
 31
0.0
  0
SPLINE
  5
14B
330
1F
100
AcDbEntity
  8
1
  6
Continuous
 62
     7
100
AcDbSpline
210
0.0
220
0.0
230
1.0
 70
     8
 71
     3
 72
    23
 73
    19
 74
    17
 42
0.0000000001
 43
0.0000000001
 44
0.00000001
 40
0.0
 40
0.0
 40
0.0
 40
0.0
 40
0.8363793885110514
 40
1.672871723223459
 40
2.509588730687951
 40
3.346271527053962
 40
4.182913791066787
 40
5.019548542613216
 40
5.856376247518869
 40
6.693185900236474
 40
7.529994614783498
 40
8.36682140856925
 40
9.203455318733011
 40
10.04009667838041
 40
10.87677803855479
 40
11.71349366974516
 40
12.5499854498846
 40
13.3863642551324
 40
13.3863642551324
 40
13.3863642551324
 40
13.3863642551324
 10
186.4168674699
 20
311.004000728
 30
0.0
 10
186.5309952711033
 20
311.2583998734146
 30
0.0
 10
186.7592662855366
 20
311.7672325187694
 30
0.0
 10
187.0637941577561
 20
312.5467381081704
 30
0.0
 10
187.335028689916
 20
313.3384636248771
 30
0.0
 10
187.5658334854739
 20
314.1431026373765
 30
0.0
 10
187.751970527175
 20
314.9592522196334
 30
0.0
 10
187.8890766864852
 20
315.7851948418838
 30
0.0
 10
187.9728334847451
 20
316.6183476410437
 30
0.0
 10
188.0013846556668
 20
317.4553121657991
 30
0.0
 10
187.9728322807107
 20
318.2922763389388
 30
0.0
 10
187.8890749727053
 20
319.1254281612066
 30
0.0
 10
187.7519695434814
 20
319.9513699890401
 30
0.0
 10
187.5658332718131
 20
320.7675186771371
 30
0.0
 10
187.3350281348308
 20
321.5721563198825
 30
0.0
 10
187.0637931960419
 20
322.3638804972425
 30
0.0
 10
186.7592658658437
 20
323.1433853893603
 30
0.0
 10
186.5309951299034
 20
323.6522177454054
 30
0.0
 10
186.4168674699
 20
323.9066167418
 30
0.0
 11
186.4168674699
 21
311.004000728
 31
0.0
 11
186.7529329325117
 21
311.7698926827597
 31
0.0
 11
187.0582135330434
 21
312.5486886643696
 31
0.0
 11
187.3282909667358
 21
313.3406189203836
 31
0.0
 11
187.5583934045091
 21
314.1450385682451
 31
0.0
 11
187.7437980221993
 21
314.9608788747216
 31
0.0
 11
187.8801753914584
 21
315.7863235552721
 31
0.0
 11
187.9636319467481
 21
316.6189793131198
 31
0.0
 11
187.9918674665085
 21
317.4553124706026
 31
0.0
 11
187.9636308559655
 21
318.2916446525536
 31
0.0
 11
187.8801738874734
 21
319.1242994533011
 31
0.0
 11
187.7437970344976
 21
319.9497433663614
 31
0.0
 11
187.5583929542148
 21
320.7655828675423
 31
0.0
 11
187.3282904144253
 21
321.5700009924287
 31
0.0
 11
187.058212839876
 21
322.3619297462973
 31
0.0
 11
186.7529325047491
 21
323.1407252362853
 31
0.0
 11
186.4168674699
 21
323.9066167418
 31
0.0
  0
SPLINE
  5
14C
330
1F
100
AcDbEntity
  8
1
  6
Continuous
 62
     7
100
AcDbSpline
210
0.0
220
0.0
230
1.0
 70
     8
 71
     3
 72
    23
 73
    19
 74
    17
 42
0.0000000001
 43
0.0000000001
 44
0.00000001
 40
0.0
 40
0.0
 40
0.0
 40
0.0
 40
0.5071451100852302
 40
1.014414284629228
 40
1.490352341369203
 40
1.966249264037004
 40
2.411642089471875
 40
2.856896309148622
 40
3.282291174645648
 40
3.707501642491063
 40
4.132711653753504
 40
4.558106103358402
 40
5.003359793838537
 40
5.448751991687664
 40
5.924648293899081
 40
6.400585822976044
 40
6.907854660848817
 40
7.414999390695336
 40
7.414999390695336
 40
7.414999390695336
 40
7.414999390695336
 10
186.4168674699
 20
324.94440838
 30
0.0
 10
186.5303426580131
 20
325.0697588329268
 30
0.0
 10
186.7573207940215
 20
325.3204904036448
 30
0.0
 10
187.0655438675106
 20
325.7106191478235
 30
0.0
 10
187.3430586132339
 20
326.1104696809006
 30
0.0
 10
187.5774574565285
 20
326.513645791114
 30
0.0
 10
187.7693776320633
 20
326.9275373955127
 30
0.0
 10
187.9102087365905
 20
327.3441108902023
 30
0.0
 10
187.996727607358
 20
327.7684715345258
 30
0.0
 10
188.0269354901052
 20
328.1940254872571
 30
0.0
 10
187.9967264979065
 20
328.6195792112936
 30
0.0
 10
187.9102071031932
 20
329.0439392307888
 30
0.0
 10
187.769376618891
 20
329.4605123460768
 30
0.0
 10
187.5774571809117
 20
329.8744036666977
 30
0.0
 10
187.3430581292093
 20
330.2775790011143
 30
0.0
 10
187.0655430538152
 20
330.6774286828103
 30
0.0
 10
186.7573204103946
 20
331.0675572225426
 30
0.0
 10
186.5303425268918
 20
331.3182887018621
 30
0.0
 10
186.4168674699
 20
331.4436391037
 30
0.0
 11
186.4168674699
 21
324.94440838
 31
0.0
 11
186.7529978681136
 21
325.3241616131398
 31
0.0
 11
187.067674594876
 21
325.7220316586028
 31
0.0
 11
187.3377272846645
 21
326.1139354460193
 31
0.0
 11
187.5758593380457
 21
326.5259682191783
 31
0.0
 11
187.7619509988158
 21
326.9306219757909
 31
0.0
 11
187.9031698018879
 21
327.3528879699212
 31
0.0
 11
187.9875731596074
 21
327.769825453001
 31
0.0
 11
188.016867466482
 21
328.1940256245592
 31
0.0
 11
187.9875721467453
 21
328.6182252684998
 31
0.0
 11
187.903168348087
 21
329.0351622379889
 31
0.0
 11
187.7619499861341
 21
329.4574278216368
 31
0.0
 11
187.5758589062357
 21
329.862081154611
 31
0.0
 11
187.3377268101104
 21
330.2741131864404
 31
0.0
 11
187.0676739591088
 21
330.6660162219604
 31
0.0
 11
186.752997471797
 21
331.0638860275626
 31
0.0
 11
186.4168674699
 21
331.4436391037
 31
0.0
  0
SPLINE
  5
14D
330
1F
100
AcDbEntity
  8
0
  6
Continuous
 62
     7
100
AcDbSpline
210
0.0
220
0.0
230
1.0
 70
     8
 71
     3
 72
    15
 73
    11
 74
     9
 42
0.0000000001
 43
0.0000000001
 44
0.00000001
 40
0.0
 40
0.0
 40
0.0
 40
0.0
 40
0.9486669313395327
 40
1.894170328385786
 40
2.45683645551552
 40
3.027658986985836
 40
3.787432024176432
 40
4.54269926809504
 40
6.10976045434257
 40
7.677529009483704
 40
7.677529009483704
 40
7.677529009483704
 40
7.677529009483704
 10
179.1668674699
 20
331.4436391037
 30
0.0
 10
178.8446476812896
 20
331.3867006867068
 30
0.0
 10
178.2012826153832
 20
331.2730137261408
 30
0.0
 10
177.6861287813637
 20
330.5361156407001
 30
0.0
 10
177.5516794951203
 20
329.8539272247637
 30
0.0
 10
177.5699501307785
 20
329.2191222184938
 30
0.0
 10
177.6787536558588
 20
328.5310749117093
 30
0.0
 10
177.9545699707603
 20
327.5398854629131
 30
0.0
 10
178.4352303032845
 20
326.3313409701277
 30
0.0
 10
178.9229517298635
 20
325.4067887845749
 30
0.0
 10
179.1668674699
 20
324.94440838
 30
0.0
 11
179.1668674699
 21
331.4436391037
 31
0.0
 11
178.2619618799937
 21
331.1588324675878
 31
0.0
 11
177.6918111485585
 21
330.4045746752715
 31
0.0
 11
177.5729654052898
 21
329.8546029851582
 31
0.0
 11
177.5785371013138
 21
329.2838076464968
 31
0.0
 11
177.6932110120471
 21
328.5327384338147
 31
0.0
 11
177.8902913938817
 21
327.8036376638025
 31
0.0
 11
178.4602270527736
 21
326.3438931292462
 31
0.0
 11
179.1668674699
 21
324.94440838
 31
0.0
  0
SPLINE
  5
14E
330
1F
100
AcDbEntity
  8
0
  6
Continuous
 62
     7
100
AcDbSpline
210
0.0
220
0.0
230
1.0
 70
     8
 71
     3
 72
    15
 73
    11
 74
     9
 42
0.0000000001
 43
0.0000000001
 44
0.00000001
 40
0.0
 40
0.0
 40
0.0
 40
0.0
 40
2.440360796682513
 40
4.880721593582157
 40
6.102067076908348
 40
7.323405695873203
 40
8.544707632349647
 40
9.766090361128011
 40
11.58331085687992
 40
13.39902450277749
 40
13.39902450277749
 40
13.39902450277749
 40
13.39902450277749
 10
179.1668674699
 20
323.9066167418
 30
0.0
 10
178.827937510842
 20
323.1649432286904
 30
0.0
 10
178.1500775926958
 20
321.681596202405
 30
0.0
 10
177.7291506617706
 20
319.6741894768217
 30
0.0
 10
177.5864101742947
 20
318.0521547402196
 30
0.0
 10
177.5882676479795
 20
316.8290083900108
 30
0.0
 10
177.6956047173358
 20
315.6107048180102
 30
0.0
 10
177.9458940587883
 20
314.2119429872931
 30
0.0
 10
178.3898917496178
 20
312.6483776882305
 30
0.0
 10
178.9079471886017
 20
311.5519747946141
 30
0.0
 10
179.1668674699
 20
311.004000728
 30
0.0
 11
179.1668674699
 21
323.9066167418
 31
0.0
 11
178.2353732598239
 21
321.6510282698975
 31
0.0
 11
177.7097093675107
 21
319.2679549828661
 31
0.0
 11
177.6045707082945
 21
318.0511433080455
 31
0.0
 11
177.6058478244116
 21
316.8298053568013
 31
0.0
 11
177.7135914164504
 21
315.6132652882398
 31
0.0
 11
177.9269444109734
 21
314.4106613343605
 31
0.0
 11
178.436510836227
 21
312.6663470311356
 31
0.0
 11
179.1668674699
 21
311.004000728
 31
0.0
  0
SPLINE
  5
14F
330
1F
100
AcDbEntity
  8
0
  6
Continuous
 62
     7
100
AcDbSpline
210
0.0
220
0.0
230
1.0
 70
     8
 71
     3
 72
    15
 73
    11
 74
     9
 42
0.0000000001
 43
0.0000000001
 44
0.00000001
 40
0.0
 40
0.0
 40
0.0
 40
0.0
 40
1.946609304354094
 40
3.893664559242117
 40
4.554940646659595
 40
5.219509158594638
 40
5.724208673436014
 40
6.218727770351816
 40
6.951979809713845
 40
7.684939749774032
 40
7.684939749774032
 40
7.684939749774032
 40
7.684939749774032
 10
179.1668674699
 20
309.9662090899
 30
0.0
 10
178.8669707223966
 20
309.3906461940215
 30
0.0
 10
178.2671085237655
 20
308.2393885460259
 30
0.0
 10
177.7583361143221
 20
306.7971112699981
 30
0.0
 10
177.5663640908591
 20
305.7209000054132
 30
0.0
 10
177.5554146603396
 20
305.1071646156202
 30
0.0
 10
177.6515260419046
 20
304.557021485952
 30
0.0
 10
177.8979567122383
 20
304.0249237232464
 30
0.0
 10
178.435678792826
 20
303.5887546813324
 30
0.0
 10
178.9231702836214
 20
303.5075650797032
 30
0.0
 10
179.1668674699
 20
303.4669783662
 30
0.0
 11
179.1668674699
 21
309.9662090899
 31
0.0
 11
178.30840583894
 21
308.2191168164447
 31
0.0
 11
177.6918111486704
 21
306.3722721685334
 31
0.0
 11
177.5839298256284
 21
305.7198553662292
 31
0.0
 11
177.5785371012798
 21
305.0553087346226
 31
0.0
 11
177.6736487429974
 21
304.5596522246372
 31
0.0
 11
177.890291393703
 21
304.1151130260172
 31
0.0
 11
178.4571146936939
 21
303.6499572458575
 31
0.0
 11
179.1668674699
 21
303.4669783662
 31
0.0
  0
SPLINE
  5
150
330
1F
100
AcDbEntity
  8
0
  6
Continuous
 62
     7
100
AcDbSpline
210
0.0
220
0.0
230
1.0
 70
     8
 71
     3
 72
    11
 73
     7
 74
     5
 42
0.0000000001
 43
0.0000000001
 44
0.00000001
 40
0.0
 40
0.0
 40
0.0
 40
0.0
 40
0.3498700338310449
 40
0.6997119068324236
 40
0.9156479955399152
 40
1.131263567935165
 40
1.131263567935165
 40
1.131263567935165
 40
1.131263567935165
 10
90.2831856204
 20
311.5503087349
 30
0.0
 10
90.33802519432967
 20
311.6533921283371
 30
0.0
 10
90.44769992818452
 20
311.8595506180906
 30
0.0
 10
90.54876837650892
 20
312.1487623867861
 30
0.0
 10
90.60643896262741
 20
312.4036946806912
 30
0.0
 10
90.6133930224181
 20
312.5476411254937
 30
0.0
 10
90.6168674699
 20
312.6195608929
 30
0.0
 11
90.2831856204
 21
311.5503087349
 31
0.0
 11
90.43959340744205
 21
311.8632714239311
 31
0.0
 11
90.55563700164842
 21
312.1933066044024
 31
0.0
 11
90.60022923938547
 21
312.4045882333717
 31
0.0
 11
90.6168674699
 21
312.6195608929
 31
0.0
  0
SPLINE
  5
151
330
1F
100
AcDbEntity
  8
0
  6
Continuous
 62
     7
100
AcDbSpline
210
0.0
220
0.0
230
1.0
 70
     8
 71
     3
 72
    11
 73
     7
 74
     5
 42
0.0000000001
 43
0.0000000001
 44
0.00000001
 40
0.0
 40
0.0
 40
0.0
 40
0.0
 40
0.3030455531418734
 40
0.6062117026764218
 40
0.8687239930833071
 40
1.131137294081549
 40
1.131137294081549
 40
1.131137294081549
 40
1.131137294081549
 10
90.6168674699
 20
322.291056577
 30
0.0
 10
90.61003182281723
 20
322.392144781473
 30
0.0
 10
90.5963578084191
 20
322.5943614182744
 30
0.0
 10
90.51203310948887
 20
322.8732982139318
 30
0.0
 10
90.40822128015179
 20
323.1293042538501
 30
0.0
 10
90.32485893354959
 20
323.2833169223495
 30
0.0
 10
90.2831856204
 20
323.3603087349
 30
0.0
 11
90.6168674699
 21
322.291056577
 31
0.0
 11
90.58507269023993
 21
322.5924296004534
 31
0.0
 11
90.50348959691446
 21
322.8844123278656
 31
0.0
 11
90.40381815279812
 21
323.1272668230729
 31
0.0
 11
90.2831856204
 21
323.3603087349
 31
0.0
  0
SPLINE
  5
152
330
1F
100
AcDbEntity
  8
1
  6
Continuous
 62
     7
100
AcDbSpline
210
0.0
220
0.0
230
1.0
 70
     8
 71
     3
 72
    15
 73
    11
 74
     9
 42
0.0000000001
 43
0.0000000001
 44
0.00000001
 40
0.0
 40
0.0
 40
0.0
 40
0.0
 40
1.946609304354094
 40
3.893664559242117
 40
4.554940646659595
 40
5.219509158594638
 40
5.724208673436014
 40
6.218727770351816
 40
6.951979809713845
 40
7.684939749774032
 40
7.684939749774032
 40
7.684939749774032
 40
7.684939749774032
 10
179.1668674699
 20
309.9662090899
 30
0.0
 10
178.8669707223966
 20
309.3906461940215
 30
0.0
 10
178.2671085237655
 20
308.2393885460259
 30
0.0
 10
177.7583361143221
 20
306.7971112699981
 30
0.0
 10
177.5663640908591
 20
305.7209000054132
 30
0.0
 10
177.5554146603396
 20
305.1071646156202
 30
0.0
 10
177.6515260419046
 20
304.557021485952
 30
0.0
 10
177.8979567122383
 20
304.0249237232464
 30
0.0
 10
178.435678792826
 20
303.5887546813324
 30
0.0
 10
178.9231702836214
 20
303.5075650797032
 30
0.0
 10
179.1668674699
 20
303.4669783662
 30
0.0
 11
179.1668674699
 21
309.9662090899
 31
0.0
 11
178.30840583894
 21
308.2191168164447
 31
0.0
 11
177.6918111486704
 21
306.3722721685334
 31
0.0
 11
177.5839298256284
 21
305.7198553662292
 31
0.0
 11
177.5785371012798
 21
305.0553087346226
 31
0.0
 11
177.6736487429974
 21
304.5596522246372
 31
0.0
 11
177.890291393703
 21
304.1151130260172
 31
0.0
 11
178.4571146936939
 21
303.6499572458575
 31
0.0
 11
179.1668674699
 21
303.4669783662
 31
0.0
  0
SPLINE
  5
153
330
1F
100
AcDbEntity
  8
1
  6
Continuous
 62
     7
100
AcDbSpline
210
0.0
220
0.0
230
1.0
 70
     8
 71
     3
 72
    15
 73
    11
 74
     9
 42
0.0000000001
 43
0.0000000001
 44
0.00000001
 40
0.0
 40
0.0
 40
0.0
 40
0.0
 40
2.440360796682513
 40
4.880721593582157
 40
6.102067076908348
 40
7.323405695873203
 40
8.544707632349647
 40
9.766090361128011
 40
11.58331085687992
 40
13.39902450277749
 40
13.39902450277749
 40
13.39902450277749
 40
13.39902450277749
 10
179.1668674699
 20
323.9066167418
 30
0.0
 10
178.827937510842
 20
323.1649432286904
 30
0.0
 10
178.1500775926958
 20
321.681596202405
 30
0.0
 10
177.7291506617706
 20
319.6741894768217
 30
0.0
 10
177.5864101742947
 20
318.0521547402196
 30
0.0
 10
177.5882676479795
 20
316.8290083900108
 30
0.0
 10
177.6956047173358
 20
315.6107048180102
 30
0.0
 10
177.9458940587883
 20
314.2119429872931
 30
0.0
 10
178.3898917496178
 20
312.6483776882305
 30
0.0
 10
178.9079471886017
 20
311.5519747946141
 30
0.0
 10
179.1668674699
 20
311.004000728
 30
0.0
 11
179.1668674699
 21
323.9066167418
 31
0.0
 11
178.2353732598239
 21
321.6510282698975
 31
0.0
 11
177.7097093675107
 21
319.2679549828661
 31
0.0
 11
177.6045707082945
 21
318.0511433080455
 31
0.0
 11
177.6058478244116
 21
316.8298053568013
 31
0.0
 11
177.7135914164504
 21
315.6132652882398
 31
0.0
 11
177.9269444109734
 21
314.4106613343605
 31
0.0
 11
178.436510836227
 21
312.6663470311356
 31
0.0
 11
179.1668674699
 21
311.004000728
 31
0.0
  0
SPLINE
  5
154
330
1F
100
AcDbEntity
  8
1
  6
Continuous
 62
     7
100
AcDbSpline
210
0.0
220
0.0
230
1.0
 70
     8
 71
     3
 72
    15
 73
    11
 74
     9
 42
0.0000000001
 43
0.0000000001
 44
0.00000001
 40
0.0
 40
0.0
 40
0.0
 40
0.0
 40
0.9486669313395327
 40
1.894170328385786
 40
2.45683645551552
 40
3.027658986985836
 40
3.787432024176432
 40
4.54269926809504
 40
6.10976045434257
 40
7.677529009483704
 40
7.677529009483704
 40
7.677529009483704
 40
7.677529009483704
 10
179.1668674699
 20
331.4436391037
 30
0.0
 10
178.8446476812896
 20
331.3867006867068
 30
0.0
 10
178.2012826153832
 20
331.2730137261408
 30
0.0
 10
177.6861287813637
 20
330.5361156407001
 30
0.0
 10
177.5516794951203
 20
329.8539272247637
 30
0.0
 10
177.5699501307785
 20
329.2191222184938
 30
0.0
 10
177.6787536558588
 20
328.5310749117093
 30
0.0
 10
177.9545699707603
 20
327.5398854629131
 30
0.0
 10
178.4352303032845
 20
326.3313409701277
 30
0.0
 10
178.9229517298635
 20
325.4067887845749
 30
0.0
 10
179.1668674699
 20
324.94440838
 30
0.0
 11
179.1668674699
 21
331.4436391037
 31
0.0
 11
178.2619618799937
 21
331.1588324675878
 31
0.0
 11
177.6918111485585
 21
330.4045746752715
 31
0.0
 11
177.5729654052898
 21
329.8546029851582
 31
0.0
 11
177.5785371013138
 21
329.2838076464968
 31
0.0
 11
177.6932110120471
 21
328.5327384338147
 31
0.0
 11
177.8902913938817
 21
327.8036376638025
 31
0.0
 11
178.4602270527736
 21
326.3438931292462
 31
0.0
 11
179.1668674699
 21
324.94440838
 31
0.0
  0
DIMENSION
  5
15F
330
1F
100
AcDbEntity
  8
1
100
AcDbDimension
  2
*D2
 10
200.501292639703
 20
325.4553087349
 30
0.0
 11
196.751292639703
 21
317.393503377329
 31
0.0
 70
    32
  1
<>
 71
     5
 42
-1.0
 53
90.0
  3
ME10_DIM_10
100
AcDbAlignedDimension
 13
179.0668674699
 23
309.4553087349
 33
0.0
 14
179.0668674699
 24
325.4553087349
 34
0.0
 50
90.0
100
AcDbRotatedDimension
  0
DIMENSION
  5
16A
330
1F
100
AcDbEntity
  8
1
100
AcDbDimension
  2
*D3
 10
209.951059470334
 20
331.4553087349
 30
0.0
 11
206.201059470334
 21
317.708495605016
 31
0.0
 70
    32
  1
<>
 71
     5
 42
-1.0
 53
90.0
  3
ME10_DIM_11
100
AcDbAlignedDimension
 13
186.4168674699
 23
303.4553087349
 33
0.0
 14
186.4168674699
 24
331.4553087349
 34
0.0
 50
90.0
100
AcDbRotatedDimension
  0
DIMENSION
  5
175
330
1F
100
AcDbEntity
  8
1
100
AcDbDimension
  2
*D4
 10
179.0668674699
 20
345.05231930063
 30
0.0
 11
153.2668164321096
 21
348.80231930063
 31
0.0
 70
    32
  1
<>
 71
     5
 42
-1.0
 53
0.00013888888889
  3
ME10_DIM_12
100
AcDbAlignedDimension
 13
129.6668674699
 23
337.4552663961
 33
0.0
 14
179.0668674699
 24
328.4553087349
 34
0.0
100
AcDbRotatedDimension
  0
DIMENSION
  5
180
330
1F
100
AcDbEntity
  8
1
100
AcDbDimension
  2
*D5
 10
179.0668674699
 20
352.464910635042
 30
0.0
 11
143.651398357357
 21
356.214910635042
 31
0.0
 70
    32
  1
<>
 71
     5
 42
-1.0
 53
0.00013888888889
  3
ME10_DIM_13
100
AcDbAlignedDimension
 13
109.6668674699
 23
337.4553087349
 33
0.0
 14
179.0668674699
 24
328.4553087349
 34
0.0
100
AcDbRotatedDimension
  0
DIMENSION
  5
18B
330
1F
100
AcDbEntity
  8
1
100
AcDbDimension
  2
*D6
 10
109.6668674699
 20
360.662305686662
 30
0.0
 11
149.485579070538
 21
364.412305686662
 31
0.0
 70
    32
  1
<>
 71
     5
 42
-1.0
 53
0.00013888888889
  3
ME10_DIM_14
100
AcDbAlignedDimension
 13
189.6668674699
 23
328.2053087349
 33
0.0
 14
109.6668674699
 24
337.4553087349
 34
0.0
100
AcDbRotatedDimension
  0
DIMENSION
  5
196
330
1F
100
AcDbEntity
  8
1
100
AcDbDimension
  2
*D7
 10
179.0668674699
 20
368.573612609514
 30
0.0
 11
133.54927243516
 21
372.323612609514
 31
0.0
 70
    32
  1
<>
 71
     5
 42
-1.0
 53
0.00013888888889
  3
ME10_DIM_15
100
AcDbAlignedDimension
 13
89.66686746990001
 23
330.9012953595
 33
0.0
 14
179.0668674699
 24
328.4553087349
 34
0.0
100
AcDbRotatedDimension
  0
INSERT
  5
19D
330
1F
100
AcDbEntity
  8
1
100
AcDbBlockReference
  2
*D8
 10
0.0
 20
0.0
 30
0.0
  0
ENDSEC
  0
SECTION
  2
OBJECTS
  0
DICTIONARY
  5
C
330
0
100
AcDbDictionary
281
     1
  3
ACAD_GROUP
350
D
  3
ACAD_LAYOUT
350
1A
  3
ACAD_MLEADERSTYLE
350
1A0
  3
ACAD_MLINESTYLE
350
17
  3
ACAD_PLOTSETTINGS
350
19
  3
ACAD_PLOTSTYLENAME
350
E
  3
ACAD_SCALELIST
350
4D
  3
ACAD_VISUALSTYLE
350
2A
  3
AcDbVariableDictionary
350
19E
  0
DICTIONARY
  5
D
102
{ACAD_REACTORS
330
C
102
}
330
C
100
AcDbDictionary
281
     1
  0
DICTIONARY
  5
1A
102
{ACAD_REACTORS
330
C
102
}
330
C
100
AcDbDictionary
281
     1
  3
Layout1
350
1E
  3
Layout2
350
26
  3
Model
350
22
  0
DICTIONARY
  5
1A0
102
{ACAD_REACTORS
330
C
102
}
330
C
100
AcDbDictionary
281
     1
  0
DICTIONARY
  5
17
102
{ACAD_REACTORS
330
C
102
}
330
C
100
AcDbDictionary
281
     1
  3
Standard
350
18
  0
DICTIONARY
  5
19
102
{ACAD_REACTORS
330
C
102
}
330
C
100
AcDbDictionary
281
     1
  0
ACDBDICTIONARYWDFLT
  5
E
102
{ACAD_REACTORS
330
C
102
}
330
C
100
AcDbDictionary
281
     1
  3
Normal
350
F
100
AcDbDictionaryWithDefault
340
F
  0
DICTIONARY
  5
4D
102
{ACAD_REACTORS
330
C
102
}
330
C
100
AcDbDictionary
281
     1
  3
A0
350
4E
  3
A1
350
4F
  3
A2
350
50
  3
A3
350
51
  3
A4
350
52
  3
A5
350
53
  3
A6
350
54
  3
A7
350
55
  3
A8
350
56
  3
A9
350
57
  3
B0
350
58
  3
B1
350
59
  3
B2
350
5A
  3
B3
350
5B
  3
B4
350
5C
  3
B5
350
5D
  3
B6
350
5E
  3
B7
350
5F
  3
B8
350
60
  3
B9
350
61
  3
C0
350
62
  3
C1
350
63
  3
C2
350
64
  3
C3
350
65
  3
C4
350
66
  3
C5
350
67
  3
C6
350
68
  3
C7
350
69
  3
C8
350
6A
  3
C9
350
6B
  3
D0
350
6C
  3
D1
350
6D
  3
D2
350
6E
  0
DICTIONARY
  5
2A
102
{ACAD_REACTORS
330
C
102
}
330
C
100
AcDbDictionary
281
     1
  3
2dWireframe
350
2F
  3
3D Hidden
350
31
  3
3dWireframe
350
30
  3
Basic
350
32
  3
Brighten
350
36
  3
ColorChange
350
3A
  3
Conceptual
350
34
  3
Dim
350
35
  3
Facepattern
350
39
  3
Flat
350
2B
  3
FlatWithEdges
350
2C
  3
Gouraud
350
2D
  3
GouraudWithEdges
350
2E
  3
Linepattern
350
38
  3
Realistic
350
33
  3
Thicken
350
37
  0
DICTIONARY
  5
19E
102
{ACAD_REACTORS
330
C
102
}
330
C
100
AcDbDictionary
281
     1
  3
CANNOSCALE
350
1A1
  0
LAYOUT
  5
1E
102
{ACAD_REACTORS
330
1A
102
}
330
1A
100
AcDbPlotSettings
  1

  2
none_device
  4

  6

 40
0.0
 41
0.0
 42
0.0
 43
0.0
 44
0.0
 45
0.0
 46
0.0
 47
0.0
 48
0.0
 49
0.0
140
0.0
141
0.0
142
1.0
143
1.0
 70
   688
 72
     0
 73
     0
 74
     5
  7

 75
    16
147
1.0
148
0.0
149
0.0
100
AcDbLayout
  1
Layout1
 70
     1
 71
     1
 10
0.0
 20
0.0
 11
12.0
 21
9.0
 12
0.0
 22
0.0
 32
0.0
 14
1.00000000000000E+20
 24
1.00000000000000E+20
 34
1.00000000000000E+20
 15
-1.00000000000000E+20
 25
-1.00000000000000E+20
 35
-1.00000000000000E+20
146
0.0
 13
0.0
 23
0.0
 33
0.0
 16
1.0
 26
0.0
 36
0.0
 17
0.0
 27
1.0
 37
0.0
 76
     0
330
1B
  0
LAYOUT
  5
26
102
{ACAD_REACTORS
330
1A
102
}
330
1A
100
AcDbPlotSettings
  1

  2
none_device
  4

  6

 40
0.0
 41
0.0
 42
0.0
 43
0.0
 44
0.0
 45
0.0
 46
0.0
 47
0.0
 48
0.0
 49
0.0
140
0.0
141
0.0
142
1.0
143
1.0
 70
   688
 72
     0
 73
     0
 74
     5
  7

 75
    16
147
1.0
148
0.0
149
0.0
100
AcDbLayout
  1
Layout2
 70
     1
 71
     2
 10
0.0
 20
0.0
 11
0.0
 21
0.0
 12
0.0
 22
0.0
 32
0.0
 14
0.0
 24
0.0
 34
0.0
 15
0.0
 25
0.0
 35
0.0
146
0.0
 13
0.0
 23
0.0
 33
0.0
 16
1.0
 26
0.0
 36
0.0
 17
0.0
 27
1.0
 37
0.0
 76
     0
330
23
  0
LAYOUT
  5
22
102
{ACAD_REACTORS
330
1A
102
}
330
1A
100
AcDbPlotSettings
  1

  2
none_device
  4

  6

 40
0.0
 41
0.0
 42
0.0
 43
0.0
 44
0.0
 45
0.0
 46
0.0
 47
0.0
 48
0.0
 49
0.0
140
0.0
141
0.0
142
1.0
143
1.0
 70
  1712
 72
     0
 73
     0
 74
     0
  7

 75
     0
147
1.0
148
0.0
149
0.0
100
AcDbLayout
  1
Model
 70
     1
 71
     0
 10
0.0
 20
0.0
 11
12.0
 21
9.0
 12
0.0
 22
0.0
 32
0.0
 14
83.12264412215175
 24
278.1242221901627
 34
0.0
 15
211.951059470334
 25
374.073612609514
 35
0.0
146
0.0
 13
0.0
 23
0.0
 33
0.0
 16
1.0
 26
0.0
 36
0.0
 17
0.0
 27
1.0
 37
0.0
 76
     0
330
1F
331
29
  0
MLINESTYLE
  5
18
102
{ACAD_REACTORS
330
17
102
}
330
17
100
AcDbMlineStyle
  2
Standard
 70
     0
  3

 62
   256
 51
90.0
 52
90.0
 71
     2
 49
0.5
 62
   256
  6
BYLAYER
 49
-0.5
 62
   256
  6
BYLAYER
  0
ACDBPLACEHOLDER
  5
F
102
{ACAD_REACTORS
330
E
102
}
330
E
  0
SCALE
  5
4E
102
{ACAD_REACTORS
330
4D
102
}
330
4D
100
AcDbScale
 70
     0
300
1:1
140
1.0
141
1.0
290
     1
  0
SCALE
  5
4F
102
{ACAD_REACTORS
330
4D
102
}
330
4D
100
AcDbScale
 70
     0
300
1:2
140
1.0
141
2.0
290
     0
  0
SCALE
  5
50
102
{ACAD_REACTORS
330
4D
102
}
330
4D
100
AcDbScale
 70
     0
300
1:4
140
1.0
141
4.0
290
     0
  0
SCALE
  5
51
102
{ACAD_REACTORS
330
4D
102
}
330
4D
100
AcDbScale
 70
     0
300
1:5
140
1.0
141
5.0
290
     0
  0
SCALE
  5
52
102
{ACAD_REACTORS
330
4D
102
}
330
4D
100
AcDbScale
 70
     0
300
1:8
140
1.0
141
8.0
290
     0
  0
SCALE
  5
53
102
{ACAD_REACTORS
330
4D
102
}
330
4D
100
AcDbScale
 70
     0
300
1:10
140
1.0
141
10.0
290
     0
  0
SCALE
  5
54
102
{ACAD_REACTORS
330
4D
102
}
330
4D
100
AcDbScale
 70
     0
300
1:16
140
1.0
141
16.0
290
     0
  0
SCALE
  5
55
102
{ACAD_REACTORS
330
4D
102
}
330
4D
100
AcDbScale
 70
     0
300
1:20
140
1.0
141
20.0
290
     0
  0
SCALE
  5
56
102
{ACAD_REACTORS
330
4D
102
}
330
4D
100
AcDbScale
 70
     0
300
1:30
140
1.0
141
30.0
290
     0
  0
SCALE
  5
57
102
{ACAD_REACTORS
330
4D
102
}
330
4D
100
AcDbScale
 70
     0
300
1:40
140
1.0
141
40.0
290
     0
  0
SCALE
  5
58
102
{ACAD_REACTORS
330
4D
102
}
330
4D
100
AcDbScale
 70
     0
300
1:50
140
1.0
141
50.0
290
     0
  0
SCALE
  5
59
102
{ACAD_REACTORS
330
4D
102
}
330
4D
100
AcDbScale
 70
     0
300
1:100
140
1.0
141
100.0
290
     0
  0
SCALE
  5
5A
102
{ACAD_REACTORS
330
4D
102
}
330
4D
100
AcDbScale
 70
     0
300
2:1
140
2.0
141
1.0
290
     0
  0
SCALE
  5
5B
102
{ACAD_REACTORS
330
4D
102
}
330
4D
100
AcDbScale
 70
     0
300
4:1
140
4.0
141
1.0
290
     0
  0
SCALE
  5
5C
102
{ACAD_REACTORS
330
4D
102
}
330
4D
100
AcDbScale
 70
     0
300
8:1
140
8.0
141
1.0
290
     0
  0
SCALE
  5
5D
102
{ACAD_REACTORS
330
4D
102
}
330
4D
100
AcDbScale
 70
     0
300
10:1
140
10.0
141
1.0
290
     0
  0
SCALE
  5
5E
102
{ACAD_REACTORS
330
4D
102
}
330
4D
100
AcDbScale
 70
     0
300
100:1
140
100.0
141
1.0
290
     0
  0
SCALE
  5
5F
102
{ACAD_REACTORS
330
4D
102
}
330
4D
100
AcDbScale
 70
     0
300
1/128" = 1'-0"
140
0.0078125
141
12.0
290
     0
  0
SCALE
  5
60
102
{ACAD_REACTORS
330
4D
102
}
330
4D
100
AcDbScale
 70
     0
300
1/64" = 1'-0"
140
0.015625
141
12.0
290
     0
  0
SCALE
  5
61
102
{ACAD_REACTORS
330
4D
102
}
330
4D
100
AcDbScale
 70
     0
300
1/32" = 1'-0"
140
0.03125
141
12.0
290
     0
  0
SCALE
  5
62
102
{ACAD_REACTORS
330
4D
102
}
330
4D
100
AcDbScale
 70
     0
300
1/16" = 1'-0"
140
0.0625
141
12.0
290
     0
  0
SCALE
  5
63
102
{ACAD_REACTORS
330
4D
102
}
330
4D
100
AcDbScale
 70
     0
300
3/32" = 1'-0"
140
0.09375
141
12.0
290
     0
  0
SCALE
  5
64
102
{ACAD_REACTORS
330
4D
102
}
330
4D
100
AcDbScale
 70
     0
300
1/8" = 1'-0"
140
0.125
141
12.0
290
     0
  0
SCALE
  5
65
102
{ACAD_REACTORS
330
4D
102
}
330
4D
100
AcDbScale
 70
     0
300
3/16" = 1'-0"
140
0.1875
141
12.0
290
     0
  0
SCALE
  5
66
102
{ACAD_REACTORS
330
4D
102
}
330
4D
100
AcDbScale
 70
     0
300
1/4" = 1'-0"
140
0.25
141
12.0
290
     0
  0
SCALE
  5
67
102
{ACAD_REACTORS
330
4D
102
}
330
4D
100
AcDbScale
 70
     0
300
3/8" = 1'-0"
140
0.375
141
12.0
290
     0
  0
SCALE
  5
68
102
{ACAD_REACTORS
330
4D
102
}
330
4D
100
AcDbScale
 70
     0
300
1/2" = 1'-0"
140
0.5
141
12.0
290
     0
  0
SCALE
  5
69
102
{ACAD_REACTORS
330
4D
102
}
330
4D
100
AcDbScale
 70
     0
300
3/4" = 1'-0"
140
0.75
141
12.0
290
     0
  0
SCALE
  5
6A
102
{ACAD_REACTORS
330
4D
102
}
330
4D
100
AcDbScale
 70
     0
300
1" = 1'-0"
140
1.0
141
12.0
290
     0
  0
SCALE
  5
6B
102
{ACAD_REACTORS
330
4D
102
}
330
4D
100
AcDbScale
 70
     0
300
1-1/2" = 1'-0"
140
1.5
141
12.0
290
     0
  0
SCALE
  5
6C
102
{ACAD_REACTORS
330
4D
102
}
330
4D
100
AcDbScale
 70
     0
300
3" = 1'-0"
140
3.0
141
12.0
290
     0
  0
SCALE
  5
6D
102
{ACAD_REACTORS
330
4D
102
}
330
4D
100
AcDbScale
 70
     0
300
6" = 1'-0"
140
6.0
141
12.0
290
     0
  0
SCALE
  5
6E
102
{ACAD_REACTORS
330
4D
102
}
330
4D
100
AcDbScale
 70
     0
300
1'-0" = 1'-0"
140
12.0
141
12.0
290
     0
  0
VISUALSTYLE
  5
2F
102
{ACAD_REACTORS
330
2A
102
}
330
2A
100
AcDbVisualStyle
  2
2dWireframe
 70
     4
 71
     0
 72
     2
 73
     0
 90
        0
 40
-0.6
 41
-30.0
 62
     5
 63
     7
 74
     1
 91
        4
 64
     7
 65
   257
 75
     1
175
     1
 42
1.0
 92
        0
 66
   257
 43
1.0
 76
     1
 77
     6
 78
     2
 67
     7
 79
     5
170
     0
171
     0
290
     0
174
     0
 93
        1
 44
0.0
173
     0
291
     0
 45
0.0
1001
ACAD
1000
AcDbSavedByObjectVersion
1070
     0
  0
VISUALSTYLE
  5
31
102
{ACAD_REACTORS
330
2A
102
}
330
2A
100
AcDbVisualStyle
  2
3D Hidden
 70
     6
 71
     1
 72
     2
 73
     2
 90
        0
 40
-0.6
 41
-30.0
 62
     5
 63
     7
 74
     2
 91
        2
 64
     7
 65
   257
 75
     2
175
     1
 42
40.0
 92
        0
 66
   257
 43
1.0
 76
     1
 77
     6
 78
     2
 67
     7
 79
     3
170
     0
171
     0
290
     0
174
     0
 93
        1
 44
0.0
173
     0
291
     0
 45
0.0
1001
ACAD
1000
AcDbSavedByObjectVersion
1070
     0
  0
VISUALSTYLE
  5
30
102
{ACAD_REACTORS
330
2A
102
}
330
2A
100
AcDbVisualStyle
  2
3dWireframe
 70
     5
 71
     0
 72
     2
 73
     0
 90
        0
 40
-0.6
 41
-30.0
 62
     5
 63
     7
 74
     1
 91
        4
 64
     7
 65
   257
 75
     1
175
     1
 42
1.0
 92
        0
 66
   257
 43
1.0
 76
     1
 77
     6
 78
     2
 67
     7
 79
     5
170
     0
171
     0
290
     0
174
     0
 93
        1
 44
0.0
173
     0
291
     0
 45
0.0
1001
ACAD
1000
AcDbSavedByObjectVersion
1070
     0
  0
VISUALSTYLE
  5
32
102
{ACAD_REACTORS
330
2A
102
}
330
2A
100
AcDbVisualStyle
  2
Basic
 70
     7
 71
     1
 72
     0
 73
     1
 90
        0
 40
-0.6
 41
-30.0
 62
     5
 63
     7
 74
     0
 91
        4
 64
     7
 65
   257
 75
     1
175
     1
 42
1.0
 92
        8
 66
     7
 43
1.0
 76
     1
 77
     6
 78
     2
 67
     7
 79
     5
170
     0
171
     0
290
     0
174
     0
 93
        1
 44
0.0
173
     0
291
     1
 45
0.0
1001
ACAD
1000
AcDbSavedByObjectVersion
1070
     0
  0
VISUALSTYLE
  5
36
102
{ACAD_REACTORS
330
2A
102
}
330
2A
100
AcDbVisualStyle
  2
Brighten
 70
    12
 71
     2
 72
     2
 73
     0
 90
        0
 40
-0.6
 41
-30.0
 62
     5
 63
     7
 74
     1
 91
        4
 64
     7
 65
   257
 75
     1
175
     1
 42
1.0
 92
        8
 66
     7
 43
1.0
 76
     1
 77
     6
 78
     2
 67
     7
 79
     5
170
     0
171
     0
290
     0
174
     0
 93
        1
 44
50.0
173
     0
291
     1
 45
0.0
1001
ACAD
1000
AcDbSavedByObjectVersion
1070
     0
  0
VISUALSTYLE
  5
3A
102
{ACAD_REACTORS
330
2A
102
}
330
2A
100
AcDbVisualStyle
  2
ColorChange
 70
    16
 71
     2
 72
     2
 73
     3
 90
        0
 40
-0.6
 41
-30.0
 62
     5
 63
     8
 74
     1
 91
        4
 64
     7
 65
   257
 75
     1
175
     1
 42
1.0
 92
        8
 66
     8
 43
1.0
 76
     1
 77
     6
 78
     2
 67
     7
 79
     5
170
     0
171
     0
290
     0
174
     0
 93
        1
 44
0.0
173
     0
291
     1
 45
0.0
1001
ACAD
1000
AcDbSavedByObjectVersion
1070
     0
  0
VISUALSTYLE
  5
34
102
{ACAD_REACTORS
330
2A
102
}
330
2A
100
AcDbVisualStyle
  2
Conceptual
 70
     9
 71
     3
 72
     2
 73
     0
 90
        0
 40
-0.6
 41
-30.0
 62
     5
 63
     7
 74
     2
 91
        2
 64
     7
 65
   257
 75
     1
175
     1
 42
40.0
 92
        8
 66
     7
 43
1.0
 76
     1
 77
     6
 78
     2
 67
     7
 79
     3
170
     0
171
     0
290
     0
174
     0
 93
        1
 44
0.0
173
     0
291
     0
 45
0.0
1001
ACAD
1000
AcDbSavedByObjectVersion
1070
     0
  0
VISUALSTYLE
  5
35
102
{ACAD_REACTORS
330
2A
102
}
330
2A
100
AcDbVisualStyle
  2
Dim
 70
    11
 71
     2
 72
     2
 73
     0
 90
        0
 40
-0.6
 41
-30.0
 62
     5
 63
     7
 74
     1
 91
        4
 64
     7
 65
   257
 75
     1
175
     1
 42
1.0
 92
        8
 66
     7
 43
1.0
 76
     1
 77
     6
 78
     2
 67
     7
 79
     5
170
     0
171
     0
290
     0
174
     0
 93
        1
 44
-50.0
173
     0
291
     1
 45
0.0
1001
ACAD
1000
AcDbSavedByObjectVersion
1070
     0
  0
VISUALSTYLE
  5
39
102
{ACAD_REACTORS
330
2A
102
}
330
2A
100
AcDbVisualStyle
  2
Facepattern
 70
    15
 71
     2
 72
     2
 73
     0
 90
        0
 40
-0.6
 41
-30.0
 62
     5
 63
     7
 74
     1
 91
        4
 64
     7
 65
   257
 75
     1
175
     1
 42
1.0
 92
        8
 66
     7
 43
1.0
 76
     1
 77
     6
 78
     2
 67
     7
 79
     5
170
     0
171
     0
290
     0
174
     0
 93
        1
 44
0.0
173
     0
291
     1
 45
0.0
1001
ACAD
1000
AcDbSavedByObjectVersion
1070
     0
  0
VISUALSTYLE
  5
2B
102
{ACAD_REACTORS
330
2A
102
}
330
2A
100
AcDbVisualStyle
  2
Flat
 70
     0
 71
     2
 72
     1
 73
     1
 90
        2
 40
-0.6
 41
30.0
 62
     5
 63
     7
 74
     0
 91
        4
 64
     7
 65
   257
 75
     1
175
     1
 42
1.0
 92
        8
 66
     7
 43
1.0
 76
     1
 77
     6
 78
     2
 67
     7
 79
     5
170
     0
171
     0
290
     0
174
     0
 93
       13
 44
0.0
173
     0
291
     1
 45
0.0
1001
ACAD
1000
AcDbSavedByObjectVersion
1070
     0
  0
VISUALSTYLE
  5
2C
102
{ACAD_REACTORS
330
2A
102
}
330
2A
100
AcDbVisualStyle
  2
FlatWithEdges
 70
     1
 71
     2
 72
     1
 73
     1
 90
        2
 40
-0.6
 41
30.0
 62
     5
 63
     7
 74
     1
 91
        4
 64
     7
 65
   257
 75
     1
175
     1
 42
1.0
 92
        0
 66
   257
 43
1.0
 76
     1
 77
     6
 78
     2
 67
     7
 79
     5
170
     0
171
     0
290
     0
174
     0
 93
       13
 44
0.0
173
     0
291
     1
 45
0.0
1001
ACAD
1000
AcDbSavedByObjectVersion
1070
     0
  0
VISUALSTYLE
  5
2D
102
{ACAD_REACTORS
330
2A
102
}
330
2A
100
AcDbVisualStyle
  2
Gouraud
 70
     2
 71
     2
 72
     2
 73
     1
 90
        2
 40
-0.6
 41
30.0
 62
     5
 63
     7
 74
     0
 91
        4
 64
     7
 65
   257
 75
     1
175
     1
 42
1.0
 92
        0
 66
     7
 43
1.0
 76
     1
 77
     6
 78
     2
 67
     7
 79
     5
170
     0
171
     0
290
     0
174
     0
 93
       13
 44
0.0
173
     0
291
     1
 45
0.0
1001
ACAD
1000
AcDbSavedByObjectVersion
1070
     0
  0
VISUALSTYLE
  5
2E
102
{ACAD_REACTORS
330
2A
102
}
330
2A
100
AcDbVisualStyle
  2
GouraudWithEdges
 70
     3
 71
     2
 72
     2
 73
     1
 90
        2
 40
-0.6
 41
30.0
 62
     5
 63
     7
 74
     1
 91
        4
 64
     7
 65
   257
 75
     1
175
     1
 42
1.0
 92
        0
 66
   257
 43
1.0
 76
     1
 77
     6
 78
     2
 67
     7
 79
     5
170
     0
171
     0
290
     0
174
     0
 93
       13
 44
0.0
173
     0
291
     1
 45
0.0
1001
ACAD
1000
AcDbSavedByObjectVersion
1070
     0
  0
VISUALSTYLE
  5
38
102
{ACAD_REACTORS
330
2A
102
}
330
2A
100
AcDbVisualStyle
  2
Linepattern
 70
    14
 71
     2
 72
     2
 73
     0
 90
        0
 40
-0.6
 41
-30.0
 62
     5
 63
     7
 74
     1
 91
        4
 64
     7
 65
   257
 75
     7
175
     7
 42
1.0
 92
        8
 66
     7
 43
1.0
 76
     1
 77
     6
 78
     2
 67
     7
 79
     5
170
     0
171
     0
290
     0
174
     0
 93
        1
 44
0.0
173
     0
291
     1
 45
0.0
1001
ACAD
1000
AcDbSavedByObjectVersion
1070
     0
  0
VISUALSTYLE
  5
33
102
{ACAD_REACTORS
330
2A
102
}
330
2A
100
AcDbVisualStyle
  2
Realistic
 70
     8
 71
     2
 72
     2
 73
     0
 90
        0
 40
-0.6
 41
-30.0
 62
     5
 63
     7
 74
     1
 91
        0
 64
     7
 65
   257
 75
     1
175
     1
 42
1.0
 92
        8
 66
     8
 43
1.0
 76
     1
 77
     6
 78
     2
 67
     7
 79
     5
170
     0
171
     0
290
     0
174
     0
 93
       13
 44
0.0
173
     0
291
     0
 45
0.0
1001
ACAD
1000
AcDbSavedByObjectVersion
1070
     0
  0
VISUALSTYLE
  5
37
102
{ACAD_REACTORS
330
2A
102
}
330
2A
100
AcDbVisualStyle
  2
Thicken
 70
    13
 71
     2
 72
     2
 73
     0
 90
        0
 40
-0.6
 41
-30.0
 62
     5
 63
     7
 74
     1
 91
        4
 64
     7
 65
   257
 75
     1
175
     1
 42
1.0
 92
       12
 66
     7
 43
1.0
 76
     1
 77
     6
 78
     2
 67
     7
 79
     5
170
     0
171
     0
290
     0
174
     0
 93
        1
 44
0.0
173
     0
291
     1
 45
0.0
1001
ACAD
1000
AcDbSavedByObjectVersion
1070
     0
  0
DICTIONARYVAR
  5
1A1
102
{ACAD_REACTORS
330
19E
102
}
330
19E
100
DictionaryVariables
280
     0
  1
1:1
  0
ENDSEC
  0
EOF
