  0
SECTION
  2
HEADER
  9
$ACADVER
  1
AC1015
  9
$ACADMAINTVER
 70
     6
  9
$DWGCODEPAGE
  3
ANSI_1252
  9
$INSBASE
 10
0.0
 20
0.0
 30
0.0
  9
$EXTMIN
 10
63.320978025062
 20
247.7829920772068
 30
0.0
  9
$EXTMAX
 10
203.847815094358
 20
356.552378994513
 30
0.0
  9
$LIMMIN
 10
0.0
 20
0.0
  9
$LIMMAX
 10
12.0
 20
9.0
  9
$ORTHOMODE
 70
     0
  9
$REGENMODE
 70
     1
  9
$FILLMODE
 70
     1
  9
$QTEXTMODE
 70
     0
  9
$MIRRTEXT
 70
     1
  9
$LTSCALE
 40
1.0
  9
$ATTMODE
 70
     1
  9
$TEXTSIZE
 40
0.2
  9
$TRACEWID
 40
0.05
  9
$TEXTSTYLE
  7
Standard
  9
$CLAYER
  8
0
  9
$CELTYPE
  6
ByLayer
  9
$CECOLOR
 62
   256
  9
$CELTSCALE
 40
1.0
  9
$DISPSILH
 70
     0
  9
$DIMSCALE
 40
1.0
  9
$DIMASZ
 40
0.18
  9
$DIMEXO
 40
0.0625
  9
$DIMDLI
 40
0.38
  9
$DIMRND
 40
0.0
  9
$DIMDLE
 40
0.0
  9
$DIMEXE
 40
0.18
  9
$DIMTP
 40
0.0
  9
$DIMTM
 40
0.0
  9
$DIMTXT
 40
0.18
  9
$DIMCEN
 40
0.09
  9
$DIMTSZ
 40
0.0
  9
$DIMTOL
 70
     0
  9
$DIMLIM
 70
     0
  9
$DIMTIH
 70
     1
  9
$DIMTOH
 70
     1
  9
$DIMSE1
 70
     0
  9
$DIMSE2
 70
     0
  9
$DIMTAD
 70
     0
  9
$DIMZIN
 70
     0
  9
$DIMBLK
  1

  9
$DIMASO
 70
     1
  9
$DIMSHO
 70
     1
  9
$DIMPOST
  1

  9
$DIMAPOST
  1

  9
$DIMALT
 70
     0
  9
$DIMALTD
 70
     2
  9
$DIMALTF
 40
25.4
  9
$DIMLFAC
 40
1.0
  9
$DIMTOFL
 70
     0
  9
$DIMTVP
 40
0.0
  9
$DIMTIX
 70
     0
  9
$DIMSOXD
 70
     0
  9
$DIMSAH
 70
     0
  9
$DIMBLK1
  1

  9
$DIMBLK2
  1

  9
$DIMSTYLE
  2
Standard
  9
$DIMCLRD
 70
     0
  9
$DIMCLRE
 70
     0
  9
$DIMCLRT
 70
     0
  9
$DIMTFAC
 40
1.0
  9
$DIMGAP
 40
0.09
  9
$DIMJUST
 70
     0
  9
$DIMSD1
 70
     0
  9
$DIMSD2
 70
     0
  9
$DIMTOLJ
 70
     1
  9
$DIMTZIN
 70
     0
  9
$DIMALTZ
 70
     0
  9
$DIMALTTZ
 70
     0
  9
$DIMUPT
 70
     0
  9
$DIMDEC
 70
     4
  9
$DIMTDEC
 70
     4
  9
$DIMALTU
 70
     2
  9
$DIMALTTD
 70
     2
  9
$DIMTXSTY
  7
Standard
  9
$DIMAUNIT
 70
     0
  9
$DIMADEC
 70
     0
  9
$DIMALTRND
 40
0.0
  9
$DIMAZIN
 70
     0
  9
$DIMDSEP
 70
    46
  9
$DIMATFIT
 70
     3
  9
$DIMFRAC
 70
     0
  9
$DIMLDRBLK
  1

  9
$DIMLUNIT
 70
     2
  9
$DIMLWD
 70
    -2
  9
$DIMLWE
 70
    -2
  9
$DIMTMOVE
 70
     0
  9
$LUNITS
 70
     2
  9
$LUPREC
 70
     4
  9
$SKETCHINC
 40
0.1
  9
$FILLETRAD
 40
0.5
  9
$AUNITS
 70
     0
  9
$AUPREC
 70
     0
  9
$MENU
  1
.
  9
$ELEVATION
 40
0.0
  9
$PELEVATION
 40
0.0
  9
$THICKNESS
 40
0.0
  9
$LIMCHECK
 70
     0
  9
$CHAMFERA
 40
0.5
  9
$CHAMFERB
 40
0.5
  9
$CHAMFERC
 40
1.0
  9
$CHAMFERD
 40
0.0
  9
$SKPOLY
 70
     0
  9
$TDCREATE
 40
2456672.708404086
  9
$TDUCREATE
 40
2456672.666737419
  9
$TDUPDATE
 40
2456672.708404097
  9
$TDUUPDATE
 40
2456672.666737431
  9
$TDINDWG
 40
0.0000000116
  9
$TDUSRTIMER
 40
0.0000000116
  9
$USRTIMER
 70
     1
  9
$ANGBASE
 50
0.0
  9
$ANGDIR
 70
     0
  9
$PDMODE
 70
     0
  9
$PDSIZE
 40
0.0
  9
$PLINEWID
 40
0.0
  9
$SPLFRAME
 70
     0
  9
$SPLINETYPE
 70
     6
  9
$SPLINESEGS
 70
     8
  9
$HANDSEED
  5
16D
  9
$SURFTAB1
 70
     6
  9
$SURFTAB2
 70
     6
  9
$SURFTYPE
 70
     6
  9
$SURFU
 70
     6
  9
$SURFV
 70
     6
  9
$UCSBASE
  2

  9
$UCSNAME
  2

  9
$UCSORG
 10
0.0
 20
0.0
 30
0.0
  9
$UCSXDIR
 10
1.0
 20
0.0
 30
0.0
  9
$UCSYDIR
 10
0.0
 20
1.0
 30
0.0
  9
$UCSORTHOREF
  2

  9
$UCSORTHOVIEW
 70
     0
  9
$UCSORGTOP
 10
0.0
 20
0.0
 30
0.0
  9
$UCSORGBOTTOM
 10
0.0
 20
0.0
 30
0.0
  9
$UCSORGLEFT
 10
0.0
 20
0.0
 30
0.0
  9
$UCSORGRIGHT
 10
0.0
 20
0.0
 30
0.0
  9
$UCSORGFRONT
 10
0.0
 20
0.0
 30
0.0
  9
$UCSORGBACK
 10
0.0
 20
0.0
 30
0.0
  9
$PUCSBASE
  2

  9
$PUCSNAME
  2

  9
$PUCSORG
 10
0.0
 20
0.0
 30
0.0
  9
$PUCSXDIR
 10
1.0
 20
0.0
 30
0.0
  9
$PUCSYDIR
 10
0.0
 20
1.0
 30
0.0
  9
$PUCSORTHOREF
  2

  9
$PUCSORTHOVIEW
 70
     0
  9
$PUCSORGTOP
 10
0.0
 20
0.0
 30
0.0
  9
$PUCSORGBOTTOM
 10
0.0
 20
0.0
 30
0.0
  9
$PUCSORGLEFT
 10
0.0
 20
0.0
 30
0.0
  9
$PUCSORGRIGHT
 10
0.0
 20
0.0
 30
0.0
  9
$PUCSORGFRONT
 10
0.0
 20
0.0
 30
0.0
  9
$PUCSORGBACK
 10
0.0
 20
0.0
 30
0.0
  9
$USERI1
 70
     0
  9
$USERI2
 70
     0
  9
$USERI3
 70
     0
  9
$USERI4
 70
     0
  9
$USERI5
 70
     0
  9
$USERR1
 40
16.5
  9
$USERR2
 40
0.0
  9
$USERR3
 40
0.0
  9
$USERR4
 40
0.0
  9
$USERR5
 40
0.0
  9
$WORLDVIEW
 70
     1
  9
$SHADEDGE
 70
     3
  9
$SHADEDIF
 70
    70
  9
$TILEMODE
 70
     1
  9
$MAXACTVP
 70
    64
  9
$PINSBASE
 10
0.0
 20
0.0
 30
0.0
  9
$PLIMCHECK
 70
     0
  9
$PEXTMIN
 10
1.00000000000000E+20
 20
1.00000000000000E+20
 30
1.00000000000000E+20
  9
$PEXTMAX
 10
-1.00000000000000E+20
 20
-1.00000000000000E+20
 30
-1.00000000000000E+20
  9
$PLIMMIN
 10
0.0
 20
0.0
  9
$PLIMMAX
 10
12.0
 20
9.0
  9
$UNITMODE
 70
     0
  9
$VISRETAIN
 70
     1
  9
$PLINEGEN
 70
     0
  9
$PSLTSCALE
 70
     1
  9
$TREEDEPTH
 70
  3020
  9
$CMLSTYLE
  2
Standard
  9
$CMLJUST
 70
     0
  9
$CMLSCALE
 40
1.0
  9
$PROXYGRAPHICS
 70
     1
  9
$MEASUREMENT
 70
     1
  9
$CELWEIGHT
370
    -1
  9
$ENDCAPS
280
     0
  9
$JOINSTYLE
280
     0
  9
$LWDISPLAY
290
     0
  9
$INSUNITS
 70
     1
  9
$HYPERLINKBASE
  1

  9
$STYLESHEET
  1

  9
$XEDIT
290
     1
  9
$CEPSNTYPE
380
     0
  9
$PSTYLEMODE
290
     1
  9
$FINGERPRINTGUID
  2
{BFE04C0A-F730-4694-8B44-E9507DA88DD5}
  9
$VERSIONGUID
  2
{FAEB1C32-E019-11D5-929B-00C0DF256EC4}
  9
$EXTNAMES
290
     1
  9
$PSVPSCALE
 40
0.0
  9
$OLESTARTUP
290
     0
  0
ENDSEC
  0
SECTION
  2
CLASSES
  0
CLASS
  1
ACDBDICTIONARYWDFLT
  2
AcDbDictionaryWithDefault
  3
ObjectDBX Classes
 90
        0
280
     0
281
     0
  0
CLASS
  1
VISUALSTYLE
  2
AcDbVisualStyle
  3
ObjectDBX Classes
 90
     4095
280
     0
281
     0
  0
CLASS
  1
SCALE
  2
AcDbScale
  3
ObjectDBX Classes
 90
     1153
280
     0
281
     0
  0
CLASS
  1

  2
exOdDbPolyline
  3

 90
        0
280
     0
281
     1
  0
CLASS
  1

  2
exOdDbCircle
  3

 90
        0
280
     0
281
     1
  0
CLASS
  1

  2
exOdDbSpline
  3

 90
        0
280
     0
281
     1
  0
CLASS
  1
DICTIONARYVAR
  2
AcDbDictionaryVar
  3
ObjectDBX Classes
 90
        0
280
     0
281
     0
  0
CLASS
  1
ACDBPLACEHOLDER
  2
AcDbPlaceHolder
  3
ObjectDBX Classes
 90
        0
280
     0
281
     0
  0
CLASS
  1
LAYOUT
  2
AcDbLayout
  3
ObjectDBX Classes
 90
        0
280
     0
281
     0
  0
ENDSEC
  0
SECTION
  2
TABLES
  0
TABLE
  2
VPORT
  5
8
330
0
100
AcDbSymbolTable
 70
     1
  0
VPORT
  5
29
330
8
100
AcDbSymbolTableRecord
100
AcDbViewportTableRecord
  2
*Active
 70
     0
 10
0.0
 20
0.0
 11
1.0
 21
1.0
 12
133.58439655971
 22
302.1676855358599
 13
0.0
 23
0.0
 14
0.5
 24
0.5
 15
0.5
 25
0.5
 16
0.0
 26
0.0
 36
1.0
 17
0.0
 27
0.0
 37
0.0
 40
119.6463256090368
 41
1.60267857142857
 42
50.0
 43
0.0
 44
0.0
 50
0.0
 51
0.0
 71
     0
 72
   100
 73
     1
 74
     3
 75
     0
 76
     0
 77
     0
 78
     0
281
     0
 65
     1
110
0.0
120
0.0
130
0.0
111
1.0
121
0.0
131
0.0
112
0.0
122
1.0
132
0.0
 79
     0
146
0.0
  0
ENDTAB
  0
TABLE
  2
LTYPE
  5
5
330
0
100
AcDbSymbolTable
 70
     9
  0
LTYPE
  5
14
330
5
100
AcDbSymbolTableRecord
100
AcDbLinetypeTableRecord
  2
ByBlock
 70
     0
  3

 72
    65
 73
     0
 40
0.0
  0
LTYPE
  5
15
330
5
100
AcDbSymbolTableRecord
100
AcDbLinetypeTableRecord
  2
ByLayer
 70
     0
  3

 72
    65
 73
     0
 40
0.0
  0
LTYPE
  5
16
330
5
100
AcDbSymbolTableRecord
100
AcDbLinetypeTableRecord
  2
Continuous
 70
     0
  3
Solid line
 72
    65
 73
     0
 40
0.0
  0
LTYPE
  5
3B
330
5
100
AcDbSymbolTableRecord
100
AcDbLinetypeTableRecord
  2
DASHED
 70
     0
  3
Dashed
 72
    65
 73
     2
 40
15.0
 49
7.0
 74
     0
 49
-8.0
 74
     0
  0
LTYPE
  5
3C
330
5
100
AcDbSymbolTableRecord
100
AcDbLinetypeTableRecord
  2
DOTTED
 70
     0
  3
Dotted
 72
    65
 73
     2
 40
1.0
 49
0.0
 74
     0
 49
-1.0
 74
     0
  0
LTYPE
  5
3D
330
5
100
AcDbSymbolTableRecord
100
AcDbLinetypeTableRecord
  2
DOT_CENTER
 70
     0
  3
Dot_Center
 72
    65
 73
     4
 40
14.0
 49
12.0
 74
     0
 49
-1.0
 74
     0
 49
0.0
 74
     0
 49
-1.0
 74
     0
  0
LTYPE
  5
3E
330
5
100
AcDbSymbolTableRecord
100
AcDbLinetypeTableRecord
  2
LONG_DASHED
 70
     0
  3
Long_Dashed
 72
    65
 73
     2
 40
15.0
 49
10.0
 74
     0
 49
-5.0
 74
     0
  0
LTYPE
  5
3F
330
5
100
AcDbSymbolTableRecord
100
AcDbLinetypeTableRecord
  2
DASH_CENTER
 70
     0
  3
Dash_Center
 72
    65
 73
     4
 40
14.0
 49
11.0
 74
     0
 49
-1.0
 74
     0
 49
1.0
 74
     0
 49
-1.0
 74
     0
  0
LTYPE
  5
40
330
5
100
AcDbSymbolTableRecord
100
AcDbLinetypeTableRecord
  2
PHANTOM
 70
     0
  3
Phantom
 72
    65
 73
     6
 40
13.0
 49
10.0
 74
     0
 49
-1.0
 74
     0
 49
0.0
 74
     0
 49
-1.0
 74
     0
 49
0.0
 74
     0
 49
-1.0
 74
     0
  0
LTYPE
  5
41
330
5
100
AcDbSymbolTableRecord
100
AcDbLinetypeTableRecord
  2
CENTER_DASH_DASH
 70
     0
  3
Center_Dash_Dash
 72
    65
 73
     6
 40
14.0
 49
9.0
 74
     0
 49
-1.0
 74
     0
 49
1.0
 74
     0
 49
-1.0
 74
     0
 49
1.0
 74
     0
 49
-1.0
 74
     0
  0
LTYPE
  5
42
330
5
100
AcDbSymbolTableRecord
100
AcDbLinetypeTableRecord
  2
HIDDEN
 70
     0
  3
HIDDEN
 72
    65
 73
     2
 40
4.0
 49
2.0
 74
     0
 49
-2.0
 74
     0
  0
ENDTAB
  0
TABLE
  2
LAYER
  5
2
330
0
100
AcDbSymbolTable
 70
     8
  0
LAYER
  5
10
330
2
100
AcDbSymbolTableRecord
100
AcDbLayerTableRecord
  2
0
 70
     0
 62
     7
  6
Continuous
370
    -3
390
F
  0
LAYER
  5
43
330
2
100
AcDbSymbolTableRecord
100
AcDbLayerTableRecord
  2
1
 70
     0
 62
     7
  6
Continuous
370
    -3
390
F
  0
LAYER
  5
44
330
2
100
AcDbSymbolTableRecord
100
AcDbLayerTableRecord
  2
BEZUGSACHSEN
 70
     0
 62
     7
  6
Continuous
370
    -3
390
F
  0
LAYER
  5
45
330
2
100
AcDbSymbolTableRecord
100
AcDbLayerTableRecord
  2
DEFAULT_2
 70
     0
 62
     7
  6
Continuous
370
    -3
390
F
  0
LAYER
  5
46
330
2
100
AcDbSymbolTableRecord
100
AcDbLayerTableRecord
  2
FASEN
 70
     0
 62
     7
  6
Continuous
370
    -3
390
F
  0
LAYER
  5
47
330
2
100
AcDbSymbolTableRecord
100
AcDbLayerTableRecord
  2
FLAECHEN
 70
     0
 62
     7
  6
Continuous
370
    -3
390
F
  0
LAYER
  5
48
330
2
100
AcDbSymbolTableRecord
100
AcDbLayerTableRecord
  2
RUNDUNGEN
 70
     0
 62
     7
  6
Continuous
370
    -3
390
F
  0
LAYER
  5
49
330
2
100
AcDbSymbolTableRecord
100
AcDbLayerTableRecord
  2
TEIL_STARTBEZUEGE
 70
     0
 62
     7
  6
Continuous
370
    -3
390
F
  0
ENDTAB
  0
TABLE
  2
STYLE
  5
3
330
0
100
AcDbSymbolTable
 70
     2
  0
STYLE
  5
11
330
3
100
AcDbSymbolTableRecord
100
AcDbTextStyleTableRecord
  2
Standard
 70
     0
 40
0.0
 41
1.0
 50
0.0
 71
     0
 42
0.2
  3
txt
  4

  0
STYLE
  5
70
330
3
100
AcDbSymbolTableRecord
100
AcDbTextStyleTableRecord
  2
CONVERTER_11
 70
     0
 40
0.0
 41
0.72
 50
0.0
 71
     0
 42
0.2
  3
txt.shx
  4

  0
ENDTAB
  0
TABLE
  2
VIEW
  5
6
330
0
100
AcDbSymbolTable
 70
     0
  0
ENDTAB
  0
TABLE
  2
UCS
  5
7
330
0
100
AcDbSymbolTable
 70
     0
  0
ENDTAB
  0
TABLE
  2
APPID
  5
9
330
0
100
AcDbSymbolTable
 70
     1
  0
APPID
  5
12
330
9
100
AcDbSymbolTableRecord
100
AcDbRegAppTableRecord
  2
ACAD
 70
     0
  0
ENDTAB
  0
TABLE
  2
DIMSTYLE
  5
A
330
0
100
AcDbSymbolTable
 70
     7
100
AcDbDimStyleTable
  0
DIMSTYLE
105
27
330
A
100
AcDbSymbolTableRecord
100
AcDbDimStyleTableRecord
  2
Standard
 70
     0
340
11
  0
DIMSTYLE
105
129
102
{ACAD_REACTORS
330
12A
102
}
330
A
100
AcDbSymbolTableRecord
100
AcDbDimStyleTableRecord
  2
ME10_DIM_10
 70
     0
  3
<>
 41
3.5
 42
2.0
 44
2.0
 71
     1
 73
     0
 74
     0
 77
     1
 78
     8
140
3.5
146
0.7
147
2.0
172
     1
173
     1
176
     2
177
     2
178
     3
271
     1
272
     0
340
70
  0
DIMSTYLE
105
134
102
{ACAD_REACTORS
330
135
102
}
330
A
100
AcDbSymbolTableRecord
100
AcDbDimStyleTableRecord
  2
ME10_DIM_11
 70
     0
  3
<>
 41
3.5
 42
2.0
 44
2.0
 71
     1
 73
     0
 74
     0
 77
     1
 78
     8
140
3.5
146
0.7
147
2.0
172
     1
173
     1
176
     2
177
     2
178
     3
271
     2
272
     0
340
70
  0
DIMSTYLE
105
13F
102
{ACAD_REACTORS
330
140
102
}
330
A
100
AcDbSymbolTableRecord
100
AcDbDimStyleTableRecord
  2
ME10_DIM_12
 70
     0
  3
<>
 41
3.5
 42
2.0
 44
2.0
 71
     1
 73
     0
 74
     0
 77
     1
 78
     8
140
3.5
146
0.7
147
2.0
172
     1
173
     1
176
     2
177
     2
178
     3
271
     2
272
     0
340
70
  0
DIMSTYLE
105
14A
102
{ACAD_REACTORS
330
14B
102
}
330
A
100
AcDbSymbolTableRecord
100
AcDbDimStyleTableRecord
  2
ME10_DIM_13
 70
     0
  3
ER<>
 41
3.5
 42
2.0
 44
2.0
 71
     1
 73
     0
 74
     0
 77
     1
 78
     8
140
3.5
146
0.7
147
2.0
172
     1
173
     1
176
     2
177
     2
178
     3
271
     2
272
     0
340
70
  0
DIMSTYLE
105
155
102
{ACAD_REACTORS
330
156
102
}
330
A
100
AcDbSymbolTableRecord
100
AcDbDimStyleTableRecord
  2
ME10_DIM_14
 70
     0
  3
\U+2300<>
 41
3.5
 42
2.0
 44
2.0
 71
     1
 73
     0
 74
     0
 77
     1
 78
     8
140
3.5
146
0.7
147
2.0
172
     1
173
     1
176
     2
177
     2
178
     3
271
     1
272
     0
340
70
  0
DIMSTYLE
105
160
102
{ACAD_REACTORS
330
161
102
}
330
A
100
AcDbSymbolTableRecord
100
AcDbDimStyleTableRecord
  2
ME10_DIM_15
 70
     0
  3
<>
 41
3.5
 42
2.0
 44
2.0
 71
     1
 73
     0
 74
     0
 77
     1
 78
     8
140
3.5
146
0.7
147
2.0
172
     1
173
     1
176
     2
177
     2
178
     3
271
     2
272
     0
340
70
  0
ENDTAB
  0
TABLE
  2
BLOCK_RECORD
  5
1
330
0
100
AcDbSymbolTable
 70
     9
  0
BLOCK_RECORD
  5
1F
330
1
100
AcDbSymbolTableRecord
100
AcDbBlockTableRecord
  2
*Model_Space
340
22
  0
BLOCK_RECORD
  5
1B
330
1
100
AcDbSymbolTableRecord
100
AcDbBlockTableRecord
  2
*Paper_Space
340
1E
  0
BLOCK_RECORD
  5
23
330
1
100
AcDbSymbolTableRecord
100
AcDbBlockTableRecord
  2
*Paper_Space0
340
26
  0
BLOCK_RECORD
  5
4A
330
1
100
AcDbSymbolTableRecord
100
AcDbBlockTableRecord
  2
Urheberrecht_DE-EN
340
0
102
{BLKREFS
331
6F
102
}
  0
BLOCK_RECORD
  5
120
330
1
100
AcDbSymbolTableRecord
100
AcDbBlockTableRecord
  2
*D2
340
0
  0
BLOCK_RECORD
  5
12B
330
1
100
AcDbSymbolTableRecord
100
AcDbBlockTableRecord
  2
*D3
340
0
  0
BLOCK_RECORD
  5
136
330
1
100
AcDbSymbolTableRecord
100
AcDbBlockTableRecord
  2
*D4
340
0
  0
BLOCK_RECORD
  5
141
330
1
100
AcDbSymbolTableRecord
100
AcDbBlockTableRecord
  2
*D5
340
0
  0
BLOCK_RECORD
  5
14C
330
1
100
AcDbSymbolTableRecord
100
AcDbBlockTableRecord
  2
*D6
340
0
  0
BLOCK_RECORD
  5
157
330
1
100
AcDbSymbolTableRecord
100
AcDbBlockTableRecord
  2
*D7
340
0
  0
BLOCK_RECORD
  5
162
330
1
100
AcDbSymbolTableRecord
100
AcDbBlockTableRecord
  2
*D8
340
0
102
{BLKREFS
331
168
102
}
  0
ENDTAB
  0
ENDSEC
  0
SECTION
  2
BLOCKS
  0
BLOCK
  5
20
330
1F
100
AcDbEntity
  8
0
100
AcDbBlockBegin
  2
*Model_Space
 70
     0
 10
0.0
 20
0.0
 30
0.0
  3
*Model_Space
  1

  0
ENDBLK
  5
21
330
1F
100
AcDbEntity
  8
0
100
AcDbBlockEnd
  0
BLOCK
  5
1C
330
1B
100
AcDbEntity
 67
     1
  8
0
100
AcDbBlockBegin
  2
*Paper_Space
 70
     0
 10
0.0
 20
0.0
 30
0.0
  3
*Paper_Space
  1

  0
ENDBLK
  5
1D
330
1B
100
AcDbEntity
 67
     1
  8
0
100
AcDbBlockEnd
  0
BLOCK
  5
24
330
23
100
AcDbEntity
  8
0
100
AcDbBlockBegin
  2
*Paper_Space0
 70
     0
 10
0.0
 20
0.0
 30
0.0
  3
*Paper_Space0
  1

  0
ENDBLK
  5
25
330
23
100
AcDbEntity
  8
0
100
AcDbBlockEnd
  0
BLOCK
  5
4B
330
4A
100
AcDbEntity
  8
0
100
AcDbBlockBegin
  2
Urheberrecht_DE-EN
 70
     0
 10
77.320978025062
 20
304.072378994513
 30
0.0
  3
Urheberrecht_DE-EN
  1

  0
MTEXT
  5
71
330
4A
100
AcDbEntity
  8
1
 62
     1
100
AcDbMText
 10
77.320978025062
 20
247.7829920772068
 30
0.0
 40
2.0
 41
0.0
 71
     7
 72
     1
  1
F\U+00fcr diese Unterlage behalten wir das Ur-\Pheberrecht. Sie darf nur f\U+00fcr den von uns \Pbestimmten Zweck benutzt und ohne unsere \PZustimmung weder vervielf\U+00e4ltigt noch\PDritten zug\U+00e4nglich gemacht werden.
  7
CONVERTER_11
 11
0.0
 21
1.0
 31
0.0
 73
     1
 44
0.90036014405762
  0
MTEXT
  5
72
330
4A
100
AcDbEntity
  8
1
 62
     1
100
AcDbMText
 10
77.320978025062
 20
304.072378994513
 30
0.0
 40
2.0
 41
0.0
 71
     7
 72
     1
  1
We own the copyright of this document. It \Pdetermined and may neither be copied or \Pmade accessible to outsiders without our\Ppermission.
  7
CONVERTER_11
 11
0.0
 21
1.0
 31
0.0
 73
     1
 44
0.90036014405762
  0
ENDBLK
  5
4C
330
4A
100
AcDbEntity
  8
0
100
AcDbBlockEnd
  0
BLOCK
  5
127
330
120
100
AcDbEntity
  8
0
100
AcDbBlockBegin
  2
*D2
 70
     1
 10
0.0
 20
0.0
 30
0.0
  3
*D2
  1

  0
LINE
  5
121
330
120
100
AcDbEntity
  8
1
  6
Continuous
 62
     2
100
AcDbLine
 10
169.4054693255
 20
336.58298551011
 30
0.0
 11
84.05546932550001
 21
336.58298551011
 31
0.0
  0
LINE
  5
122
330
120
100
AcDbEntity
  8
1
  6
Continuous
 62
     2
100
AcDbLine
 10
84.05546932550001
 20
300.1354525753
 30
0.0
 11
84.05546932550001
 21
338.58298551011
 31
0.0
  0
LINE
  5
123
330
120
100
AcDbEntity
  8
1
  6
Continuous
 62
     2
100
AcDbLine
 10
169.4054693255
 20
300.3389483405
 30
0.0
 11
169.4054693255
 21
338.58298551011
 31
0.0
  0
SOLID
  5
124
330
120
100
AcDbEntity
  8
1
 62
     2
100
AcDbTrace
 10
165.9054693255
 20
336.1222017685541
 30
0.0
 11
165.9054693255
 21
337.0437692516659
 31
0.0
 12
169.4054693255
 22
336.58298551011
 32
0.0
 13
169.4054693255
 23
336.58298551011
 33
0.0
  0
SOLID
  5
125
330
120
100
AcDbEntity
  8
1
 62
     2
100
AcDbTrace
 10
87.55546932550001
 20
337.0437692516659
 30
0.0
 11
87.55546932550001
 21
336.1222017685541
 31
0.0
 12
84.05546932550001
 22
336.58298551011
 32
0.0
 13
84.05546932550001
 23
336.58298551011
 33
0.0
  0
MTEXT
  5
126
330
120
100
AcDbEntity
  8
1
 62
     3
100
AcDbMText
 10
124.1301890845023
 20
338.58298551011
 30
0.0
 40
3.5
 41
0.0
 71
     7
 72
     1
  1
\C3;\C3;\C3;85.4\C2;\H2.45;\S^ ;\C3;
  7
CONVERTER_11
 11
0.9999999999970619
 21
2.424068405545306E-6
 31
0.0
 73
     1
 44
0.60024009603842
  0
ENDBLK
  5
128
330
120
100
AcDbEntity
  8
0
100
AcDbBlockEnd
  0
BLOCK
  5
132
330
12B
100
AcDbEntity
  8
0
100
AcDbBlockBegin
  2
*D3
 70
     1
 10
0.0
 20
0.0
 30
0.0
  3
*D3
  1

  0
LINE
  5
12C
330
12B
100
AcDbEntity
  8
1
  6
Continuous
 62
     2
100
AcDbLine
 10
169.4054693255
 20
320.051478594607
 30
0.0
 11
100.0054693255
 21
320.051478594607
 31
0.0
  0
LINE
  5
12D
330
12B
100
AcDbEntity
  8
1
  6
Continuous
 62
     2
100
AcDbLine
 10
100.0054693255
 20
305.3389483405
 30
0.0
 11
100.0054693255
 21
322.051478594607
 31
0.0
  0
LINE
  5
12E
330
12B
100
AcDbEntity
  8
1
  6
Continuous
 62
     2
100
AcDbLine
 10
169.4054693255
 20
300.3389483405
 30
0.0
 11
169.4054693255
 21
322.051478594607
 31
0.0
  0
SOLID
  5
12F
330
12B
100
AcDbEntity
  8
1
 62
     2
100
AcDbTrace
 10
165.9054693255
 20
319.5906948530511
 30
0.0
 11
165.9054693255
 21
320.5122623361628
 31
0.0
 12
169.4054693255
 22
320.051478594607
 32
0.0
 13
169.4054693255
 23
320.051478594607
 33
0.0
  0
SOLID
  5
130
330
12B
100
AcDbEntity
  8
1
 62
     2
100
AcDbTrace
 10
103.5054693255
 20
320.5122623361628
 30
0.0
 11
103.5054693255
 21
319.5906948530511
 31
0.0
 12
100.0054693255
 22
320.051478594607
 32
0.0
 13
100.0054693255
 23
320.051478594607
 33
0.0
  0
MTEXT
  5
131
330
12B
100
AcDbEntity
  8
1
 62
     3
100
AcDbMText
 10
130.695721217175
 20
322.051478594607
 30
0.0
 40
3.5
 41
0.0
 71
     7
 72
     1
  1
\C3;\C3;\C3;69.4\C2;\H2.45;\S^ ;\C3;
  7
CONVERTER_11
 11
0.9999999999970619
 21
2.424068405545306E-6
 31
0.0
 73
     1
 44
0.60024009603842
  0
ENDBLK
  5
133
330
12B
100
AcDbEntity
  8
0
100
AcDbBlockEnd
  0
BLOCK
  5
13D
330
136
100
AcDbEntity
  8
0
100
AcDbBlockBegin
  2
*D4
 70
     1
 10
0.0
 20
0.0
 30
0.0
  3
*D4
  1

  0
LINE
  5
137
330
136
100
AcDbEntity
  8
1
  6
Continuous
 62
     2
100
AcDbLine
 10
169.4054693255
 20
312.320917806782
 30
0.0
 11
120.0054693255
 21
312.320917806782
 31
0.0
  0
LINE
  5
138
330
136
100
AcDbEntity
  8
1
  6
Continuous
 62
     2
100
AcDbLine
 10
120.0054693255
 20
305.3388847053
 30
0.0
 11
120.0054693255
 21
314.320917806782
 31
0.0
  0
LINE
  5
139
330
136
100
AcDbEntity
  8
1
  6
Continuous
 62
     2
100
AcDbLine
 10
169.4054693255
 20
300.3389483405
 30
0.0
 11
169.4054693255
 21
314.320917806782
 31
0.0
  0
SOLID
  5
13A
330
136
100
AcDbEntity
  8
1
 62
     2
100
AcDbTrace
 10
165.9054693255
 20
311.8601340652261
 30
0.0
 11
165.9054693255
 21
312.7817015483379
 31
0.0
 12
169.4054693255
 22
312.320917806782
 32
0.0
 13
169.4054693255
 23
312.320917806782
 33
0.0
  0
SOLID
  5
13B
330
136
100
AcDbEntity
  8
1
 62
     2
100
AcDbTrace
 10
123.5054693255
 20
312.7817015483379
 30
0.0
 11
123.5054693255
 21
311.8601340652261
 31
0.0
 12
120.0054693255
 22
312.320917806782
 32
0.0
 13
120.0054693255
 23
312.320917806782
 33
0.0
  0
MTEXT
  5
13C
330
136
100
AcDbEntity
  8
1
 62
     3
100
AcDbMText
 10
139.6418628210466
 20
314.320917806782
 30
0.0
 40
3.5
 41
0.0
 71
     7
 72
     1
  1
\C3;\C3;\C3;49.4\C2;\H2.45;\S^ ;\C3;
  7
CONVERTER_11
 11
0.9999999999970619
 21
2.424068405545306E-6
 31
0.0
 73
     1
 44
0.60024009603842
  0
ENDBLK
  5
13E
330
136
100
AcDbEntity
  8
0
100
AcDbBlockEnd
  0
BLOCK
  5
148
330
141
100
AcDbEntity
  8
0
100
AcDbBlockBegin
  2
*D5
 70
     1
 10
0.0
 20
0.0
 30
0.0
  3
*D5
  1

  0
LINE
  5
142
330
141
100
AcDbEntity
  8
1
  6
Continuous
 62
     2
100
AcDbLine
 10
192.339747353542
 20
295.3389483405
 30
0.0
 11
192.339747353542
 21
279.3389483405
 31
0.0
  0
LINE
  5
143
330
141
100
AcDbEntity
  8
1
  6
Continuous
 62
     2
100
AcDbLine
 10
171.4054693255
 20
279.3389483405
 30
0.0
 11
194.339747353542
 21
279.3389483405
 31
0.0
  0
LINE
  5
144
330
141
100
AcDbEntity
  8
1
  6
Continuous
 62
     2
100
AcDbLine
 10
171.4054693255
 20
295.3389483405
 30
0.0
 11
194.339747353542
 21
295.3389483405
 31
0.0
  0
SOLID
  5
145
330
141
100
AcDbEntity
  8
1
 62
     2
100
AcDbTrace
 10
192.8005310950979
 20
291.8389483405
 30
0.0
 11
191.8789636119861
 21
291.8389483405
 31
0.0
 12
192.339747353542
 22
295.3389483405
 32
0.0
 13
192.339747353542
 23
295.3389483405
 33
0.0
  0
SOLID
  5
146
330
141
100
AcDbEntity
  8
1
 62
     2
100
AcDbTrace
 10
191.8789636119861
 20
282.8389483405
 30
0.0
 11
192.8005310950979
 21
282.8389483405
 31
0.0
 12
192.339747353542
 22
279.3389483405
 32
0.0
 13
192.339747353542
 23
279.3389483405
 33
0.0
  0
MTEXT
  5
147
330
141
100
AcDbEntity
  8
1
 62
     3
100
AcDbMText
 10
190.339747353542
 20
283.678360858947
 30
0.0
 40
3.5
 41
0.0
 71
     7
 72
     1
  1
\C3;ER\C3;\C3;16\C2;\H2.45;\S^ ;\C3;
  7
CONVERTER_11
 11
0.0
 21
1.0
 31
0.0
 73
     1
 44
0.60024009603842
  0
ENDBLK
  5
149
330
141
100
AcDbEntity
  8
0
100
AcDbBlockEnd
  0
BLOCK
  5
153
330
14C
100
AcDbEntity
  8
0
100
AcDbBlockBegin
  2
*D6
 70
     1
 10
0.0
 20
0.0
 30
0.0
  3
*D6
  1

  0
LINE
  5
14D
330
14C
100
AcDbEntity
  8
1
  6
Continuous
 62
     2
100
AcDbLine
 10
201.847815094358
 20
301.3272787093
 30
0.0
 11
201.847815094358
 21
273.3506179717
 31
0.0
  0
LINE
  5
14E
330
14C
100
AcDbEntity
  8
1
  6
Continuous
 62
     2
100
AcDbLine
 10
178.7554693255
 20
301.3272787093
 30
0.0
 11
203.847815094358
 21
301.3272787093
 31
0.0
  0
LINE
  5
14F
330
14C
100
AcDbEntity
  8
1
  6
Continuous
 62
     2
100
AcDbLine
 10
178.7554693255
 20
273.3506179717
 30
0.0
 11
203.847815094358
 21
273.3506179717
 31
0.0
  0
SOLID
  5
150
330
14C
100
AcDbEntity
  8
1
 62
     2
100
AcDbTrace
 10
202.3085988359139
 20
297.8272787093
 30
0.0
 11
201.3870313528021
 21
297.8272787093
 31
0.0
 12
201.847815094358
 22
301.3272787093
 32
0.0
 13
201.847815094358
 23
301.3272787093
 33
0.0
  0
SOLID
  5
151
330
14C
100
AcDbEntity
  8
1
 62
     2
100
AcDbTrace
 10
201.3870313528021
 20
276.8506179717
 30
0.0
 11
202.3085988359139
 21
276.8506179717
 31
0.0
 12
201.847815094358
 22
273.3506179717
 32
0.0
 13
201.847815094358
 23
273.3506179717
 33
0.0
  0
MTEXT
  5
152
330
14C
100
AcDbEntity
  8
1
 62
     3
100
AcDbMText
 10
199.847815094358
 20
278.55911034494
 30
0.0
 40
3.5
 41
0.0
 71
     7
 72
     1
  1
\C3;%%c\C3;\C3;28\C2;\H2.45;\S^ ;\C3;
  7
CONVERTER_11
 11
0.0
 21
1.0
 31
0.0
 73
     1
 44
0.60024009603842
  0
ENDBLK
  5
154
330
14C
100
AcDbEntity
  8
0
100
AcDbBlockEnd
  0
BLOCK
  5
15E
330
157
100
AcDbEntity
  8
0
100
AcDbBlockBegin
  2
*D7
 70
     1
 10
0.0
 20
0.0
 30
0.0
  3
*D7
  1

  0
LINE
  5
158
330
157
100
AcDbEntity
  8
1
  6
Continuous
 62
     2
100
AcDbLine
 10
180.0054693255
 20
329.099087578834
 30
0.0
 11
100.0054693255
 21
329.099087578834
 31
0.0
  0
LINE
  5
159
330
157
100
AcDbEntity
  8
1
  6
Continuous
 62
     2
100
AcDbLine
 10
180.0054693255
 20
300.0889483405
 30
0.0
 11
180.0054693255
 21
331.099087578834
 31
0.0
  0
LINE
  5
15A
330
157
100
AcDbEntity
  8
1
  6
Continuous
 62
     2
100
AcDbLine
 10
100.0054693255
 20
305.3389483405
 30
0.0
 11
100.0054693255
 21
331.099087578834
 31
0.0
  0
SOLID
  5
15B
330
157
100
AcDbEntity
  8
1
 62
     2
100
AcDbTrace
 10
176.5054693255
 20
328.6383038372781
 30
0.0
 11
176.5054693255
 21
329.5598713203898
 31
0.0
 12
180.0054693255
 22
329.099087578834
 32
0.0
 13
180.0054693255
 23
329.099087578834
 33
0.0
  0
SOLID
  5
15C
330
157
100
AcDbEntity
  8
1
 62
     2
100
AcDbTrace
 10
103.5054693255
 20
329.5598713203898
 30
0.0
 11
103.5054693255
 21
328.6383038372781
 31
0.0
 12
100.0054693255
 22
329.099087578834
 32
0.0
 13
100.0054693255
 23
329.099087578834
 33
0.0
  0
MTEXT
  5
15D
330
157
100
AcDbEntity
  8
1
 62
     3
100
AcDbMText
 10
136.624849568747
 20
331.099087578834
 30
0.0
 40
3.5
 41
0.0
 71
     7
 72
     1
  1
\C3;\C3;\C3;80\C2;\H2.45;\S^ ;\C3;
  7
CONVERTER_11
 11
0.9999999999970619
 21
2.424068405545306E-6
 31
0.0
 73
     1
 44
0.60024009603842
  0
ENDBLK
  5
15F
330
157
100
AcDbEntity
  8
0
100
AcDbBlockEnd
  0
BLOCK
  5
166
330
162
100
AcDbEntity
  8
0
100
AcDbBlockBegin
  2
*D8
 70
     1
 10
0.0
 20
0.0
 30
0.0
  3
*D8
  1

  0
LINE
  5
163
330
162
100
AcDbEntity
  8
1
  6
Continuous
 62
     2
100
AcDbLine
 10
130.2603634050233
 20
304.357160066002
 30
0.0
 11
120.2071977786201
 21
299.4636087243039
 31
0.0
  0
SOLID
  5
164
330
162
100
AcDbEntity
  8
1
 62
     2
100
AcDbTrace
 10
123.1525018539184
 20
301.4097601984994
 30
0.0
 11
123.5558441174013
 21
300.5811459067947
 31
0.0
 12
120.2071977786201
 22
299.4636087243039
 32
0.0
 13
120.2071977786201
 23
299.4636087243039
 33
0.0
  0
MTEXT
  5
165
330
162
100
AcDbEntity
  8
1
 62
     3
100
AcDbMText
 10
122.7134363499029
 20
302.9079216367944
 30
0.0
 40
3.5
 41
0.0
 71
     7
 72
     1
  1
\C3; R\C3;\C3;2\C2;\H2.45;\S^ ;\C3;
  7
CONVERTER_11
 11
0.8991357734399293
 21
0.4376698080980456
 31
0.0
 73
     1
 44
0.60024009603842
  0
ENDBLK
  5
167
330
162
100
AcDbEntity
  8
0
100
AcDbBlockEnd
  0
ENDSEC
  0
SECTION
  2
ENTITIES
  0
INSERT
  5
6F
330
1F
100
AcDbEntity
  8
0
100
AcDbBlockReference
  2
Urheberrecht_DE-EN
 10
77.320978025062
 20
304.072378994513
 30
0.0
  0
LINE
  5
73
330
1F
100
AcDbEntity
  8
FLAECHEN
  6
Continuous
 62
     7
100
AcDbLine
 10
180.0054693255
 20
298.0889483405
 30
0.0
 11
180.0054693255
 21
276.5889483405
 31
0.0
  0
LINE
  5
74
330
1F
100
AcDbEntity
  8
0
  6
Continuous
 62
     7
100
AcDbLine
 10
176.7554693255
 20
294.8280479855
 30
0.0
 11
176.7554693255
 21
293.7902563474
 31
0.0
  0
LINE
  5
75
330
1F
100
AcDbEntity
  8
FLAECHEN
  6
Continuous
 62
     7
100
AcDbLine
 10
180.0054693255
 20
298.0889483405
 30
0.0
 11
176.7554693255
 21
301.3389483405
 31
0.0
  0
LINE
  5
76
330
1F
100
AcDbEntity
  8
FLAECHEN
  6
Continuous
 62
     7
100
AcDbLine
 10
180.0054693255
 20
276.5889483405
 30
0.0
 11
176.7554693255
 21
273.3389483405
 31
0.0
  0
LINE
  5
77
330
1F
100
AcDbEntity
  8
0
  6
Continuous
 62
     7
100
AcDbLine
 10
169.5054693255
 20
280.8876403336
 30
0.0
 11
169.5054693255
 21
293.7902563474
 31
0.0
  0
LINE
  5
78
330
1F
100
AcDbEntity
  8
0
  6
Continuous
 62
     7
100
AcDbLine
 10
169.5054693255
 20
279.8498486954
 30
0.0
 11
169.5054693255
 21
273.3506179717
 31
0.0
  0
LINE
  5
79
330
1F
100
AcDbEntity
  8
0
  6
Continuous
 62
     7
100
AcDbLine
 10
169.5054693255
 20
301.3272787093
 30
0.0
 11
169.5054693255
 21
294.8280479855
 31
0.0
  0
LINE
  5
7A
330
1F
100
AcDbEntity
  8
DEFAULT_2
  6
HIDDEN
 62
     8
100
AcDbLine
 10
169.4054693255
 20
298.3389483405
 30
0.0
 11
169.4054693255
 21
276.3389483405
 31
0.0
  0
LINE
  5
7B
330
1F
100
AcDbEntity
  8
FLAECHEN
  6
Continuous
 62
     7
100
AcDbLine
 10
162.2054693255
 20
301.3272787093
 30
0.0
 11
162.2054693255
 21
273.3506179717
 31
0.0
  0
LINE
  5
7C
330
1F
100
AcDbEntity
  8
DEFAULT_2
  6
HIDDEN
 62
     8
100
AcDbLine
 10
149.8382025889
 20
292.5889483405
 30
0.0
 11
149.8382025889
 21
282.0889483405
 31
0.0
  0
LINE
  5
7D
330
1F
100
AcDbEntity
  8
0
  6
Continuous
 62
     7
100
AcDbLine
 10
118.0406290244
 20
303.3389483405
 30
0.0
 11
120.0054693255
 21
303.3389483405
 31
0.0
  0
LINE
  5
7E
330
1F
100
AcDbEntity
  8
0
  6
Continuous
 62
     7
100
AcDbLine
 10
112.0054693255
 20
303.3389483405
 30
0.0
 11
113.9703096266
 21
303.3389483405
 31
0.0
  0
LINE
  5
7F
330
1F
100
AcDbEntity
  8
0
  6
Continuous
 62
     7
100
AcDbLine
 10
100.0054693255
 20
303.3389483405
 30
0.0
 11
102.0054693255
 21
303.3389483405
 31
0.0
  0
LINE
  5
80
330
1F
100
AcDbEntity
  8
BEZUGSACHSEN
  6
Continuous
 62
     7
100
AcDbLine
 10
102.0054693255
 20
303.3389483405
 30
0.0
 11
100.0054693255
 21
303.3389483405
 31
0.0
  0
LINE
  5
81
330
1F
100
AcDbEntity
  8
BEZUGSACHSEN
  6
Continuous
 62
     7
100
AcDbLine
 10
113.9703096266
 20
303.3389483405
 30
0.0
 11
112.0054693255
 21
303.3389483405
 31
0.0
  0
LINE
  5
82
330
1F
100
AcDbEntity
  8
0
  6
Continuous
 62
     7
100
AcDbLine
 10
176.7554693255
 20
301.3272787093
 30
0.0
 11
162.2054693255
 21
301.3272787093
 31
0.0
  0
LINE
  5
83
330
1F
100
AcDbEntity
  8
DEFAULT_2
  6
HIDDEN
 62
     8
100
AcDbLine
 10
147.4054693255
 20
292.5889483405
 30
0.0
 11
147.4054693255
 21
282.0889483405
 31
0.0
  0
LINE
  5
84
330
1F
100
AcDbEntity
  8
0
  6
Continuous
 62
     7
100
AcDbLine
 10
115.2179693255
 20
300.5639483405
 30
0.0
 11
116.7929693255
 21
300.5639483405
 31
0.0
  0
LINE
  5
85
330
1F
100
AcDbEntity
  8
0
  6
Continuous
 62
     7
100
AcDbLine
 10
99.8512921622
 20
299.3526743679
 30
0.0
 11
99.4313354053
 21
299.3526743679
 31
0.0
  0
LINE
  5
86
330
1F
100
AcDbEntity
  8
DEFAULT_2
  6
HIDDEN
 62
     8
100
AcDbLine
 10
162.2054693255
 20
298.3389483405
 30
0.0
 11
169.4054693255
 21
298.3389483405
 31
0.0
  0
LINE
  5
87
330
1F
100
AcDbEntity
  8
0
  6
Continuous
 62
     7
100
AcDbLine
 10
122.0054693255
 20
298.3389483405
 30
0.0
 11
162.2054693255
 21
298.3389483405
 31
0.0
  0
LINE
  5
88
330
1F
100
AcDbEntity
  8
RUNDUNGEN
  6
Continuous
 62
     7
100
AcDbLine
 10
162.2054693255
 20
298.3389483405
 30
0.0
 11
122.0054693255
 21
298.3389483405
 31
0.0
  0
LINE
  5
89
330
1F
100
AcDbEntity
  8
0
  6
Continuous
 62
     7
100
AcDbLine
 10
99.0054693255
 20
299.4526743679
 30
0.0
 11
84.6254453424
 21
298.7347009060001
 31
0.0
  0
LINE
  5
8A
330
1F
100
AcDbEntity
  8
0
  6
Continuous
 62
     7
100
AcDbLine
 10
99.3278077872
 20
299.3663040374
 30
0.0
 11
99.4313354053
 21
299.3526743679
 31
0.0
  0
LINE
  5
8B
330
1F
100
AcDbEntity
  8
0
  6
Continuous
 62
     7
100
AcDbLine
 10
176.7554693255
 20
294.8280479855
 30
0.0
 11
169.5054693255
 21
294.8280479855
 31
0.0
  0
LINE
  5
8C
330
1F
100
AcDbEntity
  8
0
  6
Continuous
 62
     7
100
AcDbLine
 10
176.7554693255
 20
293.7902563474
 30
0.0
 11
169.5054693255
 21
293.7902563474
 31
0.0
  0
LINE
  5
8D
330
1F
100
AcDbEntity
  8
DEFAULT_2
  6
HIDDEN
 62
     8
100
AcDbLine
 10
149.8382025889
 20
292.5889483405
 30
0.0
 11
147.4054693255
 21
292.5889483405
 31
0.0
  0
LINE
  5
8E
330
1F
100
AcDbEntity
  8
RUNDUNGEN
  6
Continuous
 62
     9
100
AcDbLine
 10
86.2554693255
 20
292.2439483405
 30
0.0
 11
86.8314304355
 21
292.2439483405
 31
0.0
  0
LINE
  5
8F
330
1F
100
AcDbEntity
  8
0
  6
Continuous
 62
     9
100
AcDbLine
 10
86.2554693255
 20
292.2439483405
 30
0.0
 11
84.77565368180001
 21
292.2439483405
 31
0.0
  0
LINE
  5
90
330
1F
100
AcDbEntity
  8
0
  6
Continuous
 62
     7
100
AcDbLine
 10
99.3278077872
 20
299.3663040374
 30
0.0
 11
99.0054693255
 21
299.4526743679
 31
0.0
  0
LINE
  5
91
330
1F
100
AcDbEntity
  8
0
  6
Continuous
 62
     7
100
AcDbLine
 10
86.2554693255
 20
290.8639483405
 30
0.0
 11
85.0054693255
 21
290.8639483405
 31
0.0
  0
LINE
  5
92
330
1F
100
AcDbEntity
  8
0
  6
Continuous
 62
     7
100
AcDbLine
 10
117.0429693255
 20
290.8534483405
 30
0.0
 11
120.0054693255
 21
290.8534483405
 31
0.0
  0
LINE
  5
93
330
1F
100
AcDbEntity
  8
0
  6
Continuous
 62
     7
100
AcDbLine
 10
111.4699693255
 20
290.8534483405
 30
0.0
 11
114.9679693255
 21
290.8534483405
 31
0.0
  0
LINE
  5
94
330
1F
100
AcDbEntity
  8
0
  6
Continuous
 62
     7
100
AcDbLine
 10
116.9369847535
 20
290.4534483405
 30
0.0
 11
120.0054693255
 21
290.4534483405
 31
0.0
  0
LINE
  5
95
330
1F
100
AcDbEntity
  8
0
  6
Continuous
 62
     7
100
AcDbLine
 10
111.4699693255
 20
290.4534483405
 30
0.0
 11
115.0739538975
 21
290.4534483405
 31
0.0
  0
LINE
  5
96
330
1F
100
AcDbEntity
  8
0
  6
Continuous
 62
     7
100
AcDbLine
 10
116.7929693255
 20
290.2528160451
 30
0.0
 11
115.2179693255
 21
290.2528160451
 31
0.0
  0
LINE
  5
97
330
1F
100
AcDbEntity
  8
DEFAULT_2
  6
HIDDEN
 62
     8
100
AcDbLine
 10
169.4054693255
 20
295.3389483405
 30
0.0
 11
149.8382025889
 21
292.5889483405
 31
0.0
  0
LINE
  5
98
330
1F
100
AcDbEntity
  8
DEFAULT_2
  6
HIDDEN
 62
     8
100
AcDbLine
 10
169.4054693255
 20
279.3389483405
 30
0.0
 11
149.8382025889
 21
282.0889483405
 31
0.0
  0
LWPOLYLINE
  5
99
330
1F
100
AcDbEntity
  8
TEIL_STARTBEZUEGE
  6
DOT_CENTER
 62
     7
100
AcDbPolyline
 90
        2
 70
     0
 43
0.25
 10
185.1791979122
 20
287.3389483405
 10
81.05546932550001
 20
287.3389483405
  0
LINE
  5
9A
330
1F
100
AcDbEntity
  8
0
  6
Continuous
 62
     7
100
AcDbLine
 10
115.2179693255
 20
284.4250806359
 30
0.0
 11
116.7929693255
 21
284.4250806359
 31
0.0
  0
LINE
  5
9B
330
1F
100
AcDbEntity
  8
0
  6
Continuous
 62
     7
100
AcDbLine
 10
115.0739538975
 20
284.2244483405
 30
0.0
 11
111.4699693255
 21
284.2244483405
 31
0.0
  0
LINE
  5
9C
330
1F
100
AcDbEntity
  8
0
  6
Continuous
 62
     7
100
AcDbLine
 10
120.0054693255
 20
284.2244483405
 30
0.0
 11
116.9369847535
 21
284.2244483405
 31
0.0
  0
LINE
  5
9D
330
1F
100
AcDbEntity
  8
0
  6
Continuous
 62
     7
100
AcDbLine
 10
117.0429693255
 20
283.8244483405
 30
0.0
 11
120.0054693255
 21
283.8244483405
 31
0.0
  0
LINE
  5
9E
330
1F
100
AcDbEntity
  8
0
  6
Continuous
 62
     7
100
AcDbLine
 10
111.4699693255
 20
283.8244483405
 30
0.0
 11
114.9679693255
 21
283.8244483405
 31
0.0
  0
LINE
  5
9F
330
1F
100
AcDbEntity
  8
0
  6
Continuous
 62
     7
100
AcDbLine
 10
86.2554693255
 20
283.8139483405
 30
0.0
 11
85.0054693255
 21
283.8139483405
 31
0.0
  0
LINE
  5
A0
330
1F
100
AcDbEntity
  8
0
  6
Continuous
 62
     9
100
AcDbLine
 10
86.2554693255
 20
282.4339483405
 30
0.0
 11
84.77565368180001
 21
282.4339483405
 31
0.0
  0
LINE
  5
A1
330
1F
100
AcDbEntity
  8
RUNDUNGEN
  6
Continuous
 62
     9
100
AcDbLine
 10
86.8314304355
 20
282.4339483405
 30
0.0
 11
86.2554693255
 21
282.4339483405
 31
0.0
  0
LINE
  5
A2
330
1F
100
AcDbEntity
  8
DEFAULT_2
  6
HIDDEN
 62
     8
100
AcDbLine
 10
149.8382025889
 20
282.0889483405
 30
0.0
 11
147.4054693255
 21
282.0889483405
 31
0.0
  0
LINE
  5
A3
330
1F
100
AcDbEntity
  8
0
  6
Continuous
 62
     7
100
AcDbLine
 10
99.3278077872
 20
275.3115926436
 30
0.0
 11
99.0054693255
 21
275.2252223131
 31
0.0
  0
LINE
  5
A4
330
1F
100
AcDbEntity
  8
0
  6
Continuous
 62
     7
100
AcDbLine
 10
113.9703096266
 20
303.3389483405
 30
0.0
 11
114.9679693255
 21
301.6109510533
 31
0.0
  0
LINE
  5
A5
330
1F
100
AcDbEntity
  8
0
  6
Continuous
 62
     7
100
AcDbLine
 10
176.7554693255
 20
279.8498486954
 30
0.0
 11
169.5054693255
 21
279.8498486954
 31
0.0
  0
LINE
  5
A6
330
1F
100
AcDbEntity
  8
0
  6
Continuous
 62
     7
100
AcDbLine
 10
117.0429693255
 20
277.9889483405
 30
0.0
 11
120.0054693255
 21
277.9889483405
 31
0.0
  0
LINE
  5
A7
330
1F
100
AcDbEntity
  8
0
  6
Continuous
 62
     7
100
AcDbLine
 10
111.4553843205
 20
277.9889483405
 30
0.0
 11
114.9679693255
 21
277.9889483405
 31
0.0
  0
LINE
  5
A8
330
1F
100
AcDbEntity
  8
0
  6
Continuous
 62
     7
100
AcDbLine
 10
117.0429693255
 20
277.5889483405
 30
0.0
 11
120.0054693255
 21
277.5889483405
 31
0.0
  0
LINE
  5
A9
330
1F
100
AcDbEntity
  8
0
  6
Continuous
 62
     7
100
AcDbLine
 10
111.4553843205
 20
277.5889483405
 30
0.0
 11
114.9679693255
 21
277.5889483405
 31
0.0
  0
LINE
  5
AA
330
1F
100
AcDbEntity
  8
0
  6
Continuous
 62
     7
100
AcDbLine
 10
99.3278077872
 20
275.3115926436
 30
0.0
 11
99.4313354053
 21
275.3252223131
 31
0.0
  0
LINE
  5
AB
330
1F
100
AcDbEntity
  8
0
  6
Continuous
 62
     7
100
AcDbLine
 10
113.9703096266
 20
271.3389483405
 30
0.0
 11
114.9679693255
 21
273.0669456276
 31
0.0
  0
LINE
  5
AC
330
1F
100
AcDbEntity
  8
DEFAULT_2
  6
HIDDEN
 62
     8
100
AcDbLine
 10
162.2054693255
 20
276.3389483405
 30
0.0
 11
169.4054693255
 21
276.3389483405
 31
0.0
  0
LINE
  5
AD
330
1F
100
AcDbEntity
  8
0
  6
Continuous
 62
     7
100
AcDbLine
 10
122.0054693255
 20
276.3389483405
 30
0.0
 11
162.2054693255
 21
276.3389483405
 31
0.0
  0
LINE
  5
AE
330
1F
100
AcDbEntity
  8
RUNDUNGEN
  6
Continuous
 62
     7
100
AcDbLine
 10
162.2054693255
 20
276.3389483405
 30
0.0
 11
122.0054693255
 21
276.3389483405
 31
0.0
  0
LINE
  5
AF
330
1F
100
AcDbEntity
  8
0
  6
Continuous
 62
     7
100
AcDbLine
 10
99.8512921622
 20
275.3252223131
 30
0.0
 11
99.4313354053
 21
275.3252223131
 31
0.0
  0
LINE
  5
B0
330
1F
100
AcDbEntity
  8
0
  6
Continuous
 62
     7
100
AcDbLine
 10
118.0406290244
 20
274.3552085094
 30
0.0
 11
120.0054693255
 21
274.3552085094
 31
0.0
  0
LINE
  5
B1
330
1F
100
AcDbEntity
  8
0
  6
Continuous
 62
     7
100
AcDbLine
 10
108.358270558
 20
274.3552085094
 30
0.0
 11
113.9703096266
 21
274.3552085094
 31
0.0
  0
LINE
  5
B2
330
1F
100
AcDbEntity
  8
RUNDUNGEN
  6
Continuous
 62
     9
100
AcDbLine
 10
122.0054693255
 20
298.3389483405
 30
0.0
 11
122.0054693255
 21
276.3389483405
 31
0.0
  0
LINE
  5
B3
330
1F
100
AcDbEntity
  8
RUNDUNGEN
  6
Continuous
 62
     7
100
AcDbLine
 10
120.0054693255
 20
288.9482703624
 30
0.0
 11
120.0054693255
 21
290.4534483405
 31
0.0
  0
LINE
  5
B4
330
1F
100
AcDbEntity
  8
RUNDUNGEN
  6
Continuous
 62
     7
100
AcDbLine
 10
120.0054693255
 20
284.2244483405
 30
0.0
 11
120.0054693255
 21
285.7297520342
 31
0.0
  0
LINE
  5
B5
330
1F
100
AcDbEntity
  8
FASEN
  6
Continuous
 62
     7
100
AcDbLine
 10
120.0054693255
 20
274.3552085094
 30
0.0
 11
120.0054693255
 21
277.9889483405
 31
0.0
  0
LINE
  5
B6
330
1F
100
AcDbEntity
  8
0
  6
Continuous
 62
     7
100
AcDbLine
 10
120.0054693255
 20
274.3552085094
 30
0.0
 11
120.0054693255
 21
271.3389568101
 31
0.0
  0
LINE
  5
B7
330
1F
100
AcDbEntity
  8
0
  6
Continuous
 62
     7
100
AcDbLine
 10
120.0054693255
 20
283.8244483405
 30
0.0
 11
120.0054693255
 21
277.9889483405
 31
0.0
  0
LINE
  5
B8
330
1F
100
AcDbEntity
  8
FASEN
  6
Continuous
 62
     7
100
AcDbLine
 10
120.0054693255
 20
284.2244483405
 30
0.0
 11
120.0054693255
 21
283.8244483405
 31
0.0
  0
LINE
  5
B9
330
1F
100
AcDbEntity
  8
FASEN
  6
Continuous
 62
     7
100
AcDbLine
 10
120.0054693255
 20
290.8534483405
 30
0.0
 11
120.0054693255
 21
290.4534483405
 31
0.0
  0
LINE
  5
BA
330
1F
100
AcDbEntity
  8
0
  6
Continuous
 62
     7
100
AcDbLine
 10
120.0054693255
 20
303.3388847053
 30
0.0
 11
120.0054693255
 21
290.8534483405
 31
0.0
  0
LINE
  5
BB
330
1F
100
AcDbEntity
  8
0
  6
Continuous
 62
     7
100
AcDbLine
 10
99.0054693255
 20
275.2252223131
 30
0.0
 11
84.6254453424
 21
275.9431957749999
 31
0.0
  0
LINE
  5
BC
330
1F
100
AcDbEntity
  8
0
  6
Continuous
 62
     7
100
AcDbLine
 10
115.2179693255
 20
274.1139483405
 30
0.0
 11
116.7929693255
 21
274.1139483405
 31
0.0
  0
LINE
  5
BD
330
1F
100
AcDbEntity
  8
0
  6
Continuous
 62
     7
100
AcDbLine
 10
176.7554693255
 20
273.3506179717
 30
0.0
 11
162.2054693255
 21
273.3506179717
 31
0.0
  0
LINE
  5
BE
330
1F
100
AcDbEntity
  8
0
  6
Continuous
 62
     7
100
AcDbLine
 10
118.0406290244
 20
271.3389483405
 30
0.0
 11
120.0054693255
 21
271.3389483405
 31
0.0
  0
LINE
  5
BF
330
1F
100
AcDbEntity
  8
0
  6
Continuous
 62
     7
100
AcDbLine
 10
113.9703096266
 20
271.3389483405
 30
0.0
 11
100.0054693255
 21
271.3389483405
 31
0.0
  0
LINE
  5
C0
330
1F
100
AcDbEntity
  8
0
  6
Continuous
 62
     7
100
AcDbLine
 10
118.0406290244
 20
290.8534483405
 30
0.0
 11
118.0406290244
 21
303.3389483405
 31
0.0
  0
LINE
  5
C1
330
1F
100
AcDbEntity
  8
0
  6
Continuous
 62
     7
100
AcDbLine
 10
118.0406290244
 20
271.3389483405
 30
0.0
 11
118.0406290244
 21
274.3552085094
 31
0.0
  0
LINE
  5
C2
330
1F
100
AcDbEntity
  8
0
  6
Continuous
 62
     7
100
AcDbLine
 10
118.0406290244
 20
283.8244483405
 30
0.0
 11
118.0406290244
 21
277.9889483405
 31
0.0
  0
LINE
  5
C3
330
1F
100
AcDbEntity
  8
0
  6
Continuous
 62
     7
100
AcDbLine
 10
117.0429693255
 20
290.6223104934
 30
0.0
 11
117.0429693255
 21
301.6108963864
 31
0.0
  0
LINE
  5
C4
330
1F
100
AcDbEntity
  8
0
  6
Continuous
 62
     7
100
AcDbLine
 10
117.0429693255
 20
273.067043138
 30
0.0
 11
117.0429693255
 21
284.0555861875
 31
0.0
  0
LINE
  5
C5
330
1F
100
AcDbEntity
  8
0
  6
Continuous
 62
     9
100
AcDbLine
 10
116.7929693255
 20
290.2528160451
 30
0.0
 11
116.7929693255
 21
300.5639483405
 31
0.0
  0
LINE
  5
C6
330
1F
100
AcDbEntity
  8
0
  6
Continuous
 62
     9
100
AcDbLine
 10
116.7929693255
 20
274.1139483405
 30
0.0
 11
116.7929693255
 21
284.4250806359
 31
0.0
  0
LINE
  5
C7
330
1F
100
AcDbEntity
  8
0
  6
Continuous
 62
     9
100
AcDbLine
 10
85.0054693255
 20
291.4814026393
 30
0.0
 11
84.0554693255
 21
292.0063435205
 31
0.0
  0
LINE
  5
C8
330
1F
100
AcDbEntity
  8
0
  6
Continuous
 62
     9
100
AcDbLine
 10
84.0554693255
 20
282.6715531604
 30
0.0
 11
85.0054693255
 21
283.1964940417
 31
0.0
  0
LINE
  5
C9
330
1F
100
AcDbEntity
  8
0
  6
Continuous
 62
     9
100
AcDbLine
 10
115.2179693255
 20
290.2528160451
 30
0.0
 11
115.2179693255
 21
300.5639483405
 31
0.0
  0
LINE
  5
CA
330
1F
100
AcDbEntity
  8
0
  6
Continuous
 62
     9
100
AcDbLine
 10
115.2179693255
 20
274.1139483405
 30
0.0
 11
115.2179693255
 21
284.4250806359
 31
0.0
  0
LINE
  5
CB
330
1F
100
AcDbEntity
  8
0
  6
Continuous
 62
     7
100
AcDbLine
 10
114.9679693255
 20
273.067043138
 30
0.0
 11
114.9679693255
 21
284.0555861875
 31
0.0
  0
LINE
  5
CC
330
1F
100
AcDbEntity
  8
0
  6
Continuous
 62
     7
100
AcDbLine
 10
114.9679693255
 20
301.6108963864
 30
0.0
 11
114.9679693255
 21
290.6223104934
 31
0.0
  0
LINE
  5
CD
330
1F
100
AcDbEntity
  8
0
  6
Continuous
 62
     7
100
AcDbLine
 10
113.9703096266
 20
274.3552085094
 30
0.0
 11
113.9703096266
 21
271.3389483405
 31
0.0
  0
LINE
  5
CE
330
1F
100
AcDbEntity
  8
0
  6
Continuous
 62
     7
100
AcDbLine
 10
113.9703096266
 20
283.8244483405
 30
0.0
 11
113.9703096266
 21
277.9889483405
 31
0.0
  0
LINE
  5
CF
330
1F
100
AcDbEntity
  8
0
  6
Continuous
 62
     7
100
AcDbLine
 10
113.9703096266
 20
303.3389483405
 30
0.0
 11
113.9703096266
 21
290.8534483405
 31
0.0
  0
LINE
  5
D0
330
1F
100
AcDbEntity
  8
0
  6
Continuous
 62
     7
100
AcDbLine
 10
117.0429693255
 20
273.0669456276
 30
0.0
 11
118.0406290244
 21
271.3389483405
 31
0.0
  0
LINE
  5
D1
330
1F
100
AcDbEntity
  8
0
  6
Continuous
 62
     7
100
AcDbLine
 10
117.0429693255
 20
301.6109510533
 30
0.0
 11
118.0406290244
 21
303.3389483405
 31
0.0
  0
LINE
  5
D2
330
1F
100
AcDbEntity
  8
FASEN
  6
Continuous
 62
     9
100
AcDbLine
 10
111.4699693255
 20
290.4534483405
 30
0.0
 11
111.4699693255
 21
290.8534483405
 31
0.0
  0
LINE
  5
D3
330
1F
100
AcDbEntity
  8
FASEN
  6
Continuous
 62
     9
100
AcDbLine
 10
111.4699693255
 20
284.2244483405
 30
0.0
 11
111.4699693255
 21
283.8244483405
 31
0.0
  0
LINE
  5
D4
330
1F
100
AcDbEntity
  8
FASEN
  6
Continuous
 62
     9
100
AcDbLine
 10
111.4553843205
 20
277.5889483405
 30
0.0
 11
111.4553843205
 21
277.9889483405
 31
0.0
  0
LWPOLYLINE
  5
D5
330
1F
100
AcDbEntity
  8
BEZUGSACHSEN
  6
DOT_CENTER
 62
     7
100
AcDbPolyline
 90
        2
 70
     0
 43
0.25
 10
107.0054693255
 20
308.937632494
 10
107.0054693255
 20
294.937632494
  0
LINE
  5
D6
330
1F
100
AcDbEntity
  8
0
  6
Continuous
 62
     7
100
AcDbLine
 10
85.0054693255
 20
290.8639483405
 30
0.0
 11
84.0554693255
 21
291.8139483405
 31
0.0
  0
LINE
  5
D7
330
1F
100
AcDbEntity
  8
0
  6
Continuous
 62
     7
100
AcDbLine
 10
84.0554693255
 20
282.8639483405
 30
0.0
 11
85.0054693255
 21
283.8139483405
 31
0.0
  0
LINE
  5
D8
330
1F
100
AcDbEntity
  8
0
  6
Continuous
 62
     7
100
AcDbLine
 10
100.0054693255
 20
303.3389483405
 30
0.0
 11
100.0054693255
 21
271.3389483405
 31
0.0
  0
LINE
  5
D9
330
1F
100
AcDbEntity
  8
0
  6
Continuous
 62
     9
100
AcDbLine
 10
99.8512921622
 20
275.3252223131
 30
0.0
 11
99.8512921622
 21
299.3526743679
 31
0.0
  0
LINE
  5
DA
330
1F
100
AcDbEntity
  8
0
  6
Continuous
 62
     9
100
AcDbLine
 10
99.4313354053
 20
275.3252223131
 30
0.0
 11
99.4313354053
 21
299.3526743679
 31
0.0
  0
LINE
  5
DB
330
1F
100
AcDbEntity
  8
0
  6
Continuous
 62
     9
100
AcDbLine
 10
99.3278077872
 20
275.3115926436
 30
0.0
 11
99.3278077872
 21
299.3663040374
 31
0.0
  0
LINE
  5
DC
330
1F
100
AcDbEntity
  8
0
  6
Continuous
 62
     7
100
AcDbLine
 10
99.0054693255
 20
299.4526743679
 30
0.0
 11
99.0054693255
 21
275.2252223131
 31
0.0
  0
LINE
  5
DD
330
1F
100
AcDbEntity
  8
0
  6
Continuous
 62
     7
100
AcDbLine
 10
84.67496847790001
 20
292.4261611327
 30
0.0
 11
84.77565368180001
 21
292.2439483405
 31
0.0
  0
LINE
  5
DE
330
1F
100
AcDbEntity
  8
0
  6
Continuous
 62
     7
100
AcDbLine
 10
84.77565368180001
 20
282.4339483405
 30
0.0
 11
84.67496847790001
 21
282.2517355482
 31
0.0
  0
LWPOLYLINE
  5
DF
330
1F
100
AcDbEntity
  8
BEZUGSACHSEN
  6
DOT_CENTER
 62
     7
100
AcDbPolyline
 90
        2
 70
     0
 43
0.25
 10
95.0054693255
 20
282.3389483405
 10
95.0054693255
 20
292.3389483405
  0
LINE
  5
E0
330
1F
100
AcDbEntity
  8
RUNDUNGEN
  6
Continuous
 62
     7
100
AcDbLine
 10
87.15546932550001
 20
291.2108323114
 30
0.0
 11
87.15546932550001
 21
283.4670643696
 31
0.0
  0
LINE
  5
E1
330
1F
100
AcDbEntity
  8
RUNDUNGEN
  6
Continuous
 62
     9
100
AcDbLine
 10
86.2554693255
 20
290.8639483405
 30
0.0
 11
86.2554693255
 21
292.6011910332
 31
0.0
  0
LINE
  5
E2
330
1F
100
AcDbEntity
  8
RUNDUNGEN
  6
Continuous
 62
     9
100
AcDbLine
 10
86.2554693255
 20
282.0767056478
 30
0.0
 11
86.2554693255
 21
283.8139483405
 31
0.0
  0
LINE
  5
E3
330
1F
100
AcDbEntity
  8
0
  6
Continuous
 62
     7
100
AcDbLine
 10
85.0054693255
 20
290.8639483405
 30
0.0
 11
85.0054693255
 21
291.4814026393
 31
0.0
  0
LINE
  5
E4
330
1F
100
AcDbEntity
  8
0
  6
Continuous
 62
     7
100
AcDbLine
 10
85.0054693255
 20
283.1964940417
 30
0.0
 11
85.0054693255
 21
283.8139483405
 31
0.0
  0
LINE
  5
E5
330
1F
100
AcDbEntity
  8
0
  6
Continuous
 62
     9
100
AcDbLine
 10
84.6254453424
 20
282.2031063409
 30
0.0
 11
84.6254453424
 21
275.9431957749999
 31
0.0
  0
LINE
  5
E6
330
1F
100
AcDbEntity
  8
0
  6
Continuous
 62
     9
100
AcDbLine
 10
84.6254453424
 20
298.7347009060001
 30
0.0
 11
84.6254453424
 21
292.4747903401
 31
0.0
  0
LINE
  5
E7
330
1F
100
AcDbEntity
  8
0
  6
Continuous
 62
     7
100
AcDbLine
 10
84.0554693255
 20
291.8139483405
 30
0.0
 11
84.0554693255
 21
298.1354525753
 31
0.0
  0
LINE
  5
E8
330
1F
100
AcDbEntity
  8
0
  6
Continuous
 62
     7
100
AcDbLine
 10
84.0554693255
 20
276.542444105
 30
0.0
 11
84.0554693255
 21
282.8639483405
 31
0.0
  0
LINE
  5
E9
330
1F
100
AcDbEntity
  8
0
  6
Continuous
 62
     7
100
AcDbLine
 10
176.7554693255
 20
280.8876403336
 30
0.0
 11
169.5054693255
 21
280.8876403336
 31
0.0
  0
LWPOLYLINE
  5
EA
330
1F
100
AcDbEntity
  8
1
  6
Continuous
 62
     7
100
AcDbPolyline
 90
        2
 70
     0
 43
0.5
 10
176.7554693255
 20
280.8876403336
 10
176.7554693255
 20
279.8498486954
  0
ARC
  5
EB
330
1F
100
AcDbEntity
  8
0
  6
Continuous
 62
     7
100
AcDbCircle
 10
115.2179693255
 20
273.8639483405
 30
0.0
 40
0.25
100
AcDbArc
 50
90.0
 51
180.0
  0
ARC
  5
EC
330
1F
100
AcDbEntity
  8
0
  6
Continuous
 62
     7
100
AcDbCircle
 10
115.2179693255
 20
300.8139483405
 30
0.0
 40
0.25
100
AcDbArc
 50
180.0
 51
270.0
  0
ARC
  5
ED
330
1F
100
AcDbEntity
  8
0
  6
Continuous
 62
     7
100
AcDbCircle
 10
116.7929693255
 20
273.8639483405
 30
0.0
 40
0.25
100
AcDbArc
 50
0.0
 51
90.0
  0
ARC
  5
EE
330
1F
100
AcDbEntity
  8
0
  6
Continuous
 62
     7
100
AcDbCircle
 10
116.7929693255
 20
300.8139483405
 30
0.0
 40
0.25
100
AcDbArc
 50
270.0
 51
0.0
  0
ARC
  5
EF
330
1F
100
AcDbEntity
  8
0
  6
Continuous
 62
     7
100
AcDbCircle
 10
99.8512921622
 20
299.7526743679
 30
0.0
 40
0.3999999999999773
100
AcDbArc
 50
270.0
 51
292.6984354595353
  0
ARC
  5
F0
330
1F
100
AcDbEntity
  8
0
  6
Continuous
 62
     7
100
AcDbCircle
 10
99.8512921622
 20
274.9252223131
 30
0.0
 40
0.3999999999998977
100
AcDbArc
 50
67.30156454046462
 51
90.0
  0
ARC
  5
F1
330
1F
100
AcDbEntity
  8
0
  6
Continuous
 62
     7
100
AcDbCircle
 10
99.4313354053
 20
299.7526743679
 30
0.0
 40
0.4000000000001467
100
AcDbArc
 50
254.9999999912572
 51
270.0
  0
ARC
  5
F2
330
1F
100
AcDbEntity
  8
0
  6
Continuous
 62
     7
100
AcDbCircle
 10
84.65546932550001
 20
276.5424441045
 30
0.0
 40
0.6000000000000085
100
AcDbArc
 50
179.999999952254
 51
267.1317229294825
  0
ARC
  5
F3
330
1F
100
AcDbEntity
  8
0
  6
Continuous
 62
     7
100
AcDbCircle
 10
84.65546932550001
 20
298.1354525765
 30
0.0
 40
0.599999999974917
100
AcDbArc
 50
92.8682770705175
 51
180.0
  0
ARC
  5
F4
330
1F
100
AcDbEntity
  8
RUNDUNGEN
  6
Continuous
 62
     7
100
AcDbCircle
 10
86.2554693255
 20
284.7139483405
 30
0.0
 40
0.8999999999999773
100
AcDbArc
 50
270.0
 51
352.9880362120755
  0
ARC
  5
F5
330
1F
100
AcDbEntity
  8
RUNDUNGEN
  6
Continuous
 62
     7
100
AcDbCircle
 10
86.2554693255
 20
289.9639483405
 30
0.0
 40
0.899999999999941
100
AcDbArc
 50
7.01196202158928
 51
90.0
  0
ARC
  5
F6
330
1F
100
AcDbEntity
  8
RUNDUNGEN
  6
Continuous
 62
     7
100
AcDbCircle
 10
122.0054693255
 20
274.3389483405
 30
0.0
 40
2.0
100
AcDbArc
 50
90.0
 51
174.3749995055074
  0
ARC
  5
F7
330
1F
100
AcDbEntity
  8
RUNDUNGEN
  6
Continuous
 62
     7
100
AcDbCircle
 10
122.0054693255
 20
300.3389483405
 30
0.0
 40
2.0
100
AcDbArc
 50
180.0
 51
270.0
  0
ARC
  5
F8
330
1F
100
AcDbEntity
  8
FASEN
  6
Continuous
 62
     7
100
AcDbCircle
 10
111.4553843205
 20
274.4889483405
 30
0.0
 40
3.099981417500032
100
AcDbArc
 50
90.0
 51
182.472615119493
  0
ARC
  5
F9
330
1F
100
AcDbEntity
  8
FASEN
  6
Continuous
 62
     7
100
AcDbCircle
 10
111.4699693255
 20
287.3389483405
 30
0.0
 40
3.114489022600026
100
AcDbArc
 50
90.0
 51
270.0
  0
ARC
  5
FA
330
1F
100
AcDbEntity
  8
FASEN
  6
Continuous
 62
     7
100
AcDbCircle
 10
111.4553843205
 20
274.4889483405
 30
0.0
 40
3.5
100
AcDbArc
 50
90.0
 51
177.3161918300953
  0
ARC
  5
FB
330
1F
100
AcDbEntity
  8
0
  6
Continuous
 62
     7
100
AcDbCircle
 10
111.4699693255
 20
287.3389483405
 30
0.0
 40
3.514499999999998
100
AcDbArc
 50
90.0
 51
270.0
  0
ARC
  5
FC
330
1F
100
AcDbEntity
  8
FASEN
  6
Continuous
 62
     7
100
AcDbCircle
 10
112.8744890484
 20
280.8267476736
 30
0.0
 40
7.891580868599881
100
AcDbArc
 50
231.4754833830966
 51
235.0904116742377
  0
ARC
  5
FD
330
1F
100
AcDbEntity
  8
0
  6
Continuous
 62
     7
100
AcDbCircle
 10
32.4137943288
 20
312.6494614097
 30
0.0
 40
90.09947276600691
100
AcDbArc
 50
334.8479477141801
 51
336.3847181612001
  0
ARC
  5
FE
330
1F
100
AcDbEntity
  8
0
  6
Continuous
 62
     7
100
AcDbCircle
 10
199.5971443221
 20
312.6494614097
 30
0.0
 40
90.09947276599954
100
AcDbArc
 50
203.6152818387999
 51
205.152052285847
  0
ARC
  5
FF
330
1F
100
AcDbEntity
  8
0
  6
Continuous
 62
     7
100
AcDbCircle
 10
144.9222914629
 20
-244.3771827759
 30
0.0
 40
540.1736479674001
100
AcDbArc
 50
96.23504095310001
 51
96.40370831109318
  0
ARC
  5
100
330
1F
100
AcDbEntity
  8
0
  6
Continuous
 62
     7
100
AcDbCircle
 10
144.9222914697
 20
819.0550795185
 30
0.0
 40
540.1736480293
100
AcDbArc
 50
263.5962916889
 51
263.7649590469
  0
CIRCLE
  5
101
330
1F
100
AcDbEntity
  8
FASEN
  6
Continuous
 62
     7
100
AcDbCircle
 10
95.0054693255
 20
287.3389483405
 30
0.0
 40
2.0
  0
SPLINE
  5
102
330
1F
100
AcDbEntity
  8
0
  6
Continuous
 62
     7
100
AcDbSpline
210
0.0
220
0.0
230
1.0
 70
    24
 71
     3
 72
     9
 73
     5
 74
     3
 42
0.0000000001
 43
0.0000000001
 44
0.00000001
 40
0.0
 40
0.0
 40
0.0
 40
0.0
 40
0.0347035328575888
 40
0.0694070657146598
 40
0.0694070657146598
 40
0.0694070657146598
 40
0.0694070657146598
 10
84.67496847775931
 20
292.426161132346
 30
0.0
 10
84.66671462183011
 20
292.4342660002488
 30
0.0
 10
84.65020690997186
 20
292.4504757360543
 30
0.0
 10
84.63369919811328
 20
292.4666854718595
 30
0.0
 10
84.62544534218401
 20
292.474790339762
 30
0.0
 11
84.67496847775931
 21
292.426161132346
 31
0.0
 11
84.65020690997166
 21
292.4504757360544
 31
0.0
 11
84.62544534218401
 21
292.474790339762
 31
0.0
  0
SPLINE
  5
103
330
1F
100
AcDbEntity
  8
0
  6
Continuous
 62
     7
100
AcDbSpline
210
0.0
220
0.0
230
1.0
 70
     8
 71
     3
 72
    11
 73
     7
 74
     5
 42
0.0000000001
 43
0.0000000001
 44
0.00000001
 40
0.0
 40
0.0
 40
0.0
 40
0.0
 40
0.2243303823009969
 40
0.4487450664826696
 40
0.6263697311352747
 40
0.8039157766160602
 40
0.8039157766160602
 40
0.8039157766160602
 40
0.8039157766160602
 10
85.0054693255
 20
291.4814026393
 30
0.0
 10
85.00049514802951
 20
291.5562354971246
 30
0.0
 10
84.99054492382542
 20
291.7059293344693
 30
0.0
 10
84.93018328531306
 20
291.9071928136661
 30
0.0
 10
84.85846422994709
 20
292.0867088963931
 30
0.0
 10
84.80325312407899
 20
292.1915429276787
 30
0.0
 10
84.77565368180001
 20
292.2439483405
 30
0.0
 11
85.0054693255
 21
291.4814026393
 31
0.0
 11
84.98222637448117
 21
291.7045256673613
 31
0.0
 11
84.92224514217659
 21
291.9207759904768
 31
0.0
 11
84.8556378618674
 21
292.0854392580952
 31
0.0
 11
84.77565368180001
 21
292.2439483405
 31
0.0
  0
SPLINE
  5
104
330
1F
100
AcDbEntity
  8
0
  6
Continuous
 62
     7
100
AcDbSpline
210
0.0
220
0.0
230
1.0
 70
     8
 71
     3
 72
    11
 73
     7
 74
     5
 42
0.0000000001
 43
0.0000000001
 44
0.00000001
 40
0.0
 40
0.0
 40
0.0
 40
0.0
 40
0.2552059510080858
 40
0.5103908165087407
 40
0.6573137755362936
 40
0.8040138995607813
 40
0.8040138995607813
 40
0.8040138995607813
 40
0.8040138995607813
 10
84.77565368180001
 20
282.4339483405
 30
0.0
 10
84.81466383701395
 20
282.5096614467074
 30
0.0
 10
84.8926809243629
 20
282.6610814035891
 30
0.0
 10
84.9617160547661
 20
282.8699886265235
 30
0.0
 10
84.99905152564952
 20
283.0496285661109
 30
0.0
 10
85.00333114150492
 20
283.1475636579783
 30
0.0
 10
85.0054693255
 20
283.1964940417
 30
0.0
 11
84.77565368180001
 21
282.4339483405
 31
0.0
 11
84.88658046600423
 21
282.6637859483366
 31
0.0
 11
84.9670950677094
 21
282.9059361382867
 31
0.0
 11
84.99513682760006
 21
283.0501582433595
 31
0.0
 11
85.0054693255
 21
283.1964940417
 31
0.0
  0
SPLINE
  5
105
330
1F
100
AcDbEntity
  8
0
  6
Continuous
 62
     7
100
AcDbSpline
210
0.0
220
0.0
230
1.0
 70
    24
 71
     3
 72
     9
 73
     5
 74
     3
 42
0.0000000001
 43
0.0000000001
 44
0.00000001
 40
0.0
 40
0.0
 40
0.0
 40
0.0
 40
0.0347035328320296
 40
0.0694070655144924
 40
0.0694070655144924
 40
0.0694070655144924
 40
0.0694070655144924
 10
84.62544534218401
 20
282.203106341138
 30
0.0
 10
84.63369919810508
 20
282.2112112090369
 30
0.0
 10
84.65020690991165
 20
282.2274209447999
 30
0.0
 10
84.66671462179728
 20
282.2436306804823
 30
0.0
 10
84.6749684777223
 20
282.251735548306
 30
0.0
 11
84.62544534218401
 21
282.203106341138
 31
0.0
 11
84.65020690996698
 21
282.2274209448146
 31
0.0
 11
84.6749684777223
 21
282.251735548306
 31
0.0
  0
SPLINE
  5
106
330
1F
100
AcDbEntity
  8
0
  6
Continuous
 62
     7
100
AcDbSpline
210
0.0
220
0.0
230
1.0
 70
     8
 71
     3
 72
    15
 73
    11
 74
     9
 42
0.0000000001
 43
0.0000000001
 44
0.00000001
 40
0.0
 40
0.0
 40
0.0
 40
0.0
 40
1.946609304275259
 40
3.893664559151214
 40
4.554940646568856
 40
5.21950915850424
 40
5.724208673345611
 40
6.218727770261374
 40
6.951979809631395
 40
7.684939749713408
 40
7.684939749713408
 40
7.684939749713408
 40
7.684939749713408
 10
169.5054693255
 20
279.8498486954
 30
0.0
 10
169.2055725779947
 20
279.2742857995518
 30
0.0
 10
168.6057103793493
 20
278.1230281515971
 30
0.0
 10
168.0969379699217
 20
276.6807508755944
 30
0.0
 10
167.9049659464591
 20
275.6045396110135
 30
0.0
 10
167.8940165159397
 20
274.9908042212203
 30
0.0
 10
167.9901278975044
 20
274.4406610915524
 30
0.0
 10
168.2365585678401
 20
273.9085633288419
 30
0.0
 10
168.7742806484333
 20
273.4723942869364
 30
0.0
 10
169.2617721392223
 20
273.3912046852381
 30
0.0
 10
169.5054693255
 20
273.3506179717
 30
0.0
 11
169.5054693255
 21
279.8498486954
 31
0.0
 11
168.64700769454
 21
278.1027564220325
 31
0.0
 11
168.0304130042704
 21
276.2559117741339
 31
0.0
 11
167.9225316812285
 21
275.6034949718295
 31
0.0
 11
167.9171389568798
 21
274.9389483402226
 31
0.0
 11
168.0122505985973
 21
274.4432918302372
 31
0.0
 11
168.228893249303
 21
273.9987526316173
 31
0.0
 11
168.7957165492939
 21
273.5335968514451
 31
0.0
 11
169.5054693255
 21
273.3506179717
 31
0.0
  0
SPLINE
  5
107
330
1F
100
AcDbEntity
  8
0
  6
Continuous
 62
     7
100
AcDbSpline
210
0.0
220
0.0
230
1.0
 70
     8
 71
     3
 72
    15
 73
    11
 74
     9
 42
0.0000000001
 43
0.0000000001
 44
0.00000001
 40
0.0
 40
0.0
 40
0.0
 40
0.0
 40
0.948666931339618
 40
1.894170328386081
 40
2.456836455515647
 40
3.02765898698585
 40
3.787432024176282
 40
4.542699268094773
 40
6.109760454354005
 40
7.677529009573231
 40
7.677529009573231
 40
7.677529009573231
 40
7.677529009573231
 10
169.5054693255
 20
301.3272787093
 30
0.0
 10
169.1832495368896
 20
301.2703402923067
 30
0.0
 10
168.5398844709832
 20
301.1566533317405
 30
0.0
 10
168.0247306369637
 20
300.4197552462998
 30
0.0
 10
167.8902813507203
 20
299.7375668303633
 30
0.0
 10
167.9085519863784
 20
299.1027618240935
 30
0.0
 10
168.017355511459
 20
298.4147145173092
 30
0.0
 10
168.2931718263609
 20
297.423525068509
 30
0.0
 10
168.7738321589011
 20
296.2149805756989
 30
0.0
 10
169.2615535854656
 20
295.2904283901052
 30
0.0
 10
169.5054693255
 20
294.8280479855
 30
0.0
 11
169.5054693255
 21
301.3272787093
 31
0.0
 11
168.6005637355937
 21
301.0424720731876
 31
0.0
 11
168.0304130041585
 21
300.288214280871
 31
0.0
 11
167.9115672608898
 21
299.7382425907579
 31
0.0
 11
167.9171389569138
 21
299.1674472520966
 31
0.0
 11
168.0318128676471
 21
298.4163780394146
 31
0.0
 11
168.2288932494817
 21
297.6872772694026
 31
0.0
 11
168.7988289083736
 21
296.2275327348337
 31
0.0
 11
169.5054693255
 21
294.8280479855
 31
0.0
  0
SPLINE
  5
108
330
1F
100
AcDbEntity
  8
0
  6
Continuous
 62
     7
100
AcDbSpline
210
0.0
220
0.0
230
1.0
 70
     8
 71
     3
 72
    11
 73
     7
 74
     5
 42
0.0000000001
 43
0.0000000001
 44
0.00000001
 40
0.0
 40
0.0
 40
0.0
 40
0.0
 40
0.0484884449581713
 40
0.0974363654539415
 40
0.1529099108396669
 40
0.2081599366586574
 40
0.2081599366586574
 40
0.2081599366586574
 40
0.2081599366586574
 10
117.0429693255
 20
290.6223104934
 30
0.0
 10
117.0415377501123
 20
290.6061025972861
 30
0.0
 10
117.0386610337571
 20
290.5735332193577
 30
0.0
 10
117.016935246498
 20
290.5265068163907
 30
0.0
 10
116.9831870845024
 20
290.484380565847
 30
0.0
 10
116.9523647900031
 20
290.4637451966248
 30
0.0
 10
116.9369847535
 20
290.4534483405
 30
0.0
 11
117.0429693255
 21
290.6223104934
 31
0.0
 11
117.0359585813294
 21
290.5743315525964
 31
0.0
 11
117.0162728794729
 21
290.5295166882847
 31
0.0
 11
116.9812774037511
 21
290.4864744890301
 31
0.0
 11
116.9369847535
 21
290.4534483405
 31
0.0
  0
SPLINE
  5
109
330
1F
100
AcDbEntity
  8
0
  6
Continuous
 62
     7
100
AcDbSpline
210
0.0
220
0.0
230
1.0
 70
     8
 71
     3
 72
    11
 73
     7
 74
     5
 42
0.0000000001
 43
0.0000000001
 44
0.00000001
 40
0.0
 40
0.0
 40
0.0
 40
0.0
 40
0.0552416255774713
 40
0.1107067482615369
 40
0.1596632274380305
 40
0.2081601314809554
 40
0.2081601314809554
 40
0.2081601314809554
 40
0.2081601314809554
 10
115.0739538975
 20
290.4534483405
 30
0.0
 10
115.0585760671794
 20
290.4637433873697
 30
0.0
 10
115.0277581907624
 20
290.4843751329099
 30
0.0
 10
114.9940092044474
 20
290.5264967166279
 30
0.0
 10
114.9722790730997
 20
290.5735246890665
 30
0.0
 10
114.9694013844545
 20
290.6060997649678
 30
0.0
 10
114.9679693255
 20
290.6223104934
 30
0.0
 11
115.0739538975
 21
290.4534483405
 31
0.0
 11
115.0296672068054
 21
290.4864684286853
 31
0.0
 11
114.9946743060276
 21
290.5295018660278
 31
0.0
 11
114.9749823701588
 21
290.5743233398445
 31
0.0
 11
114.9679693255
 21
290.6223104934
 31
0.0
  0
SPLINE
  5
10A
330
1F
100
AcDbEntity
  8
0
  6
Continuous
 62
     7
100
AcDbSpline
210
0.0
220
0.0
230
1.0
 70
     8
 71
     3
 72
    11
 73
     7
 74
     5
 42
0.0000000001
 43
0.0000000001
 44
0.00000001
 40
0.0
 40
0.0
 40
0.0
 40
0.0
 40
0.0484969040664378
 40
0.097453383266761
 40
0.1529185059422355
 40
0.2081601315563233
 40
0.2081601315563233
 40
0.2081601315563233
 40
0.2081601315563233
 10
114.9679693255
 20
284.0555861875
 30
0.0
 10
114.9694013844552
 20
284.0717969159396
 30
0.0
 10
114.9722790731016
 20
284.1043719918555
 30
0.0
 10
114.9940092044341
 20
284.1513999643184
 30
0.0
 10
115.0277581907836
 20
284.193521548027
 30
0.0
 10
115.0585760671822
 20
284.2141532936065
 30
0.0
 10
115.0739538975
 20
284.2244483405
 30
0.0
 11
114.9679693255
 21
284.0555861875
 31
0.0
 11
114.9749823701588
 21
284.1035733410793
 31
0.0
 11
114.9946743060276
 21
284.148394814922
 31
0.0
 11
115.0296672068054
 21
284.1914282522534
 31
0.0
 11
115.0739538975
 21
284.2244483405
 31
0.0
  0
SPLINE
  5
10B
330
1F
100
AcDbEntity
  8
FASEN
  6
Continuous
 62
     7
100
AcDbSpline
210
0.0
220
0.0
230
1.0
 70
     8
 71
     3
 72
    39
 73
    35
 74
    33
 42
0.0000000001
 43
0.0000000001
 44
0.00000001
 40
0.0
 40
0.0
 40
0.0
 40
0.0
 40
0.2552997431369434
 40
0.5108651139538918
 40
0.7657436255045702
 40
1.020544604182489
 40
1.274474439960664
 40
1.528422259899588
 40
1.781580156254067
 40
2.034730868746563
 40
2.287617452031385
 40
2.540506722669041
 40
2.793756932993166
 40
3.047007599941053
 40
3.301045674684508
 40
3.555087452377327
 40
3.809971905074637
 40
4.064857118452656
 40
4.320289560637662
 40
4.575724060077309
 40
4.831260712491113
 40
5.086793620607903
 40
5.342082704500681
 40
5.597373532591173
 40
5.852343573249492
 40
6.107309239598226
 40
6.362145686748637
 40
6.616987169860253
 40
6.871987286026865
 40
7.126970727563481
 40
7.38221424969643
 40
7.637530302509994
 40
7.893156983701137
 40
8.148517859280272
 40
8.148517859280272
 40
8.148517859280272
 40
8.148517859280272
 10
97.604717655
 20
287.3389483405
 30
0.0
 10
97.60233449940567
 20
287.2538138702849
 30
0.0
 10
97.59756570865287
 20
287.0834563513408
 30
0.0
 10
97.55883980045186
 20
286.8305386371882
 30
0.0
 10
97.49752773420244
 20
286.582614161454
 30
0.0
 10
97.41200825702066
 20
286.3424015040134
 30
0.0
 10
97.30351390818925
 20
286.1120477405001
 30
0.0
 10
97.17314927639111
 20
285.893941205865
 30
0.0
 10
97.02196567063449
 20
285.6900435758799
 30
0.0
 10
96.85162252787077
 20
285.5023304233694
 30
0.0
 10
96.66353342725486
 20
285.3325388489523
 30
0.0
 10
96.45959572649932
 20
285.1821002844814
 30
0.0
 10
96.24167658050725
 20
285.0525072186115
 30
0.0
 10
96.01176862710395
 20
284.9447229054346
 30
0.0
 10
95.77215290455294
 20
284.8599123420242
 30
0.0
 10
95.5249159480769
 20
284.7986231059256
 30
0.0
 10
95.27262304867548
 20
284.7615503293538
 30
0.0
 10
95.01747382761457
 20
284.7489084851293
 30
0.0
 10
94.76211003959062
 20
284.7609229001378
 30
0.0
 10
94.50886495087938
 20
284.7974319258552
 30
0.0
 10
94.2602871967812
 20
284.8582052306595
 30
0.0
 10
94.01877895765669
 20
284.9426792554033
 30
0.0
 10
93.78672645123964
 20
285.0502581120804
 30
0.0
 10
93.56641683346872
 20
285.1798391081466
 30
0.0
 10
93.35999543800659
 20
285.3303847248499
 30
0.0
 10
93.1694797296127
 20
285.5003927520495
 30
0.0
 10
92.9968125411655
 20
285.6884471245011
 30
0.0
 10
92.84359034817447
 20
285.8926703717784
 30
0.0
 10
92.71143472026296
 20
286.111180694938
 30
0.0
 10
92.60150357333625
 20
286.3418015338058
 30
0.0
 10
92.51481703029646
 20
286.5822890308588
 30
0.0
 10
92.45269537372681
 20
286.830345210477
 30
0.0
 10
92.41351912609721
 20
287.0833959837337
 30
0.0
 10
92.40865286225437
 20
287.2537937674293
 30
0.0
 10
92.406220996
 20
287.3389483405
 30
0.0
 11
97.604717655
 21
287.3389483405
 31
0.0
 11
97.59230687350117
 21
287.0839504359039
 31
0.0
 11
97.55502427273869
 21
286.831119135545
 31
0.0
 11
97.4934590443694
 21
286.5837878227152
 31
0.0
 11
97.40804887923218
 21
286.3437281584097
 31
0.0
 11
97.29982894427245
 21
286.1140135372476
 31
0.0
 11
97.16950914976064
 21
285.896054260294
 31
0.0
 11
97.01873458308843
 21
285.6926926352724
 31
0.0
 11
96.8485919539991
 21
285.5052445917989
 31
0.0
 11
96.66089805658052
 21
285.3357670862789
 31
0.0
 11
96.4573826175812
 21
285.1856522992239
 31
0.0
 11
96.2397355375159
 21
285.0561709586058
 31
0.0
 11
96.0104342935072
 21
284.9486682153589
 31
0.0
 11
95.77097089372218
 21
284.8638588787104
 31
0.0
 11
95.52439518596489
 21
284.8027225952339
 31
0.0
 11
95.27222409130562
 21
284.7656305038241
 31
0.0
 11
95.01765111554776
 21
284.7530181284511
 31
0.0
 11
94.76249999373717
 21
284.7650030172445
 31
0.0
 11
94.50968176601106
 21
284.8014684424225
 31
0.0
 11
94.26145676765894
 21
284.8621588940599
 31
0.0
 11
94.02026690147757
 21
284.9465657396474
 31
0.0
 11
93.78865650542224
 21
285.0539395762833
 31
0.0
 11
93.56862709643904
 21
285.1834017950563
 31
0.0
 11
93.36262527463542
 21
285.3336448349846
 31
0.0
 11
93.17241869196202
 21
285.5034357267437
 31
0.0
 11
93.00005506016025
 21
285.6911386655282
 31
0.0
 11
92.8471356620069
 21
285.8950009699961
 31
0.0
 11
92.71514651790041
 21
286.1131842073976
 31
0.0
 11
92.60541761885968
 21
286.3433496352385
 31
0.0
 11
92.5189285054453
 21
286.5834931107935
 31
0.0
 11
92.45654228037549
 21
286.8310698579767
 31
0.0
 11
92.41882539036445
 21
287.0838987256811
 31
0.0
 11
92.406220996
 21
287.3389483405
 31
0.0
  0
SPLINE
  5
10C
330
1F
100
AcDbEntity
  8
0
  6
Continuous
 62
     7
100
AcDbSpline
210
0.0
220
0.0
230
1.0
 70
     8
 71
     3
 72
    11
 73
     7
 74
     5
 42
0.0000000001
 43
0.0000000001
 44
0.00000001
 40
0.0
 40
0.0
 40
0.0
 40
0.0
 40
0.0552500258189791
 40
0.1107235712046694
 40
0.1596714917119006
 40
0.2081599367566869
 40
0.2081599367566869
 40
0.2081599367566869
 40
0.2081599367566869
 10
116.9369847535
 20
284.2244483405
 30
0.0
 10
116.952364790003
 20
284.2141514843751
 30
0.0
 10
116.9831870845019
 20
284.1935161151528
 30
0.0
 10
117.0169352465018
 20
284.151389864607
 30
0.0
 10
117.038661033768
 20
284.1043634616061
 30
0.0
 10
117.0415377501152
 20
284.0717940836437
 30
0.0
 10
117.0429693255
 20
284.0555861875
 30
0.0
 11
116.9369847535
 21
284.2244483405
 31
0.0
 11
116.9812774037511
 21
284.1914221919699
 31
0.0
 11
117.0162728794729
 21
284.1483799927154
 31
0.0
 11
117.0359585813294
 21
284.1035651283912
 31
0.0
 11
117.0429693255
 21
284.0555861875
 31
0.0
  0
SPLINE
  5
10D
330
1F
100
AcDbEntity
  8
RUNDUNGEN
  6
Continuous
 62
     7
100
AcDbSpline
210
0.0
220
0.0
230
1.0
 70
     8
 71
     3
 72
    11
 73
     7
 74
     5
 42
0.0000000001
 43
0.0000000001
 44
0.00000001
 40
0.0
 40
0.0
 40
0.0
 40
0.0
 40
0.4023238182791797
 40
0.8046480839510415
 40
1.206972209586763
 40
1.609296064186199
 40
1.609296064186199
 40
1.609296064186199
 40
1.609296064186199
 10
120.0054693255
 20
288.9482960344
 30
0.0
 10
120.0055821388136
 20
288.8141881082745
 30
0.0
 10
120.0058077655662
 20
288.5459721068926
 30
0.0
 10
120.0069145925799
 20
288.1436494602885
 30
0.0
 10
120.0077620648239
 20
287.7413261716911
 30
0.0
 10
120.0079012815569
 20
287.4731101713152
 30
0.0
 10
120.0079708899
 20
287.3390022163
 30
0.0
 11
120.0054693255
 21
288.9482960344
 31
0.0
 11
120.0059358297663
 21
288.5459724865825
 31
0.0
 11
120.0068713668805
 21
288.1436493086288
 31
0.0
 11
120.007655623784
 21
287.7413259473761
 31
0.0
 11
120.0079708899
 21
287.3390022163
 31
0.0
  0
SPLINE
  5
10E
330
1F
100
AcDbEntity
  8
0
  6
Continuous
 62
     7
100
AcDbSpline
210
0.0
220
0.0
230
1.0
 70
     8
 71
     3
 72
    19
 73
    15
 74
    13
 42
0.0000000001
 43
0.0000000001
 44
0.00000001
 40
0.0
 40
0.0
 40
0.0
 40
0.0
 40
0.0323407212670378
 40
0.0646896690169501
 40
0.0970430073916872
 40
0.1293811553901566
 40
0.1455604632852715
 40
0.1617380090326254
 40
0.1779190469439687
 40
0.1941069132542819
 40
0.2103064803469981
 40
0.2265329504605181
 40
0.2428873474253412
 40
0.2590698531095583
 40
0.2590698531095583
 40
0.2590698531095583
 40
0.2590698531095583
 10
116.9369847535
 20
290.4534483405
 30
0.0
 10
116.9334942033816
 20
290.4432478330484
 30
0.0
 10
116.9265122152563
 20
290.4228442234504
 30
0.0
 10
116.9147299953263
 20
290.3927073678329
 30
0.0
 10
116.9017517956297
 20
290.3630663857819
 30
0.0
 10
116.8894785287089
 20
290.3390391144305
 30
0.0
 10
116.8785878627788
 20
290.3204189721642
 30
0.0
 10
116.8697368502778
 20
290.306866404724
 30
0.0
 10
116.8600783608103
 20
290.2938648490368
 30
0.0
 10
116.8494369479117
 20
290.2816468871608
 30
0.0
 10
116.8376771299931
 20
290.2704233979574
 30
0.0
 10
116.8242753372532
 20
290.2611403950635
 30
0.0
 10
116.8092358240197
 20
290.2543499249448
 30
0.0
 10
116.7983723612462
 20
290.2533255344422
 30
0.0
 10
116.7929693255
 20
290.2528160451
 30
0.0
 11
116.9369847535
 21
290.4534483405
 31
0.0
 11
116.926295124384
 21
290.4229253314505
 31
0.0
 11
116.9145311467326
 21
290.392791243604
 31
0.0
 11
116.9014581309854
 21
290.3631967379777
 31
0.0
 11
116.8866689454302
 21
290.3344385077369
 31
0.0
 11
116.8784741912515
 21
290.3204880235906
 31
0.0
 11
116.869603220406
 21
290.3069595771659
 31
0.0
 11
116.8599167485132
 21
290.2939981632708
 31
0.0
 11
116.8492550276135
 21
290.2818172469204
 31
0.0
 11
116.8374179046323
 21
290.2707579298745
 31
0.0
 11
116.8240382931281
 21
290.2615772802058
 31
0.0
 11
116.8089734932033
 21
290.2552118970038
 31
0.0
 11
116.7929693255
 21
290.2528160451
 31
0.0
  0
SPLINE
  5
10F
330
1F
100
AcDbEntity
  8
0
  6
Continuous
 62
     7
100
AcDbSpline
210
0.0
220
0.0
230
1.0
 70
     8
 71
     3
 72
    19
 73
    15
 74
    13
 42
0.0000000001
 43
0.0000000001
 44
0.00000001
 40
0.0
 40
0.0
 40
0.0
 40
0.0
 40
0.016215757862884
 40
0.032622684017939
 40
0.0488914582652901
 40
0.0651130425619004
 40
0.0812845012606099
 40
0.0974608274899722
 40
0.1136293935197193
 40
0.1297937135122231
 40
0.1620993999814022
 40
0.1944270046103644
 40
0.2267452805289677
 40
0.2590534186236545
 40
0.2590534186236545
 40
0.2590534186236545
 40
0.2590534186236545
 10
115.2179693255
 20
290.2528160451
 30
0.0
 10
115.2125554986715
 20
290.2533393478163
 30
0.0
 10
115.2016640211689
 20
290.2543921224877
 30
0.0
 10
115.1866204407931
 20
290.2612707232573
 30
0.0
 10
115.1731540176299
 20
290.2705173088056
 30
0.0
 10
115.1613338570217
 20
290.2817067220629
 30
0.0
 10
115.1507327106657
 20
290.2939632530413
 30
0.0
 10
115.1411413504837
 20
290.3070005809525
 30
0.0
 10
115.1322963796803
 20
290.3205443008234
 30
0.0
 10
115.1213849841544
 20
290.3391306927403
 30
0.0
 10
115.1091282430372
 20
290.3631404924733
 30
0.0
 10
115.0961912135141
 20
290.3927667700512
 30
0.0
 10
115.0844199443489
 20
290.422875740975
 30
0.0
 10
115.0774422149219
 20
290.4432585397955
 30
0.0
 10
115.0739538975
 20
290.4534483405
 30
0.0
 11
115.2179693255
 21
290.2528160451
 31
0.0
 11
115.2019387740437
 21
290.2552598583244
 31
0.0
 11
115.1868439516718
 21
290.2616889767256
 31
0.0
 11
115.173405757101
 21
290.2708589245003
 31
0.0
 11
115.1615218085243
 21
290.2819002814512
 31
0.0
 11
115.150900110283
 21
290.2940943621019
 31
0.0
 11
115.1412640597561
 21
290.3070874395095
 31
0.0
 11
115.1324049972845
 21
290.3206129539021
 31
0.0
 11
115.1242019789252
 21
290.3345411889165
 31
0.0
 11
115.1094263988305
 21
290.3632699134115
 31
0.0
 11
115.0963844024002
 21
290.3928499801822
 31
0.0
 11
115.0846359361413
 21
290.422957196907
 31
0.0
 11
115.0739538975
 21
290.4534483405
 31
0.0
  0
SPLINE
  5
110
330
1F
100
AcDbEntity
  8
0
  6
Continuous
 62
     7
100
AcDbSpline
210
0.0
220
0.0
230
1.0
 70
     8
 71
     3
 72
    19
 73
    15
 74
    13
 42
0.0000000001
 43
0.0000000001
 44
0.00000001
 40
0.0
 40
0.0
 40
0.0
 40
0.0
 40
0.0323151378576627
 40
0.0646399977684941
 40
0.0969742998980289
 40
0.1292882109558546
 40
0.1454536097196875
 40
0.1616217905965797
 40
0.1778063534055304
 40
0.1939890917952753
 40
0.2101993891937901
 40
0.2264513050004228
 40
0.2428488340435611
 40
0.2590606653486036
 40
0.2590606653486036
 40
0.2590606653486036
 40
0.2590606653486036
 10
115.0739538975
 20
284.2244483405
 30
0.0
 10
115.0774427197901
 20
284.2346404328405
 30
0.0
 10
115.0844214139872
 20
284.2550276838264
 30
0.0
 10
115.0961950778499
 20
284.2851430360481
 30
0.0
 10
115.1091404617338
 20
284.3147735604151
 30
0.0
 10
115.1214003558037
 20
284.3387874380784
 30
0.0
 10
115.1323068772454
 20
284.3573801002018
 30
0.0
 10
115.1411540311445
 20
284.3709262494516
 30
0.0
 10
115.1507633928358
 20
284.3839585530663
 30
0.0
 10
115.1613751004842
 20
284.3962087533628
 30
0.0
 10
115.1731775080353
 20
284.4074070774844
 30
0.0
 10
115.1866248679232
 20
284.4166624631026
 30
0.0
 10
115.2016694895716
 20
284.42351634311
 30
0.0
 10
115.2125567130376
 20
284.4245611883002
 30
0.0
 10
115.2179693255
 20
284.4250806359
 30
0.0
 11
115.0739538975
 21
284.2244483405
 31
0.0
 11
115.0846376133404
 21
284.2549463133933
 31
0.0
 11
115.0963892174758
 21
284.2850593731598
 31
0.0
 11
115.1094376996229
 21
284.3146438996536
 31
0.0
 11
115.1242163775455
 21
284.3433802795006
 31
0.0
 11
115.1324166444559
 21
284.3573113864125
 31
0.0
 11
115.1412774069421
 21
284.3708353267049
 31
0.0
 11
115.1509293497469
 21
284.3838268652361
 31
0.0
 11
115.1615645218641
 21
284.3960241655861
 31
0.0
 11
115.1734313014271
 21
284.4070674116919
 31
0.0
 11
115.1868491724464
 21
284.4162372265589
 31
0.0
 11
115.2019407455103
 21
284.4226499780104
 31
0.0
 11
115.2179693255
 21
284.4250806359
 31
0.0
  0
SPLINE
  5
111
330
1F
100
AcDbEntity
  8
0
  6
Continuous
 62
     7
100
AcDbSpline
210
0.0
220
0.0
230
1.0
 70
     8
 71
     3
 72
    19
 73
    15
 74
    13
 42
0.0000000001
 43
0.0000000001
 44
0.00000001
 40
0.0
 40
0.0
 40
0.0
 40
0.0
 40
0.0161946968421577
 40
0.0325629814719241
 40
0.0487883952292173
 40
0.0649854783944985
 40
0.0811702247998405
 40
0.0973487887765626
 40
0.1135238753882071
 40
0.1297004760267757
 40
0.1620346809964121
 40
0.1943842542667333
 40
0.2267297213086399
 40
0.2590669273407341
 40
0.2590669273407341
 40
0.2590669273407341
 40
0.2590669273407341
 10
116.7929693255
 20
284.4250806359
 30
0.0
 10
116.7983764128967
 20
284.4245693907507
 30
0.0
 10
116.8092485452022
 20
284.4235414205154
 30
0.0
 10
116.8242914401132
 20
284.4167375830558
 30
0.0
 10
116.8376953337802
 20
284.4074526394002
 30
0.0
 10
116.8494551200146
 20
284.3962321294806
 30
0.0
 10
116.8600932999018
 20
284.3840148186609
 30
0.0
 10
116.8697478042526
 20
284.371013678483
 30
0.0
 10
116.8785964460911
 20
284.3574626429274
 30
0.0
 10
116.8894852398961
 20
284.3388449280179
 30
0.0
 10
116.9017564784987
 20
284.3148205215382
 30
0.0
 10
116.9147327486257
 20
284.2851827711508
 30
0.0
 10
116.9265133996616
 20
284.255049158285
 30
0.0
 10
116.9334945994241
 20
284.2346477445662
 30
0.0
 10
116.9369847535
 20
284.2244483405
 30
0.0
 11
116.7929693255
 21
284.4250806359
 31
0.0
 11
116.808984797201
 21
284.4226779557293
 31
0.0
 11
116.8240592370515
 21
284.4162997110715
 31
0.0
 11
116.8374368931065
 21
284.4071180788598
 31
0.0
 11
116.8492728712914
 21
284.3960611749772
 31
0.0
 11
116.8599314270825
 21
284.3838816345649
 31
0.0
 11
116.8696144261001
 21
284.3709207139814
 31
0.0
 11
116.8784829567424
 21
284.3573936081881
 31
0.0
 11
116.8866759652858
 21
284.3434452384186
 31
0.0
 11
116.9014628405927
 21
284.3146902539868
 31
0.0
 11
116.9145339145387
 21
284.2850990066884
 31
0.0
 11
116.9262963717176
 21
284.2549680618099
 31
0.0
 11
116.9369847535
 21
284.2244483405
 31
0.0
  0
SPLINE
  5
112
330
1F
100
AcDbEntity
  8
RUNDUNGEN
  6
Continuous
 62
     7
100
AcDbSpline
210
0.0
220
0.0
230
1.0
 70
     8
 71
     3
 72
    11
 73
     7
 74
     5
 42
0.0000000001
 43
0.0000000001
 44
0.00000001
 40
0.0
 40
0.0
 40
0.0
 40
0.0
 40
0.4023507925008155
 40
0.8047018560656304
 40
1.207053059647036
 40
1.609403815855861
 40
1.609403815855861
 40
1.609403815855861
 40
1.609403815855861
 10
120.0079708899
 20
287.3390022163
 30
0.0
 10
120.0079013270067
 20
287.2048852819534
 30
0.0
 10
120.0077622011732
 20
286.9366513229054
 30
0.0
 10
120.0069147336389
 20
286.5343010962714
 30
0.0
 10
120.0058078073311
 20
286.1319515119146
 30
0.0
 10
120.0055821527352
 20
285.8637175519302
 30
0.0
 10
120.0054693255
 20
285.7296006465
 30
0.0
 11
120.0079708899
 21
287.3390022163
 31
0.0
 11
120.0076557381934
 21
286.9366515472246
 31
0.0
 11
120.0068714906056
 21
286.5343012479735
 31
0.0
 11
120.0059358811195
 21
286.1319511322058
 31
0.0
 11
120.0054693255
 21
285.7296006465
 31
0.0
  0
SPLINE
  5
113
330
1F
100
AcDbEntity
  8
FASEN
  6
Continuous
 62
     7
100
AcDbSpline
210
0.0
220
0.0
230
1.0
 70
     8
 71
     3
 72
    39
 73
    35
 74
    33
 42
0.0000000001
 43
0.0000000001
 44
0.00000001
 40
0.0
 40
0.0
 40
0.0
 40
0.0
 40
0.2553577285056788
 40
0.510989632302662
 40
0.7663075576364793
 40
1.021546002044624
 40
1.276529593091656
 40
1.531532755278096
 40
1.786374926101404
 40
2.041212220209337
 40
2.296179460838787
 40
2.551148967926731
 40
2.806438834138488
 40
3.061729585078475
 40
3.317263360107642
 40
3.572798987465658
 40
3.82823359992883
 40
4.083666629213365
 40
4.338551083417995
 40
4.593435980517675
 40
4.84747966391891
 40
5.101516738131755
 40
5.354764944537581
 40
5.608016841143837
 40
5.860907654947018
 40
6.113791644659495
 40
6.366940163557615
 40
6.620098299713013
 40
6.874044587859821
 40
7.127973589574269
 40
7.382778237842897
 40
7.637655536187638
 40
7.893216235449947
 40
8.148518090393319
 40
8.148518090393319
 40
8.148518090393319
 40
8.148518090393319
 10
92.406220996
 20
287.3389483405
 30
0.0
 10
92.40863055483757
 20
287.4241033099852
 30
0.0
 10
92.41345225963428
 20
287.5945046790787
 30
0.0
 10
92.45270078295776
 20
287.8475479778978
 30
0.0
 10
92.51481412033952
 20
288.0956038541681
 30
0.0
 10
92.6014817468336
 20
288.3360980793042
 30
0.0
 10
92.71141935562812
 20
288.5667158984579
 30
0.0
 10
92.84358999532924
 20
288.785218636344
 30
0.0
 10
92.996820971438
 20
288.9894368201285
 30
0.0
 10
93.16948707917358
 20
289.1774927723061
 30
0.0
 10
93.35998863519984
 20
289.3475169981057
 30
0.0
 10
93.5664012146751
 20
289.4980761272506
 30
0.0
 10
93.78671945233407
 20
289.6276441424728
 30
0.0
 10
94.0187798743795
 20
289.7352058556032
 30
0.0
 10
94.26028599958302
 20
289.8196854335544
 30
0.0
 10
94.50886107509622
 20
289.8804705068096
 30
0.0
 10
94.76210631434634
 20
289.9169801272483
 30
0.0
 10
95.01747044676654
 20
289.9289891317538
 30
0.0
 10
95.27261937781262
 20
289.9163400428718
 30
0.0
 10
95.5249122088955
 20
289.8792662604424
 30
0.0
 10
95.77215285453396
 20
289.8179912634929
 30
0.0
 10
96.01177118544697
 20
289.7331869513474
 30
0.0
 10
96.24166817210202
 20
289.6253789528545
 30
0.0
 10
96.45957652480598
 20
289.4957695830247
 30
0.0
 10
96.66352953904831
 20
289.3453533665993
 30
0.0
 10
96.85163872688102
 20
289.1755842922685
 30
0.0
 10
97.02197457109463
 20
288.9878650840729
 30
0.0
 10
97.17313995964736
 20
288.7839556048182
 30
0.0
 10
97.30349638085514
 20
288.5658455528842
 30
0.0
 10
97.41199363419562
 20
288.3354930835477
 30
0.0
 10
97.49752830551411
 20
288.0952857969518
 30
0.0
 10
97.55884347299929
 20
287.8473602927323
 30
0.0
 10
97.59750691580217
 20
287.594436448447
 30
0.0
 10
97.60231488730324
 20
287.4240822714108
 30
0.0
 10
97.604717655
 20
287.3389483405
 30
0.0
 11
92.406220996
 21
287.3389483405
 31
0.0
 11
92.4187814506393
 21
287.5939969721114
 31
0.0
 11
92.45653454886354
 21
287.8468257161524
 31
0.0
 11
92.5189245604607
 21
288.0944034402102
 31
0.0
 11
92.60539929789768
 21
288.3345466959746
 31
0.0
 11
92.71513198689273
 21
288.56471048259
 31
0.0
 11
92.84713469835799
 21
288.782889072032
 31
0.0
 11
93.00006185860444
 21
288.9867464135453
 31
0.0
 11
93.17242374457095
 21
289.1744521053459
 31
0.0
 11
93.36261998934255
 21
289.3442569411692
 31
0.0
 11
93.56861449166368
 21
289.4945091110641
 31
0.0
 11
93.78864854324952
 21
289.6239615422238
 31
0.0
 11
94.02026640082873
 21
289.731323246597
 31
0.0
 11
94.2614561626624
 21
289.8157330147952
 31
0.0
 11
94.50967800305237
 21
289.8764320658806
 31
0.0
 11
94.76249612940023
 21
289.9128989856047
 31
0.0
 11
95.01764805947197
 21
289.9248791788479
 31
0.0
 11
95.27221998559992
 21
289.9122609609588
 31
0.0
 11
95.52439160766457
 21
289.8751694013421
 31
0.0
 11
95.77097174532659
 21
289.8140430667011
 31
0.0
 11
96.01043505391381
 21
289.7292364695811
 31
0.0
 11
96.23972581039595
 21
289.6217171548529
 31
0.0
 11
96.45736780149787
 21
289.4922239625845
 31
0.0
 11
96.66089620046934
 21
289.3421241474009
 31
0.0
 11
96.84860355548176
 21
289.1726654175368
 31
0.0
 11
97.01874111032967
 21
288.9852157308188
 31
0.0
 11
97.16950179813405
 21
288.7818435180797
 31
0.0
 11
97.29981308640377
 21
288.5638809400691
 31
0.0
 11
97.40803569913135
 21
288.3341685024299
 31
0.0
 11
97.49345810515416
 21
288.094109298631
 31
0.0
 11
97.55501731639929
 21
287.846777738327
 31
0.0
 11
97.59226809110399
 21
287.5939464689173
 31
0.0
 11
97.604717655
 21
287.3389483405
 31
0.0
  0
SPLINE
  5
114
330
1F
100
AcDbEntity
  8
RUNDUNGEN
  6
Continuous
 62
     7
100
AcDbSpline
210
0.0
220
0.0
230
1.0
 70
     8
 71
     3
 72
    15
 73
    11
 74
     9
 42
0.0000000001
 43
0.0000000001
 44
0.00000001
 40
0.0
 40
0.0
 40
0.0
 40
0.0
 40
0.0864708478950697
 40
0.172997573578422
 40
0.2608622577331201
 40
0.3487164648849378
 40
0.4392125794509009
 40
0.5297191468541896
 40
0.623205822662976
 40
0.7163622618421251
 40
0.7163622618421251
 40
0.7163622618421251
 40
0.7163622618421251
 10
86.8314304355
 20
282.4339483405
 30
0.0
 10
86.81598449983885
 20
282.4095952808768
 30
0.0
 10
86.7850826472946
 20
282.3608734245912
 30
0.0
 10
86.7311625371028
 20
282.2924556166937
 30
0.0
 10
86.67082301131249
 20
282.2289947249919
 30
0.0
 10
86.6022497363426
 20
282.1723004913508
 30
0.0
 10
86.52558189476626
 20
282.1251429709929
 30
0.0
 10
86.4403509211152
 20
282.0908658042126
 30
0.0
 10
86.34892637241217
 20
282.0721721648322
 30
0.0
 10
86.28658490655391
 20
282.0751962703758
 30
0.0
 10
86.2554693255
 20
282.0767056478
 30
0.0
 11
86.8314304355
 21
282.4339483405
 31
0.0
 11
86.78387924590056
 21
282.3617258239046
 31
0.0
 11
86.73043499966462
 21
282.2936774087743
 31
0.0
 11
86.6696124670665
 21
282.230267454903
 31
0.0
 11
86.601736855445
 21
282.1744887577034
 31
0.0
 11
86.52443812450575
 21
282.1274307833875
 31
0.0
 11
86.44041404703324
 21
282.0937945953154
 31
0.0
 11
86.34862357543427
 21
282.0760669931816
 31
0.0
 11
86.2554693255
 21
282.0767056478
 31
0.0
  0
SPLINE
  5
115
330
1F
100
AcDbEntity
  8
RUNDUNGEN
  6
Continuous
 62
     7
100
AcDbSpline
210
0.0
220
0.0
230
1.0
 70
     8
 71
     3
 72
    11
 73
     7
 74
     5
 42
0.0000000001
 43
0.0000000001
 44
0.00000001
 40
0.0
 40
0.0
 40
0.0
 40
0.0
 40
0.2750623373348286
 40
0.5511071089947746
 40
0.8235221051669879
 40
1.095557809850868
 40
1.095557809850868
 40
1.095557809850868
 40
1.095557809850868
 10
87.15546932550001
 20
283.4670643696
 30
0.0
 10
87.15057499912065
 20
283.3752819078952
 30
0.0
 10
87.14076886540006
 20
283.191389167011
 30
0.0
 10
87.0692456775783
 20
282.9246861493774
 30
0.0
 10
86.96694290864411
 20
282.6703212827137
 30
0.0
 10
86.87658027617718
 20
282.5127027195895
 30
0.0
 10
86.8314304355
 20
282.4339483405
 30
0.0
 11
87.15546932550001
 21
283.4670643696
 31
0.0
 11
87.13130580933945
 21
283.1930654391151
 31
0.0
 11
87.06367396245352
 21
282.9254338840855
 31
0.0
 11
86.96126821771117
 21
282.672999746966
 31
0.0
 11
86.8314304355
 21
282.4339483405
 31
0.0
  0
SPLINE
  5
116
330
1F
100
AcDbEntity
  8
RUNDUNGEN
  6
Continuous
 62
     7
100
AcDbSpline
210
0.0
220
0.0
230
1.0
 70
     8
 71
     3
 72
    15
 73
    11
 74
     9
 42
0.0000000001
 43
0.0000000001
 44
0.00000001
 40
0.0
 40
0.0
 40
0.0
 40
0.0
 40
0.0931623162077442
 40
0.1866550545183982
 40
0.2771610325901012
 40
0.3676563365104043
 40
0.4555076254496929
 40
0.5433695151855129
 40
0.6298939392566097
 40
0.7163624469272666
 40
0.7163624469272666
 40
0.7163624469272666
 40
0.7163624469272666
 10
86.2554693255
 20
292.6011910332
 30
0.0
 10
86.28658689572883
 20
292.6027002971852
 30
0.0
 10
86.3489324019804
 20
292.6057241781158
 30
0.0
 10
86.44036033931623
 20
292.5870276787273
 30
0.0
 10
86.52559226809375
 20
292.5527489358975
 30
0.0
 10
86.60225844182553
 20
292.5055913852067
 30
0.0
 10
86.67082899735385
 20
292.4488972639293
 30
0.0
 10
86.73116565912144
 20
292.385437379533
 30
0.0
 10
86.78508389075434
 20
292.3170212851934
 30
0.0
 10
86.81598491662473
 20
292.268300739427
 30
0.0
 10
86.8314304355
 20
292.2439483405
 30
0.0
 11
86.2554693255
 21
292.6011910332
 31
0.0
 11
86.34862945828387
 21
292.6018288583205
 31
0.0
 11
86.44042553940034
 21
292.5840983307344
 31
0.0
 11
86.52444858034906
 21
292.5504611391684
 31
0.0
 11
86.60174604914901
 21
292.5034026505745
 31
0.0
 11
86.66961846283735
 21
292.447624658244
 31
0.0
 11
86.73043815293431
 21
292.3842158499879
 31
0.0
 11
86.78388058657775
 21
292.3161689378824
 31
0.0
 11
86.8314304355
 21
292.2439483405
 31
0.0
  0
SPLINE
  5
117
330
1F
100
AcDbEntity
  8
RUNDUNGEN
  6
Continuous
 62
     7
100
AcDbSpline
210
0.0
220
0.0
230
1.0
 70
     8
 71
     3
 72
    11
 73
     7
 74
     5
 42
0.0000000001
 43
0.0000000001
 44
0.00000001
 40
0.0
 40
0.0
 40
0.0
 40
0.0
 40
0.2720357132257558
 40
0.544450717447371
 40
0.8204954810870133
 40
1.095557810886426
 40
1.095557810886426
 40
1.095557810886426
 40
1.095557810886426
 10
86.8314304355
 20
292.2439483405
 30
0.0
 10
86.87658027795527
 20
292.1651939591642
 30
0.0
 10
86.96694291389714
 20
292.0075753916903
 30
0.0
 10
87.06924568563514
 20
291.7532105228452
 30
0.0
 10
87.14076886785546
 20
291.4865075062792
 30
0.0
 10
87.15057499993543
 20
291.3026147705888
 30
0.0
 10
87.15546932550001
 20
291.2108323114
 30
0.0
 11
86.8314304355
 21
292.2439483405
 31
0.0
 11
86.96126822297141
 21
292.0048969271706
 31
0.0
 11
87.06367397110472
 21
291.7524627827402
 31
0.0
 11
87.13130581252099
 21
291.4848312346008
 31
0.0
 11
87.15546932550001
 21
291.2108323114
 31
0.0
  0
SPLINE
  5
118
330
1F
100
AcDbEntity
  8
0
  6
Continuous
 62
     7
100
AcDbSpline
210
0.0
220
0.0
230
1.0
 70
     8
 71
     3
 72
    25
 73
    21
 74
    19
 42
0.0000000001
 43
0.0000000001
 44
0.00000001
 40
0.0
 40
0.0
 40
0.0
 40
0.0
 40
0.0515355898154874
 40
0.1032261445220005
 40
0.1471729976238002
 40
0.1906825403130851
 40
0.2104686839112443
 40
0.2302602713064794
 40
0.2498850527500562
 40
0.2695082948496765
 40
0.3114337744672762
 40
0.3537000625123712
 40
0.4018001484183595
 40
0.4498049386122404
 40
0.503223694228845
 40
0.5566554561715787
 40
0.6141450523772009
 40
0.6716326391986844
 40
0.7320826682430951
 40
0.7925231051815789
 40
0.7925231051815789
 40
0.7925231051815789
 40
0.7925231051815789
 10
84.0554693255
 20
292.4812315544
 30
0.0
 10
84.05589028152647
 20
292.498423326865
 30
0.0
 10
84.05673345937271
 20
292.5328585665783
 30
0.0
 10
84.06590930078801
 20
292.5813348024662
 30
0.0
 10
84.08210882611901
 20
292.6250294540022
 30
0.0
 10
84.1019822166583
 20
292.655335873304
 30
0.0
 10
84.12199516922792
 20
292.6746061130419
 30
0.0
 10
84.13807762851707
 20
292.6861701385052
 30
0.0
 10
84.15567006863076
 20
292.6951486305379
 30
0.0
 10
84.18131720008782
 20
292.7040130119769
 30
0.0
 10
84.21604907662403
 20
292.7083776797094
 30
0.0
 10
84.26019118347845
 20
292.7047034447685
 30
0.0
 10
84.30514483551912
 20
292.6936029847016
 30
0.0
 10
84.3516424449463
 20
292.6754045999916
 30
0.0
 10
84.39782747453057
 20
292.6522084455726
 30
0.0
 10
84.44470312682014
 20
292.6237761058267
 30
0.0
 10
84.49076293709851
 20
292.5916226195
 30
0.0
 10
84.53673723257633
 20
292.5554523199721
 30
0.0
 10
84.58180161050123
 20
292.5166193124587
 30
0.0
 10
84.61089820132757
 20
292.488732593325
 30
0.0
 10
84.6254453424
 20
292.4747903401
 30
0.0
 11
84.0554693255
 21
292.4812315544
 31
0.0
 11
84.05812617261049
 21
292.5326986135841
 31
0.0
 11
84.06790278742302
 21
292.5834561868976
 31
0.0
 11
84.08368110732452
 21
292.6244728971342
 31
0.0
 11
84.10804000078167
 21
292.6605245907779
 31
0.0
 11
84.12229837425627
 21
292.6742428364509
 31
0.0
 11
84.13838455344623
 21
292.6857728742085
 31
0.0
 11
84.155846937236
 21
292.6947281630976
 31
0.0
 11
84.17438708293493
 21
292.7011573642893
 31
0.0
 11
84.21591661597546
 21
292.706905731588
 31
0.0
 11
84.25807074388187
 21
292.7038286216516
 31
0.0
 11
84.3048410313515
 21
292.6925965927088
 31
0.0
 11
84.34966972178877
 21
292.6754254426239
 31
0.0
 11
84.39747612904756
 21
292.6515903660217
 31
0.0
 11
84.44324362511571
 21
292.6240170186015
 31
0.0
 11
84.49043494814786
 21
292.5911836102746
 31
0.0
 11
84.53569643923856
 21
292.5557404154016
 31
0.0
 11
84.58144286082809
 21
292.5162249636995
 31
0.0
 11
84.6254453424
 21
292.4747903401
 31
0.0
  0
SPLINE
  5
119
330
1F
100
AcDbEntity
  8
0
  6
Continuous
 62
     7
100
AcDbSpline
210
0.0
220
0.0
230
1.0
 70
     8
 71
     3
 72
    25
 73
    21
 74
    19
 42
0.0000000001
 43
0.0000000001
 44
0.00000001
 40
0.0
 40
0.0
 40
0.0
 40
0.0
 40
0.060440672652138
 40
0.1208909375745863
 40
0.1783788230770004
 40
0.2358687180510288
 40
0.2893007099804771
 40
0.342719695411153
 40
0.390724744065552
 40
0.4388250889545177
 40
0.481091236467851
 40
0.5230165749513497
 40
0.5426397734648192
 40
0.5622645057240048
 40
0.5820559875392864
 40
0.6018420342442289
 40
0.6453512809536471
 40
0.6892978001784709
 40
0.7409879875035185
 40
0.7925232210499391
 40
0.7925232210499391
 40
0.7925232210499391
 40
0.7925232210499391
 10
84.6254453424
 20
282.2031063409
 30
0.0
 10
84.6108981436115
 20
282.1891640342762
 30
0.0
 10
84.5818014373133
 20
282.1612772083073
 30
0.0
 10
84.5367368498903
 20
282.1224440499481
 30
0.0
 10
84.49076231307124
 20
282.0862736072527
 30
0.0
 10
84.44470224029776
 20
282.0541200136579
 30
0.0
 10
84.39782632212142
 20
282.0256876225653
 30
0.0
 10
84.35164101487635
 20
282.0024914829931
 30
0.0
 10
84.30514309817382
 20
281.9842931919347
 30
0.0
 10
84.26018925780787
 20
281.9731929508912
 30
0.0
 10
84.21604713315696
 20
281.9695190080724
 30
0.0
 10
84.18131539418901
 20
281.9738839329403
 30
0.0
 10
84.15566841781074
 20
281.9827485283859
 30
0.0
 10
84.13807613617365
 20
281.9917271918112
 30
0.0
 10
84.12199391312096
 20
282.003291405147
 30
0.0
 10
84.10198136315066
 20
282.0225618178399
 30
0.0
 10
84.08210838068553
 20
282.0528681819389
 30
0.0
 10
84.06590915434967
 20
282.0965625808046
 30
0.0
 10
84.05673345404009
 20
282.1450384755407
 30
0.0
 10
84.05589027977803
 20
282.179473473272
 30
0.0
 10
84.0554693255
 20
282.1966651266
 30
0.0
 11
84.6254453424
 21
282.2031063409
 31
0.0
 11
84.58144268423946
 21
282.1616715609989
 31
0.0
 11
84.53569606974942
 21
282.1221559717727
 31
0.0
 11
84.49043432002058
 21
282.0867126227348
 31
0.0
 11
84.44324271436751
 21
282.0538790974899
 31
0.0
 11
84.3974749721926
 21
282.0263057128997
 31
0.0
 11
84.34966829412069
 21
282.002470664417
 31
0.0
 11
84.3048392930169
 21
281.9852996028206
 31
0.0
 11
84.2580686907908
 21
281.9740677754606
 31
0.0
 11
84.21591468224925
 21
281.9709909606306
 31
0.0
 11
84.17438533451562
 21
281.9767396373283
 31
0.0
 11
84.15584529098138
 21
281.9831690000998
 31
0.0
 11
84.13838305499843
 21
281.9921244694186
 31
0.0
 11
84.1222971244237
 21
282.0036546727989
 31
0.0
 11
84.10803901215229
 21
282.0173730502053
 31
0.0
 11
84.08368061747318
 21
282.0534247236461
 31
0.0
 11
84.06790260209159
 21
282.0944411932966
 31
0.0
 11
84.05812614414242
 21
282.1451984226898
 31
0.0
 11
84.0554693255
 21
282.1966651266
 31
0.0
  0
SPLINE
  5
11A
330
1F
100
AcDbEntity
  8
BEZUGSACHSEN
  6
Continuous
 62
     7
100
AcDbSpline
210
0.0
220
0.0
230
1.0
 70
     8
 71
     3
 72
    15
 73
    11
 74
     9
 42
0.0000000001
 43
0.0000000001
 44
0.00000001
 40
0.0
 40
0.0
 40
0.0
 40
0.0
 40
0.2002489395079547
 40
0.4005105765152811
 40
0.9586560729658302
 40
1.516836421086513
 40
2.336828142819069
 40
3.156973315793964
 40
4.120169472756919
 40
5.083000289855166
 40
5.083000289855166
 40
5.083000289855166
 40
5.083000289855166
 10
112.0054693255
 20
303.3389483405
 30
0.0
 10
111.9417011885469
 20
303.3192194996273
 30
0.0
 10
111.8141608711941
 20
303.2797605669041
 30
0.0
 10
111.5077156842797
 20
303.1891607126482
 30
0.0
 10
111.0845487263312
 20
303.0725789715013
 30
0.0
 10
110.4572970216575
 20
302.9200856866569
 30
0.0
 10
109.7387965089771
 20
302.7744961355123
 30
0.0
 10
108.880489958877
 20
302.645030174247
 30
0.0
 10
107.9685708946042
 20
302.5554328341507
 30
0.0
 10
107.3264625822699
 20
302.5435651903426
 30
0.0
 10
107.0054693255
 20
302.537632494
 30
0.0
 11
112.0054693255
 21
303.3389483405
 31
0.0
 11
111.8140430750438
 21
303.2801637471923
 31
0.0
 11
111.6220247034364
 21
303.2232983955089
 31
0.0
 11
111.0838542989634
 21
303.0753152513425
 31
0.0
 11
110.5414525833372
 21
302.9435363459215
 31
0.0
 11
109.7376765977705
 21
302.7812693168116
 31
0.0
 11
108.9267578045181
 21
302.6585957030874
 31
0.0
 11
107.9678157954827
 21
302.5681686048523
 31
0.0
 11
107.0054693255
 21
302.537632494
 31
0.0
  0
SPLINE
  5
11B
330
1F
100
AcDbEntity
  8
BEZUGSACHSEN
  6
Continuous
 62
     7
100
AcDbSpline
210
0.0
220
0.0
230
1.0
 70
     8
 71
     3
 72
    15
 73
    11
 74
     9
 42
0.0000000001
 43
0.0000000001
 44
0.00000001
 40
0.0
 40
0.0
 40
0.0
 40
0.0
 40
0.9628201223049894
 40
1.926005549752824
 40
2.746145156440186
 40
3.566131340632005
 40
4.124321693033997
 40
4.682477186114827
 40
4.882745115135497
 40
5.083000347109558
 40
5.083000347109558
 40
5.083000347109558
 40
5.083000347109558
 10
107.0054693255
 20
302.537632494
 30
0.0
 10
106.6844796351701
 20
302.5435649973986
 30
0.0
 10
106.0423784672917
 20
302.5554322550564
 30
0.0
 10
105.1304682535004
 20
302.6450274197753
 30
0.0
 10
104.272168746317
 20
302.7744913065393
 30
0.0
 10
103.5536683981784
 20
302.9200797768939
 30
0.0
 10
102.9264117585458
 20
303.0725731860433
 30
0.0
 10
102.5032362255668
 20
303.1891568165113
 30
0.0
 10
102.196783780803
 20
303.2797586733721
 30
0.0
 10
102.0692394628336
 20
303.3192188684353
 30
0.0
 10
102.0054693255
 20
303.3389483405
 30
0.0
 11
107.0054693255
 21
302.537632494
 31
0.0
 11
106.0431335276578
 21
302.568167721308
 31
0.0
 11
105.0842020905376
 21
302.6585926434838
 31
0.0
 11
104.2732886471664
 21
302.7812644080315
 31
0.0
 11
103.4695178496318
 21
302.9435291524957
 31
0.0
 11
102.9271062057514
 21
303.0753095687098
 31
0.0
 11
102.3889260140606
 21
303.2232948238129
 31
0.0
 11
102.1969015867663
 21
303.280161885602
 31
0.0
 11
102.0054693255
 21
303.3389483405
 31
0.0
  0
SPLINE
  5
11C
330
1F
100
AcDbEntity
  8
0
  6
Continuous
 62
     7
100
AcDbSpline
210
0.0
220
0.0
230
1.0
 70
     8
 71
     3
 72
    23
 73
    19
 74
    17
 42
0.0000000001
 43
0.0000000001
 44
0.00000001
 40
0.0
 40
0.0
 40
0.0
 40
0.0
 40
0.5071451101308547
 40
1.014414284659882
 40
1.490352341408843
 40
1.966249264088702
 40
2.411642089505085
 40
2.856896309152505
 40
3.282291174638388
 40
3.707501642496113
 40
4.132711653791447
 40
4.55810610342877
 40
5.003359793921735
 40
5.448751991760947
 40
5.924648293946392
 40
6.400585823012466
 40
6.907854660910028
 40
7.414999390776491
 40
7.414999390776491
 40
7.414999390776491
 40
7.414999390776491
 10
176.7554693255
 20
294.8280479855
 30
0.0
 10
176.8689445136095
 20
294.9533984384502
 30
0.0
 10
177.0959226495971
 20
295.2041300092
 30
0.0
 10
177.4041457231217
 20
295.5942587533665
 30
0.0
 10
177.6816604688341
 20
295.994109286455
 30
0.0
 10
177.9160593121204
 20
296.3972853966733
 30
0.0
 10
178.1079794876616
 20
296.8111770010553
 30
0.0
 10
178.2488105921933
 20
297.2277504957232
 30
0.0
 10
178.3353294629596
 20
297.6521111400376
 30
0.0
 10
178.3655373457051
 20
298.0776650927804
 30
0.0
 10
178.3353283535062
 20
298.5032188168426
 30
0.0
 10
178.2488089587959
 20
298.9275788363649
 30
0.0
 10
178.1079784744954
 20
299.3441519516663
 30
0.0
 10
177.9160590365156
 20
299.7580432722789
 30
0.0
 10
177.6816599848055
 20
300.1612186066733
 30
0.0
 10
177.4041449094025
 20
300.5610682883573
 30
0.0
 10
177.0959222659978
 20
300.9511968281162
 30
0.0
 10
176.8689443824925
 20
301.2019283074537
 30
0.0
 10
176.7554693255
 20
301.3272787093
 30
0.0
 11
176.7554693255
 21
294.8280479855
 31
0.0
 11
177.0915997237136
 21
295.2078012187007
 31
0.0
 11
177.406276450476
 21
295.6056712641446
 31
0.0
 11
177.6763291402644
 21
295.997575051572
 31
0.0
 11
177.9144611936457
 21
296.409607824745
 31
0.0
 11
178.1005528544158
 21
296.8142615813372
 31
0.0
 11
178.2417716574879
 21
297.2365275754366
 31
0.0
 11
178.3261750152074
 21
297.653465058505
 31
0.0
 11
178.3554693220821
 21
298.0776652300756
 31
0.0
 11
178.3261740023453
 21
298.5018648740491
 31
0.0
 11
178.241770203687
 21
298.9188018435713
 31
0.0
 11
178.1005518417341
 21
299.3410674272327
 31
0.0
 11
177.9144607618357
 21
299.745720760196
 31
0.0
 11
177.6763286657104
 21
300.1577527919954
 31
0.0
 11
177.4062758147087
 21
300.5496558275021
 31
0.0
 11
177.091599327397
 21
300.947525633136
 31
0.0
 11
176.7554693255
 21
301.3272787093
 31
0.0
  0
SPLINE
  5
11D
330
1F
100
AcDbEntity
  8
0
  6
Continuous
 62
     7
100
AcDbSpline
210
0.0
220
0.0
230
1.0
 70
     8
 71
     3
 72
    23
 73
    19
 74
    17
 42
0.0000000001
 43
0.0000000001
 44
0.00000001
 40
0.0
 40
0.0
 40
0.0
 40
0.0
 40
0.5071451100853105
 40
1.014414284629273
 40
1.490352341369248
 40
1.966249264037
 40
2.411642089471871
 40
2.856896309148618
 40
3.282291174645643
 40
3.707501642491062
 40
4.132711653753562
 40
4.558106103358404
 40
5.003359793838539
 40
5.448751991687717
 40
5.924648293899148
 40
6.400585822976128
 40
6.9078546608489
 40
7.414999390695401
 40
7.414999390695401
 40
7.414999390695401
 40
7.414999390695401
 10
176.7554693255
 20
273.3506179717
 30
0.0
 10
176.8689445136131
 20
273.4759684246268
 30
0.0
 10
177.0959226496215
 20
273.7266999953447
 30
0.0
 10
177.4041457231106
 20
274.1168287395234
 30
0.0
 10
177.6816604688339
 20
274.5166792726006
 30
0.0
 10
177.9160593121286
 20
274.919855382814
 30
0.0
 10
178.1079794876633
 20
275.3337469872125
 30
0.0
 10
178.2488105921905
 20
275.7503204819023
 30
0.0
 10
178.335329462958
 20
276.1746811262258
 30
0.0
 10
178.3655373457053
 20
276.6002350789571
 30
0.0
 10
178.3353283535066
 20
277.0257888029935
 30
0.0
 10
178.2488089587931
 20
277.4501488224888
 30
0.0
 10
178.1079784744911
 20
277.8667219377767
 30
0.0
 10
177.9160590365117
 20
278.2806132583977
 30
0.0
 10
177.6816599848092
 20
278.6837885928143
 30
0.0
 10
177.4041449094151
 20
279.0836382745102
 30
0.0
 10
177.0959222659945
 20
279.4737668142427
 30
0.0
 10
176.8689443824918
 20
279.7244982935621
 30
0.0
 10
176.7554693255
 20
279.8498486954
 30
0.0
 11
176.7554693255
 21
273.3506179717
 31
0.0
 11
177.0915997237136
 21
273.7303712048399
 31
0.0
 11
177.406276450476
 21
274.1282412503028
 31
0.0
 11
177.6763291402644
 21
274.5201450377193
 31
0.0
 11
177.9144611936457
 21
274.9321778108783
 31
0.0
 11
178.1005528544158
 21
275.3368315674909
 31
0.0
 11
178.2417716574879
 21
275.7590975616212
 31
0.0
 11
178.3261750152074
 21
276.1760350447009
 31
0.0
 11
178.3554693220821
 21
276.6002352162592
 31
0.0
 11
178.3261740023453
 21
277.0244348601998
 31
0.0
 11
178.241770203687
 21
277.4413718296888
 31
0.0
 11
178.1005518417341
 21
277.8636374133367
 31
0.0
 11
177.9144607618357
 21
278.268290746311
 31
0.0
 11
177.6763286657104
 21
278.6803227781404
 31
0.0
 11
177.4062758147087
 21
279.0722258136604
 31
0.0
 11
177.091599327397
 21
279.4700956192626
 31
0.0
 11
176.7554693255
 21
279.8498486954
 31
0.0
  0
SPLINE
  5
11E
330
1F
100
AcDbEntity
  8
0
  6
Continuous
 62
     7
100
AcDbSpline
210
0.0
220
0.0
230
1.0
 70
     8
 71
     3
 72
    23
 73
    19
 74
    17
 42
0.0000000001
 43
0.0000000001
 44
0.00000001
 40
0.0
 40
0.0
 40
0.0
 40
0.0
 40
0.8363793884308901
 40
1.672871723131665
 40
2.509588730596201
 40
3.346271526962159
 40
4.182913790975039
 40
5.019548542521417
 40
5.85637624742701
 40
6.693185900144673
 40
7.529994614691697
 40
8.366821408477449
 40
9.203455318641216
 40
10.0400966782886
 40
10.87677803846604
 40
11.71349366967708
 40
12.54998544986019
 40
13.3863642551337
 40
13.3863642551337
 40
13.3863642551337
 40
13.3863642551337
 10
176.7554693255
 20
280.8876403336
 30
0.0
 10
176.8695971267054
 20
281.1420394789845
 30
0.0
 10
177.0978681411522
 20
281.6508721242999
 30
0.0
 10
177.4023960133567
 20
282.4303777136745
 30
0.0
 10
177.6736305455162
 20
283.2221032303771
 30
0.0
 10
177.9044353410739
 20
284.0267422428765
 30
0.0
 10
178.090572382775
 20
284.8428918251334
 30
0.0
 10
178.2276785420852
 20
285.6688344473836
 30
0.0
 10
178.3114353403451
 20
286.5019872465437
 30
0.0
 10
178.3399865112668
 20
287.338951771299
 30
0.0
 10
178.3114341363108
 20
288.1759159444388
 30
0.0
 10
178.2276768283053
 20
289.0090677667066
 30
0.0
 10
178.0905713990813
 20
289.8350095945401
 30
0.0
 10
177.9044351274129
 20
290.6511582826381
 30
0.0
 10
177.6736299904284
 20
291.455795925391
 30
0.0
 10
177.4023950516369
 20
292.2475201027737
 30
0.0
 10
177.0978677214483
 20
293.0270249949274
 30
0.0
 10
176.8695969855041
 20
293.5358573509963
 30
0.0
 10
176.7554693255
 20
293.7902563474
 30
0.0
 11
176.7554693255
 21
280.8876403336
 31
0.0
 11
177.0915347881117
 21
281.6535322882722
 31
0.0
 11
177.3968153886434
 21
282.4323282698696
 31
0.0
 11
177.6668928223357
 21
283.2242585258837
 31
0.0
 11
177.8969952601091
 21
284.0286781737451
 31
0.0
 11
178.0823998777992
 21
284.8445184802217
 31
0.0
 11
178.2187772470584
 21
285.6699631607721
 31
0.0
 11
178.302233802348
 21
286.5026189186197
 31
0.0
 11
178.3304693221085
 21
287.3389520761026
 31
0.0
 11
178.3022327115655
 21
288.1752842580536
 31
0.0
 11
178.2187757430734
 21
289.0079390588011
 31
0.0
 11
178.0823988900976
 21
289.8333829718614
 31
0.0
 11
177.8969948098148
 21
290.6492224730423
 31
0.0
 11
177.6668922700253
 21
291.4536405979318
 31
0.0
 11
177.396814695476
 21
292.2455693518223
 31
0.0
 11
177.0915343603491
 21
293.0243648418572
 31
0.0
 11
176.7554693255
 21
293.7902563474
 31
0.0
  0
SPLINE
  5
11F
330
1F
100
AcDbEntity
  8
1
  6
Continuous
 62
     7
100
AcDbSpline
210
0.0
220
0.0
230
1.0
 70
     8
 71
     3
 72
    15
 73
    11
 74
     9
 42
0.0000000001
 43
0.0000000001
 44
0.00000001
 40
0.0
 40
0.0
 40
0.0
 40
0.0
 40
2.440360796682471
 40
4.880721593582054
 40
6.102067076908302
 40
7.323405695873213
 40
8.544707632349601
 40
9.76609036112796
 40
11.58331085687994
 40
13.39902450277745
 40
13.39902450277745
 40
13.39902450277745
 40
13.39902450277745
 10
169.5054693255
 20
293.7902563474
 30
0.0
 10
169.166539366442
 20
293.0485828342904
 30
0.0
 10
168.4886794482958
 20
291.565235808005
 30
0.0
 10
168.0677525173706
 20
289.5578290824219
 30
0.0
 10
167.9250120298947
 20
287.9357943458195
 30
0.0
 10
167.9268695035794
 20
286.7126479956108
 30
0.0
 10
168.0342065729358
 20
285.4943444236102
 30
0.0
 10
168.2844959143882
 20
284.0955825928931
 30
0.0
 10
168.7284936052179
 20
282.5320172938306
 30
0.0
 10
169.2465490442016
 20
281.4356144002141
 30
0.0
 10
169.5054693255
 20
280.8876403336
 30
0.0
 11
169.5054693255
 21
293.7902563474
 31
0.0
 11
168.5739751154238
 21
291.5346678754975
 31
0.0
 11
168.0483112231107
 21
289.1515945884661
 31
0.0
 11
167.9431725638945
 21
287.9347829136456
 31
0.0
 11
167.9444496800116
 21
286.7134449624013
 31
0.0
 11
168.0521932720504
 21
285.4969048938398
 31
0.0
 11
168.2655462665734
 21
284.2943009399605
 31
0.0
 11
168.775112691827
 21
282.5499866367355
 31
0.0
 11
169.5054693255
 21
280.8876403336
 31
0.0
  0
DIMENSION
  5
12A
330
1F
100
AcDbEntity
  8
1
100
AcDbDimension
  2
*D2
 10
169.4054693255
 20
336.58298551011
 30
0.0
 11
127.9451890845023
 21
340.33298551011
 31
0.0
 70
    32
  1
<>
 71
     5
 42
-1.0
 53
0.00013888888889
  3
ME10_DIM_10
100
AcDbAlignedDimension
 13
84.0554693255
 23
298.1354525753
 33
0.0
 14
169.4054693255
 24
298.3389483405
 34
0.0
100
AcDbRotatedDimension
  0
DIMENSION
  5
135
330
1F
100
AcDbEntity
  8
1
100
AcDbDimension
  2
*D3
 10
169.4054693255
 20
320.051478594607
 30
0.0
 11
134.510721217175
 21
323.801478594607
 31
0.0
 70
    32
  1
<>
 71
     5
 42
-1.0
 53
0.00013888888889
  3
ME10_DIM_11
100
AcDbAlignedDimension
 13
100.0054693255
 23
303.3389483405
 33
0.0
 14
169.4054693255
 24
298.3389483405
 34
0.0
100
AcDbRotatedDimension
  0
DIMENSION
  5
140
330
1F
100
AcDbEntity
  8
1
100
AcDbDimension
  2
*D4
 10
169.4054693255
 20
312.320917806782
 30
0.0
 11
143.4568628210466
 21
316.070917806782
 31
0.0
 70
    32
  1
<>
 71
     5
 42
-1.0
 53
0.00013888888889
  3
ME10_DIM_12
100
AcDbAlignedDimension
 13
120.0054693255
 23
303.3388847053
 33
0.0
 14
169.4054693255
 24
298.3389483405
 34
0.0
100
AcDbRotatedDimension
  0
DIMENSION
  5
14B
330
1F
100
AcDbEntity
  8
1
100
AcDbDimension
  2
*D5
 10
192.339747353542
 20
295.3389483405
 30
0.0
 11
188.589747353542
 21
287.843360858947
 31
0.0
 70
    32
  1
<>
 71
     5
 42
-1.0
 53
90.0
  3
ME10_DIM_13
100
AcDbAlignedDimension
 13
169.4054693255
 23
279.3389483405
 33
0.0
 14
169.4054693255
 24
295.3389483405
 34
0.0
 50
90.0
100
AcDbRotatedDimension
  0
DIMENSION
  5
156
330
1F
100
AcDbEntity
  8
1
100
AcDbDimension
  2
*D6
 10
201.847815094358
 20
301.3272787093
 30
0.0
 11
198.097815094358
 21
287.41411034494
 31
0.0
 70
    32
  1
<>
 71
     5
 42
-1.0
 53
90.0
  3
ME10_DIM_14
100
AcDbAlignedDimension
 13
176.7554693255
 23
273.3506179717
 33
0.0
 14
176.7554693255
 24
301.3272787093
 34
0.0
 50
90.0
100
AcDbRotatedDimension
  0
DIMENSION
  5
161
330
1F
100
AcDbEntity
  8
1
100
AcDbDimension
  2
*D7
 10
180.0054693255
 20
329.099087578834
 30
0.0
 11
138.724849568747
 21
332.849087578834
 31
0.0
 70
    32
  1
<>
 71
     5
 42
-1.0
 53
0.00013888888889
  3
ME10_DIM_15
100
AcDbAlignedDimension
 13
100.0054693255
 23
303.3389483405
 33
0.0
 14
180.0054693255
 24
298.0889483405
 34
0.0
100
AcDbRotatedDimension
  0
INSERT
  5
168
330
1F
100
AcDbEntity
  8
1
100
AcDbBlockReference
  2
*D8
 10
0.0
 20
0.0
 30
0.0
  0
ENDSEC
  0
SECTION
  2
OBJECTS
  0
DICTIONARY
  5
C
330
0
100
AcDbDictionary
281
     1
  3
ACAD_GROUP
350
D
  3
ACAD_LAYOUT
350
1A
  3
ACAD_MLEADERSTYLE
350
16B
  3
ACAD_MLINESTYLE
350
17
  3
ACAD_PLOTSETTINGS
350
19
  3
ACAD_PLOTSTYLENAME
350
E
  3
ACAD_SCALELIST
350
4D
  3
ACAD_VISUALSTYLE
350
2A
  3
AcDbVariableDictionary
350
169
  0
DICTIONARY
  5
D
102
{ACAD_REACTORS
330
C
102
}
330
C
100
AcDbDictionary
281
     1
  0
DICTIONARY
  5
1A
102
{ACAD_REACTORS
330
C
102
}
330
C
100
AcDbDictionary
281
     1
  3
Layout1
350
1E
  3
Layout2
350
26
  3
Model
350
22
  0
DICTIONARY
  5
16B
102
{ACAD_REACTORS
330
C
102
}
330
C
100
AcDbDictionary
281
     1
  0
DICTIONARY
  5
17
102
{ACAD_REACTORS
330
C
102
}
330
C
100
AcDbDictionary
281
     1
  3
Standard
350
18
  0
DICTIONARY
  5
19
102
{ACAD_REACTORS
330
C
102
}
330
C
100
AcDbDictionary
281
     1
  0
ACDBDICTIONARYWDFLT
  5
E
102
{ACAD_REACTORS
330
C
102
}
330
C
100
AcDbDictionary
281
     1
  3
Normal
350
F
100
AcDbDictionaryWithDefault
340
F
  0
DICTIONARY
  5
4D
102
{ACAD_REACTORS
330
C
102
}
330
C
100
AcDbDictionary
281
     1
  3
A0
350
4E
  3
A1
350
4F
  3
A2
350
50
  3
A3
350
51
  3
A4
350
52
  3
A5
350
53
  3
A6
350
54
  3
A7
350
55
  3
A8
350
56
  3
A9
350
57
  3
B0
350
58
  3
B1
350
59
  3
B2
350
5A
  3
B3
350
5B
  3
B4
350
5C
  3
B5
350
5D
  3
B6
350
5E
  3
B7
350
5F
  3
B8
350
60
  3
B9
350
61
  3
C0
350
62
  3
C1
350
63
  3
C2
350
64
  3
C3
350
65
  3
C4
350
66
  3
C5
350
67
  3
C6
350
68
  3
C7
350
69
  3
C8
350
6A
  3
C9
350
6B
  3
D0
350
6C
  3
D1
350
6D
  3
D2
350
6E
  0
DICTIONARY
  5
2A
102
{ACAD_REACTORS
330
C
102
}
330
C
100
AcDbDictionary
281
     1
  3
2dWireframe
350
2F
  3
3D Hidden
350
31
  3
3dWireframe
350
30
  3
Basic
350
32
  3
Brighten
350
36
  3
ColorChange
350
3A
  3
Conceptual
350
34
  3
Dim
350
35
  3
Facepattern
350
39
  3
Flat
350
2B
  3
FlatWithEdges
350
2C
  3
Gouraud
350
2D
  3
GouraudWithEdges
350
2E
  3
Linepattern
350
38
  3
Realistic
350
33
  3
Thicken
350
37
  0
DICTIONARY
  5
169
102
{ACAD_REACTORS
330
C
102
}
330
C
100
AcDbDictionary
281
     1
  3
CANNOSCALE
350
16C
  0
LAYOUT
  5
1E
102
{ACAD_REACTORS
330
1A
102
}
330
1A
100
AcDbPlotSettings
  1

  2
none_device
  4

  6

 40
0.0
 41
0.0
 42
0.0
 43
0.0
 44
0.0
 45
0.0
 46
0.0
 47
0.0
 48
0.0
 49
0.0
140
0.0
141
0.0
142
1.0
143
1.0
 70
   688
 72
     0
 73
     0
 74
     5
  7

 75
    16
147
1.0
148
0.0
149
0.0
100
AcDbLayout
  1
Layout1
 70
     1
 71
     1
 10
0.0
 20
0.0
 11
12.0
 21
9.0
 12
0.0
 22
0.0
 32
0.0
 14
1.00000000000000E+20
 24
1.00000000000000E+20
 34
1.00000000000000E+20
 15
-1.00000000000000E+20
 25
-1.00000000000000E+20
 35
-1.00000000000000E+20
146
0.0
 13
0.0
 23
0.0
 33
0.0
 16
1.0
 26
0.0
 36
0.0
 17
0.0
 27
1.0
 37
0.0
 76
     0
330
1B
  0
LAYOUT
  5
26
102
{ACAD_REACTORS
330
1A
102
}
330
1A
100
AcDbPlotSettings
  1

  2
none_device
  4

  6

 40
0.0
 41
0.0
 42
0.0
 43
0.0
 44
0.0
 45
0.0
 46
0.0
 47
0.0
 48
0.0
 49
0.0
140
0.0
141
0.0
142
1.0
143
1.0
 70
   688
 72
     0
 73
     0
 74
     5
  7

 75
    16
147
1.0
148
0.0
149
0.0
100
AcDbLayout
  1
Layout2
 70
     1
 71
     2
 10
0.0
 20
0.0
 11
0.0
 21
0.0
 12
0.0
 22
0.0
 32
0.0
 14
0.0
 24
0.0
 34
0.0
 15
0.0
 25
0.0
 35
0.0
146
0.0
 13
0.0
 23
0.0
 33
0.0
 16
1.0
 26
0.0
 36
0.0
 17
0.0
 27
1.0
 37
0.0
 76
     0
330
23
  0
LAYOUT
  5
22
102
{ACAD_REACTORS
330
1A
102
}
330
1A
100
AcDbPlotSettings
  1

  2
none_device
  4

  6

 40
0.0
 41
0.0
 42
0.0
 43
0.0
 44
0.0
 45
0.0
 46
0.0
 47
0.0
 48
0.0
 49
0.0
140
0.0
141
0.0
142
1.0
143
1.0
 70
  1712
 72
     0
 73
     0
 74
     0
  7

 75
     0
147
1.0
148
0.0
149
0.0
100
AcDbLayout
  1
Model
 70
     1
 71
     0
 10
0.0
 20
0.0
 11
12.0
 21
9.0
 12
0.0
 22
0.0
 32
0.0
 14
63.320978025062
 24
247.7829920772068
 34
0.0
 15
203.847815094358
 25
356.552378994513
 35
0.0
146
0.0
 13
0.0
 23
0.0
 33
0.0
 16
1.0
 26
0.0
 36
0.0
 17
0.0
 27
1.0
 37
0.0
 76
     0
330
1F
331
29
  0
MLINESTYLE
  5
18
102
{ACAD_REACTORS
330
17
102
}
330
17
100
AcDbMlineStyle
  2
Standard
 70
     0
  3

 62
   256
 51
90.0
 52
90.0
 71
     2
 49
0.5
 62
   256
  6
BYLAYER
 49
-0.5
 62
   256
  6
BYLAYER
  0
ACDBPLACEHOLDER
  5
F
102
{ACAD_REACTORS
330
E
102
}
330
E
  0
SCALE
  5
4E
102
{ACAD_REACTORS
330
4D
102
}
330
4D
100
AcDbScale
 70
     0
300
1:1
140
1.0
141
1.0
290
     1
  0
SCALE
  5
4F
102
{ACAD_REACTORS
330
4D
102
}
330
4D
100
AcDbScale
 70
     0
300
1:2
140
1.0
141
2.0
290
     0
  0
SCALE
  5
50
102
{ACAD_REACTORS
330
4D
102
}
330
4D
100
AcDbScale
 70
     0
300
1:4
140
1.0
141
4.0
290
     0
  0
SCALE
  5
51
102
{ACAD_REACTORS
330
4D
102
}
330
4D
100
AcDbScale
 70
     0
300
1:5
140
1.0
141
5.0
290
     0
  0
SCALE
  5
52
102
{ACAD_REACTORS
330
4D
102
}
330
4D
100
AcDbScale
 70
     0
300
1:8
140
1.0
141
8.0
290
     0
  0
SCALE
  5
53
102
{ACAD_REACTORS
330
4D
102
}
330
4D
100
AcDbScale
 70
     0
300
1:10
140
1.0
141
10.0
290
     0
  0
SCALE
  5
54
102
{ACAD_REACTORS
330
4D
102
}
330
4D
100
AcDbScale
 70
     0
300
1:16
140
1.0
141
16.0
290
     0
  0
SCALE
  5
55
102
{ACAD_REACTORS
330
4D
102
}
330
4D
100
AcDbScale
 70
     0
300
1:20
140
1.0
141
20.0
290
     0
  0
SCALE
  5
56
102
{ACAD_REACTORS
330
4D
102
}
330
4D
100
AcDbScale
 70
     0
300
1:30
140
1.0
141
30.0
290
     0
  0
SCALE
  5
57
102
{ACAD_REACTORS
330
4D
102
}
330
4D
100
AcDbScale
 70
     0
300
1:40
140
1.0
141
40.0
290
     0
  0
SCALE
  5
58
102
{ACAD_REACTORS
330
4D
102
}
330
4D
100
AcDbScale
 70
     0
300
1:50
140
1.0
141
50.0
290
     0
  0
SCALE
  5
59
102
{ACAD_REACTORS
330
4D
102
}
330
4D
100
AcDbScale
 70
     0
300
1:100
140
1.0
141
100.0
290
     0
  0
SCALE
  5
5A
102
{ACAD_REACTORS
330
4D
102
}
330
4D
100
AcDbScale
 70
     0
300
2:1
140
2.0
141
1.0
290
     0
  0
SCALE
  5
5B
102
{ACAD_REACTORS
330
4D
102
}
330
4D
100
AcDbScale
 70
     0
300
4:1
140
4.0
141
1.0
290
     0
  0
SCALE
  5
5C
102
{ACAD_REACTORS
330
4D
102
}
330
4D
100
AcDbScale
 70
     0
300
8:1
140
8.0
141
1.0
290
     0
  0
SCALE
  5
5D
102
{ACAD_REACTORS
330
4D
102
}
330
4D
100
AcDbScale
 70
     0
300
10:1
140
10.0
141
1.0
290
     0
  0
SCALE
  5
5E
102
{ACAD_REACTORS
330
4D
102
}
330
4D
100
AcDbScale
 70
     0
300
100:1
140
100.0
141
1.0
290
     0
  0
SCALE
  5
5F
102
{ACAD_REACTORS
330
4D
102
}
330
4D
100
AcDbScale
 70
     0
300
1/128" = 1'-0"
140
0.0078125
141
12.0
290
     0
  0
SCALE
  5
60
102
{ACAD_REACTORS
330
4D
102
}
330
4D
100
AcDbScale
 70
     0
300
1/64" = 1'-0"
140
0.015625
141
12.0
290
     0
  0
SCALE
  5
61
102
{ACAD_REACTORS
330
4D
102
}
330
4D
100
AcDbScale
 70
     0
300
1/32" = 1'-0"
140
0.03125
141
12.0
290
     0
  0
SCALE
  5
62
102
{ACAD_REACTORS
330
4D
102
}
330
4D
100
AcDbScale
 70
     0
300
1/16" = 1'-0"
140
0.0625
141
12.0
290
     0
  0
SCALE
  5
63
102
{ACAD_REACTORS
330
4D
102
}
330
4D
100
AcDbScale
 70
     0
300
3/32" = 1'-0"
140
0.09375
141
12.0
290
     0
  0
SCALE
  5
64
102
{ACAD_REACTORS
330
4D
102
}
330
4D
100
AcDbScale
 70
     0
300
1/8" = 1'-0"
140
0.125
141
12.0
290
     0
  0
SCALE
  5
65
102
{ACAD_REACTORS
330
4D
102
}
330
4D
100
AcDbScale
 70
     0
300
3/16" = 1'-0"
140
0.1875
141
12.0
290
     0
  0
SCALE
  5
66
102
{ACAD_REACTORS
330
4D
102
}
330
4D
100
AcDbScale
 70
     0
300
1/4" = 1'-0"
140
0.25
141
12.0
290
     0
  0
SCALE
  5
67
102
{ACAD_REACTORS
330
4D
102
}
330
4D
100
AcDbScale
 70
     0
300
3/8" = 1'-0"
140
0.375
141
12.0
290
     0
  0
SCALE
  5
68
102
{ACAD_REACTORS
330
4D
102
}
330
4D
100
AcDbScale
 70
     0
300
1/2" = 1'-0"
140
0.5
141
12.0
290
     0
  0
SCALE
  5
69
102
{ACAD_REACTORS
330
4D
102
}
330
4D
100
AcDbScale
 70
     0
300
3/4" = 1'-0"
140
0.75
141
12.0
290
     0
  0
SCALE
  5
6A
102
{ACAD_REACTORS
330
4D
102
}
330
4D
100
AcDbScale
 70
     0
300
1" = 1'-0"
140
1.0
141
12.0
290
     0
  0
SCALE
  5
6B
102
{ACAD_REACTORS
330
4D
102
}
330
4D
100
AcDbScale
 70
     0
300
1-1/2" = 1'-0"
140
1.5
141
12.0
290
     0
  0
SCALE
  5
6C
102
{ACAD_REACTORS
330
4D
102
}
330
4D
100
AcDbScale
 70
     0
300
3" = 1'-0"
140
3.0
141
12.0
290
     0
  0
SCALE
  5
6D
102
{ACAD_REACTORS
330
4D
102
}
330
4D
100
AcDbScale
 70
     0
300
6" = 1'-0"
140
6.0
141
12.0
290
     0
  0
SCALE
  5
6E
102
{ACAD_REACTORS
330
4D
102
}
330
4D
100
AcDbScale
 70
     0
300
1'-0" = 1'-0"
140
12.0
141
12.0
290
     0
  0
VISUALSTYLE
  5
2F
102
{ACAD_REACTORS
330
2A
102
}
330
2A
100
AcDbVisualStyle
  2
2dWireframe
 70
     4
 71
     0
 72
     2
 73
     0
 90
        0
 40
-0.6
 41
-30.0
 62
     5
 63
     7
 74
     1
 91
        4
 64
     7
 65
   257
 75
     1
175
     1
 42
1.0
 92
        0
 66
   257
 43
1.0
 76
     1
 77
     6
 78
     2
 67
     7
 79
     5
170
     0
171
     0
290
     0
174
     0
 93
        1
 44
0.0
173
     0
291
     0
 45
0.0
1001
ACAD
1000
AcDbSavedByObjectVersion
1070
     0
  0
VISUALSTYLE
  5
31
102
{ACAD_REACTORS
330
2A
102
}
330
2A
100
AcDbVisualStyle
  2
3D Hidden
 70
     6
 71
     1
 72
     2
 73
     2
 90
        0
 40
-0.6
 41
-30.0
 62
     5
 63
     7
 74
     2
 91
        2
 64
     7
 65
   257
 75
     2
175
     1
 42
40.0
 92
        0
 66
   257
 43
1.0
 76
     1
 77
     6
 78
     2
 67
     7
 79
     3
170
     0
171
     0
290
     0
174
     0
 93
        1
 44
0.0
173
     0
291
     0
 45
0.0
1001
ACAD
1000
AcDbSavedByObjectVersion
1070
     0
  0
VISUALSTYLE
  5
30
102
{ACAD_REACTORS
330
2A
102
}
330
2A
100
AcDbVisualStyle
  2
3dWireframe
 70
     5
 71
     0
 72
     2
 73
     0
 90
        0
 40
-0.6
 41
-30.0
 62
     5
 63
     7
 74
     1
 91
        4
 64
     7
 65
   257
 75
     1
175
     1
 42
1.0
 92
        0
 66
   257
 43
1.0
 76
     1
 77
     6
 78
     2
 67
     7
 79
     5
170
     0
171
     0
290
     0
174
     0
 93
        1
 44
0.0
173
     0
291
     0
 45
0.0
1001
ACAD
1000
AcDbSavedByObjectVersion
1070
     0
  0
VISUALSTYLE
  5
32
102
{ACAD_REACTORS
330
2A
102
}
330
2A
100
AcDbVisualStyle
  2
Basic
 70
     7
 71
     1
 72
     0
 73
     1
 90
        0
 40
-0.6
 41
-30.0
 62
     5
 63
     7
 74
     0
 91
        4
 64
     7
 65
   257
 75
     1
175
     1
 42
1.0
 92
        8
 66
     7
 43
1.0
 76
     1
 77
     6
 78
     2
 67
     7
 79
     5
170
     0
171
     0
290
     0
174
     0
 93
        1
 44
0.0
173
     0
291
     1
 45
0.0
1001
ACAD
1000
AcDbSavedByObjectVersion
1070
     0
  0
VISUALSTYLE
  5
36
102
{ACAD_REACTORS
330
2A
102
}
330
2A
100
AcDbVisualStyle
  2
Brighten
 70
    12
 71
     2
 72
     2
 73
     0
 90
        0
 40
-0.6
 41
-30.0
 62
     5
 63
     7
 74
     1
 91
        4
 64
     7
 65
   257
 75
     1
175
     1
 42
1.0
 92
        8
 66
     7
 43
1.0
 76
     1
 77
     6
 78
     2
 67
     7
 79
     5
170
     0
171
     0
290
     0
174
     0
 93
        1
 44
50.0
173
     0
291
     1
 45
0.0
1001
ACAD
1000
AcDbSavedByObjectVersion
1070
     0
  0
VISUALSTYLE
  5
3A
102
{ACAD_REACTORS
330
2A
102
}
330
2A
100
AcDbVisualStyle
  2
ColorChange
 70
    16
 71
     2
 72
     2
 73
     3
 90
        0
 40
-0.6
 41
-30.0
 62
     5
 63
     8
 74
     1
 91
        4
 64
     7
 65
   257
 75
     1
175
     1
 42
1.0
 92
        8
 66
     8
 43
1.0
 76
     1
 77
     6
 78
     2
 67
     7
 79
     5
170
     0
171
     0
290
     0
174
     0
 93
        1
 44
0.0
173
     0
291
     1
 45
0.0
1001
ACAD
1000
AcDbSavedByObjectVersion
1070
     0
  0
VISUALSTYLE
  5
34
102
{ACAD_REACTORS
330
2A
102
}
330
2A
100
AcDbVisualStyle
  2
Conceptual
 70
     9
 71
     3
 72
     2
 73
     0
 90
        0
 40
-0.6
 41
-30.0
 62
     5
 63
     7
 74
     2
 91
        2
 64
     7
 65
   257
 75
     1
175
     1
 42
40.0
 92
        8
 66
     7
 43
1.0
 76
     1
 77
     6
 78
     2
 67
     7
 79
     3
170
     0
171
     0
290
     0
174
     0
 93
        1
 44
0.0
173
     0
291
     0
 45
0.0
1001
ACAD
1000
AcDbSavedByObjectVersion
1070
     0
  0
VISUALSTYLE
  5
35
102
{ACAD_REACTORS
330
2A
102
}
330
2A
100
AcDbVisualStyle
  2
Dim
 70
    11
 71
     2
 72
     2
 73
     0
 90
        0
 40
-0.6
 41
-30.0
 62
     5
 63
     7
 74
     1
 91
        4
 64
     7
 65
   257
 75
     1
175
     1
 42
1.0
 92
        8
 66
     7
 43
1.0
 76
     1
 77
     6
 78
     2
 67
     7
 79
     5
170
     0
171
     0
290
     0
174
     0
 93
        1
 44
-50.0
173
     0
291
     1
 45
0.0
1001
ACAD
1000
AcDbSavedByObjectVersion
1070
     0
  0
VISUALSTYLE
  5
39
102
{ACAD_REACTORS
330
2A
102
}
330
2A
100
AcDbVisualStyle
  2
Facepattern
 70
    15
 71
     2
 72
     2
 73
     0
 90
        0
 40
-0.6
 41
-30.0
 62
     5
 63
     7
 74
     1
 91
        4
 64
     7
 65
   257
 75
     1
175
     1
 42
1.0
 92
        8
 66
     7
 43
1.0
 76
     1
 77
     6
 78
     2
 67
     7
 79
     5
170
     0
171
     0
290
     0
174
     0
 93
        1
 44
0.0
173
     0
291
     1
 45
0.0
1001
ACAD
1000
AcDbSavedByObjectVersion
1070
     0
  0
VISUALSTYLE
  5
2B
102
{ACAD_REACTORS
330
2A
102
}
330
2A
100
AcDbVisualStyle
  2
Flat
 70
     0
 71
     2
 72
     1
 73
     1
 90
        2
 40
-0.6
 41
30.0
 62
     5
 63
     7
 74
     0
 91
        4
 64
     7
 65
   257
 75
     1
175
     1
 42
1.0
 92
        8
 66
     7
 43
1.0
 76
     1
 77
     6
 78
     2
 67
     7
 79
     5
170
     0
171
     0
290
     0
174
     0
 93
       13
 44
0.0
173
     0
291
     1
 45
0.0
1001
ACAD
1000
AcDbSavedByObjectVersion
1070
     0
  0
VISUALSTYLE
  5
2C
102
{ACAD_REACTORS
330
2A
102
}
330
2A
100
AcDbVisualStyle
  2
FlatWithEdges
 70
     1
 71
     2
 72
     1
 73
     1
 90
        2
 40
-0.6
 41
30.0
 62
     5
 63
     7
 74
     1
 91
        4
 64
     7
 65
   257
 75
     1
175
     1
 42
1.0
 92
        0
 66
   257
 43
1.0
 76
     1
 77
     6
 78
     2
 67
     7
 79
     5
170
     0
171
     0
290
     0
174
     0
 93
       13
 44
0.0
173
     0
291
     1
 45
0.0
1001
ACAD
1000
AcDbSavedByObjectVersion
1070
     0
  0
VISUALSTYLE
  5
2D
102
{ACAD_REACTORS
330
2A
102
}
330
2A
100
AcDbVisualStyle
  2
Gouraud
 70
     2
 71
     2
 72
     2
 73
     1
 90
        2
 40
-0.6
 41
30.0
 62
     5
 63
     7
 74
     0
 91
        4
 64
     7
 65
   257
 75
     1
175
     1
 42
1.0
 92
        0
 66
     7
 43
1.0
 76
     1
 77
     6
 78
     2
 67
     7
 79
     5
170
     0
171
     0
290
     0
174
     0
 93
       13
 44
0.0
173
     0
291
     1
 45
0.0
1001
ACAD
1000
AcDbSavedByObjectVersion
1070
     0
  0
VISUALSTYLE
  5
2E
102
{ACAD_REACTORS
330
2A
102
}
330
2A
100
AcDbVisualStyle
  2
GouraudWithEdges
 70
     3
 71
     2
 72
     2
 73
     1
 90
        2
 40
-0.6
 41
30.0
 62
     5
 63
     7
 74
     1
 91
        4
 64
     7
 65
   257
 75
     1
175
     1
 42
1.0
 92
        0
 66
   257
 43
1.0
 76
     1
 77
     6
 78
     2
 67
     7
 79
     5
170
     0
171
     0
290
     0
174
     0
 93
       13
 44
0.0
173
     0
291
     1
 45
0.0
1001
ACAD
1000
AcDbSavedByObjectVersion
1070
     0
  0
VISUALSTYLE
  5
38
102
{ACAD_REACTORS
330
2A
102
}
330
2A
100
AcDbVisualStyle
  2
Linepattern
 70
    14
 71
     2
 72
     2
 73
     0
 90
        0
 40
-0.6
 41
-30.0
 62
     5
 63
     7
 74
     1
 91
        4
 64
     7
 65
   257
 75
     7
175
     7
 42
1.0
 92
        8
 66
     7
 43
1.0
 76
     1
 77
     6
 78
     2
 67
     7
 79
     5
170
     0
171
     0
290
     0
174
     0
 93
        1
 44
0.0
173
     0
291
     1
 45
0.0
1001
ACAD
1000
AcDbSavedByObjectVersion
1070
     0
  0
VISUALSTYLE
  5
33
102
{ACAD_REACTORS
330
2A
102
}
330
2A
100
AcDbVisualStyle
  2
Realistic
 70
     8
 71
     2
 72
     2
 73
     0
 90
        0
 40
-0.6
 41
-30.0
 62
     5
 63
     7
 74
     1
 91
        0
 64
     7
 65
   257
 75
     1
175
     1
 42
1.0
 92
        8
 66
     8
 43
1.0
 76
     1
 77
     6
 78
     2
 67
     7
 79
     5
170
     0
171
     0
290
     0
174
     0
 93
       13
 44
0.0
173
     0
291
     0
 45
0.0
1001
ACAD
1000
AcDbSavedByObjectVersion
1070
     0
  0
VISUALSTYLE
  5
37
102
{ACAD_REACTORS
330
2A
102
}
330
2A
100
AcDbVisualStyle
  2
Thicken
 70
    13
 71
     2
 72
     2
 73
     0
 90
        0
 40
-0.6
 41
-30.0
 62
     5
 63
     7
 74
     1
 91
        4
 64
     7
 65
   257
 75
     1
175
     1
 42
1.0
 92
       12
 66
     7
 43
1.0
 76
     1
 77
     6
 78
     2
 67
     7
 79
     5
170
     0
171
     0
290
     0
174
     0
 93
        1
 44
0.0
173
     0
291
     1
 45
0.0
1001
ACAD
1000
AcDbSavedByObjectVersion
1070
     0
  0
DICTIONARYVAR
  5
16C
102
{ACAD_REACTORS
330
169
102
}
330
169
100
DictionaryVariables
280
     0
  1
1:1
  0
ENDSEC
  0
EOF
