  0
SECTION
  2
HEADER
  9
$ACADVER
  1
AC1015
  9
$ACADMAINTVER
 70
     6
  9
$DWGCODEPAGE
  3
ANSI_1252
  9
$INSBASE
 10
0.0
 20
0.0
 30
0.0
  9
$EXTMIN
 10
42.8020028804348
 20
275.8793412072
 30
0.0
  9
$EXTMAX
 10
264.233532199913
 20
413.071456457318
 30
0.0
  9
$LIMMIN
 10
0.0
 20
0.0
  9
$LIMMAX
 10
12.0
 20
9.0
  9
$ORTHOMODE
 70
     0
  9
$REGENMODE
 70
     1
  9
$FILLMODE
 70
     1
  9
$QTEXTMODE
 70
     0
  9
$MIRRTEXT
 70
     1
  9
$LTSCALE
 40
1.0
  9
$ATTMODE
 70
     1
  9
$TEXTSIZE
 40
0.2
  9
$TRACEWID
 40
0.05
  9
$TEXTSTYLE
  7
Standard
  9
$CLAYER
  8
0
  9
$CELTYPE
  6
ByLayer
  9
$CECOLOR
 62
   256
  9
$CELTSCALE
 40
1.0
  9
$DISPSILH
 70
     0
  9
$DIMSCALE
 40
1.0
  9
$DIMASZ
 40
0.18
  9
$DIMEXO
 40
0.0625
  9
$DIMDLI
 40
0.38
  9
$DIMRND
 40
0.0
  9
$DIMDLE
 40
0.0
  9
$DIMEXE
 40
0.18
  9
$DIMTP
 40
0.0
  9
$DIMTM
 40
0.0
  9
$DIMTXT
 40
0.18
  9
$DIMCEN
 40
0.09
  9
$DIMTSZ
 40
0.0
  9
$DIMTOL
 70
     0
  9
$DIMLIM
 70
     0
  9
$DIMTIH
 70
     1
  9
$DIMTOH
 70
     1
  9
$DIMSE1
 70
     0
  9
$DIMSE2
 70
     0
  9
$DIMTAD
 70
     0
  9
$DIMZIN
 70
     0
  9
$DIMBLK
  1

  9
$DIMASO
 70
     1
  9
$DIMSHO
 70
     1
  9
$DIMPOST
  1

  9
$DIMAPOST
  1

  9
$DIMALT
 70
     0
  9
$DIMALTD
 70
     2
  9
$DIMALTF
 40
25.4
  9
$DIMLFAC
 40
1.0
  9
$DIMTOFL
 70
     0
  9
$DIMTVP
 40
0.0
  9
$DIMTIX
 70
     0
  9
$DIMSOXD
 70
     0
  9
$DIMSAH
 70
     0
  9
$DIMBLK1
  1

  9
$DIMBLK2
  1

  9
$DIMSTYLE
  2
Standard
  9
$DIMCLRD
 70
     0
  9
$DIMCLRE
 70
     0
  9
$DIMCLRT
 70
     0
  9
$DIMTFAC
 40
1.0
  9
$DIMGAP
 40
0.09
  9
$DIMJUST
 70
     0
  9
$DIMSD1
 70
     0
  9
$DIMSD2
 70
     0
  9
$DIMTOLJ
 70
     1
  9
$DIMTZIN
 70
     0
  9
$DIMALTZ
 70
     0
  9
$DIMALTTZ
 70
     0
  9
$DIMUPT
 70
     0
  9
$DIMDEC
 70
     4
  9
$DIMTDEC
 70
     4
  9
$DIMALTU
 70
     2
  9
$DIMALTTD
 70
     2
  9
$DIMTXSTY
  7
Standard
  9
$DIMAUNIT
 70
     0
  9
$DIMADEC
 70
     0
  9
$DIMALTRND
 40
0.0
  9
$DIMAZIN
 70
     0
  9
$DIMDSEP
 70
    46
  9
$DIMATFIT
 70
     3
  9
$DIMFRAC
 70
     0
  9
$DIMLDRBLK
  1

  9
$DIMLUNIT
 70
     2
  9
$DIMLWD
 70
    -2
  9
$DIMLWE
 70
    -2
  9
$DIMTMOVE
 70
     0
  9
$LUNITS
 70
     2
  9
$LUPREC
 70
     4
  9
$SKETCHINC
 40
0.1
  9
$FILLETRAD
 40
0.5
  9
$AUNITS
 70
     0
  9
$AUPREC
 70
     0
  9
$MENU
  1
.
  9
$ELEVATION
 40
0.0
  9
$PELEVATION
 40
0.0
  9
$THICKNESS
 40
0.0
  9
$LIMCHECK
 70
     0
  9
$CHAMFERA
 40
0.5
  9
$CHAMFERB
 40
0.5
  9
$CHAMFERC
 40
1.0
  9
$CHAMFERD
 40
0.0
  9
$SKPOLY
 70
     0
  9
$TDCREATE
 40
2456748.73343294
  9
$TDUCREATE
 40
2456748.650099606
  9
$TDUPDATE
 40
2456748.733432951
  9
$TDUUPDATE
 40
2456748.650099618
  9
$TDINDWG
 40
0.0000000116
  9
$TDUSRTIMER
 40
0.0000000116
  9
$USRTIMER
 70
     1
  9
$ANGBASE
 50
0.0
  9
$ANGDIR
 70
     0
  9
$PDMODE
 70
     0
  9
$PDSIZE
 40
0.0
  9
$PLINEWID
 40
0.0
  9
$SPLFRAME
 70
     0
  9
$SPLINETYPE
 70
     6
  9
$SPLINESEGS
 70
     8
  9
$HANDSEED
  5
18B
  9
$SURFTAB1
 70
     6
  9
$SURFTAB2
 70
     6
  9
$SURFTYPE
 70
     6
  9
$SURFU
 70
     6
  9
$SURFV
 70
     6
  9
$UCSBASE
  2

  9
$UCSNAME
  2

  9
$UCSORG
 10
0.0
 20
0.0
 30
0.0
  9
$UCSXDIR
 10
1.0
 20
0.0
 30
0.0
  9
$UCSYDIR
 10
0.0
 20
1.0
 30
0.0
  9
$UCSORTHOREF
  2

  9
$UCSORTHOVIEW
 70
     0
  9
$UCSORGTOP
 10
0.0
 20
0.0
 30
0.0
  9
$UCSORGBOTTOM
 10
0.0
 20
0.0
 30
0.0
  9
$UCSORGLEFT
 10
0.0
 20
0.0
 30
0.0
  9
$UCSORGRIGHT
 10
0.0
 20
0.0
 30
0.0
  9
$UCSORGFRONT
 10
0.0
 20
0.0
 30
0.0
  9
$UCSORGBACK
 10
0.0
 20
0.0
 30
0.0
  9
$PUCSBASE
  2

  9
$PUCSNAME
  2

  9
$PUCSORG
 10
0.0
 20
0.0
 30
0.0
  9
$PUCSXDIR
 10
1.0
 20
0.0
 30
0.0
  9
$PUCSYDIR
 10
0.0
 20
1.0
 30
0.0
  9
$PUCSORTHOREF
  2

  9
$PUCSORTHOVIEW
 70
     0
  9
$PUCSORGTOP
 10
0.0
 20
0.0
 30
0.0
  9
$PUCSORGBOTTOM
 10
0.0
 20
0.0
 30
0.0
  9
$PUCSORGLEFT
 10
0.0
 20
0.0
 30
0.0
  9
$PUCSORGRIGHT
 10
0.0
 20
0.0
 30
0.0
  9
$PUCSORGFRONT
 10
0.0
 20
0.0
 30
0.0
  9
$PUCSORGBACK
 10
0.0
 20
0.0
 30
0.0
  9
$USERI1
 70
     0
  9
$USERI2
 70
     0
  9
$USERI3
 70
     0
  9
$USERI4
 70
     0
  9
$USERI5
 70
     0
  9
$USERR1
 40
16.5
  9
$USERR2
 40
0.0
  9
$USERR3
 40
0.0
  9
$USERR4
 40
0.0
  9
$USERR5
 40
0.0
  9
$WORLDVIEW
 70
     1
  9
$SHADEDGE
 70
     3
  9
$SHADEDIF
 70
    70
  9
$TILEMODE
 70
     1
  9
$MAXACTVP
 70
    64
  9
$PINSBASE
 10
0.0
 20
0.0
 30
0.0
  9
$PLIMCHECK
 70
     0
  9
$PEXTMIN
 10
1.00000000000000E+20
 20
1.00000000000000E+20
 30
1.00000000000000E+20
  9
$PEXTMAX
 10
-1.00000000000000E+20
 20
-1.00000000000000E+20
 30
-1.00000000000000E+20
  9
$PLIMMIN
 10
0.0
 20
0.0
  9
$PLIMMAX
 10
12.0
 20
9.0
  9
$UNITMODE
 70
     0
  9
$VISRETAIN
 70
     1
  9
$PLINEGEN
 70
     0
  9
$PSLTSCALE
 70
     1
  9
$TREEDEPTH
 70
  3020
  9
$CMLSTYLE
  2
Standard
  9
$CMLJUST
 70
     0
  9
$CMLSCALE
 40
1.0
  9
$PROXYGRAPHICS
 70
     1
  9
$MEASUREMENT
 70
     1
  9
$CELWEIGHT
370
    -1
  9
$ENDCAPS
280
     0
  9
$JOINSTYLE
280
     0
  9
$LWDISPLAY
290
     0
  9
$INSUNITS
 70
     1
  9
$HYPERLINKBASE
  1

  9
$STYLESHEET
  1

  9
$XEDIT
290
     1
  9
$CEPSNTYPE
380
     0
  9
$PSTYLEMODE
290
     1
  9
$FINGERPRINTGUID
  2
{823B5FB0-D79D-40F8-8B9F-01600C925758}
  9
$VERSIONGUID
  2
{FAEB1C32-E019-11D5-929B-00C0DF256EC4}
  9
$EXTNAMES
290
     1
  9
$PSVPSCALE
 40
0.0
  9
$OLESTARTUP
290
     0
  0
ENDSEC
  0
SECTION
  2
CLASSES
  0
CLASS
  1
ACDBDICTIONARYWDFLT
  2
AcDbDictionaryWithDefault
  3
ObjectDBX Classes
 90
        0
280
     0
281
     0
  0
CLASS
  1
VISUALSTYLE
  2
AcDbVisualStyle
  3
ObjectDBX Classes
 90
     4095
280
     0
281
     0
  0
CLASS
  1
SCALE
  2
AcDbScale
  3
ObjectDBX Classes
 90
     1153
280
     0
281
     0
  0
CLASS
  1

  2
exOdDbPolyline
  3

 90
        0
280
     0
281
     1
  0
CLASS
  1

  2
exOdDbCircle
  3

 90
        0
280
     0
281
     1
  0
CLASS
  1

  2
exOdDbSpline
  3

 90
        0
280
     0
281
     1
  0
CLASS
  1
DICTIONARYVAR
  2
AcDbDictionaryVar
  3
ObjectDBX Classes
 90
        0
280
     0
281
     0
  0
CLASS
  1
ACDBPLACEHOLDER
  2
AcDbPlaceHolder
  3
ObjectDBX Classes
 90
        0
280
     0
281
     0
  0
CLASS
  1
LAYOUT
  2
AcDbLayout
  3
ObjectDBX Classes
 90
        0
280
     0
281
     0
  0
ENDSEC
  0
SECTION
  2
TABLES
  0
TABLE
  2
VPORT
  5
8
330
0
100
AcDbSymbolTable
 70
     1
  0
VPORT
  5
29
330
8
100
AcDbSymbolTableRecord
100
AcDbViewportTableRecord
  2
*Active
 70
     0
 10
0.0
 20
0.0
 11
1.0
 21
1.0
 12
153.5177675401739
 22
344.475398832259
 13
0.0
 23
0.0
 14
0.5
 24
0.5
 15
0.5
 25
0.5
 16
0.0
 26
0.0
 36
1.0
 17
0.0
 27
0.0
 37
0.0
 40
151.979746028745
 41
1.60267857142857
 42
50.0
 43
0.0
 44
0.0
 50
0.0
 51
0.0
 71
     0
 72
   100
 73
     1
 74
     3
 75
     0
 76
     0
 77
     0
 78
     0
281
     0
 65
     1
110
0.0
120
0.0
130
0.0
111
1.0
121
0.0
131
0.0
112
0.0
122
1.0
132
0.0
 79
     0
146
0.0
  0
ENDTAB
  0
TABLE
  2
LTYPE
  5
5
330
0
100
AcDbSymbolTable
 70
     8
  0
LTYPE
  5
14
330
5
100
AcDbSymbolTableRecord
100
AcDbLinetypeTableRecord
  2
ByBlock
 70
     0
  3

 72
    65
 73
     0
 40
0.0
  0
LTYPE
  5
15
330
5
100
AcDbSymbolTableRecord
100
AcDbLinetypeTableRecord
  2
ByLayer
 70
     0
  3

 72
    65
 73
     0
 40
0.0
  0
LTYPE
  5
16
330
5
100
AcDbSymbolTableRecord
100
AcDbLinetypeTableRecord
  2
Continuous
 70
     0
  3
Solid line
 72
    65
 73
     0
 40
0.0
  0
LTYPE
  5
3B
330
5
100
AcDbSymbolTableRecord
100
AcDbLinetypeTableRecord
  2
DASHED
 70
     0
  3
Dashed
 72
    65
 73
     2
 40
15.0
 49
7.0
 74
     0
 49
-8.0
 74
     0
  0
LTYPE
  5
3C
330
5
100
AcDbSymbolTableRecord
100
AcDbLinetypeTableRecord
  2
DOTTED
 70
     0
  3
Dotted
 72
    65
 73
     2
 40
1.0
 49
0.0
 74
     0
 49
-1.0
 74
     0
  0
LTYPE
  5
3D
330
5
100
AcDbSymbolTableRecord
100
AcDbLinetypeTableRecord
  2
DOT_CENTER
 70
     0
  3
Dot_Center
 72
    65
 73
     4
 40
14.0
 49
12.0
 74
     0
 49
-1.0
 74
     0
 49
0.0
 74
     0
 49
-1.0
 74
     0
  0
LTYPE
  5
3E
330
5
100
AcDbSymbolTableRecord
100
AcDbLinetypeTableRecord
  2
LONG_DASHED
 70
     0
  3
Long_Dashed
 72
    65
 73
     2
 40
15.0
 49
10.0
 74
     0
 49
-5.0
 74
     0
  0
LTYPE
  5
3F
330
5
100
AcDbSymbolTableRecord
100
AcDbLinetypeTableRecord
  2
DASH_CENTER
 70
     0
  3
Dash_Center
 72
    65
 73
     4
 40
14.0
 49
11.0
 74
     0
 49
-1.0
 74
     0
 49
1.0
 74
     0
 49
-1.0
 74
     0
  0
LTYPE
  5
40
330
5
100
AcDbSymbolTableRecord
100
AcDbLinetypeTableRecord
  2
PHANTOM
 70
     0
  3
Phantom
 72
    65
 73
     6
 40
13.0
 49
10.0
 74
     0
 49
-1.0
 74
     0
 49
0.0
 74
     0
 49
-1.0
 74
     0
 49
0.0
 74
     0
 49
-1.0
 74
     0
  0
LTYPE
  5
41
330
5
100
AcDbSymbolTableRecord
100
AcDbLinetypeTableRecord
  2
CENTER_DASH_DASH
 70
     0
  3
Center_Dash_Dash
 72
    65
 73
     6
 40
14.0
 49
9.0
 74
     0
 49
-1.0
 74
     0
 49
1.0
 74
     0
 49
-1.0
 74
     0
 49
1.0
 74
     0
 49
-1.0
 74
     0
  0
ENDTAB
  0
TABLE
  2
LAYER
  5
2
330
0
100
AcDbSymbolTable
 70
     7
  0
LAYER
  5
10
330
2
100
AcDbSymbolTableRecord
100
AcDbLayerTableRecord
  2
0
 70
     0
 62
     7
  6
Continuous
370
    -3
390
F
  0
LAYER
  5
42
330
2
100
AcDbSymbolTableRecord
100
AcDbLayerTableRecord
  2
1
 70
     0
 62
     7
  6
Continuous
370
    -3
390
F
  0
LAYER
  5
43
330
2
100
AcDbSymbolTableRecord
100
AcDbLayerTableRecord
  2
BEZUGSACHSEN
 70
     0
 62
     7
  6
Continuous
370
    -3
390
F
  0
LAYER
  5
44
330
2
100
AcDbSymbolTableRecord
100
AcDbLayerTableRecord
  2
BG_STARTBEZUEGE
 70
     0
 62
     7
  6
Continuous
370
    -3
390
F
  0
LAYER
  5
45
330
2
100
AcDbSymbolTableRecord
100
AcDbLayerTableRecord
  2
DEFAULT_2
 70
     0
 62
     7
  6
Continuous
370
    -3
390
F
  0
LAYER
  5
46
330
2
100
AcDbSymbolTableRecord
100
AcDbLayerTableRecord
  2
FASEN
 70
     0
 62
     7
  6
Continuous
370
    -3
390
F
  0
LAYER
  5
47
330
2
100
AcDbSymbolTableRecord
100
AcDbLayerTableRecord
  2
RUNDUNGEN
 70
     0
 62
     7
  6
Continuous
370
    -3
390
F
  0
ENDTAB
  0
TABLE
  2
STYLE
  5
3
330
0
100
AcDbSymbolTable
 70
     2
  0
STYLE
  5
11
330
3
100
AcDbSymbolTableRecord
100
AcDbTextStyleTableRecord
  2
Standard
 70
     0
 40
0.0
 41
1.0
 50
0.0
 71
     0
 42
0.2
  3
txt
  4

  0
STYLE
  5
6E
330
3
100
AcDbSymbolTableRecord
100
AcDbTextStyleTableRecord
  2
CONVERTER_11
 70
     0
 40
0.0
 41
0.72
 50
0.0
 71
     0
 42
0.2
  3
txt.shx
  4

  0
ENDTAB
  0
TABLE
  2
VIEW
  5
6
330
0
100
AcDbSymbolTable
 70
     0
  0
ENDTAB
  0
TABLE
  2
UCS
  5
7
330
0
100
AcDbSymbolTable
 70
     0
  0
ENDTAB
  0
TABLE
  2
APPID
  5
9
330
0
100
AcDbSymbolTable
 70
     1
  0
APPID
  5
12
330
9
100
AcDbSymbolTableRecord
100
AcDbRegAppTableRecord
  2
ACAD
 70
     0
  0
ENDTAB
  0
TABLE
  2
DIMSTYLE
  5
A
330
0
100
AcDbSymbolTable
 70
     7
100
AcDbDimStyleTable
  0
DIMSTYLE
105
27
330
A
100
AcDbSymbolTableRecord
100
AcDbDimStyleTableRecord
  2
Standard
 70
     0
340
11
  0
DIMSTYLE
105
147
102
{ACAD_REACTORS
330
148
102
}
330
A
100
AcDbSymbolTableRecord
100
AcDbDimStyleTableRecord
  2
ME10_DIM_10
 70
     0
  3
ER<>
 41
3.5
 42
2.0
 44
2.0
 71
     1
 73
     0
 74
     0
 77
     1
 78
     8
140
3.5
146
0.7
147
2.0
172
     1
173
     1
176
     2
177
     2
178
     3
271
     2
272
     0
340
6E
  0
DIMSTYLE
105
152
102
{ACAD_REACTORS
330
153
102
}
330
A
100
AcDbSymbolTableRecord
100
AcDbDimStyleTableRecord
  2
ME10_DIM_11
 70
     0
  3
\U+2300<>
 41
3.5
 42
2.0
 44
2.0
 71
     1
 73
     0
 74
     0
 77
     1
 78
     8
140
3.5
146
0.7
147
2.0
172
     1
173
     1
176
     2
177
     2
178
     3
271
     2
272
     0
340
6E
  0
DIMSTYLE
105
15D
102
{ACAD_REACTORS
330
15E
102
}
330
A
100
AcDbSymbolTableRecord
100
AcDbDimStyleTableRecord
  2
ME10_DIM_12
 70
     0
  3
<>
 41
3.5
 42
2.0
 44
2.0
 71
     1
 73
     0
 74
     0
 77
     1
 78
     8
140
3.5
146
0.7
147
2.0
172
     1
173
     1
176
     2
177
     2
178
     3
271
     2
272
     0
340
6E
  0
DIMSTYLE
105
168
102
{ACAD_REACTORS
330
169
102
}
330
A
100
AcDbSymbolTableRecord
100
AcDbDimStyleTableRecord
  2
ME10_DIM_13
 70
     0
  3
<>
 41
3.5
 42
2.0
 44
2.0
 71
     1
 73
     0
 74
     0
 77
     1
 78
     8
140
3.5
146
0.7
147
2.0
172
     1
173
     1
176
     2
177
     2
178
     3
271
     2
272
     0
340
6E
  0
DIMSTYLE
105
173
102
{ACAD_REACTORS
330
174
102
}
330
A
100
AcDbSymbolTableRecord
100
AcDbDimStyleTableRecord
  2
ME10_DIM_14
 70
     0
  3
<>
 41
3.5
 42
2.0
 44
2.0
 71
     1
 73
     0
 74
     0
 77
     1
 78
     8
140
3.5
146
0.7
147
2.0
172
     1
173
     1
176
     2
177
     2
178
     3
271
     2
272
     0
340
6E
  0
DIMSTYLE
105
17E
102
{ACAD_REACTORS
330
17F
102
}
330
A
100
AcDbSymbolTableRecord
100
AcDbDimStyleTableRecord
  2
ME10_DIM_15
 70
     0
  3
<>
 41
3.5
 42
2.0
 44
2.0
 71
     1
 73
     0
 74
     0
 77
     1
 78
     8
140
3.5
146
0.7
147
2.0
172
     1
173
     1
176
     2
177
     2
178
     3
271
     2
272
     0
340
6E
  0
ENDTAB
  0
TABLE
  2
BLOCK_RECORD
  5
1
330
0
100
AcDbSymbolTable
 70
     9
  0
BLOCK_RECORD
  5
1F
330
1
100
AcDbSymbolTableRecord
100
AcDbBlockTableRecord
  2
*Model_Space
340
22
  0
BLOCK_RECORD
  5
1B
330
1
100
AcDbSymbolTableRecord
100
AcDbBlockTableRecord
  2
*Paper_Space
340
1E
  0
BLOCK_RECORD
  5
23
330
1
100
AcDbSymbolTableRecord
100
AcDbBlockTableRecord
  2
*Paper_Space0
340
26
  0
BLOCK_RECORD
  5
48
330
1
100
AcDbSymbolTableRecord
100
AcDbBlockTableRecord
  2
Urheberrecht_DE-EN
340
0
102
{BLKREFS
331
6D
102
}
  0
BLOCK_RECORD
  5
13E
330
1
100
AcDbSymbolTableRecord
100
AcDbBlockTableRecord
  2
*D2
340
0
  0
BLOCK_RECORD
  5
149
330
1
100
AcDbSymbolTableRecord
100
AcDbBlockTableRecord
  2
*D3
340
0
  0
BLOCK_RECORD
  5
154
330
1
100
AcDbSymbolTableRecord
100
AcDbBlockTableRecord
  2
*D4
340
0
  0
BLOCK_RECORD
  5
15F
330
1
100
AcDbSymbolTableRecord
100
AcDbBlockTableRecord
  2
*D5
340
0
  0
BLOCK_RECORD
  5
16A
330
1
100
AcDbSymbolTableRecord
100
AcDbBlockTableRecord
  2
*D6
340
0
  0
BLOCK_RECORD
  5
175
330
1
100
AcDbSymbolTableRecord
100
AcDbBlockTableRecord
  2
*D7
340
0
  0
BLOCK_RECORD
  5
180
330
1
100
AcDbSymbolTableRecord
100
AcDbBlockTableRecord
  2
*D8
340
0
102
{BLKREFS
331
186
102
}
  0
ENDTAB
  0
ENDSEC
  0
SECTION
  2
BLOCKS
  0
BLOCK
  5
20
330
1F
100
AcDbEntity
  8
0
100
AcDbBlockBegin
  2
*Model_Space
 70
     0
 10
0.0
 20
0.0
 30
0.0
  3
*Model_Space
  1

  0
ENDBLK
  5
21
330
1F
100
AcDbEntity
  8
0
100
AcDbBlockEnd
  0
BLOCK
  5
1C
330
1B
100
AcDbEntity
 67
     1
  8
0
100
AcDbBlockBegin
  2
*Paper_Space
 70
     0
 10
0.0
 20
0.0
 30
0.0
  3
*Paper_Space
  1

  0
ENDBLK
  5
1D
330
1B
100
AcDbEntity
 67
     1
  8
0
100
AcDbBlockEnd
  0
BLOCK
  5
24
330
23
100
AcDbEntity
  8
0
100
AcDbBlockBegin
  2
*Paper_Space0
 70
     0
 10
0.0
 20
0.0
 30
0.0
  3
*Paper_Space0
  1

  0
ENDBLK
  5
25
330
23
100
AcDbEntity
  8
0
100
AcDbBlockEnd
  0
BLOCK
  5
49
330
48
100
AcDbEntity
  8
0
100
AcDbBlockBegin
  2
Urheberrecht_DE-EN
 70
     0
 10
56.8020028804348
 20
345.099070572432
 30
0.0
  3
Urheberrecht_DE-EN
  1

  0
MTEXT
  5
6F
330
48
100
AcDbEntity
  8
1
 62
     1
100
AcDbMText
 10
56.8020028804348
 20
345.099070572432
 30
0.0
 40
2.0
 41
0.0
 71
     7
 72
     1
  1
We own the copyright of this document. It \Pdetermined and may neither be copied or \Pmade accessible to outsiders without our\Ppermission.
  7
CONVERTER_11
 11
0.0
 21
1.0
 31
0.0
 73
     1
 44
0.90036014405762
  0
MTEXT
  5
70
330
48
100
AcDbEntity
  8
1
 62
     1
100
AcDbMText
 10
56.8020028804348
 20
288.8096836551258
 30
0.0
 40
2.0
 41
0.0
 71
     7
 72
     1
  1
F\U+00fcr diese Unterlage behalten wir das Ur-\Pheberrecht. Sie darf nur f\U+00fcr den von uns \Pbestimmten Zweck benutzt und ohne unsere \PZustimmung weder vervielf\U+00e4ltigt noch\PDritten zug\U+00e4nglich gemacht werden.
  7
CONVERTER_11
 11
0.0
 21
1.0
 31
0.0
 73
     1
 44
0.90036014405762
  0
ENDBLK
  5
4A
330
48
100
AcDbEntity
  8
0
100
AcDbBlockEnd
  0
BLOCK
  5
145
330
13E
100
AcDbEntity
  8
0
100
AcDbBlockBegin
  2
*D2
 70
     1
 10
0.0
 20
0.0
 30
0.0
  3
*D2
  1

  0
LINE
  5
13F
330
13E
100
AcDbEntity
  8
1
  6
Continuous
 62
     2
100
AcDbLine
 10
252.407540015183
 20
345.8793412072
 30
0.0
 11
252.407540015183
 21
305.8793412072
 31
0.0
  0
LINE
  5
140
330
13E
100
AcDbEntity
  8
1
  6
Continuous
 62
     2
100
AcDbLine
 10
225.597731531
 20
345.8793412072
 30
0.0
 11
254.407540015183
 21
345.8793412072
 31
0.0
  0
LINE
  5
141
330
13E
100
AcDbEntity
  8
1
  6
Continuous
 62
     2
100
AcDbLine
 10
225.597731531
 20
305.8793412072
 30
0.0
 11
254.407540015183
 21
305.8793412072
 31
0.0
  0
SOLID
  5
142
330
13E
100
AcDbEntity
  8
1
 62
     2
100
AcDbTrace
 10
252.8683237567389
 20
342.3793412072
 30
0.0
 11
251.9467562736271
 21
342.3793412072
 31
0.0
 12
252.407540015183
 22
345.8793412072
 32
0.0
 13
252.407540015183
 23
345.8793412072
 33
0.0
  0
SOLID
  5
143
330
13E
100
AcDbEntity
  8
1
 62
     2
100
AcDbTrace
 10
251.9467562736271
 20
309.3793412072
 30
0.0
 11
252.8683237567389
 21
309.3793412072
 31
0.0
 12
252.407540015183
 22
305.8793412072
 32
0.0
 13
252.407540015183
 23
305.8793412072
 33
0.0
  0
MTEXT
  5
144
330
13E
100
AcDbEntity
  8
1
 62
     3
100
AcDbMText
 10
250.407540015183
 20
321.7092218107489
 30
0.0
 40
3.5
 41
0.0
 71
     7
 72
     1
  1
\C3;ER\C3;\C3;40\C2;\H2.45;\S^ ;\C3;
  7
CONVERTER_11
 11
0.0
 21
1.0
 31
0.0
 73
     1
 44
0.60024009603842
  0
ENDBLK
  5
146
330
13E
100
AcDbEntity
  8
0
100
AcDbBlockEnd
  0
BLOCK
  5
150
330
149
100
AcDbEntity
  8
0
100
AcDbBlockBegin
  2
*D3
 70
     1
 10
0.0
 20
0.0
 30
0.0
  3
*D3
  1

  0
LINE
  5
14A
330
149
100
AcDbEntity
  8
1
  6
Continuous
 62
     2
100
AcDbLine
 10
262.233532199913
 20
357.3793412071
 30
0.0
 11
262.233532199913
 21
294.3793412072
 31
0.0
  0
LINE
  5
14B
330
149
100
AcDbEntity
  8
1
  6
Continuous
 62
     2
100
AcDbLine
 10
222.597731531
 20
357.3793412071
 30
0.0
 11
264.233532199913
 21
357.3793412071
 31
0.0
  0
LINE
  5
14C
330
149
100
AcDbEntity
  8
1
  6
Continuous
 62
     2
100
AcDbLine
 10
222.597731531
 20
294.3793412072
 30
0.0
 11
264.233532199913
 21
294.3793412072
 31
0.0
  0
SOLID
  5
14D
330
149
100
AcDbEntity
  8
1
 62
     2
100
AcDbTrace
 10
262.6943159414689
 20
353.8793412071
 30
0.0
 11
261.7727484583571
 21
353.8793412071
 31
0.0
 12
262.233532199913
 22
357.3793412071
 32
0.0
 13
262.233532199913
 23
357.3793412071
 33
0.0
  0
SOLID
  5
14E
330
149
100
AcDbEntity
  8
1
 62
     2
100
AcDbTrace
 10
261.7727484583571
 20
297.8793412072
 30
0.0
 11
262.6943159414689
 21
297.8793412072
 31
0.0
 12
262.233532199913
 22
294.3793412072
 32
0.0
 13
262.233532199913
 23
294.3793412072
 33
0.0
  0
MTEXT
  5
14F
330
149
100
AcDbEntity
  8
1
 62
     3
100
AcDbMText
 10
260.233532199913
 20
318.293655913769
 30
0.0
 40
3.5
 41
0.0
 71
     7
 72
     1
  1
\C3;%%c\C3;\C3;63\C2;\H2.45;\S^ ;\C3;
  7
CONVERTER_11
 11
0.0
 21
1.0
 31
0.0
 73
     1
 44
0.60024009603842
  0
ENDBLK
  5
151
330
149
100
AcDbEntity
  8
0
100
AcDbBlockEnd
  0
BLOCK
  5
15B
330
154
100
AcDbEntity
  8
0
100
AcDbBlockBegin
  2
*D4
 70
     1
 10
0.0
 20
0.0
 30
0.0
  3
*D4
  1

  0
LINE
  5
155
330
154
100
AcDbEntity
  8
1
  6
Continuous
 62
     2
100
AcDbLine
 10
223.597731531
 20
383.132183905588
 30
0.0
 11
147.597731531
 21
383.132183905588
 31
0.0
  0
LINE
  5
156
330
154
100
AcDbEntity
  8
1
  6
Continuous
 62
     2
100
AcDbLine
 10
223.597731531
 20
352.8793412072
 30
0.0
 11
223.597731531
 21
385.132183905588
 31
0.0
  0
LINE
  5
157
330
154
100
AcDbEntity
  8
1
  6
Continuous
 62
     2
100
AcDbLine
 10
147.597731531
 20
377.879304337
 30
0.0
 11
147.597731531
 21
385.132183905588
 31
0.0
  0
SOLID
  5
158
330
154
100
AcDbEntity
  8
1
 62
     2
100
AcDbTrace
 10
220.097731531
 20
382.6714001640321
 30
0.0
 11
220.097731531
 21
383.5929676471439
 31
0.0
 12
223.597731531
 22
383.132183905588
 32
0.0
 13
223.597731531
 23
383.132183905588
 33
0.0
  0
SOLID
  5
159
330
154
100
AcDbEntity
  8
1
 62
     2
100
AcDbTrace
 10
151.097731531
 20
383.5929676471439
 30
0.0
 11
151.097731531
 21
382.6714001640321
 31
0.0
 12
147.597731531
 22
383.132183905588
 32
0.0
 13
147.597731531
 23
383.132183905588
 33
0.0
  0
MTEXT
  5
15A
330
154
100
AcDbEntity
  8
1
 62
     3
100
AcDbMText
 10
182.692978668412
 20
385.132183905588
 30
0.0
 40
3.5
 41
0.0
 71
     7
 72
     1
  1
\C3;\C3;\C3;76\C2;\H2.45;\S^ ;\C3;
  7
CONVERTER_11
 11
0.9999999999970619
 21
2.424068405545306E-6
 31
0.0
 73
     1
 44
0.60024009603842
  0
ENDBLK
  5
15C
330
154
100
AcDbEntity
  8
0
100
AcDbBlockEnd
  0
BLOCK
  5
166
330
15F
100
AcDbEntity
  8
0
100
AcDbBlockBegin
  2
*D5
 70
     1
 10
0.0
 20
0.0
 30
0.0
  3
*D5
  1

  0
LINE
  5
160
330
15F
100
AcDbEntity
  8
1
  6
Continuous
 62
     2
100
AcDbLine
 10
223.597731531
 20
390.619359889644
 30
0.0
 11
118.597731531
 21
390.619359889644
 31
0.0
  0
LINE
  5
161
330
15F
100
AcDbEntity
  8
1
  6
Continuous
 62
     2
100
AcDbLine
 10
223.597731531
 20
352.8793412072
 30
0.0
 11
223.597731531
 21
392.619359889644
 31
0.0
  0
LINE
  5
162
330
15F
100
AcDbEntity
  8
1
  6
Continuous
 62
     2
100
AcDbLine
 10
118.597731531
 20
377.8793412072
 30
0.0
 11
118.597731531
 21
392.619359889644
 31
0.0
  0
SOLID
  5
163
330
15F
100
AcDbEntity
  8
1
 62
     2
100
AcDbTrace
 10
220.097731531
 20
390.1585761480881
 30
0.0
 11
220.097731531
 21
391.0801436311999
 31
0.0
 12
223.597731531
 22
390.619359889644
 32
0.0
 13
223.597731531
 23
390.619359889644
 33
0.0
  0
SOLID
  5
164
330
15F
100
AcDbEntity
  8
1
 62
     2
100
AcDbTrace
 10
122.097731531
 20
391.0801436311999
 30
0.0
 11
122.097731531
 21
390.1585761480881
 31
0.0
 12
118.597731531
 22
390.619359889644
 32
0.0
 13
118.597731531
 23
390.619359889644
 33
0.0
  0
MTEXT
  5
165
330
15F
100
AcDbEntity
  8
1
 62
     3
100
AcDbMText
 10
169.703976128246
 20
392.619359889644
 30
0.0
 40
3.5
 41
0.0
 71
     7
 72
     1
  1
\C3;\C3;\C3;105\C2;\H2.45;\S^ ;\C3;
  7
CONVERTER_11
 11
0.9999999999970619
 21
2.424068405545306E-6
 31
0.0
 73
     1
 44
0.60024009603842
  0
ENDBLK
  5
167
330
15F
100
AcDbEntity
  8
0
100
AcDbBlockEnd
  0
BLOCK
  5
171
330
16A
100
AcDbEntity
  8
0
100
AcDbBlockBegin
  2
*D6
 70
     1
 10
0.0
 20
0.0
 30
0.0
  3
*D6
  1

  0
LINE
  5
16B
330
16A
100
AcDbEntity
  8
1
  6
Continuous
 62
     2
100
AcDbLine
 10
118.597731531
 20
400.084280473262
 30
0.0
 11
238.597731531
 21
400.084280473262
 31
0.0
  0
LINE
  5
16C
330
16A
100
AcDbEntity
  8
1
  6
Continuous
 62
     2
100
AcDbLine
 10
118.597731531
 20
377.8793412072
 30
0.0
 11
118.597731531
 21
402.084280473262
 31
0.0
  0
LINE
  5
16D
330
16A
100
AcDbEntity
  8
1
  6
Continuous
 62
     2
100
AcDbLine
 10
238.597731531
 20
353.3793412072
 30
0.0
 11
238.597731531
 21
402.084280473262
 31
0.0
  0
SOLID
  5
16E
330
16A
100
AcDbEntity
  8
1
 62
     2
100
AcDbTrace
 10
122.097731531
 20
400.5450642148179
 30
0.0
 11
122.097731531
 21
399.6234967317062
 31
0.0
 12
118.597731531
 22
400.084280473262
 32
0.0
 13
118.597731531
 23
400.084280473262
 33
0.0
  0
SOLID
  5
16F
330
16A
100
AcDbEntity
  8
1
 62
     2
100
AcDbTrace
 10
235.097731531
 20
399.6234967317062
 30
0.0
 11
235.097731531
 21
400.5450642148179
 31
0.0
 12
238.597731531
 22
400.084280473262
 32
0.0
 13
238.597731531
 23
400.084280473262
 33
0.0
  0
MTEXT
  5
170
330
16A
100
AcDbEntity
  8
1
 62
     3
100
AcDbMText
 10
177.049884640905
 20
402.084280473262
 30
0.0
 40
3.5
 41
0.0
 71
     7
 72
     1
  1
\C3;\C3;\C3;120\C2;\H2.45;\S^ ;\C3;
  7
CONVERTER_11
 11
0.9999999999970619
 21
2.424068405545306E-6
 31
0.0
 73
     1
 44
0.60024009603842
  0
ENDBLK
  5
172
330
16A
100
AcDbEntity
  8
0
100
AcDbBlockEnd
  0
BLOCK
  5
17C
330
175
100
AcDbEntity
  8
0
100
AcDbBlockBegin
  2
*D7
 70
     1
 10
0.0
 20
0.0
 30
0.0
  3
*D7
  1

  0
LINE
  5
176
330
175
100
AcDbEntity
  8
1
  6
Continuous
 62
     2
100
AcDbLine
 10
223.597731531
 20
407.571456457318
 30
0.0
 11
68.597731531
 21
407.571456457318
 31
0.0
  0
LINE
  5
177
330
175
100
AcDbEntity
  8
1
  6
Continuous
 62
     2
100
AcDbLine
 10
223.597731531
 20
352.8793412072
 30
0.0
 11
223.597731531
 21
409.571456457318
 31
0.0
  0
LINE
  5
178
330
175
100
AcDbEntity
  8
1
  6
Continuous
 62
     2
100
AcDbLine
 10
68.597731531
 20
361.4795327697
 30
0.0
 11
68.597731531
 21
409.571456457318
 31
0.0
  0
SOLID
  5
179
330
175
100
AcDbEntity
  8
1
 62
     2
100
AcDbTrace
 10
220.097731531
 20
407.1106727157621
 30
0.0
 11
220.097731531
 21
408.0322401988739
 31
0.0
 12
223.597731531
 22
407.571456457318
 32
0.0
 13
223.597731531
 23
407.571456457318
 33
0.0
  0
SOLID
  5
17A
330
175
100
AcDbEntity
  8
1
 62
     2
100
AcDbTrace
 10
72.097731531
 20
408.0322401988739
 30
0.0
 11
72.097731531
 21
407.1106727157621
 31
0.0
 12
68.597731531
 22
407.571456457318
 32
0.0
 13
68.597731531
 23
407.571456457318
 33
0.0
  0
MTEXT
  5
17B
330
175
100
AcDbEntity
  8
1
 62
     3
100
AcDbMText
 10
146.112308404899
 20
409.571456457318
 30
0.0
 40
3.5
 41
0.0
 71
     7
 72
     1
  1
\C3;\C3;\C3;155\C2;\H2.45;\S^ ;\C3;
  7
CONVERTER_11
 11
0.9999999999970619
 21
2.424068405545306E-6
 31
0.0
 73
     1
 44
0.60024009603842
  0
ENDBLK
  5
17D
330
175
100
AcDbEntity
  8
0
100
AcDbBlockEnd
  0
BLOCK
  5
184
330
180
100
AcDbEntity
  8
0
100
AcDbBlockBegin
  2
*D8
 70
     1
 10
0.0
 20
0.0
 30
0.0
  3
*D8
  1

  0
LINE
  5
181
330
180
100
AcDbEntity
  8
1
  6
Continuous
 62
     2
100
AcDbLine
 10
158.010863191372
 20
364.7995453570947
 30
0.0
 11
148.548145376599
 21
357.9466202900169
 31
0.0
  0
SOLID
  5
182
330
180
100
AcDbEntity
  8
1
 62
     2
100
AcDbTrace
 10
151.112585661248
 20
360.3727216240406
 30
0.0
 11
151.6531257081115
 21
359.6263282400495
 31
0.0
 12
148.548145376599
 22
357.9466202900169
 32
0.0
 13
148.548145376599
 23
357.9466202900169
 33
0.0
  0
MTEXT
  5
183
330
180
100
AcDbEntity
  8
1
 62
     3
100
AcDbMText
 10
150.8281889713677
 20
362.0672219777554
 30
0.0
 40
3.5
 41
0.0
 71
     7
 72
     1
  1
\C3; R\C3;\C3;5\C2;\H2.45;\S^ ;\C3;
  7
CONVERTER_11
 11
0.8099172308802089
 21
0.5865441834366227
 31
0.0
 73
     1
 44
0.60024009603842
  0
ENDBLK
  5
185
330
180
100
AcDbEntity
  8
0
100
AcDbBlockEnd
  0
ENDSEC
  0
SECTION
  2
ENTITIES
  0
INSERT
  5
6D
330
1F
100
AcDbEntity
  8
0
100
AcDbBlockReference
  2
Urheberrecht_DE-EN
 10
56.8020028804348
 20
345.099070572432
 30
0.0
  0
LINE
  5
71
330
1F
100
AcDbEntity
  8
BEZUGSACHSEN
  6
Continuous
 62
     7
100
AcDbLine
 10
68.597731531
 20
292.2791716886
 30
0.0
 11
68.597731531
 21
313.8693412072
 31
0.0
  0
LINE
  5
72
330
1F
100
AcDbEntity
  8
BEZUGSACHSEN
  6
Continuous
 62
     7
100
AcDbLine
 10
68.597731531
 20
337.8893412072
 30
0.0
 11
68.597731531
 21
359.4795327697
 31
0.0
  0
LINE
  5
73
330
1F
100
AcDbEntity
  8
BEZUGSACHSEN
  6
Continuous
 62
     9
100
AcDbLine
 10
70.4976570463
 20
361.4770274755
 30
0.0
 11
70.4976570463
 21
341.5558735934
 31
0.0
  0
LINE
  5
74
330
1F
100
AcDbEntity
  8
BEZUGSACHSEN
  6
Continuous
 62
     9
100
AcDbLine
 10
70.4976570463
 20
310.2028088209
 30
0.0
 11
70.4976570463
 21
290.2816549389
 31
0.0
  0
LINE
  5
75
330
1F
100
AcDbEntity
  8
BEZUGSACHSEN
  6
Continuous
 62
     7
100
AcDbLine
 10
70.597731531
 20
313.4757012588
 30
0.0
 11
70.597731531
 21
315.8693412072
 31
0.0
  0
LINE
  5
76
330
1F
100
AcDbEntity
  8
BEZUGSACHSEN
  6
Continuous
 62
     7
100
AcDbLine
 10
70.597731531
 20
335.8893412072
 30
0.0
 11
70.597731531
 21
338.2829811556
 31
0.0
  0
LINE
  5
77
330
1F
100
AcDbEntity
  8
BEZUGSACHSEN
  6
Continuous
 62
     9
100
AcDbLine
 10
76.597731531
 20
309.5206936197
 30
0.0
 11
76.597731531
 21
315.8693412072
 31
0.0
  0
LINE
  5
78
330
1F
100
AcDbEntity
  8
BEZUGSACHSEN
  6
Continuous
 62
     9
100
AcDbLine
 10
76.597731531
 20
335.8893412072
 30
0.0
 11
76.597731531
 21
342.2379887946
 31
0.0
  0
LINE
  5
79
330
1F
100
AcDbEntity
  8
BEZUGSACHSEN
  6
Continuous
 62
     7
100
AcDbLine
 10
78.597731531
 20
338.748996733
 30
0.0
 11
78.597731531
 21
313.0096856814
 31
0.0
  0
LINE
  5
7A
330
1F
100
AcDbEntity
  8
BEZUGSACHSEN
  6
Continuous
 62
     7
100
AcDbLine
 10
69.8646844581
 20
310.8693412072
 30
0.0
 11
69.7435742066
 21
310.6370052117
 31
0.0
  0
LINE
  5
7B
330
1F
100
AcDbEntity
  8
BEZUGSACHSEN
  6
Continuous
 62
     7
100
AcDbLine
 10
69.7435742066
 20
341.1216772026
 30
0.0
 11
69.8646844581
 21
340.8893412072
 31
0.0
  0
LWPOLYLINE
  5
7C
330
1F
100
AcDbEntity
  8
BEZUGSACHSEN
  6
DOT_CENTER
 62
     7
100
AcDbPolyline
 90
        2
 70
     0
 43
0.25
 10
103.597731531
 20
316.8793412072
 10
103.597731531
 20
334.8793412072
  0
LINE
  5
7D
330
1F
100
AcDbEntity
  8
BEZUGSACHSEN
  6
Continuous
 62
     7
100
AcDbLine
 10
68.597731531
 20
313.8693412072
 30
0.0
 11
70.597731531
 21
315.8693412072
 31
0.0
  0
LINE
  5
7E
330
1F
100
AcDbEntity
  8
BEZUGSACHSEN
  6
Continuous
 62
     7
100
AcDbLine
 10
135.3501362669
 20
275.8793412072
 30
0.0
 11
118.597731531
 21
275.8793412072
 31
0.0
  0
LINE
  5
7F
330
1F
100
AcDbEntity
  8
BEZUGSACHSEN
  6
Continuous
 62
     7
100
AcDbLine
 10
141.8453267952
 20
275.8793412072
 30
0.0
 11
147.597731531
 21
275.8793412072
 31
0.0
  0
LINE
  5
80
330
1F
100
AcDbEntity
  8
BEZUGSACHSEN
  6
Continuous
 62
     7
100
AcDbLine
 10
137.722731531
 20
279.8793412072
 30
0.0
 11
139.472731531
 21
279.8793412072
 31
0.0
  0
LINE
  5
81
330
1F
100
AcDbEntity
  8
BEZUGSACHSEN
  6
Continuous
 62
     7
100
AcDbLine
 10
70.597731531
 20
335.8893412072
 30
0.0
 11
68.597731531
 21
337.8893412072
 31
0.0
  0
LINE
  5
82
330
1F
100
AcDbEntity
  8
FASEN
  6
Continuous
 62
     7
100
AcDbLine
 10
123.9412807212
 20
286.9283784463
 30
0.0
 11
135.3501362669
 21
286.9283784463
 31
0.0
  0
LINE
  5
83
330
1F
100
AcDbEntity
  8
FASEN
  6
Continuous
 62
     7
100
AcDbLine
 10
141.8453267952
 20
286.9283784463
 30
0.0
 11
147.147731531
 21
286.9283784463
 31
0.0
  0
LINE
  5
84
330
1F
100
AcDbEntity
  8
BEZUGSACHSEN
  6
Continuous
 62
     7
100
AcDbLine
 10
116.097731531
 20
287.9970912072
 30
0.0
 11
70.4976570463
 21
290.2816549389
 31
0.0
  0
LINE
  5
85
330
1F
100
AcDbEntity
  8
BEZUGSACHSEN
  6
Continuous
 62
     7
100
AcDbLine
 10
116.097731531
 20
363.7615912072
 30
0.0
 11
116.097731531
 21
287.9970912072
 31
0.0
  0
LINE
  5
86
330
1F
100
AcDbEntity
  8
BEZUGSACHSEN
  6
Continuous
 62
     9
100
AcDbLine
 10
116.716975145
 20
288.1630170335
 30
0.0
 11
116.716975145
 21
363.5956653809
 31
0.0
  0
LINE
  5
87
330
1F
100
AcDbEntity
  8
BEZUGSACHSEN
  6
Continuous
 62
     9
100
AcDbLine
 10
116.9757941902
 20
288.1970912072
 30
0.0
 11
116.9757941902
 21
363.5615912072
 31
0.0
  0
LINE
  5
88
330
1F
100
AcDbEntity
  8
BEZUGSACHSEN
  6
Continuous
 62
     9
100
AcDbLine
 10
117.8971602424
 20
288.1970912072
 30
0.0
 11
117.8971602424
 21
363.5615912072
 31
0.0
  0
LINE
  5
89
330
1F
100
AcDbEntity
  8
BEZUGSACHSEN
  6
Continuous
 62
     7
100
AcDbLine
 10
118.597731531
 20
375.8793412072
 30
0.0
 11
118.597731531
 21
275.8793412072
 31
0.0
  0
LINE
  5
8A
330
1F
100
AcDbEntity
  8
BEZUGSACHSEN
  6
Continuous
 62
     7
100
AcDbLine
 10
140.472731531
 20
373.5019364714
 30
0.0
 11
141.8453267952
 21
375.8793412072
 31
0.0
  0
LINE
  5
8B
330
1F
100
AcDbEntity
  8
BEZUGSACHSEN
  6
Continuous
 62
     7
100
AcDbLine
 10
117.8971602424
 20
288.1970912072
 30
0.0
 11
116.9757941902
 21
288.1970912072
 31
0.0
  0
LINE
  5
8C
330
1F
100
AcDbEntity
  8
0
  6
Continuous
 62
     7
100
AcDbLine
 10
137.722731531
 20
292.2166392954
 30
0.0
 11
139.472731531
 21
292.2166392954
 31
0.0
  0
LINE
  5
8D
330
1F
100
AcDbEntity
  8
BEZUGSACHSEN
  6
Continuous
 62
     7
100
AcDbLine
 10
140.472731531
 20
278.256745943
 30
0.0
 11
141.8453267952
 21
275.8793412072
 31
0.0
  0
LWPOLYLINE
  5
8E
330
1F
100
AcDbEntity
  8
BEZUGSACHSEN
  6
DOT_CENTER
 62
     7
100
AcDbPolyline
 90
        2
 70
     0
 43
0.25
 10
125.597731531
 20
368.0287130625
 10
125.597731531
 20
378.8793412072
  0
LINE
  5
8F
330
1F
100
AcDbEntity
  8
BEZUGSACHSEN
  6
Continuous
 62
     9
100
AcDbLine
 10
68.597731531
 20
312.4331572381
 30
0.0
 11
70.597731531
 21
313.4757012588
 31
0.0
  0
LINE
  5
90
330
1F
100
AcDbEntity
  8
BEZUGSACHSEN
  6
Continuous
 62
     7
100
AcDbLine
 10
116.716975145
 20
288.1630170335
 30
0.0
 11
116.097731531
 21
287.9970912072
 31
0.0
  0
LINE
  5
91
330
1F
100
AcDbEntity
  8
FASEN
  6
Continuous
 62
     7
100
AcDbLine
 10
131.5307977864
 20
294.1293412072
 30
0.0
 11
147.147731531
 21
294.1293412072
 31
0.0
  0
LINE
  5
92
330
1F
100
AcDbEntity
  8
BEZUGSACHSEN
  6
Continuous
 62
     7
100
AcDbLine
 10
214.347731531
 20
294.3793412072
 30
0.0
 11
220.597731531
 21
294.3793412072
 31
0.0
  0
LINE
  5
93
330
1F
100
AcDbEntity
  8
0
  6
Continuous
 62
     7
100
AcDbLine
 10
131.5307977864
 20
294.5293412072
 30
0.0
 11
147.547731531
 21
294.5293412072
 31
0.0
  0
LINE
  5
94
330
1F
100
AcDbEntity
  8
FASEN
  6
Continuous
 62
     7
100
AcDbLine
 10
220.8392788694
 20
294.6308885456
 30
0.0
 11
234.4119420794
 21
294.6308885456
 31
0.0
  0
LINE
  5
95
330
1F
100
AcDbEntity
  8
0
  6
Continuous
 62
     7
100
AcDbLine
 10
152.597731531
 20
295.8793412072
 30
0.0
 11
195.3550908439
 21
295.8793412072
 31
0.0
  0
LINE
  5
96
330
1F
100
AcDbEntity
  8
0
  6
Continuous
 62
     7
100
AcDbLine
 10
236.6090393558
 20
297.1293412072
 30
0.0
 11
236.7213431562
 21
297.1293412072
 31
0.0
  0
LINE
  5
97
330
1F
100
AcDbEntity
  8
BEZUGSACHSEN
  6
Continuous
 62
     9
100
AcDbLine
 10
70.597731531
 20
338.2829811556
 30
0.0
 11
68.597731531
 21
339.3255251762
 31
0.0
  0
LINE
  5
98
330
1F
100
AcDbEntity
  8
FASEN
  6
Continuous
 62
     9
100
AcDbLine
 10
131.5307977864
 20
294.1293412072
 30
0.0
 11
131.5307977864
 21
294.5293412072
 31
0.0
  0
LINE
  5
99
330
1F
100
AcDbEntity
  8
FASEN
  6
Continuous
 62
     9
100
AcDbLine
 10
133.568731531
 20
335.9003412072
 30
0.0
 11
133.568731531
 21
335.5003412072
 31
0.0
  0
LINE
  5
9A
330
1F
100
AcDbEntity
  8
FASEN
  6
Continuous
 62
     9
100
AcDbLine
 10
133.568731531
 20
315.8583412072
 30
0.0
 11
133.568731531
 21
316.2583412072
 31
0.0
  0
LWPOLYLINE
  5
9B
330
1F
100
AcDbEntity
  8
RUNDUNGEN
  6
DASHED
 62
     8
100
AcDbPolyline
 90
        2
 70
     0
 43
0.35
 10
223.597731531
 20
300.8793412072
 10
213.097731531
 20
300.8793412072
  0
LINE
  5
9C
330
1F
100
AcDbEntity
  8
RUNDUNGEN
  6
Continuous
 62
     7
100
AcDbLine
 10
213.097731531
 20
300.8793412072
 30
0.0
 11
202.0119450934
 21
300.8793412072
 31
0.0
  0
LINE
  5
9D
330
1F
100
AcDbEntity
  8
0
  6
Continuous
 62
     7
100
AcDbLine
 10
202.0119450934
 20
300.8793412072
 30
0.0
 11
213.097731531
 21
300.8793412072
 31
0.0
  0
LINE
  5
9E
330
1F
100
AcDbEntity
  8
FASEN
  6
Continuous
 62
     7
100
AcDbLine
 10
220.8392788694
 20
306.814452921
 30
0.0
 11
234.4119420794
 21
306.814452921
 31
0.0
  0
LINE
  5
9F
330
1F
100
AcDbEntity
  8
0
  6
Continuous
 62
     7
100
AcDbLine
 10
135.3501362669
 20
375.8793412072
 30
0.0
 11
135.3501362669
 21
335.9003412072
 31
0.0
  0
LINE
  5
A0
330
1F
100
AcDbEntity
  8
0
  6
Continuous
 62
     7
100
AcDbLine
 10
135.3501362669
 20
315.8583412072
 30
0.0
 11
135.3501362669
 21
294.5293412072
 31
0.0
  0
LINE
  5
A1
330
1F
100
AcDbEntity
  8
0
  6
Continuous
 62
     7
100
AcDbLine
 10
135.3501362669
 20
286.9283784463
 30
0.0
 11
135.3501362669
 21
275.8793412072
 31
0.0
  0
LINE
  5
A2
330
1F
100
AcDbEntity
  8
0
  6
Continuous
 62
     7
100
AcDbLine
 10
136.722731531
 20
373.5019030953
 30
0.0
 11
136.722731531
 21
335.9003412072
 31
0.0
  0
LINE
  5
A3
330
1F
100
AcDbEntity
  8
0
  6
Continuous
 62
     7
100
AcDbLine
 10
136.722731531
 20
315.8583412072
 30
0.0
 11
136.722731531
 21
294.5293412072
 31
0.0
  0
LINE
  5
A4
330
1F
100
AcDbEntity
  8
0
  6
Continuous
 62
     7
100
AcDbLine
 10
136.722731531
 20
278.2567822111
 30
0.0
 11
136.722731531
 21
290.862523819
 31
0.0
  0
LINE
  5
A5
330
1F
100
AcDbEntity
  8
0
  6
Continuous
 62
     9
100
AcDbLine
 10
137.722731531
 20
279.8793412072
 30
0.0
 11
137.722731531
 21
292.2166392954
 31
0.0
  0
LINE
  5
A6
330
1F
100
AcDbEntity
  8
0
  6
Continuous
 62
     9
100
AcDbLine
 10
137.722731531
 20
294.5293412072
 30
0.0
 11
137.722731531
 21
315.8583412072
 31
0.0
  0
LINE
  5
A7
330
1F
100
AcDbEntity
  8
0
  6
Continuous
 62
     9
100
AcDbLine
 10
137.722731531
 20
335.9003412072
 30
0.0
 11
137.722731531
 21
371.8793412072
 31
0.0
  0
LINE
  5
A8
330
1F
100
AcDbEntity
  8
0
  6
Continuous
 62
     9
100
AcDbLine
 10
139.472731531
 20
279.8793412072
 30
0.0
 11
139.472731531
 21
292.2166392954
 31
0.0
  0
LINE
  5
A9
330
1F
100
AcDbEntity
  8
0
  6
Continuous
 62
     9
100
AcDbLine
 10
139.472731531
 20
294.5293412072
 30
0.0
 11
139.472731531
 21
315.8583412072
 31
0.0
  0
LINE
  5
AA
330
1F
100
AcDbEntity
  8
0
  6
Continuous
 62
     9
100
AcDbLine
 10
139.472731531
 20
335.9003412072
 30
0.0
 11
139.472731531
 21
371.8793412072
 31
0.0
  0
LINE
  5
AB
330
1F
100
AcDbEntity
  8
0
  6
Continuous
 62
     7
100
AcDbLine
 10
140.472731531
 20
278.2567822111
 30
0.0
 11
140.472731531
 21
290.862523819
 31
0.0
  0
LINE
  5
AC
330
1F
100
AcDbEntity
  8
0
  6
Continuous
 62
     7
100
AcDbLine
 10
140.472731531
 20
294.5293412072
 30
0.0
 11
140.472731531
 21
315.8583412072
 31
0.0
  0
LINE
  5
AD
330
1F
100
AcDbEntity
  8
0
  6
Continuous
 62
     7
100
AcDbLine
 10
140.472731531
 20
335.9003412072
 30
0.0
 11
140.472731531
 21
373.5019030953
 31
0.0
  0
LINE
  5
AE
330
1F
100
AcDbEntity
  8
RUNDUNGEN
  6
Continuous
 62
     7
100
AcDbLine
 10
236.6090393558
 20
308.6031561045
 30
0.0
 11
224.4561081495
 21
308.6031561045
 31
0.0
  0
LWPOLYLINE
  5
AF
330
1F
100
AcDbEntity
  8
DEFAULT_2
  6
DASHED
 62
     8
100
AcDbPolyline
 90
        2
 70
     0
 43
0.35
 10
189.7997253497
 20
310.6293412072
 10
185.597731531
 20
310.6293412072
  0
LINE
  5
B0
330
1F
100
AcDbEntity
  8
BEZUGSACHSEN
  6
Continuous
 62
     9
100
AcDbLine
 10
78.151577478
 20
310.8693412072
 30
0.0
 11
69.8646844581
 21
310.8693412072
 31
0.0
  0
LINE
  5
B1
330
1F
100
AcDbEntity
  8
0
  6
Continuous
 62
     7
100
AcDbLine
 10
141.8453267952
 20
375.8793412072
 30
0.0
 11
141.8453267952
 21
335.9003412072
 31
0.0
  0
LINE
  5
B2
330
1F
100
AcDbEntity
  8
0
  6
Continuous
 62
     7
100
AcDbLine
 10
141.8453267952
 20
315.8583412072
 30
0.0
 11
141.8453267952
 21
294.5293412072
 31
0.0
  0
LINE
  5
B3
330
1F
100
AcDbEntity
  8
0
  6
Continuous
 62
     7
100
AcDbLine
 10
141.8453267952
 20
286.9283784463
 30
0.0
 11
141.8453267952
 21
275.8793412072
 31
0.0
  0
LINE
  5
B4
330
1F
100
AcDbEntity
  8
FASEN
  6
Continuous
 62
     7
100
AcDbLine
 10
147.147731531
 20
294.1293412072
 30
0.0
 11
147.147731531
 21
286.9283784463
 31
0.0
  0
LINE
  5
B5
330
1F
100
AcDbEntity
  8
FASEN
  6
Continuous
 62
     7
100
AcDbLine
 10
147.547731531
 20
294.5293412072
 30
0.0
 11
147.547731531
 21
287.2537344158
 31
0.0
  0
LINE
  5
B6
330
1F
100
AcDbEntity
  8
0
  6
Continuous
 62
     7
100
AcDbLine
 10
147.597731531
 20
375.879304337
 30
0.0
 11
147.597731531
 21
335.9003412072
 31
0.0
  0
LINE
  5
B7
330
1F
100
AcDbEntity
  8
0
  6
Continuous
 62
     7
100
AcDbLine
 10
147.597731531
 20
315.8583412072
 30
0.0
 11
147.597731531
 21
275.8793782027
 31
0.0
  0
LINE
  5
B8
330
1F
100
AcDbEntity
  8
FASEN
  6
Continuous
 62
     7
100
AcDbLine
 10
147.597731531
 20
315.8583412072
 30
0.0
 11
147.597731531
 21
335.9003412072
 31
0.0
  0
LINE
  5
B9
330
1F
100
AcDbEntity
  8
FASEN
  6
Continuous
 62
     7
100
AcDbLine
 10
220.8392788694
 20
313.6957768318
 30
0.0
 11
234.4119420794
 21
313.6957768318
 31
0.0
  0
LINE
  5
BA
330
1F
100
AcDbEntity
  8
0
  6
Continuous
 62
     7
100
AcDbLine
 10
133.568731531
 20
315.8583412072
 30
0.0
 11
147.597731531
 21
315.8583412072
 31
0.0
  0
LINE
  5
BB
330
1F
100
AcDbEntity
  8
BEZUGSACHSEN
  6
Continuous
 62
     7
100
AcDbLine
 10
76.597731531
 20
315.8693412072
 30
0.0
 11
70.597731531
 21
315.8693412072
 31
0.0
  0
LINE
  5
BC
330
1F
100
AcDbEntity
  8
FASEN
  6
Continuous
 62
     7
100
AcDbLine
 10
133.568731531
 20
316.2583412072
 30
0.0
 11
147.597731531
 21
316.2583412072
 31
0.0
  0
LWPOLYLINE
  5
BD
330
1F
100
AcDbEntity
  8
DEFAULT_2
  6
DASHED
 62
     8
100
AcDbPolyline
 90
        2
 70
     0
 43
0.35
 10
223.597731531
 20
305.8793412072
 10
189.7997253497
 20
310.6293412072
  0
LINE
  5
BE
330
1F
100
AcDbEntity
  8
RUNDUNGEN
  6
Continuous
 62
     9
100
AcDbLine
 10
152.597731531
 20
355.8793412072
 30
0.0
 11
152.597731531
 21
295.8793412072
 31
0.0
  0
LWPOLYLINE
  5
BF
330
1F
100
AcDbEntity
  8
BG_STARTBEZUEGE
  6
DOT_CENTER
 62
     7
100
AcDbPolyline
 90
        2
 70
     0
 43
0.25
 10
241.597731531
 20
325.8793412072
 10
65.597731531
 20
325.8793412072
  0
LINE
  5
C0
330
1F
100
AcDbEntity
  8
BEZUGSACHSEN
  6
Continuous
 62
     7
100
AcDbLine
 10
135.3501362669
 20
275.8793412072
 30
0.0
 11
136.722731531
 21
278.256745943
 31
0.0
  0
LWPOLYLINE
  5
C1
330
1F
100
AcDbEntity
  8
DEFAULT_2
  6
DASHED
 62
     8
100
AcDbPolyline
 90
        2
 70
     0
 43
0.35
 10
223.597731531
 20
345.8793412072
 10
189.7997253497
 20
341.1293412072
  0
LINE
  5
C2
330
1F
100
AcDbEntity
  8
FASEN
  6
Continuous
 62
     7
100
AcDbLine
 10
147.597731531
 20
335.5003412072
 30
0.0
 11
133.568731531
 21
335.5003412072
 31
0.0
  0
LINE
  5
C3
330
1F
100
AcDbEntity
  8
BEZUGSACHSEN
  6
Continuous
 62
     7
100
AcDbLine
 10
76.597731531
 20
335.8893412072
 30
0.0
 11
70.597731531
 21
335.8893412072
 31
0.0
  0
LINE
  5
C4
330
1F
100
AcDbEntity
  8
0
  6
Continuous
 62
     7
100
AcDbLine
 10
133.568731531
 20
335.9003412072
 30
0.0
 11
147.597731531
 21
335.9003412072
 31
0.0
  0
LINE
  5
C5
330
1F
100
AcDbEntity
  8
FASEN
  6
Continuous
 62
     7
100
AcDbLine
 10
220.8392788694
 20
338.0629055825
 30
0.0
 11
234.4119420794
 21
338.0629055825
 31
0.0
  0
LINE
  5
C6
330
1F
100
AcDbEntity
  8
BEZUGSACHSEN
  6
Continuous
 62
     7
100
AcDbLine
 10
135.3501362669
 20
375.8793412072
 30
0.0
 11
136.722731531
 21
373.5019364714
 31
0.0
  0
LINE
  5
C7
330
1F
100
AcDbEntity
  8
FASEN
  6
Continuous
 62
     7
100
AcDbLine
 10
147.547731531
 20
294.5293412072
 30
0.0
 11
147.147731531
 21
294.1293412072
 31
0.0
  0
LINE
  5
C8
330
1F
100
AcDbEntity
  8
BEZUGSACHSEN
  6
Continuous
 62
     9
100
AcDbLine
 10
69.8646844581
 20
340.8893412072
 30
0.0
 11
78.151577478
 21
340.8893412072
 31
0.0
  0
LWPOLYLINE
  5
C9
330
1F
100
AcDbEntity
  8
DEFAULT_2
  6
DASHED
 62
     8
100
AcDbPolyline
 90
        2
 70
     0
 43
0.35
 10
189.7997253497
 20
341.1293412072
 10
185.597731531
 20
341.1293412072
  0
LINE
  5
CA
330
1F
100
AcDbEntity
  8
RUNDUNGEN
  6
Continuous
 62
     7
100
AcDbLine
 10
236.6090393558
 20
343.1555263098
 30
0.0
 11
224.4561081495
 21
343.1555263098
 31
0.0
  0
LINE
  5
CB
330
1F
100
AcDbEntity
  8
FASEN
  6
Continuous
 62
     7
100
AcDbLine
 10
220.8392788694
 20
344.9442294934
 30
0.0
 11
234.4119420794
 21
344.9442294934
 31
0.0
  0
LINE
  5
CC
330
1F
100
AcDbEntity
  8
RUNDUNGEN
  6
Continuous
 62
     7
100
AcDbLine
 10
213.097731531
 20
350.8793412072
 30
0.0
 11
202.0119450934
 21
350.8793412072
 31
0.0
  0
LINE
  5
CD
330
1F
100
AcDbEntity
  8
0
  6
Continuous
 62
     7
100
AcDbLine
 10
202.0119450934
 20
350.8793412072
 30
0.0
 11
213.097731531
 21
350.8793412072
 31
0.0
  0
LWPOLYLINE
  5
CE
330
1F
100
AcDbEntity
  8
DEFAULT_2
  6
DASHED
 62
     8
100
AcDbPolyline
 90
        2
 70
     0
 43
0.35
 10
213.097731531
 20
350.8793412072
 10
223.597731531
 20
350.8793412072
  0
LINE
  5
CF
330
1F
100
AcDbEntity
  8
BEZUGSACHSEN
  6
Continuous
 62
     7
100
AcDbLine
 10
116.716975145
 20
363.5956653809
 30
0.0
 11
116.097731531
 21
363.7615912072
 31
0.0
  0
LWPOLYLINE
  5
D0
330
1F
100
AcDbEntity
  8
DEFAULT_2
  6
DASHED
 62
     8
100
AcDbPolyline
 90
        2
 70
     0
 43
0.35
 10
185.597731531
 20
341.1293412072
 10
185.597731531
 20
310.6293412072
  0
LINE
  5
D1
330
1F
100
AcDbEntity
  8
0
  6
Continuous
 62
     7
100
AcDbLine
 10
236.7213431562
 20
354.6293412071
 30
0.0
 11
236.6090393558
 21
354.6293412071
 31
0.0
  0
LINE
  5
D2
330
1F
100
AcDbEntity
  8
RUNDUNGEN
  6
Continuous
 62
     7
100
AcDbLine
 10
195.3550908439
 20
355.8793412072
 30
0.0
 11
152.597731531
 21
355.8793412072
 31
0.0
  0
LINE
  5
D3
330
1F
100
AcDbEntity
  8
0
  6
Continuous
 62
     7
100
AcDbLine
 10
152.597731531
 20
355.8793412072
 30
0.0
 11
195.3550908439
 21
355.8793412072
 31
0.0
  0
LINE
  5
D4
330
1F
100
AcDbEntity
  8
FASEN
  6
Continuous
 62
     7
100
AcDbLine
 10
220.8392788694
 20
357.1277938687
 30
0.0
 11
234.4119420794
 21
357.1277938687
 31
0.0
  0
LINE
  5
D5
330
1F
100
AcDbEntity
  8
0
  6
Continuous
 62
     7
100
AcDbLine
 10
220.597731531
 20
357.3793412071
 30
0.0
 11
214.347731531
 21
357.3793412071
 31
0.0
  0
LINE
  5
D6
330
1F
100
AcDbEntity
  8
BEZUGSACHSEN
  6
Continuous
 62
     7
100
AcDbLine
 10
214.347731531
 20
357.3793412071
 30
0.0
 11
220.597731531
 21
357.3793412071
 31
0.0
  0
LWPOLYLINE
  5
D7
330
1F
100
AcDbEntity
  8
DEFAULT_2
  6
DASHED
 62
     8
100
AcDbPolyline
 90
        2
 70
     0
 43
0.35
 10
189.7997253497
 20
341.1293412072
 10
189.7997253497
 20
310.6293412072
  0
LINE
  5
D8
330
1F
100
AcDbEntity
  8
BEZUGSACHSEN
  6
Continuous
 62
     7
100
AcDbLine
 10
116.097731531
 20
363.7615912072
 30
0.0
 11
70.4976570463
 21
361.4770274755
 31
0.0
  0
LINE
  5
D9
330
1F
100
AcDbEntity
  8
BEZUGSACHSEN
  6
Continuous
 62
     7
100
AcDbLine
 10
117.8971602424
 20
363.5615912072
 30
0.0
 11
116.9757941902
 21
363.5615912072
 31
0.0
  0
LINE
  5
DA
330
1F
100
AcDbEntity
  8
RUNDUNGEN
  6
Continuous
 62
     9
100
AcDbLine
 10
195.3550908439
 20
295.8793412072
 30
0.0
 11
195.3550908439
 21
355.8793412072
 31
0.0
  0
LINE
  5
DB
330
1F
100
AcDbEntity
  8
RUNDUNGEN
  6
Continuous
 62
     9
100
AcDbLine
 10
197.4764111875
 20
296.7580208636
 30
0.0
 11
197.4764111875
 21
355.0006615507
 31
0.0
  0
LINE
  5
DC
330
1F
100
AcDbEntity
  8
BEZUGSACHSEN
  6
Continuous
 62
     7
100
AcDbLine
 10
137.722731531
 20
371.8793412072
 30
0.0
 11
139.472731531
 21
371.8793412072
 31
0.0
  0
LINE
  5
DD
330
1F
100
AcDbEntity
  8
RUNDUNGEN
  6
Continuous
 62
     9
100
AcDbLine
 10
201.3048383122
 20
351.172234426
 30
0.0
 11
201.3048383122
 21
300.5864479884
 31
0.0
  0
LINE
  5
DE
330
1F
100
AcDbEntity
  8
RUNDUNGEN
  6
Continuous
 62
     9
100
AcDbLine
 10
202.0119450934
 20
350.8793412072
 30
0.0
 11
202.0119450934
 21
300.8793412072
 31
0.0
  0
LINE
  5
DF
330
1F
100
AcDbEntity
  8
0
  6
Continuous
 62
     7
100
AcDbLine
 10
197.4764111875
 20
296.7580208636
 30
0.0
 11
201.3048383122
 21
300.5864479884
 31
0.0
  0
LINE
  5
E0
330
1F
100
AcDbEntity
  8
BEZUGSACHSEN
  6
Continuous
 62
     7
100
AcDbLine
 10
135.3501362669
 20
375.8793412072
 30
0.0
 11
130.597731531
 21
375.8793412072
 31
0.0
  0
LINE
  5
E1
330
1F
100
AcDbEntity
  8
BEZUGSACHSEN
  6
Continuous
 62
     7
100
AcDbLine
 10
120.597731531
 20
375.8793412072
 30
0.0
 11
118.597731531
 21
375.8793412072
 31
0.0
  0
LINE
  5
E2
330
1F
100
AcDbEntity
  8
BEZUGSACHSEN
  6
Continuous
 62
     7
100
AcDbLine
 10
141.8453267952
 20
375.8793412072
 30
0.0
 11
147.597731531
 21
375.8793412072
 31
0.0
  0
LINE
  5
E3
330
1F
100
AcDbEntity
  8
0
  6
Continuous
 62
     7
100
AcDbLine
 10
197.4764111875
 20
355.0006615507
 30
0.0
 11
201.3048383122
 21
351.172234426
 31
0.0
  0
LINE
  5
E4
330
1F
100
AcDbEntity
  8
RUNDUNGEN
  6
Continuous
 62
     7
100
AcDbLine
 10
201.3048383122
 20
351.172234426
 30
0.0
 11
197.4764111875
 21
355.0006615507
 31
0.0
  0
LINE
  5
E5
330
1F
100
AcDbEntity
  8
RUNDUNGEN
  6
Continuous
 62
     7
100
AcDbLine
 10
213.097731531
 20
295.6293412072
 30
0.0
 11
213.097731531
 21
356.1293412071
 31
0.0
  0
LINE
  5
E6
330
1F
100
AcDbEntity
  8
RUNDUNGEN
  6
Continuous
 62
     7
100
AcDbLine
 10
222.5469198403
 20
308.0369947317
 30
0.0
 11
220.8392788694
 21
306.814452921
 31
0.0
  0
LINE
  5
E7
330
1F
100
AcDbEntity
  8
RUNDUNGEN
  6
Continuous
 62
     7
100
AcDbLine
 10
220.8392788694
 20
344.9442294934
 30
0.0
 11
222.5469198403
 21
343.7216876827
 31
0.0
  0
LINE
  5
E8
330
1F
100
AcDbEntity
  8
RUNDUNGEN
  6
Continuous
 62
     9
100
AcDbLine
 10
214.347731531
 20
294.3793412072
 30
0.0
 11
214.347731531
 21
357.3793412071
 31
0.0
  0
LINE
  5
E9
330
1F
100
AcDbEntity
  8
FASEN
  6
Continuous
 62
     7
100
AcDbLine
 10
220.597731531
 20
357.3793412071
 30
0.0
 11
220.597731531
 21
357.3693412071
 31
0.0
  0
LINE
  5
EA
330
1F
100
AcDbEntity
  8
FASEN
  6
Continuous
 62
     7
100
AcDbLine
 10
220.597731531
 20
294.3893412072
 30
0.0
 11
220.597731531
 21
294.3793412072
 31
0.0
  0
LINE
  5
EB
330
1F
100
AcDbEntity
  8
RUNDUNGEN
  6
Continuous
 62
     9
100
AcDbLine
 10
222.5469198403
 20
308.0369947317
 30
0.0
 11
222.5469198403
 21
313.6957768318
 31
0.0
  0
LINE
  5
EC
330
1F
100
AcDbEntity
  8
RUNDUNGEN
  6
Continuous
 62
     9
100
AcDbLine
 10
222.5469198403
 20
338.0629055825
 30
0.0
 11
222.5469198403
 21
343.7216876827
 31
0.0
  0
LWPOLYLINE
  5
ED
330
1F
100
AcDbEntity
  8
DEFAULT_2
  6
DASHED
 62
     8
100
AcDbPolyline
 90
        2
 70
     0
 43
0.35
 10
223.597731531
 20
350.8793412072
 10
223.597731531
 20
300.8793412072
  0
LINE
  5
EE
330
1F
100
AcDbEntity
  8
RUNDUNGEN
  6
Continuous
 62
     9
100
AcDbLine
 10
224.4561081495
 20
308.6031561045
 30
0.0
 11
224.4561081495
 21
313.6957768318
 31
0.0
  0
LINE
  5
EF
330
1F
100
AcDbEntity
  8
RUNDUNGEN
  6
Continuous
 62
     9
100
AcDbLine
 10
224.4561081495
 20
338.0629055825
 30
0.0
 11
224.4561081495
 21
343.1555263098
 31
0.0
  0
LINE
  5
F0
330
1F
100
AcDbEntity
  8
FASEN
  6
Continuous
 62
     7
100
AcDbLine
 10
220.597731531
 20
294.3893412072
 30
0.0
 11
220.8392788694
 21
294.6308885456
 31
0.0
  0
LINE
  5
F1
330
1F
100
AcDbEntity
  8
FASEN
  6
Continuous
 62
     7
100
AcDbLine
 10
220.8392788694
 20
357.1277938687
 30
0.0
 11
220.597731531
 21
357.3693412071
 31
0.0
  0
LINE
  5
F2
330
1F
100
AcDbEntity
  8
0
  6
Continuous
 62
     9
100
AcDbLine
 10
234.4119420794
 20
294.6308885456
 30
0.0
 11
234.4119420794
 21
306.814452921
 31
0.0
  0
LINE
  5
F3
330
1F
100
AcDbEntity
  8
0
  6
Continuous
 62
     9
100
AcDbLine
 10
234.4119420794
 20
313.6957768318
 30
0.0
 11
234.4119420794
 21
338.0629055825
 31
0.0
  0
LINE
  5
F4
330
1F
100
AcDbEntity
  8
0
  6
Continuous
 62
     9
100
AcDbLine
 10
234.4119420794
 20
344.9442294934
 30
0.0
 11
234.4119420794
 21
357.1277938687
 31
0.0
  0
LINE
  5
F5
330
1F
100
AcDbEntity
  8
0
  6
Continuous
 62
     9
100
AcDbLine
 10
235.4944738342
 20
295.2416483638
 30
0.0
 11
235.4944738342
 21
307.2517107678
 31
0.0
  0
LINE
  5
F6
330
1F
100
AcDbEntity
  8
0
  6
Continuous
 62
     9
100
AcDbLine
 10
235.4944738342
 20
313.8692788032
 30
0.0
 11
235.4944738342
 21
337.8894036111
 31
0.0
  0
LINE
  5
F7
330
1F
100
AcDbEntity
  8
0
  6
Continuous
 62
     9
100
AcDbLine
 10
235.4944738342
 20
344.5069716466
 30
0.0
 11
235.4944738342
 21
356.5170340505
 31
0.0
  0
LINE
  5
F8
330
1F
100
AcDbEntity
  8
BEZUGSACHSEN
  6
Continuous
 62
     7
100
AcDbLine
 10
238.597731531
 20
351.3793412072
 30
0.0
 11
238.597731531
 21
300.3793412072
 31
0.0
  0
LINE
  5
F9
330
1F
100
AcDbEntity
  8
0
  6
Continuous
 62
     7
100
AcDbLine
 10
238.597731531
 20
300.3793412072
 30
0.0
 11
236.7213431562
 21
297.1293412072
 31
0.0
  0
LINE
  5
FA
330
1F
100
AcDbEntity
  8
BEZUGSACHSEN
  6
Continuous
 62
     7
100
AcDbLine
 10
236.7213431562
 20
297.1293412072
 30
0.0
 11
238.597731531
 21
300.3793412072
 31
0.0
  0
LINE
  5
FB
330
1F
100
AcDbEntity
  8
BEZUGSACHSEN
  6
Continuous
 62
     7
100
AcDbLine
 10
236.7213431562
 20
354.6293412071
 30
0.0
 11
238.597731531
 21
351.3793412072
 31
0.0
  0
LINE
  5
FC
330
1F
100
AcDbEntity
  8
0
  6
Continuous
 62
     7
100
AcDbLine
 10
238.597731531
 20
351.3793412072
 30
0.0
 11
236.7213431562
 21
354.6293412071
 31
0.0
  0
LINE
  5
FD
330
1F
100
AcDbEntity
  8
0
  6
Continuous
 62
     7
100
AcDbLine
 10
235.4944738342
 20
313.8692788032
 30
0.0
 11
236.609039355792
 21
314.405526309894
 31
0.0
  0
LINE
  5
FE
330
1F
100
AcDbEntity
  8
0
  6
Continuous
 62
     7
100
AcDbLine
 10
236.609039355792
 20
337.353156104506
 30
0.0
 11
235.4944738342
 21
337.8894036111
 31
0.0
  0
ARC
  5
FF
330
1F
100
AcDbEntity
  8
FASEN
  6
Continuous
 62
     7
100
AcDbCircle
 10
136.350613031
 20
301.7128743788
 30
0.0
 40
19.30214621110024
100
AcDbArc
 50
228.5120350854992
 51
229.9916611024415
  0
ARC
  5
100
330
1F
100
AcDbEntity
  8
FASEN
  6
Continuous
 62
     7
100
AcDbCircle
 10
131.5307977864
 20
286.5293412072
 30
0.0
 40
8.0
100
AcDbArc
 50
90.0
 51
174.8048049323969
  0
ARC
  5
101
330
1F
100
AcDbEntity
  8
FASEN
  6
Continuous
 62
     7
100
AcDbCircle
 10
131.5307977864
 20
286.5293412072
 30
0.0
 40
7.599980211800016
100
AcDbArc
 50
90.0
 51
176.9903069153986
  0
ARC
  5
102
330
1F
100
AcDbEntity
  8
BEZUGSACHSEN
  6
Continuous
 62
     7
100
AcDbCircle
 10
76.597731531
 20
317.8693412072
 30
0.0
 40
2.0
100
AcDbArc
 50
270.0
 51
355.2355361864931
  0
ARC
  5
103
330
1F
100
AcDbEntity
  8
BEZUGSACHSEN
  6
Continuous
 62
     7
100
AcDbCircle
 10
70.597731531
 20
292.2791496441
 30
0.0
 40
2.0
100
AcDbArc
 50
180.0
 51
267.1318795135589
  0
ARC
  5
104
330
1F
100
AcDbEntity
  8
BEZUGSACHSEN
  6
Continuous
 62
     7
100
AcDbCircle
 10
137.722731531
 20
278.8793412072
 30
0.0
 40
1.0
100
AcDbArc
 50
90.0
 51
180.0
  0
ARC
  5
105
330
1F
100
AcDbEntity
  8
BEZUGSACHSEN
  6
Continuous
 62
     7
100
AcDbCircle
 10
116.9757941902
 20
287.1970912072
 30
0.0
 40
1.0
100
AcDbArc
 50
90.0
 51
105.0000000052326
  0
ARC
  5
106
330
1F
100
AcDbEntity
  8
BEZUGSACHSEN
  6
Continuous
 62
     7
100
AcDbCircle
 10
117.8971602424
 20
287.1970912072
 30
0.0
 40
1.000000000000426
100
AcDbArc
 50
45.52164291268396
 51
90.0
  0
ARC
  5
107
330
1F
100
AcDbEntity
  8
0
  6
Continuous
 62
     7
100
AcDbCircle
 10
-108.5940572289
 20
396.6969158401
 30
0.0
 40
267.5030866025482
100
AcDbArc
 50
335.7734949144787
 51
336.5002085550999
  0
ARC
  5
108
330
1F
100
AcDbEntity
  8
BEZUGSACHSEN
  6
Continuous
 62
     7
100
AcDbCircle
 10
125.6129395422
 20
425.9321109741
 30
0.0
 40
50.30340021046194
100
AcDbArc
 50
264.2781515100879
 51
269.9826780126003
  0
ARC
  5
109
330
1F
100
AcDbEntity
  8
BEZUGSACHSEN
  6
Continuous
 62
     7
100
AcDbCircle
 10
125.58252353
 20
425.9321107732
 30
0.0
 40
50.30340000949744
100
AcDbArc
 50
270.0173219760584
 51
275.7218485011658
  0
ARC
  5
10A
330
1F
100
AcDbEntity
  8
0
  6
Continuous
 62
     7
100
AcDbCircle
 10
133.568731531
 20
325.8793412072
 30
0.0
 40
10.02099999999996
100
AcDbArc
 50
90.0
 51
270.0
  0
ARC
  5
10B
330
1F
100
AcDbEntity
  8
FASEN
  6
Continuous
 62
     7
100
AcDbCircle
 10
133.568731531
 20
325.8793412072
 30
0.0
 40
9.620999207599993
100
AcDbArc
 50
90.0
 51
270.0
  0
ARC
  5
10C
330
1F
100
AcDbEntity
  8
BEZUGSACHSEN
  6
Continuous
 62
     7
100
AcDbCircle
 10
76.597731531
 20
333.8893412072
 30
0.0
 40
1.999999999999992
100
AcDbArc
 50
4.76446378498877
 51
90.0
  0
ARC
  5
10D
330
1F
100
AcDbEntity
  8
BEZUGSACHSEN
  6
Continuous
 62
     7
100
AcDbCircle
 10
70.597731531
 20
359.4795327702
 30
0.0
 40
2.000000000047347
100
AcDbArc
 50
92.86812048629784
 51
180.0000000143254
  0
ARC
  5
10E
330
1F
100
AcDbEntity
  8
BEZUGSACHSEN
  6
Continuous
 62
     7
100
AcDbCircle
 10
137.722731531
 20
372.8793412072
 30
0.0
 40
1.0
100
AcDbArc
 50
180.0
 51
270.0
  0
ARC
  5
10F
330
1F
100
AcDbEntity
  8
BEZUGSACHSEN
  6
Continuous
 62
     7
100
AcDbCircle
 10
116.9757941902
 20
364.5615912072
 30
0.0
 40
1.000000000035796
100
AcDbArc
 50
254.9999999947674
 51
270.0
  0
ARC
  5
110
330
1F
100
AcDbEntity
  8
BEZUGSACHSEN
  6
Continuous
 62
     7
100
AcDbCircle
 10
117.8971602424
 20
364.5615912072
 30
0.0
 40
1.0
100
AcDbArc
 50
270.0
 51
314.478357087316
  0
ARC
  5
111
330
1F
100
AcDbEntity
  8
BEZUGSACHSEN
  6
Continuous
 62
     7
100
AcDbCircle
 10
254.9277781293
 20
-1280.1634180828
 30
0.0
 40
1632.172763697999
100
AcDbArc
 50
96.2726189838
 51
96.48809068979999
  0
ARC
  5
112
330
1F
100
AcDbEntity
  8
0
  6
Continuous
 62
     7
100
AcDbCircle
 10
199.1894002247
 20
311.5043412072
 30
0.0
 40
37.53193663670821
100
AcDbArc
 50
355.5666650637921
 51
4.43333493619974
  0
ARC
  5
113
330
1F
100
AcDbEntity
  8
RUNDUNGEN
  6
Continuous
 62
     7
100
AcDbCircle
 10
152.597731531
 20
290.8793412072
 30
0.0
 40
5.0
100
AcDbArc
 50
90.0
 51
180.0
  0
ARC
  5
114
330
1F
100
AcDbEntity
  8
RUNDUNGEN
  6
Continuous
 62
     7
100
AcDbCircle
 10
195.3550908439
 20
298.8793412072
 30
0.0
 40
3.0
100
AcDbArc
 50
270.0
 51
314.9999999999996
  0
ARC
  5
115
330
1F
100
AcDbEntity
  8
RUNDUNGEN
  6
Continuous
 62
     7
100
AcDbCircle
 10
214.347731531
 20
295.6293412072
 30
0.0
 40
1.25
100
AcDbArc
 50
180.0
 51
270.0
  0
ARC
  5
116
330
1F
100
AcDbEntity
  8
RUNDUNGEN
  6
Continuous
 62
     7
100
AcDbCircle
 10
202.0119450934
 20
299.8793412072
 30
0.0
 40
1.0
100
AcDbArc
 50
90.0
 51
135.0000000000011
  0
ARC
  5
117
330
1F
100
AcDbEntity
  8
BEZUGSACHSEN
  6
Continuous
 62
     7
100
AcDbCircle
 10
139.472731531
 20
278.8793412072
 30
0.0
 40
1.0
100
AcDbArc
 50
0.0
 51
90.0
  0
ARC
  5
118
330
1F
100
AcDbEntity
  8
BEZUGSACHSEN
  6
Continuous
 62
     7
100
AcDbCircle
 10
254.9277781292
 20
1931.9221004969
 30
0.0
 40
1632.1727636978
100
AcDbArc
 50
263.5119093102
 51
263.7273810162
  0
ARC
  5
119
330
1F
100
AcDbEntity
  8
0
  6
Continuous
 62
     7
100
AcDbCircle
 10
385.7895202914
 20
396.6969158403
 30
0.0
 40
267.5030866029001
100
AcDbArc
 50
203.4997914449
 51
204.2265050855252
  0
ARC
  5
11A
330
1F
100
AcDbEntity
  8
0
  6
Continuous
 62
     7
100
AcDbCircle
 10
199.1894002247
 20
340.2543412072
 30
0.0
 40
37.53193663669975
100
AcDbArc
 50
355.5666650638003
 51
4.4333349360557
  0
ARC
  5
11B
330
1F
100
AcDbEntity
  8
RUNDUNGEN
  6
Continuous
 62
     7
100
AcDbCircle
 10
152.597731531
 20
360.8793412072
 30
0.0
 40
5.0
100
AcDbArc
 50
180.0
 51
270.0
  0
ARC
  5
11C
330
1F
100
AcDbEntity
  8
RUNDUNGEN
  6
Continuous
 62
     7
100
AcDbCircle
 10
195.3550908439
 20
352.8793412072
 30
0.0
 40
2.999999999986338
100
AcDbArc
 50
44.99999999864932
 51
90.0
  0
ARC
  5
11D
330
1F
100
AcDbEntity
  8
RUNDUNGEN
  6
Continuous
 62
     7
100
AcDbCircle
 10
214.347731531
 20
356.1293412071
 30
0.0
 40
1.25
100
AcDbArc
 50
90.0
 51
180.0
  0
ARC
  5
11E
330
1F
100
AcDbEntity
  8
RUNDUNGEN
  6
Continuous
 62
     7
100
AcDbCircle
 10
202.0119450934
 20
351.8793412072
 30
0.0
 40
1.00000000001904
100
AcDbArc
 50
225.0000000000012
 51
270.0
  0
ARC
  5
11F
330
1F
100
AcDbEntity
  8
BEZUGSACHSEN
  6
Continuous
 62
     7
100
AcDbCircle
 10
139.472731531
 20
372.8793412072
 30
0.0
 40
1.0
100
AcDbArc
 50
270.0
 51
0.0
  0
CIRCLE
  5
120
330
1F
100
AcDbEntity
  8
BEZUGSACHSEN
  6
Continuous
 62
     7
100
AcDbCircle
 10
103.597731531
 20
325.8793412072
 30
0.0
 40
6.0
  0
SPLINE
  5
121
330
1F
100
AcDbEntity
  8
0
  6
Continuous
 62
     7
100
AcDbSpline
210
0.0
220
0.0
230
1.0
 70
     8
 71
     3
 72
     9
 73
     5
 74
     3
 42
0.0000000001
 43
0.0000000001
 44
0.00000001
 40
0.0
 40
0.0
 40
0.0
 40
0.0
 40
1.096088572941478
 40
2.192177144173995
 40
2.192177144173995
 40
2.192177144173995
 40
2.192177144173995
 10
235.4944738342
 20
295.2416483638
 30
0.0
 10
235.6802868121005
 20
295.5562331012273
 30
0.0
 10
236.0519127676118
 20
296.1854025755915
 30
0.0
 10
236.4233304931672
 20
296.8146949968274
 30
0.0
 10
236.6090393558
 20
297.1293412072
 30
0.0
 11
235.4944738342
 21
295.2416483638
 31
0.0
 11
236.0518607104125
 21
296.1854333128
 31
0.0
 11
236.6090393558
 21
297.1293412072
 31
0.0
  0
SPLINE
  5
122
330
1F
100
AcDbEntity
  8
0
  6
Continuous
 62
     7
100
AcDbSpline
210
0.0
220
0.0
230
1.0
 70
     8
 71
     3
 72
     9
 73
     5
 74
     3
 42
0.0000000001
 43
0.0000000001
 44
0.00000001
 40
0.0
 40
0.0
 40
0.0
 40
0.0
 40
1.096088571264776
 40
2.192177144173951
 40
2.192177144173951
 40
2.192177144173951
 40
2.192177144173951
 10
236.6090393558
 20
354.6293412071
 30
0.0
 10
236.4233304931699
 20
354.9439874174868
 30
0.0
 10
236.0519127676311
 20
355.5732798387322
 30
0.0
 10
235.6802868121033
 20
356.2024493130868
 30
0.0
 10
235.4944738342
 20
356.5170340505
 30
0.0
 11
236.6090393558
 21
354.6293412071
 31
0.0
 11
236.0518607104125
 21
355.5732491015375
 31
0.0
 11
235.4944738342
 21
356.5170340505
 31
0.0
  0
SPLINE
  5
123
330
1F
100
AcDbEntity
  8
0
  6
Continuous
 62
     7
100
AcDbSpline
210
0.0
220
0.0
230
1.0
 70
     8
 71
     3
 72
    15
 73
    11
 74
     9
 42
0.0000000001
 43
0.0000000001
 44
0.00000001
 40
0.0
 40
0.0
 40
0.0
 40
0.0
 40
0.1606438688856071
 40
0.3215838473402856
 40
0.4836630084294346
 40
0.645658314928262
 40
0.8087330951773635
 40
0.9718971338431021
 40
1.135785310296861
 40
1.299392018574786
 40
1.299392018574786
 40
1.299392018574786
 40
1.299392018574786
 10
235.4944738342
 20
356.5170340505
 30
0.0
 10
235.4654386424013
 20
356.5621177433862
 30
0.0
 10
235.4073147391881
 20
356.6523682304496
 30
0.0
 10
235.2983726355062
 20
356.7721593229062
 30
0.0
 10
235.1755607404608
 20
356.8778580396288
 30
0.0
 10
235.0391893415463
 20
356.9668910468332
 30
0.0
 10
234.8922169589649
 20
357.0378889256542
 30
0.0
 10
234.7367444088865
 20
357.0892336006275
 30
0.0
 10
234.5757499738751
 20
357.1216887113358
 30
0.0
 10
234.4665134161386
 20
357.1257599826079
 30
0.0
 10
234.4119420794
 20
357.1277938687
 30
0.0
 11
235.4944738342
 21
356.5170340505
 31
0.0
 11
235.4037971266231
 21
356.6496394324178
 31
0.0
 11
235.2963864983848
 21
356.7694919818543
 31
0.0
 11
235.1733731840208
 21
356.875025762932
 31
0.0
 11
235.0377888882166
 21
356.9636788963167
 31
0.0
 11
234.8909248968205
 21
357.0345615598141
 31
0.0
 11
234.7360860119818
 21
357.0860146768784
 31
0.0
 11
234.5752120246034
 21
357.11730196769
 31
0.0
 11
234.4119420794
 21
357.1277938687
 31
0.0
  0
SPLINE
  5
124
330
1F
100
AcDbEntity
  8
0
  6
Continuous
 62
     7
100
AcDbSpline
210
0.0
220
0.0
230
1.0
 70
     8
 71
     3
 72
    15
 73
    11
 74
     9
 42
0.0000000001
 43
0.0000000001
 44
0.00000001
 40
0.0
 40
0.0
 40
0.0
 40
0.0
 40
0.1621933692859434
 40
0.3244177201231684
 40
0.4763198202118524
 40
0.6281840632002219
 40
0.7603937869557971
 40
0.8927011547947411
 40
0.9982495284712042
 40
1.103579871236389
 40
1.103579871236389
 40
1.103579871236389
 40
1.103579871236389
 10
234.4119420794
 20
313.6957768318
 30
0.0
 10
234.4660097648667
 20
313.6963306997813
 30
0.0
 10
234.5741554636006
 20
313.6974385415417
 30
0.0
 10
234.73272658228
 20
313.7064750337464
 30
0.0
 10
234.8874345453506
 20
313.7207357847943
 30
0.0
 10
235.0314793922151
 20
313.740324337058
 30
0.0
 10
235.1681095208757
 20
313.7651388424371
 30
0.0
 10
235.2880172611429
 20
313.7942047599934
 30
0.0
 10
235.397813465526
 20
313.8270131228599
 30
0.0
 10
235.462275927569
 20
313.8551999573612
 30
0.0
 10
235.4944738342
 20
313.8692788032
 30
0.0
 11
234.4119420794
 21
313.6957768318
 31
0.0
 11
234.5741091065072
 21
313.6986999054481
 31
0.0
 11
234.7360866339689
 21
313.7076453289669
 31
0.0
 11
234.8873254447083
 21
313.7218252491884
 31
0.0
 11
235.0377897556494
 21
313.7423980329438
 31
0.0
 11
235.1678052702545
 21
313.7663850506306
 31
0.0
 11
235.2963869589036
 21
313.7975617876089
 31
0.0
 11
235.3971305706894
 21
313.8290448603639
 31
0.0
 11
235.4944738342
 21
313.8692788032
 31
0.0
  0
SPLINE
  5
125
330
1F
100
AcDbEntity
  8
0
  6
Continuous
 62
     7
100
AcDbSpline
210
0.0
220
0.0
230
1.0
 70
     8
 71
     3
 72
    15
 73
    11
 74
     9
 42
0.0000000001
 43
0.0000000001
 44
0.00000001
 40
0.0
 40
0.0
 40
0.0
 40
0.0
 40
0.105330580719702
 40
0.2108791937719518
 40
0.343186762370941
 40
0.4753966860385789
 40
0.6272608018011586
 40
0.779162774637344
 40
0.9413868135219867
 40
1.103579871010995
 40
1.103579871010995
 40
1.103579871010995
 40
1.103579871010995
 10
235.4944738342
 20
337.8894036111
 30
0.0
 10
235.4622758536916
 20
337.9034824864206
 30
0.0
 10
235.3978132434571
 20
337.9316693800703
 30
0.0
 10
235.2880168122821
 20
337.964477776918
 30
0.0
 10
235.1681088570858
 20
337.9935437126553
 30
0.0
 10
235.0314786318059
 20
338.0183581970524
 30
0.0
 10
234.8874337985926
 20
338.0379467129947
 30
0.0
 10
234.732726021194
 20
338.0522074203641
 30
0.0
 10
234.5741551516953
 20
338.0612438794581
 30
0.0
 10
234.4660096609155
 20
338.0623517167516
 30
0.0
 10
234.4119420794
 20
338.0629055825
 30
0.0
 11
235.4944738342
 21
337.8894036111
 31
0.0
 11
235.3971303464259
 21
337.9296376342984
 31
0.0
 11
235.296386498332
 21
337.9611207534019
 31
0.0
 11
235.1678046060269
 21
337.9922975024277
 31
0.0
 11
235.0377888882353
 21
338.0162845206528
 31
0.0
 11
234.887324698418
 21
338.0368572511221
 31
0.0
 11
234.736086011881
 21
338.0510371328602
 31
0.0
 11
234.5741087948714
 21
338.0599825206027
 31
0.0
 11
234.4119420794
 21
338.0629055825
 31
0.0
  0
SPLINE
  5
126
330
1F
100
AcDbEntity
  8
0
  6
Continuous
 62
     7
100
AcDbSpline
210
0.0
220
0.0
230
1.0
 70
     8
 71
     3
 72
    15
 73
    11
 74
     9
 42
0.0000000001
 43
0.0000000001
 44
0.00000001
 40
0.0
 40
0.0
 40
0.0
 40
0.0
 40
0.1636070285046338
 40
0.3274955269303766
 40
0.4906597416861993
 40
0.6537346967588562
 40
0.815729826840241
 40
0.9778088103515915
 40
1.138748468291959
 40
1.299392018490793
 40
1.299392018490793
 40
1.299392018490793
 40
1.299392018490793
 10
234.4119420794
 20
294.6308885456
 30
0.0
 10
234.46651352308
 20
294.6329224402143
 30
0.0
 10
234.5757502952814
 20
294.63699372856
 30
0.0
 10
234.7367449881996
 20
294.6694489598118
 30
0.0
 10
234.892217723035
 20
294.7207937933601
 30
0.0
 10
235.0391901096013
 20
294.7917918011223
 30
0.0
 10
235.1755613942518
 20
294.8808248714819
 30
0.0
 10
235.2983730570117
 20
294.9865235120949
 30
0.0
 10
235.4073149244665
 20
295.1063144459556
 30
0.0
 10
235.4654387040481
 20
295.1965647581125
 30
0.0
 10
235.4944738342
 20
295.2416483638
 30
0.0
 11
234.4119420794
 21
294.6308885456
 31
0.0
 11
234.5752123427314
 21
294.6413804895484
 31
0.0
 11
234.7360866339553
 21
294.6726679045816
 31
0.0
 11
234.8909256565202
 21
294.7241211655862
 31
0.0
 11
235.0377897555581
 21
294.7950040082616
 31
0.0
 11
235.1733738408872
 21
294.8836571411762
 31
0.0
 11
235.2963869589406
 21
294.9891908783546
 31
0.0
 11
235.4037973252826
 21
295.109043232108
 31
0.0
 11
235.4944738342
 21
295.2416483638
 31
0.0
  0
SPLINE
  5
127
330
1F
100
AcDbEntity
  8
0
  6
Continuous
 62
     7
100
AcDbSpline
210
0.0
220
0.0
230
1.0
 70
     8
 71
     3
 72
     9
 73
     5
 74
     3
 42
0.0000000001
 43
0.0000000001
 44
0.00000001
 40
0.0
 40
0.0
 40
0.0
 40
0.0
 40
0.8758796779583659
 40
1.751759357607312
 40
1.751759357607312
 40
1.751759357607312
 40
1.751759357607312
 10
236.6090393558
 20
308.6031561045
 30
0.0
 10
236.4233202208687
 20
308.3778807541664
 30
0.0
 10
236.0518819506476
 20
307.9273300530642
 30
0.0
 10
235.680276539802
 20
307.4769171963662
 30
0.0
 10
235.4944738342
 20
307.2517107678
 30
0.0
 11
236.6090393558
 21
308.6031561045
 31
0.0
 11
236.05184016585
 21
307.9273645146
 31
0.0
 11
235.4944738342
 21
307.2517107678
 31
0.0
  0
SPLINE
  5
128
330
1F
100
AcDbEntity
  8
0
  6
Continuous
 62
     7
100
AcDbSpline
210
0.0
220
0.0
230
1.0
 70
     8
 71
     3
 72
     9
 73
     5
 74
     3
 42
0.0000000001
 43
0.0000000001
 44
0.00000001
 40
0.0
 40
0.0
 40
0.0
 40
0.0
 40
0.8758796797163678
 40
1.751759357684444
 40
1.751759357684444
 40
1.751759357684444
 40
1.751759357684444
 10
235.4944738342
 20
344.5069716466
 30
0.0
 10
235.680276539799
 20
344.281765218002
 30
0.0
 10
236.0518819506262
 20
343.8313523612555
 30
0.0
 10
236.4233202208656
 20
343.3808016601353
 30
0.0
 10
236.6090393558
 20
343.1555263098
 30
0.0
 11
235.4944738342
 21
344.5069716466
 31
0.0
 11
236.05184016585
 21
343.8313178997125
 31
0.0
 11
236.6090393558
 21
343.1555263098
 31
0.0
  0
SPLINE
  5
129
330
1F
100
AcDbEntity
  8
0
  6
Continuous
 62
     7
100
AcDbSpline
210
0.0
220
0.0
230
1.0
 70
     8
 71
     3
 72
    13
 73
     9
 74
     7
 42
0.0000000001
 43
0.0000000001
 44
0.00000001
 40
0.0
 40
0.0
 40
0.0
 40
0.0
 40
0.1629301771225991
 40
0.3258682961265458
 40
0.4828138685549663
 40
0.6404252305615677
 40
0.9226653701697163
 40
1.202130561188736
 40
1.202130561188736
 40
1.202130561188736
 40
1.202130561188736
 10
234.4119420794
 20
344.9442294934
 30
0.0
 10
234.4662735394857
 20
344.94279179137
 30
0.0
 10
234.574939107994
 20
344.9399163172311
 30
0.0
 10
234.734543533393
 20
344.9169242792296
 30
0.0
 10
234.8898705590032
 20
344.8808363217761
 30
0.0
 10
235.077680725475
 20
344.8153991816333
 30
0.0
 10
235.2955052356468
 20
344.7068628286544
 30
0.0
 10
235.4283697613984
 20
344.5733822327277
 30
0.0
 10
235.4944738342
 20
344.5069716466
 30
0.0
 11
234.4119420794
 21
344.9442294934
 31
0.0
 11
234.5747007584934
 21
344.9367558733285
 31
0.0
 11
234.7360866339737
 21
344.9143186315194
 31
0.0
 11
234.8888240308469
 21
344.878218765851
 31
0.0
 11
235.0377897556227
 21
344.826735231827
 31
0.0
 11
235.2869453839432
 21
344.6941419843282
 31
0.0
 11
235.4944738342
 21
344.5069716466
 31
0.0
  0
SPLINE
  5
12A
330
1F
100
AcDbEntity
  8
0
  6
Continuous
 62
     7
100
AcDbSpline
210
0.0
220
0.0
230
1.0
 70
     8
 71
     3
 72
    13
 73
     9
 74
     7
 42
0.0000000001
 43
0.0000000001
 44
0.00000001
 40
0.0
 40
0.0
 40
0.0
 40
0.0
 40
0.2794656496214248
 40
0.5617062599085134
 40
0.7193174719212263
 40
0.8762628928102708
 40
1.039200695078404
 40
1.202130556452968
 40
1.202130556452968
 40
1.202130556452968
 40
1.202130556452968
 10
235.4944738342
 20
307.2517107678
 30
0.0
 10
235.4283696417874
 20
307.1853000817703
 30
0.0
 10
235.2955048738468
 20
307.05181928326
 30
0.0
 10
235.0776800564014
 20
306.9432829341663
 30
0.0
 10
234.8898698024989
 20
306.877845878682
 30
0.0
 10
234.7345429631841
 20
306.8417580326369
 30
0.0
 10
234.5749387915706
 20
306.8187660794879
 30
0.0
 10
234.466273434121
 20
306.8158906171391
 30
0.0
 10
234.4119420794
 20
306.814452921
 30
0.0
 11
235.4944738342
 21
307.2517107678
 31
0.0
 11
235.2869450018696
 21
307.0645401689606
 31
0.0
 11
235.0377888882093
 21
306.9319468315679
 31
0.0
 11
234.8888232766827
 21
306.8804634290518
 31
0.0
 11
234.736086011934
 21
306.8443636631921
 31
0.0
 11
234.5747004438018
 21
306.821926510819
 31
0.0
 11
234.4119420794
 21
306.814452921
 31
0.0
  0
SPLINE
  5
12B
330
1F
100
AcDbEntity
  8
BEZUGSACHSEN
  6
Continuous
 62
     7
100
AcDbSpline
210
0.0
220
0.0
230
1.0
 70
     8
 71
     3
 72
    47
 73
    43
 74
    41
 42
0.0000000001
 43
0.0000000001
 44
0.00000001
 40
0.0
 40
0.0
 40
0.0
 40
0.0
 40
0.6366022431794459
 40
1.273595002170143
 40
1.592921746393599
 40
1.912076344872722
 40
2.231392290399003
 40
2.550826842702706
 40
3.18977432114646
 40
3.829081697007653
 40
4.468337152520427
 40
5.107221744778862
 40
5.426176341265742
 40
5.745033356811899
 40
6.063356731590728
 40
6.381780214903771
 40
7.017059195696854
 40
7.65263934101295
 40
8.287532214252586
 40
8.922347946514524
 40
9.559226748598874
 40
10.19613435939761
 40
10.83451785506007
 40
11.47287689977058
 40
12.11234487369205
 40
12.75189588954046
 40
13.39354300527029
 40
14.03487957363748
 40
14.356152057794
 40
14.67732107719253
 40
14.99840882479375
 40
15.31959604128432
 40
15.9601112103391
 40
16.60099592096297
 40
17.23809108086011
 40
17.87482555208616
 40
18.19205670341484
 40
18.50917199108672
 40
18.82571084635606
 40
19.14241581832776
 40
19.77338975000306
 40
20.40398930746967
 40
20.40398930746967
 40
20.40398930746967
 40
20.40398930746967
 10
97.0983159368
 20
325.8793411877
 30
0.0
 10
97.10432158066081
 20
326.0916209973959
 30
0.0
 10
97.1163365524707
 20
326.5163108372244
 30
0.0
 10
97.19760189772512
 20
327.0424535983321
 30
0.0
 10
97.29032149429452
 20
327.4574279744596
 30
0.0
 10
97.37561445841162
 20
327.7652519501526
 30
0.0
 10
97.47585307184238
 20
328.0685446269282
 30
0.0
 10
97.62933862100513
 20
328.4659819894672
 30
0.0
 10
97.85781056780968
 20
328.948081566351
 30
0.0
 10
98.18742552838161
 20
329.4968974391974
 30
0.0
 10
98.56965274544893
 20
330.0104329785677
 30
0.0
 10
98.92850744255173
 20
330.4049357406633
 30
0.0
 10
99.23746079610973
 20
330.6978090387078
 30
0.0
 10
99.47935590508371
 20
330.9055308598216
 30
0.0
 10
99.7309991585692
 20
331.1010402569542
 30
0.0
 10
100.078293265726
 20
331.3445354596288
 30
0.0
 10
100.5340336004865
 20
331.6164175296736
 30
0.0
 10
101.1095130251762
 20
331.8877466421891
 30
0.0
 10
101.7086237903389
 20
332.101530273003
 30
0.0
 10
102.3260741928017
 20
332.2562200043751
 30
0.0
 10
102.9563447545011
 20
332.3500269880263
 30
0.0
 10
103.5939386892315
 20
332.3821537128322
 30
0.0
 10
104.2321173334643
 20
332.3517241398831
 30
0.0
 10
104.8651297546582
 20
332.2590528847186
 30
0.0
 10
105.4863634390975
 20
332.1045609234906
 30
0.0
 10
106.0904991910781
 20
331.8895237909496
 30
0.0
 10
106.6709782646581
 20
331.6156004252196
 30
0.0
 10
107.1306072888838
 20
331.3404335471602
 30
0.0
 10
107.4805062775473
 20
331.0938238483025
 30
0.0
 10
107.7336379066965
 20
330.8959196559315
 30
0.0
 10
107.9766365460506
 20
330.6857411265299
 30
0.0
 10
108.2858808895554
 20
330.3902217863748
 30
0.0
 10
108.6442010803501
 20
329.9927508036114
 30
0.0
 10
109.0241514986782
 20
329.4770840420576
 30
0.0
 10
109.3506245282493
 20
328.9274878855801
 30
0.0
 10
109.5759956682111
 20
328.4463823438679
 30
0.0
 10
109.7270866513625
 20
328.05039215625
 30
0.0
 10
109.8254995689209
 20
327.7489658054671
 30
0.0
 10
109.9091663471203
 20
327.4432704375531
 30
0.0
 10
109.9999857045941
 20
327.0317184198414
 30
0.0
 10
110.0795006802288
 20
326.5102932033121
 30
0.0
 10
110.0912729648252
 20
326.0896169141548
 30
0.0
 10
110.0971573604
 20
325.8793411878
 30
0.0
 11
97.0983159368
 21
325.8793411877
 31
0.0
 11
97.12956460778423
 21
326.5151760220578
 31
0.0
 11
97.22300581016901
 21
327.1452780111861
 31
0.0
 11
97.29294631718454
 21
327.4568512691123
 31
0.0
 11
97.3780876561365
 21
327.7644396468704
 31
0.0
 11
97.47831219426433
 21
328.0676189915237
 31
0.0
 11
97.59339208402065
 21
328.3656039780233
 31
0.0
 11
97.86698797829663
 21
328.9430112578916
 31
0.0
 11
98.19620749199645
 21
329.4910335499836
 31
0.0
 11
98.57783174732214
 21
330.0038790093083
 31
0.0
 11
99.00776638341927
 21
330.4764567604872
 31
0.0
 11
99.23923864447458
 21
330.6958938288736
 31
0.0
 11
99.48114104550103
 21
330.9036268901341
 31
0.0
 11
99.73251485265554
 21
331.0989240483501
 31
0.0
 11
99.99324413094743
 21
331.2817183539687
 31
0.0
 11
100.5387777751573
 21
331.6072524174285
 31
0.0
 11
101.113687595276
 21
331.8782520850502
 31
0.0
 11
101.7116337830229
 21
332.0916749447665
 31
0.0
 11
102.3274263152463
 21
332.2459168689799
 31
0.0
 11
102.957358597224
 21
332.3397248039685
 31
0.0
 11
103.5934617189616
 21
332.3717267290507
 31
0.0
 11
104.2311226779804
 21
332.3413624592991
 31
0.0
 11
104.8627402108909
 21
332.2488337497886
 31
0.0
 11
105.4833130830158
 21
332.0945333931659
 31
0.0
 11
106.0858138901696
 21
331.8800146777779
 31
0.0
 11
106.6661210865508
 21
331.6062363386919
 31
0.0
 11
107.2163460745988
 21
331.2767442197383
 31
0.0
 11
107.4789533787463
 21
331.0916674440896
 31
0.0
 11
107.7319738361381
 21
330.8938539279624
 31
0.0
 11
107.9748221375024
 21
330.6838014483671
 31
0.0
 11
108.2070245729095
 21
330.4618932307906
 31
0.0
 11
108.6359406306412
 21
329.9861930129968
 31
0.0
 11
109.0160512892966
 21
329.4701996995827
 31
0.0
 11
109.3414904349827
 21
328.9224957601962
 31
0.0
 11
109.6115712930783
 21
328.3458788016025
 31
0.0
 11
109.7246617382582
 21
328.0494902819491
 31
0.0
 11
109.8231058416076
 21
327.7480423358772
 31
0.0
 11
109.9065886470074
 21
327.442710601369
 31
0.0
 11
109.9751380704703
 21
327.1335132278121
 31
0.0
 11
110.0665651483711
 21
326.5091982497119
 31
0.0
 11
110.0971573604
 21
325.8793411878
 31
0.0
  0
SPLINE
  5
12C
330
1F
100
AcDbEntity
  8
BEZUGSACHSEN
  6
Continuous
 62
     7
100
AcDbSpline
210
0.0
220
0.0
230
1.0
 70
     8
 71
     3
 72
    47
 73
    43
 74
    41
 42
0.0000000001
 43
0.0000000001
 44
0.00000001
 40
0.0
 40
0.0
 40
0.0
 40
0.0
 40
0.6302393214807329
 40
1.260854867359818
 40
1.577476088434157
 40
1.89393080025179
 40
2.210999113891429
 40
2.528183472226399
 40
3.164887038252482
 40
3.801951183391829
 40
4.442851001626178
 40
5.08338125980811
 40
5.404527292330751
 40
5.725573838773402
 40
6.046670710044123
 40
6.367871027166159
 40
7.009090242548181
 40
7.650619763947939
 40
8.290330346479607
 40
8.929958764470319
 40
9.568647011356882
 40
10.20735923015986
 40
10.84445705817751
 40
11.48152626496331
 40
12.11643462222207
 40
12.75141965578927
 40
13.38691908737645
 40
14.02211738532394
 40
14.34050449145044
 40
14.65879153794657
 40
14.97761586871166
 40
15.29653774947691
 40
15.93537694104994
 40
16.57458694072303
 40
17.21386274996045
 40
17.85277859076578
 40
18.17219860083491
 40
18.49150024076419
 40
18.81067156636158
 40
19.13001452423663
 40
19.76719627028318
 40
20.4039896827885
 40
20.4039896827885
 40
20.4039896827885
 40
20.4039896827885
 10
110.0971451689
 20
325.8793412259
 30
0.0
 10
110.0912759671296
 20
325.6691852040046
 30
0.0
 10
110.0795340599405
 20
325.2487477065645
 30
0.0
 10
110.0000873174304
 20
324.7275842642928
 30
0.0
 10
109.9093558123333
 20
324.3161927968726
 30
0.0
 10
109.8257504300117
 20
324.0105549565906
 30
0.0
 10
109.7273984886366
 20
323.7091711104074
 30
0.0
 10
109.5763796777831
 20
323.3131979308207
 30
0.0
 10
109.3510970901763
 20
322.83209112215
 30
0.0
 10
109.024719055423
 20
322.2824568971574
 30
0.0
 10
108.6448519934002
 20
321.7667290344763
 30
0.0
 10
108.2865975541286
 20
321.3692036322461
 30
0.0
 10
107.9774168164591
 20
321.0736502773005
 30
0.0
 10
107.7344918604285
 20
320.8634653688659
 30
0.0
 10
107.4814429571016
 20
320.6655559045506
 30
0.0
 10
107.1316604486378
 20
320.4189325530914
 30
0.0
 10
106.6721752108854
 20
320.143725943818
 30
0.0
 10
106.0917795039294
 20
319.869685837106
 30
0.0
 10
105.4876251960996
 20
319.6544973597491
 30
0.0
 10
104.8662100486939
 20
319.4998355207089
 30
0.0
 10
104.2329408372513
 20
319.4070251476774
 30
0.0
 10
103.5944813728102
 20
319.3765143978692
 30
0.0
 10
102.9566483592553
 20
319.4086161402511
 30
0.0
 10
102.3262183722621
 20
319.5024292026275
 30
0.0
 10
101.7086447027649
 20
319.6571430189167
 30
0.0
 10
101.1095012913321
 20
319.8709395909904
 30
0.0
 10
100.5340440698659
 20
320.1422609594467
 30
0.0
 10
100.0783586769108
 20
320.4141058430956
 30
0.0
 10
99.73110277916018
 20
320.657566395687
 30
0.0
 10
99.47948319785534
 20
320.8530489220067
 30
0.0
 10
99.2376081475799
 20
321.0607419806964
 30
0.0
 10
98.92867186389402
 20
321.3535795288295
 30
0.0
 10
98.5698291070061
 20
321.7480371777818
 30
0.0
 10
98.18760220176979
 20
322.2615218437474
 30
0.0
 10
97.85797775650921
 20
322.8102896224575
 30
0.0
 10
97.62949031058491
 20
323.2923530389309
 30
0.0
 10
97.47598881061879
 20
323.6897625980812
 30
0.0
 10
97.37573200770254
 20
323.9930449613637
 30
0.0
 10
97.29041551480782
 20
324.30086883308
 30
0.0
 10
97.1976530594835
 20
324.7159097002109
 30
0.0
 10
97.11636069255616
 20
325.2421824992849
 30
0.0
 10
97.10432089299346
 20
325.6669981489786
 30
0.0
 10
97.0983028282
 20
325.8793412276
 30
0.0
 11
110.0971451689
 21
325.8793412259
 31
0.0
 11
110.0666055901232
 21
325.2498422692141
 31
0.0
 11
109.9752743146076
 21
324.6258754713658
 31
0.0
 11
109.9067795759022
 21
324.316751760848
 31
0.0
 11
109.8233607510412
 21
324.011489767979
 31
0.0
 11
109.7249740071912
 21
323.7100725087703
 31
0.0
 11
109.6119433760871
 21
323.4137112535351
 31
0.0
 11
109.3419632395747
 21
322.8370812535532
 31
0.0
 11
109.0166266177214
 21
322.2893524817115
 31
0.0
 11
108.6365901229294
 21
321.773285780946
 31
0.0
 11
108.2077396252687
 21
321.2975061446617
 31
0.0
 11
107.9756024908987
 21
321.0755892118884
 31
0.0
 11
107.7328199975624
 21
320.8655236366217
 31
0.0
 11
107.479890389264
 21
320.6677110637506
 31
0.0
 11
107.2173759934297
 21
320.4826277427866
 31
0.0
 11
106.6673178118309
 21
320.1530855163098
 31
0.0
 11
106.0871769801799
 21
319.8792301853799
 31
0.0
 11
105.4845716698883
 21
319.6645293017967
 31
0.0
 11
104.863872399567
 21
319.5100724180915
 31
0.0
 11
104.2319435856446
 21
319.417397443877
 31
0.0
 11
103.5939574584635
 21
319.3869507696319
 31
0.0
 11
102.9576624703386
 21
319.4189246738665
 31
0.0
 11
102.3275391962309
 21
319.5127427620079
 31
0.0
 11
101.7116552879895
 21
319.66700109626
 31
0.0
 11
101.1136228181705
 21
319.8804563793911
 31
0.0
 11
100.5387870696238
 21
320.1514238861892
 31
0.0
 11
99.99332038208243
 21
320.4769127039664
 31
0.0
 11
99.7326180893055
 21
320.6596821321771
 31
0.0
 11
99.48126883749718
 21
320.8549516832664
 31
0.0
 11
99.2393855391476
 21
321.0626568201007
 31
0.0
 11
99.00792970784742
 21
321.2820636663658
 31
0.0
 11
98.57800667696719
 21
321.7545905970358
 31
0.0
 11
98.1963855375094
 21
322.2673817139645
 31
0.0
 11
97.86715406333036
 21
322.815359995182
 31
0.0
 11
97.59353975618632
 21
323.3927235397171
 31
0.0
 11
97.47844750372792
 21
323.6906881622087
 31
0.0
 11
97.37820781531201
 21
323.9938474307918
 31
0.0
 11
97.29304073511892
 21
324.3014460386153
 31
0.0
 11
97.22307770766416
 21
324.6130308577798
 31
0.0
 11
97.12958881070026
 21
325.2433168275105
 31
0.0
 11
97.0983028282
 21
325.8793412276
 31
0.0
  0
SPLINE
  5
12D
330
1F
100
AcDbEntity
  8
BEZUGSACHSEN
  6
Continuous
 62
     7
100
AcDbSpline
210
0.0
220
0.0
230
1.0
 70
     8
 71
     3
 72
    27
 73
    23
 74
    21
 42
0.0000000001
 43
0.0000000001
 44
0.00000001
 40
0.0
 40
0.0
 40
0.0
 40
0.0
 40
0.1219765139516188
 40
0.2439857714749147
 40
0.3566831398307332
 40
0.4694418149413941
 40
0.5721317672348835
 40
0.6745445880227586
 40
0.7225206520243039
 40
0.770488879672262
 40
0.8171412935079791
 40
0.8637898733435923
 40
0.9102318000271992
 40
0.9566751323770832
 40
1.004175175705582
 40
1.051683100081061
 40
1.153672388683132
 40
1.256049376635782
 40
1.370745138067091
 40
1.485385401854855
 40
1.611534903892401
 40
1.737631875937348
 40
1.737631875937348
 40
1.737631875937348
 40
1.737631875937348
 10
69.7435742066
 20
310.6370052117
 30
0.0
 10
69.70831918899661
 20
310.6167256864351
 30
0.0
 10
69.63779968987615
 20
310.576161192037
 30
0.0
 10
69.53014728669115
 20
310.5253653311457
 30
0.0
 10
69.42198927082669
 20
310.4836136952789
 30
0.0
 10
69.31641004987938
 20
310.4541991101377
 30
0.0
 10
69.21157850476459
 20
310.4372845227457
 30
0.0
 10
69.12685083494043
 20
310.4354192995191
 30
0.0
 10
69.06102689854967
 20
310.4423746075385
 30
0.0
 10
69.01431969533684
 20
310.4515717346918
 30
0.0
 10
68.96913907802819
 20
310.4651051796807
 30
0.0
 10
68.92599946736196
 20
310.4828984384886
 30
0.0
 10
68.88504499075832
 20
310.5051267961867
 30
0.0
 10
68.8463975642661
 20
310.5316618278817
 30
0.0
 10
68.8104914856391
 20
310.5623571054181
 30
0.0
 10
68.76505216413305
 20
310.6098945785495
 30
0.0
 10
68.71650902407025
 20
310.6790639456543
 30
0.0
 10
68.67028331509586
 20
310.7752220003716
 30
0.0
 10
68.63631744127906
 20
310.8807974333644
 30
0.0
 10
68.61336201706172
 20
310.9972151242723
 30
0.0
 10
68.59991745869756
 20
311.1189624329302
 30
0.0
 10
68.5984600723996
 20
311.2030657964479
 30
0.0
 10
68.597731531
 20
311.245108721
 30
0.0
 11
69.7435742066
 21
310.6370052117
 31
0.0
 11
69.63702958253945
 21
310.5776207605399
 31
0.0
 11
69.52673669337078
 21
310.525450486243
 31
0.0
 11
69.42141868552118
 21
310.4853404618486
 31
0.0
 11
69.31269495699775
 21
310.4554461535496
 31
0.0
 11
69.21123080491549
 21
310.4396267937564
 31
0.0
 11
69.10883126436396
 21
310.4379775646744
 31
0.0
 11
69.0611274081565
 21
310.44308097726
 31
0.0
 11
69.01407663789577
 21
310.452417779794
 31
0.0
 11
68.96939707046027
 21
310.4658410420828
 31
0.0
 11
68.92629093384978
 21
310.4836722222793
 31
0.0
 11
68.88546834102131
 21
310.5058164871992
 31
0.0
 11
68.84718108445222
 21
310.5321046804459
 31
0.0
 11
68.81104398745138
 21
310.5629326602137
 31
0.0
 11
68.77819148710547
 21
310.5972505287298
 31
0.0
 11
68.71901909288096
 21
310.6803194323658
 31
0.0
 11
68.67411936927209
 21
310.7723252065439
 31
0.0
 11
68.6384812096719
 21
310.8813437337336
 31
0.0
 11
68.61562964627164
 21
310.9936833800367
 31
0.0
 11
68.6018628899322
 21
311.1190794457015
 31
0.0
 11
68.597731531
 21
311.245108721
 31
0.0
  0
SPLINE
  5
12E
330
1F
100
AcDbEntity
  8
BEZUGSACHSEN
  6
Continuous
 62
     7
100
AcDbSpline
210
0.0
220
0.0
230
1.0
 70
     8
 71
     3
 72
    15
 73
    11
 74
     9
 42
0.0000000001
 43
0.0000000001
 44
0.00000001
 40
0.0
 40
0.0
 40
0.0
 40
0.0
 40
0.1110371613090606
 40
0.2222522336978493
 40
0.3333980191426599
 40
0.4445069474326983
 40
0.5556201064960768
 40
0.6667525642275721
 40
0.7778876033748093
 40
0.8889820915605053
 40
0.8889820915605053
 40
0.8889820915605053
 40
0.8889820915605053
 10
70.4976570463
 20
310.2028088209
 30
0.0
 10
70.46101531943951
 20
310.2083409737219
 30
0.0
 10
70.38767315592163
 20
310.2194141433466
 30
0.0
 10
70.28115660593477
 20
310.2524327069128
 30
0.0
 10
70.17874369819162
 20
310.2960229943813
 30
0.0
 10
70.08129373257049
 20
310.3498025022066
 30
0.0
 10
69.98898893682434
 20
310.4118976375651
 30
0.0
 10
69.90199230866968
 20
310.4811843112092
 30
0.0
 10
69.81973955320996
 20
310.5560662628235
 30
0.0
 10
69.76895956680562
 20
310.6100288443185
 30
0.0
 10
69.7435742066
 20
310.6370052117
 30
0.0
 11
70.4976570463
 21
310.2028088209
 31
0.0
 11
70.38831476125125
 21
310.2221353801357
 31
0.0
 11
70.28182280766315
 21
310.2542018134801
 31
0.0
 11
70.17955462706534
 21
310.2977288724131
 31
0.0
 11
70.08215176062645
 21
310.3511879741195
 31
0.0
 11
69.98987999382106
 21
310.4130915698765
 31
0.0
 11
69.90278289038105
 21
310.4821170559944
 31
0.0
 11
69.82074298587992
 21
310.5570867231652
 31
0.0
 11
69.7435742066
 21
310.6370052117
 31
0.0
  0
SPLINE
  5
12F
330
1F
100
AcDbEntity
  8
BEZUGSACHSEN
  6
Continuous
 62
     7
100
AcDbSpline
210
0.0
220
0.0
230
1.0
 70
     8
 71
     3
 72
    27
 73
    23
 74
    21
 42
0.0000000001
 43
0.0000000001
 44
0.00000001
 40
0.0
 40
0.0
 40
0.0
 40
0.0
 40
0.1260969826140578
 40
0.2522464959677586
 40
0.3668867953137266
 40
0.4815825894688219
 40
0.5839596007411177
 40
0.6859489161896054
 40
0.7334568411117866
 40
0.7809568849563144
 40
0.8274002265050304
 40
0.8738421607809628
 40
0.9204907319624629
 40
0.9671431399967361
 40
1.015111401893647
 40
1.063087497214397
 40
1.165500418815328
 40
1.268190479015608
 40
1.380949153940486
 40
1.49364651781901
 40
1.615655563791836
 40
1.737631867654753
 40
1.737631867654753
 40
1.737631867654753
 40
1.737631867654753
 10
68.597731531
 20
340.5135736933
 30
0.0
 10
68.59846007248292
 20
340.5556166213815
 30
0.0
 10
68.59991745895186
 20
340.6397199922074
 30
0.0
 10
68.6133620209666
 20
340.7614673197842
 30
0.0
 10
68.63631745426636
 20
340.877885036162
 30
0.0
 10
68.6702833545947
 20
340.9834604939595
 30
0.0
 10
68.71650911345377
 20
341.0796185562145
 30
0.0
 10
68.76505228201074
 20
341.1487879218768
 30
0.0
 10
68.81049160756845
 20
341.1963254034943
 30
0.0
 10
68.84639768565958
 20
341.2270206869763
 30
0.0
 10
68.88504511675225
 20
341.2535557226885
 30
0.0
 10
68.92599960395782
 20
341.2757840685837
 30
0.0
 10
68.96913923013332
 20
341.2935772854613
 30
0.0
 10
69.0143198647468
 20
341.3071106925223
 30
0.0
 10
69.0610270877364
 20
341.3163078178561
 30
0.0
 10
69.12685107893985
 20
341.3232631382367
 30
0.0
 10
69.21157883093689
 20
341.321397881603
 30
0.0
 10
69.31641043442603
 20
341.3044832206617
 30
0.0
 10
69.4219896767723
 20
341.2750685878028
 30
0.0
 10
69.53014761486585
 20
341.2333169503358
 30
0.0
 10
69.63779987611967
 20
341.1825211231618
 30
0.0
 10
69.70831925093682
 20
341.141956694912
 30
0.0
 10
69.7435742066
 20
341.1216772026
 30
0.0
 11
68.597731531
 21
340.5135736933
 31
0.0
 11
68.60186289059396
 21
340.6396029791516
 31
0.0
 11
68.61562964976301
 21
340.7649990558899
 31
0.0
 11
68.63848122586495
 21
340.8773387358956
 31
0.0
 11
68.67411941523866
 21
340.9863572877803
 31
0.0
 11
68.71901918003879
 21
341.078363067805
 31
0.0
 11
68.77819160899293
 21
341.1614319796632
 31
0.0
 11
68.81104410915448
 21
341.1957498491126
 31
0.0
 11
68.84718120408128
 21
341.2265778321067
 31
0.0
 11
68.88546846894272
 21
341.2528660295276
 31
0.0
 11
68.92629107687998
 21
341.2750102825178
 31
0.0
 11
68.96939722049802
 21
341.2928414231334
 31
0.0
 11
69.01407679254237
 21
341.3062646499188
 31
0.0
 11
69.06112759829752
 21
341.3156014495419
 31
0.0
 11
69.10883148557159
 21
341.3207048661591
 31
0.0
 11
69.21123112642931
 21
341.319055604795
 31
0.0
 11
69.31269537673002
 21
341.3032361745002
 31
0.0
 11
69.42141909316722
 21
341.2733418229451
 31
0.0
 11
69.52673708546172
 21
341.2332317702871
 31
0.0
 11
69.63702977136714
 21
341.1810615610201
 31
0.0
 11
69.7435742066
 21
341.1216772026
 31
0.0
  0
SPLINE
  5
130
330
1F
100
AcDbEntity
  8
BEZUGSACHSEN
  6
Continuous
 62
     7
100
AcDbSpline
210
0.0
220
0.0
230
1.0
 70
     8
 71
     3
 72
    15
 73
    11
 74
     9
 42
0.0000000001
 43
0.0000000001
 44
0.00000001
 40
0.0
 40
0.0
 40
0.0
 40
0.0
 40
0.1110944831540775
 40
0.2222295182010375
 40
0.3333620402572295
 40
0.4444752610691144
 40
0.5555842178408716
 40
0.666730035420318
 40
0.7779450182088232
 40
0.8889820871600217
 40
0.8889820871600217
 40
0.8889820871600217
 40
0.8889820871600217
 10
69.7435742066
 20
341.1216772026
 30
0.0
 10
69.76895956617801
 20
341.1486535682827
 30
0.0
 10
69.81973955154015
 20
341.2026161466061
 30
0.0
 10
69.90199232078857
 20
341.2774981100443
 30
0.0
 10
69.98898897274543
 20
341.3467848189633
 30
0.0
 10
70.08129381317278
 20
341.4088799820272
 30
0.0
 10
70.17874383515377
 20
341.4626594741244
 30
0.0
 10
70.28115674902452
 20
341.5062497196984
 30
0.0
 10
70.38767324759469
 20
341.5392682755297
 30
0.0
 10
70.46101535030033
 20
341.5503414421509
 30
0.0
 10
70.4976570463
 20
341.5558735934
 30
0.0
 11
69.7435742066
 21
341.1216772026
 31
0.0
 11
69.8207429837144
 21
341.2015956862314
 31
0.0
 11
69.90278288397826
 21
341.2765653519608
 31
0.0
 11
69.98988003258934
 21
341.3455908846454
 31
0.0
 11
70.0821518541619
 21
341.4074945096028
 31
0.0
 11
70.17955476222717
 21
341.4609535946618
 31
0.0
 11
70.281822985616
 21
341.5044806351113
 31
0.0
 11
70.38831485374047
 21
341.5365470415206
 31
0.0
 11
70.4976570463
 21
341.5558735934
 31
0.0
  0
SPLINE
  5
131
330
1F
100
AcDbEntity
  8
0
  6
Continuous
 62
     7
100
AcDbSpline
210
0.0
220
0.0
230
1.0
 70
     8
 71
     3
 72
    19
 73
    15
 74
    13
 42
0.0000000001
 43
0.0000000001
 44
0.00000001
 40
0.0
 40
0.0
 40
0.0
 40
0.0
 40
0.1159638160000658
 40
0.2322191967866206
 40
0.3483355686751596
 40
0.4644089766978701
 40
0.5804847760489036
 40
0.6965670370034656
 40
0.8126291299401862
 40
0.9287241177286326
 40
1.16042955307104
 40
1.392722689859192
 40
1.625028291295907
 40
1.856795134056341
 40
1.856795134056341
 40
1.856795134056341
 40
1.856795134056341
 10
137.722731531
 20
292.2166392954
 30
0.0
 10
137.6840419839278
 20
292.2148158753826
 30
0.0
 10
137.6065656136682
 20
292.2111644507706
 30
0.0
 10
137.4931976516507
 20
292.1830057772116
 30
0.0
 10
137.3851780233222
 20
292.1395059240079
 30
0.0
 10
137.2842875015299
 20
292.0813359950707
 30
0.0
 10
137.1915336933274
 20
292.011103983735
 30
0.0
 10
137.1074041659398
 20
291.9308024990631
 30
0.0
 10
137.0320213451324
 20
291.8422749177618
 30
0.0
 10
136.9432355776325
 20
291.7154722672363
 30
0.0
 10
136.8530518106553
 20
291.543315035085
 30
0.0
 10
136.7779600300349
 20
291.3230547094723
 30
0.0
 10
136.7312941566352
 20
291.0946341721365
 30
0.0
 10
136.7255835296531
 20
290.9398340323305
 30
0.0
 10
136.722731531
 20
290.862523819
 30
0.0
 11
137.722731531
 21
292.2166392954
 31
0.0
 11
137.6071364978958
 21
292.2073983569771
 31
0.0
 11
137.4940511077647
 21
292.1804352692323
 31
0.0
 11
137.3863441112032
 21
292.1370507707075
 31
0.0
 11
137.2856426085717
 21
292.0793251835059
 31
0.0
 11
137.1929722821482
 21
292.009426672824
 31
0.0
 11
137.1088580083379
 21
291.929427421267
 31
0.0
 11
137.033482696016
 21
291.8411722700902
 31
0.0
 11
136.9667568369932
 21
291.7461685547562
 31
0.0
 11
136.8586531903928
 21
291.5412270744285
 31
0.0
 11
136.7827034985686
 21
291.3217008898612
 31
0.0
 11
136.7376199176715
 21
291.0938119625471
 31
0.0
 11
136.722731531
 21
290.862523819
 31
0.0
  0
SPLINE
  5
132
330
1F
100
AcDbEntity
  8
0
  6
Continuous
 62
     7
100
AcDbSpline
210
0.0
220
0.0
230
1.0
 70
     8
 71
     3
 72
    19
 73
    15
 74
    13
 42
0.0000000001
 43
0.0000000001
 44
0.00000001
 40
0.0
 40
0.0
 40
0.0
 40
0.0
 40
0.2317668196867539
 40
0.464072402801821
 40
0.6963664518201288
 40
0.928072790234614
 40
1.044168501166677
 40
1.160231315452914
 40
1.276313911445563
 40
1.392390051150453
 40
1.508462883778726
 40
1.624578659465502
 40
1.740832696791196
 40
1.856795195255975
 40
1.856795195255975
 40
1.856795195255975
 40
1.856795195255975
 10
140.472731531
 20
290.862523819
 30
0.0
 10
140.4698795329084
 20
290.9398340246673
 30
0.0
 10
140.4641689069916
 20
291.0946341507322
 30
0.0
 10
140.4175029862614
 20
291.3230549741779
 30
0.0
 10
140.3424109820249
 20
291.543315864271
 30
0.0
 10
140.2522266596489
 20
291.7154737786209
 30
0.0
 10
140.1634402018544
 20
291.8422769062066
 30
0.0
 10
140.0880567638722
 20
291.9308047460693
 30
0.0
 10
140.0039266489108
 20
292.0111062924333
 30
0.0
 10
139.9111725728467
 20
292.0813380082312
 30
0.0
 10
139.8102821113046
 20
292.139507476429
 30
0.0
 10
139.7022631179824
 20
292.1830066776619
 30
0.0
 10
139.5888961189956
 20
292.2111646418285
 30
0.0
 10
139.5114206378439
 20
292.2148159388968
 30
0.0
 10
139.472731531
 20
292.2166392954
 30
0.0
 11
140.472731531
 21
290.862523819
 31
0.0
 11
140.4578431484034
 21
291.093811939688
 31
0.0
 11
140.412759583146
 21
291.3217008514193
 31
0.0
 11
140.3368095521973
 21
291.541227883942
 31
0.0
 11
140.2287052855644
 21
291.7461700582186
 31
0.0
 11
140.1619788330236
 21
291.8411742403799
 31
0.0
 11
140.0866028233442
 21
291.9294297445983
 31
0.0
 11
140.0024880587391
 21
292.0094289662684
 31
0.0
 11
139.9098172226871
 21
292.0793273664949
 31
0.0
 11
139.8091160291466
 21
292.1370523359091
 31
0.0
 11
139.701409439921
 21
292.1804362499871
 31
0.0
 11
139.5883252652133
 21
292.2073986427816
 31
0.0
 11
139.472731531
 21
292.2166392954
 31
0.0
  0
SPLINE
  5
133
330
1F
100
AcDbEntity
  8
BEZUGSACHSEN
  6
Continuous
 62
     7
100
AcDbSpline
210
0.0
220
0.0
230
1.0
 70
     8
 71
     3
 72
    11
 73
     7
 74
     5
 42
0.0000000001
 43
0.0000000001
 44
0.00000001
 40
0.0
 40
0.0
 40
0.0
 40
0.0
 40
0.5462907431577853
 40
1.093000863651937
 40
1.646070107169595
 40
2.198197048679415
 40
2.198197048679415
 40
2.198197048679415
 40
2.198197048679415
 10
78.151577478
 20
340.8893412072
 30
0.0
 10
78.21464827982899
 20
340.7184095779427
 30
0.0
 10
78.34083830177929
 20
340.3764150983665
 30
0.0
 10
78.48047561482002
 20
339.8451409691511
 30
0.0
 10
78.5779639788274
 20
339.3017165642192
 30
0.0
 10
78.59114609334608
 20
338.9331319236797
 30
0.0
 10
78.597731531
 20
338.748996733
 30
0.0
 11
78.151577478
 21
340.8893412072
 31
0.0
 11
78.3324288105417
 21
340.373854668503
 31
0.0
 11
78.47292029522751
 21
339.8455043126013
 31
0.0
 11
78.56498694845793
 21
339.3001518398938
 31
0.0
 11
78.597731531
 21
338.748996733
 31
0.0
  0
SPLINE
  5
134
330
1F
100
AcDbEntity
  8
BEZUGSACHSEN
  6
Continuous
 62
     7
100
AcDbSpline
210
0.0
220
0.0
230
1.0
 70
     8
 71
     3
 72
    19
 73
    15
 74
    13
 42
0.0000000001
 43
0.0000000001
 44
0.00000001
 40
0.0
 40
0.0
 40
0.0
 40
0.0
 40
0.1462385988632251
 40
0.2927479275650989
 40
0.4364790706808216
 40
0.58016592369064
 40
0.7203799973304318
 40
0.8606059383245462
 40
0.9980411884589196
 40
1.135484020507272
 40
1.405415631167324
 40
1.675815514155297
 40
1.943997429575355
 40
2.211934834825551
 40
2.211934834825551
 40
2.211934834825551
 40
2.211934834825551
 10
76.597731531
 20
342.2379887946
 30
0.0
 10
76.64644633636676
 20
342.2412968719473
 30
0.0
 10
76.74396613226003
 20
342.2479191508475
 30
0.0
 10
76.88930239259456
 20
342.2315598380766
 30
0.0
 10
77.02995932969941
 20
342.1963880719683
 30
0.0
 10
77.16281146312961
 20
342.1435823853168
 30
0.0
 10
77.28726592619891
 20
342.0759105975944
 30
0.0
 10
77.4020684833834
 20
341.9966103962198
 30
0.0
 10
77.50817842117338
 20
341.9075257566431
 30
0.0
 10
77.63728088635551
 20
341.7795782210719
 30
0.0
 10
77.78032073625312
 20
341.6037759321661
 30
0.0
 10
77.92522833793817
 20
341.3760904662819
 30
0.0
 10
78.04986508632366
 20
341.1374278467852
 30
0.0
 10
78.11768365754057
 20
340.9720116063706
 30
0.0
 10
78.151577478
 20
340.8893412072
 30
0.0
 11
76.597731531
 21
342.2379887946
 31
0.0
 11
76.7438653929044
 21
342.2435225277328
 31
0.0
 11
76.88957475374852
 21
342.2282331340538
 31
0.0
 11
77.0290048352743
 21
342.1933347978891
 31
0.0
 11
77.16263717218507
 21
342.1405303448606
 31
0.0
 11
77.28595096300405
 21
342.0737943317903
 31
0.0
 11
77.40148207434305
 21
341.9943218406978
 31
0.0
 11
77.50689462413163
 21
341.9061365679672
 31
0.0
 11
77.60468312782783
 21
341.8095553036022
 31
0.0
 11
77.77593152371453
 21
341.6008999386107
 31
0.0
 11
77.92227394422716
 21
341.3735236146928
 31
0.0
 11
78.04614156999963
 21
341.1356615726519
 31
0.0
 11
78.151577478
 21
340.8893412072
 31
0.0
  0
SPLINE
  5
135
330
1F
100
AcDbEntity
  8
BEZUGSACHSEN
  6
Continuous
 62
     7
100
AcDbSpline
210
0.0
220
0.0
230
1.0
 70
     8
 71
     3
 72
    11
 73
     7
 74
     5
 42
0.0000000001
 43
0.0000000001
 44
0.00000001
 40
0.0
 40
0.0
 40
0.0
 40
0.0
 40
0.5521269407022085
 40
1.105196183334135
 40
1.651906304696277
 40
2.198197048696919
 40
2.198197048696919
 40
2.198197048696919
 40
2.198197048696919
 10
78.597731531
 20
313.0096856814
 30
0.0
 10
78.59114609337942
 20
312.8255504909896
 30
0.0
 10
78.57796397892837
 20
312.4569658510148
 30
0.0
 10
78.48047561517404
 20
311.9135414463207
 30
0.0
 10
78.34083830209609
 20
311.3822673168241
 30
0.0
 10
78.21464827993364
 20
311.0402728367182
 30
0.0
 10
78.151577478
 20
310.8693412072
 30
0.0
 11
78.597731531
 21
313.0096856814
 31
0.0
 11
78.56498694859829
 21
312.4585305753069
 31
0.0
 11
78.47292029567981
 21
311.913178103445
 31
0.0
 11
78.33242881083379
 21
311.3848277466877
 31
0.0
 11
78.151577478
 21
310.8693412072
 31
0.0
  0
SPLINE
  5
136
330
1F
100
AcDbEntity
  8
BEZUGSACHSEN
  6
Continuous
 62
     7
100
AcDbSpline
210
0.0
220
0.0
230
1.0
 70
     8
 71
     3
 72
    19
 73
    15
 74
    13
 42
0.0000000001
 43
0.0000000001
 44
0.00000001
 40
0.0
 40
0.0
 40
0.0
 40
0.0
 40
0.2679411643589543
 40
0.5361267937427299
 40
0.8065304774103819
 40
1.076465993259532
 40
1.213913376171963
 40
1.351353104895531
 40
1.49158636707019
 40
1.631807897560838
 40
1.77549156277915
 40
1.919219204765134
 40
2.065713007411443
 40
2.211936409422453
 40
2.211936409422453
 40
2.211936409422453
 40
2.211936409422453
 10
78.151577478
 20
310.8693412072
 30
0.0
 10
78.11768323420034
 20
310.786669627488
 30
0.0
 10
78.0498638220614
 20
310.6212510399009
 30
0.0
 10
77.92522531578585
 20
310.382585066211
 30
0.0
 10
77.78031451643557
 20
310.15489707021
 30
0.0
 10
77.63727088490597
 20
309.9790925789096
 30
0.0
 10
77.50816449801492
 20
309.8511428597781
 30
0.0
 10
77.40204939895686
 20
309.7620558389622
 30
0.0
 10
77.28723997130858
 20
309.6827541986435
 30
0.0
 10
77.16278035907227
 20
309.6150837312146
 30
0.0
 10
77.02992680393504
 20
309.5622810445324
 30
0.0
 10
76.88927600505748
 20
309.5271147805259
 30
0.0
 10
76.74395062193469
 20
309.510762578583
 30
0.0
 10
76.64644120285675
 20
309.5173853119344
 30
0.0
 10
76.597731531
 20
309.5206936197
 30
0.0
 11
78.151577478
 21
310.8693412072
 31
0.0
 11
78.04614021828107
 21
310.6230173313353
 31
0.0
 11
77.92227070270444
 21
310.3851520860413
 31
0.0
 11
77.77592521639114
 21
310.1577732154822
 31
0.0
 11
77.60467302526266
 21
309.9491159133084
 31
0.0
 11
77.50688058658336
 21
309.8525321568758
 31
0.0
 11
77.40146359732867
 21
309.764345211084
 31
0.0
 11
77.28592495361522
 21
309.6848707521113
 31
0.0
 11
77.16260294372186
 21
309.6181342591782
 31
0.0
 11
77.02897225552199
 21
309.5653343082143
 31
0.0
 11
76.88954455431421
 21
309.5304408818023
 31
0.0
 11
76.74385011578354
 21
309.515158055002
 31
0.0
 11
76.597731531
 21
309.5206936197
 31
0.0
  0
SPLINE
  5
137
330
1F
100
AcDbEntity
  8
RUNDUNGEN
  6
Continuous
 62
     7
100
AcDbSpline
210
0.0
220
0.0
230
1.0
 70
     8
 71
     3
 72
    13
 73
     9
 74
     7
 42
0.0000000001
 43
0.0000000001
 44
0.00000001
 40
0.0
 40
0.0
 40
0.0
 40
0.0
 40
0.4663350255889394
 40
0.9326617783386533
 40
1.157625267027866
 40
1.382612551958883
 40
1.702270910732673
 40
2.021668295161002
 40
2.021668295161002
 40
2.021668295161002
 40
2.021668295161002
 10
224.4561081495
 20
308.6031561045
 30
0.0
 10
224.3005686667482
 20
308.5976394523029
 30
0.0
 10
223.9894924605335
 20
308.5866062457747
 30
0.0
 10
223.6092518620122
 20
308.511409161524
 30
0.0
 10
223.3160965179412
 20
308.4252420949775
 30
0.0
 10
223.0756790123303
 20
308.3354004272595
 30
0.0
 10
222.8137094570056
 20
308.2134473605398
 30
0.0
 10
222.6358254980853
 20
308.0957962593931
 30
0.0
 10
222.5469198403
 20
308.0369947317
 30
0.0
 11
224.4561081495
 21
308.6031561045
 31
0.0
 11
223.9906718412545
 21
308.5742182563105
 31
0.0
 11
223.532653762508
 21
308.4865821914088
 31
0.0
 11
223.3169536102693
 21
308.4226915382004
 31
0.0
 11
223.1061081494881
 21
308.3441837675749
 31
0.0
 11
222.8176014761458
 21
308.2065416019026
 31
0.0
 11
222.5469198403
 21
308.0369947317
 31
0.0
  0
SPLINE
  5
138
330
1F
100
AcDbEntity
  8
RUNDUNGEN
  6
Continuous
 62
     7
100
AcDbSpline
210
0.0
220
0.0
230
1.0
 70
     8
 71
     3
 72
    13
 73
     9
 74
     7
 42
0.0000000001
 43
0.0000000001
 44
0.00000001
 40
0.0
 40
0.0
 40
0.0
 40
0.0
 40
0.4307837678761192
 40
0.8616138580899425
 40
1.090255743275925
 40
1.318890809119911
 40
1.670307948845909
 40
2.021585355941607
 40
2.021585355941607
 40
2.021585355941607
 40
2.021585355941607
 10
222.5469198403
 20
343.7216876827
 30
0.0
 10
222.6679381947561
 20
343.6438602515475
 30
0.0
 10
222.9099879168169
 20
343.4881970204304
 30
0.0
 10
223.2498216403998
 20
343.3536348471157
 30
0.0
 10
223.5335713008552
 20
343.2691160893936
 30
0.0
 10
223.7968100999211
 20
343.2102968801161
 30
0.0
 10
224.1046551649897
 20
343.1649245358374
 30
0.0
 10
224.3389726862119
 20
343.1586586364824
 30
0.0
 10
224.4561081495
 20
343.1555263098
 30
0.0
 11
222.5469198403
 21
343.7216876827
 31
0.0
 11
222.9166032195124
 21
343.5005342205982
 31
0.0
 11
223.3150388427816
 21
343.3366329675713
 31
0.0
 11
223.5342607392096
 21
343.2716801247706
 31
0.0
 11
223.7572967277033
 21
343.2213915458474
 31
0.0
 11
224.1052131360309
 21
343.1719124703743
 31
0.0
 11
224.4561081495
 21
343.1555263098
 31
0.0
  0
SPLINE
  5
139
330
1F
100
AcDbEntity
  8
FASEN
  6
Continuous
 62
     7
100
AcDbSpline
210
0.0
220
0.0
230
1.0
 70
     8
 71
     3
 72
     9
 73
     5
 74
     3
 42
0.0000000001
 43
0.0000000001
 44
0.00000001
 40
0.0
 40
0.0
 40
0.0
 40
0.0
 40
3.455417107874747
 40
6.898724895997702
 40
6.898724895997702
 40
6.898724895997702
 40
6.898724895997702
 10
220.8392788694
 20
344.9442294934
 30
0.0
 10
220.7167155715829
 20
343.7953137364171
 30
0.0
 10
220.4720184923044
 20
341.5015085347128
 30
0.0
 10
220.7170020834579
 20
339.2077644982716
 30
0.0
 10
220.8392788694
 20
338.0629055825
 30
0.0
 11
220.8392788694
 21
344.9442294934
 31
0.0
 11
220.5944392885546
 21
341.4974975674961
 31
0.0
 11
220.8392788694
 21
338.0629055825
 31
0.0
  0
SPLINE
  5
13A
330
1F
100
AcDbEntity
  8
FASEN
  6
Continuous
 62
     7
100
AcDbSpline
210
0.0
220
0.0
230
1.0
 70
     8
 71
     3
 72
     9
 73
     5
 74
     3
 42
0.0000000001
 43
0.0000000001
 44
0.00000001
 40
0.0
 40
0.0
 40
0.0
 40
0.0
 40
3.458343190905912
 40
6.900750853909624
 40
6.900750853909624
 40
6.900750853909624
 40
6.900750853909624
 10
220.8392788694
 20
313.6957768318
 30
0.0
 10
220.7097197447207
 20
312.5462185718324
 30
0.0
 10
220.4511984844208
 20
310.2523990443342
 30
0.0
 10
220.7101180440168
 20
307.9586693671279
 30
0.0
 10
220.8392788694
 20
306.814452921
 30
0.0
 11
220.8392788694
 21
313.6957768318
 31
0.0
 11
220.5805598391084
 21
310.2471246183331
 31
0.0
 11
220.8392788694
 21
306.814452921
 31
0.0
  0
SPLINE
  5
13B
330
1F
100
AcDbEntity
  8
BEZUGSACHSEN
  6
Continuous
 62
     7
100
AcDbSpline
210
0.0
220
0.0
230
1.0
 70
     8
 71
     3
 72
    11
 73
     7
 74
     5
 42
0.0000000001
 43
0.0000000001
 44
0.00000001
 40
0.0
 40
0.0
 40
0.0
 40
0.0
 40
0.9140556660003477
 40
1.828030949185946
 40
2.27980697487107
 40
2.730944124762511
 40
2.730944124762511
 40
2.730944124762511
 40
2.730944124762511
 10
69.8646844578854
 20
310.869341207385
 30
0.0
 10
69.9973391648488
 20
311.1440578050515
 30
0.0
 10
70.26263691301041
 20
311.6934668415788
 30
0.0
 10
70.47799212632304
 20
312.4261777626838
 30
0.0
 10
70.5816863399854
 20
313.0241229687897
 30
0.0
 10
70.59238565750648
 20
313.3252461842164
 30
0.0
 10
70.597731531
 20
313.4757012588
 30
0.0
 11
69.8646844578854
 21
310.869341207385
 31
0.0
 11
70.2394919876609
 21
311.7030180489555
 31
0.0
 11
70.49878334805877
 21
312.579441923971
 31
0.0
 11
70.57150032155737
 21
313.0253273567326
 31
0.0
 11
70.597731531
 21
313.4757012588
 31
0.0
  0
SPLINE
  5
13C
330
1F
100
AcDbEntity
  8
FASEN
  6
Continuous
 62
     7
100
AcDbSpline
210
0.0
220
0.0
230
1.0
 70
    24
 71
     3
 72
     9
 73
     5
 74
     3
 42
0.0000000001
 43
0.0000000001
 44
0.00000001
 40
0.0
 40
0.0
 40
0.0
 40
0.0
 40
0.2578063726615712
 40
0.5156127453226403
 40
0.5156127453226403
 40
0.5156127453226403
 40
0.5156127453226403
 10
147.147731532281
 20
286.928378447344
 30
0.0
 10
147.2143981984746
 20
286.9826044418818
 30
0.0
 10
147.3477315308618
 20
287.0910564309574
 30
0.0
 10
147.4810648632493
 20
287.1995084200325
 30
0.0
 10
147.547731529443
 20
287.25373441457
 30
0.0
 11
147.147731532281
 21
286.928378447344
 31
0.0
 11
147.347731530862
 21
287.0910564309574
 31
0.0
 11
147.547731529443
 21
287.25373441457
 31
0.0
  0
SPLINE
  5
13D
330
1F
100
AcDbEntity
  8
BEZUGSACHSEN
  6
Continuous
 62
     7
100
AcDbSpline
210
0.0
220
0.0
230
1.0
 70
     8
 71
     3
 72
    11
 73
     7
 74
     5
 42
0.0000000001
 43
0.0000000001
 44
0.00000001
 40
0.0
 40
0.0
 40
0.0
 40
0.0
 40
0.8249192366725313
 40
1.650116891931372
 40
2.190492152294083
 40
2.730585915378228
 40
2.730585915378228
 40
2.730585915378228
 40
2.730585915378228
 10
70.597731531
 20
338.2829811556
 30
0.0
 10
70.57999822666181
 20
338.558171447577
 30
0.0
 10
70.54452563281585
 20
339.1086449110378
 30
0.0
 10
70.33609081618037
 20
339.8133784961909
 30
0.0
 10
70.10586438520099
 20
340.4055922212712
 30
0.0
 10
69.94506380239883
 20
340.7281195547161
 30
0.0
 10
69.8646844578854
 20
340.889341207015
 30
0.0
 11
70.597731531
 21
338.2829811556
 31
0.0
 11
70.51415607688426
 21
339.103655811296
 31
0.0
 11
70.29619463477249
 21
339.8995477511957
 31
0.0
 11
70.09825955621329
 21
340.4023669301137
 31
0.0
 11
69.8646844578854
 21
340.889341207015
 31
0.0
  0
DIMENSION
  5
148
330
1F
100
AcDbEntity
  8
1
100
AcDbDimension
  2
*D2
 10
252.407540015183
 20
345.8793412072
 30
0.0
 11
248.657540015183
 21
326.294221810749
 31
0.0
 70
    32
  1
<>
 71
     5
 42
-1.0
 53
90.0
  3
ME10_DIM_10
100
AcDbAlignedDimension
 13
223.597731531
 23
305.8793412072
 33
0.0
 14
223.597731531
 24
345.8793412072
 34
0.0
 50
90.0
100
AcDbRotatedDimension
  0
DIMENSION
  5
153
330
1F
100
AcDbEntity
  8
1
100
AcDbDimension
  2
*D3
 10
262.233532199913
 20
357.3793412071
 30
0.0
 11
258.483532199913
 21
327.148655913769
 31
0.0
 70
    32
  1
<>
 71
     5
 42
-1.0
 53
90.0
  3
ME10_DIM_11
100
AcDbAlignedDimension
 13
220.597731531
 23
294.3793412072
 33
0.0
 14
220.597731531
 24
357.3793412071
 34
0.0
 50
90.0
100
AcDbRotatedDimension
  0
DIMENSION
  5
15E
330
1F
100
AcDbEntity
  8
1
100
AcDbDimension
  2
*D4
 10
223.597731531
 20
383.132183905588
 30
0.0
 11
184.792978668412
 21
386.882183905588
 31
0.0
 70
    32
  1
<>
 71
     5
 42
-1.0
 53
0.00013888888889
  3
ME10_DIM_12
100
AcDbAlignedDimension
 13
147.597731531
 23
375.879304337
 33
0.0
 14
223.597731531
 24
350.8793412072
 34
0.0
100
AcDbRotatedDimension
  0
DIMENSION
  5
169
330
1F
100
AcDbEntity
  8
1
100
AcDbDimension
  2
*D5
 10
223.597731531
 20
390.619359889644
 30
0.0
 11
172.643976128246
 21
394.369359889644
 31
0.0
 70
    32
  1
<>
 71
     5
 42
-1.0
 53
0.00013888888889
  3
ME10_DIM_13
100
AcDbAlignedDimension
 13
118.597731531
 23
375.8793412072
 33
0.0
 14
223.597731531
 24
350.8793412072
 34
0.0
100
AcDbRotatedDimension
  0
DIMENSION
  5
174
330
1F
100
AcDbEntity
  8
1
100
AcDbDimension
  2
*D6
 10
118.597731531
 20
400.084280473262
 30
0.0
 11
179.989884640905
 21
403.834280473262
 31
0.0
 70
    32
  1
<>
 71
     5
 42
-1.0
 53
0.00013888888889
  3
ME10_DIM_14
100
AcDbAlignedDimension
 13
238.597731531
 23
351.3793412072
 33
0.0
 14
118.597731531
 24
375.8793412072
 34
0.0
100
AcDbRotatedDimension
  0
DIMENSION
  5
17F
330
1F
100
AcDbEntity
  8
1
100
AcDbDimension
  2
*D7
 10
223.597731531
 20
407.571456457318
 30
0.0
 11
149.052308404899
 21
411.321456457318
 31
0.0
 70
    32
  1
<>
 71
     5
 42
-1.0
 53
0.00013888888889
  3
ME10_DIM_15
100
AcDbAlignedDimension
 13
68.597731531
 23
359.4795327697
 33
0.0
 14
223.597731531
 24
350.8793412072
 34
0.0
100
AcDbRotatedDimension
  0
INSERT
  5
186
330
1F
100
AcDbEntity
  8
1
100
AcDbBlockReference
  2
*D8
 10
0.0
 20
0.0
 30
0.0
  0
ENDSEC
  0
SECTION
  2
OBJECTS
  0
DICTIONARY
  5
C
330
0
100
AcDbDictionary
281
     1
  3
ACAD_GROUP
350
D
  3
ACAD_LAYOUT
350
1A
  3
ACAD_MLEADERSTYLE
350
189
  3
ACAD_MLINESTYLE
350
17
  3
ACAD_PLOTSETTINGS
350
19
  3
ACAD_PLOTSTYLENAME
350
E
  3
ACAD_SCALELIST
350
4B
  3
ACAD_VISUALSTYLE
350
2A
  3
AcDbVariableDictionary
350
187
  0
DICTIONARY
  5
D
102
{ACAD_REACTORS
330
C
102
}
330
C
100
AcDbDictionary
281
     1
  0
DICTIONARY
  5
1A
102
{ACAD_REACTORS
330
C
102
}
330
C
100
AcDbDictionary
281
     1
  3
Layout1
350
1E
  3
Layout2
350
26
  3
Model
350
22
  0
DICTIONARY
  5
189
102
{ACAD_REACTORS
330
C
102
}
330
C
100
AcDbDictionary
281
     1
  0
DICTIONARY
  5
17
102
{ACAD_REACTORS
330
C
102
}
330
C
100
AcDbDictionary
281
     1
  3
Standard
350
18
  0
DICTIONARY
  5
19
102
{ACAD_REACTORS
330
C
102
}
330
C
100
AcDbDictionary
281
     1
  0
ACDBDICTIONARYWDFLT
  5
E
102
{ACAD_REACTORS
330
C
102
}
330
C
100
AcDbDictionary
281
     1
  3
Normal
350
F
100
AcDbDictionaryWithDefault
340
F
  0
DICTIONARY
  5
4B
102
{ACAD_REACTORS
330
C
102
}
330
C
100
AcDbDictionary
281
     1
  3
A0
350
4C
  3
A1
350
4D
  3
A2
350
4E
  3
A3
350
4F
  3
A4
350
50
  3
A5
350
51
  3
A6
350
52
  3
A7
350
53
  3
A8
350
54
  3
A9
350
55
  3
B0
350
56
  3
B1
350
57
  3
B2
350
58
  3
B3
350
59
  3
B4
350
5A
  3
B5
350
5B
  3
B6
350
5C
  3
B7
350
5D
  3
B8
350
5E
  3
B9
350
5F
  3
C0
350
60
  3
C1
350
61
  3
C2
350
62
  3
C3
350
63
  3
C4
350
64
  3
C5
350
65
  3
C6
350
66
  3
C7
350
67
  3
C8
350
68
  3
C9
350
69
  3
D0
350
6A
  3
D1
350
6B
  3
D2
350
6C
  0
DICTIONARY
  5
2A
102
{ACAD_REACTORS
330
C
102
}
330
C
100
AcDbDictionary
281
     1
  3
2dWireframe
350
2F
  3
3D Hidden
350
31
  3
3dWireframe
350
30
  3
Basic
350
32
  3
Brighten
350
36
  3
ColorChange
350
3A
  3
Conceptual
350
34
  3
Dim
350
35
  3
Facepattern
350
39
  3
Flat
350
2B
  3
FlatWithEdges
350
2C
  3
Gouraud
350
2D
  3
GouraudWithEdges
350
2E
  3
Linepattern
350
38
  3
Realistic
350
33
  3
Thicken
350
37
  0
DICTIONARY
  5
187
102
{ACAD_REACTORS
330
C
102
}
330
C
100
AcDbDictionary
281
     1
  3
CANNOSCALE
350
18A
  0
LAYOUT
  5
1E
102
{ACAD_REACTORS
330
1A
102
}
330
1A
100
AcDbPlotSettings
  1

  2
none_device
  4

  6

 40
0.0
 41
0.0
 42
0.0
 43
0.0
 44
0.0
 45
0.0
 46
0.0
 47
0.0
 48
0.0
 49
0.0
140
0.0
141
0.0
142
1.0
143
1.0
 70
   688
 72
     0
 73
     0
 74
     5
  7

 75
    16
147
1.0
148
0.0
149
0.0
100
AcDbLayout
  1
Layout1
 70
     1
 71
     1
 10
0.0
 20
0.0
 11
12.0
 21
9.0
 12
0.0
 22
0.0
 32
0.0
 14
1.00000000000000E+20
 24
1.00000000000000E+20
 34
1.00000000000000E+20
 15
-1.00000000000000E+20
 25
-1.00000000000000E+20
 35
-1.00000000000000E+20
146
0.0
 13
0.0
 23
0.0
 33
0.0
 16
1.0
 26
0.0
 36
0.0
 17
0.0
 27
1.0
 37
0.0
 76
     0
330
1B
  0
LAYOUT
  5
26
102
{ACAD_REACTORS
330
1A
102
}
330
1A
100
AcDbPlotSettings
  1

  2
none_device
  4

  6

 40
0.0
 41
0.0
 42
0.0
 43
0.0
 44
0.0
 45
0.0
 46
0.0
 47
0.0
 48
0.0
 49
0.0
140
0.0
141
0.0
142
1.0
143
1.0
 70
   688
 72
     0
 73
     0
 74
     5
  7

 75
    16
147
1.0
148
0.0
149
0.0
100
AcDbLayout
  1
Layout2
 70
     1
 71
     2
 10
0.0
 20
0.0
 11
0.0
 21
0.0
 12
0.0
 22
0.0
 32
0.0
 14
0.0
 24
0.0
 34
0.0
 15
0.0
 25
0.0
 35
0.0
146
0.0
 13
0.0
 23
0.0
 33
0.0
 16
1.0
 26
0.0
 36
0.0
 17
0.0
 27
1.0
 37
0.0
 76
     0
330
23
  0
LAYOUT
  5
22
102
{ACAD_REACTORS
330
1A
102
}
330
1A
100
AcDbPlotSettings
  1

  2
none_device
  4

  6

 40
0.0
 41
0.0
 42
0.0
 43
0.0
 44
0.0
 45
0.0
 46
0.0
 47
0.0
 48
0.0
 49
0.0
140
0.0
141
0.0
142
1.0
143
1.0
 70
  1712
 72
     0
 73
     0
 74
     0
  7

 75
     0
147
1.0
148
0.0
149
0.0
100
AcDbLayout
  1
Model
 70
     1
 71
     0
 10
0.0
 20
0.0
 11
12.0
 21
9.0
 12
0.0
 22
0.0
 32
0.0
 14
42.8020028804348
 24
275.8793412072
 34
0.0
 15
264.233532199913
 25
413.071456457318
 35
0.0
146
0.0
 13
0.0
 23
0.0
 33
0.0
 16
1.0
 26
0.0
 36
0.0
 17
0.0
 27
1.0
 37
0.0
 76
     0
330
1F
331
29
  0
MLINESTYLE
  5
18
102
{ACAD_REACTORS
330
17
102
}
330
17
100
AcDbMlineStyle
  2
Standard
 70
     0
  3

 62
   256
 51
90.0
 52
90.0
 71
     2
 49
0.5
 62
   256
  6
BYLAYER
 49
-0.5
 62
   256
  6
BYLAYER
  0
ACDBPLACEHOLDER
  5
F
102
{ACAD_REACTORS
330
E
102
}
330
E
  0
SCALE
  5
4C
102
{ACAD_REACTORS
330
4B
102
}
330
4B
100
AcDbScale
 70
     0
300
1:1
140
1.0
141
1.0
290
     1
  0
SCALE
  5
4D
102
{ACAD_REACTORS
330
4B
102
}
330
4B
100
AcDbScale
 70
     0
300
1:2
140
1.0
141
2.0
290
     0
  0
SCALE
  5
4E
102
{ACAD_REACTORS
330
4B
102
}
330
4B
100
AcDbScale
 70
     0
300
1:4
140
1.0
141
4.0
290
     0
  0
SCALE
  5
4F
102
{ACAD_REACTORS
330
4B
102
}
330
4B
100
AcDbScale
 70
     0
300
1:5
140
1.0
141
5.0
290
     0
  0
SCALE
  5
50
102
{ACAD_REACTORS
330
4B
102
}
330
4B
100
AcDbScale
 70
     0
300
1:8
140
1.0
141
8.0
290
     0
  0
SCALE
  5
51
102
{ACAD_REACTORS
330
4B
102
}
330
4B
100
AcDbScale
 70
     0
300
1:10
140
1.0
141
10.0
290
     0
  0
SCALE
  5
52
102
{ACAD_REACTORS
330
4B
102
}
330
4B
100
AcDbScale
 70
     0
300
1:16
140
1.0
141
16.0
290
     0
  0
SCALE
  5
53
102
{ACAD_REACTORS
330
4B
102
}
330
4B
100
AcDbScale
 70
     0
300
1:20
140
1.0
141
20.0
290
     0
  0
SCALE
  5
54
102
{ACAD_REACTORS
330
4B
102
}
330
4B
100
AcDbScale
 70
     0
300
1:30
140
1.0
141
30.0
290
     0
  0
SCALE
  5
55
102
{ACAD_REACTORS
330
4B
102
}
330
4B
100
AcDbScale
 70
     0
300
1:40
140
1.0
141
40.0
290
     0
  0
SCALE
  5
56
102
{ACAD_REACTORS
330
4B
102
}
330
4B
100
AcDbScale
 70
     0
300
1:50
140
1.0
141
50.0
290
     0
  0
SCALE
  5
57
102
{ACAD_REACTORS
330
4B
102
}
330
4B
100
AcDbScale
 70
     0
300
1:100
140
1.0
141
100.0
290
     0
  0
SCALE
  5
58
102
{ACAD_REACTORS
330
4B
102
}
330
4B
100
AcDbScale
 70
     0
300
2:1
140
2.0
141
1.0
290
     0
  0
SCALE
  5
59
102
{ACAD_REACTORS
330
4B
102
}
330
4B
100
AcDbScale
 70
     0
300
4:1
140
4.0
141
1.0
290
     0
  0
SCALE
  5
5A
102
{ACAD_REACTORS
330
4B
102
}
330
4B
100
AcDbScale
 70
     0
300
8:1
140
8.0
141
1.0
290
     0
  0
SCALE
  5
5B
102
{ACAD_REACTORS
330
4B
102
}
330
4B
100
AcDbScale
 70
     0
300
10:1
140
10.0
141
1.0
290
     0
  0
SCALE
  5
5C
102
{ACAD_REACTORS
330
4B
102
}
330
4B
100
AcDbScale
 70
     0
300
100:1
140
100.0
141
1.0
290
     0
  0
SCALE
  5
5D
102
{ACAD_REACTORS
330
4B
102
}
330
4B
100
AcDbScale
 70
     0
300
1/128" = 1'-0"
140
0.0078125
141
12.0
290
     0
  0
SCALE
  5
5E
102
{ACAD_REACTORS
330
4B
102
}
330
4B
100
AcDbScale
 70
     0
300
1/64" = 1'-0"
140
0.015625
141
12.0
290
     0
  0
SCALE
  5
5F
102
{ACAD_REACTORS
330
4B
102
}
330
4B
100
AcDbScale
 70
     0
300
1/32" = 1'-0"
140
0.03125
141
12.0
290
     0
  0
SCALE
  5
60
102
{ACAD_REACTORS
330
4B
102
}
330
4B
100
AcDbScale
 70
     0
300
1/16" = 1'-0"
140
0.0625
141
12.0
290
     0
  0
SCALE
  5
61
102
{ACAD_REACTORS
330
4B
102
}
330
4B
100
AcDbScale
 70
     0
300
3/32" = 1'-0"
140
0.09375
141
12.0
290
     0
  0
SCALE
  5
62
102
{ACAD_REACTORS
330
4B
102
}
330
4B
100
AcDbScale
 70
     0
300
1/8" = 1'-0"
140
0.125
141
12.0
290
     0
  0
SCALE
  5
63
102
{ACAD_REACTORS
330
4B
102
}
330
4B
100
AcDbScale
 70
     0
300
3/16" = 1'-0"
140
0.1875
141
12.0
290
     0
  0
SCALE
  5
64
102
{ACAD_REACTORS
330
4B
102
}
330
4B
100
AcDbScale
 70
     0
300
1/4" = 1'-0"
140
0.25
141
12.0
290
     0
  0
SCALE
  5
65
102
{ACAD_REACTORS
330
4B
102
}
330
4B
100
AcDbScale
 70
     0
300
3/8" = 1'-0"
140
0.375
141
12.0
290
     0
  0
SCALE
  5
66
102
{ACAD_REACTORS
330
4B
102
}
330
4B
100
AcDbScale
 70
     0
300
1/2" = 1'-0"
140
0.5
141
12.0
290
     0
  0
SCALE
  5
67
102
{ACAD_REACTORS
330
4B
102
}
330
4B
100
AcDbScale
 70
     0
300
3/4" = 1'-0"
140
0.75
141
12.0
290
     0
  0
SCALE
  5
68
102
{ACAD_REACTORS
330
4B
102
}
330
4B
100
AcDbScale
 70
     0
300
1" = 1'-0"
140
1.0
141
12.0
290
     0
  0
SCALE
  5
69
102
{ACAD_REACTORS
330
4B
102
}
330
4B
100
AcDbScale
 70
     0
300
1-1/2" = 1'-0"
140
1.5
141
12.0
290
     0
  0
SCALE
  5
6A
102
{ACAD_REACTORS
330
4B
102
}
330
4B
100
AcDbScale
 70
     0
300
3" = 1'-0"
140
3.0
141
12.0
290
     0
  0
SCALE
  5
6B
102
{ACAD_REACTORS
330
4B
102
}
330
4B
100
AcDbScale
 70
     0
300
6" = 1'-0"
140
6.0
141
12.0
290
     0
  0
SCALE
  5
6C
102
{ACAD_REACTORS
330
4B
102
}
330
4B
100
AcDbScale
 70
     0
300
1'-0" = 1'-0"
140
12.0
141
12.0
290
     0
  0
VISUALSTYLE
  5
2F
102
{ACAD_REACTORS
330
2A
102
}
330
2A
100
AcDbVisualStyle
  2
2dWireframe
 70
     4
 71
     0
 72
     2
 73
     0
 90
        0
 40
-0.6
 41
-30.0
 62
     5
 63
     7
 74
     1
 91
        4
 64
     7
 65
   257
 75
     1
175
     1
 42
1.0
 92
        0
 66
   257
 43
1.0
 76
     1
 77
     6
 78
     2
 67
     7
 79
     5
170
     0
171
     0
290
     0
174
     0
 93
        1
 44
0.0
173
     0
291
     0
 45
0.0
1001
ACAD
1000
AcDbSavedByObjectVersion
1070
     0
  0
VISUALSTYLE
  5
31
102
{ACAD_REACTORS
330
2A
102
}
330
2A
100
AcDbVisualStyle
  2
3D Hidden
 70
     6
 71
     1
 72
     2
 73
     2
 90
        0
 40
-0.6
 41
-30.0
 62
     5
 63
     7
 74
     2
 91
        2
 64
     7
 65
   257
 75
     2
175
     1
 42
40.0
 92
        0
 66
   257
 43
1.0
 76
     1
 77
     6
 78
     2
 67
     7
 79
     3
170
     0
171
     0
290
     0
174
     0
 93
        1
 44
0.0
173
     0
291
     0
 45
0.0
1001
ACAD
1000
AcDbSavedByObjectVersion
1070
     0
  0
VISUALSTYLE
  5
30
102
{ACAD_REACTORS
330
2A
102
}
330
2A
100
AcDbVisualStyle
  2
3dWireframe
 70
     5
 71
     0
 72
     2
 73
     0
 90
        0
 40
-0.6
 41
-30.0
 62
     5
 63
     7
 74
     1
 91
        4
 64
     7
 65
   257
 75
     1
175
     1
 42
1.0
 92
        0
 66
   257
 43
1.0
 76
     1
 77
     6
 78
     2
 67
     7
 79
     5
170
     0
171
     0
290
     0
174
     0
 93
        1
 44
0.0
173
     0
291
     0
 45
0.0
1001
ACAD
1000
AcDbSavedByObjectVersion
1070
     0
  0
VISUALSTYLE
  5
32
102
{ACAD_REACTORS
330
2A
102
}
330
2A
100
AcDbVisualStyle
  2
Basic
 70
     7
 71
     1
 72
     0
 73
     1
 90
        0
 40
-0.6
 41
-30.0
 62
     5
 63
     7
 74
     0
 91
        4
 64
     7
 65
   257
 75
     1
175
     1
 42
1.0
 92
        8
 66
     7
 43
1.0
 76
     1
 77
     6
 78
     2
 67
     7
 79
     5
170
     0
171
     0
290
     0
174
     0
 93
        1
 44
0.0
173
     0
291
     1
 45
0.0
1001
ACAD
1000
AcDbSavedByObjectVersion
1070
     0
  0
VISUALSTYLE
  5
36
102
{ACAD_REACTORS
330
2A
102
}
330
2A
100
AcDbVisualStyle
  2
Brighten
 70
    12
 71
     2
 72
     2
 73
     0
 90
        0
 40
-0.6
 41
-30.0
 62
     5
 63
     7
 74
     1
 91
        4
 64
     7
 65
   257
 75
     1
175
     1
 42
1.0
 92
        8
 66
     7
 43
1.0
 76
     1
 77
     6
 78
     2
 67
     7
 79
     5
170
     0
171
     0
290
     0
174
     0
 93
        1
 44
50.0
173
     0
291
     1
 45
0.0
1001
ACAD
1000
AcDbSavedByObjectVersion
1070
     0
  0
VISUALSTYLE
  5
3A
102
{ACAD_REACTORS
330
2A
102
}
330
2A
100
AcDbVisualStyle
  2
ColorChange
 70
    16
 71
     2
 72
     2
 73
     3
 90
        0
 40
-0.6
 41
-30.0
 62
     5
 63
     8
 74
     1
 91
        4
 64
     7
 65
   257
 75
     1
175
     1
 42
1.0
 92
        8
 66
     8
 43
1.0
 76
     1
 77
     6
 78
     2
 67
     7
 79
     5
170
     0
171
     0
290
     0
174
     0
 93
        1
 44
0.0
173
     0
291
     1
 45
0.0
1001
ACAD
1000
AcDbSavedByObjectVersion
1070
     0
  0
VISUALSTYLE
  5
34
102
{ACAD_REACTORS
330
2A
102
}
330
2A
100
AcDbVisualStyle
  2
Conceptual
 70
     9
 71
     3
 72
     2
 73
     0
 90
        0
 40
-0.6
 41
-30.0
 62
     5
 63
     7
 74
     2
 91
        2
 64
     7
 65
   257
 75
     1
175
     1
 42
40.0
 92
        8
 66
     7
 43
1.0
 76
     1
 77
     6
 78
     2
 67
     7
 79
     3
170
     0
171
     0
290
     0
174
     0
 93
        1
 44
0.0
173
     0
291
     0
 45
0.0
1001
ACAD
1000
AcDbSavedByObjectVersion
1070
     0
  0
VISUALSTYLE
  5
35
102
{ACAD_REACTORS
330
2A
102
}
330
2A
100
AcDbVisualStyle
  2
Dim
 70
    11
 71
     2
 72
     2
 73
     0
 90
        0
 40
-0.6
 41
-30.0
 62
     5
 63
     7
 74
     1
 91
        4
 64
     7
 65
   257
 75
     1
175
     1
 42
1.0
 92
        8
 66
     7
 43
1.0
 76
     1
 77
     6
 78
     2
 67
     7
 79
     5
170
     0
171
     0
290
     0
174
     0
 93
        1
 44
-50.0
173
     0
291
     1
 45
0.0
1001
ACAD
1000
AcDbSavedByObjectVersion
1070
     0
  0
VISUALSTYLE
  5
39
102
{ACAD_REACTORS
330
2A
102
}
330
2A
100
AcDbVisualStyle
  2
Facepattern
 70
    15
 71
     2
 72
     2
 73
     0
 90
        0
 40
-0.6
 41
-30.0
 62
     5
 63
     7
 74
     1
 91
        4
 64
     7
 65
   257
 75
     1
175
     1
 42
1.0
 92
        8
 66
     7
 43
1.0
 76
     1
 77
     6
 78
     2
 67
     7
 79
     5
170
     0
171
     0
290
     0
174
     0
 93
        1
 44
0.0
173
     0
291
     1
 45
0.0
1001
ACAD
1000
AcDbSavedByObjectVersion
1070
     0
  0
VISUALSTYLE
  5
2B
102
{ACAD_REACTORS
330
2A
102
}
330
2A
100
AcDbVisualStyle
  2
Flat
 70
     0
 71
     2
 72
     1
 73
     1
 90
        2
 40
-0.6
 41
30.0
 62
     5
 63
     7
 74
     0
 91
        4
 64
     7
 65
   257
 75
     1
175
     1
 42
1.0
 92
        8
 66
     7
 43
1.0
 76
     1
 77
     6
 78
     2
 67
     7
 79
     5
170
     0
171
     0
290
     0
174
     0
 93
       13
 44
0.0
173
     0
291
     1
 45
0.0
1001
ACAD
1000
AcDbSavedByObjectVersion
1070
     0
  0
VISUALSTYLE
  5
2C
102
{ACAD_REACTORS
330
2A
102
}
330
2A
100
AcDbVisualStyle
  2
FlatWithEdges
 70
     1
 71
     2
 72
     1
 73
     1
 90
        2
 40
-0.6
 41
30.0
 62
     5
 63
     7
 74
     1
 91
        4
 64
     7
 65
   257
 75
     1
175
     1
 42
1.0
 92
        0
 66
   257
 43
1.0
 76
     1
 77
     6
 78
     2
 67
     7
 79
     5
170
     0
171
     0
290
     0
174
     0
 93
       13
 44
0.0
173
     0
291
     1
 45
0.0
1001
ACAD
1000
AcDbSavedByObjectVersion
1070
     0
  0
VISUALSTYLE
  5
2D
102
{ACAD_REACTORS
330
2A
102
}
330
2A
100
AcDbVisualStyle
  2
Gouraud
 70
     2
 71
     2
 72
     2
 73
     1
 90
        2
 40
-0.6
 41
30.0
 62
     5
 63
     7
 74
     0
 91
        4
 64
     7
 65
   257
 75
     1
175
     1
 42
1.0
 92
        0
 66
     7
 43
1.0
 76
     1
 77
     6
 78
     2
 67
     7
 79
     5
170
     0
171
     0
290
     0
174
     0
 93
       13
 44
0.0
173
     0
291
     1
 45
0.0
1001
ACAD
1000
AcDbSavedByObjectVersion
1070
     0
  0
VISUALSTYLE
  5
2E
102
{ACAD_REACTORS
330
2A
102
}
330
2A
100
AcDbVisualStyle
  2
GouraudWithEdges
 70
     3
 71
     2
 72
     2
 73
     1
 90
        2
 40
-0.6
 41
30.0
 62
     5
 63
     7
 74
     1
 91
        4
 64
     7
 65
   257
 75
     1
175
     1
 42
1.0
 92
        0
 66
   257
 43
1.0
 76
     1
 77
     6
 78
     2
 67
     7
 79
     5
170
     0
171
     0
290
     0
174
     0
 93
       13
 44
0.0
173
     0
291
     1
 45
0.0
1001
ACAD
1000
AcDbSavedByObjectVersion
1070
     0
  0
VISUALSTYLE
  5
38
102
{ACAD_REACTORS
330
2A
102
}
330
2A
100
AcDbVisualStyle
  2
Linepattern
 70
    14
 71
     2
 72
     2
 73
     0
 90
        0
 40
-0.6
 41
-30.0
 62
     5
 63
     7
 74
     1
 91
        4
 64
     7
 65
   257
 75
     7
175
     7
 42
1.0
 92
        8
 66
     7
 43
1.0
 76
     1
 77
     6
 78
     2
 67
     7
 79
     5
170
     0
171
     0
290
     0
174
     0
 93
        1
 44
0.0
173
     0
291
     1
 45
0.0
1001
ACAD
1000
AcDbSavedByObjectVersion
1070
     0
  0
VISUALSTYLE
  5
33
102
{ACAD_REACTORS
330
2A
102
}
330
2A
100
AcDbVisualStyle
  2
Realistic
 70
     8
 71
     2
 72
     2
 73
     0
 90
        0
 40
-0.6
 41
-30.0
 62
     5
 63
     7
 74
     1
 91
        0
 64
     7
 65
   257
 75
     1
175
     1
 42
1.0
 92
        8
 66
     8
 43
1.0
 76
     1
 77
     6
 78
     2
 67
     7
 79
     5
170
     0
171
     0
290
     0
174
     0
 93
       13
 44
0.0
173
     0
291
     0
 45
0.0
1001
ACAD
1000
AcDbSavedByObjectVersion
1070
     0
  0
VISUALSTYLE
  5
37
102
{ACAD_REACTORS
330
2A
102
}
330
2A
100
AcDbVisualStyle
  2
Thicken
 70
    13
 71
     2
 72
     2
 73
     0
 90
        0
 40
-0.6
 41
-30.0
 62
     5
 63
     7
 74
     1
 91
        4
 64
     7
 65
   257
 75
     1
175
     1
 42
1.0
 92
       12
 66
     7
 43
1.0
 76
     1
 77
     6
 78
     2
 67
     7
 79
     5
170
     0
171
     0
290
     0
174
     0
 93
        1
 44
0.0
173
     0
291
     1
 45
0.0
1001
ACAD
1000
AcDbSavedByObjectVersion
1070
     0
  0
DICTIONARYVAR
  5
18A
102
{ACAD_REACTORS
330
187
102
}
330
187
100
DictionaryVariables
280
     0
  1
1:1
  0
ENDSEC
  0
EOF
