  0
SECTION
  2
HEADER
  9
$ACADVER
  1
AC1015
  9
$ACADMAINTVER
 70
     6
  9
$DWGCODEPAGE
  3
ANSI_1252
  9
$INSBASE
 10
0.0
 20
0.0
 30
0.0
  9
$EXTMIN
 10
37.273655365885
 20
246.2990832441
 30
0.0
  9
$EXTMAX
 10
235.415845545251
 20
381.300655026315
 30
0.0
  9
$LIMMIN
 10
0.0
 20
0.0
  9
$LIMMAX
 10
12.0
 20
9.0
  9
$ORTHOMODE
 70
     0
  9
$REGENMODE
 70
     1
  9
$FILLMODE
 70
     1
  9
$QTEXTMODE
 70
     0
  9
$MIRRTEXT
 70
     1
  9
$LTSCALE
 40
1.0
  9
$ATTMODE
 70
     1
  9
$TEXTSIZE
 40
0.2
  9
$TRACEWID
 40
0.05
  9
$TEXTSTYLE
  7
Standard
  9
$CLAYER
  8
0
  9
$CELTYPE
  6
ByLayer
  9
$CECOLOR
 62
   256
  9
$CELTSCALE
 40
1.0
  9
$DISPSILH
 70
     0
  9
$DIMSCALE
 40
1.0
  9
$DIMASZ
 40
0.18
  9
$DIMEXO
 40
0.0625
  9
$DIMDLI
 40
0.38
  9
$DIMRND
 40
0.0
  9
$DIMDLE
 40
0.0
  9
$DIMEXE
 40
0.18
  9
$DIMTP
 40
0.0
  9
$DIMTM
 40
0.0
  9
$DIMTXT
 40
0.18
  9
$DIMCEN
 40
0.09
  9
$DIMTSZ
 40
0.0
  9
$DIMTOL
 70
     0
  9
$DIMLIM
 70
     0
  9
$DIMTIH
 70
     1
  9
$DIMTOH
 70
     1
  9
$DIMSE1
 70
     0
  9
$DIMSE2
 70
     0
  9
$DIMTAD
 70
     0
  9
$DIMZIN
 70
     0
  9
$DIMBLK
  1

  9
$DIMASO
 70
     1
  9
$DIMSHO
 70
     1
  9
$DIMPOST
  1

  9
$DIMAPOST
  1

  9
$DIMALT
 70
     0
  9
$DIMALTD
 70
     2
  9
$DIMALTF
 40
25.4
  9
$DIMLFAC
 40
1.0
  9
$DIMTOFL
 70
     0
  9
$DIMTVP
 40
0.0
  9
$DIMTIX
 70
     0
  9
$DIMSOXD
 70
     0
  9
$DIMSAH
 70
     0
  9
$DIMBLK1
  1

  9
$DIMBLK2
  1

  9
$DIMSTYLE
  2
Standard
  9
$DIMCLRD
 70
     0
  9
$DIMCLRE
 70
     0
  9
$DIMCLRT
 70
     0
  9
$DIMTFAC
 40
1.0
  9
$DIMGAP
 40
0.09
  9
$DIMJUST
 70
     0
  9
$DIMSD1
 70
     0
  9
$DIMSD2
 70
     0
  9
$DIMTOLJ
 70
     1
  9
$DIMTZIN
 70
     0
  9
$DIMALTZ
 70
     0
  9
$DIMALTTZ
 70
     0
  9
$DIMUPT
 70
     0
  9
$DIMDEC
 70
     4
  9
$DIMTDEC
 70
     4
  9
$DIMALTU
 70
     2
  9
$DIMALTTD
 70
     2
  9
$DIMTXSTY
  7
Standard
  9
$DIMAUNIT
 70
     0
  9
$DIMADEC
 70
     0
  9
$DIMALTRND
 40
0.0
  9
$DIMAZIN
 70
     0
  9
$DIMDSEP
 70
    46
  9
$DIMATFIT
 70
     3
  9
$DIMFRAC
 70
     0
  9
$DIMLDRBLK
  1

  9
$DIMLUNIT
 70
     2
  9
$DIMLWD
 70
    -2
  9
$DIMLWE
 70
    -2
  9
$DIMTMOVE
 70
     0
  9
$LUNITS
 70
     2
  9
$LUPREC
 70
     4
  9
$SKETCHINC
 40
0.1
  9
$FILLETRAD
 40
0.5
  9
$AUNITS
 70
     0
  9
$AUPREC
 70
     0
  9
$MENU
  1
.
  9
$ELEVATION
 40
0.0
  9
$PELEVATION
 40
0.0
  9
$THICKNESS
 40
0.0
  9
$LIMCHECK
 70
     0
  9
$CHAMFERA
 40
0.5
  9
$CHAMFERB
 40
0.5
  9
$CHAMFERC
 40
1.0
  9
$CHAMFERD
 40
0.0
  9
$SKPOLY
 70
     0
  9
$TDCREATE
 40
2456748.733511065
  9
$TDUCREATE
 40
2456748.650177732
  9
$TDUPDATE
 40
2456748.733511076
  9
$TDUUPDATE
 40
2456748.650177743
  9
$TDINDWG
 40
0.0000000116
  9
$TDUSRTIMER
 40
0.0000000116
  9
$USRTIMER
 70
     1
  9
$ANGBASE
 50
0.0
  9
$ANGDIR
 70
     0
  9
$PDMODE
 70
     0
  9
$PDSIZE
 40
0.0
  9
$PLINEWID
 40
0.0
  9
$SPLFRAME
 70
     0
  9
$SPLINETYPE
 70
     6
  9
$SPLINESEGS
 70
     8
  9
$HANDSEED
  5
187
  9
$SURFTAB1
 70
     6
  9
$SURFTAB2
 70
     6
  9
$SURFTYPE
 70
     6
  9
$SURFU
 70
     6
  9
$SURFV
 70
     6
  9
$UCSBASE
  2

  9
$UCSNAME
  2

  9
$UCSORG
 10
0.0
 20
0.0
 30
0.0
  9
$UCSXDIR
 10
1.0
 20
0.0
 30
0.0
  9
$UCSYDIR
 10
0.0
 20
1.0
 30
0.0
  9
$UCSORTHOREF
  2

  9
$UCSORTHOVIEW
 70
     0
  9
$UCSORGTOP
 10
0.0
 20
0.0
 30
0.0
  9
$UCSORGBOTTOM
 10
0.0
 20
0.0
 30
0.0
  9
$UCSORGLEFT
 10
0.0
 20
0.0
 30
0.0
  9
$UCSORGRIGHT
 10
0.0
 20
0.0
 30
0.0
  9
$UCSORGFRONT
 10
0.0
 20
0.0
 30
0.0
  9
$UCSORGBACK
 10
0.0
 20
0.0
 30
0.0
  9
$PUCSBASE
  2

  9
$PUCSNAME
  2

  9
$PUCSORG
 10
0.0
 20
0.0
 30
0.0
  9
$PUCSXDIR
 10
1.0
 20
0.0
 30
0.0
  9
$PUCSYDIR
 10
0.0
 20
1.0
 30
0.0
  9
$PUCSORTHOREF
  2

  9
$PUCSORTHOVIEW
 70
     0
  9
$PUCSORGTOP
 10
0.0
 20
0.0
 30
0.0
  9
$PUCSORGBOTTOM
 10
0.0
 20
0.0
 30
0.0
  9
$PUCSORGLEFT
 10
0.0
 20
0.0
 30
0.0
  9
$PUCSORGRIGHT
 10
0.0
 20
0.0
 30
0.0
  9
$PUCSORGFRONT
 10
0.0
 20
0.0
 30
0.0
  9
$PUCSORGBACK
 10
0.0
 20
0.0
 30
0.0
  9
$USERI1
 70
     0
  9
$USERI2
 70
     0
  9
$USERI3
 70
     0
  9
$USERI4
 70
     0
  9
$USERI5
 70
     0
  9
$USERR1
 40
16.5
  9
$USERR2
 40
0.0
  9
$USERR3
 40
0.0
  9
$USERR4
 40
0.0
  9
$USERR5
 40
0.0
  9
$WORLDVIEW
 70
     1
  9
$SHADEDGE
 70
     3
  9
$SHADEDIF
 70
    70
  9
$TILEMODE
 70
     1
  9
$MAXACTVP
 70
    64
  9
$PINSBASE
 10
0.0
 20
0.0
 30
0.0
  9
$PLIMCHECK
 70
     0
  9
$PEXTMIN
 10
1.00000000000000E+20
 20
1.00000000000000E+20
 30
1.00000000000000E+20
  9
$PEXTMAX
 10
-1.00000000000000E+20
 20
-1.00000000000000E+20
 30
-1.00000000000000E+20
  9
$PLIMMIN
 10
0.0
 20
0.0
  9
$PLIMMAX
 10
12.0
 20
9.0
  9
$UNITMODE
 70
     0
  9
$VISRETAIN
 70
     1
  9
$PLINEGEN
 70
     0
  9
$PSLTSCALE
 70
     1
  9
$TREEDEPTH
 70
  3020
  9
$CMLSTYLE
  2
Standard
  9
$CMLJUST
 70
     0
  9
$CMLSCALE
 40
1.0
  9
$PROXYGRAPHICS
 70
     1
  9
$MEASUREMENT
 70
     1
  9
$CELWEIGHT
370
    -1
  9
$ENDCAPS
280
     0
  9
$JOINSTYLE
280
     0
  9
$LWDISPLAY
290
     0
  9
$INSUNITS
 70
     1
  9
$HYPERLINKBASE
  1

  9
$STYLESHEET
  1

  9
$XEDIT
290
     1
  9
$CEPSNTYPE
380
     0
  9
$PSTYLEMODE
290
     1
  9
$FINGERPRINTGUID
  2
{FE597058-0C45-4A01-909D-343939DA9BD7}
  9
$VERSIONGUID
  2
{FAEB1C32-E019-11D5-929B-00C0DF256EC4}
  9
$EXTNAMES
290
     1
  9
$PSVPSCALE
 40
0.0
  9
$OLESTARTUP
290
     0
  0
ENDSEC
  0
SECTION
  2
CLASSES
  0
CLASS
  1
ACDBDICTIONARYWDFLT
  2
AcDbDictionaryWithDefault
  3
ObjectDBX Classes
 90
        0
280
     0
281
     0
  0
CLASS
  1
VISUALSTYLE
  2
AcDbVisualStyle
  3
ObjectDBX Classes
 90
     4095
280
     0
281
     0
  0
CLASS
  1
SCALE
  2
AcDbScale
  3
ObjectDBX Classes
 90
     1153
280
     0
281
     0
  0
CLASS
  1

  2
exOdDbPolyline
  3

 90
        0
280
     0
281
     1
  0
CLASS
  1

  2
exOdDbCircle
  3

 90
        0
280
     0
281
     1
  0
CLASS
  1

  2
exOdDbSpline
  3

 90
        0
280
     0
281
     1
  0
CLASS
  1
DICTIONARYVAR
  2
AcDbDictionaryVar
  3
ObjectDBX Classes
 90
        0
280
     0
281
     0
  0
CLASS
  1
ACDBPLACEHOLDER
  2
AcDbPlaceHolder
  3
ObjectDBX Classes
 90
        0
280
     0
281
     0
  0
CLASS
  1
LAYOUT
  2
AcDbLayout
  3
ObjectDBX Classes
 90
        0
280
     0
281
     0
  0
ENDSEC
  0
SECTION
  2
TABLES
  0
TABLE
  2
VPORT
  5
8
330
0
100
AcDbSymbolTable
 70
     1
  0
VPORT
  5
29
330
8
100
AcDbSymbolTableRecord
100
AcDbViewportTableRecord
  2
*Active
 70
     0
 10
0.0
 20
0.0
 11
1.0
 21
1.0
 12
136.344750455568
 22
313.7998691352075
 13
0.0
 23
0.0
 14
0.5
 24
0.5
 15
0.5
 25
0.5
 16
0.0
 26
0.0
 36
1.0
 17
0.0
 27
0.0
 37
0.0
 40
148.5017289604365
 41
1.60267857142857
 42
50.0
 43
0.0
 44
0.0
 50
0.0
 51
0.0
 71
     0
 72
   100
 73
     1
 74
     3
 75
     0
 76
     0
 77
     0
 78
     0
281
     0
 65
     1
110
0.0
120
0.0
130
0.0
111
1.0
121
0.0
131
0.0
112
0.0
122
1.0
132
0.0
 79
     0
146
0.0
  0
ENDTAB
  0
TABLE
  2
LTYPE
  5
5
330
0
100
AcDbSymbolTable
 70
     8
  0
LTYPE
  5
14
330
5
100
AcDbSymbolTableRecord
100
AcDbLinetypeTableRecord
  2
ByBlock
 70
     0
  3

 72
    65
 73
     0
 40
0.0
  0
LTYPE
  5
15
330
5
100
AcDbSymbolTableRecord
100
AcDbLinetypeTableRecord
  2
ByLayer
 70
     0
  3

 72
    65
 73
     0
 40
0.0
  0
LTYPE
  5
16
330
5
100
AcDbSymbolTableRecord
100
AcDbLinetypeTableRecord
  2
Continuous
 70
     0
  3
Solid line
 72
    65
 73
     0
 40
0.0
  0
LTYPE
  5
3B
330
5
100
AcDbSymbolTableRecord
100
AcDbLinetypeTableRecord
  2
DASHED
 70
     0
  3
Dashed
 72
    65
 73
     2
 40
15.0
 49
7.0
 74
     0
 49
-8.0
 74
     0
  0
LTYPE
  5
3C
330
5
100
AcDbSymbolTableRecord
100
AcDbLinetypeTableRecord
  2
DOTTED
 70
     0
  3
Dotted
 72
    65
 73
     2
 40
1.0
 49
0.0
 74
     0
 49
-1.0
 74
     0
  0
LTYPE
  5
3D
330
5
100
AcDbSymbolTableRecord
100
AcDbLinetypeTableRecord
  2
DOT_CENTER
 70
     0
  3
Dot_Center
 72
    65
 73
     4
 40
14.0
 49
12.0
 74
     0
 49
-1.0
 74
     0
 49
0.0
 74
     0
 49
-1.0
 74
     0
  0
LTYPE
  5
3E
330
5
100
AcDbSymbolTableRecord
100
AcDbLinetypeTableRecord
  2
LONG_DASHED
 70
     0
  3
Long_Dashed
 72
    65
 73
     2
 40
15.0
 49
10.0
 74
     0
 49
-5.0
 74
     0
  0
LTYPE
  5
3F
330
5
100
AcDbSymbolTableRecord
100
AcDbLinetypeTableRecord
  2
DASH_CENTER
 70
     0
  3
Dash_Center
 72
    65
 73
     4
 40
14.0
 49
11.0
 74
     0
 49
-1.0
 74
     0
 49
1.0
 74
     0
 49
-1.0
 74
     0
  0
LTYPE
  5
40
330
5
100
AcDbSymbolTableRecord
100
AcDbLinetypeTableRecord
  2
PHANTOM
 70
     0
  3
Phantom
 72
    65
 73
     6
 40
13.0
 49
10.0
 74
     0
 49
-1.0
 74
     0
 49
0.0
 74
     0
 49
-1.0
 74
     0
 49
0.0
 74
     0
 49
-1.0
 74
     0
  0
LTYPE
  5
41
330
5
100
AcDbSymbolTableRecord
100
AcDbLinetypeTableRecord
  2
CENTER_DASH_DASH
 70
     0
  3
Center_Dash_Dash
 72
    65
 73
     6
 40
14.0
 49
9.0
 74
     0
 49
-1.0
 74
     0
 49
1.0
 74
     0
 49
-1.0
 74
     0
 49
1.0
 74
     0
 49
-1.0
 74
     0
  0
ENDTAB
  0
TABLE
  2
LAYER
  5
2
330
0
100
AcDbSymbolTable
 70
     7
  0
LAYER
  5
10
330
2
100
AcDbSymbolTableRecord
100
AcDbLayerTableRecord
  2
0
 70
     0
 62
     7
  6
Continuous
370
    -3
390
F
  0
LAYER
  5
42
330
2
100
AcDbSymbolTableRecord
100
AcDbLayerTableRecord
  2
1
 70
     0
 62
     7
  6
Continuous
370
    -3
390
F
  0
LAYER
  5
43
330
2
100
AcDbSymbolTableRecord
100
AcDbLayerTableRecord
  2
BEZUGSACHSEN
 70
     0
 62
     7
  6
Continuous
370
    -3
390
F
  0
LAYER
  5
44
330
2
100
AcDbSymbolTableRecord
100
AcDbLayerTableRecord
  2
BG_STARTBEZUEGE
 70
     0
 62
     7
  6
Continuous
370
    -3
390
F
  0
LAYER
  5
45
330
2
100
AcDbSymbolTableRecord
100
AcDbLayerTableRecord
  2
DEFAULT_2
 70
     0
 62
     7
  6
Continuous
370
    -3
390
F
  0
LAYER
  5
46
330
2
100
AcDbSymbolTableRecord
100
AcDbLayerTableRecord
  2
FASEN
 70
     0
 62
     7
  6
Continuous
370
    -3
390
F
  0
LAYER
  5
47
330
2
100
AcDbSymbolTableRecord
100
AcDbLayerTableRecord
  2
RUNDUNGEN
 70
     0
 62
     7
  6
Continuous
370
    -3
390
F
  0
ENDTAB
  0
TABLE
  2
STYLE
  5
3
330
0
100
AcDbSymbolTable
 70
     2
  0
STYLE
  5
11
330
3
100
AcDbSymbolTableRecord
100
AcDbTextStyleTableRecord
  2
Standard
 70
     0
 40
0.0
 41
1.0
 50
0.0
 71
     0
 42
0.2
  3
txt
  4

  0
STYLE
  5
6E
330
3
100
AcDbSymbolTableRecord
100
AcDbTextStyleTableRecord
  2
CONVERTER_11
 70
     0
 40
0.0
 41
0.72
 50
0.0
 71
     0
 42
0.2
  3
txt.shx
  4

  0
ENDTAB
  0
TABLE
  2
VIEW
  5
6
330
0
100
AcDbSymbolTable
 70
     0
  0
ENDTAB
  0
TABLE
  2
UCS
  5
7
330
0
100
AcDbSymbolTable
 70
     0
  0
ENDTAB
  0
TABLE
  2
APPID
  5
9
330
0
100
AcDbSymbolTable
 70
     1
  0
APPID
  5
12
330
9
100
AcDbSymbolTableRecord
100
AcDbRegAppTableRecord
  2
ACAD
 70
     0
  0
ENDTAB
  0
TABLE
  2
DIMSTYLE
  5
A
330
0
100
AcDbSymbolTable
 70
     7
100
AcDbDimStyleTable
  0
DIMSTYLE
105
27
330
A
100
AcDbSymbolTableRecord
100
AcDbDimStyleTableRecord
  2
Standard
 70
     0
340
11
  0
DIMSTYLE
105
143
102
{ACAD_REACTORS
330
144
102
}
330
A
100
AcDbSymbolTableRecord
100
AcDbDimStyleTableRecord
  2
ME10_DIM_10
 70
     0
  3
ER<>
 41
3.5
 42
2.0
 44
2.0
 71
     1
 73
     0
 74
     0
 77
     1
 78
     8
140
3.5
146
0.7
147
2.0
172
     1
173
     1
176
     2
177
     2
178
     3
271
     2
272
     0
340
6E
  0
DIMSTYLE
105
14E
102
{ACAD_REACTORS
330
14F
102
}
330
A
100
AcDbSymbolTableRecord
100
AcDbDimStyleTableRecord
  2
ME10_DIM_11
 70
     0
  3
\U+2300<>
 41
3.5
 42
2.0
 44
2.0
 71
     1
 73
     0
 74
     0
 77
     1
 78
     8
140
3.5
146
0.7
147
2.0
172
     1
173
     1
176
     2
177
     2
178
     3
271
     2
272
     0
340
6E
  0
DIMSTYLE
105
159
102
{ACAD_REACTORS
330
15A
102
}
330
A
100
AcDbSymbolTableRecord
100
AcDbDimStyleTableRecord
  2
ME10_DIM_12
 70
     0
  3
<>
 41
3.5
 42
2.0
 44
2.0
 71
     1
 73
     0
 74
     0
 77
     1
 78
     8
140
3.5
146
0.7
147
2.0
172
     1
173
     1
176
     2
177
     2
178
     3
271
     2
272
     0
340
6E
  0
DIMSTYLE
105
164
102
{ACAD_REACTORS
330
165
102
}
330
A
100
AcDbSymbolTableRecord
100
AcDbDimStyleTableRecord
  2
ME10_DIM_13
 70
     0
  3
<>
 41
3.5
 42
2.0
 44
2.0
 71
     1
 73
     0
 74
     0
 77
     1
 78
     8
140
3.5
146
0.7
147
2.0
172
     1
173
     1
176
     2
177
     2
178
     3
271
     2
272
     0
340
6E
  0
DIMSTYLE
105
16F
102
{ACAD_REACTORS
330
170
102
}
330
A
100
AcDbSymbolTableRecord
100
AcDbDimStyleTableRecord
  2
ME10_DIM_14
 70
     0
  3
<>
 41
3.5
 42
2.0
 44
2.0
 71
     1
 73
     0
 74
     0
 77
     1
 78
     8
140
3.5
146
0.7
147
2.0
172
     1
173
     1
176
     2
177
     2
178
     3
271
     2
272
     0
340
6E
  0
DIMSTYLE
105
17A
102
{ACAD_REACTORS
330
17B
102
}
330
A
100
AcDbSymbolTableRecord
100
AcDbDimStyleTableRecord
  2
ME10_DIM_15
 70
     0
  3
<>
 41
3.5
 42
2.0
 44
2.0
 71
     1
 73
     0
 74
     0
 77
     1
 78
     8
140
3.5
146
0.7
147
2.0
172
     1
173
     1
176
     2
177
     2
178
     3
271
     2
272
     0
340
6E
  0
ENDTAB
  0
TABLE
  2
BLOCK_RECORD
  5
1
330
0
100
AcDbSymbolTable
 70
     9
  0
BLOCK_RECORD
  5
1F
330
1
100
AcDbSymbolTableRecord
100
AcDbBlockTableRecord
  2
*Model_Space
340
22
  0
BLOCK_RECORD
  5
1B
330
1
100
AcDbSymbolTableRecord
100
AcDbBlockTableRecord
  2
*Paper_Space
340
1E
  0
BLOCK_RECORD
  5
23
330
1
100
AcDbSymbolTableRecord
100
AcDbBlockTableRecord
  2
*Paper_Space0
340
26
  0
BLOCK_RECORD
  5
48
330
1
100
AcDbSymbolTableRecord
100
AcDbBlockTableRecord
  2
Urheberrecht_DE-EN
340
0
102
{BLKREFS
331
6D
102
}
  0
BLOCK_RECORD
  5
13A
330
1
100
AcDbSymbolTableRecord
100
AcDbBlockTableRecord
  2
*D2
340
0
  0
BLOCK_RECORD
  5
145
330
1
100
AcDbSymbolTableRecord
100
AcDbBlockTableRecord
  2
*D3
340
0
  0
BLOCK_RECORD
  5
150
330
1
100
AcDbSymbolTableRecord
100
AcDbBlockTableRecord
  2
*D4
340
0
  0
BLOCK_RECORD
  5
15B
330
1
100
AcDbSymbolTableRecord
100
AcDbBlockTableRecord
  2
*D5
340
0
  0
BLOCK_RECORD
  5
166
330
1
100
AcDbSymbolTableRecord
100
AcDbBlockTableRecord
  2
*D6
340
0
  0
BLOCK_RECORD
  5
171
330
1
100
AcDbSymbolTableRecord
100
AcDbBlockTableRecord
  2
*D7
340
0
  0
BLOCK_RECORD
  5
17C
330
1
100
AcDbSymbolTableRecord
100
AcDbBlockTableRecord
  2
*D8
340
0
102
{BLKREFS
331
182
102
}
  0
ENDTAB
  0
ENDSEC
  0
SECTION
  2
BLOCKS
  0
BLOCK
  5
20
330
1F
100
AcDbEntity
  8
0
100
AcDbBlockBegin
  2
*Model_Space
 70
     0
 10
0.0
 20
0.0
 30
0.0
  3
*Model_Space
  1

  0
ENDBLK
  5
21
330
1F
100
AcDbEntity
  8
0
100
AcDbBlockEnd
  0
BLOCK
  5
1C
330
1B
100
AcDbEntity
 67
     1
  8
0
100
AcDbBlockBegin
  2
*Paper_Space
 70
     0
 10
0.0
 20
0.0
 30
0.0
  3
*Paper_Space
  1

  0
ENDBLK
  5
1D
330
1B
100
AcDbEntity
 67
     1
  8
0
100
AcDbBlockEnd
  0
BLOCK
  5
24
330
23
100
AcDbEntity
  8
0
100
AcDbBlockBegin
  2
*Paper_Space0
 70
     0
 10
0.0
 20
0.0
 30
0.0
  3
*Paper_Space0
  1

  0
ENDBLK
  5
25
330
23
100
AcDbEntity
  8
0
100
AcDbBlockEnd
  0
BLOCK
  5
49
330
48
100
AcDbEntity
  8
0
100
AcDbBlockBegin
  2
Urheberrecht_DE-EN
 70
     0
 10
51.273655365885
 20
312.160948900346
 30
0.0
  3
Urheberrecht_DE-EN
  1

  0
MTEXT
  5
6F
330
48
100
AcDbEntity
  8
1
 62
     1
100
AcDbMText
 10
51.273655365885
 20
312.160948900346
 30
0.0
 40
2.0
 41
0.0
 71
     7
 72
     1
  1
We own the copyright of this document. It \Pdetermined and may neither be copied or \Pmade accessible to outsiders without our\Ppermission.
  7
CONVERTER_11
 11
0.0
 21
1.0
 31
0.0
 73
     1
 44
0.90036014405762
  0
MTEXT
  5
70
330
48
100
AcDbEntity
  8
1
 62
     1
100
AcDbMText
 10
51.273655365885
 20
255.8715619830398
 30
0.0
 40
2.0
 41
0.0
 71
     7
 72
     1
  1
F\U+00fcr diese Unterlage behalten wir das Ur-\Pheberrecht. Sie darf nur f\U+00fcr den von uns \Pbestimmten Zweck benutzt und ohne unsere \PZustimmung weder vervielf\U+00e4ltigt noch\PDritten zug\U+00e4nglich gemacht werden.
  7
CONVERTER_11
 11
0.0
 21
1.0
 31
0.0
 73
     1
 44
0.90036014405762
  0
ENDBLK
  5
4A
330
48
100
AcDbEntity
  8
0
100
AcDbBlockEnd
  0
BLOCK
  5
141
330
13A
100
AcDbEntity
  8
0
100
AcDbBlockBegin
  2
*D2
 70
     1
 10
0.0
 20
0.0
 30
0.0
  3
*D2
  1

  0
LINE
  5
13B
330
13A
100
AcDbEntity
  8
1
  6
Continuous
 62
     2
100
AcDbLine
 10
224.047547430862
 20
312.2990832441
 30
0.0
 11
224.047547430862
 21
280.2990832441
 31
0.0
  0
LINE
  5
13C
330
13A
100
AcDbEntity
  8
1
  6
Continuous
 62
     2
100
AcDbLine
 10
199.8898220021
 20
312.2990832441
 30
0.0
 11
226.047547430862
 21
312.2990832441
 31
0.0
  0
LINE
  5
13D
330
13A
100
AcDbEntity
  8
1
  6
Continuous
 62
     2
100
AcDbLine
 10
199.8898220021
 20
280.2990832441
 30
0.0
 11
226.047547430862
 21
280.2990832441
 31
0.0
  0
SOLID
  5
13E
330
13A
100
AcDbEntity
  8
1
 62
     2
100
AcDbTrace
 10
224.5083311724179
 20
308.7990832441
 30
0.0
 11
223.5867636893061
 21
308.7990832441
 31
0.0
 12
224.047547430862
 22
312.2990832441
 32
0.0
 13
224.047547430862
 23
312.2990832441
 33
0.0
  0
SOLID
  5
13F
330
13A
100
AcDbEntity
  8
1
 62
     2
100
AcDbTrace
 10
223.5867636893061
 20
283.7990832441
 30
0.0
 11
224.5083311724179
 21
283.7990832441
 31
0.0
 12
224.047547430862
 22
280.2990832441
 32
0.0
 13
224.047547430862
 23
280.2990832441
 33
0.0
  0
MTEXT
  5
140
330
13A
100
AcDbEntity
  8
1
 62
     3
100
AcDbMText
 10
222.047547430862
 20
292.543839583934
 30
0.0
 40
3.5
 41
0.0
 71
     7
 72
     1
  1
\C3;ER\C3;\C3;32\C2;\H2.45;\S^ ;\C3;
  7
CONVERTER_11
 11
0.0
 21
1.0
 31
0.0
 73
     1
 44
0.60024009603842
  0
ENDBLK
  5
142
330
13A
100
AcDbEntity
  8
0
100
AcDbBlockEnd
  0
BLOCK
  5
14C
330
145
100
AcDbEntity
  8
0
100
AcDbBlockBegin
  2
*D3
 70
     1
 10
0.0
 20
0.0
 30
0.0
  3
*D3
  1

  0
LINE
  5
146
330
145
100
AcDbEntity
  8
1
  6
Continuous
 62
     2
100
AcDbLine
 10
233.415845545251
 20
321.2990832441
 30
0.0
 11
233.415845545251
 21
271.2990832441
 31
0.0
  0
LINE
  5
147
330
145
100
AcDbEntity
  8
1
  6
Continuous
 62
     2
100
AcDbLine
 10
194.8898220021
 20
321.2990832441
 30
0.0
 11
235.415845545251
 21
321.2990832441
 31
0.0
  0
LINE
  5
148
330
145
100
AcDbEntity
  8
1
  6
Continuous
 62
     2
100
AcDbLine
 10
194.8898220021
 20
271.2990832441
 30
0.0
 11
235.415845545251
 21
271.2990832441
 31
0.0
  0
SOLID
  5
149
330
145
100
AcDbEntity
  8
1
 62
     2
100
AcDbTrace
 10
233.8766292868069
 20
317.7990832441
 30
0.0
 11
232.9550618036951
 21
317.7990832441
 31
0.0
 12
233.415845545251
 22
321.2990832441
 32
0.0
 13
233.415845545251
 23
321.2990832441
 33
0.0
  0
SOLID
  5
14A
330
145
100
AcDbEntity
  8
1
 62
     2
100
AcDbTrace
 10
232.9550618036951
 20
274.7990832441
 30
0.0
 11
233.8766292868069
 21
274.7990832441
 31
0.0
 12
233.415845545251
 22
271.2990832441
 32
0.0
 13
233.415845545251
 23
271.2990832441
 33
0.0
  0
MTEXT
  5
14B
330
145
100
AcDbEntity
  8
1
 62
     3
100
AcDbMText
 10
231.415845545251
 20
289.406271224135
 30
0.0
 40
3.5
 41
0.0
 71
     7
 72
     1
  1
\C3;%%c\C3;\C3;50\C2;\H2.45;\S^ ;\C3;
  7
CONVERTER_11
 11
0.0
 21
1.0
 31
0.0
 73
     1
 44
0.60024009603842
  0
ENDBLK
  5
14D
330
145
100
AcDbEntity
  8
0
100
AcDbBlockEnd
  0
BLOCK
  5
157
330
150
100
AcDbEntity
  8
0
100
AcDbBlockBegin
  2
*D4
 70
     1
 10
0.0
 20
0.0
 30
0.0
  3
*D4
  1

  0
LINE
  5
151
330
150
100
AcDbEntity
  8
1
  6
Continuous
 62
     2
100
AcDbLine
 10
197.8898220021
 20
352.255669918048
 30
0.0
 11
139.8898220021
 21
352.255669918048
 31
0.0
  0
LINE
  5
152
330
150
100
AcDbEntity
  8
1
  6
Continuous
 62
     2
100
AcDbLine
 10
197.8898220021
 20
318.2990832441
 30
0.0
 11
197.8898220021
 21
354.255669918048
 31
0.0
  0
LINE
  5
153
330
150
100
AcDbEntity
  8
1
  6
Continuous
 62
     2
100
AcDbLine
 10
139.8898220021
 20
348.2990463739
 30
0.0
 11
139.8898220021
 21
354.255669918048
 31
0.0
  0
SOLID
  5
154
330
150
100
AcDbEntity
  8
1
 62
     2
100
AcDbTrace
 10
194.3898220021
 20
351.7948861764921
 30
0.0
 11
194.3898220021
 21
352.7164536596039
 31
0.0
 12
197.8898220021
 22
352.255669918048
 32
0.0
 13
197.8898220021
 23
352.255669918048
 33
0.0
  0
SOLID
  5
155
330
150
100
AcDbEntity
  8
1
 62
     2
100
AcDbTrace
 10
143.3898220021
 20
352.7164536596039
 30
0.0
 11
143.3898220021
 21
351.7948861764921
 31
0.0
 12
139.8898220021
 22
352.255669918048
 32
0.0
 13
139.8898220021
 23
352.255669918048
 33
0.0
  0
MTEXT
  5
156
330
150
100
AcDbEntity
  8
1
 62
     3
100
AcDbMText
 10
166.727965073104
 20
354.255669918048
 30
0.0
 40
3.5
 41
0.0
 71
     7
 72
     1
  1
\C3;\C3;\C3;58\C2;\H2.45;\S^ ;\C3;
  7
CONVERTER_11
 11
0.9999999999970619
 21
2.424068405545306E-6
 31
0.0
 73
     1
 44
0.60024009603842
  0
ENDBLK
  5
158
330
150
100
AcDbEntity
  8
0
100
AcDbBlockEnd
  0
BLOCK
  5
162
330
15B
100
AcDbEntity
  8
0
100
AcDbBlockBegin
  2
*D5
 70
     1
 10
0.0
 20
0.0
 30
0.0
  3
*D5
  1

  0
LINE
  5
15C
330
15B
100
AcDbEntity
  8
1
  6
Continuous
 62
     2
100
AcDbLine
 10
110.8898220021
 20
360.274614121588
 30
0.0
 11
197.8898220021
 21
360.274614121588
 31
0.0
  0
LINE
  5
15D
330
15B
100
AcDbEntity
  8
1
  6
Continuous
 62
     2
100
AcDbLine
 10
110.8898220021
 20
348.2990832441
 30
0.0
 11
110.8898220021
 21
362.274614121588
 31
0.0
  0
LINE
  5
15E
330
15B
100
AcDbEntity
  8
1
  6
Continuous
 62
     2
100
AcDbLine
 10
197.8898220021
 20
318.2990832441
 30
0.0
 11
197.8898220021
 21
362.274614121588
 31
0.0
  0
SOLID
  5
15F
330
15B
100
AcDbEntity
  8
1
 62
     2
100
AcDbTrace
 10
114.3898220021
 20
360.7353978631439
 30
0.0
 11
114.3898220021
 21
359.8138303800321
 31
0.0
 12
110.8898220021
 22
360.274614121588
 32
0.0
 13
110.8898220021
 23
360.274614121588
 33
0.0
  0
SOLID
  5
160
330
15B
100
AcDbEntity
  8
1
 62
     2
100
AcDbTrace
 10
194.3898220021
 20
359.8138303800321
 30
0.0
 11
194.3898220021
 21
360.7353978631439
 31
0.0
 12
197.8898220021
 22
360.274614121588
 32
0.0
 13
197.8898220021
 23
360.274614121588
 33
0.0
  0
MTEXT
  5
161
330
15B
100
AcDbEntity
  8
1
 62
     3
100
AcDbMText
 10
154.443625016617
 20
362.274614121588
 30
0.0
 40
3.5
 41
0.0
 71
     7
 72
     1
  1
\C3;\C3;\C3;87\C2;\H2.45;\S^ ;\C3;
  7
CONVERTER_11
 11
0.9999999999970619
 21
2.424068405545306E-6
 31
0.0
 73
     1
 44
0.60024009603842
  0
ENDBLK
  5
163
330
15B
100
AcDbEntity
  8
0
100
AcDbBlockEnd
  0
BLOCK
  5
16D
330
166
100
AcDbEntity
  8
0
100
AcDbBlockBegin
  2
*D6
 70
     1
 10
0.0
 20
0.0
 30
0.0
  3
*D6
  1

  0
LINE
  5
167
330
166
100
AcDbEntity
  8
1
  6
Continuous
 62
     2
100
AcDbLine
 10
197.8898220021
 20
375.800655026315
 30
0.0
 11
60.8898220021
 21
375.800655026315
 31
0.0
  0
LINE
  5
168
330
166
100
AcDbEntity
  8
1
  6
Continuous
 62
     2
100
AcDbLine
 10
197.8898220021
 20
318.2990832441
 30
0.0
 11
197.8898220021
 21
377.800655026315
 31
0.0
  0
LINE
  5
169
330
166
100
AcDbEntity
  8
1
  6
Continuous
 62
     2
100
AcDbLine
 10
60.8898220021
 20
331.8992748067
 30
0.0
 11
60.8898220021
 21
377.800655026315
 31
0.0
  0
SOLID
  5
16A
330
166
100
AcDbEntity
  8
1
 62
     2
100
AcDbTrace
 10
194.3898220021
 20
375.3398712847591
 30
0.0
 11
194.3898220021
 21
376.2614387678709
 31
0.0
 12
197.8898220021
 22
375.800655026315
 32
0.0
 13
197.8898220021
 23
375.800655026315
 33
0.0
  0
SOLID
  5
16B
330
166
100
AcDbEntity
  8
1
 62
     2
100
AcDbTrace
 10
64.3898220021
 20
376.2614387678709
 30
0.0
 11
64.3898220021
 21
375.3398712847591
 31
0.0
 12
60.8898220021
 22
375.800655026315
 32
0.0
 13
60.8898220021
 23
375.800655026315
 33
0.0
  0
MTEXT
  5
16C
330
166
100
AcDbEntity
  8
1
 62
     3
100
AcDbMText
 10
133.470956590707
 20
377.800655026315
 30
0.0
 40
3.5
 41
0.0
 71
     7
 72
     1
  1
\C3;\C3;\C3;137\C2;\H2.45;\S^ ;\C3;
  7
CONVERTER_11
 11
0.9999999999970619
 21
2.424068405545306E-6
 31
0.0
 73
     1
 44
0.60024009603842
  0
ENDBLK
  5
16E
330
166
100
AcDbEntity
  8
0
100
AcDbBlockEnd
  0
BLOCK
  5
178
330
171
100
AcDbEntity
  8
0
100
AcDbBlockBegin
  2
*D7
 70
     1
 10
0.0
 20
0.0
 30
0.0
  3
*D7
  1

  0
LINE
  5
172
330
171
100
AcDbEntity
  8
1
  6
Continuous
 62
     2
100
AcDbLine
 10
110.8898220021
 20
368.122942491011
 30
0.0
 11
210.8898220021
 21
368.122942491011
 31
0.0
  0
LINE
  5
173
330
171
100
AcDbEntity
  8
1
  6
Continuous
 62
     2
100
AcDbLine
 10
110.8898220021
 20
348.2990832441
 30
0.0
 11
110.8898220021
 21
370.122942491011
 31
0.0
  0
LINE
  5
174
330
171
100
AcDbEntity
  8
1
  6
Continuous
 62
     2
100
AcDbLine
 10
210.8898220021
 20
316.5490832441
 30
0.0
 11
210.8898220021
 21
370.122942491011
 31
0.0
  0
SOLID
  5
175
330
171
100
AcDbEntity
  8
1
 62
     2
100
AcDbTrace
 10
114.3898220021
 20
368.5837262325668
 30
0.0
 11
114.3898220021
 21
367.6621587494551
 31
0.0
 12
110.8898220021
 22
368.122942491011
 32
0.0
 13
110.8898220021
 23
368.122942491011
 33
0.0
  0
SOLID
  5
176
330
171
100
AcDbEntity
  8
1
 62
     2
100
AcDbTrace
 10
207.3898220021
 20
367.6621587494551
 30
0.0
 11
207.3898220021
 21
368.5837262325668
 31
0.0
 12
210.8898220021
 22
368.122942491011
 32
0.0
 13
210.8898220021
 23
368.122942491011
 33
0.0
  0
MTEXT
  5
177
330
171
100
AcDbEntity
  8
1
 62
     3
100
AcDbMText
 10
158.2102525378
 20
370.122942491011
 30
0.0
 40
3.5
 41
0.0
 71
     7
 72
     1
  1
\C3;\C3;\C3;100\C2;\H2.45;\S^ ;\C3;
  7
CONVERTER_11
 11
0.9999999999970619
 21
2.424068405545306E-6
 31
0.0
 73
     1
 44
0.60024009603842
  0
ENDBLK
  5
179
330
171
100
AcDbEntity
  8
0
100
AcDbBlockEnd
  0
BLOCK
  5
180
330
17C
100
AcDbEntity
  8
0
100
AcDbBlockBegin
  2
*D8
 70
     1
 10
0.0
 20
0.0
 30
0.0
  3
*D8
  1

  0
LINE
  5
17D
330
17C
100
AcDbEntity
  8
1
  6
Continuous
 62
     2
100
AcDbLine
 10
151.6946345624862
 20
332.4412159616957
 30
0.0
 11
143.4465611744045
 21
322.6515745055444
 31
0.0
  0
SOLID
  5
17E
330
17C
100
AcDbEntity
  8
1
 62
     2
100
AcDbTrace
 10
145.3493176950846
 20
325.6250975472395
 30
0.0
 11
146.0540872331112
 21
325.0313075808383
 31
0.0
 12
143.4465611744045
 22
322.6515745055444
 32
0.0
 13
143.4465611744045
 23
322.6515745055444
 33
0.0
  0
MTEXT
  5
17F
330
17C
100
AcDbEntity
  8
1
 62
     3
100
AcDbMText
 10
144.3017654615722
 20
326.7706351751491
 30
0.0
 40
3.5
 41
0.0
 71
     7
 72
     1
  1
\C3; R\C3;\C3;10\C2;\H2.45;\S^ ;\C3;
  7
CONVERTER_11
 11
0.6443260827695468
 21
0.7647508738555655
 31
0.0
 73
     1
 44
0.60024009603842
  0
ENDBLK
  5
181
330
17C
100
AcDbEntity
  8
0
100
AcDbBlockEnd
  0
ENDSEC
  0
SECTION
  2
ENTITIES
  0
INSERT
  5
6D
330
1F
100
AcDbEntity
  8
0
100
AcDbBlockReference
  2
Urheberrecht_DE-EN
 10
51.273655365885
 20
312.160948900346
 30
0.0
  0
LINE
  5
71
330
1F
100
AcDbEntity
  8
BEZUGSACHSEN
  6
Continuous
 62
     7
100
AcDbLine
 10
60.8898220021
 20
262.6988916812
 30
0.0
 11
60.8898220021
 21
284.2890832441
 31
0.0
  0
LINE
  5
72
330
1F
100
AcDbEntity
  8
BEZUGSACHSEN
  6
Continuous
 62
     7
100
AcDbLine
 10
60.8898220021
 20
308.3090832441
 30
0.0
 11
60.8898220021
 21
329.8992748067
 31
0.0
  0
LINE
  5
73
330
1F
100
AcDbEntity
  8
BEZUGSACHSEN
  6
Continuous
 62
     9
100
AcDbLine
 10
62.7897475174
 20
331.8967695124
 30
0.0
 11
62.7897475174
 21
311.9756156304
 31
0.0
  0
LINE
  5
74
330
1F
100
AcDbEntity
  8
BEZUGSACHSEN
  6
Continuous
 62
     9
100
AcDbLine
 10
62.7897475174
 20
280.6225508579
 30
0.0
 11
62.7897475174
 21
260.7013969758
 31
0.0
  0
LINE
  5
75
330
1F
100
AcDbEntity
  8
BEZUGSACHSEN
  6
Continuous
 62
     7
100
AcDbLine
 10
62.8898220021
 20
283.8954432957
 30
0.0
 11
62.8898220021
 21
286.2890832441
 31
0.0
  0
LINE
  5
76
330
1F
100
AcDbEntity
  8
BEZUGSACHSEN
  6
Continuous
 62
     7
100
AcDbLine
 10
62.8898220021
 20
306.3090832441
 30
0.0
 11
62.8898220021
 21
308.7027231925
 31
0.0
  0
LINE
  5
77
330
1F
100
AcDbEntity
  8
BEZUGSACHSEN
  6
Continuous
 62
     9
100
AcDbLine
 10
68.8898220021
 20
279.9404356567
 30
0.0
 11
68.8898220021
 21
286.2890832441
 31
0.0
  0
LINE
  5
78
330
1F
100
AcDbEntity
  8
BEZUGSACHSEN
  6
Continuous
 62
     9
100
AcDbLine
 10
68.8898220021
 20
306.3090832441
 30
0.0
 11
68.8898220021
 21
312.6577308315
 31
0.0
  0
LINE
  5
79
330
1F
100
AcDbEntity
  8
BEZUGSACHSEN
  6
Continuous
 62
     7
100
AcDbLine
 10
70.8898220021
 20
309.1687387699
 30
0.0
 11
70.8898220021
 21
283.4294277183
 31
0.0
  0
LINE
  5
7A
330
1F
100
AcDbEntity
  8
BEZUGSACHSEN
  6
Continuous
 62
     7
100
AcDbLine
 10
62.1567749291
 20
281.2890832441
 30
0.0
 11
62.0356646777
 21
281.0567472487
 31
0.0
  0
LINE
  5
7B
330
1F
100
AcDbEntity
  8
BEZUGSACHSEN
  6
Continuous
 62
     7
100
AcDbLine
 10
62.0356646777
 20
311.5414192396
 30
0.0
 11
62.1567749291
 21
311.3090832441
 31
0.0
  0
LINE
  5
7C
330
1F
100
AcDbEntity
  8
BEZUGSACHSEN
  6
Continuous
 62
     7
100
AcDbLine
 10
127.6422267379
 20
246.2990832441
 30
0.0
 11
110.8898220021
 21
246.2990832441
 31
0.0
  0
LINE
  5
7D
330
1F
100
AcDbEntity
  8
BEZUGSACHSEN
  6
Continuous
 62
     7
100
AcDbLine
 10
134.1374172663
 20
246.2990832441
 30
0.0
 11
139.8898220021
 21
246.2990832441
 31
0.0
  0
LINE
  5
7E
330
1F
100
AcDbEntity
  8
BEZUGSACHSEN
  6
Continuous
 62
     7
100
AcDbLine
 10
60.8898220021
 20
284.2890832441
 30
0.0
 11
62.8898220021
 21
286.2890832441
 31
0.0
  0
LINE
  5
7F
330
1F
100
AcDbEntity
  8
BEZUGSACHSEN
  6
Continuous
 62
     7
100
AcDbLine
 10
130.0148220021
 20
250.2990832441
 30
0.0
 11
131.7648220021
 21
250.2990832441
 31
0.0
  0
LINE
  5
80
330
1F
100
AcDbEntity
  8
BEZUGSACHSEN
  6
Continuous
 62
     7
100
AcDbLine
 10
62.8898220021
 20
306.3090832441
 30
0.0
 11
60.8898220021
 21
308.3090832441
 31
0.0
  0
LWPOLYLINE
  5
81
330
1F
100
AcDbEntity
  8
BEZUGSACHSEN
  6
DOT_CENTER
 62
     7
100
AcDbPolyline
 90
        2
 70
     0
 43
0.25
 10
95.8898220021
 20
287.2990832441
 10
95.8898220021
 20
305.2990832441
  0
LINE
  5
82
330
1F
100
AcDbEntity
  8
FASEN
  6
Continuous
 62
     7
100
AcDbLine
 10
116.2333711923
 20
257.3481204832
 30
0.0
 11
127.6422267379
 21
257.3481204832
 31
0.0
  0
LINE
  5
83
330
1F
100
AcDbEntity
  8
FASEN
  6
Continuous
 62
     7
100
AcDbLine
 10
134.1374172663
 20
257.3481204832
 30
0.0
 11
139.4398220021
 21
257.3481204832
 31
0.0
  0
LINE
  5
84
330
1F
100
AcDbEntity
  8
BEZUGSACHSEN
  6
Continuous
 62
     7
100
AcDbLine
 10
110.1892507135
 20
258.6168332441
 30
0.0
 11
109.2678846612
 21
258.6168332441
 31
0.0
  0
LINE
  5
85
330
1F
100
AcDbEntity
  8
BEZUGSACHSEN
  6
Continuous
 62
     7
100
AcDbLine
 10
108.3898220021
 20
258.4168332441
 30
0.0
 11
62.7897475174
 21
260.7013969758
 31
0.0
  0
LINE
  5
86
330
1F
100
AcDbEntity
  8
BEZUGSACHSEN
  6
Continuous
 62
     7
100
AcDbLine
 10
109.0090656161
 20
258.5827590704
 30
0.0
 11
108.3898220021
 21
258.4168332441
 31
0.0
  0
LINE
  5
87
330
1F
100
AcDbEntity
  8
0
  6
Continuous
 62
     7
100
AcDbLine
 10
130.0148220021
 20
262.6363813324
 30
0.0
 11
131.7648220021
 21
262.6363813324
 31
0.0
  0
LINE
  5
88
330
1F
100
AcDbEntity
  8
FASEN
  6
Continuous
 62
     7
100
AcDbLine
 10
123.8228882575
 20
264.5490832441
 30
0.0
 11
139.4398220021
 21
264.5490832441
 31
0.0
  0
LINE
  5
89
330
1F
100
AcDbEntity
  8
0
  6
Continuous
 62
     7
100
AcDbLine
 10
123.8228882575
 20
264.9490832441
 30
0.0
 11
139.8398220021
 21
264.9490832441
 31
0.0
  0
LINE
  5
8A
330
1F
100
AcDbEntity
  8
BEZUGSACHSEN
  6
Continuous
 62
     7
100
AcDbLine
 10
108.3898220021
 20
334.1813332441
 30
0.0
 11
108.3898220021
 21
258.4168332441
 31
0.0
  0
LINE
  5
8B
330
1F
100
AcDbEntity
  8
BEZUGSACHSEN
  6
Continuous
 62
     9
100
AcDbLine
 10
109.0090656161
 20
258.5827590704
 30
0.0
 11
109.0090656161
 21
334.0154074178
 31
0.0
  0
LINE
  5
8C
330
1F
100
AcDbEntity
  8
BEZUGSACHSEN
  6
Continuous
 62
     9
100
AcDbLine
 10
109.2678846612
 20
258.6168332441
 30
0.0
 11
109.2678846612
 21
333.9813332441
 31
0.0
  0
LINE
  5
8D
330
1F
100
AcDbEntity
  8
BEZUGSACHSEN
  6
Continuous
 62
     9
100
AcDbLine
 10
110.1892507135
 20
258.6168332441
 30
0.0
 11
110.1892507135
 21
333.9813332441
 31
0.0
  0
LINE
  5
8E
330
1F
100
AcDbEntity
  8
BEZUGSACHSEN
  6
Continuous
 62
     7
100
AcDbLine
 10
110.8898220021
 20
346.2990832441
 30
0.0
 11
110.8898220021
 21
246.2990832441
 31
0.0
  0
LINE
  5
8F
330
1F
100
AcDbEntity
  8
BEZUGSACHSEN
  6
Continuous
 62
     7
100
AcDbLine
 10
132.7648220021
 20
343.9216785083
 30
0.0
 11
134.1374172663
 21
346.2990832441
 31
0.0
  0
LINE
  5
90
330
1F
100
AcDbEntity
  8
BEZUGSACHSEN
  6
Continuous
 62
     7
100
AcDbLine
 10
189.6398220021
 20
271.2990832441
 30
0.0
 11
192.8898220021
 21
271.2990832441
 31
0.0
  0
LINE
  5
91
330
1F
100
AcDbEntity
  8
FASEN
  6
Continuous
 62
     7
100
AcDbLine
 10
193.1969017839
 20
271.6161630259
 30
0.0
 11
206.2710198486
 21
271.6161630259
 31
0.0
  0
LINE
  5
92
330
1F
100
AcDbEntity
  8
0
  6
Continuous
 62
     7
100
AcDbLine
 10
149.8898220021
 20
272.2990832441
 30
0.0
 11
174.147181315
 21
272.2990832441
 31
0.0
  0
LINE
  5
93
330
1F
100
AcDbEntity
  8
BEZUGSACHSEN
  6
Continuous
 62
     7
100
AcDbLine
 10
132.7648220021
 20
248.6764879799
 30
0.0
 11
134.1374172663
 21
246.2990832441
 31
0.0
  0
LWPOLYLINE
  5
94
330
1F
100
AcDbEntity
  8
BEZUGSACHSEN
  6
DOT_CENTER
 62
     7
100
AcDbPolyline
 90
        2
 70
     0
 43
0.25
 10
117.8898220021
 20
338.4484550994
 10
117.8898220021
 20
349.2990832441
  0
LINE
  5
95
330
1F
100
AcDbEntity
  8
BEZUGSACHSEN
  6
Continuous
 62
     9
100
AcDbLine
 10
60.8898220021
 20
282.8528992751
 30
0.0
 11
62.8898220021
 21
283.8954432957
 31
0.0
  0
LINE
  5
96
330
1F
100
AcDbEntity
  8
0
  6
Continuous
 62
     7
100
AcDbLine
 10
208.4641793797
 20
274.0990832441
 30
0.0
 11
208.6092884388
 21
274.0990832441
 31
0.0
  0
LINE
  5
97
330
1F
100
AcDbEntity
  8
RUNDUNGEN
  6
Continuous
 62
     7
100
AcDbLine
 10
188.3898220021
 20
276.2990832441
 30
0.0
 11
179.8040355645
 21
276.2990832441
 31
0.0
  0
LINE
  5
98
330
1F
100
AcDbEntity
  8
0
  6
Continuous
 62
     7
100
AcDbLine
 10
179.8040355645
 20
276.2990832441
 30
0.0
 11
188.3898220021
 21
276.2990832441
 31
0.0
  0
LWPOLYLINE
  5
99
330
1F
100
AcDbEntity
  8
DEFAULT_2
  6
DASHED
 62
     8
100
AcDbPolyline
 90
        2
 70
     0
 43
0.35
 10
188.3898220021
 20
276.2990832441
 10
197.8898220021
 20
276.2990832441
  0
LINE
  5
9A
330
1F
100
AcDbEntity
  8
BEZUGSACHSEN
  6
Continuous
 62
     9
100
AcDbLine
 10
62.8898220021
 20
308.7027231925
 30
0.0
 11
60.8898220021
 21
309.7452672131
 31
0.0
  0
LINE
  5
9B
330
1F
100
AcDbEntity
  8
FASEN
  6
Continuous
 62
     9
100
AcDbLine
 10
123.8228882575
 20
264.5490832441
 30
0.0
 11
123.8228882575
 21
264.9490832441
 31
0.0
  0
LINE
  5
9C
330
1F
100
AcDbEntity
  8
FASEN
  6
Continuous
 62
     7
100
AcDbLine
 10
193.1969017839
 20
280.5203150129
 30
0.0
 11
206.2710198486
 21
280.5203150129
 31
0.0
  0
LINE
  5
9D
330
1F
100
AcDbEntity
  8
BEZUGSACHSEN
  6
Continuous
 62
     9
100
AcDbLine
 10
70.443667949
 20
281.2890832441
 30
0.0
 11
62.1567749291
 21
281.2890832441
 31
0.0
  0
LINE
  5
9E
330
1F
100
AcDbEntity
  8
RUNDUNGEN
  6
Continuous
 62
     7
100
AcDbLine
 10
208.4641793797
 20
282.2978981414
 30
0.0
 11
196.7981986205
 21
282.2978981414
 31
0.0
  0
LWPOLYLINE
  5
9F
330
1F
100
AcDbEntity
  8
DEFAULT_2
  6
DASHED
 62
     8
100
AcDbPolyline
 90
        2
 70
     0
 43
0.35
 10
167.649500682
 20
284.5490832441
 10
163.8898220021
 20
284.5490832441
  0
LINE
  5
A0
330
1F
100
AcDbEntity
  8
FASEN
  6
Continuous
 62
     9
100
AcDbLine
 10
125.8608220021
 20
306.3200832441
 30
0.0
 11
125.8608220021
 21
305.9200832441
 31
0.0
  0
LINE
  5
A1
330
1F
100
AcDbEntity
  8
FASEN
  6
Continuous
 62
     9
100
AcDbLine
 10
125.8608220021
 20
286.2780832441
 30
0.0
 11
125.8608220021
 21
286.6780832441
 31
0.0
  0
LINE
  5
A2
330
1F
100
AcDbEntity
  8
0
  6
Continuous
 62
     7
100
AcDbLine
 10
127.6422267379
 20
346.2990832441
 30
0.0
 11
127.6422267379
 21
306.3200832441
 31
0.0
  0
LINE
  5
A3
330
1F
100
AcDbEntity
  8
0
  6
Continuous
 62
     7
100
AcDbLine
 10
127.6422267379
 20
286.2780832441
 30
0.0
 11
127.6422267379
 21
264.9490832441
 31
0.0
  0
LINE
  5
A4
330
1F
100
AcDbEntity
  8
0
  6
Continuous
 62
     7
100
AcDbLine
 10
127.6422267379
 20
257.3481204832
 30
0.0
 11
127.6422267379
 21
246.2990832441
 31
0.0
  0
LINE
  5
A5
330
1F
100
AcDbEntity
  8
0
  6
Continuous
 62
     7
100
AcDbLine
 10
129.0148220021
 20
343.9216451322
 30
0.0
 11
129.0148220021
 21
306.3200832441
 31
0.0
  0
LINE
  5
A6
330
1F
100
AcDbEntity
  8
0
  6
Continuous
 62
     7
100
AcDbLine
 10
129.0148220021
 20
286.2780832441
 30
0.0
 11
129.0148220021
 21
264.9490832441
 31
0.0
  0
LINE
  5
A7
330
1F
100
AcDbEntity
  8
0
  6
Continuous
 62
     7
100
AcDbLine
 10
129.0148220021
 20
248.676524248
 30
0.0
 11
129.0148220021
 21
261.2822658559
 31
0.0
  0
LINE
  5
A8
330
1F
100
AcDbEntity
  8
0
  6
Continuous
 62
     9
100
AcDbLine
 10
130.0148220021
 20
250.2990832441
 30
0.0
 11
130.0148220021
 21
262.6363813324
 31
0.0
  0
LINE
  5
A9
330
1F
100
AcDbEntity
  8
0
  6
Continuous
 62
     9
100
AcDbLine
 10
130.0148220021
 20
264.9490832441
 30
0.0
 11
130.0148220021
 21
286.2780832441
 31
0.0
  0
LINE
  5
AA
330
1F
100
AcDbEntity
  8
0
  6
Continuous
 62
     9
100
AcDbLine
 10
130.0148220021
 20
306.3200832441
 30
0.0
 11
130.0148220021
 21
342.2990832441
 31
0.0
  0
LINE
  5
AB
330
1F
100
AcDbEntity
  8
0
  6
Continuous
 62
     7
100
AcDbLine
 10
125.8608220021
 20
286.2780832441
 30
0.0
 11
139.8898220021
 21
286.2780832441
 31
0.0
  0
LINE
  5
AC
330
1F
100
AcDbEntity
  8
BEZUGSACHSEN
  6
Continuous
 62
     7
100
AcDbLine
 10
68.8898220021
 20
286.2890832441
 30
0.0
 11
62.8898220021
 21
286.2890832441
 31
0.0
  0
LINE
  5
AD
330
1F
100
AcDbEntity
  8
FASEN
  6
Continuous
 62
     7
100
AcDbLine
 10
125.8608220021
 20
286.6780832441
 30
0.0
 11
139.8898220021
 21
286.6780832441
 31
0.0
  0
LINE
  5
AE
330
1F
100
AcDbEntity
  8
FASEN
  6
Continuous
 62
     7
100
AcDbLine
 10
193.1969017839
 20
287.3949312572
 30
0.0
 11
206.2710198486
 21
287.3949312572
 31
0.0
  0
LWPOLYLINE
  5
AF
330
1F
100
AcDbEntity
  8
DEFAULT_2
  6
DASHED
 62
     8
100
AcDbPolyline
 90
        2
 70
     0
 43
0.35
 10
197.8898220021
 20
280.2990832441
 10
167.649500682
 20
284.5490832441
  0
LINE
  5
B0
330
1F
100
AcDbEntity
  8
0
  6
Continuous
 62
     9
100
AcDbLine
 10
131.7648220021
 20
250.2990832441
 30
0.0
 11
131.7648220021
 21
262.6363813324
 31
0.0
  0
LINE
  5
B1
330
1F
100
AcDbEntity
  8
0
  6
Continuous
 62
     9
100
AcDbLine
 10
131.7648220021
 20
264.9490832441
 30
0.0
 11
131.7648220021
 21
286.2780832441
 31
0.0
  0
LINE
  5
B2
330
1F
100
AcDbEntity
  8
0
  6
Continuous
 62
     9
100
AcDbLine
 10
131.7648220021
 20
306.3200832441
 30
0.0
 11
131.7648220021
 21
342.2990832441
 31
0.0
  0
LINE
  5
B3
330
1F
100
AcDbEntity
  8
0
  6
Continuous
 62
     7
100
AcDbLine
 10
132.7648220021
 20
248.676524248
 30
0.0
 11
132.7648220021
 21
261.2822658559
 31
0.0
  0
LINE
  5
B4
330
1F
100
AcDbEntity
  8
0
  6
Continuous
 62
     7
100
AcDbLine
 10
132.7648220021
 20
264.9490832441
 30
0.0
 11
132.7648220021
 21
286.2780832441
 31
0.0
  0
LINE
  5
B5
330
1F
100
AcDbEntity
  8
0
  6
Continuous
 62
     7
100
AcDbLine
 10
132.7648220021
 20
306.3200832441
 30
0.0
 11
132.7648220021
 21
343.9216451322
 31
0.0
  0
LINE
  5
B6
330
1F
100
AcDbEntity
  8
0
  6
Continuous
 62
     7
100
AcDbLine
 10
134.1374172663
 20
346.2990832441
 30
0.0
 11
134.1374172663
 21
306.3200832441
 31
0.0
  0
LINE
  5
B7
330
1F
100
AcDbEntity
  8
0
  6
Continuous
 62
     7
100
AcDbLine
 10
134.1374172663
 20
286.2780832441
 30
0.0
 11
134.1374172663
 21
264.9490832441
 31
0.0
  0
LINE
  5
B8
330
1F
100
AcDbEntity
  8
0
  6
Continuous
 62
     7
100
AcDbLine
 10
134.1374172663
 20
257.3481204832
 30
0.0
 11
134.1374172663
 21
246.2990832441
 31
0.0
  0
LWPOLYLINE
  5
B9
330
1F
100
AcDbEntity
  8
BG_STARTBEZUEGE
  6
DOT_CENTER
 62
     7
100
AcDbPolyline
 90
        2
 70
     0
 43
0.25
 10
213.8898220021
 20
296.2990832441
 10
57.8898220021
 20
296.2990832441
  0
LINE
  5
BA
330
1F
100
AcDbEntity
  8
FASEN
  6
Continuous
 62
     7
100
AcDbLine
 10
139.4398220021
 20
264.5490832441
 30
0.0
 11
139.4398220021
 21
257.3481204832
 31
0.0
  0
LINE
  5
BB
330
1F
100
AcDbEntity
  8
FASEN
  6
Continuous
 62
     7
100
AcDbLine
 10
139.8398220021
 20
264.9490832441
 30
0.0
 11
139.8398220021
 21
257.6734764528
 31
0.0
  0
LINE
  5
BC
330
1F
100
AcDbEntity
  8
0
  6
Continuous
 62
     7
100
AcDbLine
 10
139.8898220021
 20
346.2990463739
 30
0.0
 11
139.8898220021
 21
306.3200832441
 31
0.0
  0
LINE
  5
BD
330
1F
100
AcDbEntity
  8
0
  6
Continuous
 62
     7
100
AcDbLine
 10
139.8898220021
 20
286.2780832441
 30
0.0
 11
139.8898220021
 21
246.2991202396
 31
0.0
  0
LINE
  5
BE
330
1F
100
AcDbEntity
  8
FASEN
  6
Continuous
 62
     7
100
AcDbLine
 10
139.8898220021
 20
286.2780832441
 30
0.0
 11
139.8898220021
 21
306.3200832441
 31
0.0
  0
LWPOLYLINE
  5
BF
330
1F
100
AcDbEntity
  8
DEFAULT_2
  6
DASHED
 62
     8
100
AcDbPolyline
 90
        2
 70
     0
 43
0.35
 10
197.8898220021
 20
312.2990832441
 10
167.649500682
 20
308.0490832441
  0
LINE
  5
C0
330
1F
100
AcDbEntity
  8
FASEN
  6
Continuous
 62
     7
100
AcDbLine
 10
193.1969017839
 20
305.2032352311
 30
0.0
 11
206.2710198486
 21
305.2032352311
 31
0.0
  0
LINE
  5
C1
330
1F
100
AcDbEntity
  8
FASEN
  6
Continuous
 62
     7
100
AcDbLine
 10
139.8898220021
 20
305.9200832441
 30
0.0
 11
125.8608220021
 21
305.9200832441
 31
0.0
  0
LINE
  5
C2
330
1F
100
AcDbEntity
  8
BEZUGSACHSEN
  6
Continuous
 62
     7
100
AcDbLine
 10
68.8898220021
 20
306.3090832441
 30
0.0
 11
62.8898220021
 21
306.3090832441
 31
0.0
  0
LINE
  5
C3
330
1F
100
AcDbEntity
  8
0
  6
Continuous
 62
     7
100
AcDbLine
 10
125.8608220021
 20
306.3200832441
 30
0.0
 11
139.8898220021
 21
306.3200832441
 31
0.0
  0
LWPOLYLINE
  5
C4
330
1F
100
AcDbEntity
  8
DEFAULT_2
  6
DASHED
 62
     8
100
AcDbPolyline
 90
        2
 70
     0
 43
0.35
 10
167.649500682
 20
308.0490832441
 10
163.8898220021
 20
308.0490832441
  0
LINE
  5
C5
330
1F
100
AcDbEntity
  8
RUNDUNGEN
  6
Continuous
 62
     9
100
AcDbLine
 10
149.8898220021
 20
320.2990832441
 30
0.0
 11
149.8898220021
 21
272.2990832441
 31
0.0
  0
LINE
  5
C6
330
1F
100
AcDbEntity
  8
BEZUGSACHSEN
  6
Continuous
 62
     7
100
AcDbLine
 10
127.6422267379
 20
246.2990832441
 30
0.0
 11
129.0148220021
 21
248.6764879799
 31
0.0
  0
LINE
  5
C7
330
1F
100
AcDbEntity
  8
RUNDUNGEN
  6
Continuous
 62
     7
100
AcDbLine
 10
208.4641793797
 20
310.3002683468
 30
0.0
 11
196.7981986205
 21
310.3002683468
 31
0.0
  0
LINE
  5
C8
330
1F
100
AcDbEntity
  8
BEZUGSACHSEN
  6
Continuous
 62
     9
100
AcDbLine
 10
62.1567749291
 20
311.3090832441
 30
0.0
 11
70.443667949
 21
311.3090832441
 31
0.0
  0
LINE
  5
C9
330
1F
100
AcDbEntity
  8
FASEN
  6
Continuous
 62
     7
100
AcDbLine
 10
193.1969017839
 20
312.0778514754
 30
0.0
 11
206.2710198486
 21
312.0778514754
 31
0.0
  0
LINE
  5
CA
330
1F
100
AcDbEntity
  8
BEZUGSACHSEN
  6
Continuous
 62
     7
100
AcDbLine
 10
127.6422267379
 20
346.2990832441
 30
0.0
 11
129.0148220021
 21
343.9216785083
 31
0.0
  0
LINE
  5
CB
330
1F
100
AcDbEntity
  8
RUNDUNGEN
  6
Continuous
 62
     7
100
AcDbLine
 10
188.3898220021
 20
316.2990832441
 30
0.0
 11
179.8040355645
 21
316.2990832441
 31
0.0
  0
LINE
  5
CC
330
1F
100
AcDbEntity
  8
0
  6
Continuous
 62
     7
100
AcDbLine
 10
208.6092884388
 20
318.4990832441
 30
0.0
 11
208.4641793797
 21
318.4990832441
 31
0.0
  0
LINE
  5
CD
330
1F
100
AcDbEntity
  8
RUNDUNGEN
  6
Continuous
 62
     7
100
AcDbLine
 10
174.147181315
 20
320.2990832441
 30
0.0
 11
149.8898220021
 21
320.2990832441
 31
0.0
  0
LINE
  5
CE
330
1F
100
AcDbEntity
  8
0
  6
Continuous
 62
     7
100
AcDbLine
 10
149.8898220021
 20
320.2990832441
 30
0.0
 11
174.147181315
 21
320.2990832441
 31
0.0
  0
LINE
  5
CF
330
1F
100
AcDbEntity
  8
FASEN
  6
Continuous
 62
     7
100
AcDbLine
 10
193.1969017839
 20
320.9820034623
 30
0.0
 11
206.2710198486
 21
320.9820034623
 31
0.0
  0
LWPOLYLINE
  5
D0
330
1F
100
AcDbEntity
  8
DEFAULT_2
  6
DASHED
 62
     8
100
AcDbPolyline
 90
        2
 70
     0
 43
0.35
 10
163.8898220021
 20
308.0490832441
 10
163.8898220021
 20
284.5490832441
  0
LINE
  5
D1
330
1F
100
AcDbEntity
  8
FASEN
  6
Continuous
 62
     7
100
AcDbLine
 10
139.8398220021
 20
264.9490832441
 30
0.0
 11
139.4398220021
 21
264.5490832441
 31
0.0
  0
LINE
  5
D2
330
1F
100
AcDbEntity
  8
FASEN
  6
Continuous
 62
     7
100
AcDbLine
 10
192.8898220021
 20
321.2990832441
 30
0.0
 11
189.6398220021
 21
321.2990832441
 31
0.0
  0
LINE
  5
D3
330
1F
100
AcDbEntity
  8
BEZUGSACHSEN
  6
Continuous
 62
     7
100
AcDbLine
 10
109.0090656161
 20
334.0154074178
 30
0.0
 11
108.3898220021
 21
334.1813332441
 31
0.0
  0
LWPOLYLINE
  5
D4
330
1F
100
AcDbEntity
  8
DEFAULT_2
  6
DASHED
 62
     8
100
AcDbPolyline
 90
        2
 70
     0
 43
0.35
 10
167.649500682
 20
308.0490832441
 10
167.649500682
 20
284.5490832441
  0
LINE
  5
D5
330
1F
100
AcDbEntity
  8
RUNDUNGEN
  6
Continuous
 62
     9
100
AcDbLine
 10
174.147181315
 20
272.2990832441
 30
0.0
 11
174.147181315
 21
320.2990832441
 31
0.0
  0
LINE
  5
D6
330
1F
100
AcDbEntity
  8
RUNDUNGEN
  6
Continuous
 62
     9
100
AcDbLine
 10
176.2685016586
 20
273.1777629006
 30
0.0
 11
176.2685016586
 21
319.4204035877
 31
0.0
  0
LINE
  5
D7
330
1F
100
AcDbEntity
  8
BEZUGSACHSEN
  6
Continuous
 62
     7
100
AcDbLine
 10
108.3898220021
 20
334.1813332441
 30
0.0
 11
62.7897475174
 21
331.8967695124
 31
0.0
  0
LINE
  5
D8
330
1F
100
AcDbEntity
  8
BEZUGSACHSEN
  6
Continuous
 62
     7
100
AcDbLine
 10
110.1892507135
 20
333.9813332441
 30
0.0
 11
109.2678846612
 21
333.9813332441
 31
0.0
  0
LINE
  5
D9
330
1F
100
AcDbEntity
  8
RUNDUNGEN
  6
Continuous
 62
     9
100
AcDbLine
 10
179.0969287833
 20
316.5919764629
 30
0.0
 11
179.0969287833
 21
276.0061900253
 31
0.0
  0
LINE
  5
DA
330
1F
100
AcDbEntity
  8
RUNDUNGEN
  6
Continuous
 62
     9
100
AcDbLine
 10
179.8040355645
 20
316.2990832441
 30
0.0
 11
179.8040355645
 21
276.2990832441
 31
0.0
  0
LINE
  5
DB
330
1F
100
AcDbEntity
  8
0
  6
Continuous
 62
     7
100
AcDbLine
 10
176.2685016586
 20
273.1777629006
 30
0.0
 11
179.0969287833
 21
276.0061900253
 31
0.0
  0
LINE
  5
DC
330
1F
100
AcDbEntity
  8
RUNDUNGEN
  6
Continuous
 62
     7
100
AcDbLine
 10
194.8890103113
 20
281.7317367686
 30
0.0
 11
193.1969017839
 21
280.5203150129
 31
0.0
  0
LINE
  5
DD
330
1F
100
AcDbEntity
  8
BEZUGSACHSEN
  6
Continuous
 62
     7
100
AcDbLine
 10
130.0148220021
 20
342.2990832441
 30
0.0
 11
131.7648220021
 21
342.2990832441
 31
0.0
  0
LINE
  5
DE
330
1F
100
AcDbEntity
  8
RUNDUNGEN
  6
Continuous
 62
     7
100
AcDbLine
 10
193.1969017839
 20
312.0778514754
 30
0.0
 11
194.8890103113
 21
310.8664297196
 31
0.0
  0
LINE
  5
DF
330
1F
100
AcDbEntity
  8
0
  6
Continuous
 62
     7
100
AcDbLine
 10
176.2685016586
 20
319.4204035877
 30
0.0
 11
179.0969287833
 21
316.5919764629
 31
0.0
  0
LINE
  5
E0
330
1F
100
AcDbEntity
  8
RUNDUNGEN
  6
Continuous
 62
     7
100
AcDbLine
 10
179.0969287833
 20
316.5919764629
 30
0.0
 11
176.2685016586
 21
319.4204035877
 31
0.0
  0
LINE
  5
E1
330
1F
100
AcDbEntity
  8
RUNDUNGEN
  6
Continuous
 62
     7
100
AcDbLine
 10
188.3898220021
 20
272.5490832441
 30
0.0
 11
188.3898220021
 21
320.0490832441
 31
0.0
  0
LINE
  5
E2
330
1F
100
AcDbEntity
  8
RUNDUNGEN
  6
Continuous
 62
     9
100
AcDbLine
 10
189.6398220021
 20
271.2990832441
 30
0.0
 11
189.6398220021
 21
321.2990832441
 31
0.0
  0
LINE
  5
E3
330
1F
100
AcDbEntity
  8
BEZUGSACHSEN
  6
Continuous
 62
     7
100
AcDbLine
 10
127.6422267379
 20
346.2990832441
 30
0.0
 11
122.8898220021
 21
346.2990832441
 31
0.0
  0
LINE
  5
E4
330
1F
100
AcDbEntity
  8
BEZUGSACHSEN
  6
Continuous
 62
     7
100
AcDbLine
 10
112.8898220021
 20
346.2990832441
 30
0.0
 11
110.8898220021
 21
346.2990832441
 31
0.0
  0
LINE
  5
E5
330
1F
100
AcDbEntity
  8
BEZUGSACHSEN
  6
Continuous
 62
     7
100
AcDbLine
 10
134.1374172663
 20
346.2990832441
 30
0.0
 11
139.8898220021
 21
346.2990832441
 31
0.0
  0
LINE
  5
E6
330
1F
100
AcDbEntity
  8
RUNDUNGEN
  6
Continuous
 62
     9
100
AcDbLine
 10
194.8890103113
 20
281.7317367686
 30
0.0
 11
194.8890103113
 21
287.3949312572
 31
0.0
  0
LINE
  5
E7
330
1F
100
AcDbEntity
  8
RUNDUNGEN
  6
Continuous
 62
     9
100
AcDbLine
 10
194.8890103113
 20
305.2032352311
 30
0.0
 11
194.8890103113
 21
310.8664297196
 31
0.0
  0
LINE
  5
E8
330
1F
100
AcDbEntity
  8
FASEN
  6
Continuous
 62
     7
100
AcDbLine
 10
193.1969017839
 20
271.6161630259
 30
0.0
 11
192.8898220021
 21
271.3090832441
 31
0.0
  0
LINE
  5
E9
330
1F
100
AcDbEntity
  8
FASEN
  6
Continuous
 62
     7
100
AcDbLine
 10
192.8898220021
 20
321.2890832441
 30
0.0
 11
193.1969017839
 21
320.9820034623
 31
0.0
  0
LINE
  5
EA
330
1F
100
AcDbEntity
  8
RUNDUNGEN
  6
Continuous
 62
     9
100
AcDbLine
 10
196.7981986205
 20
282.2978981414
 30
0.0
 11
196.7981986205
 21
287.3949312572
 31
0.0
  0
LINE
  5
EB
330
1F
100
AcDbEntity
  8
RUNDUNGEN
  6
Continuous
 62
     9
100
AcDbLine
 10
196.7981986205
 20
305.2032352311
 30
0.0
 11
196.7981986205
 21
310.3002683468
 31
0.0
  0
LWPOLYLINE
  5
EC
330
1F
100
AcDbEntity
  8
DEFAULT_2
  6
DASHED
 62
     8
100
AcDbPolyline
 90
        2
 70
     0
 43
0.35
 10
197.8898220021
 20
316.2990832441
 10
197.8898220021
 20
276.2990832441
  0
LINE
  5
ED
330
1F
100
AcDbEntity
  8
0
  6
Continuous
 62
     9
100
AcDbLine
 10
206.2710198486
 20
271.6161630259
 30
0.0
 11
206.2710198486
 21
280.5203150129
 31
0.0
  0
LINE
  5
EE
330
1F
100
AcDbEntity
  8
0
  6
Continuous
 62
     9
100
AcDbLine
 10
206.2710198486
 20
287.3949312572
 30
0.0
 11
206.2710198486
 21
305.2032352311
 31
0.0
  0
LINE
  5
EF
330
1F
100
AcDbEntity
  8
0
  6
Continuous
 62
     9
100
AcDbLine
 10
206.2710198486
 20
312.0778514754
 30
0.0
 11
206.2710198486
 21
320.9820034623
 31
0.0
  0
LINE
  5
F0
330
1F
100
AcDbEntity
  8
0
  6
Continuous
 62
     9
100
AcDbLine
 10
207.3535516034
 20
272.2248470363
 30
0.0
 11
207.3535516034
 21
280.9560867383
 31
0.0
  0
LINE
  5
F1
330
1F
100
AcDbEntity
  8
0
  6
Continuous
 62
     9
100
AcDbLine
 10
207.3535516034
 20
287.5678435422
 30
0.0
 11
207.3535516034
 21
305.0303229461
 31
0.0
  0
LINE
  5
F2
330
1F
100
AcDbEntity
  8
0
  6
Continuous
 62
     9
100
AcDbLine
 10
207.3535516034
 20
311.64207975
 30
0.0
 11
207.3535516034
 21
320.3733194519
 31
0.0
  0
LINE
  5
F3
330
1F
100
AcDbEntity
  8
BEZUGSACHSEN
  6
Continuous
 62
     7
100
AcDbLine
 10
210.8898220021
 20
314.5490832441
 30
0.0
 11
210.8898220021
 21
278.0490832441
 31
0.0
  0
LINE
  5
F4
330
1F
100
AcDbEntity
  8
0
  6
Continuous
 62
     7
100
AcDbLine
 10
210.8898220021
 20
278.0490832441
 30
0.0
 11
208.6092884388
 21
274.0990832441
 31
0.0
  0
LINE
  5
F5
330
1F
100
AcDbEntity
  8
BEZUGSACHSEN
  6
Continuous
 62
     7
100
AcDbLine
 10
208.6092884388
 20
274.0990832441
 30
0.0
 11
210.8898220021
 21
278.0490832441
 31
0.0
  0
LINE
  5
F6
330
1F
100
AcDbEntity
  8
BEZUGSACHSEN
  6
Continuous
 62
     7
100
AcDbLine
 10
208.6092884388
 20
318.4990832441
 30
0.0
 11
210.8898220021
 21
314.5490832441
 31
0.0
  0
LINE
  5
F7
330
1F
100
AcDbEntity
  8
0
  6
Continuous
 62
     7
100
AcDbLine
 10
210.8898220021
 20
314.5490832441
 30
0.0
 11
208.6092884388
 21
318.4990832441
 31
0.0
  0
LINE
  5
F8
330
1F
100
AcDbEntity
  8
0
  6
Continuous
 62
     7
100
AcDbLine
 10
207.3535516034
 20
272.2248470363
 30
0.0
 11
208.4641793797
 21
274.0990832441
 31
0.0
  0
LINE
  5
F9
330
1F
100
AcDbEntity
  8
0
  6
Continuous
 62
     7
100
AcDbLine
 10
207.3535516034
 20
287.5678435422
 30
0.0
 11
208.464179379648
 21
288.100268346798
 31
0.0
  0
LINE
  5
FA
330
1F
100
AcDbEntity
  8
0
  6
Continuous
 62
     7
100
AcDbLine
 10
208.464179379648
 20
304.497898141402
 30
0.0
 11
207.3535516034
 21
305.0303229461
 31
0.0
  0
LINE
  5
FB
330
1F
100
AcDbEntity
  8
0
  6
Continuous
 62
     7
100
AcDbLine
 10
208.4641793797
 20
318.4990832441
 30
0.0
 11
207.3535516034
 21
320.3733194519
 31
0.0
  0
LINE
  5
FC
330
1F
100
AcDbEntity
  8
0
  6
Continuous
 62
     7
100
AcDbLine
 10
208.4641793797
 20
282.2978981414
 30
0.0
 11
207.3535516034
 21
280.9560867383
 31
0.0
  0
LINE
  5
FD
330
1F
100
AcDbEntity
  8
0
  6
Continuous
 62
     7
100
AcDbLine
 10
207.3535516034
 20
311.64207975
 30
0.0
 11
208.4641793797
 21
310.3002683468
 31
0.0
  0
LWPOLYLINE
  5
FE
330
1F
100
AcDbEntity
  8
RUNDUNGEN
  6
DASHED
 62
     8
100
AcDbPolyline
 90
        2
 70
     0
 43
0.35
 10
197.8898220021
 20
316.2990832441
 10
188.3898220021
 20
316.2990832441
  0
ARC
  5
FF
330
1F
100
AcDbEntity
  8
FASEN
  6
Continuous
 62
     7
100
AcDbCircle
 10
128.6427035025
 20
272.1326164162
 30
0.0
 40
19.3021462116996
100
AcDbArc
 50
228.5120350854994
 51
229.9916611024862
  0
ARC
  5
100
330
1F
100
AcDbEntity
  8
FASEN
  6
Continuous
 62
     7
100
AcDbCircle
 10
123.8228882575
 20
256.9490832441
 30
0.0
 40
8.0
100
AcDbArc
 50
90.0
 51
174.8048049323969
  0
ARC
  5
101
330
1F
100
AcDbEntity
  8
FASEN
  6
Continuous
 62
     7
100
AcDbCircle
 10
123.8228882575
 20
256.9490832441
 30
0.0
 40
7.599980211800016
100
AcDbArc
 50
90.0
 51
176.9903069153986
  0
ARC
  5
102
330
1F
100
AcDbEntity
  8
BEZUGSACHSEN
  6
Continuous
 62
     7
100
AcDbCircle
 10
68.8898220021
 20
288.2890832441
 30
0.0
 40
2.0
100
AcDbArc
 50
270.0
 51
355.2355361864933
  0
ARC
  5
103
330
1F
100
AcDbEntity
  8
BEZUGSACHSEN
  6
Continuous
 62
     7
100
AcDbCircle
 10
62.8898220021
 20
262.698891681
 30
0.0
 40
2.0
100
AcDbArc
 50
179.9999999942711
 51
267.1318795135587
  0
ARC
  5
104
330
1F
100
AcDbEntity
  8
BEZUGSACHSEN
  6
Continuous
 62
     7
100
AcDbCircle
 10
130.0148220021
 20
249.2990832441
 30
0.0
 40
1.0
100
AcDbArc
 50
90.0
 51
180.0
  0
ARC
  5
105
330
1F
100
AcDbEntity
  8
BEZUGSACHSEN
  6
Continuous
 62
     7
100
AcDbCircle
 10
109.2678846612
 20
257.6168332441
 30
0.0
 40
1.0
100
AcDbArc
 50
90.0
 51
104.9999999996981
  0
ARC
  5
106
330
1F
100
AcDbEntity
  8
BEZUGSACHSEN
  6
Continuous
 62
     7
100
AcDbCircle
 10
110.1892507135
 20
257.6168332441
 30
0.0
 40
1.000000000000426
100
AcDbArc
 50
45.52164291268396
 51
90.0
  0
ARC
  5
107
330
1F
100
AcDbEntity
  8
0
  6
Continuous
 62
     7
100
AcDbCircle
 10
-116.3019667571
 20
367.1166578767
 30
0.0
 40
267.5030866016955
100
AcDbArc
 50
335.7734949144669
 51
336.5002085551001
  0
ARC
  5
108
330
1F
100
AcDbEntity
  8
BEZUGSACHSEN
  6
Continuous
 62
     7
100
AcDbCircle
 10
117.9050300133
 20
396.3518530109
 30
0.0
 40
50.30340021036245
100
AcDbArc
 50
264.2781515100766
 51
269.9826780126002
  0
ARC
  5
109
330
1F
100
AcDbEntity
  8
BEZUGSACHSEN
  6
Continuous
 62
     7
100
AcDbCircle
 10
117.8746140011
 20
396.3518528102
 30
0.0
 40
50.30340000969741
100
AcDbArc
 50
270.0173219760583
 51
275.7218485011545
  0
ARC
  5
10A
330
1F
100
AcDbEntity
  8
0
  6
Continuous
 62
     7
100
AcDbCircle
 10
125.8608220021
 20
296.2990832441
 30
0.0
 40
10.02099999999996
100
AcDbArc
 50
90.0
 51
270.0
  0
ARC
  5
10B
330
1F
100
AcDbEntity
  8
FASEN
  6
Continuous
 62
     7
100
AcDbCircle
 10
125.8608220021
 20
296.2990832441
 30
0.0
 40
9.620999207599993
100
AcDbArc
 50
90.0
 51
270.0
  0
ARC
  5
10C
330
1F
100
AcDbEntity
  8
BEZUGSACHSEN
  6
Continuous
 62
     7
100
AcDbCircle
 10
68.8898220021
 20
304.3090832441
 30
0.0
 40
1.999999999999977
100
AcDbArc
 50
4.76446378498881
 51
90.0
  0
ARC
  5
10D
330
1F
100
AcDbEntity
  8
BEZUGSACHSEN
  6
Continuous
 62
     7
100
AcDbCircle
 10
62.8898220021
 20
329.8992748072
 30
0.0
 40
1.999999999947484
100
AcDbArc
 50
92.86812048644138
 51
180.0000000143238
  0
ARC
  5
10E
330
1F
100
AcDbEntity
  8
BEZUGSACHSEN
  6
Continuous
 62
     7
100
AcDbCircle
 10
130.0148220021
 20
343.2990832441
 30
0.0
 40
1.0
100
AcDbArc
 50
180.0
 51
270.0
  0
ARC
  5
10F
330
1F
100
AcDbEntity
  8
BEZUGSACHSEN
  6
Continuous
 62
     7
100
AcDbCircle
 10
109.2678846612
 20
334.9813332441
 30
0.0
 40
1.000000000009859
100
AcDbArc
 50
255.000000000301
 51
270.0
  0
ARC
  5
110
330
1F
100
AcDbEntity
  8
BEZUGSACHSEN
  6
Continuous
 62
     7
100
AcDbCircle
 10
110.1892507135
 20
334.9813332441
 30
0.0
 40
1.0
100
AcDbArc
 50
270.0
 51
314.4783570873183
  0
ARC
  5
111
330
1F
100
AcDbEntity
  8
BEZUGSACHSEN
  6
Continuous
 62
     7
100
AcDbCircle
 10
247.2198686046
 20
-1309.7436760836
 30
0.0
 40
1632.1727637359
100
AcDbArc
 50
96.2726189838
 51
96.48809068979999
  0
ARC
  5
112
330
1F
100
AcDbEntity
  8
0
  6
Continuous
 62
     7
100
AcDbCircle
 10
179.5319582849
 20
285.1990832441
 30
0.0
 40
29.0773157715515
100
AcDbArc
 50
354.273793947906
 51
5.72620605210038
  0
ARC
  5
113
330
1F
100
AcDbEntity
  8
RUNDUNGEN
  6
Continuous
 62
     7
100
AcDbCircle
 10
149.8898220021
 20
262.2990832441
 30
0.0
 40
10.0
100
AcDbArc
 50
90.0
 51
180.0
  0
ARC
  5
114
330
1F
100
AcDbEntity
  8
RUNDUNGEN
  6
Continuous
 62
     7
100
AcDbCircle
 10
174.147181315
 20
275.2990832441
 30
0.0
 40
3.0
100
AcDbArc
 50
270.0
 51
315.0000000013499
  0
ARC
  5
115
330
1F
100
AcDbEntity
  8
RUNDUNGEN
  6
Continuous
 62
     7
100
AcDbCircle
 10
189.6398220021
 20
272.5490832441
 30
0.0
 40
1.25
100
AcDbArc
 50
180.0
 51
270.0
  0
ARC
  5
116
330
1F
100
AcDbEntity
  8
RUNDUNGEN
  6
Continuous
 62
     7
100
AcDbCircle
 10
179.8040355645
 20
275.2990832441
 30
0.0
 40
1.0
100
AcDbArc
 50
90.0
 51
135.0000000000011
  0
ARC
  5
117
330
1F
100
AcDbEntity
  8
BEZUGSACHSEN
  6
Continuous
 62
     7
100
AcDbCircle
 10
131.7648220021
 20
249.2990832441
 30
0.0
 40
1.0
100
AcDbArc
 50
0.0
 51
90.0
  0
ARC
  5
118
330
1F
100
AcDbEntity
  8
BEZUGSACHSEN
  6
Continuous
 62
     7
100
AcDbCircle
 10
247.2198686056
 20
1902.341842581
 30
0.0
 40
1632.1727637452
100
AcDbArc
 50
263.5119093102
 51
263.7273810162
  0
ARC
  5
119
330
1F
100
AcDbEntity
  8
0
  6
Continuous
 62
     7
100
AcDbCircle
 10
378.0816107621
 20
367.116657877
 30
0.0
 40
267.5030866025002
100
AcDbArc
 50
203.4997914449001
 51
204.2265050855213
  0
ARC
  5
11A
330
1F
100
AcDbEntity
  8
0
  6
Continuous
 62
     7
100
AcDbCircle
 10
179.5319582849
 20
307.3990832441
 30
0.0
 40
29.07731577149955
100
AcDbArc
 50
354.2737939478996
 51
5.72620605209417
  0
ARC
  5
11B
330
1F
100
AcDbEntity
  8
RUNDUNGEN
  6
Continuous
 62
     7
100
AcDbCircle
 10
149.8898220021
 20
330.2990832441
 30
0.0
 40
10.0
100
AcDbArc
 50
180.0
 51
270.0
  0
ARC
  5
11C
330
1F
100
AcDbEntity
  8
RUNDUNGEN
  6
Continuous
 62
     7
100
AcDbCircle
 10
174.147181315
 20
317.2990832441
 30
0.0
 40
3.00000000005704
100
AcDbArc
 50
44.99999999999962
 51
90.0
  0
ARC
  5
11D
330
1F
100
AcDbEntity
  8
RUNDUNGEN
  6
Continuous
 62
     7
100
AcDbCircle
 10
189.6398220021
 20
320.0490832441
 30
0.0
 40
1.25
100
AcDbArc
 50
90.0
 51
180.0
  0
ARC
  5
11E
330
1F
100
AcDbEntity
  8
RUNDUNGEN
  6
Continuous
 62
     7
100
AcDbCircle
 10
179.8040355645
 20
317.2990832441
 30
0.0
 40
1.00000000001904
100
AcDbArc
 50
225.0000000000012
 51
270.0
  0
ARC
  5
11F
330
1F
100
AcDbEntity
  8
BEZUGSACHSEN
  6
Continuous
 62
     7
100
AcDbCircle
 10
131.7648220021
 20
343.2990832441
 30
0.0
 40
1.0
100
AcDbArc
 50
270.0
 51
0.0
  0
CIRCLE
  5
120
330
1F
100
AcDbEntity
  8
BEZUGSACHSEN
  6
Continuous
 62
     7
100
AcDbCircle
 10
95.8898220021
 20
296.2990832441
 30
0.0
 40
6.0
  0
SPLINE
  5
121
330
1F
100
AcDbEntity
  8
0
  6
Continuous
 62
     7
100
AcDbSpline
210
0.0
220
0.0
230
1.0
 70
     8
 71
     3
 72
    15
 73
    11
 74
     9
 42
0.0000000001
 43
0.0000000001
 44
0.00000001
 40
0.0
 40
0.0
 40
0.0
 40
0.0
 40
0.1634444415845779
 40
0.3271678827787349
 40
0.4901731095857935
 40
0.6530895451135245
 40
0.8149311211567888
 40
0.976856642695952
 40
1.137644039580532
 40
1.298133687132308
 40
1.298133687132308
 40
1.298133687132308
 40
1.298133687132308
 10
206.2710198486
 20
271.6161630259
 30
0.0
 10
206.3255367910174
 20
271.6181856458284
 30
0.0
 10
206.4346637362556
 20
271.6222343382969
 30
0.0
 10
206.5955204713165
 20
271.6545209405885
 30
0.0
 10
206.7509046216143
 20
271.7056123137189
 30
0.0
 10
206.8978521341108
 20
271.7762932162644
 30
0.0
 10
207.0342655528577
 20
271.8649745725619
 30
0.0
 10
207.1571751651735
 20
271.9703228200091
 30
0.0
 10
207.2662535268407
 20
272.089784350976
 30
0.0
 10
207.3244702290088
 20
272.1798539657422
 30
0.0
 10
207.3535516034
 20
272.2248470363
 30
0.0
 11
206.2710198486
 21
271.6161630259
 31
0.0
 11
206.4341307987069
 21
271.6265987070038
 31
0.0
 11
206.5948682452928
 21
271.6577248770466
 31
0.0
 11
206.7496225125389
 21
271.708928595032
 31
0.0
 11
206.8964616088363
 21
271.7794980272503
 31
0.0
 11
207.0320870994294
 21
271.8678067020085
 31
0.0
 11
207.1551958556564
 21
271.9729927688899
 31
0.0
 11
207.2627369773914
 21
272.0925230752264
 31
0.0
 11
207.3535516034
 21
272.2248470363
 31
0.0
  0
SPLINE
  5
122
330
1F
100
AcDbEntity
  8
0
  6
Continuous
 62
     7
100
AcDbSpline
210
0.0
220
0.0
230
1.0
 70
     8
 71
     3
 72
    15
 73
    11
 74
     9
 42
0.0000000001
 43
0.0000000001
 44
0.00000001
 40
0.0
 40
0.0
 40
0.0
 40
0.0
 40
0.1604898138874966
 40
0.3212773780826637
 40
0.4832029917915314
 40
0.6450446593642273
 40
0.8079610035009568
 40
0.9709661383053172
 40
1.134689412107189
 40
1.298133687147155
 40
1.298133687147155
 40
1.298133687147155
 40
1.298133687147155
 10
207.3535516034
 20
320.3733194519
 30
0.0
 10
207.3244701967621
 20
320.4183125679225
 30
0.0
 10
207.2662534299201
 20
320.5083822738891
 30
0.0
 10
207.1571749448172
 20
320.6278438871939
 30
0.0
 10
207.0342652115277
 20
320.7331921739689
 30
0.0
 10
206.8978517336646
 20
320.8218734971479
 30
0.0
 10
206.7509042236601
 20
320.8925543324261
 30
0.0
 10
206.5955201698369
 20
320.943645623141
 30
0.0
 10
206.4346635691193
 20
320.9759321630851
 30
0.0
 10
206.3255367353996
 20
320.9799808467607
 30
0.0
 10
206.2710198486
 20
320.9820034623
 30
0.0
 11
207.3535516034
 21
320.3733194519
 31
0.0
 11
207.2627368734789
 21
320.5056435433988
 31
0.0
 11
207.155195614794
 21
320.6251739515814
 31
0.0
 11
207.0320867565059
 21
320.7303600408993
 31
0.0
 11
206.8964611566244
 21
320.8186687155553
 31
0.0
 11
206.7496221168728
 21
320.8892380544477
 31
0.0
 11
206.5948679217693
 21
320.9404416975842
 31
0.0
 11
206.4341306332396
 21
320.971567803356
 31
0.0
 11
206.2710198486
 21
320.9820034623
 31
0.0
  0
SPLINE
  5
123
330
1F
100
AcDbEntity
  8
0
  6
Continuous
 62
     7
100
AcDbSpline
210
0.0
220
0.0
230
1.0
 70
     8
 71
     3
 72
    15
 73
    11
 74
     9
 42
0.0000000001
 43
0.0000000001
 44
0.00000001
 40
0.0
 40
0.0
 40
0.0
 40
0.0
 40
0.162044107931984
 40
0.3241189698722498
 40
0.4759570764469709
 40
0.6277574369010764
 40
0.7600133331498287
 40
0.892366964707976
 40
0.9980122603303505
 40
1.103439792300118
 40
1.103439792300118
 40
1.103439792300118
 40
1.103439792300118
 10
206.2710198486
 20
287.3949312572
 30
0.0
 10
206.3250377500281
 20
287.3954822750121
 30
0.0
 10
206.4330838048273
 20
287.3965844152127
 30
0.0
 10
206.5915358784622
 20
287.4055753015315
 30
0.0
 10
206.7461570621036
 20
287.4197671744224
 30
0.0
 10
206.8901855167234
 20
287.4392709067799
 30
0.0
 10
207.0268427005293
 20
287.4639872948379
 30
0.0
 10
207.1468382476765
 20
287.4929570050958
 30
0.0
 10
207.2567473013848
 20
287.5256653587255
 30
0.0
 10
207.3213057043444
 20
287.5537938210786
 30
0.0
 10
207.3535516034
 20
287.5678435422
 30
0.0
 11
206.2710198486
 21
287.3949312572
 31
0.0
 11
206.4330378623827
 21
287.397839198976
 31
0.0
 11
206.594868245271
 21
287.4067379655862
 31
0.0
 11
206.7460489582188
 21
287.4208518821512
 31
0.0
 11
206.8964616088832
 21
287.4413307481865
 31
0.0
 11
207.0265402358114
 21
287.4652299722125
 31
0.0
 11
207.1551958556454
 21
287.4962978860747
 31
0.0
 11
207.2560672897345
 21
287.5276966483427
 31
0.0
 11
207.3535516034
 21
287.5678435422
 31
0.0
  0
SPLINE
  5
124
330
1F
100
AcDbEntity
  8
0
  6
Continuous
 62
     7
100
AcDbSpline
210
0.0
220
0.0
230
1.0
 70
     8
 71
     3
 72
    15
 73
    11
 74
     9
 42
0.0000000001
 43
0.0000000001
 44
0.00000001
 40
0.0
 40
0.0
 40
0.0
 40
0.0
 40
0.1054276563216926
 40
0.2110730770746221
 40
0.3434268129254514
 40
0.4756828130386613
 40
0.6274831067542401
 40
0.7793211466017588
 40
0.9413958463617904
 40
1.103439792138525
 40
1.103439792138525
 40
1.103439792138525
 40
1.103439792138525
 10
207.3535516034
 20
305.0303229461
 30
0.0
 10
207.3213056657035
 20
305.0443726825447
 30
0.0
 10
207.2567471852229
 20
305.0725011756455
 30
0.0
 10
207.1468380131814
 20
305.105209546886
 30
0.0
 10
207.0268423541063
 20
305.1341792665069
 30
0.0
 10
206.8901851203216
 20
305.1588956435754
 30
0.0
 10
206.7461566732148
 20
305.178399356989
 30
0.0
 10
206.591535586503
 20
305.1925912072149
 30
0.0
 10
206.4330836426346
 20
305.201582076504
 30
0.0
 10
206.3250376959666
 20
305.2026842144268
 30
0.0
 10
206.2710198486
 20
305.2032352311
 30
0.0
 11
207.3535516034
 21
305.0303229461
 31
0.0
 11
207.2560671724524
 21
305.0704698817279
 31
0.0
 11
207.1551956148145
 21
305.1018686681018
 31
0.0
 11
207.0265398891673
 21
305.1329365880815
 31
0.0
 11
206.896461156669
 21
305.1568358122865
 31
0.0
 11
206.7460485695817
 21
305.1773146505798
 31
0.0
 11
206.5948679217858
 21
305.1914285471622
 31
0.0
 11
206.4330377003094
 21
305.2003272953439
 31
0.0
 11
206.2710198486
 21
305.2032352311
 31
0.0
  0
SPLINE
  5
125
330
1F
100
AcDbEntity
  8
0
  6
Continuous
 62
     7
100
AcDbSpline
210
0.0
220
0.0
230
1.0
 70
     8
 71
     3
 72
    13
 73
     9
 74
     7
 42
0.0000000001
 43
0.0000000001
 44
0.00000001
 40
0.0
 40
0.0
 40
0.0
 40
0.0
 40
0.2793577045897189
 40
0.5615026841988098
 40
0.7190048981134296
 40
0.875838737730217
 40
1.038619549096707
 40
1.201394282033979
 40
1.201394282033979
 40
1.201394282033979
 40
1.201394282033979
 10
207.3535516034
 20
280.9560867383
 30
0.0
 10
207.2873518136054
 20
280.889821764396
 30
0.0
 10
207.1542917295184
 20
280.7566306617198
 30
0.0
 10
206.936365623144
 20
280.6485469597217
 30
0.0
 10
206.7485722464486
 20
280.5833913412529
 30
0.0
 10
206.5933354892935
 20
280.5474791464372
 30
0.0
 10
206.433860285016
 20
280.5246049368629
 30
0.0
 10
206.3252993184268
 20
280.5217449697549
 30
0.0
 10
206.2710198486
 20
280.5203150129
 30
0.0
 11
207.3535516034
 21
280.9560867383
 31
0.0
 11
207.1457621466813
 21
280.7693669782579
 31
0.0
 11
206.8964611566245
 21
280.6372503408676
 31
0.0
 11
206.7475309034003
 21
280.585998735404
 31
0.0
 11
206.5948679217935
 21
280.5500700936838
 31
0.0
 11
206.4336247309509
 21
280.5277491179879
 31
0.0
 11
206.2710198486
 21
280.5203150129
 31
0.0
  0
SPLINE
  5
126
330
1F
100
AcDbEntity
  8
0
  6
Continuous
 62
     7
100
AcDbSpline
210
0.0
220
0.0
230
1.0
 70
     8
 71
     3
 72
    13
 73
     9
 74
     7
 42
0.0000000001
 43
0.0000000001
 44
0.00000001
 40
0.0
 40
0.0
 40
0.0
 40
0.0
 40
0.162774897141952
 40
0.3255558731621211
 40
0.482389792115655
 40
0.6398920845810352
 40
0.9220368188958099
 40
1.20139428448421
 40
1.20139428448421
 40
1.20139428448421
 40
1.20139428448421
 10
206.2710198486
 20
312.0778514754
 30
0.0
 10
206.3252993732212
 20
312.0764215155066
 30
0.0
 10
206.4338604495493
 20
312.0735615423177
 30
0.0
 10
206.5933357860026
 20
312.0506872888261
 30
0.0
 10
206.7485726404367
 20
312.0147750361263
 30
0.0
 10
206.936365971884
 20
311.9496193734888
 30
0.0
 10
207.1542919183376
 20
311.8415356692715
 30
0.0
 10
207.2873518760288
 20
311.7083446719495
 30
0.0
 10
207.3535516034
 20
311.64207975
 30
0.0
 11
206.2710198486
 21
312.0778514754
 31
0.0
 11
206.4336248946125
 21
312.0704173546832
 31
0.0
 11
206.594868245272
 21
312.0480963327043
 31
0.0
 11
206.7475312961663
 21
312.012167639074
 31
0.0
 11
206.8964616088932
 21
311.9609159651216
 31
0.0
 11
207.1457623460118
 21
311.8287993742874
 31
0.0
 11
207.3535516034
 21
311.64207975
 31
0.0
  0
SPLINE
  5
127
330
1F
100
AcDbEntity
  8
BEZUGSACHSEN
  6
Continuous
 62
     7
100
AcDbSpline
210
0.0
220
0.0
230
1.0
 70
     8
 71
     3
 72
    15
 73
    11
 74
     9
 42
0.0000000001
 43
0.0000000001
 44
0.00000001
 40
0.0
 40
0.0
 40
0.0
 40
0.0
 40
0.1110944831338459
 40
0.2222295181492092
 40
0.3333620401930442
 40
0.4444752610113262
 40
0.5555842177991315
 40
0.6667300353916228
 40
0.7779450181843497
 40
0.8889820871359043
 40
0.8889820871359043
 40
0.8889820871359043
 40
0.8889820871359043
 10
62.0356646777
 20
311.5414192396
 30
0.0
 10
62.06105003727699
 20
311.5683956052746
 30
0.0
 10
62.11183002263449
 20
311.622358183579
 30
0.0
 10
62.19408279189718
 20
311.6972401469699
 30
0.0
 10
62.28107944385295
 20
311.7665268558687
 30
0.0
 10
62.37338428427717
 20
311.8286220189423
 30
0.0
 10
62.47083430625225
 20
311.8824015110735
 30
0.0
 10
62.57324722011995
 20
311.9259917566841
 30
0.0
 10
62.67976371869294
 20
311.9590103125295
 30
0.0
 10
62.75310582140015
 20
311.9700834791509
 30
0.0
 10
62.7897475174
 20
311.9756156304
 30
0.0
 11
62.0356646777
 21
311.5414192396
 31
0.0
 11
62.11283345481441
 21
311.6213377232032
 31
0.0
 11
62.19487335507827
 21
311.6963073888858
 31
0.0
 11
62.28197050368935
 21
311.7653329215505
 31
0.0
 11
62.37424232526192
 21
311.8272365465194
 31
0.0
 11
62.47164523332717
 21
311.8806956316117
 31
0.0
 11
62.57391345671601
 21
311.9242226720946
 31
0.0
 11
62.68040532484046
 21
311.9562890785186
 31
0.0
 11
62.7897475174
 21
311.9756156304
 31
0.0
  0
SPLINE
  5
128
330
1F
100
AcDbEntity
  8
BEZUGSACHSEN
  6
Continuous
 62
     7
100
AcDbSpline
210
0.0
220
0.0
230
1.0
 70
     8
 71
     3
 72
    47
 73
    43
 74
    41
 42
0.0000000001
 43
0.0000000001
 44
0.00000001
 40
0.0
 40
0.0
 40
0.0
 40
0.0
 40
0.6366022431434499
 40
1.273595002081914
 40
1.592921746297437
 40
1.912076344785713
 40
2.231392290335358
 40
2.550826842660383
 40
3.18977432109961
 40
3.829081696930837
 40
4.468337152429573
 40
5.10722174468621
 40
5.42617634117299
 40
5.745033356719173
 40
6.063356731498002
 40
6.381780214811057
 40
7.017059195604127
 40
7.65263934092026
 40
8.287532214159878
 40
8.922347946421816
 40
9.559226748506166
 40
10.19613435930491
 40
10.83451785496737
 40
11.47287689967787
 40
12.11234487359693
 40
12.7518958894289
 40
13.3935430051271
 40
14.03487957348987
 40
14.35615205766506
 40
14.67732107708306
 40
14.99840882469253
 40
15.31959604118427
 40
15.96011121023718
 40
16.60099592084688
 40
17.23809108071033
 40
17.87482555190555
 40
18.19205670322973
 40
18.50917199090783
 40
18.82571084619552
 40
19.14241581819104
 40
19.77338974989858
 40
20.40398930737082
 40
20.40398930737082
 40
20.40398930737082
 40
20.40398930737082
 10
89.3904064079
 20
296.2990832247
 30
0.0
 10
89.39641205176036
 20
296.511363034384
 30
0.0
 10
89.40842702356923
 20
296.9360528741831
 30
0.0
 10
89.48969236882799
 20
297.4621956352579
 30
0.0
 10
89.58241196539659
 20
297.877170011368
 30
0.0
 10
89.6677049295139
 20
298.1849939870692
 30
0.0
 10
89.76794354294213
 20
298.4882866638646
 30
0.0
 10
89.92142909209747
 20
298.8857240264209
 30
0.0
 10
90.14990103890314
 20
299.3678236033003
 30
0.0
 10
90.47951599948695
 20
299.9166394761208
 30
0.0
 10
90.86174321655291
 20
300.4301750154721
 30
0.0
 10
91.22059791365217
 20
300.8246777775639
 30
0.0
 10
91.52955126720975
 20
301.1175510756077
 30
0.0
 10
91.77144637618368
 20
301.3252728967215
 30
0.0
 10
92.02308962966919
 20
301.5207822938541
 30
0.0
 10
92.37038373682599
 20
301.7642774965288
 30
0.0
 10
92.82612407158645
 20
302.0361595665736
 30
0.0
 10
93.40160349627622
 20
302.3074886790893
 30
0.0
 10
94.0007142614389
 20
302.521272309903
 30
0.0
 10
94.61816466390172
 20
302.6759620412751
 30
0.0
 10
95.24843522560118
 20
302.7697690249264
 30
0.0
 10
95.88602916033156
 20
302.8018957497323
 30
0.0
 10
96.52420780456424
 20
302.771466176783
 30
0.0
 10
97.1572202257574
 20
302.6787949216188
 30
0.0
 10
97.77845391019058
 20
302.5243029603924
 30
0.0
 10
98.38258966215449
 20
302.3092658278536
 30
0.0
 10
98.96306873571082
 20
302.0353424621136
 30
0.0
 10
99.4226977599262
 20
301.76017558405
 30
0.0
 10
99.77259674860993
 20
301.5135658852022
 30
0.0
 10
100.0257283777822
 20
301.3156616928356
 30
0.0
 10
100.268727017148
 20
301.1054831634322
 30
0.0
 10
100.5779713606547
 20
300.8099638232755
 30
0.0
 10
100.9362915514461
 20
300.4124928405159
 30
0.0
 10
101.3162419697722
 20
299.8968260789821
 30
0.0
 10
101.6427149993502
 20
299.3472299225392
 30
0.0
 10
101.8680861393145
 20
298.8661243808534
 30
0.0
 10
102.0191771224643
 20
298.4701341932449
 30
0.0
 10
102.1175900400133
 20
298.1687078424516
 30
0.0
 10
102.2012568181834
 20
297.8630124745126
 30
0.0
 10
102.2920761756239
 20
297.4514604567686
 30
0.0
 10
102.371591151299
 20
296.9300352402266
 30
0.0
 10
102.3833634359153
 20
296.5093589510567
 30
0.0
 10
102.3892478315
 20
296.2990832247
 30
0.0
 11
89.3904064079
 21
296.2990832247
 31
0.0
 11
89.42165507888421
 21
296.9349180590218
 31
0.0
 11
89.51509628126902
 21
297.5650200480973
 31
0.0
 11
89.58503678828454
 21
297.8765933060154
 31
0.0
 11
89.67017812723651
 21
298.1841816837829
 31
0.0
 11
89.77040266536433
 21
298.4873610284608
 31
0.0
 11
89.88548255512066
 21
298.7853460149832
 31
0.0
 11
90.15907844939663
 21
299.3627532948466
 31
0.0
 11
90.48829796309644
 21
299.9107755869036
 31
0.0
 11
90.86992221842215
 21
300.4236210462108
 31
0.0
 11
91.29985685451929
 21
300.8961987973872
 31
0.0
 11
91.53132911557458
 21
301.1156358657736
 31
0.0
 11
91.77323151660102
 21
301.3233689270341
 31
0.0
 11
92.02460532375552
 21
301.5186660852501
 31
0.0
 11
92.28533460204743
 21
301.7014603908687
 31
0.0
 11
92.83086824625725
 21
302.0269944543285
 31
0.0
 11
93.40577806637597
 21
302.2979941219503
 31
0.0
 11
94.00372425412286
 21
302.5114169816665
 31
0.0
 11
94.61951678634632
 21
302.6656589058799
 31
0.0
 11
95.24944906832398
 21
302.7594668408685
 31
0.0
 11
95.88555219006165
 21
302.7914687659507
 31
0.0
 11
96.52321314908036
 21
302.7611044961992
 31
0.0
 11
97.15483068199093
 21
302.6685757866887
 31
0.0
 11
97.77540355411332
 21
302.5142754300659
 31
0.0
 11
98.3779043612497
 21
302.2997567146779
 31
0.0
 11
98.95821155759583
 21
302.0259783755919
 31
0.0
 11
99.50843654563877
 21
301.6964862566384
 31
0.0
 11
99.77104384980903
 21
301.5114094809896
 31
0.0
 11
100.0240643072256
 21
301.3135959648624
 31
0.0
 11
100.2669126086008
 21
301.1035434852672
 31
0.0
 11
100.4991150440095
 21
300.8816352676906
 31
0.0
 11
100.9280311017412
 21
300.4059350498993
 31
0.0
 11
101.3081417603967
 21
299.8899417365029
 31
0.0
 11
101.6335809060827
 21
299.3422377971555
 31
0.0
 11
101.9036617641783
 21
298.7656208385959
 31
0.0
 11
102.0167522093567
 21
298.4692323189467
 31
0.0
 11
102.115196312695
 21
298.1677843728647
 31
0.0
 11
102.1986791180706
 21
297.8624526383308
 31
0.0
 11
102.2672285415147
 21
297.5532552647453
 31
0.0
 11
102.3586556194392
 21
296.928940286616
 31
0.0
 11
102.3892478315
 21
296.2990832247
 31
0.0
  0
SPLINE
  5
129
330
1F
100
AcDbEntity
  8
BEZUGSACHSEN
  6
Continuous
 62
     7
100
AcDbSpline
210
0.0
220
0.0
230
1.0
 70
     8
 71
     3
 72
    27
 73
    23
 74
    21
 42
0.0000000001
 43
0.0000000001
 44
0.00000001
 40
0.0
 40
0.0
 40
0.0
 40
0.0
 40
0.1260969825534952
 40
0.2522464959256713
 40
0.3668867952605573
 40
0.4815825894063572
 40
0.5839596006984834
 40
0.6859489161467817
 40
0.733456841052236
 40
0.7809568848812747
 40
0.8274002264241407
 40
0.8738421606993955
 40
0.9204907318809021
 40
0.9671431399151685
 40
1.01511140181205
 40
1.063087497132813
 40
1.16550041873375
 40
1.268190478934031
 40
1.380949153858133
 40
1.493646517729475
 40
1.615655563681816
 40
1.737631867530604
 40
1.737631867530604
 40
1.737631867530604
 40
1.737631867530604
 10
60.8898220021
 20
310.9333157303
 30
0.0
 10
60.89055054358388
 20
310.9753586583614
 30
0.0
 10
60.89200793005519
 20
311.0594620291731
 30
0.0
 10
60.90545249206409
 20
311.1812093567325
 30
0.0
 10
60.92840792536565
 20
311.2976270731097
 30
0.0
 10
60.96237382570184
 20
311.4032025309041
 30
0.0
 10
61.00859958454943
 20
311.4993605931672
 30
0.0
 10
61.05714275310046
 20
311.5685299588374
 30
0.0
 10
61.10258207866887
 20
311.6160674404308
 30
0.0
 10
61.13848815676369
 20
311.6467627238883
 30
0.0
 10
61.17713558785448
 20
311.6732977595898
 30
0.0
 10
61.218090075058
 20
311.6955261054837
 30
0.0
 10
61.26122970123338
 20
311.7133193223614
 30
0.0
 10
61.30641033584676
 20
311.7268527294222
 30
0.0
 10
61.35311755883642
 20
311.7360498547561
 30
0.0
 10
61.41894155003985
 20
311.7430051751367
 30
0.0
 10
61.50366930203687
 20
311.741139918503
 30
0.0
 10
61.60850090552582
 20
311.7242252575619
 30
0.0
 10
61.71408014786942
 20
311.6948106247037
 30
0.0
 10
61.82223808595904
 20
311.6530589872559
 30
0.0
 10
61.92989034722378
 20
311.6022631601373
 30
0.0
 10
62.00040972203759
 20
311.5616987319041
 30
0.0
 10
62.0356646777
 20
311.5414192396
 30
0.0
 11
60.8898220021
 21
310.9333157303
 31
0.0
 11
60.89395336169397
 21
311.0593450160911
 31
0.0
 11
60.907720120863
 21
311.184741092848
 31
0.0
 11
60.93057169696495
 21
311.2970807728424
 31
0.0
 11
60.96620988633866
 21
311.4060993247173
 31
0.0
 11
61.0111096511388
 21
311.498105104764
 31
0.0
 11
61.07028208009294
 21
311.581174016622
 31
0.0
 11
61.10313458025447
 21
311.6154918860483
 31
0.0
 11
61.13927167518128
 21
311.6463198690185
 31
0.0
 11
61.17755894004272
 21
311.6726080664291
 31
0.0
 11
61.21838154797998
 21
311.6947523194178
 31
0.0
 11
61.26148769159803
 21
311.7125834600334
 31
0.0
 11
61.30616726364237
 21
311.7260066868188
 31
0.0
 11
61.35321806939751
 21
311.7353434864418
 31
0.0
 11
61.40092195667159
 21
311.740446903059
 31
0.0
 11
61.50332159752932
 21
311.738797641695
 31
0.0
 11
61.60478584783003
 21
311.7229782114002
 31
0.0
 11
61.71350956426722
 21
311.693083859848
 31
0.0
 11
61.81882755656172
 21
311.6529738072102
 31
0.0
 11
61.92912024246712
 21
311.600803597991
 31
0.0
 11
62.0356646777
 21
311.5414192396
 31
0.0
  0
SPLINE
  5
12A
330
1F
100
AcDbEntity
  8
BEZUGSACHSEN
  6
Continuous
 62
     7
100
AcDbSpline
210
0.0
220
0.0
230
1.0
 70
     8
 71
     3
 72
    47
 73
    43
 74
    41
 42
0.0000000001
 43
0.0000000001
 44
0.00000001
 40
0.0
 40
0.0
 40
0.0
 40
0.0
 40
0.630239321393353
 40
1.260854867260067
 40
1.577476088335956
 40
1.893930800164062
 40
2.21099911382791
 40
2.528183472189653
 40
3.164887038239978
 40
3.801951183367986
 40
4.442851001570844
 40
5.083381259727232
 40
5.404527292246898
 40
5.725573838696206
 40
6.046670709982639
 40
6.367871027121195
 40
7.009090242517094
 40
7.650619763912387
 40
8.29033034643286
 40
8.929958764415556
 40
9.568647011300303
 40
10.20735923010387
 40
10.84445705811986
 40
11.48152626490075
 40
12.116434622156
 40
12.75141965572248
 40
13.38691908730964
 40
14.02211738525717
 40
14.34050449138455
 40
14.65879153788737
 40
14.97761586866856
 40
15.2965377494495
 40
15.93537694101883
 40
16.57458694066383
 40
17.2138627498899
 40
17.85277859071927
 40
18.17219860081364
 40
18.49150024075674
 40
18.81067156634004
 40
19.13001452418865
 40
19.76719627021883
 40
20.40398968280738
 40
20.40398968280738
 40
20.40398968280738
 40
20.40398968280738
 10
102.38923564
 20
296.2990832628
 30
0.0
 10
102.3833664382286
 20
296.0889272409338
 30
0.0
 10
102.3716245310368
 20
295.668489743527
 30
0.0
 10
102.2921777885292
 20
295.1473263012882
 30
0.0
 10
102.2014462834324
 20
294.7359348338681
 30
0.0
 10
102.1178409011096
 20
294.430296993574
 30
0.0
 10
102.0194889597361
 20
294.1289131473687
 30
0.0
 10
101.8684701488878
 20
293.7329399677534
 30
0.0
 10
101.6431875612848
 20
293.2518331590657
 30
0.0
 10
101.316809526529
 20
292.7021989340809
 30
0.0
 10
100.9369424644985
 20
292.1864710714334
 30
0.0
 10
100.5786880252231
 20
291.788945669234
 30
0.0
 10
100.2695072875555
 20
291.4933923142974
 30
0.0
 10
100.0265823315247
 20
291.2832074058535
 30
0.0
 10
99.77353342820135
 20
291.0852979415131
 30
0.0
 10
99.42375091974456
 20
290.8386745900167
 30
0.0
 10
98.96426568199352
 20
290.5634679807223
 30
0.0
 10
98.3838699750326
 20
290.2894278740197
 30
0.0
 10
97.77971566719785
 20
290.0742393966986
 30
0.0
 10
97.1583005197906
 20
289.9195775576956
 30
0.0
 10
96.52503130835007
 20
289.8267671846773
 30
0.0
 10
95.88657184391144
 20
289.7962564348568
 30
0.0
 10
95.24873883035715
 20
289.8283581772008
 30
0.0
 10
94.61830884336129
 20
289.92217123954
 30
0.0
 10
94.00073517386349
 20
290.0768850558173
 30
0.0
 10
93.40159176243188
 20
290.2906816278904
 30
0.0
 10
92.82613454096591
 20
290.5620029963468
 30
0.0
 10
92.37044914801054
 20
290.8338478799956
 30
0.0
 10
92.02319325025785
 20
291.0773084325887
 30
0.0
 10
91.77157366895129
 20
291.2727909589195
 30
0.0
 10
91.52969861868007
 20
291.4804840176339
 30
0.0
 10
91.22076233500484
 20
291.7733215657914
 30
0.0
 10
90.86191957811377
 20
292.1677792147318
 30
0.0
 10
90.47969267286429
 20
292.6812638806699
 30
0.0
 10
90.15006822760068
 20
293.2300316593731
 30
0.0
 10
89.92158078168046
 20
293.7120950758629
 30
0.0
 10
89.76807928172087
 20
294.1095046350384
 30
0.0
 10
89.66782247880697
 20
294.4127869983303
 30
0.0
 10
89.58250598590921
 20
294.7206108700362
 30
0.0
 10
89.48974353057993
 20
295.1356517371468
 30
0.0
 10
89.40845116365169
 20
295.6619245362346
 30
0.0
 10
89.39641136409227
 20
296.0867401859507
 30
0.0
 10
89.3903932993
 20
296.2990832646
 30
0.0
 11
102.38923564
 21
296.2990832628
 31
0.0
 11
102.3586960612232
 21
295.6695843062016
 31
0.0
 11
102.2673647857076
 21
295.0456175083658
 31
0.0
 11
102.1988700470022
 21
294.7364937978464
 31
0.0
 11
102.1154512221412
 21
294.4312318049665
 31
0.0
 11
102.0170644782912
 21
294.1298145457324
 31
0.0
 11
101.9040338471871
 21
293.8334532904685
 31
0.0
 11
101.6340537106747
 21
293.2568232904599
 31
0.0
 11
101.3087170888214
 21
292.7090945186314
 31
0.0
 11
100.9286805940294
 21
292.1930278179049
 31
0.0
 11
100.4998300963687
 21
291.7172481816551
 31
0.0
 11
100.2676929619987
 21
291.4953312488861
 31
0.0
 11
100.0249104686624
 21
291.2852656736092
 31
0.0
 11
99.77198086036402
 21
291.0874531007125
 31
0.0
 11
99.5094664645297
 21
290.9023697797199
 31
0.0
 11
98.95940828293087
 21
290.5728275532161
 31
0.0
 11
98.37926745127987
 21
290.2989722222967
 31
0.0
 11
97.77666214098834
 21
290.0842713387468
 31
0.0
 11
97.15596287066704
 21
289.9298144550748
 31
0.0
 11
96.52403405674464
 21
289.8371394808728
 31
0.0
 11
95.88604792956347
 21
289.8066928066152
 31
0.0
 11
95.2497529414386
 21
289.8386667108163
 31
0.0
 11
94.61962966733093
 21
289.9324847989244
 31
0.0
 11
94.00374575908948
 21
290.0867431331621
 31
0.0
 11
93.40571328927052
 21
290.3001984162911
 31
0.0
 11
92.83087754072382
 21
290.5711659230892
 31
0.0
 11
92.28541085318243
 21
290.8966547408664
 31
0.0
 11
92.0247085604055
 21
291.0794241690787
 31
0.0
 11
91.7733593085972
 21
291.2746937201789
 31
0.0
 11
91.53147601024762
 21
291.4823988570379
 31
0.0
 11
91.30002017894743
 21
291.7018057033258
 31
0.0
 11
90.8700971480672
 21
292.1743326339908
 31
0.0
 11
90.48847600860941
 21
292.6871237508845
 31
0.0
 11
90.15924453443036
 21
293.2351020320887
 31
0.0
 11
89.88563022728633
 21
293.8124655766504
 31
0.0
 11
89.77053797482793
 21
294.1104301991691
 31
0.0
 11
89.67029828641199
 21
294.4135894677667
 31
0.0
 11
89.58513120621893
 21
294.7211880755756
 31
0.0
 11
89.51516817876416
 21
295.032772894713
 31
0.0
 11
89.42167928180025
 21
295.6630588644272
 31
0.0
 11
89.3903932993
 21
296.2990832646
 31
0.0
  0
SPLINE
  5
12B
330
1F
100
AcDbEntity
  8
0
  6
Continuous
 62
     7
100
AcDbSpline
210
0.0
220
0.0
230
1.0
 70
     8
 71
     3
 72
    19
 73
    15
 74
    13
 42
0.0000000001
 43
0.0000000001
 44
0.00000001
 40
0.0
 40
0.0
 40
0.0
 40
0.0
 40
0.1159638160002289
 40
0.2322191967901719
 40
0.348335568690392
 40
0.4644089767224031
 40
0.5804847760631333
 40
0.6965670370036895
 40
0.8126291299486845
 40
0.928724117758917
 40
1.160429553127053
 40
1.392722689919243
 40
1.625028291355897
 40
1.856795134116331
 40
1.856795134116331
 40
1.856795134116331
 40
1.856795134116331
 10
130.0148220021
 20
262.6363813324
 30
0.0
 10
129.9761324550277
 20
262.6345579123827
 30
0.0
 10
129.8986560847668
 20
262.6309064877705
 30
0.0
 10
129.7852881227462
 20
262.6027478141976
 30
0.0
 10
129.677268494423
 20
262.5592479609579
 30
0.0
 10
129.5763779726393
 20
262.5010780320018
 30
0.0
 10
129.4836241644288
 20
262.4308460206869
 30
0.0
 10
129.399494637031
 20
262.3505445360319
 30
0.0
 10
129.3241118162284
 20
262.2620169547186
 30
0.0
 10
129.2353260487375
 20
262.1352143041644
 30
0.0
 10
129.1451422817593
 20
261.9630570719955
 30
0.0
 10
129.0700505011351
 20
261.7427967463735
 30
0.0
 10
129.0233846277353
 20
261.5143762090365
 30
0.0
 10
129.0176740007532
 20
261.3595760692306
 30
0.0
 10
129.0148220021
 20
261.2822658559
 30
0.0
 11
130.0148220021
 21
262.6363813324
 31
0.0
 11
129.8992269689958
 21
262.627140393975
 31
0.0
 11
129.7861415788647
 21
262.6001773062156
 31
0.0
 11
129.6784345823032
 21
262.5567928076596
 31
0.0
 11
129.5777330796717
 21
262.4990672204393
 31
0.0
 11
129.4850627532482
 21
262.4291687097745
 31
0.0
 11
129.400948479438
 21
262.3491694582377
 31
0.0
 11
129.325573167116
 21
262.2609143070501
 31
0.0
 11
129.2588473080932
 21
262.1659105916895
 31
0.0
 11
129.1507436614928
 21
261.9609691113327
 31
0.0
 11
129.0747939696686
 21
261.7414429267611
 31
0.0
 11
129.0297103887715
 21
261.5135539994471
 31
0.0
 11
129.0148220021
 21
261.2822658559
 31
0.0
  0
SPLINE
  5
12C
330
1F
100
AcDbEntity
  8
BEZUGSACHSEN
  6
Continuous
 62
     7
100
AcDbSpline
210
0.0
220
0.0
230
1.0
 70
     8
 71
     3
 72
    27
 73
    23
 74
    21
 42
0.0000000001
 43
0.0000000001
 44
0.00000001
 40
0.0
 40
0.0
 40
0.0
 40
0.0
 40
0.1219765139930963
 40
0.2439857715146358
 40
0.3566831398584099
 40
0.4694418149603616
 40
0.5721317672569745
 40
0.6745445880762735
 40
0.7225206521006942
 40
0.7704888797533108
 40
0.8171412935645908
 40
0.8637898733760268
 40
0.9102318000633467
 40
0.9566751324330213
 40
1.004175175773434
 40
1.051683100146127
 40
1.153672388721932
 40
1.256049376655622
 40
1.370745138080734
 40
1.48538540186787
 40
1.611534903905416
 40
1.737631875950364
 40
1.737631875950364
 40
1.737631875950364
 40
1.737631875950364
 10
62.0356646777
 20
281.0567472487
 30
0.0
 10
62.00040966009985
 20
281.0364677234011
 30
0.0
 10
61.92989016099838
 20
280.995903228942
 30
0.0
 10
61.82223775779504
 20
280.9451073680623
 30
0.0
 10
61.71407974192512
 20
280.903355732231
 30
0.0
 10
61.60850052097435
 20
280.8739411471252
 30
0.0
 10
61.50366897584999
 20
280.857026559744
 30
0.0
 10
61.41894130600962
 20
280.8551613364983
 30
0.0
 10
61.35311736959476
 20
280.8621166444732
 30
0.0
 10
61.30641016637442
 20
280.8713137715967
 30
0.0
 10
61.26122954907834
 20
280.88484721658
 30
0.0
 10
61.21808993843561
 20
280.9026404754077
 30
0.0
 10
61.17713546185135
 20
280.9248688331409
 30
0.0
 10
61.13848803536123
 20
280.9514038648574
 30
0.0
 10
61.10258195670888
 20
280.9820991423769
 30
0.0
 10
61.0571426351655
 20
281.0296366154656
 30
0.0
 10
61.0085994951046
 20
281.0988059825584
 30
0.0
 10
60.96237378617658
 20
281.1949640372786
 30
0.0
 10
60.9284079123786
 20
281.3005394702671
 30
0.0
 10
60.9054524881617
 20
281.4169571611725
 30
0.0
 10
60.89200792979757
 20
281.5387044698301
 30
0.0
 10
60.89055054349959
 20
281.6228078333478
 30
0.0
 10
60.8898220021
 20
281.6648507579
 30
0.0
 11
62.0356646777
 21
281.0567472487
 31
0.0
 11
61.92912005363946
 21
280.9973627974547
 31
0.0
 11
61.81882716447079
 21
280.9451925231619
 31
0.0
 11
61.71350915662117
 21
280.9050824988014
 31
0.0
 11
61.60478542809776
 21
280.8751881905352
 31
0.0
 11
61.50332127601104
 21
280.8593688307503
 31
0.0
 11
61.40092173542855
 21
280.8577196016391
 31
0.0
 11
61.35321787919506
 21
280.8628230141964
 31
0.0
 11
61.30616710892468
 21
280.8721598167056
 31
0.0
 11
61.26148754151224
 21
280.8855830789863
 31
0.0
 11
61.21838140493337
 21
280.9034142591959
 31
0.0
 11
61.17755881211778
 21
280.9255585241474
 31
0.0
 11
61.13927155554049
 21
280.9518467174171
 31
0.0
 11
61.1031344585157
 21
280.9826746971752
 31
0.0
 11
61.07028195814669
 21
281.0169925656653
 31
0.0
 11
61.01110956392371
 21
281.1000614692702
 31
0.0
 11
60.96620984034911
 21
281.1920672434439
 31
0.0
 11
60.93057168076903
 21
281.3010857706337
 31
0.0
 11
60.90772011737165
 21
281.4134254169367
 31
0.0
 11
60.89395336103221
 21
281.5388214826015
 31
0.0
 11
60.8898220021
 21
281.6648507579
 31
0.0
  0
SPLINE
  5
12D
330
1F
100
AcDbEntity
  8
0
  6
Continuous
 62
     7
100
AcDbSpline
210
0.0
220
0.0
230
1.0
 70
     8
 71
     3
 72
    19
 73
    15
 74
    13
 42
0.0000000001
 43
0.0000000001
 44
0.00000001
 40
0.0
 40
0.0
 40
0.0
 40
0.0
 40
0.2317668197500619
 40
0.4640724028542709
 40
0.6963664518793824
 40
0.928072790281147
 40
1.04416850119282
 40
1.160231315470827
 40
1.27631391147889
 40
1.392390051202903
 40
1.508462883838466
 40
1.624578659526007
 40
1.740832696851714
 40
1.856795195316465
 40
1.856795195316465
 40
1.856795195316465
 40
1.856795195316465
 10
132.7648220021
 20
261.2822658559
 30
0.0
 10
132.7619700040028
 20
261.3595760615887
 30
0.0
 10
132.7562593780755
 20
261.5143761876715
 30
0.0
 10
132.7095934572911
 20
261.7427970111256
 30
0.0
 10
132.6345014530884
 20
261.9630579012202
 30
0.0
 10
132.5443171307496
 20
262.1352158155825
 30
0.0
 10
132.4555306729508
 20
262.2620189431494
 30
0.0
 10
132.3801472349631
 20
262.3505467830006
 30
0.0
 10
132.2960171200095
 20
262.430848329384
 30
0.0
 10
132.2032630439523
 20
262.5010800452148
 30
0.0
 10
132.1023725824075
 20
262.5592495134279
 30
0.0
 10
131.9943535890825
 20
262.6027487146616
 30
0.0
 10
131.8809865900956
 20
262.6309066788286
 30
0.0
 10
131.8035111089439
 20
262.6345579758968
 30
0.0
 10
131.7648220021
 20
262.6363813324
 30
0.0
 11
132.7648220021
 21
261.2822658559
 31
0.0
 11
132.7499336194778
 21
261.5135539766497
 31
0.0
 11
132.704850054191
 21
261.7414428883642
 31
0.0
 11
132.6289000232595
 21
261.9609699209001
 31
0.0
 11
132.5207957566577
 21
262.1659120951787
 31
0.0
 11
132.4540693041228
 21
262.2609162773192
 31
0.0
 11
132.3786932944442
 21
262.3491717815275
 31
0.0
 11
132.2945785298391
 21
262.42917100322
 31
0.0
 11
132.2019076937871
 21
262.4990694034781
 31
0.0
 11
132.1012065002466
 21
262.556794372907
 31
0.0
 11
131.993499911021
 21
262.600178286987
 31
0.0
 11
131.8804157363133
 21
262.6271406797816
 31
0.0
 11
131.7648220021
 21
262.6363813324
 31
0.0
  0
SPLINE
  5
12E
330
1F
100
AcDbEntity
  8
BEZUGSACHSEN
  6
Continuous
 62
     7
100
AcDbSpline
210
0.0
220
0.0
230
1.0
 70
     8
 71
     3
 72
    15
 73
    11
 74
     9
 42
0.0000000001
 43
0.0000000001
 44
0.00000001
 40
0.0
 40
0.0
 40
0.0
 40
0.0
 40
0.1110371613041602
 40
0.2222522336794208
 40
0.3333980191156831
 40
0.4445069474042172
 40
0.5556201064675523
 40
0.6667525641990533
 40
0.7778876033547317
 40
0.8889820916034009
 40
0.8889820916034009
 40
0.8889820916034009
 40
0.8889820916034009
 10
62.7897475174
 20
280.6225508579
 30
0.0
 10
62.75310579054032
 20
280.6280830107144
 30
0.0
 10
62.67976362702688
 20
280.6391561803237
 30
0.0
 10
62.57324707703171
 20
280.6721747438316
 30
0.0
 10
62.4708341692883
 20
280.7157650312832
 30
0.0
 10
62.37338420367013
 20
280.7695445391068
 30
0.0
 10
62.28107940792411
 20
280.8316396744649
 30
0.0
 10
62.19408277976834
 20
280.9009263481114
 30
0.0
 10
62.11183002428709
 20
280.9758082997395
 30
0.0
 10
62.06105003790213
 20
281.029770881286
 30
0.0
 10
62.0356646777
 20
281.0567472487
 30
0.0
 11
62.7897475174
 21
280.6225508579
 31
0.0
 11
62.68040523235124
 21
280.6418774171075
 31
0.0
 11
62.57391327876314
 21
280.6739438504051
 31
0.0
 11
62.47164509816534
 21
280.7174709093163
 31
0.0
 11
62.37424223172644
 21
280.7709300110195
 31
0.0
 11
62.28197046492107
 21
280.8328336067765
 31
0.0
 11
62.19487336148105
 21
280.9018590928943
 31
0.0
 11
62.11283345697991
 21
280.9768287600776
 31
0.0
 11
62.0356646777
 21
281.0567472487
 31
0.0
  0
SPLINE
  5
12F
330
1F
100
AcDbEntity
  8
BEZUGSACHSEN
  6
Continuous
 62
     7
100
AcDbSpline
210
0.0
220
0.0
230
1.0
 70
     8
 71
     3
 72
    11
 73
     7
 74
     5
 42
0.0000000001
 43
0.0000000001
 44
0.00000001
 40
0.0
 40
0.0
 40
0.0
 40
0.0
 40
0.5462907431276373
 40
1.093000863637143
 40
1.646070107142638
 40
2.198197048714763
 40
2.198197048714763
 40
2.198197048714763
 40
2.198197048714763
 10
70.443667949
 20
311.3090832441
 30
0.0
 10
70.5067387508657
 20
311.1381516148664
 30
0.0
 10
70.63292877289462
 20
310.796157135323
 30
0.0
 10
70.77256608591324
 20
310.2648830061083
 30
0.0
 10
70.87005444993335
 20
309.7214586011578
 30
0.0
 10
70.88323656444777
 20
309.3528739606008
 30
0.0
 10
70.8898220021
 20
309.1687387699
 30
0.0
 11
70.443667949
 21
311.3090832441
 31
0.0
 11
70.62451928162919
 21
310.7935967054657
 31
0.0
 11
70.7650107663275
 21
310.2652463495514
 31
0.0
 11
70.85707741955792
 21
309.7198938768562
 31
0.0
 11
70.8898220021
 21
309.1687387699
 31
0.0
  0
SPLINE
  5
130
330
1F
100
AcDbEntity
  8
BEZUGSACHSEN
  6
Continuous
 62
     7
100
AcDbSpline
210
0.0
220
0.0
230
1.0
 70
     8
 71
     3
 72
    19
 73
    15
 74
    13
 42
0.0000000001
 43
0.0000000001
 44
0.00000001
 40
0.0
 40
0.0
 40
0.0
 40
0.0
 40
0.1462385988632926
 40
0.2927479275636227
 40
0.436479070671713
 40
0.5801659236748808
 40
0.7203799973231013
 40
0.8606059383284591
 40
0.9980411884552741
 40
1.13548402048486
 40
1.405415631129527
 40
1.675815514137699
 40
1.943997429580928
 40
2.211934834809058
 40
2.211934834809058
 40
2.211934834809058
 40
2.211934834809058
 10
68.8898220021
 20
312.6577308315
 30
0.0
 10
68.93853680746675
 20
312.6610389088472
 30
0.0
 10
69.03605660335944
 20
312.6676611877473
 30
0.0
 10
69.18139286369113
 20
312.6513018749901
 30
0.0
 10
69.32204980079948
 20
312.6161301089193
 30
0.0
 10
69.45490193423751
 20
312.5633244222882
 30
0.0
 10
69.57935639730032
 20
312.4956526345422
 30
0.0
 10
69.69415895447489
 20
312.4163524331481
 30
0.0
 10
69.80026889226919
 20
312.3272677935853
 30
0.0
 10
69.92937135745566
 20
312.1993202580374
 30
0.0
 10
70.07241120732436
 20
312.0235179691105
 30
0.0
 10
70.21731880896999
 20
311.7958325031937
 30
0.0
 10
70.34195555739757
 20
311.5571698837098
 30
0.0
 10
70.40977412856711
 20
311.3917536432742
 30
0.0
 10
70.443667949
 20
311.3090832441
 30
0.0
 11
68.8898220021
 21
312.6577308315
 31
0.0
 11
69.03595586400439
 21
312.6632645646349
 31
0.0
 11
69.18166522484854
 21
312.6479751709709
 31
0.0
 11
69.3210953063743
 21
312.6130768348376
 31
0.0
 11
69.45472764328508
 21
312.5602723818272
 31
0.0
 11
69.57804143410405
 21
312.4935363687392
 31
0.0
 11
69.69357254544305
 21
312.4140638776268
 31
0.0
 11
69.79898509523076
 21
312.325878604907
 31
0.0
 11
69.89677359892096
 21
312.2292973405627
 31
0.0
 11
70.06802199477656
 21
312.0206419755655
 31
0.0
 11
70.2143644152721
 21
311.7932656516126
 31
0.0
 11
70.33823204106156
 21
311.5554036095544
 31
0.0
 11
70.443667949
 21
311.3090832441
 31
0.0
  0
SPLINE
  5
131
330
1F
100
AcDbEntity
  8
BEZUGSACHSEN
  6
Continuous
 62
     7
100
AcDbSpline
210
0.0
220
0.0
230
1.0
 70
     8
 71
     3
 72
    11
 73
     7
 74
     5
 42
0.0000000001
 43
0.0000000001
 44
0.00000001
 40
0.0
 40
0.0
 40
0.0
 40
0.0
 40
0.5521269407021517
 40
1.105196183334078
 40
1.651906304699485
 40
2.198197048729098
 40
2.198197048729098
 40
2.198197048729098
 40
2.198197048729098
 10
70.8898220021
 20
283.4294277183
 30
0.0
 10
70.88323656447953
 20
283.2452925278895
 30
0.0
 10
70.87005445002869
 20
282.8767078879147
 30
0.0
 10
70.77256608627249
 20
282.3332834832206
 30
0.0
 10
70.63292877319819
 20
281.8020093537095
 30
0.0
 10
70.50673875096865
 20
281.460014873616
 30
0.0
 10
70.443667949
 20
281.2890832441
 30
0.0
 11
70.8898220021
 21
283.4294277183
 31
0.0
 11
70.8570774196983
 21
282.878272612207
 31
0.0
 11
70.76501076677982
 21
282.3329201403451
 31
0.0
 11
70.62451928192131
 21
281.8045697835877
 31
0.0
 11
70.443667949
 21
281.2890832441
 31
0.0
  0
SPLINE
  5
132
330
1F
100
AcDbEntity
  8
BEZUGSACHSEN
  6
Continuous
 62
     7
100
AcDbSpline
210
0.0
220
0.0
230
1.0
 70
     8
 71
     3
 72
    19
 73
    15
 74
    13
 42
0.0000000001
 43
0.0000000001
 44
0.00000001
 40
0.0
 40
0.0
 40
0.0
 40
0.0
 40
0.2679411643009557
 40
0.5361267936528897
 40
0.8065304773314399
 40
1.076465993182524
 40
1.213913376080435
 40
1.351353104797136
 40
1.491586366984197
 40
1.631807897489995
 40
1.775491562712667
 40
1.919219204693987
 40
2.065713007335386
 40
2.211936409347469
 40
2.211936409347469
 40
2.211936409347469
 40
2.211936409347469
 10
70.443667949
 20
281.2890832441
 30
0.0
 10
70.40977370523532
 20
281.206411664394
 30
0.0
 10
70.34195429316314
 20
281.040993076811
 30
0.0
 10
70.2173157868716
 20
280.802327103157
 30
0.0
 10
70.07240498753839
 20
280.5746391071549
 30
0.0
 10
69.92936135601583
 20
280.3988346158471
 30
0.0
 10
69.80025496911206
 20
280.2708848967371
 30
0.0
 10
69.69413987004825
 20
280.1817978759337
 30
0.0
 10
69.57933044240754
 20
280.102496235594
 30
0.0
 10
69.45487083017773
 20
280.0348257681298
 30
0.0
 10
69.32201727503957
 20
279.982023081434
 30
0.0
 10
69.18136647615756
 20
279.9468568174435
 30
0.0
 10
69.0360410930312
 20
279.930504615561
 30
0.0
 10
68.93853167395628
 20
279.9371273489271
 30
0.0
 10
68.8898220021
 20
279.9404356567
 30
0.0
 11
70.443667949
 21
281.2890832441
 31
0.0
 11
70.33823068936857
 21
281.042759368261
 31
0.0
 11
70.21436117380445
 21
280.8048941229964
 31
0.0
 11
70.06801568749115
 21
280.5775152524242
 31
0.0
 11
69.89676349636267
 21
280.368857950248
 31
0.0
 11
69.79897105768335
 21
280.272274193836
 31
0.0
 11
69.69355406842867
 21
280.1840872480549
 31
0.0
 11
69.57801542471522
 21
280.1046127890604
 31
0.0
 11
69.45469341482186
 21
280.0378762960955
 31
0.0
 11
69.32106272662202
 21
279.9850763451196
 31
0.0
 11
69.18163502541422
 21
279.9501829187269
 31
0.0
 11
69.03594058688356
 21
279.9349000919736
 31
0.0
 11
68.8898220021
 21
279.9404356567
 31
0.0
  0
SPLINE
  5
133
330
1F
100
AcDbEntity
  8
FASEN
  6
Continuous
 62
     7
100
AcDbSpline
210
0.0
220
0.0
230
1.0
 70
     8
 71
     3
 72
     9
 73
     5
 74
     3
 42
0.0000000001
 43
0.0000000001
 44
0.00000001
 40
0.0
 40
0.0
 40
0.0
 40
0.0
 40
3.456369483485263
 40
6.9044312226965
 40
6.9044312226965
 40
6.9044312226965
 40
6.9044312226965
 10
193.1969017839
 20
287.3949312572
 30
0.0
 10
193.0365347137414
 20
286.2477652474972
 30
0.0
 10
192.7161860323909
 20
283.9561905611529
 30
0.0
 10
193.0367917894944
 20
281.6646877801372
 30
0.0
 10
193.1969017839
 20
280.5203150129
 30
0.0
 11
193.1969017839
 21
287.3949312572
 31
0.0
 11
192.8764250286619
 21
283.9534512477099
 31
0.0
 11
193.1969017839
 21
280.5203150129
 31
0.0
  0
SPLINE
  5
134
330
1F
100
AcDbEntity
  8
RUNDUNGEN
  6
Continuous
 62
     7
100
AcDbSpline
210
0.0
220
0.0
230
1.0
 70
     8
 71
     3
 72
    13
 73
     9
 74
     7
 42
0.0000000001
 43
0.0000000001
 44
0.00000001
 40
0.0
 40
0.0
 40
0.0
 40
0.0
 40
0.4663350255889429
 40
0.9326617783386847
 40
1.15762526702787
 40
1.382612551958887
 40
1.702270910732627
 40
2.021668295160986
 40
2.021668295160986
 40
2.021668295160986
 40
2.021668295160986
 10
196.7981986205
 20
282.2978981414
 30
0.0
 10
196.6426591377482
 20
282.2923814892029
 30
0.0
 10
196.3315829315335
 20
282.2813482826746
 30
0.0
 10
195.9513423330121
 20
282.206151198424
 30
0.0
 10
195.6581869889412
 20
282.1199841318774
 30
0.0
 10
195.4177694833304
 20
282.0301424641595
 30
0.0
 10
195.1557999280056
 20
281.9081893974399
 30
0.0
 10
194.9779159690854
 20
281.7905382962932
 30
0.0
 10
194.8890103113
 20
281.7317367686
 30
0.0
 11
196.7981986205
 21
282.2978981414
 31
0.0
 11
196.3327623122545
 21
282.2689602932105
 31
0.0
 11
195.874744233508
 21
282.1813242283088
 31
0.0
 11
195.6590440812692
 21
282.1174335751004
 31
0.0
 11
195.448198620488
 21
282.0389258044748
 31
0.0
 11
195.1596919471458
 21
281.9012836388027
 31
0.0
 11
194.8890103113
 21
281.7317367686
 31
0.0
  0
SPLINE
  5
135
330
1F
100
AcDbEntity
  8
RUNDUNGEN
  6
Continuous
 62
     7
100
AcDbSpline
210
0.0
220
0.0
230
1.0
 70
     8
 71
     3
 72
    13
 73
     9
 74
     7
 42
0.0000000001
 43
0.0000000001
 44
0.00000001
 40
0.0
 40
0.0
 40
0.0
 40
0.0
 40
0.430783767831101
 40
0.8616138580402626
 40
1.090255743226261
 40
1.318890809070247
 40
1.670307948796209
 40
2.021585355891904
 40
2.021585355891904
 40
2.021585355891904
 40
2.021585355891904
 10
194.8890103113
 20
310.8664297196
 30
0.0
 10
195.0100286657595
 20
310.7886022884819
 30
0.0
 10
195.2520783878381
 20
310.632939057426
 30
0.0
 10
195.5919121114009
 20
310.498376884115
 30
0.0
 10
195.8756617718552
 20
310.4138581263935
 30
0.0
 10
196.138900570921
 20
310.355038917116
 30
0.0
 10
196.4467456359897
 20
310.3096665728373
 30
0.0
 10
196.6810631572118
 20
310.3034006734823
 30
0.0
 10
196.7981986205
 20
310.3002683468
 30
0.0
 11
194.8890103113
 21
310.8664297196
 31
0.0
 11
195.2586936905124
 21
310.6452762575857
 31
0.0
 11
195.6571293137816
 21
310.4813750045712
 31
0.0
 11
195.8763512102096
 21
310.4164221617705
 31
0.0
 11
196.0993871987033
 21
310.3661335828473
 31
0.0
 11
196.4473036070308
 21
310.3166545073743
 31
0.0
 11
196.7981986205
 21
310.3002683468
 31
0.0
  0
SPLINE
  5
136
330
1F
100
AcDbEntity
  8
FASEN
  6
Continuous
 62
     7
100
AcDbSpline
210
0.0
220
0.0
230
1.0
 70
     8
 71
     3
 72
     9
 73
     5
 74
     3
 42
0.0000000001
 43
0.0000000001
 44
0.00000001
 40
0.0
 40
0.0
 40
0.0
 40
0.0
 40
3.453117627813637
 40
6.903420475428655
 40
6.903420475428655
 40
6.903420475428655
 40
6.903420475428655
 10
193.1969017839
 20
312.0778514754
 30
0.0
 10
193.0393657640541
 20
310.9316090425638
 30
0.0
 10
192.7244221385426
 20
308.6400585269051
 30
0.0
 10
193.0394513851445
 20
306.3485315495629
 30
0.0
 10
193.1969017839
 20
305.2032352311
 30
0.0
 11
193.1969017839
 21
312.0778514754
 31
0.0
 11
192.8819154002096
 21
308.6391300662703
 31
0.0
 11
193.1969017839
 21
305.2032352311
 31
0.0
  0
SPLINE
  5
137
330
1F
100
AcDbEntity
  8
BEZUGSACHSEN
  6
Continuous
 62
     7
100
AcDbSpline
210
0.0
220
0.0
230
1.0
 70
     8
 71
     3
 72
    11
 73
     7
 74
     5
 42
0.0000000001
 43
0.0000000001
 44
0.00000001
 40
0.0
 40
0.0
 40
0.0
 40
0.0
 40
0.9140556660002959
 40
1.828030949185898
 40
2.279806974871078
 40
2.730944124762519
 40
2.730944124762519
 40
2.730944124762519
 40
2.730944124762519
 10
62.1567749289854
 20
281.289083244285
 30
0.0
 10
62.28942963594879
 20
281.5637998419516
 30
0.0
 10
62.55472738411042
 20
282.1132088784789
 30
0.0
 10
62.77008259742306
 20
282.8459197995836
 30
0.0
 10
62.87377681108538
 20
283.4438650056898
 30
0.0
 10
62.88447612860649
 20
283.7449882211165
 30
0.0
 10
62.8898220021
 20
283.8954432957
 30
0.0
 11
62.1567749289854
 21
281.289083244285
 31
0.0
 11
62.53158245876089
 21
282.1227600858554
 31
0.0
 11
62.79087381915878
 21
282.9991839608709
 31
0.0
 11
62.86359079265738
 21
283.4450693936327
 31
0.0
 11
62.8898220021
 21
283.8954432957
 31
0.0
  0
SPLINE
  5
138
330
1F
100
AcDbEntity
  8
FASEN
  6
Continuous
 62
     7
100
AcDbSpline
210
0.0
220
0.0
230
1.0
 70
    24
 71
     3
 72
     9
 73
     5
 74
     3
 42
0.0000000001
 43
0.0000000001
 44
0.00000001
 40
0.0
 40
0.0
 40
0.0
 40
0.0
 40
0.2578063726615492
 40
0.5156127453226182
 40
0.5156127453226182
 40
0.5156127453226182
 40
0.5156127453226182
 10
139.439822003381
 20
257.348120484244
 30
0.0
 10
139.5064886695747
 20
257.4023464787819
 30
0.0
 10
139.6398220019618
 20
257.5107984678574
 30
0.0
 10
139.7731553343493
 20
257.6192504569325
 30
0.0
 10
139.839822000543
 20
257.67347645147
 30
0.0
 11
139.439822003381
 21
257.348120484244
 31
0.0
 11
139.639822001962
 21
257.5107984678574
 31
0.0
 11
139.839822000543
 21
257.67347645147
 31
0.0
  0
SPLINE
  5
139
330
1F
100
AcDbEntity
  8
BEZUGSACHSEN
  6
Continuous
 62
     7
100
AcDbSpline
210
0.0
220
0.0
230
1.0
 70
     8
 71
     3
 72
    11
 73
     7
 74
     5
 42
0.0000000001
 43
0.0000000001
 44
0.00000001
 40
0.0
 40
0.0
 40
0.0
 40
0.0
 40
0.8249192366724174
 40
1.650116891930988
 40
2.190492152293429
 40
2.730585915378196
 40
2.730585915378196
 40
2.730585915378196
 40
2.730585915378196
 10
62.8898220021
 20
308.7027231925
 30
0.0
 10
62.87208869776182
 20
308.977913484477
 30
0.0
 10
62.83661610391587
 20
309.5283869479377
 30
0.0
 10
62.62818128728046
 20
310.2331205330904
 30
0.0
 10
62.39795485630077
 20
310.8253342581708
 30
0.0
 10
62.23715427349881
 20
311.1478615916159
 30
0.0
 10
62.1567749289854
 20
311.309083243915
 30
0.0
 11
62.8898220021
 21
308.7027231925
 31
0.0
 11
62.80624654798427
 21
309.5233978481959
 31
0.0
 11
62.58828510587249
 21
310.3192897880953
 31
0.0
 11
62.3903500273133
 21
310.822108967013
 31
0.0
 11
62.1567749289854
 21
311.309083243915
 31
0.0
  0
DIMENSION
  5
144
330
1F
100
AcDbEntity
  8
1
100
AcDbDimension
  2
*D2
 10
224.047547430862
 20
312.2990832441
 30
0.0
 11
220.297547430862
 21
297.128839583934
 31
0.0
 70
    32
  1
<>
 71
     5
 42
-1.0
 53
90.0
  3
ME10_DIM_10
100
AcDbAlignedDimension
 13
197.8898220021
 23
280.2990832441
 33
0.0
 14
197.8898220021
 24
312.2990832441
 34
0.0
 50
90.0
100
AcDbRotatedDimension
  0
DIMENSION
  5
14F
330
1F
100
AcDbEntity
  8
1
100
AcDbDimension
  2
*D3
 10
233.415845545251
 20
321.2990832441
 30
0.0
 11
229.665845545251
 21
298.261271224135
 31
0.0
 70
    32
  1
<>
 71
     5
 42
-1.0
 53
90.0
  3
ME10_DIM_11
100
AcDbAlignedDimension
 13
192.8898220021
 23
271.2990832441
 33
0.0
 14
192.8898220021
 24
321.2990832441
 34
0.0
 50
90.0
100
AcDbRotatedDimension
  0
DIMENSION
  5
15A
330
1F
100
AcDbEntity
  8
1
100
AcDbDimension
  2
*D4
 10
197.8898220021
 20
352.255669918048
 30
0.0
 11
168.827965073104
 21
356.005669918048
 31
0.0
 70
    32
  1
<>
 71
     5
 42
-1.0
 53
0.00013888888889
  3
ME10_DIM_12
100
AcDbAlignedDimension
 13
139.8898220021
 23
346.2990463739
 33
0.0
 14
197.8898220021
 24
316.2990832441
 34
0.0
100
AcDbRotatedDimension
  0
DIMENSION
  5
165
330
1F
100
AcDbEntity
  8
1
100
AcDbDimension
  2
*D5
 10
110.8898220021
 20
360.274614121588
 30
0.0
 11
156.543625016617
 21
364.024614121588
 31
0.0
 70
    32
  1
<>
 71
     5
 42
-1.0
 53
0.00013888888889
  3
ME10_DIM_13
100
AcDbAlignedDimension
 13
197.8898220021
 23
316.2990832441
 33
0.0
 14
110.8898220021
 24
346.2990832441
 34
0.0
100
AcDbRotatedDimension
  0
DIMENSION
  5
170
330
1F
100
AcDbEntity
  8
1
100
AcDbDimension
  2
*D6
 10
197.8898220021
 20
375.800655026315
 30
0.0
 11
136.410956590707
 21
379.550655026315
 31
0.0
 70
    32
  1
<>
 71
     5
 42
-1.0
 53
0.00013888888889
  3
ME10_DIM_14
100
AcDbAlignedDimension
 13
60.8898220021
 23
329.8992748067
 33
0.0
 14
197.8898220021
 24
316.2990832441
 34
0.0
100
AcDbRotatedDimension
  0
DIMENSION
  5
17B
330
1F
100
AcDbEntity
  8
1
100
AcDbDimension
  2
*D7
 10
110.8898220021
 20
368.122942491011
 30
0.0
 11
161.1502525378
 21
371.872942491011
 31
0.0
 70
    32
  1
<>
 71
     5
 42
-1.0
 53
0.00013888888889
  3
ME10_DIM_15
100
AcDbAlignedDimension
 13
210.8898220021
 23
314.5490832441
 33
0.0
 14
110.8898220021
 24
346.2990832441
 34
0.0
100
AcDbRotatedDimension
  0
INSERT
  5
182
330
1F
100
AcDbEntity
  8
1
100
AcDbBlockReference
  2
*D8
 10
0.0
 20
0.0
 30
0.0
  0
ENDSEC
  0
SECTION
  2
OBJECTS
  0
DICTIONARY
  5
C
330
0
100
AcDbDictionary
281
     1
  3
ACAD_GROUP
350
D
  3
ACAD_LAYOUT
350
1A
  3
ACAD_MLEADERSTYLE
350
185
  3
ACAD_MLINESTYLE
350
17
  3
ACAD_PLOTSETTINGS
350
19
  3
ACAD_PLOTSTYLENAME
350
E
  3
ACAD_SCALELIST
350
4B
  3
ACAD_VISUALSTYLE
350
2A
  3
AcDbVariableDictionary
350
183
  0
DICTIONARY
  5
D
102
{ACAD_REACTORS
330
C
102
}
330
C
100
AcDbDictionary
281
     1
  0
DICTIONARY
  5
1A
102
{ACAD_REACTORS
330
C
102
}
330
C
100
AcDbDictionary
281
     1
  3
Layout1
350
1E
  3
Layout2
350
26
  3
Model
350
22
  0
DICTIONARY
  5
185
102
{ACAD_REACTORS
330
C
102
}
330
C
100
AcDbDictionary
281
     1
  0
DICTIONARY
  5
17
102
{ACAD_REACTORS
330
C
102
}
330
C
100
AcDbDictionary
281
     1
  3
Standard
350
18
  0
DICTIONARY
  5
19
102
{ACAD_REACTORS
330
C
102
}
330
C
100
AcDbDictionary
281
     1
  0
ACDBDICTIONARYWDFLT
  5
E
102
{ACAD_REACTORS
330
C
102
}
330
C
100
AcDbDictionary
281
     1
  3
Normal
350
F
100
AcDbDictionaryWithDefault
340
F
  0
DICTIONARY
  5
4B
102
{ACAD_REACTORS
330
C
102
}
330
C
100
AcDbDictionary
281
     1
  3
A0
350
4C
  3
A1
350
4D
  3
A2
350
4E
  3
A3
350
4F
  3
A4
350
50
  3
A5
350
51
  3
A6
350
52
  3
A7
350
53
  3
A8
350
54
  3
A9
350
55
  3
B0
350
56
  3
B1
350
57
  3
B2
350
58
  3
B3
350
59
  3
B4
350
5A
  3
B5
350
5B
  3
B6
350
5C
  3
B7
350
5D
  3
B8
350
5E
  3
B9
350
5F
  3
C0
350
60
  3
C1
350
61
  3
C2
350
62
  3
C3
350
63
  3
C4
350
64
  3
C5
350
65
  3
C6
350
66
  3
C7
350
67
  3
C8
350
68
  3
C9
350
69
  3
D0
350
6A
  3
D1
350
6B
  3
D2
350
6C
  0
DICTIONARY
  5
2A
102
{ACAD_REACTORS
330
C
102
}
330
C
100
AcDbDictionary
281
     1
  3
2dWireframe
350
2F
  3
3D Hidden
350
31
  3
3dWireframe
350
30
  3
Basic
350
32
  3
Brighten
350
36
  3
ColorChange
350
3A
  3
Conceptual
350
34
  3
Dim
350
35
  3
Facepattern
350
39
  3
Flat
350
2B
  3
FlatWithEdges
350
2C
  3
Gouraud
350
2D
  3
GouraudWithEdges
350
2E
  3
Linepattern
350
38
  3
Realistic
350
33
  3
Thicken
350
37
  0
DICTIONARY
  5
183
102
{ACAD_REACTORS
330
C
102
}
330
C
100
AcDbDictionary
281
     1
  3
CANNOSCALE
350
186
  0
LAYOUT
  5
1E
102
{ACAD_REACTORS
330
1A
102
}
330
1A
100
AcDbPlotSettings
  1

  2
none_device
  4

  6

 40
0.0
 41
0.0
 42
0.0
 43
0.0
 44
0.0
 45
0.0
 46
0.0
 47
0.0
 48
0.0
 49
0.0
140
0.0
141
0.0
142
1.0
143
1.0
 70
   688
 72
     0
 73
     0
 74
     5
  7

 75
    16
147
1.0
148
0.0
149
0.0
100
AcDbLayout
  1
Layout1
 70
     1
 71
     1
 10
0.0
 20
0.0
 11
12.0
 21
9.0
 12
0.0
 22
0.0
 32
0.0
 14
1.00000000000000E+20
 24
1.00000000000000E+20
 34
1.00000000000000E+20
 15
-1.00000000000000E+20
 25
-1.00000000000000E+20
 35
-1.00000000000000E+20
146
0.0
 13
0.0
 23
0.0
 33
0.0
 16
1.0
 26
0.0
 36
0.0
 17
0.0
 27
1.0
 37
0.0
 76
     0
330
1B
  0
LAYOUT
  5
26
102
{ACAD_REACTORS
330
1A
102
}
330
1A
100
AcDbPlotSettings
  1

  2
none_device
  4

  6

 40
0.0
 41
0.0
 42
0.0
 43
0.0
 44
0.0
 45
0.0
 46
0.0
 47
0.0
 48
0.0
 49
0.0
140
0.0
141
0.0
142
1.0
143
1.0
 70
   688
 72
     0
 73
     0
 74
     5
  7

 75
    16
147
1.0
148
0.0
149
0.0
100
AcDbLayout
  1
Layout2
 70
     1
 71
     2
 10
0.0
 20
0.0
 11
0.0
 21
0.0
 12
0.0
 22
0.0
 32
0.0
 14
0.0
 24
0.0
 34
0.0
 15
0.0
 25
0.0
 35
0.0
146
0.0
 13
0.0
 23
0.0
 33
0.0
 16
1.0
 26
0.0
 36
0.0
 17
0.0
 27
1.0
 37
0.0
 76
     0
330
23
  0
LAYOUT
  5
22
102
{ACAD_REACTORS
330
1A
102
}
330
1A
100
AcDbPlotSettings
  1

  2
none_device
  4

  6

 40
0.0
 41
0.0
 42
0.0
 43
0.0
 44
0.0
 45
0.0
 46
0.0
 47
0.0
 48
0.0
 49
0.0
140
0.0
141
0.0
142
1.0
143
1.0
 70
  1712
 72
     0
 73
     0
 74
     0
  7

 75
     0
147
1.0
148
0.0
149
0.0
100
AcDbLayout
  1
Model
 70
     1
 71
     0
 10
0.0
 20
0.0
 11
12.0
 21
9.0
 12
0.0
 22
0.0
 32
0.0
 14
37.273655365885
 24
246.2990832441
 34
0.0
 15
235.415845545251
 25
381.300655026315
 35
0.0
146
0.0
 13
0.0
 23
0.0
 33
0.0
 16
1.0
 26
0.0
 36
0.0
 17
0.0
 27
1.0
 37
0.0
 76
     0
330
1F
331
29
  0
MLINESTYLE
  5
18
102
{ACAD_REACTORS
330
17
102
}
330
17
100
AcDbMlineStyle
  2
Standard
 70
     0
  3

 62
   256
 51
90.0
 52
90.0
 71
     2
 49
0.5
 62
   256
  6
BYLAYER
 49
-0.5
 62
   256
  6
BYLAYER
  0
ACDBPLACEHOLDER
  5
F
102
{ACAD_REACTORS
330
E
102
}
330
E
  0
SCALE
  5
4C
102
{ACAD_REACTORS
330
4B
102
}
330
4B
100
AcDbScale
 70
     0
300
1:1
140
1.0
141
1.0
290
     1
  0
SCALE
  5
4D
102
{ACAD_REACTORS
330
4B
102
}
330
4B
100
AcDbScale
 70
     0
300
1:2
140
1.0
141
2.0
290
     0
  0
SCALE
  5
4E
102
{ACAD_REACTORS
330
4B
102
}
330
4B
100
AcDbScale
 70
     0
300
1:4
140
1.0
141
4.0
290
     0
  0
SCALE
  5
4F
102
{ACAD_REACTORS
330
4B
102
}
330
4B
100
AcDbScale
 70
     0
300
1:5
140
1.0
141
5.0
290
     0
  0
SCALE
  5
50
102
{ACAD_REACTORS
330
4B
102
}
330
4B
100
AcDbScale
 70
     0
300
1:8
140
1.0
141
8.0
290
     0
  0
SCALE
  5
51
102
{ACAD_REACTORS
330
4B
102
}
330
4B
100
AcDbScale
 70
     0
300
1:10
140
1.0
141
10.0
290
     0
  0
SCALE
  5
52
102
{ACAD_REACTORS
330
4B
102
}
330
4B
100
AcDbScale
 70
     0
300
1:16
140
1.0
141
16.0
290
     0
  0
SCALE
  5
53
102
{ACAD_REACTORS
330
4B
102
}
330
4B
100
AcDbScale
 70
     0
300
1:20
140
1.0
141
20.0
290
     0
  0
SCALE
  5
54
102
{ACAD_REACTORS
330
4B
102
}
330
4B
100
AcDbScale
 70
     0
300
1:30
140
1.0
141
30.0
290
     0
  0
SCALE
  5
55
102
{ACAD_REACTORS
330
4B
102
}
330
4B
100
AcDbScale
 70
     0
300
1:40
140
1.0
141
40.0
290
     0
  0
SCALE
  5
56
102
{ACAD_REACTORS
330
4B
102
}
330
4B
100
AcDbScale
 70
     0
300
1:50
140
1.0
141
50.0
290
     0
  0
SCALE
  5
57
102
{ACAD_REACTORS
330
4B
102
}
330
4B
100
AcDbScale
 70
     0
300
1:100
140
1.0
141
100.0
290
     0
  0
SCALE
  5
58
102
{ACAD_REACTORS
330
4B
102
}
330
4B
100
AcDbScale
 70
     0
300
2:1
140
2.0
141
1.0
290
     0
  0
SCALE
  5
59
102
{ACAD_REACTORS
330
4B
102
}
330
4B
100
AcDbScale
 70
     0
300
4:1
140
4.0
141
1.0
290
     0
  0
SCALE
  5
5A
102
{ACAD_REACTORS
330
4B
102
}
330
4B
100
AcDbScale
 70
     0
300
8:1
140
8.0
141
1.0
290
     0
  0
SCALE
  5
5B
102
{ACAD_REACTORS
330
4B
102
}
330
4B
100
AcDbScale
 70
     0
300
10:1
140
10.0
141
1.0
290
     0
  0
SCALE
  5
5C
102
{ACAD_REACTORS
330
4B
102
}
330
4B
100
AcDbScale
 70
     0
300
100:1
140
100.0
141
1.0
290
     0
  0
SCALE
  5
5D
102
{ACAD_REACTORS
330
4B
102
}
330
4B
100
AcDbScale
 70
     0
300
1/128" = 1'-0"
140
0.0078125
141
12.0
290
     0
  0
SCALE
  5
5E
102
{ACAD_REACTORS
330
4B
102
}
330
4B
100
AcDbScale
 70
     0
300
1/64" = 1'-0"
140
0.015625
141
12.0
290
     0
  0
SCALE
  5
5F
102
{ACAD_REACTORS
330
4B
102
}
330
4B
100
AcDbScale
 70
     0
300
1/32" = 1'-0"
140
0.03125
141
12.0
290
     0
  0
SCALE
  5
60
102
{ACAD_REACTORS
330
4B
102
}
330
4B
100
AcDbScale
 70
     0
300
1/16" = 1'-0"
140
0.0625
141
12.0
290
     0
  0
SCALE
  5
61
102
{ACAD_REACTORS
330
4B
102
}
330
4B
100
AcDbScale
 70
     0
300
3/32" = 1'-0"
140
0.09375
141
12.0
290
     0
  0
SCALE
  5
62
102
{ACAD_REACTORS
330
4B
102
}
330
4B
100
AcDbScale
 70
     0
300
1/8" = 1'-0"
140
0.125
141
12.0
290
     0
  0
SCALE
  5
63
102
{ACAD_REACTORS
330
4B
102
}
330
4B
100
AcDbScale
 70
     0
300
3/16" = 1'-0"
140
0.1875
141
12.0
290
     0
  0
SCALE
  5
64
102
{ACAD_REACTORS
330
4B
102
}
330
4B
100
AcDbScale
 70
     0
300
1/4" = 1'-0"
140
0.25
141
12.0
290
     0
  0
SCALE
  5
65
102
{ACAD_REACTORS
330
4B
102
}
330
4B
100
AcDbScale
 70
     0
300
3/8" = 1'-0"
140
0.375
141
12.0
290
     0
  0
SCALE
  5
66
102
{ACAD_REACTORS
330
4B
102
}
330
4B
100
AcDbScale
 70
     0
300
1/2" = 1'-0"
140
0.5
141
12.0
290
     0
  0
SCALE
  5
67
102
{ACAD_REACTORS
330
4B
102
}
330
4B
100
AcDbScale
 70
     0
300
3/4" = 1'-0"
140
0.75
141
12.0
290
     0
  0
SCALE
  5
68
102
{ACAD_REACTORS
330
4B
102
}
330
4B
100
AcDbScale
 70
     0
300
1" = 1'-0"
140
1.0
141
12.0
290
     0
  0
SCALE
  5
69
102
{ACAD_REACTORS
330
4B
102
}
330
4B
100
AcDbScale
 70
     0
300
1-1/2" = 1'-0"
140
1.5
141
12.0
290
     0
  0
SCALE
  5
6A
102
{ACAD_REACTORS
330
4B
102
}
330
4B
100
AcDbScale
 70
     0
300
3" = 1'-0"
140
3.0
141
12.0
290
     0
  0
SCALE
  5
6B
102
{ACAD_REACTORS
330
4B
102
}
330
4B
100
AcDbScale
 70
     0
300
6" = 1'-0"
140
6.0
141
12.0
290
     0
  0
SCALE
  5
6C
102
{ACAD_REACTORS
330
4B
102
}
330
4B
100
AcDbScale
 70
     0
300
1'-0" = 1'-0"
140
12.0
141
12.0
290
     0
  0
VISUALSTYLE
  5
2F
102
{ACAD_REACTORS
330
2A
102
}
330
2A
100
AcDbVisualStyle
  2
2dWireframe
 70
     4
 71
     0
 72
     2
 73
     0
 90
        0
 40
-0.6
 41
-30.0
 62
     5
 63
     7
 74
     1
 91
        4
 64
     7
 65
   257
 75
     1
175
     1
 42
1.0
 92
        0
 66
   257
 43
1.0
 76
     1
 77
     6
 78
     2
 67
     7
 79
     5
170
     0
171
     0
290
     0
174
     0
 93
        1
 44
0.0
173
     0
291
     0
 45
0.0
1001
ACAD
1000
AcDbSavedByObjectVersion
1070
     0
  0
VISUALSTYLE
  5
31
102
{ACAD_REACTORS
330
2A
102
}
330
2A
100
AcDbVisualStyle
  2
3D Hidden
 70
     6
 71
     1
 72
     2
 73
     2
 90
        0
 40
-0.6
 41
-30.0
 62
     5
 63
     7
 74
     2
 91
        2
 64
     7
 65
   257
 75
     2
175
     1
 42
40.0
 92
        0
 66
   257
 43
1.0
 76
     1
 77
     6
 78
     2
 67
     7
 79
     3
170
     0
171
     0
290
     0
174
     0
 93
        1
 44
0.0
173
     0
291
     0
 45
0.0
1001
ACAD
1000
AcDbSavedByObjectVersion
1070
     0
  0
VISUALSTYLE
  5
30
102
{ACAD_REACTORS
330
2A
102
}
330
2A
100
AcDbVisualStyle
  2
3dWireframe
 70
     5
 71
     0
 72
     2
 73
     0
 90
        0
 40
-0.6
 41
-30.0
 62
     5
 63
     7
 74
     1
 91
        4
 64
     7
 65
   257
 75
     1
175
     1
 42
1.0
 92
        0
 66
   257
 43
1.0
 76
     1
 77
     6
 78
     2
 67
     7
 79
     5
170
     0
171
     0
290
     0
174
     0
 93
        1
 44
0.0
173
     0
291
     0
 45
0.0
1001
ACAD
1000
AcDbSavedByObjectVersion
1070
     0
  0
VISUALSTYLE
  5
32
102
{ACAD_REACTORS
330
2A
102
}
330
2A
100
AcDbVisualStyle
  2
Basic
 70
     7
 71
     1
 72
     0
 73
     1
 90
        0
 40
-0.6
 41
-30.0
 62
     5
 63
     7
 74
     0
 91
        4
 64
     7
 65
   257
 75
     1
175
     1
 42
1.0
 92
        8
 66
     7
 43
1.0
 76
     1
 77
     6
 78
     2
 67
     7
 79
     5
170
     0
171
     0
290
     0
174
     0
 93
        1
 44
0.0
173
     0
291
     1
 45
0.0
1001
ACAD
1000
AcDbSavedByObjectVersion
1070
     0
  0
VISUALSTYLE
  5
36
102
{ACAD_REACTORS
330
2A
102
}
330
2A
100
AcDbVisualStyle
  2
Brighten
 70
    12
 71
     2
 72
     2
 73
     0
 90
        0
 40
-0.6
 41
-30.0
 62
     5
 63
     7
 74
     1
 91
        4
 64
     7
 65
   257
 75
     1
175
     1
 42
1.0
 92
        8
 66
     7
 43
1.0
 76
     1
 77
     6
 78
     2
 67
     7
 79
     5
170
     0
171
     0
290
     0
174
     0
 93
        1
 44
50.0
173
     0
291
     1
 45
0.0
1001
ACAD
1000
AcDbSavedByObjectVersion
1070
     0
  0
VISUALSTYLE
  5
3A
102
{ACAD_REACTORS
330
2A
102
}
330
2A
100
AcDbVisualStyle
  2
ColorChange
 70
    16
 71
     2
 72
     2
 73
     3
 90
        0
 40
-0.6
 41
-30.0
 62
     5
 63
     8
 74
     1
 91
        4
 64
     7
 65
   257
 75
     1
175
     1
 42
1.0
 92
        8
 66
     8
 43
1.0
 76
     1
 77
     6
 78
     2
 67
     7
 79
     5
170
     0
171
     0
290
     0
174
     0
 93
        1
 44
0.0
173
     0
291
     1
 45
0.0
1001
ACAD
1000
AcDbSavedByObjectVersion
1070
     0
  0
VISUALSTYLE
  5
34
102
{ACAD_REACTORS
330
2A
102
}
330
2A
100
AcDbVisualStyle
  2
Conceptual
 70
     9
 71
     3
 72
     2
 73
     0
 90
        0
 40
-0.6
 41
-30.0
 62
     5
 63
     7
 74
     2
 91
        2
 64
     7
 65
   257
 75
     1
175
     1
 42
40.0
 92
        8
 66
     7
 43
1.0
 76
     1
 77
     6
 78
     2
 67
     7
 79
     3
170
     0
171
     0
290
     0
174
     0
 93
        1
 44
0.0
173
     0
291
     0
 45
0.0
1001
ACAD
1000
AcDbSavedByObjectVersion
1070
     0
  0
VISUALSTYLE
  5
35
102
{ACAD_REACTORS
330
2A
102
}
330
2A
100
AcDbVisualStyle
  2
Dim
 70
    11
 71
     2
 72
     2
 73
     0
 90
        0
 40
-0.6
 41
-30.0
 62
     5
 63
     7
 74
     1
 91
        4
 64
     7
 65
   257
 75
     1
175
     1
 42
1.0
 92
        8
 66
     7
 43
1.0
 76
     1
 77
     6
 78
     2
 67
     7
 79
     5
170
     0
171
     0
290
     0
174
     0
 93
        1
 44
-50.0
173
     0
291
     1
 45
0.0
1001
ACAD
1000
AcDbSavedByObjectVersion
1070
     0
  0
VISUALSTYLE
  5
39
102
{ACAD_REACTORS
330
2A
102
}
330
2A
100
AcDbVisualStyle
  2
Facepattern
 70
    15
 71
     2
 72
     2
 73
     0
 90
        0
 40
-0.6
 41
-30.0
 62
     5
 63
     7
 74
     1
 91
        4
 64
     7
 65
   257
 75
     1
175
     1
 42
1.0
 92
        8
 66
     7
 43
1.0
 76
     1
 77
     6
 78
     2
 67
     7
 79
     5
170
     0
171
     0
290
     0
174
     0
 93
        1
 44
0.0
173
     0
291
     1
 45
0.0
1001
ACAD
1000
AcDbSavedByObjectVersion
1070
     0
  0
VISUALSTYLE
  5
2B
102
{ACAD_REACTORS
330
2A
102
}
330
2A
100
AcDbVisualStyle
  2
Flat
 70
     0
 71
     2
 72
     1
 73
     1
 90
        2
 40
-0.6
 41
30.0
 62
     5
 63
     7
 74
     0
 91
        4
 64
     7
 65
   257
 75
     1
175
     1
 42
1.0
 92
        8
 66
     7
 43
1.0
 76
     1
 77
     6
 78
     2
 67
     7
 79
     5
170
     0
171
     0
290
     0
174
     0
 93
       13
 44
0.0
173
     0
291
     1
 45
0.0
1001
ACAD
1000
AcDbSavedByObjectVersion
1070
     0
  0
VISUALSTYLE
  5
2C
102
{ACAD_REACTORS
330
2A
102
}
330
2A
100
AcDbVisualStyle
  2
FlatWithEdges
 70
     1
 71
     2
 72
     1
 73
     1
 90
        2
 40
-0.6
 41
30.0
 62
     5
 63
     7
 74
     1
 91
        4
 64
     7
 65
   257
 75
     1
175
     1
 42
1.0
 92
        0
 66
   257
 43
1.0
 76
     1
 77
     6
 78
     2
 67
     7
 79
     5
170
     0
171
     0
290
     0
174
     0
 93
       13
 44
0.0
173
     0
291
     1
 45
0.0
1001
ACAD
1000
AcDbSavedByObjectVersion
1070
     0
  0
VISUALSTYLE
  5
2D
102
{ACAD_REACTORS
330
2A
102
}
330
2A
100
AcDbVisualStyle
  2
Gouraud
 70
     2
 71
     2
 72
     2
 73
     1
 90
        2
 40
-0.6
 41
30.0
 62
     5
 63
     7
 74
     0
 91
        4
 64
     7
 65
   257
 75
     1
175
     1
 42
1.0
 92
        0
 66
     7
 43
1.0
 76
     1
 77
     6
 78
     2
 67
     7
 79
     5
170
     0
171
     0
290
     0
174
     0
 93
       13
 44
0.0
173
     0
291
     1
 45
0.0
1001
ACAD
1000
AcDbSavedByObjectVersion
1070
     0
  0
VISUALSTYLE
  5
2E
102
{ACAD_REACTORS
330
2A
102
}
330
2A
100
AcDbVisualStyle
  2
GouraudWithEdges
 70
     3
 71
     2
 72
     2
 73
     1
 90
        2
 40
-0.6
 41
30.0
 62
     5
 63
     7
 74
     1
 91
        4
 64
     7
 65
   257
 75
     1
175
     1
 42
1.0
 92
        0
 66
   257
 43
1.0
 76
     1
 77
     6
 78
     2
 67
     7
 79
     5
170
     0
171
     0
290
     0
174
     0
 93
       13
 44
0.0
173
     0
291
     1
 45
0.0
1001
ACAD
1000
AcDbSavedByObjectVersion
1070
     0
  0
VISUALSTYLE
  5
38
102
{ACAD_REACTORS
330
2A
102
}
330
2A
100
AcDbVisualStyle
  2
Linepattern
 70
    14
 71
     2
 72
     2
 73
     0
 90
        0
 40
-0.6
 41
-30.0
 62
     5
 63
     7
 74
     1
 91
        4
 64
     7
 65
   257
 75
     7
175
     7
 42
1.0
 92
        8
 66
     7
 43
1.0
 76
     1
 77
     6
 78
     2
 67
     7
 79
     5
170
     0
171
     0
290
     0
174
     0
 93
        1
 44
0.0
173
     0
291
     1
 45
0.0
1001
ACAD
1000
AcDbSavedByObjectVersion
1070
     0
  0
VISUALSTYLE
  5
33
102
{ACAD_REACTORS
330
2A
102
}
330
2A
100
AcDbVisualStyle
  2
Realistic
 70
     8
 71
     2
 72
     2
 73
     0
 90
        0
 40
-0.6
 41
-30.0
 62
     5
 63
     7
 74
     1
 91
        0
 64
     7
 65
   257
 75
     1
175
     1
 42
1.0
 92
        8
 66
     8
 43
1.0
 76
     1
 77
     6
 78
     2
 67
     7
 79
     5
170
     0
171
     0
290
     0
174
     0
 93
       13
 44
0.0
173
     0
291
     0
 45
0.0
1001
ACAD
1000
AcDbSavedByObjectVersion
1070
     0
  0
VISUALSTYLE
  5
37
102
{ACAD_REACTORS
330
2A
102
}
330
2A
100
AcDbVisualStyle
  2
Thicken
 70
    13
 71
     2
 72
     2
 73
     0
 90
        0
 40
-0.6
 41
-30.0
 62
     5
 63
     7
 74
     1
 91
        4
 64
     7
 65
   257
 75
     1
175
     1
 42
1.0
 92
       12
 66
     7
 43
1.0
 76
     1
 77
     6
 78
     2
 67
     7
 79
     5
170
     0
171
     0
290
     0
174
     0
 93
        1
 44
0.0
173
     0
291
     1
 45
0.0
1001
ACAD
1000
AcDbSavedByObjectVersion
1070
     0
  0
DICTIONARYVAR
  5
186
102
{ACAD_REACTORS
330
183
102
}
330
183
100
DictionaryVariables
280
     0
  1
1:1
  0
ENDSEC
  0
EOF
