999
DXF file: 200_a50-025-32-3-bmg.dxf
999
Pro/ENGINEER 2010430 by Parametric Technology Corporation
  0
SECTION
  2
HEADER
  9
$ACADVER
  1
AC1021
  9
$DWGCODEPAGE
  3
ANSI_1252
  9
$EXTMAX
 10
420.0
 20
297.0
 30
0.0
  9
$EXTMIN
 10
0.0
 20
0.0
 30
0.0
  9
$LIMMIN
 10
0.0
 20
0.0
  9
$LIMMAX
 10
420.0
 20
297.0
  9
$VIEWCTR
 10
210.0
 20
148.5
  9
$VIEWSIZE
 40
297.0
  9
$CLAYER
  8
0
  9
$LTSCALE
 40
23.1
  9
$CELTYPE
  6
BYLAYER
  9
$DIMSCALE
 40
1.0
  9
$DIMASZ
 40
3.5
  9
$DIMEXO
 40
2.625
  9
$DIMDLI
 40
15.96
  9
$DIMEXE
 40
7.56
  9
$DIMCEN
 40
3.78
  9
$DIMLFAC
 40
1.0
  9
$DIMBLK
  1
_FILLED
  9
$DIMTXT
 40
3.5
  9
$DIMTOL
 70
0
  9
$DIMLIM
 70
0
  9
$DIMTFAC
 40
1.0
  9
$PDMODE
 70
3
  9
$PDSIZE
 40
0.3125
  9
$HANDSEED
  5
32A
  9
$TILEMODE
 70
1
  9
$MEASUREMENT
 70
1
  9
$INSUNITS
 70
4
  0
ENDSEC
  0
SECTION
  2
CLASSES
  0
CLASS
  1
ACDBDICTIONARYWDFLT
  2
AcDbDictionaryWithDefault
  3
AutoCAD 2000
 90
0
 91
1
280
0
281
0
  0
CLASS
  1
ACDBPLACEHOLDER
  2
AcDbPlaceHolder
  3
AutoCAD 2000
 90
0
 91
1
280
0
281
0
  0
CLASS
  1
LAYOUT
  2
AcDbLayout
  3
AutoCAD 2000
 90
0
 91
0
280
0
281
0
  0
ENDSEC
  0
SECTION
  2
TABLES
  0
TABLE
  2
VPORT
  5
8
100
AcDbSymbolTable
 70
2
  0
VPORT
  5
1F4
100
AcDbSymbolTableRecord
100
AcDbViewportTableRecord
  2
*ACTIVE
 70
0
 10
0.0
 20
0.0
 11
1.0
 21
1.0
 12
210.0
 22
148.5
 13
0.0
 23
0.0
 14
1.0
 24
1.0
 15
0.0
 25
0.0
 16
0.0
 26
0.0
 36
1.0
 17
0.0
 27
0.0
 37
0.0
 40
297.0
 41
1.4141414141
 42
50.0
 43
0.0
 44
0.0
 50
0.0
 51
0.0
 71
0
 72
100
 73
1
 74
1
 75
0
 76
0
 77
0
 78
0
  0
ENDTAB
  0
TABLE
  2
LTYPE
  5
5
100
AcDbSymbolTable
 70
6
  0
LTYPE
  5
14
100
AcDbSymbolTableRecord
100
AcDbLinetypeTableRecord
  2
BYBLOCK
 70
0
  3

 72
65
 73
0
 40
0.0
  0
LTYPE
  5
15
100
AcDbSymbolTableRecord
100
AcDbLinetypeTableRecord
  2
BYLAYER
 70
0
  3

 72
65
 73
0
 40
0.0
  0
LTYPE
  5
16
100
AcDbSymbolTableRecord
100
AcDbLinetypeTableRecord
  2
CONTINUOUS
 70
64
  3
Solid line
 72
65
 73
0
 40
0.0
  0
LTYPE
  5
1F5
100
AcDbSymbolTableRecord
100
AcDbLinetypeTableRecord
  2
CENTER
 70
64
  3
____ _ ____ _ ____ _ ____ _ ____ _ ____ _ ____
 72
65
 73
4
 40
0.6
 49
0.375
 74
0
 49
-0.075
 74
0
 49
0.075
 74
0
 49
-0.075
 74
0
  0
LTYPE
  5
1F6
100
AcDbSymbolTableRecord
100
AcDbLinetypeTableRecord
  2
HIDDEN
 70
64
  3
- - - - - - - - - - - - - - - - - - - -
 72
65
 73
2
 40
0.2
 49
0.1
 74
0
 49
-0.1
 74
0
  0
LTYPE
  5
1F7
100
AcDbSymbolTableRecord
100
AcDbLinetypeTableRecord
  2
PHANTOM
 70
64
  3
_____ _ _ _____ _ _ _____ _ _ _____
 72
65
 73
6
 40
0.8
 49
0.45
 74
0
 49
-0.05
 74
0
 49
0.1
 74
0
 49
-0.05
 74
0
 49
0.1
 74
0
 49
-0.05
 74
0
  0
LTYPE
  5
1F8
100
AcDbSymbolTableRecord
100
AcDbLinetypeTableRecord
  2
DOT
 70
64
  3
. . . . . . . . . . . . . . . . . . . .
 72
65
 73
2
 40
0.2
 49
0.1
 74
0
 49
-0.1
 74
0
  0
LTYPE
  5
1F9
100
AcDbSymbolTableRecord
100
AcDbLinetypeTableRecord
  2
DASHED
 70
64
  3
- - - - - - - - - - - - - - - - - - - -
 72
65
 73
2
 40
0.2
 49
0.1
 74
0
 49
-0.1
 74
0
  0
ENDTAB
  0
TABLE
  2
LAYER
  5
2
100
AcDbSymbolTable
 70
36
  0
LAYER
  5
10
100
AcDbSymbolTableRecord
100
AcDbLayerTableRecord
  2
0
 70
0
 62
7
  6
CONTINUOUS
370
-3
390
F
  0
LAYER
  5
1FA
100
AcDbSymbolTableRecord
100
AcDbLayerTableRecord
  2
DEFAULT_1
 70
0
 62
7
  6
CENTER
370
-3
390
F
  0
LAYER
  5
1FB
100
AcDbSymbolTableRecord
100
AcDbLayerTableRecord
  2
DEFAULT_2
 70
0
 62
8
  6
HIDDEN
370
-3
390
F
  0
LAYER
  5
1FC
100
AcDbSymbolTableRecord
100
AcDbLayerTableRecord
  2
DEFAULT_3
 70
0
 62
7
  6
PHANTOM
370
-3
390
F
  0
LAYER
  5
1FD
100
AcDbSymbolTableRecord
100
AcDbLayerTableRecord
  2
1
 70
0
 62
7
  6
CONTINUOUS
370
-3
390
F
  0
LAYER
  5
1FE
100
AcDbSymbolTableRecord
100
AcDbLayerTableRecord
  2
2
 70
0
 62
7
  6
CONTINUOUS
370
-3
390
F
  0
LAYER
  5
1FF
100
AcDbSymbolTableRecord
100
AcDbLayerTableRecord
  2
4
 70
0
 62
7
  6
CONTINUOUS
370
-3
390
F
  0
LAYER
  5
200
100
AcDbSymbolTableRecord
100
AcDbLayerTableRecord
  2
5
 70
0
 62
7
  6
CONTINUOUS
370
-3
390
F
  0
LAYER
  5
201
100
AcDbSymbolTableRecord
100
AcDbLayerTableRecord
  2
6
 70
0
 62
7
  6
CONTINUOUS
370
-3
390
F
  0
LAYER
  5
202
100
AcDbSymbolTableRecord
100
AcDbLayerTableRecord
  2
ACHSEN
 70
0
 62
7
  6
CONTINUOUS
370
-3
390
F
  0
LAYER
  5
203
100
AcDbSymbolTableRecord
100
AcDbLayerTableRecord
  2
ANALYSEN
 70
0
 62
7
  6
CONTINUOUS
370
-3
390
F
  0
LAYER
  5
204
100
AcDbSymbolTableRecord
100
AcDbLayerTableRecord
  2
AUFMASS_EINFUEHRFASE
 70
0
 62
7
  6
CONTINUOUS
370
-3
390
F
  0
LAYER
  5
205
100
AcDbSymbolTableRecord
100
AcDbLayerTableRecord
  2
AUFMASS_WEICHBEARBEITUNG
 70
0
 62
7
  6
CONTINUOUS
370
-3
390
F
  0
LAYER
  5
206
100
AcDbSymbolTableRecord
100
AcDbLayerTableRecord
  2
AUFMASS_WEICHBEARBEITUNG_FERTIG
 70
0
 62
7
  6
CONTINUOUS
370
-3
390
F
  0
LAYER
  5
207
100
AcDbSymbolTableRecord
100
AcDbLayerTableRecord
  2
AUFMASS_WEICHBE_INNENKONTUR
 70
0
 62
7
  6
CONTINUOUS
370
-3
390
F
  0
LAYER
  5
208
100
AcDbSymbolTableRecord
100
AcDbLayerTableRecord
  2
AUSFORMSCHRAEGEN
 70
0
 62
7
  6
CONTINUOUS
370
-3
390
F
  0
LAYER
  5
209
100
AcDbSymbolTableRecord
100
AcDbLayerTableRecord
  2
AUSSENKONTUR
 70
0
 62
7
  6
CONTINUOUS
370
-3
390
F
  0
LAYER
  5
20A
100
AcDbSymbolTableRecord
100
AcDbLayerTableRecord
  2
BEZUG
 70
0
 62
7
  6
CONTINUOUS
370
-3
390
F
  0
LAYER
  5
20B
100
AcDbSymbolTableRecord
100
AcDbLayerTableRecord
  2
BEZUGSACHSEN
 70
0
 62
7
  6
CONTINUOUS
370
-3
390
F
  0
LAYER
  5
20C
100
AcDbSymbolTableRecord
100
AcDbLayerTableRecord
  2
BEZUGSACHSENKENNZEICHEN
 70
0
 62
7
  6
CONTINUOUS
370
-3
390
F
  0
LAYER
  5
20D
100
AcDbSymbolTableRecord
100
AcDbLayerTableRecord
  2
BEZUGSEBENEN
 70
0
 62
7
  6
CONTINUOUS
370
-3
390
F
  0
LAYER
  5
20E
100
AcDbSymbolTableRecord
100
AcDbLayerTableRecord
  2
BEZUGSEBENE_B
 70
0
 62
7
  6
CONTINUOUS
370
-3
390
F
  0
LAYER
  5
20F
100
AcDbSymbolTableRecord
100
AcDbLayerTableRecord
  2
BEZUGSPUNKTE
 70
0
 62
7
  6
CONTINUOUS
370
-3
390
F
  0
LAYER
  5
210
100
AcDbSymbolTableRecord
100
AcDbLayerTableRecord
  2
BG_STARTBEZUEGE
 70
0
 62
7
  6
CONTINUOUS
370
-3
390
F
  0
LAYER
  5
211
100
AcDbSymbolTableRecord
100
AcDbLayerTableRecord
  2
BOHRUNGEN
 70
0
 62
7
  6
CONTINUOUS
370
-3
390
F
  0
LAYER
  5
212
100
AcDbSymbolTableRecord
100
AcDbLayerTableRecord
  2
EBENEN
 70
0
 62
7
  6
CONTINUOUS
370
-3
390
F
  0
LAYER
  5
213
100
AcDbSymbolTableRecord
100
AcDbLayerTableRecord
  2
FASEN
 70
0
 62
7
  6
CONTINUOUS
370
-3
390
F
  0
LAYER
  5
214
100
AcDbSymbolTableRecord
100
AcDbLayerTableRecord
  2
FLAECHEN
 70
0
 62
7
  6
CONTINUOUS
370
-3
390
F
  0
LAYER
  5
215
100
AcDbSymbolTableRecord
100
AcDbLayerTableRecord
  2
FORM_LAGE_TOLERANZEN
 70
0
 62
7
  6
CONTINUOUS
370
-3
390
F
  0
LAYER
  5
216
100
AcDbSymbolTableRecord
100
AcDbLayerTableRecord
  2
GEOMTOL
 70
0
 62
7
  6
CONTINUOUS
370
-3
390
F
  0
LAYER
  5
217
100
AcDbSymbolTableRecord
100
AcDbLayerTableRecord
  2
GEWINDE
 70
0
 62
7
  6
CONTINUOUS
370
-3
390
F
  0
LAYER
  5
218
100
AcDbSymbolTableRecord
100
AcDbLayerTableRecord
  2
HILFEN
 70
0
 62
7
  6
CONTINUOUS
370
-3
390
F
  0
LAYER
  5
219
100
AcDbSymbolTableRecord
100
AcDbLayerTableRecord
  2
INNENKONTUR
 70
0
 62
7
  6
CONTINUOUS
370
-3
390
F
  0
LAYER
  5
21A
100
AcDbSymbolTableRecord
100
AcDbLayerTableRecord
  2
KOORDINATENSYSTEME
 70
0
 62
7
  6
CONTINUOUS
370
-3
390
F
  0
LAYER
  5
21B
100
AcDbSymbolTableRecord
100
AcDbLayerTableRecord
  2
KOORDSYS
 70
0
 62
7
  6
CONTINUOUS
370
-3
390
F
  0
LAYER
  5
21C
100
AcDbSymbolTableRecord
100
AcDbLayerTableRecord
  2
KURVEN
 70
0
 62
7
  6
CONTINUOUS
370
-3
390
F
  0
LAYER
  5
21D
100
AcDbSymbolTableRecord
100
AcDbLayerTableRecord
  2
KURVE_FUER_GTOL_DETAILANSICHT
 70
0
 62
7
  6
CONTINUOUS
370
-3
390
F
  0
LAYER
  5
21E
100
AcDbSymbolTableRecord
100
AcDbLayerTableRecord
  2
KURVE_GAUGE2_POLIGON_INNENEINST
 70
0
 62
7
  6
CONTINUOUS
370
-3
390
F
  0
LAYER
  5
21F
100
AcDbSymbolTableRecord
100
AcDbLayerTableRecord
  2
KURVE_PHANTOM1_GAUGE_PIN_1
 70
0
 62
7
  6
CONTINUOUS
370
-3
390
F
  0
LAYER
  5
220
100
AcDbSymbolTableRecord
100
AcDbLayerTableRecord
  2
KURVE_PHANTOM2_GAUGE_PIN1
 70
0
 62
7
  6
CONTINUOUS
370
-3
390
F
  0
LAYER
  5
221
100
AcDbSymbolTableRecord
100
AcDbLayerTableRecord
  2
KURVE_POLIGON_BEMASUNG
 70
0
 62
7
  6
CONTINUOUS
370
-3
390
F
  0
LAYER
  5
222
100
AcDbSymbolTableRecord
100
AcDbLayerTableRecord
  2
NOCUT
 70
0
 62
7
  6
CONTINUOUS
370
-3
390
F
  0
LAYER
  5
223
100
AcDbSymbolTableRecord
100
AcDbLayerTableRecord
  2
PLATZIERUNG
 70
0
 62
7
  6
CONTINUOUS
370
-3
390
F
  0
LAYER
  5
224
100
AcDbSymbolTableRecord
100
AcDbLayerTableRecord
  2
PUNKTE
 70
0
 62
7
  6
CONTINUOUS
370
-3
390
F
  0
LAYER
  5
225
100
AcDbSymbolTableRecord
100
AcDbLayerTableRecord
  2
RUNDUNGEN
 70
0
 62
7
  6
CONTINUOUS
370
-3
390
F
  0
LAYER
  5
226
100
AcDbSymbolTableRecord
100
AcDbLayerTableRecord
  2
SK1
 70
0
 62
7
  6
CONTINUOUS
370
-3
390
F
  0
LAYER
  5
227
100
AcDbSymbolTableRecord
100
AcDbLayerTableRecord
  2
SK2
 70
0
 62
7
  6
CONTINUOUS
370
-3
390
F
  0
LAYER
  5
228
100
AcDbSymbolTableRecord
100
AcDbLayerTableRecord
  2
SK4
 70
0
 62
7
  6
CONTINUOUS
370
-3
390
F
  0
LAYER
  5
229
100
AcDbSymbolTableRecord
100
AcDbLayerTableRecord
  2
SKELETTE
 70
0
 62
7
  6
CONTINUOUS
370
-3
390
F
  0
LAYER
  5
22A
100
AcDbSymbolTableRecord
100
AcDbLayerTableRecord
  2
S_ACHSEN
 70
0
 62
7
  6
CONTINUOUS
370
-3
390
F
  0
LAYER
  5
22B
100
AcDbSymbolTableRecord
100
AcDbLayerTableRecord
  2
S_EBENEN
 70
0
 62
7
  6
CONTINUOUS
370
-3
390
F
  0
LAYER
  5
22C
100
AcDbSymbolTableRecord
100
AcDbLayerTableRecord
  2
S_KOORDSYS
 70
0
 62
7
  6
CONTINUOUS
370
-3
390
F
  0
LAYER
  5
22D
100
AcDbSymbolTableRecord
100
AcDbLayerTableRecord
  2
TEIL_STARTBEZUEGE
 70
0
 62
7
  6
CONTINUOUS
370
-3
390
F
  0
LAYER
  5
22E
100
AcDbSymbolTableRecord
100
AcDbLayerTableRecord
  2
TOL_BEZUEGE
 70
0
 62
7
  6
CONTINUOUS
370
-3
390
F
  0
LAYER
  5
22F
100
AcDbSymbolTableRecord
100
AcDbLayerTableRecord
  2
VERBFLAECHE
 70
0
 62
7
  6
CONTINUOUS
370
-3
390
F
  0
LAYER
  5
230
100
AcDbSymbolTableRecord
100
AcDbLayerTableRecord
  2
VERERBUNG
 70
0
 62
7
  6
CONTINUOUS
370
-3
390
F
  0
LAYER
  5
231
100
AcDbSymbolTableRecord
100
AcDbLayerTableRecord
  2
VERPACKUNG
 70
0
 62
7
  6
CONTINUOUS
370
-3
390
F
  0
LAYER
  5
232
100
AcDbSymbolTableRecord
100
AcDbLayerTableRecord
  2
VOLGEOM
 70
0
 62
7
  6
CONTINUOUS
370
-3
390
F
  0
LAYER
  5
233
100
AcDbSymbolTableRecord
100
AcDbLayerTableRecord
  2
VOLUMEN
 70
0
 62
7
  6
CONTINUOUS
370
-3
390
F
  0
LAYER
  5
234
100
AcDbSymbolTableRecord
100
AcDbLayerTableRecord
  2
XSEC_DATUMS
 70
0
 62
7
  6
CONTINUOUS
370
-3
390
F
  0
LAYER
  5
235
100
AcDbSymbolTableRecord
100
AcDbLayerTableRecord
  2
ZEICHNUNG
 70
0
 62
7
  6
CONTINUOUS
370
-3
390
F
  0
ENDTAB
  0
TABLE
  2
STYLE
  5
3
100
AcDbSymbolTable
 70
1
  0
STYLE
  5
11
100
AcDbSymbolTableRecord
100
AcDbTextStyleTableRecord
  2
STANDARD
 70
0
 40
0.0
 41
0.7
 50
0.0
 71
0
 42
0.2
  3
txt
  4

  0
STYLE
  5
236
100
AcDbSymbolTableRecord
100
AcDbTextStyleTableRecord
  2
TEXTSTYLE_1
 70
0
 40
0.0
 41
0.8
 50
0.0
 71
0
 42
0.2
  3
gdt
  4

  0
STYLE
  5
237
100
AcDbSymbolTableRecord
100
AcDbTextStyleTableRecord
  2
TEXTSTYLE_2
 70
0
 40
0.0
 41
0.7
 50
0.0
 71
0
 42
0.2
  3
gdt
  4

  0
ENDTAB
  0
TABLE
  2
VIEW
  5
6
100
AcDbSymbolTable
 70
0
  0
ENDTAB
  0
TABLE
  2
UCS
  5
7
100
AcDbSymbolTable
 70
0
  0
ENDTAB
  0
TABLE
  2
APPID
  5
9
100
AcDbSymbolTable
 70
1
  0
APPID
  5
238
100
AcDbSymbolTableRecord
100
AcDbRegAppTableRecord
  2
ACAD
 70
0
  0
ENDTAB
  0
TABLE
  2
BLOCK_RECORD
  5
1
100
AcDbSymbolTable
 70
0
  0
BLOCK_RECORD
  5
239
100
AcDbSymbolTableRecord
100
AcDbBlockTableRecord
  2
*Model_Space
  0
BLOCK_RECORD
  5
23A
100
AcDbSymbolTableRecord
100
AcDbBlockTableRecord
  2
*Paper_Space
  0
BLOCK_RECORD
  5
23B
100
AcDbSymbolTableRecord
100
AcDbBlockTableRecord
  2
_FILLED
  0
BLOCK_RECORD
  5
23C
100
AcDbSymbolTableRecord
100
AcDbBlockTableRecord
  2
*D0
  0
BLOCK_RECORD
  5
23D
100
AcDbSymbolTableRecord
100
AcDbBlockTableRecord
  2
*D1
  0
BLOCK_RECORD
  5
23E
100
AcDbSymbolTableRecord
100
AcDbBlockTableRecord
  2
*D2
  0
BLOCK_RECORD
  5
23F
100
AcDbSymbolTableRecord
100
AcDbBlockTableRecord
  2
*D3
  0
BLOCK_RECORD
  5
240
100
AcDbSymbolTableRecord
100
AcDbBlockTableRecord
  2
*D4
  0
BLOCK_RECORD
  5
241
100
AcDbSymbolTableRecord
100
AcDbBlockTableRecord
  2
*D5
  0
ENDTAB
  0
TABLE
  2
DIMSTYLE
  5
A
100
AcDbSymbolTable
 70
1
100
AcDbDimStyleTable
 71
0
  0
DIMSTYLE
105
242
100
AcDbSymbolTableRecord
100
AcDbDimStyleTableRecord
  2
STANDARD
 70
0
  3

  4

 40
1.0
 41
3.5
 42
0.0625
 43
0.38
 44
0.18
 45
0.0
 46
0.0
 47
0.005
 48
0.005
140
3.5
141
0.09
142
0.0
143
25.4
144
1.0
145
0.0
146
1.0
147
0.09
 71
0.0
 72
0.0
 73
0
 74
0
 75
0
 76
0
 77
1
 78
8
170
0
171
2
172
0
173
0
174
0
175
0
176
0
177
0
178
5
270
2
271
3
272
3
273
2
274
2
275
0
280
0
281
0
282
0
283
1
284
8
285
0
286
0
287
3
288
0
340
11
341
23B
342
23B
343
23B
344
23B
  0
DIMSTYLE
105
243
100
AcDbSymbolTableRecord
100
AcDbDimStyleTableRecord
  2
DIMSTYLE_1
 70
0
  3

  4

 40
1.0
 41
3.5
 42
0.0625
 43
0.38
 44
0.18
 45
0.0
 46
0.0
 47
0.0
 48
0.0
140
3.5
141
0.09
142
0.0
143
25.4
144
1.0
145
0.0
146
1.0
147
0.09
 71
0.0
 72
0.0
 73
0
 74
0
 75
0
 76
0
 77
1
 78
8
170
0
171
2
172
0
173
0
174
0
175
0
176
0
177
0
178
5
270
2
271
3
272
3
273
2
274
2
275
0
280
0
281
0
282
0
283
1
284
8
285
0
286
0
287
3
288
0
340
11
341
23B
342
23B
343
23B
344
23B
  0
DIMSTYLE
105
244
100
AcDbSymbolTableRecord
100
AcDbDimStyleTableRecord
  2
DIMSTYLE_2
 70
0
  3

  4

 40
1.0
 41
3.5
 42
0.0625
 43
0.38
 44
0.18
 45
0.0
 46
0.0
 47
0.0
 48
0.0
140
3.5
141
0.09
142
0.0
143
25.4
144
1.0
145
0.0
146
1.0
147
0.09
 71
0.0
 72
0.0
 73
0
 74
0
 75
0
 76
0
 77
1
 78
8
170
0
171
2
172
0
173
0
174
0
175
0
176
0
177
0
178
5
270
2
271
2
272
2
273
2
274
2
275
0
280
0
281
0
282
0
283
1
284
8
285
0
286
0
287
3
288
0
340
11
341
23B
342
23B
343
23B
344
23B
  0
ENDTAB
  0
ENDSEC
  0
SECTION
  2
BLOCKS
  0
BLOCK
  5
20
100
AcDbEntity
  8
0
100
AcDbBlockBegin
  2
*Model_Space
 70
0
 10
0.0
 20
0.0
 30
0.0
  3
*Model_Space
  1

  0
ENDBLK
  5
21
100
AcDbEntity
  8
0
100
AcDbBlockEnd
  0
BLOCK
  5
1C
100
AcDbEntity
  8
0
100
AcDbBlockBegin
  2
*Paper_Space
 70
0
 10
0.0
 20
0.0
 30
0.0
  3
*Paper_Space
  1

  0
ENDBLK
  5
1D
100
AcDbEntity
  8
0
100
AcDbBlockEnd
  0
BLOCK
  5
245
100
AcDbEntity
  8
0
100
AcDbBlockBegin
  2
_FILLED
 70
64
 10
0.0
 20
0.0
  3
_FILLED
  1

  0
SOLID
  5
246
100
AcDbEntity
  8
0
  6
BYBLOCK
 62
0
100
AcDbTrace
 10
0.0
 20
0.0
 11
-1.0
 21
0.125
 12
-1.0
 22
-0.125
 13
-1.0
 23
-0.125
  0
ENDBLK
  5
247
100
AcDbEntity
  8
0
  6
BYBLOCK
 62
0
100
AcDbBlockEnd
  0
BLOCK
  5
248
100
AcDbEntity
  8
2
100
AcDbBlockBegin
 62
2
  6
CONTINUOUS
  2
*D0
 70
65
 10
0.0
 20
0.0
  3
*D0
  1

  0
MTEXT
  5
249
100
AcDbEntity
  8
2
100
AcDbMText
 62
5
  6
CONTINUOUS
  7
STANDARD
 71
2
 72
1
 10
223.3355
 20
210.375
 30
0.0
 11
1.0
 21
0.0
 31
0.0
 44
0.9
  1
66.671
 40
3.5
 41
15.0
  0
LINE
  5
24A
100
AcDbEntity
  8
2
100
AcDbLine
 62
2
  6
CONTINUOUS
 10
190.0
 20
185.0
 11
190.0
 21
207.5
  0
LINE
  5
24B
100
AcDbEntity
  8
2
100
AcDbLine
 62
2
  6
CONTINUOUS
 10
256.671
 20
181.0
 11
256.671
 21
207.5
  0
LINE
  5
24C
100
AcDbEntity
  8
2
100
AcDbLine
 62
2
  6
CONTINUOUS
 10
190.0
 20
206.0
 11
223.3355
 21
206.0
  0
LINE
  5
24D
100
AcDbEntity
  8
2
100
AcDbLine
 62
2
  6
CONTINUOUS
 10
256.671
 20
206.0
 11
223.3355
 21
206.0
  0
INSERT
  5
24E
100
AcDbEntity
  8
2
100
AcDbBlockReference
 62
2
  6
CONTINUOUS
  2
_FILLED
 10
190.0
 20
206.0
 41
3.5
 42
3.5
 43
3.5
 50
180.0
  0
INSERT
  5
24F
100
AcDbEntity
  8
2
100
AcDbBlockReference
 62
2
  6
CONTINUOUS
  2
_FILLED
 10
256.671
 20
206.0
 41
3.5
 42
3.5
 43
3.5
  0
ENDBLK
  5
250
100
AcDbEntity
  8
0
  6
BYBLOCK
 62
0
100
AcDbBlockEnd
  0
BLOCK
  5
251
100
AcDbEntity
  8
SK2
100
AcDbBlockBegin
 62
2
  6
CONTINUOUS
  2
*D1
 70
65
 10
0.0
 20
0.0
  3
*D1
  1

  0
MTEXT
  5
252
100
AcDbEntity
  8
SK2
100
AcDbMText
 62
5
  6
CONTINUOUS
  7
STANDARD
 71
2
 72
1
 10
210.8355
 20
230.375
 30
0.0
 11
1.0
 21
0.0
 31
0.0
 44
0.9
  1
91.671
 40
3.5
 41
14.25
  0
LINE
  5
253
100
AcDbEntity
  8
SK2
100
AcDbLine
 62
2
  6
CONTINUOUS
 10
165.0
 20
160.0
 11
165.0
 21
227.5
  0
LINE
  5
254
100
AcDbEntity
  8
SK2
100
AcDbLine
 62
2
  6
CONTINUOUS
 10
256.671
 20
160.0
 11
256.671
 21
213.0
  0
LINE
  5
255
100
AcDbEntity
  8
SK2
100
AcDbLine
 62
2
  6
CONTINUOUS
 10
256.671
 20
219.0
 11
256.671
 21
227.5
  0
LINE
  5
256
100
AcDbEntity
  8
SK2
100
AcDbLine
 62
2
  6
CONTINUOUS
 10
165.0
 20
226.0
 11
210.8355
 21
226.0
  0
LINE
  5
257
100
AcDbEntity
  8
SK2
100
AcDbLine
 62
2
  6
CONTINUOUS
 10
256.671
 20
226.0
 11
210.8355
 21
226.0
  0
INSERT
  5
258
100
AcDbEntity
  8
SK2
100
AcDbBlockReference
 62
2
  6
CONTINUOUS
  2
_FILLED
 10
165.0
 20
226.0
 41
3.5
 42
3.5
 43
3.5
 50
180.0
  0
INSERT
  5
259
100
AcDbEntity
  8
SK2
100
AcDbBlockReference
 62
2
  6
CONTINUOUS
  2
_FILLED
 10
256.671
 20
226.0
 41
3.5
 42
3.5
 43
3.5
  0
ENDBLK
  5
25A
100
AcDbEntity
  8
0
  6
BYBLOCK
 62
0
100
AcDbBlockEnd
  0
BLOCK
  5
25B
100
AcDbEntity
  8
SK2
100
AcDbBlockBegin
 62
2
  6
CONTINUOUS
  2
*D2
 70
65
 10
0.0
 20
0.0
  3
*D2
  1

  0
MTEXT
  5
25C
100
AcDbEntity
  8
SK2
100
AcDbMText
 62
5
  6
CONTINUOUS
  7
STANDARD
 71
2
 72
1
 10
236.3355
 20
200.375
 30
0.0
 11
1.0
 21
0.0
 31
0.0
 44
0.9
  1
40.671
 40
3.5
 41
15.0
  0
LINE
  5
25D
100
AcDbEntity
  8
SK2
100
AcDbLine
 62
2
  6
CONTINUOUS
 10
216.0
 20
185.0
 11
216.0
 21
197.5
  0
LINE
  5
25E
100
AcDbEntity
  8
SK2
100
AcDbLine
 62
2
  6
CONTINUOUS
 10
256.671
 20
160.0
 11
256.671
 21
197.5
  0
LINE
  5
25F
100
AcDbEntity
  8
SK2
100
AcDbLine
 62
2
  6
CONTINUOUS
 10
216.0
 20
196.0
 11
236.3355
 21
196.0
  0
LINE
  5
260
100
AcDbEntity
  8
SK2
100
AcDbLine
 62
2
  6
CONTINUOUS
 10
256.671
 20
196.0
 11
236.3355
 21
196.0
  0
INSERT
  5
261
100
AcDbEntity
  8
SK2
100
AcDbBlockReference
 62
2
  6
CONTINUOUS
  2
_FILLED
 10
216.0
 20
196.0
 41
3.5
 42
3.5
 43
3.5
 50
180.0
  0
INSERT
  5
262
100
AcDbEntity
  8
SK2
100
AcDbBlockReference
 62
2
  6
CONTINUOUS
  2
_FILLED
 10
256.671
 20
196.0
 41
3.5
 42
3.5
 43
3.5
  0
ENDBLK
  5
263
100
AcDbEntity
  8
0
  6
BYBLOCK
 62
0
100
AcDbBlockEnd
  0
BLOCK
  5
264
100
AcDbEntity
  8
2
100
AcDbBlockBegin
 62
2
  6
CONTINUOUS
  2
*D3
 70
65
 10
0.0
 20
0.0
  3
*D3
  1

  0
MTEXT
  5
265
100
AcDbEntity
  8
2
100
AcDbMText
 62
5
  6
CONTINUOUS
  7
TEXTSTYLE_2
 71
2
 72
1
 10
277.735
 20
160.0
 30
0.0
 11
0.0
 21
1.0
 31
0.0
 44
0.9
  1
{\Fgdt;n}\Ftxt;32
 40
3.5
 41
9.9166666667
  0
LINE
  5
266
100
AcDbEntity
  8
2
100
AcDbLine
 62
2
  6
CONTINUOUS
 10
256.671
 20
144.0
 11
283.61
 21
144.0
  0
LINE
  5
267
100
AcDbEntity
  8
2
100
AcDbLine
 62
2
  6
CONTINUOUS
 10
256.671
 20
176.0
 11
283.61
 21
176.0
  0
LINE
  5
268
100
AcDbEntity
  8
2
100
AcDbLine
 62
2
  6
CONTINUOUS
 10
282.11
 20
144.0
 11
282.11
 21
160.0
  0
LINE
  5
269
100
AcDbEntity
  8
2
100
AcDbLine
 62
2
  6
CONTINUOUS
 10
282.11
 20
176.0
 11
282.11
 21
160.0
  0
INSERT
  5
26A
100
AcDbEntity
  8
2
100
AcDbBlockReference
 62
2
  6
CONTINUOUS
  2
_FILLED
 10
282.11
 20
144.0
 41
3.5
 42
3.5
 43
3.5
 50
270.0
  0
INSERT
  5
26B
100
AcDbEntity
  8
2
100
AcDbBlockReference
 62
2
  6
CONTINUOUS
  2
_FILLED
 10
282.11
 20
176.0
 41
3.5
 42
3.5
 43
3.5
 50
90.0
  0
ENDBLK
  5
26C
100
AcDbEntity
  8
0
  6
BYBLOCK
 62
0
100
AcDbBlockEnd
  0
BLOCK
  5
26D
100
AcDbEntity
  8
2
100
AcDbBlockBegin
 62
2
  6
CONTINUOUS
  2
*D4
 70
65
 10
0.0
 20
0.0
  3
*D4
  1

  0
MTEXT
  5
26E
100
AcDbEntity
  8
2
100
AcDbMText
 62
5
  6
CONTINUOUS
  7
STANDARD
 71
2
 72
1
 10
227.5
 20
220.375
 30
0.0
 11
1.0
 21
0.0
 31
0.0
 44
0.9
  1
75
 40
3.5
 41
5.25
  0
LINE
  5
26F
100
AcDbEntity
  8
2
100
AcDbLine
 62
2
  6
CONTINUOUS
 10
190.0
 20
185.0
 11
190.0
 21
217.5
  0
LINE
  5
270
100
AcDbEntity
  8
2
100
AcDbLine
 62
2
  6
CONTINUOUS
 10
265.0
 20
160.0
 11
265.0
 21
173.0
  0
LINE
  5
271
100
AcDbEntity
  8
2
100
AcDbLine
 62
2
  6
CONTINUOUS
 10
265.0
 20
179.0
 11
265.0
 21
217.5
  0
LINE
  5
272
100
AcDbEntity
  8
2
100
AcDbLine
 62
2
  6
CONTINUOUS
 10
190.0
 20
216.0
 11
227.5
 21
216.0
  0
LINE
  5
273
100
AcDbEntity
  8
2
100
AcDbLine
 62
2
  6
CONTINUOUS
 10
265.0
 20
216.0
 11
227.5
 21
216.0
  0
INSERT
  5
274
100
AcDbEntity
  8
2
100
AcDbBlockReference
 62
2
  6
CONTINUOUS
  2
_FILLED
 10
190.0
 20
216.0
 41
3.5
 42
3.5
 43
3.5
 50
180.0
  0
INSERT
  5
275
100
AcDbEntity
  8
2
100
AcDbBlockReference
 62
2
  6
CONTINUOUS
  2
_FILLED
 10
265.0
 20
216.0
 41
3.5
 42
3.5
 43
3.5
  0
ENDBLK
  5
276
100
AcDbEntity
  8
0
  6
BYBLOCK
 62
0
100
AcDbBlockEnd
  0
BLOCK
  5
277
100
AcDbEntity
  8
0
100
AcDbBlockBegin
 62
2
  6
CONTINUOUS
  2
*D5
 70
65
 10
0.0
 20
0.0
  3
*D5
  1

  0
MTEXT
  5
278
100
AcDbEntity
  8
0
100
AcDbMText
 62
5
  6
CONTINUOUS
  7
TEXTSTYLE_2
 71
2
 72
1
 10
287.735
 20
160.0
 30
0.0
 11
0.0
 21
1.0
 31
0.0
 44
0.9
  1
{\Fgdt;n}\Ftxt;50
 40
3.5
 41
9.9166666667
  0
LINE
  5
279
100
AcDbEntity
  8
0
100
AcDbLine
 62
2
  6
CONTINUOUS
 10
259.0
 20
135.0
 11
293.61
 21
135.0
  0
LINE
  5
27A
100
AcDbEntity
  8
0
100
AcDbLine
 62
2
  6
CONTINUOUS
 10
259.0
 20
185.0
 11
293.61
 21
185.0
  0
LINE
  5
27B
100
AcDbEntity
  8
0
100
AcDbLine
 62
2
  6
CONTINUOUS
 10
292.11
 20
135.0
 11
292.11
 21
160.0
  0
LINE
  5
27C
100
AcDbEntity
  8
0
100
AcDbLine
 62
2
  6
CONTINUOUS
 10
292.11
 20
185.0
 11
292.11
 21
160.0
  0
INSERT
  5
27D
100
AcDbEntity
  8
0
100
AcDbBlockReference
 62
2
  6
CONTINUOUS
  2
_FILLED
 10
292.11
 20
135.0
 41
3.5
 42
3.5
 43
3.5
 50
270.0
  0
INSERT
  5
27E
100
AcDbEntity
  8
0
100
AcDbBlockReference
 62
2
  6
CONTINUOUS
  2
_FILLED
 10
292.11
 20
185.0
 41
3.5
 42
3.5
 43
3.5
 50
90.0
  0
ENDBLK
  5
27F
100
AcDbEntity
  8
0
  6
BYBLOCK
 62
0
100
AcDbBlockEnd
  0
ENDSEC
  0
SECTION
  2
ENTITIES
  0
DIMENSION
  5
280
100
AcDbEntity
  8
2
100
AcDbDimension
 62
2
  6
CONTINUOUS
  2
*D0
 10
256.671
 20
206.0
 11
215.8355
 21
208.625
 70
160
 71
2
 42
66.671
  3
DIMSTYLE_1
100
AcDbAlignedDimension
 13
190.0
 23
185.0
 14
256.671
 24
181.0
100
AcDbRotatedDimension
  0
DIMENSION
  5
281
100
AcDbEntity
  8
SK2
100
AcDbDimension
 62
2
  6
CONTINUOUS
  2
*D1
 10
256.671
 20
226.0
 11
203.7105
 21
228.625
 70
160
 71
2
 42
91.671
  3
DIMSTYLE_1
100
AcDbAlignedDimension
 13
165.0
 23
160.0
 14
256.671
 24
160.0
100
AcDbRotatedDimension
  0
DIMENSION
  5
282
100
AcDbEntity
  8
SK2
100
AcDbDimension
 62
2
  6
CONTINUOUS
  2
*D2
 10
256.671
 20
196.0
 11
228.8355
 21
198.625
 70
160
 71
2
 42
40.671
  3
DIMSTYLE_1
100
AcDbAlignedDimension
 13
216.0
 23
185.0
 14
256.671
 24
160.0
100
AcDbRotatedDimension
  0
DIMENSION
  5
283
100
AcDbEntity
  8
2
100
AcDbDimension
 62
2
  6
CONTINUOUS
  2
*D3
 10
282.11
 20
176.0
 11
280.5958491733
 21
157.7836332715
 70
160
 71
2
 42
32.0
  1
%%c<>
  3
DIMSTYLE_2
100
AcDbAlignedDimension
 13
256.671
 23
144.0
 14
256.671
 24
176.0
 50
90.0
100
AcDbRotatedDimension
  0
DIMENSION
  5
284
100
AcDbEntity
  8
2
100
AcDbDimension
 62
2
  6
CONTINUOUS
  2
*D4
 10
265.0
 20
216.0
 11
224.875
 21
218.625
 70
160
 71
2
 42
75.0
  3
DIMSTYLE_1
100
AcDbAlignedDimension
 13
190.0
 23
185.0
 14
265.0
 24
160.0
100
AcDbRotatedDimension
  0
DIMENSION
  5
285
100
AcDbEntity
  8
0
100
AcDbDimension
 62
2
  6
CONTINUOUS
  2
*D5
 10
292.11
 20
185.0
 11
290.5958491733
 21
157.7836332715
 70
160
 71
2
 42
50.0
  1
%%c<>
  3
DIMSTYLE_2
100
AcDbAlignedDimension
 13
259.0
 23
135.0
 14
259.0
 24
185.0
 50
90.0
100
AcDbRotatedDimension
  0
MTEXT
  5
286
100
AcDbEntity
  8
6
100
AcDbMText
 62
5
  6
CONTINUOUS
  7
STANDARD
 71
1
 72
1
 10
187.1438497029
 20
82.3507156451
 30
0.0
 11
1.0
 21
0.0
 31
0.0
 44
0.9
  3
Für diese Unterlage behalten wir das Ur-\Pheberrecht. Sie darf nur für den von uns\Pbestimmten Zweck benutzt und ohne unsere \PZustimmung weder vervielfältigt noch \PDritten zugänglich gemacht werden.\P \PWe own the copyright of this document. It\Pde
  1
termined and may neither be copied or\Pmade accessible to outsiders without our\Ppermission.\P \PCe plan reste notre propriété. Il ne peut\Pétre utilisé, copié ou reproduit sans notre\Paccord.
 40
3.5
 41
103.5833333333
  0
LINE
  5
287
100
AcDbEntity
  8
1
100
AcDbLine
 62
9
  6
CONTINUOUS
 10
165.1
 20
142.9436442186
 11
165.1
 21
152.4552161081
  0
LINE
  5
288
100
AcDbEntity
  8
1
100
AcDbLine
 62
6
  6
CONTINUOUS
 10
165.1
 20
152.4552161081
 11
165.1
 21
153.58
  0
LINE
  5
289
100
AcDbEntity
  8
1
100
AcDbLine
 62
6
  6
CONTINUOUS
 10
165.1
 20
166.42
 11
165.1
 21
167.5447838919
  0
LINE
  5
28A
100
AcDbEntity
  8
1
100
AcDbLine
 62
9
  6
CONTINUOUS
 10
165.1
 20
167.5447838919
 11
165.1
 21
177.0563557812
  0
LINE
  5
28B
100
AcDbEntity
  8
1
100
AcDbLine
 62
9
  6
CONTINUOUS
 10
166.0499627576
 20
178.0551031342
 11
166.0499627576
 21
167.848512546
  0
LINE
  5
28C
100
AcDbEntity
  8
1
100
AcDbLine
 62
9
  6
CONTINUOUS
 10
166.0499627576
 20
152.151487454
 11
166.0499627576
 21
141.9448968658
  0
LINE
  5
28D
100
AcDbEntity
  8
1
100
AcDbLine
 62
6
  6
CONTINUOUS
 10
166.25
 20
153.6906402405
 11
166.25
 21
154.73
  0
LINE
  5
28E
100
AcDbEntity
  8
1
100
AcDbLine
 62
6
  6
CONTINUOUS
 10
166.25
 20
165.27
 11
166.25
 21
166.3093597595
  0
LINE
  5
28F
100
AcDbEntity
  8
1
100
AcDbLine
 62
9
  6
CONTINUOUS
 10
168.3
 20
151.8955292024
 11
168.3
 21
154.73
  0
LINE
  5
290
100
AcDbEntity
  8
1
100
AcDbLine
 62
9
  6
CONTINUOUS
 10
168.3
 20
165.27
 11
168.3
 21
168.1044707976
  0
LINE
  5
291
100
AcDbEntity
  8
1
100
AcDbLine
 62
6
  6
CONTINUOUS
 10
169.7
 20
165.9311502468
 11
169.7
 21
154.0688497532
  0
LINE
  5
292
100
AcDbEntity
  8
1
100
AcDbLine
 62
6
  6
CONTINUOUS
 10
165.8364902099
 20
152.35
 11
165.788070731
 21
152.264042294
  0
LINE
  5
293
100
AcDbEntity
  8
1
100
AcDbLine
 62
6
  6
CONTINUOUS
 10
165.788070731
 20
167.735957706
 11
165.8364902099
 21
167.65
  0
LINE
  5
294
100
AcDbEntity
  8
1
100
AcDbLine
 62
9
  6
CONTINUOUS
 10
165.1
 20
153.58
 11
166.25
 21
154.73
  0
LINE
  5
295
100
AcDbEntity
  8
1
100
AcDbLine
 62
9
  6
CONTINUOUS
 10
166.25
 20
165.27
 11
165.1
 21
166.42
  0
LINE
  5
296
100
AcDbEntity
  8
1
100
AcDbLine
 62
6
  6
CONTINUOUS
 10
188.0
 20
179.1548
 11
188.0
 21
140.8452
  0
LINE
  5
297
100
AcDbEntity
  8
1
100
AcDbLine
 62
9
  6
CONTINUOUS
 10
188.670110233
 20
141.0247554958
 11
188.670110233
 21
178.9752445042
  0
LINE
  5
298
100
AcDbEntity
  8
1
100
AcDbLine
 62
9
  6
CONTINUOUS
 10
188.8254016601
 20
141.0452
 11
188.8254016601
 21
178.9548
  0
LINE
  5
299
100
AcDbEntity
  8
1
100
AcDbLine
 62
9
  6
CONTINUOUS
 10
189.6978303695
 20
141.0452
 11
189.6978303695
 21
178.9548
  0
LINE
  5
29A
100
AcDbEntity
  8
1
100
AcDbLine
 62
6
  6
CONTINUOUS
 10
190.0
 20
185.0
 11
190.0
 21
135.0
  0
LINE
  5
29B
100
AcDbEntity
  8
1
100
AcDbLine
 62
6
  6
CONTINUOUS
 10
259.0
 20
135.0
 11
243.75
 21
135.0
  0
LINE
  5
29C
100
AcDbEntity
  8
1
100
AcDbLine
 62
6
  6
CONTINUOUS
 10
204.6080671685
 20
135.0
 11
190.0
 21
135.0
  0
LINE
  5
29D
100
AcDbEntity
  8
1
100
AcDbLine
 62
6
  6
CONTINUOUS
 10
211.3919328315
 20
135.0
 11
215.95
 21
135.0
  0
LINE
  5
29E
100
AcDbEntity
  8
1
100
AcDbLine
 62
9
  6
CONTINUOUS
 10
165.1
 20
153.042851889
 11
166.25
 21
153.6906402405
  0
LINE
  5
29F
100
AcDbEntity
  8
1
100
AcDbLine
 62
6
  6
CONTINUOUS
 10
259.0
 20
137.090144929
 11
253.0
 21
137.090144929
  0
LINE
  5
2A0
100
AcDbEntity
  8
1
100
AcDbLine
 62
6
  6
CONTINUOUS
 10
206.8375
 20
138.525
 11
209.1625
 21
138.525
  0
LINE
  5
2A1
100
AcDbEntity
  8
1
100
AcDbLine
 62
8
  6
HIDDEN
 10
255.8049745962
 20
139.025
 11
242.5
 21
139.025
  0
LINE
  5
2A2
100
AcDbEntity
  8
1
100
AcDbLine
 62
6
  6
CONTINUOUS
 10
242.5
 20
139.025
 11
233.25
 21
139.025
  0
LINE
  5
2A3
100
AcDbEntity
  8
1
100
AcDbLine
 62
6
  6
CONTINUOUS
 10
259.0
 20
139.8788215179
 11
253.0
 21
139.8788215179
  0
LINE
  5
2A4
100
AcDbEntity
  8
1
100
AcDbLine
 62
6
  6
CONTINUOUS
 10
188.0
 20
140.8452
 11
166.0499627576
 21
141.9448968658
  0
LINE
  5
2A5
100
AcDbEntity
  8
1
100
AcDbLine
 62
9
  6
CONTINUOUS
 10
166.25
 20
166.3093597595
 11
165.1
 21
166.957148111
  0
LINE
  5
2A6
100
AcDbEntity
  8
1
100
AcDbLine
 62
9
  6
CONTINUOUS
 10
202.6936862729
 20
144.65
 11
202.6936862729
 21
144.25
  0
LINE
  5
2A7
100
AcDbEntity
  8
1
100
AcDbLine
 62
6
  6
CONTINUOUS
 10
209.9125
 20
182.4375471695
 11
211.3919328315
 21
185.0
  0
LINE
  5
2A8
100
AcDbEntity
  8
1
100
AcDbLine
 62
6
  6
CONTINUOUS
 10
197.332327083
 20
140.2673493924
 11
204.6080671685
 21
140.2673493924
  0
LINE
  5
2A9
100
AcDbEntity
  8
1
100
AcDbLine
 62
6
  6
CONTINUOUS
 10
211.3919328315
 20
140.2673493924
 11
215.95
 21
140.2673493924
  0
LINE
  5
2AA
100
AcDbEntity
  8
1
100
AcDbLine
 62
6
  6
CONTINUOUS
 10
231.65
 20
141.0
 11
216.95
 21
141.0
  0
LINE
  5
2AB
100
AcDbEntity
  8
1
100
AcDbLine
 62
6
  6
CONTINUOUS
 10
189.6978303695
 20
141.0452
 11
188.8254016601
 21
141.0452
  0
LINE
  5
2AC
100
AcDbEntity
  8
1
100
AcDbLine
 62
6
  6
CONTINUOUS
 10
209.9125
 20
137.5624528305
 11
211.3919328315
 21
135.0
  0
LINE
  5
2AD
100
AcDbEntity
  8
1
100
AcDbLine
 62
6
  6
CONTINUOUS
 10
204.6080671685
 20
185.0
 11
204.6080671685
 21
144.65
  0
LINE
  5
2AE
100
AcDbEntity
  8
1
100
AcDbLine
 62
6
  6
CONTINUOUS
 10
204.6080671685
 20
140.2673493924
 11
204.6080671685
 21
135.0
  0
LINE
  5
2AF
100
AcDbEntity
  8
1
100
AcDbLine
 62
6
  6
CONTINUOUS
 10
206.0875
 20
182.4374893675
 11
206.0875
 21
144.65
  0
LINE
  5
2B0
100
AcDbEntity
  8
1
100
AcDbLine
 62
6
  6
CONTINUOUS
 10
206.0875
 20
137.5624895185
 11
206.0875
 21
143.9274107562
  0
LINE
  5
2B1
100
AcDbEntity
  8
1
100
AcDbLine
 62
9
  6
CONTINUOUS
 10
206.8375
 20
181.475
 11
206.8375
 21
138.525
  0
LINE
  5
2B2
100
AcDbEntity
  8
1
100
AcDbLine
 62
6
  6
CONTINUOUS
 10
215.95
 20
144.25
 11
209.8756631058
 21
144.25
  0
LINE
  5
2B3
100
AcDbEntity
  8
1
100
AcDbLine
 62
6
  6
CONTINUOUS
 10
206.1243368942
 20
144.25
 11
202.6936862729
 21
144.25
  0
LINE
  5
2B4
100
AcDbEntity
  8
1
100
AcDbLine
 62
6
  6
CONTINUOUS
 10
202.6936862729
 20
144.65
 11
206.1243368942
 21
144.65
  0
LINE
  5
2B5
100
AcDbEntity
  8
1
100
AcDbLine
 62
6
  6
CONTINUOUS
 10
209.8756631058
 20
144.65
 11
215.95
 21
144.65
  0
LINE
  5
2B6
100
AcDbEntity
  8
1
100
AcDbLine
 62
8
  6
HIDDEN
 10
231.3946091849
 20
147.4575
 11
216.671
 21
147.4575
  0
LINE
  5
2B7
100
AcDbEntity
  8
1
100
AcDbLine
 62
9
  6
CONTINUOUS
 10
209.1625
 20
181.475
 11
209.1625
 21
138.525
  0
LINE
  5
2B8
100
AcDbEntity
  8
1
100
AcDbLine
 62
6
  6
CONTINUOUS
 10
209.9125
 20
137.5624895185
 11
209.9125
 21
143.9274107562
  0
LINE
  5
2B9
100
AcDbEntity
  8
1
100
AcDbLine
 62
6
  6
CONTINUOUS
 10
209.9125
 20
144.65
 11
209.9125
 21
182.4374893675
  0
LINE
  5
2BA
100
AcDbEntity
  8
1
100
AcDbLine
 62
6
  6
CONTINUOUS
 10
188.670110233
 20
141.0247554958
 11
188.0
 21
140.8452
  0
LINE
  5
2BB
100
AcDbEntity
  8
1
100
AcDbLine
 62
8
  6
HIDDEN
 10
232.1893410399
 20
147.3879699721
 11
231.3946091849
 21
147.4575
  0
LINE
  5
2BC
100
AcDbEntity
  8
1
100
AcDbLine
 62
8
  6
HIDDEN
 10
256.296
 20
144.0
 11
232.1893410399
 21
147.3879699721
  0
LINE
  5
2BD
100
AcDbEntity
  8
1
100
AcDbLine
 62
6
  6
CONTINUOUS
 10
211.3919328315
 20
185.0
 11
211.3919328315
 21
144.65
  0
LINE
  5
2BE
100
AcDbEntity
  8
1
100
AcDbLine
 62
6
  6
CONTINUOUS
 10
211.3919328315
 20
140.2673493924
 11
211.3919328315
 21
135.0
  0
LINE
  5
2BF
100
AcDbEntity
  8
1
100
AcDbLine
 62
9
  6
CONTINUOUS
 10
169.1180581762
 20
152.35
 11
165.8364902099
 21
152.35
  0
LINE
  5
2C0
100
AcDbEntity
  8
1
100
AcDbLine
 62
6
  6
CONTINUOUS
 10
168.3
 20
154.73
 11
166.25
 21
154.73
  0
LINE
  5
2C1
100
AcDbEntity
  8
1
100
AcDbLine
 62
6
  6
CONTINUOUS
 10
215.95
 20
135.0000579217
 11
215.95
 21
184.999977077
  0
LINE
  5
2C2
100
AcDbEntity
  8
1
100
AcDbLine
 62
8
  6
HIDDEN
 10
216.671
 20
172.5425
 11
216.671
 21
147.4575
  0
LINE
  5
2C3
100
AcDbEntity
  8
1
100
AcDbLine
 62
9
  6
CONTINUOUS
 10
216.95
 20
179.0
 11
216.95
 21
141.0
  0
LINE
  5
2C4
100
AcDbEntity
  8
1
100
AcDbLine
 62
6
  6
CONTINUOUS
 10
204.6080671685
 20
135.0
 11
206.0875
 21
137.5624528305
  0
LINE
  5
2C5
100
AcDbEntity
  8
1
100
AcDbLine
 62
6
  6
CONTINUOUS
 10
259.0
 20
157.2113234112
 11
253.0
 21
157.2113234112
  0
LINE
  5
2C6
100
AcDbEntity
  8
4
100
AcDbLine
 62
7
  6
CENTER
 10
261.671
 20
160.0
 11
162.1
 21
160.0
  0
LINE
  5
2C7
100
AcDbEntity
  8
1
100
AcDbLine
 62
9
  6
CONTINUOUS
 10
186.0993072297
 20
160.0000000415
 11
185.5000358586
 21
160.0000000192
  0
LINE
  5
2C8
100
AcDbEntity
  8
1
100
AcDbLine
 62
9
  6
CONTINUOUS
 10
178.9006866618
 20
159.9999999418
 11
179.4999541331
 21
159.9999999645
  0
LINE
  5
2C9
100
AcDbEntity
  8
1
100
AcDbLine
 62
6
  6
CONTINUOUS
 10
259.0
 20
162.7886765888
 11
253.0
 21
162.7886765888
  0
LINE
  5
2CA
100
AcDbEntity
  8
1
100
AcDbLine
 62
6
  6
CONTINUOUS
 10
204.6080671685
 20
185.0
 11
206.0875
 21
182.4375471695
  0
LINE
  5
2CB
100
AcDbEntity
  8
1
100
AcDbLine
 62
9
  6
CONTINUOUS
 10
168.3
 20
165.27
 11
166.25
 21
165.27
  0
LINE
  5
2CC
100
AcDbEntity
  8
1
100
AcDbLine
 62
9
  6
CONTINUOUS
 10
165.8364902099
 20
167.65
 11
169.1180581762
 21
167.65
  0
LINE
  5
2CD
100
AcDbEntity
  8
1
100
AcDbLine
 62
8
  6
HIDDEN
 10
256.296
 20
176.0
 11
232.1893410399
 21
172.6120300279
  0
LINE
  5
2CE
100
AcDbEntity
  8
1
100
AcDbLine
 62
8
  6
HIDDEN
 10
232.1893410399
 20
172.6120300279
 11
231.3946091849
 21
172.5425
  0
LINE
  5
2CF
100
AcDbEntity
  8
1
100
AcDbLine
 62
6
  6
CONTINUOUS
 10
188.670110233
 20
178.9752445042
 11
188.0
 21
179.1548
  0
LINE
  5
2D0
100
AcDbEntity
  8
1
100
AcDbLine
 62
8
  6
HIDDEN
 10
231.3946091849
 20
172.5425
 11
231.3946091849
 21
147.4575
  0
LINE
  5
2D1
100
AcDbEntity
  8
1
100
AcDbLine
 62
9
  6
CONTINUOUS
 10
231.65
 20
179.0
 11
231.65
 21
141.0
  0
LINE
  5
2D2
100
AcDbEntity
  8
1
100
AcDbLine
 62
6
  6
CONTINUOUS
 10
232.45
 20
180.175
 11
232.45
 21
139.825
  0
LINE
  5
2D3
100
AcDbEntity
  8
1
100
AcDbLine
 62
9
  6
CONTINUOUS
 10
233.25
 20
139.025
 11
233.25
 21
180.975
  0
LINE
  5
2D4
100
AcDbEntity
  8
1
100
AcDbLine
 62
8
  6
HIDDEN
 10
231.3946091849
 20
172.5425
 11
216.671
 21
172.5425
  0
LINE
  5
2D5
100
AcDbEntity
  8
1
100
AcDbLine
 62
6
  6
CONTINUOUS
 10
189.6978303695
 20
178.9548
 11
188.8254016601
 21
178.9548
  0
LINE
  5
2D6
100
AcDbEntity
  8
1
100
AcDbLine
 62
6
  6
CONTINUOUS
 10
231.65
 20
179.0
 11
216.95
 21
179.0
  0
LINE
  5
2D7
100
AcDbEntity
  8
1
100
AcDbLine
 62
6
  6
CONTINUOUS
 10
242.5
 20
183.7282608696
 11
242.5
 21
136.25
  0
LINE
  5
2D8
100
AcDbEntity
  8
1
100
AcDbLine
 62
6
  6
CONTINUOUS
 10
188.0
 20
179.1548
 11
166.0499627576
 21
178.0551031342
  0
LINE
  5
2D9
100
AcDbEntity
  8
1
100
AcDbLine
 62
6
  6
CONTINUOUS
 10
259.0
 20
180.1211784821
 11
253.0
 21
180.1211784821
  0
LINE
  5
2DA
100
AcDbEntity
  8
1
100
AcDbLine
 62
8
  6
HIDDEN
 10
255.8049745962
 20
180.975
 11
242.5
 21
180.975
  0
LINE
  5
2DB
100
AcDbEntity
  8
1
100
AcDbLine
 62
6
  6
CONTINUOUS
 10
242.5
 20
180.975
 11
233.25
 21
180.975
  0
LINE
  5
2DC
100
AcDbEntity
  8
1
100
AcDbLine
 62
6
  6
CONTINUOUS
 10
209.1625
 20
181.475
 11
206.8375
 21
181.475
  0
LINE
  5
2DD
100
AcDbEntity
  8
1
100
AcDbLine
 62
6
  6
CONTINUOUS
 10
259.0
 20
182.909855071
 11
253.0
 21
182.909855071
  0
LINE
  5
2DE
100
AcDbEntity
  8
1
100
AcDbLine
 62
9
  6
CONTINUOUS
 10
243.75
 20
185.0
 11
243.75
 21
135.0
  0
LINE
  5
2DF
100
AcDbEntity
  8
1
100
AcDbLine
 62
6
  6
CONTINUOUS
 10
259.0
 20
185.0
 11
243.75
 21
185.0
  0
LINE
  5
2E0
100
AcDbEntity
  8
1
100
AcDbLine
 62
6
  6
CONTINUOUS
 10
204.6080671685
 20
185.0
 11
190.0
 21
185.0
  0
LINE
  5
2E1
100
AcDbEntity
  8
1
100
AcDbLine
 62
6
  6
CONTINUOUS
 10
211.3919328315
 20
185.0
 11
215.95
 21
185.0
  0
LINE
  5
2E2
100
AcDbEntity
  8
1
100
AcDbLine
 62
9
  6
CONTINUOUS
 10
253.0
 20
182.909855071
 11
253.0
 21
180.1211784821
  0
LINE
  5
2E3
100
AcDbEntity
  8
1
100
AcDbLine
 62
9
  6
CONTINUOUS
 10
253.0
 20
162.7886765888
 11
253.0
 21
157.2113234112
  0
LINE
  5
2E4
100
AcDbEntity
  8
1
100
AcDbLine
 62
9
  6
CONTINUOUS
 10
253.0
 20
139.8788215179
 11
253.0
 21
137.090144929
  0
LINE
  5
2E5
100
AcDbEntity
  8
1
100
AcDbLine
 62
8
  6
HIDDEN
 10
255.8049745962
 20
180.975
 11
255.8049745962
 21
139.025
  0
LINE
  5
2E6
100
AcDbEntity
  8
1
100
AcDbLine
 62
8
  6
HIDDEN
 10
256.671
 20
179.475
 11
256.671
 21
140.525
  0
LINE
  5
2E7
100
AcDbEntity
  8
1
100
AcDbLine
 62
9
  6
CONTINUOUS
 10
259.0
 20
185.0
 11
259.0
 21
182.909855071
  0
LINE
  5
2E8
100
AcDbEntity
  8
1
100
AcDbLine
 62
9
  6
CONTINUOUS
 10
259.0
 20
180.1211784821
 11
259.0
 21
162.7886765888
  0
LINE
  5
2E9
100
AcDbEntity
  8
1
100
AcDbLine
 62
9
  6
CONTINUOUS
 10
259.0
 20
157.2113234112
 11
259.0
 21
139.8788215179
  0
LINE
  5
2EA
100
AcDbEntity
  8
1
100
AcDbLine
 62
9
  6
CONTINUOUS
 10
259.0
 20
137.090144929
 11
259.0
 21
135.0
  0
LINE
  5
2EB
100
AcDbEntity
  8
1
100
AcDbLine
 62
8
  6
HIDDEN
 10
256.671
 20
140.525
 11
255.8049745962
 21
139.025
  0
LINE
  5
2EC
100
AcDbEntity
  8
1
100
AcDbLine
 62
8
  6
HIDDEN
 10
256.671
 20
179.475
 11
255.8049745962
 21
180.975
  0
LINE
  5
2ED
100
AcDbEntity
  8
1
100
AcDbLine
 62
9
  6
CONTINUOUS
 10
265.0
 20
179.0
 11
265.0
 21
141.0
  0
ARC
  5
2EE
100
AcDbEntity
  8
1
100
AcDbCircle
 62
6
  6
CONTINUOUS
 10
172.3446115961
 20
144.45
 40
33.780317364
100
AcDbArc
 50
359.6607721968
 51
0.3392278032
  0
ARC
  5
2EF
100
AcDbEntity
  8
1
100
AcDbCircle
 62
6
  6
CONTINUOUS
 10
205.1743615991
 20
148.4333954228
 40
11.3217407285
100
AcDbArc
 50
223.8842511689
 51
226.1595367537
  0
ARC
  5
2F0
100
AcDbEntity
  8
1
100
AcDbCircle
 62
6
  6
CONTINUOUS
 10
202.6936862729
 20
138.65
 40
6.0
100
AcDbArc
 50
90.0
 51
161.1845838321
  0
ARC
  5
2F1
100
AcDbEntity
  8
1
100
AcDbCircle
 62
6
  6
CONTINUOUS
 10
202.6936862729
 20
138.65
 40
5.599999234
100
AcDbArc
 50
90.0
 51
163.2131286444
  0
ARC
  5
2F2
100
AcDbEntity
  8
1
100
AcDbCircle
 62
6
  6
CONTINUOUS
 10
207.5128403903
 20
143.9280470928
 40
1.4253405323
100
AcDbArc
 50
166.9454935844
 51
180.0255794333
  0
ARC
  5
2F3
100
AcDbEntity
  8
1
100
AcDbCircle
 62
9
  6
CONTINUOUS
 10
168.3
 20
156.13
 40
1.4
100
AcDbArc
 50
270.0
 51
353.9429041005
  0
ARC
  5
2F4
100
AcDbEntity
  8
1
100
AcDbCircle
 62
6
  6
CONTINUOUS
 10
166.1
 20
142.9436442185
 40
1.0
100
AcDbArc
 50
180.0
 51
267.1318795127
  0
ARC
  5
2F5
100
AcDbEntity
  8
1
100
AcDbCircle
 62
6
  6
CONTINUOUS
 10
206.8375
 20
137.775
 40
0.75
100
AcDbArc
 50
90.0
 51
180.0
  0
ARC
  5
2F6
100
AcDbEntity
  8
1
100
AcDbCircle
 62
6
  6
CONTINUOUS
 10
188.8254016601
 20
140.4452
 40
0.6
100
AcDbArc
 50
90.0
 51
105.0
  0
ARC
  5
2F7
100
AcDbEntity
  8
1
100
AcDbCircle
 62
6
  6
CONTINUOUS
 10
189.6978303695
 20
140.4452
 40
0.6
100
AcDbArc
 50
59.7031783818
 51
90.0
  0
ARC
  5
2F8
100
AcDbEntity
  8
1
100
AcDbCircle
 62
6
  6
CONTINUOUS
 10
89.3335564118
 20
192.9205355098
 40
126.7303074979
100
AcDbArc
 50
335.4508108779
 51
337.1137532297
  0
CIRCLE
  5
2F9
100
AcDbEntity
  8
1
100
AcDbCircle
 62
6
  6
CONTINUOUS
 10
182.5
 20
160.0
 40
3.0
  0
ARC
  5
2FA
100
AcDbEntity
  8
1
100
AcDbCircle
 62
9
  6
CONTINUOUS
 10
168.3
 20
163.87
 40
1.4
100
AcDbArc
 50
6.057095616
 51
90.0
  0
ARC
  5
2FB
100
AcDbEntity
  8
1
100
AcDbCircle
 62
6
  6
CONTINUOUS
 10
166.1
 20
177.0563557815
 40
1.0
100
AcDbArc
 50
92.8681204873
 51
180.0
  0
ARC
  5
2FC
100
AcDbEntity
  8
1
100
AcDbCircle
 62
6
  6
CONTINUOUS
 10
206.8375
 20
182.225
 40
0.75
100
AcDbArc
 50
180.0
 51
270.0
  0
ARC
  5
2FD
100
AcDbEntity
  8
1
100
AcDbCircle
 62
6
  6
CONTINUOUS
 10
188.8254016601
 20
179.5548
 40
0.6
100
AcDbArc
 50
255.0
 51
270.0
  0
ARC
  5
2FE
100
AcDbEntity
  8
1
100
AcDbCircle
 62
6
  6
CONTINUOUS
 10
189.6978303695
 20
179.5548
 40
0.6
100
AcDbArc
 50
270.0
 51
300.2968216182
  0
ARC
  5
2FF
100
AcDbEntity
  8
1
100
AcDbCircle
 62
6
  6
CONTINUOUS
 10
208.4871596097
 20
143.9280470928
 40
1.4253405323
100
AcDbArc
 50
359.9744205667
 51
13.0545064156
  0
ARC
  5
300
100
AcDbEntity
  8
1
100
AcDbCircle
 62
6
  6
CONTINUOUS
 10
216.95
 20
140.0
 40
1.0
100
AcDbArc
 50
90.0
 51
172.9880362167
  0
ARC
  5
301
100
AcDbEntity
  8
1
100
AcDbCircle
 62
6
  6
CONTINUOUS
 10
231.65
 20
140.2
 40
0.8
100
AcDbArc
 50
0.0
 51
90.0
  0
ARC
  5
302
100
AcDbEntity
  8
1
100
AcDbCircle
 62
6
  6
CONTINUOUS
 10
233.25
 20
139.825
 40
0.8
100
AcDbArc
 50
180.0
 51
270.0
  0
ARC
  5
303
100
AcDbEntity
  8
1
100
AcDbCircle
 62
6
  6
CONTINUOUS
 10
209.1625
 20
137.775
 40
0.75
100
AcDbArc
 50
0.0
 51
90.0
  0
ARC
  5
304
100
AcDbEntity
  8
1
100
AcDbCircle
 62
6
  6
CONTINUOUS
 10
255.270070532
 20
-606.4358597727
 40
779.4077988116
100
AcDbArc
 50
96.4066809432
 51
96.5731523932
  0
ARC
  5
305
100
AcDbEntity
  8
1
100
AcDbCircle
 62
6
  6
CONTINUOUS
 10
243.6553884039
 20
144.45
 40
33.780317364
100
AcDbArc
 50
179.6607721968
 51
180.3392278032
  0
ARC
  5
306
100
AcDbEntity
  8
1
100
AcDbCircle
 62
6
  6
CONTINUOUS
 10
259.0
 20
141.0
 40
6.0
100
AcDbArc
 50
270.0
 51
360.0
  0
ARC
  5
307
100
AcDbEntity
  8
1
100
AcDbCircle
 62
6
  6
CONTINUOUS
 10
243.75
 20
136.25
 40
1.25
100
AcDbArc
 50
180.0
 51
270.0
  0
ARC
  5
308
100
AcDbEntity
  8
1
100
AcDbCircle
 62
6
  6
CONTINUOUS
 10
216.95
 20
180.0
 40
1.0
100
AcDbArc
 50
180.0
 51
270.0
  0
ARC
  5
309
100
AcDbEntity
  8
1
100
AcDbCircle
 62
6
  6
CONTINUOUS
 10
231.65
 20
179.8
 40
0.8
100
AcDbArc
 50
270.0
 51
360.0
  0
ARC
  5
30A
100
AcDbEntity
  8
1
100
AcDbCircle
 62
6
  6
CONTINUOUS
 10
233.25
 20
180.175
 40
0.8
100
AcDbArc
 50
90.0
 51
180.0
  0
ARC
  5
30B
100
AcDbEntity
  8
1
100
AcDbCircle
 62
6
  6
CONTINUOUS
 10
209.1625
 20
182.225
 40
0.75
100
AcDbArc
 50
270.0
 51
360.0
  0
ARC
  5
30C
100
AcDbEntity
  8
1
100
AcDbCircle
 62
6
  6
CONTINUOUS
 10
259.0
 20
179.0
 40
6.0
100
AcDbArc
 50
0.0
 51
90.0
  0
ARC
  5
30D
100
AcDbEntity
  8
1
100
AcDbCircle
 62
6
  6
CONTINUOUS
 10
243.75
 20
183.75
 40
1.25
100
AcDbArc
 50
90.0
 51
156.6321188674
  0
ARC
  5
30E
100
AcDbEntity
  8
1
100
AcDbCircle
 62
6
  6
CONTINUOUS
 10
255.2700705327
 20
926.4358597788
 40
779.4077988177
100
AcDbArc
 50
263.4268476068
 51
263.5933190568
  0
ARC
  5
30F
100
AcDbEntity
  8
1
100
AcDbCircle
 62
6
  6
CONTINUOUS
 10
326.6664435879
 20
192.9205355097
 40
126.7303074975
100
AcDbArc
 50
202.8862467703
 51
204.5491891221
  0
SPLINE
  5
310
100
AcDbEntity
  8
1
100
AcDbSpline
 62
6
  6
CONTINUOUS
 70
0
 71
3
 72
12
 73
8
 74
0
 42
0.0000001
 43
0.0000001
 44
0.0000000001
 40
0.0
 40
0.0
 40
0.0
 40
0.0
 40
0.1864872008
 40
0.2991691175
 40
0.4237947907
 40
0.7009903902
 40
1.0
 40
1.0
 40
1.0
 40
1.0
 10
250.211820776
 20
138.6339010483
 30
0.0
 10
250.285573048
 20
138.8181570114
 30
0.0
 10
250.4988146036
 20
139.074201113
 30
0.0
 10
250.8623517509
 20
139.3400897537
 30
0.0
 10
251.347986333
 20
139.5979283502
 30
0.0
 10
252.0669492051
 20
139.8192106022
 30
0.0
 10
252.6817801853
 20
139.8788215179
 30
0.0
 10
253.0
 20
139.8788215179
 30
0.0
  0
SPLINE
  5
311
100
AcDbEntity
  8
1
100
AcDbSpline
 62
6
  6
CONTINUOUS
 70
0
 71
3
 72
9
 73
5
 74
0
 42
0.0000001
 43
0.0000001
 44
0.0000000001
 40
0.0
 40
0.0
 40
0.0
 40
0.0
 40
0.1210170113
 40
1.0
 40
1.0
 40
1.0
 40
1.0
 10
242.6
 20
184.2393511425
 30
0.0
 10
242.5921119231
 20
184.2198362435
 30
0.0
 10
242.5304833481
 20
184.0572720109
 30
0.0
 10
242.5
 20
183.8811448242
 30
0.0
 10
242.5
 20
183.7282608696
 30
0.0
  0
LINE
  5
312
100
AcDbEntity
  8
1
100
AcDbLine
 62
6
  6
CONTINUOUS
 10
242.6025286067
 20
184.2457916917
 11
242.6
 21
184.2393511425
  0
SPLINE
  5
313
100
AcDbEntity
  8
1
100
AcDbSpline
 62
6
  6
CONTINUOUS
 70
0
 71
3
 72
14
 73
10
 74
0
 42
0.0000001
 43
0.0000001
 44
0.0000000001
 40
0.0
 40
0.0
 40
0.0
 40
0.0
 40
0.2849341028
 40
0.4248354607
 40
0.5607976074
 40
0.6905057872
 40
0.8102728068
 40
0.9152136275
 40
1.0
 40
1.0
 40
1.0
 40
1.0
 10
259.0
 20
139.8788215179
 30
0.0
 10
259.3932413194
 20
139.8788215179
 30
0.0
 10
259.9803156189
 20
139.9165781211
 30
0.0
 10
260.7455732014
 20
140.0336488216
 30
0.0
 10
261.2943615233
 20
140.144920851
 30
0.0
 10
261.8114840618
 20
140.2696308791
 30
0.0
 10
262.2854121304
 20
140.3912939539
 30
0.0
 10
262.7008590169
 20
140.4886620846
 30
0.0
 10
262.9617467631
 20
140.5265799495
 30
0.0
 10
263.0787615394
 20
140.5266422767
 30
0.0
  0
SPLINE
  5
314
100
AcDbEntity
  8
1
100
AcDbSpline
 62
6
  6
CONTINUOUS
 70
0
 71
3
 72
12
 73
8
 74
0
 42
0.0000001
 43
0.0000001
 44
0.0000000001
 40
0.0
 40
0.0
 40
0.0
 40
0.0
 40
0.2990219736
 40
0.576223749
 40
0.7008486278
 40
0.8135266757
 40
1.0
 40
1.0
 40
1.0
 40
1.0
 10
253.0
 20
180.1211784821
 30
0.0
 10
252.6817408381
 20
180.1211784821
 30
0.0
 10
252.0668390589
 20
180.1808033547
 30
0.0
 10
251.3478054317
 20
180.402137733
 30
0.0
 10
250.8621476325
 20
180.6600350256
 30
0.0
 10
250.4986255472
 20
180.9259723523
 30
0.0
 10
250.2854190195
 20
181.1820687696
 30
0.0
 10
250.2117209966
 20
181.3663481219
 30
0.0
  0
SPLINE
  5
315
100
AcDbEntity
  8
1
100
AcDbSpline
 62
6
  6
CONTINUOUS
 70
0
 71
3
 72
14
 73
10
 74
0
 42
0.0000001
 43
0.0000001
 44
0.0000000001
 40
0.0
 40
0.0
 40
0.0
 40
0.0
 40
0.084787904
 40
0.1897281036
 40
0.3094961218
 40
0.4392034612
 40
0.5751658802
 40
0.7150658776
 40
1.0
 40
1.0
 40
1.0
 40
1.0
 10
263.078743805
 20
179.4733563499
 30
0.0
 10
262.9617274092
 20
179.4734162583
 30
0.0
 10
262.7008408526
 20
179.5113491013
 30
0.0
 10
262.2853912456
 20
179.6087046676
 30
0.0
 10
261.8114686414
 20
179.73038021
 30
0.0
 10
261.2943451988
 20
179.8550788113
 30
0.0
 10
260.7455629718
 20
179.9663552335
 30
0.0
 10
259.9803095161
 20
180.083422403
 30
0.0
 10
259.3932396824
 20
180.1211784821
 30
0.0
 10
259.0
 20
180.1211784821
 30
0.0
  0
SPLINE
  5
316
100
AcDbEntity
  8
1
100
AcDbSpline
 62
6
  6
CONTINUOUS
 70
0
 71
3
 72
23
 73
19
 74
0
 42
0.0000001
 43
0.0000001
 44
0.0000000001
 40
0.0
 40
0.0
 40
0.0
 40
0.0
 40
0.0184012597
 40
0.034473728
 40
0.048862242
 40
0.0626721123
 40
0.0933866733
 40
0.1123754217
 40
0.1342104299
 40
0.1862913411
 40
0.2480783111
 40
0.3168255001
 40
0.3898617061
 40
0.4650962202
 40
0.5412869562
 40
0.6941154498
 40
0.8470538126
 40
1.0
 40
1.0
 40
1.0
 40
1.0
 10
263.0787615394
 20
140.5266422767
 30
0.0
 10
263.1190160488
 20
140.5266637179
 30
0.0
 10
263.1946102328
 20
140.5225318376
 30
0.0
 10
263.2994441074
 20
140.4981454639
 30
0.0
 10
263.386682068
 20
140.4530907109
 30
0.0
 10
263.4783319914
 20
140.3590340088
 30
0.0
 10
263.5177380609
 20
140.2178822431
 30
0.0
 10
263.5170426424
 20
140.0616183426
 30
0.0
 10
263.4876349606
 20
139.8597080492
 30
0.0
 10
263.394367389
 20
139.5759703271
 30
0.0
 10
263.2135037343
 20
139.2184952881
 30
0.0
 10
262.9611130455
 20
138.850082508
 30
0.0
 10
262.6463775691
 20
138.4931563466
 30
0.0
 10
262.2794720217
 20
138.1651124902
 30
0.0
 10
261.7357410181
 20
137.779224214
 30
0.0
 10
260.9794929968
 20
137.4087953961
 30
0.0
 10
260.0052438835
 20
137.147524856
 30
0.0
 10
259.3345844101
 20
137.090144929
 30
0.0
 10
259.0
 20
137.090144929
 30
0.0
  0
SPLINE
  5
317
100
AcDbEntity
  8
1
100
AcDbSpline
 62
6
  6
CONTINUOUS
 70
0
 71
3
 72
15
 73
11
 74
0
 42
0.0000001
 43
0.0000001
 44
0.0000000001
 40
0.0
 40
0.0
 40
0.0
 40
0.0
 40
0.1252570027
 40
0.2502386126
 40
0.3751026418
 40
0.5000028313
 40
0.6249027726
 40
0.7497660958
 40
0.8747472157
 40
1.0
 40
1.0
 40
1.0
 40
1.0
 10
253.0
 20
157.2113234112
 30
0.0
 10
252.6327679556
 20
157.2113234112
 30
0.0
 10
251.8914166707
 20
157.3531126822
 30
0.0
 10
250.9456413009
 20
157.9653653443
 30
0.0
 10
250.3052270389
 20
158.8942957331
 30
0.0
 10
250.0789547469
 20
160.0000250508
 30
0.0
 10
250.3052461043
 20
161.1057481072
 30
0.0
 10
250.9456729646
 20
162.0346644467
 30
0.0
 10
251.8914442113
 20
162.6468926833
 30
0.0
 10
252.6327803233
 20
162.7886765888
 30
0.0
 10
253.0
 20
162.7886765888
 30
0.0
  0
SPLINE
  5
318
100
AcDbEntity
  8
1
100
AcDbSpline
 62
6
  6
CONTINUOUS
 70
0
 71
3
 72
16
 73
12
 74
0
 42
0.0000001
 43
0.0000001
 44
0.0000000001
 40
0.0
 40
0.0
 40
0.0
 40
0.0
 40
0.1698604891
 40
0.3331567575
 40
0.4837623584
 40
0.617083521
 40
0.7307562607
 40
0.8264542219
 40
0.8699600923
 40
0.912367852
 40
1.0
 40
1.0
 40
1.0
 40
1.0
 10
253.0
 20
137.090144929
 30
0.0
 10
252.7931732353
 20
137.090144929
 30
0.0
 10
252.3872805626
 20
137.1073646677
 30
0.0
 10
251.8025020215
 20
137.1850240046
 30
0.0
 10
251.2720596446
 20
137.3136521224
 30
0.0
 10
250.8197223433
 20
137.4920701147
 30
0.0
 10
250.4649640142
 20
137.7180387159
 30
0.0
 10
250.2589459423
 20
137.9567291636
 30
0.0
 10
250.1743021595
 20
138.1630185238
 30
0.0
 10
250.1399606237
 20
138.373185175
 30
0.0
 10
250.1721690472
 20
138.5348387785
 30
0.0
 10
250.211820776
 20
138.6339010483
 30
0.0
  0
SPLINE
  5
319
100
AcDbEntity
  8
1
100
AcDbSpline
 62
6
  6
CONTINUOUS
 70
0
 71
3
 72
23
 73
19
 74
0
 42
0.0000001
 43
0.0000001
 44
0.0000000001
 40
0.0
 40
0.0
 40
0.0
 40
0.0
 40
0.1529463142
 40
0.3058858905
 40
0.4587151059
 40
0.5349055203
 40
0.6101413149
 40
0.6831773156
 40
0.7519244707
 40
0.8137107556
 40
0.8657903789
 40
0.8876252757
 40
0.9066130957
 40
0.9373272586
 40
0.9511371178
 40
0.965525995
 40
0.9815989306
 40
1.0
 40
1.0
 40
1.0
 40
1.0
 10
259.0
 20
182.909855071
 30
0.0
 10
259.334585526
 20
182.909855071
 30
0.0
 10
260.0052493618
 20
182.8524740328
 30
0.0
 10
260.9795061983
 20
182.591202623
 30
0.0
 10
261.7357552876
 20
182.2207638172
 30
0.0
 10
262.27949222
 20
181.8348745883
 30
0.0
 10
262.6463951381
 20
181.5068230384
 30
0.0
 10
262.9611298859
 20
181.1498921823
 30
0.0
 10
263.2135218869
 20
180.7814810806
 30
0.0
 10
263.3943765402
 20
180.4240050544
 30
0.0
 10
263.4876396937
 20
180.1402701887
 30
0.0
 10
263.5170443533
 20
179.9383639523
 30
0.0
 10
263.5177353674
 20
179.7821027694
 30
0.0
 10
263.4783246322
 20
179.6409544649
 30
0.0
 10
263.3866707781
 20
179.5469021684
 30
0.0
 10
263.2994307601
 20
179.5018456622
 30
0.0
 10
263.1945919413
 20
179.4774729329
 30
0.0
 10
263.1189979994
 20
179.4733357411
 30
0.0
 10
263.078743805
 20
179.4733563499
 30
0.0
  0
SPLINE
  5
31A
100
AcDbEntity
  8
1
100
AcDbSpline
 62
6
  6
CONTINUOUS
 70
0
 71
3
 72
23
 73
19
 74
0
 42
0.0000001
 43
0.0000001
 44
0.0000000001
 40
0.0
 40
0.0
 40
0.0
 40
0.0
 40
0.0661971271
 40
0.1313766407
 40
0.1944936989
 40
0.2550888284
 40
0.3136474447
 40
0.3724213268
 40
0.4344520876
 40
0.5000018181
 40
0.5655514642
 40
0.6275823261
 40
0.6863554656
 40
0.7449133777
 40
0.8055079411
 40
0.868624547
 40
0.9338031835
 40
1.0
 40
1.0
 40
1.0
 40
1.0
 10
259.0
 20
162.7886765888
 30
0.0
 10
259.2655085993
 20
162.7886765888
 30
0.0
 10
259.7925638833
 20
162.7759401264
 30
0.0
 10
260.5705681906
 20
162.7115421405
 30
0.0
 10
261.3189520177
 20
162.5851496966
 30
0.0
 10
262.0201502312
 20
162.3668380805
 30
0.0
 10
262.64808241
 20
162.0107715905
 30
0.0
 10
263.1464955733
 20
161.4736534638
 30
0.0
 10
263.4509666768
 20
160.7772105599
 30
0.0
 10
263.5499528
 20
159.9999778992
 30
0.0
 10
263.4509535434
 20
159.2227471036
 30
0.0
 10
263.1464754061
 20
158.5263099457
 30
0.0
 10
262.6480537867
 20
157.9892067144
 30
0.0
 10
262.0201237976
 20
157.6331549085
 30
0.0
 10
261.3189326246
 20
157.4148451979
 30
0.0
 10
260.5705557285
 20
157.2884559037
 30
0.0
 10
259.7925577714
 20
157.2240628537
 30
0.0
 10
259.2655073533
 20
157.2113234112
 30
0.0
 10
259.0
 20
157.2113234112
 30
0.0
  0
SPLINE
  5
31B
100
AcDbEntity
  8
1
100
AcDbSpline
 62
6
  6
CONTINUOUS
 70
0
 71
3
 72
16
 73
12
 74
0
 42
0.0000001
 43
0.0000001
 44
0.0000000001
 40
0.0
 40
0.0
 40
0.0
 40
0.0
 40
0.0876245227
 40
0.1300320185
 40
0.1735396047
 40
0.2692444072
 40
0.3829241096
 40
0.5162492306
 40
0.6668568054
 40
0.8301476613
 40
1.0
 40
1.0
 40
1.0
 40
1.0
 10
250.2117209966
 20
181.3663481219
 30
0.0
 10
250.1721050752
 20
181.4654063604
 30
0.0
 10
250.139955572
 20
181.6270497534
 30
0.0
 10
250.1743603466
 20
181.8371821164
 30
0.0
 10
250.2590590072
 20
182.0434416028
 30
0.0
 10
250.4651193911
 20
182.2820853676
 30
0.0
 10
250.8198916647
 20
182.508011485
 30
0.0
 10
251.2722202461
 20
182.6863964394
 30
0.0
 10
251.8026288799
 20
182.8149958517
 30
0.0
 10
252.3873514751
 20
182.8926412239
 30
0.0
 10
252.7931982004
 20
182.909855071
 30
0.0
 10
253.0
 20
182.909855071
 30
0.0
  0
SPLINE
  5
31C
100
AcDbEntity
  8
1
100
AcDbSpline
 62
6
  6
CONTINUOUS
 70
0
 71
3
 72
15
 73
11
 74
0
 42
0.0000001
 43
0.0000001
 44
0.0000000001
 40
0.0
 40
0.0
 40
0.0
 40
0.0
 40
0.1493121378
 40
0.2885142961
 40
0.4150832063
 40
0.5279473631
 40
0.6316798847
 40
0.73895902
 40
0.8611253584
 40
1.0
 40
1.0
 40
1.0
 40
1.0
 10
165.788070731
 20
152.264042294
 30
0.0
 10
165.7487830367
 20
152.2353037899
 30
0.0
 10
165.6703468129
 20
152.1830578987
 30
0.0
 10
165.5491423823
 20
152.121879209
 30
0.0
 10
165.4303199532
 20
152.0855773768
 30
0.0
 10
165.31647854
 20
152.0812344809
 30
0.0
 10
165.2144853537
 20
152.1214992588
 30
0.0
 10
165.1429843573
 20
152.2084046562
 30
0.0
 10
165.1062350612
 20
152.3245358587
 30
0.0
 10
165.1
 20
152.4099420652
 30
0.0
 10
165.1
 20
152.4552161081
 30
0.0
  0
SPLINE
  5
31D
100
AcDbEntity
  8
1
100
AcDbSpline
 62
6
  6
CONTINUOUS
 70
0
 71
3
 72
9
 73
5
 74
0
 42
0.0000001
 43
0.0000001
 44
0.0000000001
 40
0.0
 40
0.0
 40
0.0
 40
0.0
 40
0.4997776661
 40
1.0
 40
1.0
 40
1.0
 40
1.0
 10
166.0499627576
 20
152.151487454
 30
0.0
 10
166.0023537921
 20
152.1569745061
 30
0.0
 10
165.9085151251
 20
152.1839903285
 30
0.0
 10
165.8261830752
 20
152.2349174024
 30
0.0
 10
165.788070731
 20
152.264042294
 30
0.0
  0
SPLINE
  5
31E
100
AcDbEntity
  8
1
100
AcDbSpline
 62
6
  6
CONTINUOUS
 70
0
 71
3
 72
23
 73
19
 74
0
 42
0.0000001
 43
0.0000001
 44
0.0000000001
 40
0.0
 40
0.0
 40
0.0
 40
0.0
 40
0.0626718084
 40
0.1253021464
 40
0.1878882559
 40
0.2504487621
 40
0.3130368491
 40
0.3756807179
 40
0.4383611126
 40
0.5010095503
 40
0.5635402622
 40
0.6259000477
 40
0.6881064993
 40
0.7502478489
 40
0.8124448332
 40
0.8748045071
 40
0.9373408791
 40
1.0
 40
1.0
 40
1.0
 40
1.0
 10
178.9007515884
 20
160.0
 30
0.0
 10
178.9005510587
 20
160.23561399
 30
0.0
 10
178.9475834738
 20
160.7079933693
 30
0.0
 10
179.1546277895
 20
161.3878774027
 30
0.0
 10
179.4911962727
 20
162.0137589287
 30
0.0
 10
179.94403563
 20
162.5610884143
 30
0.0
 10
180.4955520036
 20
163.0091645682
 30
0.0
 10
181.1243586525
 20
163.3410055784
 30
0.0
 10
181.8058136465
 20
163.54444751
 30
0.0
 10
182.5132978738
 20
163.6121882891
 30
0.0
 10
183.2193447599
 20
163.5421138001
 30
0.0
 10
183.8968676246
 20
163.3370586548
 30
0.0
 10
184.5203134183
 20
163.0048058554
 30
0.0
 10
185.0662249376
 20
162.5573398403
 30
0.0
 10
185.5144279796
 20
162.011298266
 30
0.0
 10
185.8476059474
 20
161.3865896538
 30
0.0
 10
186.0528587884
 20
160.7075288599
 30
0.0
 10
186.0993657855
 20
160.2355663473
 30
0.0
 10
186.0992484116
 20
160.0
 30
0.0
  0
SPLINE
  5
31F
100
AcDbEntity
  8
1
100
AcDbSpline
 62
6
  6
CONTINUOUS
 70
0
 71
3
 72
11
 73
7
 74
0
 42
0.0000001
 43
0.0000001
 44
0.0000000001
 40
0.0
 40
0.0
 40
0.0
 40
0.0
 40
0.2483730835
 40
0.4972842774
 40
0.7475187179
 40
1.0
 40
1.0
 40
1.0
 40
1.0
 10
169.1180581762
 20
167.65
 30
0.0
 10
169.2051444331
 20
167.5249415726
 30
0.0
 10
169.3636476461
 20
167.2630914636
 30
0.0
 10
169.548584488
 20
166.841829519
 30
0.0
 10
169.6702167983
 20
166.395113994
 30
0.0
 10
169.7
 20
166.0860638929
 30
0.0
 10
169.7
 20
165.9311502468
 30
0.0
  0
SPLINE
  5
320
100
AcDbEntity
  8
1
100
AcDbSpline
 62
6
  6
CONTINUOUS
 70
0
 71
3
 72
11
 73
7
 74
0
 42
0.0000001
 43
0.0000001
 44
0.0000000001
 40
0.0
 40
0.0
 40
0.0
 40
0.0
 40
0.2524814599
 40
0.5027161495
 40
0.7516273127
 40
1.0
 40
1.0
 40
1.0
 40
1.0
 10
169.7
 20
154.0688497532
 30
0.0
 10
169.7
 20
153.9139360005
 30
0.0
 10
169.6702166954
 20
153.6048856622
 30
0.0
 10
169.5485844551
 20
153.1581698396
 30
0.0
 10
169.3636469861
 20
152.7369083144
 30
0.0
 10
169.2051442928
 20
152.4750582258
 30
0.0
 10
169.1180581762
 20
152.35
 30
0.0
  0
SPLINE
  5
321
100
AcDbEntity
  8
1
100
AcDbSpline
 62
6
  6
CONTINUOUS
 70
0
 71
3
 72
11
 73
7
 74
0
 42
0.0000001
 43
0.0000001
 44
0.0000000001
 40
0.0
 40
0.0
 40
0.0
 40
0.0
 40
0.2588321856
 40
0.5114473308
 40
0.7576456558
 40
1.0
 40
1.0
 40
1.0
 40
1.0
 10
168.3
 20
168.1044707976
 30
0.0
 10
168.3841217129
 20
168.113918457
 30
0.0
 10
168.5555209744
 20
168.1015303757
 30
0.0
 10
168.7846169369
 20
167.9971011194
 30
0.0
 10
168.9719129933
 20
167.8400082256
 30
0.0
 10
169.0727635085
 20
167.7150444756
 30
0.0
 10
169.1180581762
 20
167.65
 30
0.0
  0
SPLINE
  5
322
100
AcDbEntity
  8
1
100
AcDbSpline
 62
6
  6
CONTINUOUS
 70
0
 71
3
 72
11
 73
7
 74
0
 42
0.0000001
 43
0.0000001
 44
0.0000000001
 40
0.0
 40
0.0
 40
0.0
 40
0.0
 40
0.2424439697
 40
0.4886801949
 40
0.7412651106
 40
1.0
 40
1.0
 40
1.0
 40
1.0
 10
169.1180581762
 20
152.35
 30
0.0
 10
169.072746362
 20
152.2849309015
 30
0.0
 10
168.9718674049
 20
152.159933472
 30
0.0
 10
168.7845326763
 20
152.0028328563
 30
0.0
 10
168.555447728
 20
151.8984381327
 30
0.0
 10
168.384090826
 20
151.8860850119
 30
0.0
 10
168.3
 20
151.8955292024
 30
0.0
  0
SPLINE
  5
323
100
AcDbEntity
  8
1
100
AcDbSpline
 62
6
  6
CONTINUOUS
 70
0
 71
3
 72
23
 73
19
 74
0
 42
0.0000001
 43
0.0000001
 44
0.0000000001
 40
0.0
 40
0.0
 40
0.0
 40
0.0
 40
0.0626590122
 40
0.1251952184
 40
0.1875542994
 40
0.2497525488
 40
0.3118944233
 40
0.3741011066
 40
0.4364608352
 40
0.4989913417
 40
0.5616398746
 40
0.6243202006
 40
0.6869639005
 40
0.7495517269
 40
0.8121112463
 40
0.8746976472
 40
0.9373280879
 40
1.0
 40
1.0
 40
1.0
 40
1.0
 10
186.0992484116
 20
160.0
 30
0.0
 10
186.0994229539
 20
159.7644340799
 30
0.0
 10
186.0528446574
 20
159.2924731736
 30
0.0
 10
185.847637674
 20
158.6134060167
 30
0.0
 10
185.5143965767
 20
157.9887292684
 30
0.0
 10
185.0662517866
 20
157.4426357825
 30
0.0
 10
184.5202962013
 20
156.9952058833
 30
0.0
 10
183.8968653944
 20
156.6629264895
 30
0.0
 10
183.2193348614
 20
156.4578873965
 30
0.0
 10
182.5132908073
 20
156.3878114302
 30
0.0
 10
181.8058050244
 20
156.4555519337
 30
0.0
 10
181.1243580761
 20
156.6590083247
 30
0.0
 10
180.4955338841
 20
156.9908202673
 30
0.0
 10
179.9440624733
 20
157.4389378771
 30
0.0
 10
179.4911647263
 20
157.9862165076
 30
0.0
 10
179.154660254
 20
158.6121285868
 30
0.0
 10
178.9475567453
 20
159.2920041636
 30
0.0
 10
178.9006235555
 20
159.7643855527
 30
0.0
 10
178.9007515884
 20
160.0
 30
0.0
  0
SPLINE
  5
324
100
AcDbEntity
  8
1
100
AcDbSpline
 62
6
  6
CONTINUOUS
 70
0
 71
3
 72
9
 73
5
 74
0
 42
0.0000001
 43
0.0000001
 44
0.0000000001
 40
0.0
 40
0.0
 40
0.0
 40
0.0
 40
0.5003019916
 40
1.0
 40
1.0
 40
1.0
 40
1.0
 10
165.788070731
 20
167.735957706
 30
0.0
 10
165.8261890913
 20
167.765087195
 30
0.0
 10
165.9085238912
 20
167.816010042
 30
0.0
 10
166.0023614466
 20
167.8430263761
 30
0.0
 10
166.0499627576
 20
167.848512546
 30
0.0
  0
SPLINE
  5
325
100
AcDbEntity
  8
1
100
AcDbSpline
 62
6
  6
CONTINUOUS
 70
0
 71
3
 72
15
 73
11
 74
0
 42
0.0000001
 43
0.0000001
 44
0.0000000001
 40
0.0
 40
0.0
 40
0.0
 40
0.0
 40
0.138874736
 40
0.2610411392
 40
0.3683202752
 40
0.4720527436
 40
0.5849168544
 40
0.7114857412
 40
0.8506878719
 40
1.0
 40
1.0
 40
1.0
 40
1.0
 10
165.1
 20
167.5447838919
 30
0.0
 10
165.1
 20
167.5900579657
 30
0.0
 10
165.1062350752
 20
167.6754642222
 30
0.0
 10
165.1429844045
 20
167.7915954798
 30
0.0
 10
165.2144854822
 20
167.8785008174
 30
0.0
 10
165.3164786463
 20
167.9187655417
 30
0.0
 10
165.4303200173
 20
167.9144226012
 30
0.0
 10
165.5491424122
 20
167.8781207757
 30
0.0
 10
165.6703468257
 20
167.8169420933
 30
0.0
 10
165.7487830391
 20
167.7646962083
 30
0.0
 10
165.788070731
 20
167.735957706
 30
0.0
  0
ELLIPSE
  5
326
100
AcDbEntity
  8
1
100
AcDbEllipse
 62
6
  6
CONTINUOUS
 10
163.87
 20
167.65
 30
0.0
 11
2.1041772469
 21
-2.1041772469
 31
0.0
 40
0.5285354355
 41
0.4862144996
 42
1.0845818272
  0
ELLIPSE
  5
327
100
AcDbEntity
  8
1
100
AcDbEllipse
 62
6
  6
CONTINUOUS
 10
163.87
 20
152.35
 30
0.0
 11
2.1041772469
 21
2.1041772469
 31
0.0
 40
0.5285354355
 41
-1.0845818272
 42
-0.4862144996
  0
ENDSEC
  0
SECTION
  2
OBJECTS
  0
DICTIONARY
  5
C
100
AcDbDictionary
280
0
281
1
  3
ACAD_GROUP
350
D
  3
ACAD_MLINESTYLE
350
17
  3
ACAD_LAYOUT
350
1A
  3
ACAD_PLOTSETTINGS
350
19
  3
ACAD_PLOTSTYLENAME
350
E
  0
DICTIONARY
  5
D
102
{ACAD_REACTORS
330
C
102
}
100
AcDbDictionary
280
0
281
1
  0
ACDBDICTIONARYWDFLT
  5
E
102
{ACAD_REACTORS
330
C
102
}
100
AcDbDictionary
281
1
  3
Normal
350
F
100
AcDbDictionaryWithDefault
340
F
  0
DICTIONARY
  5
17
102
{ACAD_REACTORS
330
C
102
}
100
AcDbDictionary
280
0
281
1
  3
Standard
350
18
  0
DICTIONARY
  5
19
102
{ACAD_REACTORS
330
C
102
}
100
AcDbDictionary
281
1
  0
DICTIONARY
  5
1A
102
{ACAD_REACTORS
330
C
102
}
100
AcDbDictionary
281
1
  3
Model
350
328
  3
Layout1
350
329
  0
ACDBPLACEHOLDER
  5
F
102
{ACAD_REACTORS
330
E
102
}
  0
MLINESTYLE
  5
18
102
{ACAD_REACTORS
330
17
102
}
100
AcDbMlineStyle
  2
STANDARD
 70
0
  3

 62
256
 51
90.0
 52
90.0
 71
2
 49
0.5
 62
256
  6
BYLAYER
 49
-0.5
 62
256
  6
BYLAYER
  0
LAYOUT
  5
328
102
{ACAD_REACTORS
330
1A
102
}
100
AcDbPlotSettings
  1

  2
none_device
  4
ISO_A3_(420.00_x_297.00_MM)
  6

 40
0.0
 41
0.0
 42
0.0
 43
0.0
 44
420.0
 45
297.0
 46
0.0
 47
0.0
 48
0.0
 49
0.0
140
0.0
141
0.0
142
1.0
143
1.0
 70
1024
 72
1
 73
0
 74
0
  7

 75
0
147
1.0
148
0.0
149
0.0
100
AcDbLayout
  1
Model
 70
0
 71
0
 10
0.0
 20
0.0
 11
420.0
 21
297.0
 12
0.0
 22
0.0
 32
0.0
 14
0.0
 24
0.0
 34
0.0
 15
0.0
 25
0.0
 35
0.0
146
0.0
 13
0.0
 23
0.0
 33
0.0
 16
1.0
 26
0.0
 36
0.0
 17
0.0
 27
1.0
 37
0.0
 76
0
330
239
345
0
346
0
  0
LAYOUT
  5
329
102
{ACAD_REACTORS
330
1A
102
}
100
AcDbPlotSettings
  1

  2
none_device
  4
ISO_A3_(420.00_x_297.00_MM)
  6

 40
0.0
 41
0.0
 42
0.0
 43
0.0
 44
420.0
 45
297.0
 46
0.0
 47
0.0
 48
0.0
 49
0.0
140
0.0
141
0.0
142
1.0
143
1.0
 70
0
 72
1
 73
0
 74
0
  7

 75
0
147
1.0
148
0.0
149
0.0
100
AcDbLayout
  1
Layout1
 70
0
 71
1
 10
0.0
 20
0.0
 11
420.0
 21
297.0
 12
0.0
 22
0.0
 32
0.0
 14
0.0
 24
0.0
 34
0.0
 15
0.0
 25
0.0
 35
0.0
146
0.0
 13
0.0
 23
0.0
 33
0.0
 16
1.0
 26
0.0
 36
0.0
 17
0.0
 27
1.0
 37
0.0
 76
0
330
23A
345
0
346
0
  0
ENDSEC
  0
EOF
