999
DXF file: 200_a32-025-25-3-bmg.dxf
999
Pro/ENGINEER 2010430 by Parametric Technology Corporation
  0
SECTION
  2
HEADER
  9
$ACADVER
  1
AC1021
  9
$DWGCODEPAGE
  3
ANSI_1252
  9
$EXTMAX
 10
420.0
 20
297.0
 30
0.0
  9
$EXTMIN
 10
0.0
 20
0.0
 30
0.0
  9
$LIMMIN
 10
0.0
 20
0.0
  9
$LIMMAX
 10
420.0
 20
297.0
  9
$VIEWCTR
 10
210.0
 20
148.5
  9
$VIEWSIZE
 40
297.0
  9
$CLAYER
  8
0
  9
$LTSCALE
 40
23.1
  9
$CELTYPE
  6
BYLAYER
  9
$DIMSCALE
 40
1.0
  9
$DIMASZ
 40
3.5
  9
$DIMEXO
 40
2.625
  9
$DIMDLI
 40
15.96
  9
$DIMEXE
 40
7.56
  9
$DIMCEN
 40
3.78
  9
$DIMLFAC
 40
1.0
  9
$DIMBLK
  1
_FILLED
  9
$DIMTXT
 40
3.5
  9
$DIMTOL
 70
0
  9
$DIMLIM
 70
0
  9
$DIMTFAC
 40
1.0
  9
$PDMODE
 70
3
  9
$PDSIZE
 40
0.3125
  9
$HANDSEED
  5
321
  9
$TILEMODE
 70
1
  9
$MEASUREMENT
 70
1
  9
$INSUNITS
 70
4
  0
ENDSEC
  0
SECTION
  2
CLASSES
  0
CLASS
  1
ACDBDICTIONARYWDFLT
  2
AcDbDictionaryWithDefault
  3
AutoCAD 2000
 90
0
 91
1
280
0
281
0
  0
CLASS
  1
ACDBPLACEHOLDER
  2
AcDbPlaceHolder
  3
AutoCAD 2000
 90
0
 91
1
280
0
281
0
  0
CLASS
  1
LAYOUT
  2
AcDbLayout
  3
AutoCAD 2000
 90
0
 91
0
280
0
281
0
  0
ENDSEC
  0
SECTION
  2
TABLES
  0
TABLE
  2
VPORT
  5
8
100
AcDbSymbolTable
 70
2
  0
VPORT
  5
1F4
100
AcDbSymbolTableRecord
100
AcDbViewportTableRecord
  2
*ACTIVE
 70
0
 10
0.0
 20
0.0
 11
1.0
 21
1.0
 12
210.0
 22
148.5
 13
0.0
 23
0.0
 14
1.0
 24
1.0
 15
0.0
 25
0.0
 16
0.0
 26
0.0
 36
1.0
 17
0.0
 27
0.0
 37
0.0
 40
297.0
 41
1.4141414141
 42
50.0
 43
0.0
 44
0.0
 50
0.0
 51
0.0
 71
0
 72
100
 73
1
 74
1
 75
0
 76
0
 77
0
 78
0
  0
ENDTAB
  0
TABLE
  2
LTYPE
  5
5
100
AcDbSymbolTable
 70
6
  0
LTYPE
  5
14
100
AcDbSymbolTableRecord
100
AcDbLinetypeTableRecord
  2
BYBLOCK
 70
0
  3

 72
65
 73
0
 40
0.0
  0
LTYPE
  5
15
100
AcDbSymbolTableRecord
100
AcDbLinetypeTableRecord
  2
BYLAYER
 70
0
  3

 72
65
 73
0
 40
0.0
  0
LTYPE
  5
16
100
AcDbSymbolTableRecord
100
AcDbLinetypeTableRecord
  2
CONTINUOUS
 70
64
  3
Solid line
 72
65
 73
0
 40
0.0
  0
LTYPE
  5
1F5
100
AcDbSymbolTableRecord
100
AcDbLinetypeTableRecord
  2
CENTER
 70
64
  3
____ _ ____ _ ____ _ ____ _ ____ _ ____ _ ____
 72
65
 73
4
 40
0.6
 49
0.375
 74
0
 49
-0.075
 74
0
 49
0.075
 74
0
 49
-0.075
 74
0
  0
LTYPE
  5
1F6
100
AcDbSymbolTableRecord
100
AcDbLinetypeTableRecord
  2
HIDDEN
 70
64
  3
- - - - - - - - - - - - - - - - - - - -
 72
65
 73
2
 40
0.2
 49
0.1
 74
0
 49
-0.1
 74
0
  0
LTYPE
  5
1F7
100
AcDbSymbolTableRecord
100
AcDbLinetypeTableRecord
  2
PHANTOM
 70
64
  3
_____ _ _ _____ _ _ _____ _ _ _____
 72
65
 73
6
 40
0.8
 49
0.45
 74
0
 49
-0.05
 74
0
 49
0.1
 74
0
 49
-0.05
 74
0
 49
0.1
 74
0
 49
-0.05
 74
0
  0
LTYPE
  5
1F8
100
AcDbSymbolTableRecord
100
AcDbLinetypeTableRecord
  2
DOT
 70
64
  3
. . . . . . . . . . . . . . . . . . . .
 72
65
 73
2
 40
0.2
 49
0.1
 74
0
 49
-0.1
 74
0
  0
LTYPE
  5
1F9
100
AcDbSymbolTableRecord
100
AcDbLinetypeTableRecord
  2
DASHED
 70
64
  3
- - - - - - - - - - - - - - - - - - - -
 72
65
 73
2
 40
0.2
 49
0.1
 74
0
 49
-0.1
 74
0
  0
ENDTAB
  0
TABLE
  2
LAYER
  5
2
100
AcDbSymbolTable
 70
36
  0
LAYER
  5
10
100
AcDbSymbolTableRecord
100
AcDbLayerTableRecord
  2
0
 70
0
 62
7
  6
CONTINUOUS
370
-3
390
F
  0
LAYER
  5
1FA
100
AcDbSymbolTableRecord
100
AcDbLayerTableRecord
  2
DEFAULT_1
 70
0
 62
7
  6
CENTER
370
-3
390
F
  0
LAYER
  5
1FB
100
AcDbSymbolTableRecord
100
AcDbLayerTableRecord
  2
DEFAULT_2
 70
0
 62
8
  6
HIDDEN
370
-3
390
F
  0
LAYER
  5
1FC
100
AcDbSymbolTableRecord
100
AcDbLayerTableRecord
  2
DEFAULT_3
 70
0
 62
7
  6
PHANTOM
370
-3
390
F
  0
LAYER
  5
1FD
100
AcDbSymbolTableRecord
100
AcDbLayerTableRecord
  2
1
 70
0
 62
7
  6
CONTINUOUS
370
-3
390
F
  0
LAYER
  5
1FE
100
AcDbSymbolTableRecord
100
AcDbLayerTableRecord
  2
2
 70
0
 62
7
  6
CONTINUOUS
370
-3
390
F
  0
LAYER
  5
1FF
100
AcDbSymbolTableRecord
100
AcDbLayerTableRecord
  2
4
 70
0
 62
7
  6
CONTINUOUS
370
-3
390
F
  0
LAYER
  5
200
100
AcDbSymbolTableRecord
100
AcDbLayerTableRecord
  2
5
 70
0
 62
7
  6
CONTINUOUS
370
-3
390
F
  0
LAYER
  5
201
100
AcDbSymbolTableRecord
100
AcDbLayerTableRecord
  2
6
 70
0
 62
7
  6
CONTINUOUS
370
-3
390
F
  0
LAYER
  5
202
100
AcDbSymbolTableRecord
100
AcDbLayerTableRecord
  2
ACHSEN
 70
0
 62
7
  6
CONTINUOUS
370
-3
390
F
  0
LAYER
  5
203
100
AcDbSymbolTableRecord
100
AcDbLayerTableRecord
  2
ANALYSEN
 70
0
 62
7
  6
CONTINUOUS
370
-3
390
F
  0
LAYER
  5
204
100
AcDbSymbolTableRecord
100
AcDbLayerTableRecord
  2
AUFMASS_EINFUEHRFASE
 70
0
 62
7
  6
CONTINUOUS
370
-3
390
F
  0
LAYER
  5
205
100
AcDbSymbolTableRecord
100
AcDbLayerTableRecord
  2
AUFMASS_WEICHBEARBEITUNG
 70
0
 62
7
  6
CONTINUOUS
370
-3
390
F
  0
LAYER
  5
206
100
AcDbSymbolTableRecord
100
AcDbLayerTableRecord
  2
AUFMASS_WEICHBEARBEITUNG_FERTIG
 70
0
 62
7
  6
CONTINUOUS
370
-3
390
F
  0
LAYER
  5
207
100
AcDbSymbolTableRecord
100
AcDbLayerTableRecord
  2
AUFMASS_WEICHBE_INNENKONTUR
 70
0
 62
7
  6
CONTINUOUS
370
-3
390
F
  0
LAYER
  5
208
100
AcDbSymbolTableRecord
100
AcDbLayerTableRecord
  2
AUSFORMSCHRAEGEN
 70
0
 62
7
  6
CONTINUOUS
370
-3
390
F
  0
LAYER
  5
209
100
AcDbSymbolTableRecord
100
AcDbLayerTableRecord
  2
AUSSENKONTUR
 70
0
 62
7
  6
CONTINUOUS
370
-3
390
F
  0
LAYER
  5
20A
100
AcDbSymbolTableRecord
100
AcDbLayerTableRecord
  2
BEZUG
 70
0
 62
7
  6
CONTINUOUS
370
-3
390
F
  0
LAYER
  5
20B
100
AcDbSymbolTableRecord
100
AcDbLayerTableRecord
  2
BEZUGSACHSEN
 70
0
 62
7
  6
CONTINUOUS
370
-3
390
F
  0
LAYER
  5
20C
100
AcDbSymbolTableRecord
100
AcDbLayerTableRecord
  2
BEZUGSACHSENKENNZEICHEN
 70
0
 62
7
  6
CONTINUOUS
370
-3
390
F
  0
LAYER
  5
20D
100
AcDbSymbolTableRecord
100
AcDbLayerTableRecord
  2
BEZUGSEBENEN
 70
0
 62
7
  6
CONTINUOUS
370
-3
390
F
  0
LAYER
  5
20E
100
AcDbSymbolTableRecord
100
AcDbLayerTableRecord
  2
BEZUGSEBENE_B
 70
0
 62
7
  6
CONTINUOUS
370
-3
390
F
  0
LAYER
  5
20F
100
AcDbSymbolTableRecord
100
AcDbLayerTableRecord
  2
BEZUGSPUNKTE
 70
0
 62
7
  6
CONTINUOUS
370
-3
390
F
  0
LAYER
  5
210
100
AcDbSymbolTableRecord
100
AcDbLayerTableRecord
  2
BG_STARTBEZUEGE
 70
0
 62
7
  6
CONTINUOUS
370
-3
390
F
  0
LAYER
  5
211
100
AcDbSymbolTableRecord
100
AcDbLayerTableRecord
  2
BOHRUNGEN
 70
0
 62
7
  6
CONTINUOUS
370
-3
390
F
  0
LAYER
  5
212
100
AcDbSymbolTableRecord
100
AcDbLayerTableRecord
  2
EBENEN
 70
0
 62
7
  6
CONTINUOUS
370
-3
390
F
  0
LAYER
  5
213
100
AcDbSymbolTableRecord
100
AcDbLayerTableRecord
  2
FASEN
 70
0
 62
7
  6
CONTINUOUS
370
-3
390
F
  0
LAYER
  5
214
100
AcDbSymbolTableRecord
100
AcDbLayerTableRecord
  2
FLAECHEN
 70
0
 62
7
  6
CONTINUOUS
370
-3
390
F
  0
LAYER
  5
215
100
AcDbSymbolTableRecord
100
AcDbLayerTableRecord
  2
FORM_LAGE_TOLERANZEN
 70
0
 62
7
  6
CONTINUOUS
370
-3
390
F
  0
LAYER
  5
216
100
AcDbSymbolTableRecord
100
AcDbLayerTableRecord
  2
GEOMTOL
 70
0
 62
7
  6
CONTINUOUS
370
-3
390
F
  0
LAYER
  5
217
100
AcDbSymbolTableRecord
100
AcDbLayerTableRecord
  2
GEWINDE
 70
0
 62
7
  6
CONTINUOUS
370
-3
390
F
  0
LAYER
  5
218
100
AcDbSymbolTableRecord
100
AcDbLayerTableRecord
  2
HILFEN
 70
0
 62
7
  6
CONTINUOUS
370
-3
390
F
  0
LAYER
  5
219
100
AcDbSymbolTableRecord
100
AcDbLayerTableRecord
  2
INNENKONTUR
 70
0
 62
7
  6
CONTINUOUS
370
-3
390
F
  0
LAYER
  5
21A
100
AcDbSymbolTableRecord
100
AcDbLayerTableRecord
  2
KOORDINATENSYSTEME
 70
0
 62
7
  6
CONTINUOUS
370
-3
390
F
  0
LAYER
  5
21B
100
AcDbSymbolTableRecord
100
AcDbLayerTableRecord
  2
KOORDSYS
 70
0
 62
7
  6
CONTINUOUS
370
-3
390
F
  0
LAYER
  5
21C
100
AcDbSymbolTableRecord
100
AcDbLayerTableRecord
  2
KURVEN
 70
0
 62
7
  6
CONTINUOUS
370
-3
390
F
  0
LAYER
  5
21D
100
AcDbSymbolTableRecord
100
AcDbLayerTableRecord
  2
KURVE_FUER_GTOL_DETAILANSICHT
 70
0
 62
7
  6
CONTINUOUS
370
-3
390
F
  0
LAYER
  5
21E
100
AcDbSymbolTableRecord
100
AcDbLayerTableRecord
  2
KURVE_GAUGE2_POLIGON_INNENEINST
 70
0
 62
7
  6
CONTINUOUS
370
-3
390
F
  0
LAYER
  5
21F
100
AcDbSymbolTableRecord
100
AcDbLayerTableRecord
  2
KURVE_PHANTOM1_GAUGE_PIN_1
 70
0
 62
7
  6
CONTINUOUS
370
-3
390
F
  0
LAYER
  5
220
100
AcDbSymbolTableRecord
100
AcDbLayerTableRecord
  2
KURVE_PHANTOM2_GAUGE_PIN1
 70
0
 62
7
  6
CONTINUOUS
370
-3
390
F
  0
LAYER
  5
221
100
AcDbSymbolTableRecord
100
AcDbLayerTableRecord
  2
KURVE_POLIGON_BEMASUNG
 70
0
 62
7
  6
CONTINUOUS
370
-3
390
F
  0
LAYER
  5
222
100
AcDbSymbolTableRecord
100
AcDbLayerTableRecord
  2
NOCUT
 70
0
 62
7
  6
CONTINUOUS
370
-3
390
F
  0
LAYER
  5
223
100
AcDbSymbolTableRecord
100
AcDbLayerTableRecord
  2
PLATZIERUNG
 70
0
 62
7
  6
CONTINUOUS
370
-3
390
F
  0
LAYER
  5
224
100
AcDbSymbolTableRecord
100
AcDbLayerTableRecord
  2
PUNKTE
 70
0
 62
7
  6
CONTINUOUS
370
-3
390
F
  0
LAYER
  5
225
100
AcDbSymbolTableRecord
100
AcDbLayerTableRecord
  2
RUNDUNGEN
 70
0
 62
7
  6
CONTINUOUS
370
-3
390
F
  0
LAYER
  5
226
100
AcDbSymbolTableRecord
100
AcDbLayerTableRecord
  2
SK1
 70
0
 62
7
  6
CONTINUOUS
370
-3
390
F
  0
LAYER
  5
227
100
AcDbSymbolTableRecord
100
AcDbLayerTableRecord
  2
SK2
 70
0
 62
7
  6
CONTINUOUS
370
-3
390
F
  0
LAYER
  5
228
100
AcDbSymbolTableRecord
100
AcDbLayerTableRecord
  2
SK4
 70
0
 62
7
  6
CONTINUOUS
370
-3
390
F
  0
LAYER
  5
229
100
AcDbSymbolTableRecord
100
AcDbLayerTableRecord
  2
SKELETTE
 70
0
 62
7
  6
CONTINUOUS
370
-3
390
F
  0
LAYER
  5
22A
100
AcDbSymbolTableRecord
100
AcDbLayerTableRecord
  2
S_ACHSEN
 70
0
 62
7
  6
CONTINUOUS
370
-3
390
F
  0
LAYER
  5
22B
100
AcDbSymbolTableRecord
100
AcDbLayerTableRecord
  2
S_EBENEN
 70
0
 62
7
  6
CONTINUOUS
370
-3
390
F
  0
LAYER
  5
22C
100
AcDbSymbolTableRecord
100
AcDbLayerTableRecord
  2
S_KOORDSYS
 70
0
 62
7
  6
CONTINUOUS
370
-3
390
F
  0
LAYER
  5
22D
100
AcDbSymbolTableRecord
100
AcDbLayerTableRecord
  2
TEIL_STARTBEZUEGE
 70
0
 62
7
  6
CONTINUOUS
370
-3
390
F
  0
LAYER
  5
22E
100
AcDbSymbolTableRecord
100
AcDbLayerTableRecord
  2
TOL_BEZUEGE
 70
0
 62
7
  6
CONTINUOUS
370
-3
390
F
  0
LAYER
  5
22F
100
AcDbSymbolTableRecord
100
AcDbLayerTableRecord
  2
VERBFLAECHE
 70
0
 62
7
  6
CONTINUOUS
370
-3
390
F
  0
LAYER
  5
230
100
AcDbSymbolTableRecord
100
AcDbLayerTableRecord
  2
VERERBUNG
 70
0
 62
7
  6
CONTINUOUS
370
-3
390
F
  0
LAYER
  5
231
100
AcDbSymbolTableRecord
100
AcDbLayerTableRecord
  2
VERPACKUNG
 70
0
 62
7
  6
CONTINUOUS
370
-3
390
F
  0
LAYER
  5
232
100
AcDbSymbolTableRecord
100
AcDbLayerTableRecord
  2
VOLGEOM
 70
0
 62
7
  6
CONTINUOUS
370
-3
390
F
  0
LAYER
  5
233
100
AcDbSymbolTableRecord
100
AcDbLayerTableRecord
  2
VOLUMEN
 70
0
 62
7
  6
CONTINUOUS
370
-3
390
F
  0
LAYER
  5
234
100
AcDbSymbolTableRecord
100
AcDbLayerTableRecord
  2
XSEC_DATUMS
 70
0
 62
7
  6
CONTINUOUS
370
-3
390
F
  0
LAYER
  5
235
100
AcDbSymbolTableRecord
100
AcDbLayerTableRecord
  2
ZEICHNUNG
 70
0
 62
7
  6
CONTINUOUS
370
-3
390
F
  0
ENDTAB
  0
TABLE
  2
STYLE
  5
3
100
AcDbSymbolTable
 70
1
  0
STYLE
  5
11
100
AcDbSymbolTableRecord
100
AcDbTextStyleTableRecord
  2
STANDARD
 70
0
 40
0.0
 41
0.7
 50
0.0
 71
0
 42
0.2
  3
txt
  4

  0
STYLE
  5
236
100
AcDbSymbolTableRecord
100
AcDbTextStyleTableRecord
  2
TEXTSTYLE_1
 70
0
 40
0.0
 41
0.8
 50
0.0
 71
0
 42
0.2
  3
gdt
  4

  0
STYLE
  5
237
100
AcDbSymbolTableRecord
100
AcDbTextStyleTableRecord
  2
TEXTSTYLE_2
 70
0
 40
0.0
 41
0.7
 50
0.0
 71
0
 42
0.2
  3
gdt
  4

  0
ENDTAB
  0
TABLE
  2
VIEW
  5
6
100
AcDbSymbolTable
 70
0
  0
ENDTAB
  0
TABLE
  2
UCS
  5
7
100
AcDbSymbolTable
 70
0
  0
ENDTAB
  0
TABLE
  2
APPID
  5
9
100
AcDbSymbolTable
 70
1
  0
APPID
  5
238
100
AcDbSymbolTableRecord
100
AcDbRegAppTableRecord
  2
ACAD
 70
0
  0
ENDTAB
  0
TABLE
  2
BLOCK_RECORD
  5
1
100
AcDbSymbolTable
 70
0
  0
BLOCK_RECORD
  5
239
100
AcDbSymbolTableRecord
100
AcDbBlockTableRecord
  2
*Model_Space
  0
BLOCK_RECORD
  5
23A
100
AcDbSymbolTableRecord
100
AcDbBlockTableRecord
  2
*Paper_Space
  0
BLOCK_RECORD
  5
23B
100
AcDbSymbolTableRecord
100
AcDbBlockTableRecord
  2
_FILLED
  0
BLOCK_RECORD
  5
23C
100
AcDbSymbolTableRecord
100
AcDbBlockTableRecord
  2
*D0
  0
BLOCK_RECORD
  5
23D
100
AcDbSymbolTableRecord
100
AcDbBlockTableRecord
  2
*D1
  0
BLOCK_RECORD
  5
23E
100
AcDbSymbolTableRecord
100
AcDbBlockTableRecord
  2
*D2
  0
BLOCK_RECORD
  5
23F
100
AcDbSymbolTableRecord
100
AcDbBlockTableRecord
  2
*D3
  0
BLOCK_RECORD
  5
240
100
AcDbSymbolTableRecord
100
AcDbBlockTableRecord
  2
*D4
  0
BLOCK_RECORD
  5
241
100
AcDbSymbolTableRecord
100
AcDbBlockTableRecord
  2
*D5
  0
ENDTAB
  0
TABLE
  2
DIMSTYLE
  5
A
100
AcDbSymbolTable
 70
1
100
AcDbDimStyleTable
 71
0
  0
DIMSTYLE
105
242
100
AcDbSymbolTableRecord
100
AcDbDimStyleTableRecord
  2
STANDARD
 70
0
  3

  4

 40
1.0
 41
3.5
 42
0.0625
 43
0.38
 44
0.18
 45
0.0
 46
0.0
 47
0.005
 48
0.005
140
3.5
141
0.09
142
0.0
143
25.4
144
1.0
145
0.0
146
1.0
147
0.09
 71
0.0
 72
0.0
 73
0
 74
0
 75
0
 76
0
 77
1
 78
8
170
0
171
2
172
0
173
0
174
0
175
0
176
0
177
0
178
5
270
2
271
3
272
3
273
2
274
2
275
0
280
0
281
0
282
0
283
1
284
8
285
0
286
0
287
3
288
0
340
11
341
23B
342
23B
343
23B
344
23B
  0
DIMSTYLE
105
243
100
AcDbSymbolTableRecord
100
AcDbDimStyleTableRecord
  2
DIMSTYLE_1
 70
0
  3

  4

 40
1.0
 41
3.5
 42
0.0625
 43
0.38
 44
0.18
 45
0.0
 46
0.0
 47
0.0
 48
0.0
140
3.5
141
0.09
142
0.0
143
25.4
144
1.0
145
0.0
146
1.0
147
0.09
 71
0.0
 72
0.0
 73
0
 74
0
 75
0
 76
0
 77
1
 78
8
170
0
171
2
172
0
173
0
174
0
175
0
176
0
177
0
178
5
270
2
271
3
272
3
273
2
274
2
275
0
280
0
281
0
282
0
283
1
284
8
285
0
286
0
287
3
288
0
340
11
341
23B
342
23B
343
23B
344
23B
  0
DIMSTYLE
105
244
100
AcDbSymbolTableRecord
100
AcDbDimStyleTableRecord
  2
DIMSTYLE_2
 70
0
  3

  4

 40
1.0
 41
3.5
 42
0.0625
 43
0.38
 44
0.18
 45
0.0
 46
0.0
 47
0.0
 48
0.0
140
3.5
141
0.09
142
0.0
143
25.4
144
1.0
145
0.0
146
1.0
147
0.09
 71
0.0
 72
0.0
 73
0
 74
0
 75
0
 76
0
 77
1
 78
8
170
0
171
2
172
0
173
0
174
0
175
0
176
0
177
0
178
5
270
2
271
2
272
2
273
2
274
2
275
0
280
0
281
0
282
0
283
1
284
8
285
0
286
0
287
3
288
0
340
11
341
23B
342
23B
343
23B
344
23B
  0
ENDTAB
  0
ENDSEC
  0
SECTION
  2
BLOCKS
  0
BLOCK
  5
20
100
AcDbEntity
  8
0
100
AcDbBlockBegin
  2
*Model_Space
 70
0
 10
0.0
 20
0.0
 30
0.0
  3
*Model_Space
  1

  0
ENDBLK
  5
21
100
AcDbEntity
  8
0
100
AcDbBlockEnd
  0
BLOCK
  5
1C
100
AcDbEntity
  8
0
100
AcDbBlockBegin
  2
*Paper_Space
 70
0
 10
0.0
 20
0.0
 30
0.0
  3
*Paper_Space
  1

  0
ENDBLK
  5
1D
100
AcDbEntity
  8
0
100
AcDbBlockEnd
  0
BLOCK
  5
245
100
AcDbEntity
  8
0
100
AcDbBlockBegin
  2
_FILLED
 70
64
 10
0.0
 20
0.0
  3
_FILLED
  1

  0
SOLID
  5
246
100
AcDbEntity
  8
0
  6
BYBLOCK
 62
0
100
AcDbTrace
 10
0.0
 20
0.0
 11
-1.0
 21
0.125
 12
-1.0
 22
-0.125
 13
-1.0
 23
-0.125
  0
ENDBLK
  5
247
100
AcDbEntity
  8
0
  6
BYBLOCK
 62
0
100
AcDbBlockEnd
  0
BLOCK
  5
248
100
AcDbEntity
  8
2
100
AcDbBlockBegin
 62
2
  6
CONTINUOUS
  2
*D0
 70
65
 10
0.0
 20
0.0
  3
*D0
  1

  0
MTEXT
  5
249
100
AcDbEntity
  8
2
100
AcDbMText
 62
5
  6
CONTINUOUS
  7
STANDARD
 71
2
 72
1
 10
216.19
 20
205.375
 30
0.0
 11
1.0
 21
0.0
 31
0.0
 44
0.9
  1
52.38
 40
3.5
 41
12.5
  0
LINE
  5
24A
100
AcDbEntity
  8
2
100
AcDbLine
 62
2
  6
CONTINUOUS
 10
190.0
 20
176.0
 11
190.0
 21
202.5
  0
LINE
  5
24B
100
AcDbEntity
  8
2
100
AcDbLine
 62
2
  6
CONTINUOUS
 10
242.38
 20
177.0
 11
242.38
 21
202.5
  0
LINE
  5
24C
100
AcDbEntity
  8
2
100
AcDbLine
 62
2
  6
CONTINUOUS
 10
190.0
 20
201.0
 11
216.19
 21
201.0
  0
LINE
  5
24D
100
AcDbEntity
  8
2
100
AcDbLine
 62
2
  6
CONTINUOUS
 10
242.38
 20
201.0
 11
216.19
 21
201.0
  0
INSERT
  5
24E
100
AcDbEntity
  8
2
100
AcDbBlockReference
 62
2
  6
CONTINUOUS
  2
_FILLED
 10
190.0
 20
201.0
 41
3.5
 42
3.5
 43
3.5
 50
180.0
  0
INSERT
  5
24F
100
AcDbEntity
  8
2
100
AcDbBlockReference
 62
2
  6
CONTINUOUS
  2
_FILLED
 10
242.38
 20
201.0
 41
3.5
 42
3.5
 43
3.5
  0
ENDBLK
  5
250
100
AcDbEntity
  8
0
  6
BYBLOCK
 62
0
100
AcDbBlockEnd
  0
BLOCK
  5
251
100
AcDbEntity
  8
SK2
100
AcDbBlockBegin
 62
2
  6
CONTINUOUS
  2
*D1
 70
65
 10
0.0
 20
0.0
  3
*D1
  1

  0
MTEXT
  5
252
100
AcDbEntity
  8
SK2
100
AcDbMText
 62
5
  6
CONTINUOUS
  7
STANDARD
 71
2
 72
1
 10
208.19
 20
225.375
 30
0.0
 11
1.0
 21
0.0
 31
0.0
 44
0.9
  1
68.38
 40
3.5
 41
12.75
  0
LINE
  5
253
100
AcDbEntity
  8
SK2
100
AcDbLine
 62
2
  6
CONTINUOUS
 10
174.0
 20
160.0
 11
174.0
 21
222.5
  0
LINE
  5
254
100
AcDbEntity
  8
SK2
100
AcDbLine
 62
2
  6
CONTINUOUS
 10
242.38
 20
160.0
 11
242.38
 21
208.0
  0
LINE
  5
255
100
AcDbEntity
  8
SK2
100
AcDbLine
 62
2
  6
CONTINUOUS
 10
242.38
 20
214.0
 11
242.38
 21
222.5
  0
LINE
  5
256
100
AcDbEntity
  8
SK2
100
AcDbLine
 62
2
  6
CONTINUOUS
 10
174.0
 20
221.0
 11
208.19
 21
221.0
  0
LINE
  5
257
100
AcDbEntity
  8
SK2
100
AcDbLine
 62
2
  6
CONTINUOUS
 10
242.38
 20
221.0
 11
208.19
 21
221.0
  0
INSERT
  5
258
100
AcDbEntity
  8
SK2
100
AcDbBlockReference
 62
2
  6
CONTINUOUS
  2
_FILLED
 10
174.0
 20
221.0
 41
3.5
 42
3.5
 43
3.5
 50
180.0
  0
INSERT
  5
259
100
AcDbEntity
  8
SK2
100
AcDbBlockReference
 62
2
  6
CONTINUOUS
  2
_FILLED
 10
242.38
 20
221.0
 41
3.5
 42
3.5
 43
3.5
  0
ENDBLK
  5
25A
100
AcDbEntity
  8
0
  6
BYBLOCK
 62
0
100
AcDbBlockEnd
  0
BLOCK
  5
25B
100
AcDbEntity
  8
SK2
100
AcDbBlockBegin
 62
2
  6
CONTINUOUS
  2
*D2
 70
65
 10
0.0
 20
0.0
  3
*D2
  1

  0
MTEXT
  5
25C
100
AcDbEntity
  8
SK2
100
AcDbMText
 62
5
  6
CONTINUOUS
  7
STANDARD
 71
2
 72
1
 10
226.19
 20
195.375
 30
0.0
 11
1.0
 21
0.0
 31
0.0
 44
0.9
  1
32.38
 40
3.5
 41
12.5
  0
LINE
  5
25D
100
AcDbEntity
  8
SK2
100
AcDbLine
 62
2
  6
CONTINUOUS
 10
210.0
 20
176.0
 11
210.0
 21
192.5
  0
LINE
  5
25E
100
AcDbEntity
  8
SK2
100
AcDbLine
 62
2
  6
CONTINUOUS
 10
242.38
 20
160.0
 11
242.38
 21
192.5
  0
LINE
  5
25F
100
AcDbEntity
  8
SK2
100
AcDbLine
 62
2
  6
CONTINUOUS
 10
210.0
 20
191.0
 11
226.19
 21
191.0
  0
LINE
  5
260
100
AcDbEntity
  8
SK2
100
AcDbLine
 62
2
  6
CONTINUOUS
 10
242.38
 20
191.0
 11
226.19
 21
191.0
  0
INSERT
  5
261
100
AcDbEntity
  8
SK2
100
AcDbBlockReference
 62
2
  6
CONTINUOUS
  2
_FILLED
 10
210.0
 20
191.0
 41
3.5
 42
3.5
 43
3.5
 50
180.0
  0
INSERT
  5
262
100
AcDbEntity
  8
SK2
100
AcDbBlockReference
 62
2
  6
CONTINUOUS
  2
_FILLED
 10
242.38
 20
191.0
 41
3.5
 42
3.5
 43
3.5
  0
ENDBLK
  5
263
100
AcDbEntity
  8
0
  6
BYBLOCK
 62
0
100
AcDbBlockEnd
  0
BLOCK
  5
264
100
AcDbEntity
  8
2
100
AcDbBlockBegin
 62
2
  6
CONTINUOUS
  2
*D3
 70
65
 10
0.0
 20
0.0
  3
*D3
  1

  0
MTEXT
  5
265
100
AcDbEntity
  8
2
100
AcDbMText
 62
5
  6
CONTINUOUS
  7
TEXTSTYLE_2
 71
2
 72
1
 10
260.145
 20
160.0
 30
0.0
 11
0.0
 21
1.0
 31
0.0
 44
0.9
  1
{\Fgdt;n}\Ftxt;25
 40
3.5
 41
9.9166666667
  0
LINE
  5
266
100
AcDbEntity
  8
2
100
AcDbLine
 62
2
  6
CONTINUOUS
 10
242.38
 20
147.5
 11
266.02
 21
147.5
  0
LINE
  5
267
100
AcDbEntity
  8
2
100
AcDbLine
 62
2
  6
CONTINUOUS
 10
242.38
 20
172.5
 11
266.02
 21
172.5
  0
LINE
  5
268
100
AcDbEntity
  8
2
100
AcDbLine
 62
2
  6
CONTINUOUS
 10
264.52
 20
147.5
 11
264.52
 21
160.0
  0
LINE
  5
269
100
AcDbEntity
  8
2
100
AcDbLine
 62
2
  6
CONTINUOUS
 10
264.52
 20
172.5
 11
264.52
 21
160.0
  0
INSERT
  5
26A
100
AcDbEntity
  8
2
100
AcDbBlockReference
 62
2
  6
CONTINUOUS
  2
_FILLED
 10
264.52
 20
147.5
 41
3.5
 42
3.5
 43
3.5
 50
270.0
  0
INSERT
  5
26B
100
AcDbEntity
  8
2
100
AcDbBlockReference
 62
2
  6
CONTINUOUS
  2
_FILLED
 10
264.52
 20
172.5
 41
3.5
 42
3.5
 43
3.5
 50
90.0
  0
ENDBLK
  5
26C
100
AcDbEntity
  8
0
  6
BYBLOCK
 62
0
100
AcDbBlockEnd
  0
BLOCK
  5
26D
100
AcDbEntity
  8
2
100
AcDbBlockBegin
 62
2
  6
CONTINUOUS
  2
*D4
 70
65
 10
0.0
 20
0.0
  3
*D4
  1

  0
MTEXT
  5
26E
100
AcDbEntity
  8
2
100
AcDbMText
 62
5
  6
CONTINUOUS
  7
STANDARD
 71
2
 72
1
 10
220.0
 20
215.375
 30
0.0
 11
1.0
 21
0.0
 31
0.0
 44
0.9
  1
60
 40
3.5
 41
5.5
  0
LINE
  5
26F
100
AcDbEntity
  8
2
100
AcDbLine
 62
2
  6
CONTINUOUS
 10
190.0
 20
176.0
 11
190.0
 21
212.5
  0
LINE
  5
270
100
AcDbEntity
  8
2
100
AcDbLine
 62
2
  6
CONTINUOUS
 10
250.0
 20
160.0
 11
250.0
 21
169.5
  0
LINE
  5
271
100
AcDbEntity
  8
2
100
AcDbLine
 62
2
  6
CONTINUOUS
 10
250.0
 20
175.5
 11
250.0
 21
212.5
  0
LINE
  5
272
100
AcDbEntity
  8
2
100
AcDbLine
 62
2
  6
CONTINUOUS
 10
190.0
 20
211.0
 11
220.0
 21
211.0
  0
LINE
  5
273
100
AcDbEntity
  8
2
100
AcDbLine
 62
2
  6
CONTINUOUS
 10
250.0
 20
211.0
 11
220.0
 21
211.0
  0
INSERT
  5
274
100
AcDbEntity
  8
2
100
AcDbBlockReference
 62
2
  6
CONTINUOUS
  2
_FILLED
 10
190.0
 20
211.0
 41
3.5
 42
3.5
 43
3.5
 50
180.0
  0
INSERT
  5
275
100
AcDbEntity
  8
2
100
AcDbBlockReference
 62
2
  6
CONTINUOUS
  2
_FILLED
 10
250.0
 20
211.0
 41
3.5
 42
3.5
 43
3.5
  0
ENDBLK
  5
276
100
AcDbEntity
  8
0
  6
BYBLOCK
 62
0
100
AcDbBlockEnd
  0
BLOCK
  5
277
100
AcDbEntity
  8
0
100
AcDbBlockBegin
 62
2
  6
CONTINUOUS
  2
*D5
 70
65
 10
0.0
 20
0.0
  3
*D5
  1

  0
MTEXT
  5
278
100
AcDbEntity
  8
0
100
AcDbMText
 62
5
  6
CONTINUOUS
  7
TEXTSTYLE_2
 71
2
 72
1
 10
270.145
 20
160.0
 30
0.0
 11
0.0
 21
1.0
 31
0.0
 44
0.9
  1
{\Fgdt;n}\Ftxt;42
 40
3.5
 41
10.1666666667
  0
LINE
  5
279
100
AcDbEntity
  8
0
100
AcDbLine
 62
2
  6
CONTINUOUS
 10
245.0
 20
139.0
 11
276.02
 21
139.0
  0
LINE
  5
27A
100
AcDbEntity
  8
0
100
AcDbLine
 62
2
  6
CONTINUOUS
 10
245.0
 20
181.0
 11
276.02
 21
181.0
  0
LINE
  5
27B
100
AcDbEntity
  8
0
100
AcDbLine
 62
2
  6
CONTINUOUS
 10
274.52
 20
139.0
 11
274.52
 21
160.0
  0
LINE
  5
27C
100
AcDbEntity
  8
0
100
AcDbLine
 62
2
  6
CONTINUOUS
 10
274.52
 20
181.0
 11
274.52
 21
160.0
  0
INSERT
  5
27D
100
AcDbEntity
  8
0
100
AcDbBlockReference
 62
2
  6
CONTINUOUS
  2
_FILLED
 10
274.52
 20
139.0
 41
3.5
 42
3.5
 43
3.5
 50
270.0
  0
INSERT
  5
27E
100
AcDbEntity
  8
0
100
AcDbBlockReference
 62
2
  6
CONTINUOUS
  2
_FILLED
 10
274.52
 20
181.0
 41
3.5
 42
3.5
 43
3.5
 50
90.0
  0
ENDBLK
  5
27F
100
AcDbEntity
  8
0
  6
BYBLOCK
 62
0
100
AcDbBlockEnd
  0
ENDSEC
  0
SECTION
  2
ENTITIES
  0
DIMENSION
  5
280
100
AcDbEntity
  8
2
100
AcDbDimension
 62
2
  6
CONTINUOUS
  2
*D0
 10
242.38
 20
201.0
 11
209.94
 21
203.625
 70
160
 71
2
 42
52.38
  3
DIMSTYLE_1
100
AcDbAlignedDimension
 13
190.0
 23
176.0
 14
242.38
 24
177.0
100
AcDbRotatedDimension
  0
DIMENSION
  5
281
100
AcDbEntity
  8
SK2
100
AcDbDimension
 62
2
  6
CONTINUOUS
  2
*D1
 10
242.38
 20
221.0
 11
201.815
 21
223.625
 70
160
 71
2
 42
68.38
  3
DIMSTYLE_1
100
AcDbAlignedDimension
 13
174.0
 23
160.0
 14
242.38
 24
160.0
100
AcDbRotatedDimension
  0
DIMENSION
  5
282
100
AcDbEntity
  8
SK2
100
AcDbDimension
 62
2
  6
CONTINUOUS
  2
*D2
 10
242.38
 20
191.0
 11
219.94
 21
193.625
 70
160
 71
2
 42
32.38
  3
DIMSTYLE_1
100
AcDbAlignedDimension
 13
210.0
 23
176.0
 14
242.38
 24
160.0
100
AcDbRotatedDimension
  0
DIMENSION
  5
283
100
AcDbEntity
  8
2
100
AcDbDimension
 62
2
  6
CONTINUOUS
  2
*D3
 10
264.52
 20
172.5
 11
263.0058491733
 21
157.7836332715
 70
160
 71
2
 42
25.0
  1
%%c<>
  3
DIMSTYLE_2
100
AcDbAlignedDimension
 13
242.38
 23
147.5
 14
242.38
 24
172.5
 50
90.0
100
AcDbRotatedDimension
  0
DIMENSION
  5
284
100
AcDbEntity
  8
2
100
AcDbDimension
 62
2
  6
CONTINUOUS
  2
*D4
 10
250.0
 20
211.0
 11
217.25
 21
213.625
 70
160
 71
2
 42
60.0
  3
DIMSTYLE_1
100
AcDbAlignedDimension
 13
190.0
 23
176.0
 14
250.0
 24
160.0
100
AcDbRotatedDimension
  0
DIMENSION
  5
285
100
AcDbEntity
  8
0
100
AcDbDimension
 62
2
  6
CONTINUOUS
  2
*D5
 10
274.52
 20
181.0
 11
273.0338537743
 21
157.72775848
 70
160
 71
2
 42
42.0
  1
%%c<>
  3
DIMSTYLE_2
100
AcDbAlignedDimension
 13
245.0
 23
139.0
 14
245.0
 24
181.0
 50
90.0
100
AcDbRotatedDimension
  0
MTEXT
  5
286
100
AcDbEntity
  8
6
100
AcDbMText
 62
5
  6
CONTINUOUS
  7
STANDARD
 71
1
 72
1
 10
187.1438497029
 20
82.3507156451
 30
0.0
 11
1.0
 21
0.0
 31
0.0
 44
0.9
  3
Für diese Unterlage behalten wir das Ur-\Pheberrecht. Sie darf nur für den von uns\Pbestimmten Zweck benutzt und ohne unsere \PZustimmung weder vervielfältigt noch \PDritten zugänglich gemacht werden.\P \PWe own the copyright of this document. It\Pde
  1
termined and may neither be copied or\Pmade accessible to outsiders without our\Ppermission.\P \PCe plan reste notre propriété. Il ne peut\Pétre utilisé, copié ou reproduit sans notre\Paccord.
 40
3.5
 41
103.5833333333
  0
LINE
  5
287
100
AcDbEntity
  8
1
100
AcDbLine
 62
9
  6
CONTINUOUS
 10
174.1
 20
149.2034957645
 11
174.1
 21
154.8577167861
  0
LINE
  5
288
100
AcDbEntity
  8
1
100
AcDbLine
 62
6
  6
CONTINUOUS
 10
174.1
 20
154.8577167861
 11
174.1
 21
155.525
  0
LINE
  5
289
100
AcDbEntity
  8
1
100
AcDbLine
 62
6
  6
CONTINUOUS
 10
174.1
 20
164.475
 11
174.1
 21
165.1422832139
  0
LINE
  5
28A
100
AcDbEntity
  8
1
100
AcDbLine
 62
9
  6
CONTINUOUS
 10
174.1
 20
165.1422832139
 11
174.1
 21
170.7965042348
  0
LINE
  5
28B
100
AcDbEntity
  8
1
100
AcDbLine
 62
9
  6
CONTINUOUS
 10
174.6699760169
 20
171.3957525655
 11
174.6699760169
 21
165.1358419996
  0
LINE
  5
28C
100
AcDbEntity
  8
1
100
AcDbLine
 62
9
  6
CONTINUOUS
 10
174.6699760169
 20
154.8641580004
 11
174.6699760169
 21
148.6042474345
  0
LINE
  5
28D
100
AcDbEntity
  8
1
100
AcDbLine
 62
6
  6
CONTINUOUS
 10
175.05
 20
155.8575457012
 11
175.05
 21
156.475
  0
LINE
  5
28E
100
AcDbEntity
  8
1
100
AcDbLine
 62
6
  6
CONTINUOUS
 10
175.05
 20
163.525
 11
175.05
 21
164.1424542988
  0
LINE
  5
28F
100
AcDbEntity
  8
1
100
AcDbLine
 62
9
  6
CONTINUOUS
 10
176.3
 20
154.7377573073
 11
176.3
 21
156.475
  0
LINE
  5
290
100
AcDbEntity
  8
1
100
AcDbLine
 62
9
  6
CONTINUOUS
 10
176.3
 20
163.525
 11
176.3
 21
165.2622426927
  0
LINE
  5
291
100
AcDbEntity
  8
1
100
AcDbLine
 62
6
  6
CONTINUOUS
 10
177.2
 20
163.8718839709
 11
177.2
 21
156.1281160291
  0
LINE
  5
292
100
AcDbEntity
  8
1
100
AcDbLine
 62
6
  6
CONTINUOUS
 10
174.8201843564
 20
155.095
 11
174.7194991524
 21
154.9127872077
  0
LINE
  5
293
100
AcDbEntity
  8
1
100
AcDbLine
 62
6
  6
CONTINUOUS
 10
174.7194991524
 20
165.0872127923
 11
174.8201843564
 21
164.905
  0
LINE
  5
294
100
AcDbEntity
  8
1
100
AcDbLine
 62
6
  6
CONTINUOUS
 10
189.0
 20
172.1137260274
 11
189.0
 21
147.8862739726
  0
LINE
  5
295
100
AcDbEntity
  8
1
100
AcDbLine
 62
9
  6
CONTINUOUS
 10
189.3223384618
 20
147.9726443031
 11
189.3223384618
 21
172.0273556969
  0
LINE
  5
296
100
AcDbEntity
  8
1
100
AcDbLine
 62
9
  6
CONTINUOUS
 10
189.4258660798
 20
147.9862739726
 11
189.4258660798
 21
172.0137260274
  0
LINE
  5
297
100
AcDbEntity
  8
1
100
AcDbLine
 62
9
  6
CONTINUOUS
 10
189.8458228367
 20
147.9862739726
 11
189.8458228367
 21
172.0137260274
  0
LINE
  5
298
100
AcDbEntity
  8
1
100
AcDbLine
 62
6
  6
CONTINUOUS
 10
190.0
 20
176.0
 11
190.0
 21
144.0
  0
LINE
  5
299
100
AcDbEntity
  8
1
100
AcDbLine
 62
9
  6
CONTINUOUS
 10
174.1
 20
155.525
 11
175.05
 21
156.475
  0
LINE
  5
29A
100
AcDbEntity
  8
1
100
AcDbLine
 62
9
  6
CONTINUOUS
 10
175.05
 20
163.525
 11
174.1
 21
164.475
  0
LINE
  5
29B
100
AcDbEntity
  8
1
100
AcDbLine
 62
6
  6
CONTINUOUS
 10
245.0
 20
139.0
 11
231.25
 21
139.0
  0
LINE
  5
29C
100
AcDbEntity
  8
1
100
AcDbLine
 62
6
  6
CONTINUOUS
 10
245.0
 20
140.5845919358
 11
238.0
 21
140.5845919358
  0
LINE
  5
29D
100
AcDbEntity
  8
1
100
AcDbLine
 62
9
  6
CONTINUOUS
 10
174.1
 20
155.3326048199
 11
175.05
 21
155.8575457012
  0
LINE
  5
29E
100
AcDbEntity
  8
1
100
AcDbLine
 62
8
  6
HIDDEN
 10
241.5139745962
 20
143.025
 11
230.0
 21
143.025
  0
LINE
  5
29F
100
AcDbEntity
  8
1
100
AcDbLine
 62
6
  6
CONTINUOUS
 10
230.0
 20
143.025
 11
226.45
 21
143.025
  0
LINE
  5
2A0
100
AcDbEntity
  8
1
100
AcDbLine
 62
6
  6
CONTINUOUS
 10
245.0
 20
143.3618235976
 11
238.0
 21
143.3618235976
  0
LINE
  5
2A1
100
AcDbEntity
  8
1
100
AcDbLine
 62
6
  6
CONTINUOUS
 10
203.9648403011
 20
144.0
 11
190.0
 21
144.0
  0
LINE
  5
2A2
100
AcDbEntity
  8
1
100
AcDbLine
 62
6
  6
CONTINUOUS
 10
208.0351596989
 20
144.0
 11
209.95
 21
144.0
  0
LINE
  5
2A3
100
AcDbEntity
  8
1
100
AcDbLine
 62
9
  6
CONTINUOUS
 10
175.05
 20
164.1424542988
 11
174.1
 21
164.6673951801
  0
LINE
  5
2A4
100
AcDbEntity
  8
1
100
AcDbLine
 62
9
  6
CONTINUOUS
 10
201.449914995
 20
150.65
 11
201.449914995
 21
150.25
  0
LINE
  5
2A5
100
AcDbEntity
  8
1
100
AcDbLine
 62
6
  6
CONTINUOUS
 10
207.0375
 20
174.2720027129
 11
208.0351596989
 21
176.0
  0
LINE
  5
2A6
100
AcDbEntity
  8
1
100
AcDbLine
 62
6
  6
CONTINUOUS
 10
205.2125
 20
146.775
 11
206.7875
 21
146.775
  0
LINE
  5
2A7
100
AcDbEntity
  8
1
100
AcDbLine
 62
6
  6
CONTINUOUS
 10
198.3528061093
 20
147.016260169
 11
203.9648403011
 21
147.016260169
  0
LINE
  5
2A8
100
AcDbEntity
  8
1
100
AcDbLine
 62
6
  6
CONTINUOUS
 10
208.0351596989
 20
147.016260169
 11
209.95
 21
147.016260169
  0
LINE
  5
2A9
100
AcDbEntity
  8
1
100
AcDbLine
 62
6
  6
CONTINUOUS
 10
189.8458228367
 20
147.9862739726
 11
189.4258660798
 21
147.9862739726
  0
LINE
  5
2AA
100
AcDbEntity
  8
1
100
AcDbLine
 62
6
  6
CONTINUOUS
 10
224.45
 20
148.0
 11
210.95
 21
148.0
  0
LINE
  5
2AB
100
AcDbEntity
  8
1
100
AcDbLine
 62
6
  6
CONTINUOUS
 10
189.0
 20
147.8862739726
 11
174.6699760169
 21
148.6042474345
  0
LINE
  5
2AC
100
AcDbEntity
  8
1
100
AcDbLine
 62
6
  6
CONTINUOUS
 10
207.0375
 20
145.7279972871
 11
208.0351596989
 21
144.0
  0
LINE
  5
2AD
100
AcDbEntity
  8
1
100
AcDbLine
 62
6
  6
CONTINUOUS
 10
203.9648403011
 20
176.0
 11
203.9648403011
 21
150.65
  0
LINE
  5
2AE
100
AcDbEntity
  8
1
100
AcDbLine
 62
6
  6
CONTINUOUS
 10
203.9648403011
 20
147.016260169
 11
203.9648403011
 21
144.0
  0
LINE
  5
2AF
100
AcDbEntity
  8
1
100
AcDbLine
 62
6
  6
CONTINUOUS
 10
204.9625
 20
145.7280548424
 11
204.9625
 21
174.2719605376
  0
LINE
  5
2B0
100
AcDbEntity
  8
1
100
AcDbLine
 62
9
  6
CONTINUOUS
 10
205.2125
 20
173.225
 11
205.2125
 21
146.775
  0
LINE
  5
2B1
100
AcDbEntity
  8
1
100
AcDbLine
 62
6
  6
CONTINUOUS
 10
209.95
 20
150.25
 11
207.0375
 21
150.25
  0
LINE
  5
2B2
100
AcDbEntity
  8
1
100
AcDbLine
 62
6
  6
CONTINUOUS
 10
204.9625
 20
150.25
 11
201.449914995
 21
150.25
  0
LINE
  5
2B3
100
AcDbEntity
  8
1
100
AcDbLine
 62
8
  6
HIDDEN
 10
220.8391782891
 20
150.4325
 11
210.88
 21
150.4325
  0
LINE
  5
2B4
100
AcDbEntity
  8
1
100
AcDbLine
 62
6
  6
CONTINUOUS
 10
201.449914995
 20
150.65
 11
204.9625
 21
150.65
  0
LINE
  5
2B5
100
AcDbEntity
  8
1
100
AcDbLine
 62
6
  6
CONTINUOUS
 10
207.0375
 20
150.65
 11
209.95
 21
150.65
  0
LINE
  5
2B6
100
AcDbEntity
  8
1
100
AcDbLine
 62
8
  6
HIDDEN
 10
221.6339101441
 20
150.3629699721
 11
220.8391782891
 21
150.4325
  0
LINE
  5
2B7
100
AcDbEntity
  8
1
100
AcDbLine
 62
9
  6
CONTINUOUS
 10
206.7875
 20
173.225
 11
206.7875
 21
146.775
  0
LINE
  5
2B8
100
AcDbEntity
  8
1
100
AcDbLine
 62
6
  6
CONTINUOUS
 10
207.0375
 20
145.7280548424
 11
207.0375
 21
174.2719605376
  0
LINE
  5
2B9
100
AcDbEntity
  8
1
100
AcDbLine
 62
6
  6
CONTINUOUS
 10
208.0351596989
 20
176.0
 11
208.0351596989
 21
150.65
  0
LINE
  5
2BA
100
AcDbEntity
  8
1
100
AcDbLine
 62
6
  6
CONTINUOUS
 10
208.0351596989
 20
147.016260169
 11
208.0351596989
 21
144.0
  0
LINE
  5
2BB
100
AcDbEntity
  8
1
100
AcDbLine
 62
6
  6
CONTINUOUS
 10
189.3223384618
 20
147.9726443031
 11
189.4258660798
 21
147.9862739726
  0
LINE
  5
2BC
100
AcDbEntity
  8
1
100
AcDbLine
 62
8
  6
HIDDEN
 10
242.005
 20
147.5
 11
221.6339101441
 21
150.3629699721
  0
LINE
  5
2BD
100
AcDbEntity
  8
1
100
AcDbLine
 62
6
  6
CONTINUOUS
 10
209.95
 20
144.0000190533
 11
209.95
 21
175.9999977539
  0
LINE
  5
2BE
100
AcDbEntity
  8
1
100
AcDbLine
 62
8
  6
HIDDEN
 10
210.88
 20
169.5675
 11
210.88
 21
150.4325
  0
LINE
  5
2BF
100
AcDbEntity
  8
1
100
AcDbLine
 62
9
  6
CONTINUOUS
 10
210.95
 20
172.0
 11
210.95
 21
148.0
  0
LINE
  5
2C0
100
AcDbEntity
  8
1
100
AcDbLine
 62
6
  6
CONTINUOUS
 10
189.3223384618
 20
147.9726443031
 11
189.0
 21
147.8862739726
  0
LINE
  5
2C1
100
AcDbEntity
  8
1
100
AcDbLine
 62
9
  6
CONTINUOUS
 10
176.87596111
 20
155.095
 11
174.8201843564
 21
155.095
  0
LINE
  5
2C2
100
AcDbEntity
  8
1
100
AcDbLine
 62
6
  6
CONTINUOUS
 10
176.3
 20
156.475
 11
175.05
 21
156.475
  0
LINE
  5
2C3
100
AcDbEntity
  8
1
100
AcDbLine
 62
6
  6
CONTINUOUS
 10
245.0
 20
157.2227683382
 11
238.0
 21
157.2227683382
  0
LINE
  5
2C4
100
AcDbEntity
  8
1
100
AcDbLine
 62
6
  6
CONTINUOUS
 10
203.9648403011
 20
144.0
 11
204.9625
 21
145.7279972871
  0
LINE
  5
2C5
100
AcDbEntity
  8
4
100
AcDbLine
 62
7
  6
CENTER
 10
247.38
 20
160.0
 11
171.1
 21
160.0
  0
LINE
  5
2C6
100
AcDbEntity
  8
1
100
AcDbLine
 62
9
  6
CONTINUOUS
 10
182.4006697547
 20
159.9999999336
 11
182.9999557557
 21
159.9999999746
  0
LINE
  5
2C7
100
AcDbEntity
  8
1
100
AcDbLine
 62
6
  6
CONTINUOUS
 10
203.9648403011
 20
176.0
 11
204.9625
 21
174.2720027129
  0
LINE
  5
2C8
100
AcDbEntity
  8
1
100
AcDbLine
 62
6
  6
CONTINUOUS
 10
245.0
 20
162.7772316618
 11
238.0
 21
162.7772316618
  0
LINE
  5
2C9
100
AcDbEntity
  8
1
100
AcDbLine
 62
9
  6
CONTINUOUS
 10
176.3
 20
163.525
 11
175.05
 21
163.525
  0
LINE
  5
2CA
100
AcDbEntity
  8
1
100
AcDbLine
 62
9
  6
CONTINUOUS
 10
174.8201843564
 20
164.905
 11
176.87596111
 21
164.905
  0
LINE
  5
2CB
100
AcDbEntity
  8
1
100
AcDbLine
 62
6
  6
CONTINUOUS
 10
189.3223384618
 20
172.0273556969
 11
189.0
 21
172.1137260274
  0
LINE
  5
2CC
100
AcDbEntity
  8
1
100
AcDbLine
 62
8
  6
HIDDEN
 10
220.8391782891
 20
169.5675
 11
220.8391782891
 21
150.4325
  0
LINE
  5
2CD
100
AcDbEntity
  8
1
100
AcDbLine
 62
8
  6
HIDDEN
 10
242.005
 20
172.5
 11
221.6339101441
 21
169.6370300279
  0
LINE
  5
2CE
100
AcDbEntity
  8
1
100
AcDbLine
 62
8
  6
HIDDEN
 10
221.6339101441
 20
169.6370300279
 11
220.8391782891
 21
169.5675
  0
LINE
  5
2CF
100
AcDbEntity
  8
1
100
AcDbLine
 62
6
  6
CONTINUOUS
 10
189.3223384618
 20
172.0273556969
 11
189.4258660798
 21
172.0137260274
  0
LINE
  5
2D0
100
AcDbEntity
  8
1
100
AcDbLine
 62
9
  6
CONTINUOUS
 10
224.45
 20
172.0
 11
224.45
 21
148.0
  0
LINE
  5
2D1
100
AcDbEntity
  8
1
100
AcDbLine
 62
9
  6
CONTINUOUS
 10
225.45
 20
175.975
 11
225.45
 21
144.025
  0
LINE
  5
2D2
100
AcDbEntity
  8
1
100
AcDbLine
 62
9
  6
CONTINUOUS
 10
226.45
 20
143.025
 11
226.45
 21
176.975
  0
LINE
  5
2D3
100
AcDbEntity
  8
1
100
AcDbLine
 62
8
  6
HIDDEN
 10
220.8391782891
 20
169.5675
 11
210.88
 21
169.5675
  0
LINE
  5
2D4
100
AcDbEntity
  8
1
100
AcDbLine
 62
6
  6
CONTINUOUS
 10
224.45
 20
172.0
 11
210.95
 21
172.0
  0
LINE
  5
2D5
100
AcDbEntity
  8
1
100
AcDbLine
 62
6
  6
CONTINUOUS
 10
189.8458228367
 20
172.0137260274
 11
189.4258660798
 21
172.0137260274
  0
LINE
  5
2D6
100
AcDbEntity
  8
1
100
AcDbLine
 62
6
  6
CONTINUOUS
 10
189.0
 20
172.1137260274
 11
174.6699760169
 21
171.3957525655
  0
LINE
  5
2D7
100
AcDbEntity
  8
1
100
AcDbLine
 62
6
  6
CONTINUOUS
 10
206.7875
 20
173.225
 11
205.2125
 21
173.225
  0
LINE
  5
2D8
100
AcDbEntity
  8
1
100
AcDbLine
 62
6
  6
CONTINUOUS
 10
230.0
 20
179.75
 11
230.0
 21
140.25
  0
LINE
  5
2D9
100
AcDbEntity
  8
1
100
AcDbLine
 62
9
  6
CONTINUOUS
 10
231.25
 20
181.0
 11
231.25
 21
139.0
  0
LINE
  5
2DA
100
AcDbEntity
  8
1
100
AcDbLine
 62
6
  6
CONTINUOUS
 10
203.9648403011
 20
176.0
 11
190.0
 21
176.0
  0
LINE
  5
2DB
100
AcDbEntity
  8
1
100
AcDbLine
 62
6
  6
CONTINUOUS
 10
208.0351596989
 20
176.0
 11
209.95
 21
176.0
  0
LINE
  5
2DC
100
AcDbEntity
  8
1
100
AcDbLine
 62
6
  6
CONTINUOUS
 10
245.0
 20
176.6381764024
 11
238.0
 21
176.6381764024
  0
LINE
  5
2DD
100
AcDbEntity
  8
1
100
AcDbLine
 62
8
  6
HIDDEN
 10
241.5139745962
 20
176.975
 11
230.0
 21
176.975
  0
LINE
  5
2DE
100
AcDbEntity
  8
1
100
AcDbLine
 62
6
  6
CONTINUOUS
 10
230.0
 20
176.975
 11
226.45
 21
176.975
  0
LINE
  5
2DF
100
AcDbEntity
  8
1
100
AcDbLine
 62
6
  6
CONTINUOUS
 10
245.0
 20
179.4154080642
 11
238.0
 21
179.4154080642
  0
LINE
  5
2E0
100
AcDbEntity
  8
1
100
AcDbLine
 62
6
  6
CONTINUOUS
 10
245.0
 20
181.0
 11
231.25
 21
181.0
  0
LINE
  5
2E1
100
AcDbEntity
  8
1
100
AcDbLine
 62
9
  6
CONTINUOUS
 10
238.0
 20
179.4154080642
 11
238.0
 21
176.6381764024
  0
LINE
  5
2E2
100
AcDbEntity
  8
1
100
AcDbLine
 62
9
  6
CONTINUOUS
 10
238.0
 20
162.7772316618
 11
238.0
 21
157.2227683382
  0
LINE
  5
2E3
100
AcDbEntity
  8
1
100
AcDbLine
 62
9
  6
CONTINUOUS
 10
238.0
 20
143.3618235976
 11
238.0
 21
140.5845919358
  0
LINE
  5
2E4
100
AcDbEntity
  8
1
100
AcDbLine
 62
8
  6
HIDDEN
 10
242.38
 20
175.475
 11
242.38
 21
144.525
  0
LINE
  5
2E5
100
AcDbEntity
  8
1
100
AcDbLine
 62
9
  6
CONTINUOUS
 10
245.0
 20
181.0
 11
245.0
 21
179.4154080642
  0
LINE
  5
2E6
100
AcDbEntity
  8
1
100
AcDbLine
 62
9
  6
CONTINUOUS
 10
245.0
 20
176.6381764024
 11
245.0
 21
162.7772316618
  0
LINE
  5
2E7
100
AcDbEntity
  8
1
100
AcDbLine
 62
9
  6
CONTINUOUS
 10
245.0
 20
157.2227683382
 11
245.0
 21
143.3618235976
  0
LINE
  5
2E8
100
AcDbEntity
  8
1
100
AcDbLine
 62
9
  6
CONTINUOUS
 10
245.0
 20
140.5845919358
 11
245.0
 21
139.0
  0
LINE
  5
2E9
100
AcDbEntity
  8
1
100
AcDbLine
 62
8
  6
HIDDEN
 10
242.38
 20
144.525
 11
241.5139745962
 21
143.025
  0
LINE
  5
2EA
100
AcDbEntity
  8
1
100
AcDbLine
 62
8
  6
HIDDEN
 10
242.38
 20
175.475
 11
241.5139745962
 21
176.975
  0
LINE
  5
2EB
100
AcDbEntity
  8
1
100
AcDbLine
 62
9
  6
CONTINUOUS
 10
250.0
 20
176.0
 11
250.0
 21
144.0
  0
ARC
  5
2EC
100
AcDbEntity
  8
1
100
AcDbCircle
 62
6
  6
CONTINUOUS
 10
202.8598317441
 20
153.4754630136
 40
7.8762034929
100
AcDbArc
 50
231.4718711019
 51
235.0938946536
  0
ARC
  5
2ED
100
AcDbEntity
  8
1
100
AcDbCircle
 62
6
  6
CONTINUOUS
 10
201.449914995
 20
147.15
 40
3.5
100
AcDbArc
 50
90.0
 51
177.316106528
  0
ARC
  5
2EE
100
AcDbEntity
  8
1
100
AcDbCircle
 62
6
  6
CONTINUOUS
 10
201.449914995
 20
147.15
 40
3.0999951278
100
AcDbArc
 50
90.0
 51
182.4726190081
  0
ARC
  5
2EF
100
AcDbEntity
  8
1
100
AcDbCircle
 62
9
  6
CONTINUOUS
 10
176.3
 20
157.375
 40
0.9
100
AcDbArc
 50
270.0
 51
352.9880362121
  0
ARC
  5
2F0
100
AcDbEntity
  8
1
100
AcDbCircle
 62
6
  6
CONTINUOUS
 10
174.7
 20
149.203495764
 40
0.6
100
AcDbArc
 50
180.0
 51
267.131722931
  0
ARC
  5
2F1
100
AcDbEntity
  8
1
100
AcDbCircle
 62
6
  6
CONTINUOUS
 10
189.8458228367
 20
147.5862739726
 40
0.4
100
AcDbArc
 50
67.3015645404
 51
90.0
  0
ARC
  5
2F2
100
AcDbEntity
  8
1
100
AcDbCircle
 62
6
  6
CONTINUOUS
 10
205.2125
 20
146.525
 40
0.25
100
AcDbArc
 50
90.0
 51
180.0
  0
ARC
  5
2F3
100
AcDbEntity
  8
1
100
AcDbCircle
 62
6
  6
CONTINUOUS
 10
122.4083250032
 20
185.3105130693
 40
90.0994727661
100
AcDbArc
 50
334.8479477142
 51
336.3847181612
  0
CIRCLE
  5
2F4
100
AcDbEntity
  8
1
100
AcDbCircle
 62
6
  6
CONTINUOUS
 10
185.0
 20
160.0
 40
2.0
  0
ARC
  5
2F5
100
AcDbEntity
  8
1
100
AcDbCircle
 62
9
  6
CONTINUOUS
 10
176.3
 20
162.625
 40
0.9
100
AcDbArc
 50
7.0119620216
 51
90.0
  0
ARC
  5
2F6
100
AcDbEntity
  8
1
100
AcDbCircle
 62
6
  6
CONTINUOUS
 10
174.7
 20
170.796504236
 40
0.6
100
AcDbArc
 50
92.868277069
 51
180.0
  0
ARC
  5
2F7
100
AcDbEntity
  8
1
100
AcDbCircle
 62
6
  6
CONTINUOUS
 10
189.4258660798
 20
172.4137260274
 40
0.4
100
AcDbArc
 50
255.0
 51
270.0
  0
ARC
  5
2F8
100
AcDbEntity
  8
1
100
AcDbCircle
 62
6
  6
CONTINUOUS
 10
189.8458228367
 20
172.4137260274
 40
0.4
100
AcDbArc
 50
270.0
 51
292.6984354596
  0
ARC
  5
2F9
100
AcDbEntity
  8
1
100
AcDbCircle
 62
6
  6
CONTINUOUS
 10
205.2125
 20
173.475
 40
0.25
100
AcDbArc
 50
180.0
 51
270.0
  0
ARC
  5
2FA
100
AcDbEntity
  8
1
100
AcDbCircle
 62
6
  6
CONTINUOUS
 10
210.95
 20
147.0
 40
1.0
100
AcDbArc
 50
90.0
 51
173.5714285714
  0
ARC
  5
2FB
100
AcDbEntity
  8
1
100
AcDbCircle
 62
6
  6
CONTINUOUS
 10
224.45
 20
147.0
 40
1.0
100
AcDbArc
 50
0.0
 51
90.0
  0
ARC
  5
2FC
100
AcDbEntity
  8
1
100
AcDbCircle
 62
6
  6
CONTINUOUS
 10
206.7875
 20
146.525
 40
0.25
100
AcDbArc
 50
0.0
 51
90.0
  0
ARC
  5
2FD
100
AcDbEntity
  8
1
100
AcDbCircle
 62
6
  6
CONTINUOUS
 10
234.9668221418
 20
-371.716131156
 40
540.1736480072
100
AcDbArc
 50
96.2350409531
 51
96.4037083111
  0
ARC
  5
2FE
100
AcDbEntity
  8
1
100
AcDbCircle
 62
6
  6
CONTINUOUS
 10
245.0
 20
144.0
 40
5.0
100
AcDbArc
 50
270.0
 51
360.0
  0
ARC
  5
2FF
100
AcDbEntity
  8
1
100
AcDbCircle
 62
6
  6
CONTINUOUS
 10
231.25
 20
140.25
 40
1.25
100
AcDbArc
 50
180.0
 51
270.0
  0
ARC
  5
300
100
AcDbEntity
  8
1
100
AcDbCircle
 62
6
  6
CONTINUOUS
 10
226.45
 20
144.025
 40
1.0
100
AcDbArc
 50
180.0
 51
270.0
  0
ARC
  5
301
100
AcDbEntity
  8
1
100
AcDbCircle
 62
6
  6
CONTINUOUS
 10
245.0
 20
176.0
 40
5.0
100
AcDbArc
 50
0.0
 51
90.0
  0
ARC
  5
302
100
AcDbEntity
  8
1
100
AcDbCircle
 62
6
  6
CONTINUOUS
 10
231.25
 20
179.75
 40
1.25
100
AcDbArc
 50
90.0
 51
180.0
  0
ARC
  5
303
100
AcDbEntity
  8
1
100
AcDbCircle
 62
6
  6
CONTINUOUS
 10
226.45
 20
175.975
 40
1.0
100
AcDbArc
 50
90.0
 51
180.0
  0
ARC
  5
304
100
AcDbEntity
  8
1
100
AcDbCircle
 62
6
  6
CONTINUOUS
 10
210.95
 20
173.0
 40
1.0
100
AcDbArc
 50
180.0
 51
270.0
  0
ARC
  5
305
100
AcDbEntity
  8
1
100
AcDbCircle
 62
6
  6
CONTINUOUS
 10
224.45
 20
173.0
 40
1.0
100
AcDbArc
 50
270.0
 51
360.0
  0
ARC
  5
306
100
AcDbEntity
  8
1
100
AcDbCircle
 62
6
  6
CONTINUOUS
 10
206.7875
 20
173.475
 40
0.25
100
AcDbArc
 50
270.0
 51
360.0
  0
ARC
  5
307
100
AcDbEntity
  8
1
100
AcDbCircle
 62
6
  6
CONTINUOUS
 10
234.9668221418
 20
691.716131156
 40
540.1736480073
100
AcDbArc
 50
263.5962916889
 51
263.7649590469
  0
ARC
  5
308
100
AcDbEntity
  8
1
100
AcDbCircle
 62
6
  6
CONTINUOUS
 10
289.5916749967
 20
185.3105130693
 40
90.099472766
100
AcDbArc
 50
203.6152818388
 51
205.1520522858
  0
SPLINE
  5
309
100
AcDbEntity
  8
1
100
AcDbSpline
 62
6
  6
CONTINUOUS
 70
0
 71
3
 72
12
 73
8
 74
0
 42
0.0000001
 43
0.0000001
 44
0.0000000001
 40
0.0
 40
0.0
 40
0.0
 40
0.0
 40
0.1873462108
 40
0.3004547504
 40
0.4253099535
 40
0.7021451881
 40
1.0
 40
1.0
 40
1.0
 40
1.0
 10
235.2122882363
 20
142.0991801733
 30
0.0
 10
235.2866062504
 20
142.2847049332
 30
0.0
 10
235.5002434869
 20
142.542863734
 30
0.0
 10
235.8642108729
 20
142.8127237472
 30
0.0
 10
236.3494547291
 20
143.0746943771
 30
0.0
 10
237.0674964942
 20
143.3007537592
 30
0.0
 10
237.6822556089
 20
143.3618235976
 30
0.0
 10
238.0
 20
143.3618235976
 30
0.0
  0
SPLINE
  5
30A
100
AcDbEntity
  8
1
100
AcDbSpline
 62
6
  6
CONTINUOUS
 70
0
 71
3
 72
14
 73
10
 74
0
 42
0.0000001
 43
0.0000001
 44
0.0000000001
 40
0.0
 40
0.0
 40
0.0
 40
0.0
 40
0.2911827147
 40
0.4336020678
 40
0.5711228503
 40
0.7010230861
 40
0.8190889222
 40
0.9203190395
 40
1.0
 40
1.0
 40
1.0
 40
1.0
 10
245.0
 20
143.3618235976
 30
0.0
 10
245.36114515
 20
143.3618235976
 30
0.0
 10
245.8997502635
 20
143.3993882433
 30
0.0
 10
246.5987014289
 20
143.5156610804
 30
0.0
 10
247.0953338254
 20
143.6251134372
 30
0.0
 10
247.5577053407
 20
143.7467776624
 30
0.0
 10
247.9750026596
 20
143.8632885415
 30
0.0
 10
248.3337567561
 20
143.9553797267
 30
0.0
 10
248.5571649621
 20
143.9905436652
 30
0.0
 10
248.6559907958
 20
143.9906539041
 30
0.0
  0
SPLINE
  5
30B
100
AcDbEntity
  8
1
100
AcDbSpline
 62
6
  6
CONTINUOUS
 70
0
 71
3
 72
14
 73
10
 74
0
 42
0.0000001
 43
0.0000001
 44
0.0000000001
 40
0.0
 40
0.0
 40
0.0
 40
0.0
 40
0.0796845487
 40
0.1809168809
 40
0.2989833687
 40
0.4288830839
 40
0.5664023175
 40
0.7088196998
 40
1.0
 40
1.0
 40
1.0
 40
1.0
 10
248.655939695
 20
176.0093461152
 30
0.0
 10
248.5571107676
 20
176.0094629837
 30
0.0
 10
248.3337001507
 20
176.0446326504
 30
0.0
 10
247.9749437269
 20
176.1367277814
 30
0.0
 10
247.5576494379
 20
176.2532379341
 30
0.0
 10
247.095285419
 20
176.3748981952
 30
0.0
 10
246.5986645735
 20
176.4843475014
 30
0.0
 10
245.8997293014
 20
176.6006121159
 30
0.0
 10
245.3611372262
 20
176.6381764024
 30
0.0
 10
245.0
 20
176.6381764024
 30
0.0
  0
SPLINE
  5
30C
100
AcDbEntity
  8
1
100
AcDbSpline
 62
6
  6
CONTINUOUS
 70
0
 71
3
 72
12
 73
8
 74
0
 42
0.0000001
 43
0.0000001
 44
0.0000000001
 40
0.0
 40
0.0
 40
0.0
 40
0.0
 40
0.2978275089
 40
0.5746493855
 40
0.6995063992
 40
0.8126231005
 40
1.0
 40
1.0
 40
1.0
 40
1.0
 10
238.0
 20
176.6381764024
 30
0.0
 10
237.6823449043
 20
176.6381764024
 30
0.0
 10
237.0677463514
 20
176.6992125707
 30
0.0
 10
236.3498658328
 20
176.9251544882
 30
0.0
 10
235.8646742329
 20
177.1869887539
 30
0.0
 10
235.5006746632
 20
177.4567374386
 30
0.0
 10
235.2869607091
 20
177.7147761634
 30
0.0
 10
235.2125186712
 20
177.9002456794
 30
0.0
  0
SPLINE
  5
30D
100
AcDbEntity
  8
1
100
AcDbSpline
 62
6
  6
CONTINUOUS
 70
0
 71
3
 72
15
 73
11
 74
0
 42
0.0000001
 43
0.0000001
 44
0.0000000001
 40
0.0
 40
0.0
 40
0.0
 40
0.0
 40
0.1253054694
 40
0.2502667796
 40
0.3750981509
 40
0.5000051808
 40
0.6249114411
 40
0.7497405741
 40
0.8746993195
 40
1.0
 40
1.0
 40
1.0
 40
1.0
 10
238.0
 20
157.2227683382
 30
0.0
 10
237.6333387895
 20
157.2227683382
 30
0.0
 10
236.8934112502
 20
157.3631799354
 30
0.0
 10
235.9475841031
 20
157.9711076037
 30
0.0
 10
235.3057391521
 20
158.8964431282
 30
0.0
 10
235.0786858749
 20
160.0000451527
 30
0.0
 10
235.3057738255
 20
161.1036327203
 30
0.0
 10
235.9476340215
 20
162.0289359648
 30
0.0
 10
236.8934479533
 20
162.636828531
 30
0.0
 10
237.6333528026
 20
162.7772316618
 30
0.0
 10
238.0
 20
162.7772316618
 30
0.0
  0
SPLINE
  5
30E
100
AcDbEntity
  8
1
100
AcDbSpline
 62
6
  6
CONTINUOUS
 70
0
 71
3
 72
16
 73
12
 74
0
 42
0.0000001
 43
0.0000001
 44
0.0000000001
 40
0.0
 40
0.0
 40
0.0
 40
0.0
 40
0.1702054271
 40
0.3337945859
 40
0.4844975672
 40
0.617693329
 40
0.7309851994
 40
0.8261866311
 40
0.8695262767
 40
0.9119007985
 40
1.0
 40
1.0
 40
1.0
 40
1.0
 10
238.0
 20
140.5845919358
 30
0.0
 10
237.7934578863
 20
140.5845919358
 30
0.0
 10
237.3881941333
 20
140.6008835804
 30
0.0
 10
236.804093557
 20
140.6745493727
 30
0.0
 10
236.2739202083
 20
140.7973546609
 30
0.0
 10
235.8213757037
 20
140.9691242967
 30
0.0
 10
235.4658096667
 20
141.1888607883
 30
0.0
 10
235.258912451
 20
141.4239812289
 30
0.0
 10
235.1741447182
 20
141.6285501488
 30
0.0
 10
235.1398763606
 20
141.8383795442
 30
0.0
 10
235.1725340292
 20
141.9999392313
 30
0.0
 10
235.2122882363
 20
142.0991801733
 30
0.0
  0
SPLINE
  5
30F
100
AcDbEntity
  8
1
100
AcDbSpline
 62
6
  6
CONTINUOUS
 70
0
 71
3
 72
22
 73
18
 74
0
 42
0.0000001
 43
0.0000001
 44
0.0000000001
 40
0.0
 40
0.0
 40
0.0
 40
0.0
 40
0.1557164484
 40
0.3114609128
 40
0.4670006089
 40
0.6199599064
 40
0.6929014282
 40
0.7607224954
 40
0.8209757769
 40
0.8715422283
 40
0.9113111888
 40
0.9274254745
 40
0.9416221159
 40
0.9548102113
 40
0.9682277141
 40
0.9830264019
 40
1.0
 40
1.0
 40
1.0
 40
1.0
 10
245.0
 20
179.4154080642
 30
0.0
 10
245.3171561073
 20
179.4154080642
 30
0.0
 10
245.9533038848
 20
179.3535529467
 30
0.0
 10
246.8689900958
 20
179.0724378328
 30
0.0
 10
247.6981456223
 20
178.6012062374
 30
0.0
 10
248.2706094645
 20
178.0634287341
 30
0.0
 10
248.6236395986
 20
177.5788441962
 30
0.0
 10
248.8230142757
 20
177.2200539194
 30
0.0
 10
248.9586262239
 20
176.8811426736
 30
0.0
 10
249.0317631264
 20
176.5824601735
 30
0.0
 10
249.0436294197
 20
176.3631045119
 30
0.0
 10
249.0142016193
 20
176.2225244744
 30
0.0
 10
248.9762527131
 20
176.1413063191
 30
0.0
 10
248.9196197585
 20
176.078632278
 30
0.0
 10
248.8453420227
 20
176.0361198265
 30
0.0
 10
248.7554169569
 20
176.0130411518
 30
0.0
 10
248.6905107155
 20
176.0093052338
 30
0.0
 10
248.655939695
 20
176.0093461152
 30
0.0
  0
SPLINE
  5
310
100
AcDbEntity
  8
1
100
AcDbSpline
 62
6
  6
CONTINUOUS
 70
0
 71
3
 72
25
 73
21
 74
0
 42
0.0000001
 43
0.0000001
 44
0.0000000001
 40
0.0
 40
0.0
 40
0.0
 40
0.0
 40
0.066557954
 40
0.1318571234
 40
0.1946233711
 40
0.2544487629
 40
0.3122877789
 40
0.3414251773
 40
0.3712698953
 40
0.4339234038
 40
0.4999976828
 40
0.5660721261
 40
0.6287259481
 40
0.6585711627
 40
0.6877086225
 40
0.7455487213
 40
0.8053750436
 40
0.8681421178
 40
0.9334419912
 40
1.0
 40
1.0
 40
1.0
 40
1.0
 10
245.0
 20
162.7772316618
 30
0.0
 10
245.2487274921
 20
162.7772316618
 30
0.0
 10
245.7416243569
 20
162.7635618738
 30
0.0
 10
246.4663706466
 20
162.694364193
 30
0.0
 10
247.1569729114
 20
162.558399022
 30
0.0
 10
247.7939474358
 20
162.3245016432
 30
0.0
 10
248.2527607016
 20
162.0085028431
 30
0.0
 10
248.5443409423
 20
161.6811784124
 30
0.0
 10
248.7896050396
 20
161.2963271115
 30
0.0
 10
248.9882768862
 20
160.7294177132
 30
0.0
 10
249.0620303205
 20
160.0000265427
 30
0.0
 10
248.9882892088
 20
159.2706305
 30
0.0
 10
248.7896168075
 20
158.7037209403
 30
0.0
 10
248.5443750732
 20
158.3188503091
 30
0.0
 10
248.2527784402
 20
157.9915319558
 30
0.0
 10
247.7939779215
 20
157.6755053776
 30
0.0
 10
247.1569897358
 20
157.4416051005
 30
0.0
 10
246.4663798896
 20
157.3056360054
 30
0.0
 10
245.7416273273
 20
157.2364376736
 30
0.0
 10
245.2487276969
 20
157.2227683382
 30
0.0
 10
245.0
 20
157.2227683382
 30
0.0
  0
SPLINE
  5
311
100
AcDbEntity
  8
1
100
AcDbSpline
 62
6
  6
CONTINUOUS
 70
0
 71
3
 72
16
 73
12
 74
0
 42
0.0000001
 43
0.0000001
 44
0.0000000001
 40
0.0
 40
0.0
 40
0.0
 40
0.0
 40
0.0881213387
 40
0.1304987738
 40
0.1738363782
 40
0.2690252079
 40
0.3823040539
 40
0.5154922528
 40
0.6661958025
 40
0.8297868077
 40
1.0
 40
1.0
 40
1.0
 40
1.0
 10
235.2125186712
 20
177.9002456794
 30
0.0
 10
235.1726803931
 20
177.9995012395
 30
0.0
 10
235.1398875603
 20
178.1610934368
 30
0.0
 10
235.1740166153
 20
178.3710115966
 30
0.0
 10
235.2586666275
 20
178.5756560881
 30
0.0
 10
235.4654825699
 20
178.8108853459
 30
0.0
 10
235.8210305173
 20
179.0307164758
 30
0.0
 10
236.2736100679
 20
179.2025593863
 30
0.0
 10
236.8038607552
 20
179.3254128506
 30
0.0
 10
237.3880698714
 20
179.3991111106
 30
0.0
 10
237.793413707
 20
179.4154080642
 30
0.0
 10
238.0
 20
179.4154080642
 30
0.0
  0
SPLINE
  5
312
100
AcDbEntity
  8
1
100
AcDbSpline
 62
6
  6
CONTINUOUS
 70
0
 71
3
 72
22
 73
18
 74
0
 42
0.0000001
 43
0.0000001
 44
0.0000000001
 40
0.0
 40
0.0
 40
0.0
 40
0.0
 40
0.016972226
 40
0.031769899
 40
0.045186815
 40
0.058374865
 40
0.0725717957
 40
0.0886864471
 40
0.1284564902
 40
0.1790236478
 40
0.2392768045
 40
0.307097861
 40
0.3800389265
 40
0.53299917
 40
0.6885398561
 40
0.844284756
 40
1.0
 40
1.0
 40
1.0
 40
1.0
 10
248.6559907958
 20
143.9906539041
 30
0.0
 10
248.6905587359
 20
143.9906924642
 30
0.0
 10
248.7554592729
 20
143.9869517596
 30
0.0
 10
248.8453759546
 20
143.963867491
 30
0.0
 10
248.9196453574
 20
143.9213482436
 30
0.0
 10
248.9762692353
 20
143.8586680654
 30
0.0
 10
249.0142105779
 20
143.7774461701
 30
0.0
 10
249.0436304114
 20
143.6368623032
 30
0.0
 10
249.0317575423
 20
143.4175049353
 30
0.0
 10
248.9586149147
 20
143.1188228748
 30
0.0
 10
248.8229981404
 20
142.7799159415
 30
0.0
 10
248.6236268602
 20
142.4211288591
 30
0.0
 10
248.270586084
 20
141.9365569355
 30
0.0
 10
247.6981277675
 20
141.3987806814
 30
0.0
 10
246.8689717066
 20
140.9275543805
 30
0.0
 10
245.9532919163
 20
140.6464451435
 30
0.0
 10
245.3171510091
 20
140.5845919358
 30
0.0
 10
245.0
 20
140.5845919358
 30
0.0
  0
SPLINE
  5
313
100
AcDbEntity
  8
1
100
AcDbSpline
 62
6
  6
CONTINUOUS
 70
0
 71
3
 72
23
 73
19
 74
0
 42
0.0000001
 43
0.0000001
 44
0.0000000001
 40
0.0
 40
0.0
 40
0.0
 40
0.0
 40
0.0627086818
 40
0.12536429
 40
0.1879495867
 40
0.2504977023
 40
0.3130772317
 40
0.3757366284
 40
0.4384572037
 40
0.5011532034
 40
0.5637141098
 40
0.6260670036
 40
0.6882248761
 40
0.7502934048
 40
0.8124277425
 40
0.8747549615
 40
0.9373045416
 40
1.0
 40
1.0
 40
1.0
 40
1.0
 10
182.4007516705
 20
160.0
 30
0.0
 10
182.4006205813
 20
160.1701226176
 30
0.0
 10
182.4345842406
 20
160.5111672856
 30
0.0
 10
182.5841876716
 20
161.0019184569
 30
0.0
 10
182.8275907383
 20
161.4533472534
 30
0.0
 10
183.1551384996
 20
161.8476429241
 30
0.0
 10
183.5541497302
 20
162.1697200307
 30
0.0
 10
184.0087265124
 20
162.4078579493
 30
0.0
 10
184.5010227422
 20
162.5536526128
 30
0.0
 10
185.0118290987
 20
162.6023658103
 30
0.0
 10
185.5215310367
 20
162.5525187163
 30
0.0
 10
186.0107615143
 20
162.4058842676
 30
0.0
 10
186.4609098858
 20
162.1673498577
 30
0.0
 10
186.855156583
 20
161.8455451859
 30
0.0
 10
187.178249683
 20
161.4517635579
 30
0.0
 10
187.4183191841
 20
161.0010211981
 30
0.0
 10
187.5659217015
 20
160.5107845252
 30
0.0
 10
187.5992792468
 20
160.1700867916
 30
0.0
 10
187.5992483295
 20
160.0
 30
0.0
  0
SPLINE
  5
314
100
AcDbEntity
  8
1
100
AcDbSpline
 62
6
  6
CONTINUOUS
 70
0
 71
3
 72
23
 73
19
 74
0
 42
0.0000001
 43
0.0000001
 44
0.0000000001
 40
0.0
 40
0.0
 40
0.0
 40
0.0
 40
0.0626955232
 40
0.1252449674
 40
0.1875721641
 40
0.2497066721
 40
0.3117752986
 40
0.373933282
 40
0.4362861979
 40
0.4988471056
 40
0.5615430545
 40
0.6242635834
 40
0.686922835
 40
0.749502275
 40
0.8120501501
 40
0.8746353517
 40
0.937291194
 40
1.0
 40
1.0
 40
1.0
 40
1.0
 10
187.5992483295
 20
160.0
 30
0.0
 10
187.5993519029
 20
159.8299130588
 30
0.0
 10
187.5659031679
 20
159.4892126056
 30
0.0
 10
187.4183259174
 20
158.998984104
 30
0.0
 10
187.1782786422
 20
158.5482184743
 30
0.0
 10
186.8551248119
 20
158.1544926205
 30
0.0
 10
186.4609379097
 20
157.8326153146
 30
0.0
 10
186.0107581061
 20
157.5941270468
 30
0.0
 10
185.5215358166
 20
157.447481084
 30
0.0
 10
185.0118311041
 20
157.3976317877
 30
0.0
 10
184.5010289275
 20
157.4463536463
 30
0.0
 10
184.0087212153
 20
157.5921234632
 30
0.0
 10
183.5541794345
 20
157.8303167619
 30
0.0
 10
183.1551088026
 20
158.1523182861
 30
0.0
 10
182.827615119
 20
158.5466658887
 30
0.0
 10
182.5842017638
 20
158.9980762878
 30
0.0
 10
182.4345605858
 20
159.4888340385
 30
0.0
 10
182.4007067873
 20
159.8298769981
 30
0.0
 10
182.4007516705
 20
160.0
 30
0.0
  0
SPLINE
  5
315
100
AcDbEntity
  8
1
100
AcDbSpline
 62
6
  6
CONTINUOUS
 70
0
 71
3
 72
16
 73
12
 74
0
 42
0.0000001
 43
0.0000001
 44
0.0000000001
 40
0.0
 40
0.0
 40
0.0
 40
0.0
 40
0.1302387876
 40
0.2401355223
 40
0.290060395
 40
0.3395766556
 40
0.4454673393
 40
0.5667564193
 40
0.7017855377
 40
0.8471420442
 40
1.0
 40
1.0
 40
1.0
 40
1.0
 10
174.1
 20
165.1422832139
 30
0.0
 10
174.1
 20
165.1766092106
 30
0.0
 10
174.1054216084
 20
165.2402549729
 30
0.0
 10
174.1388781007
 20
165.3124572762
 30
0.0
 10
174.1817926488
 20
165.3484729261
 30
0.0
 10
174.2323958775
 20
165.3697198761
 30
0.0
 10
174.3078671806
 20
165.3689324899
 30
0.0
 10
174.3988420386
 20
165.3378426532
 30
0.0
 10
174.4913968792
 20
165.2855545021
 30
0.0
 10
174.5829450325
 20
165.2169633016
 30
0.0
 10
174.6411923064
 20
165.1640303786
 30
0.0
 10
174.6699760169
 20
165.1358419996
 30
0.0
  0
SPLINE
  5
316
100
AcDbEntity
  8
1
100
AcDbSpline
 62
6
  6
CONTINUOUS
 70
0
 71
3
 72
16
 73
12
 74
0
 42
0.0000001
 43
0.0000001
 44
0.0000000001
 40
0.0
 40
0.0
 40
0.0
 40
0.0
 40
0.1528585255
 40
0.2982157615
 40
0.4332454353
 40
0.5545351415
 40
0.6604254463
 40
0.7099415776
 40
0.7598661867
 40
0.8697621409
 40
1.0
 40
1.0
 40
1.0
 40
1.0
 10
174.6699760169
 20
154.8641580004
 30
0.0
 10
174.6411921942
 20
154.8359695116
 30
0.0
 10
174.5829446431
 20
154.7830363622
 30
0.0
 10
174.4913960264
 20
154.7144449256
 30
0.0
 10
174.3988406175
 20
154.6621566965
 30
0.0
 10
174.3078653757
 20
154.6310671993
 30
0.0
 10
174.2323940074
 20
154.6302803224
 30
0.0
 10
174.1817911369
 20
154.6515277056
 30
0.0
 10
174.1388774096
 20
154.6875438483
 30
0.0
 10
174.1054215823
 20
154.7597457018
 30
0.0
 10
174.1
 20
154.8233910282
 30
0.0
 10
174.1
 20
154.8577167861
 30
0.0
  0
SPLINE
  5
317
100
AcDbEntity
  8
1
100
AcDbSpline
 62
6
  6
CONTINUOUS
 70
0
 71
3
 72
9
 73
5
 74
0
 42
0.0000001
 43
0.0000001
 44
0.0000000001
 40
0.0
 40
0.0
 40
0.0
 40
0.0
 40
0.4973651542
 40
1.0
 40
1.0
 40
1.0
 40
1.0
 10
176.87596111
 20
164.905
 30
0.0
 10
176.9698872966
 20
164.750046259
 30
0.0
 10
177.1326795915
 20
164.4208425886
 30
0.0
 10
177.2
 20
164.0550020125
 30
0.0
 10
177.2
 20
163.8718839709
 30
0.0
  0
SPLINE
  5
318
100
AcDbEntity
  8
1
100
AcDbSpline
 62
6
  6
CONTINUOUS
 70
0
 71
3
 72
9
 73
5
 74
0
 42
0.0000001
 43
0.0000001
 44
0.0000000001
 40
0.0
 40
0.0
 40
0.0
 40
0.0
 40
0.5026348603
 40
1.0
 40
1.0
 40
1.0
 40
1.0
 10
177.2
 20
156.1281160291
 30
0.0
 10
177.2
 20
155.9449979823
 30
0.0
 10
177.1326795823
 20
155.5791574083
 30
0.0
 10
176.9698872938
 20
155.2499537363
 30
0.0
 10
176.87596111
 20
155.095
 30
0.0
  0
SPLINE
  5
319
100
AcDbEntity
  8
1
100
AcDbSpline
 62
6
  6
CONTINUOUS
 70
0
 71
3
 72
11
 73
7
 74
0
 42
0.0000001
 43
0.0000001
 44
0.0000000001
 40
0.0
 40
0.0
 40
0.0
 40
0.0
 40
0.2600114566
 40
0.5125104374
 40
0.758049462
 40
1.0
 40
1.0
 40
1.0
 40
1.0
 10
176.3
 20
165.2622426927
 30
0.0
 10
176.361548373
 20
165.2689686096
 30
0.0
 10
176.4870649345
 20
165.257036711
 30
0.0
 10
176.6500242664
 20
165.1720845312
 30
0.0
 10
176.7787893857
 20
165.0495583054
 30
0.0
 10
176.8460961976
 20
164.954269326
 30
0.0
 10
176.87596111
 20
164.905
 30
0.0
  0
SPLINE
  5
31A
100
AcDbEntity
  8
1
100
AcDbSpline
 62
6
  6
CONTINUOUS
 70
0
 71
3
 72
11
 73
7
 74
0
 42
0.0000001
 43
0.0000001
 44
0.0000000001
 40
0.0
 40
0.0
 40
0.0
 40
0.0
 40
0.2419570399
 40
0.4875040639
 40
0.7400050086
 40
1.0
 40
1.0
 40
1.0
 40
1.0
 10
176.87596111
 20
155.095
 30
0.0
 10
176.8460953993
 20
155.0457293571
 30
0.0
 10
176.778786525
 20
154.9504373972
 30
0.0
 10
176.6500160076
 20
154.8279112753
 30
0.0
 10
176.4870574538
 20
154.7429605583
 30
0.0
 10
176.3615444665
 20
154.7310318173
 30
0.0
 10
176.3
 20
154.7377573073
 30
0.0
  0
ELLIPSE
  5
31B
100
AcDbEntity
  8
1
100
AcDbEllipse
 62
6
  6
CONTINUOUS
 10
169.5873740253
 20
159.6915559843
 30
0.0
 11
9.8210760221
 21
-9.8055914503
 31
0.0
 40
0.536457531
 41
1.5838007129
 42
1.5888023205
  0
ELLIPSE
  5
31C
100
AcDbEntity
  8
1
100
AcDbEllipse
 62
6
  6
CONTINUOUS
 10
169.5873740253
 20
160.3084440157
 30
0.0
 11
9.8210760221
 21
9.8055914503
 31
0.0
 40
0.536457531
 41
-1.5888023205
 42
-1.5838007129
  0
ELLIPSE
  5
31D
100
AcDbEntity
  8
1
100
AcDbEllipse
 62
6
  6
CONTINUOUS
 10
173.67
 20
164.905
 30
0.0
 11
1.215876858
 21
-1.215876858
 31
0.0
 40
0.5368307223
 41
0.4926762518
 42
1.078120075
  0
ELLIPSE
  5
31E
100
AcDbEntity
  8
1
100
AcDbEllipse
 62
6
  6
CONTINUOUS
 10
173.67
 20
155.095
 30
0.0
 11
1.215876858
 21
1.215876858
 31
0.0
 40
0.5368307223
 41
-1.078120075
 42
-0.4926762518
  0
ENDSEC
  0
SECTION
  2
OBJECTS
  0
DICTIONARY
  5
C
100
AcDbDictionary
280
0
281
1
  3
ACAD_GROUP
350
D
  3
ACAD_MLINESTYLE
350
17
  3
ACAD_LAYOUT
350
1A
  3
ACAD_PLOTSETTINGS
350
19
  3
ACAD_PLOTSTYLENAME
350
E
  0
DICTIONARY
  5
D
102
{ACAD_REACTORS
330
C
102
}
100
AcDbDictionary
280
0
281
1
  0
ACDBDICTIONARYWDFLT
  5
E
102
{ACAD_REACTORS
330
C
102
}
100
AcDbDictionary
281
1
  3
Normal
350
F
100
AcDbDictionaryWithDefault
340
F
  0
DICTIONARY
  5
17
102
{ACAD_REACTORS
330
C
102
}
100
AcDbDictionary
280
0
281
1
  3
Standard
350
18
  0
DICTIONARY
  5
19
102
{ACAD_REACTORS
330
C
102
}
100
AcDbDictionary
281
1
  0
DICTIONARY
  5
1A
102
{ACAD_REACTORS
330
C
102
}
100
AcDbDictionary
281
1
  3
Model
350
31F
  3
Layout1
350
320
  0
ACDBPLACEHOLDER
  5
F
102
{ACAD_REACTORS
330
E
102
}
  0
MLINESTYLE
  5
18
102
{ACAD_REACTORS
330
17
102
}
100
AcDbMlineStyle
  2
STANDARD
 70
0
  3

 62
256
 51
90.0
 52
90.0
 71
2
 49
0.5
 62
256
  6
BYLAYER
 49
-0.5
 62
256
  6
BYLAYER
  0
LAYOUT
  5
31F
102
{ACAD_REACTORS
330
1A
102
}
100
AcDbPlotSettings
  1

  2
none_device
  4
ISO_A3_(420.00_x_297.00_MM)
  6

 40
0.0
 41
0.0
 42
0.0
 43
0.0
 44
420.0
 45
297.0
 46
0.0
 47
0.0
 48
0.0
 49
0.0
140
0.0
141
0.0
142
1.0
143
1.0
 70
1024
 72
1
 73
0
 74
0
  7

 75
0
147
1.0
148
0.0
149
0.0
100
AcDbLayout
  1
Model
 70
0
 71
0
 10
0.0
 20
0.0
 11
420.0
 21
297.0
 12
0.0
 22
0.0
 32
0.0
 14
0.0
 24
0.0
 34
0.0
 15
0.0
 25
0.0
 35
0.0
146
0.0
 13
0.0
 23
0.0
 33
0.0
 16
1.0
 26
0.0
 36
0.0
 17
0.0
 27
1.0
 37
0.0
 76
0
330
239
345
0
346
0
  0
LAYOUT
  5
320
102
{ACAD_REACTORS
330
1A
102
}
100
AcDbPlotSettings
  1

  2
none_device
  4
ISO_A3_(420.00_x_297.00_MM)
  6

 40
0.0
 41
0.0
 42
0.0
 43
0.0
 44
420.0
 45
297.0
 46
0.0
 47
0.0
 48
0.0
 49
0.0
140
0.0
141
0.0
142
1.0
143
1.0
 70
0
 72
1
 73
0
 74
0
  7

 75
0
147
1.0
148
0.0
149
0.0
100
AcDbLayout
  1
Layout1
 70
0
 71
1
 10
0.0
 20
0.0
 11
420.0
 21
297.0
 12
0.0
 22
0.0
 32
0.0
 14
0.0
 24
0.0
 34
0.0
 15
0.0
 25
0.0
 35
0.0
146
0.0
 13
0.0
 23
0.0
 33
0.0
 16
1.0
 26
0.0
 36
0.0
 17
0.0
 27
1.0
 37
0.0
 76
0
330
23A
345
0
346
0
  0
ENDSEC
  0
EOF
