  0
SECTION
  2
HEADER
  9
$ACADVER
  1
AC1015
  9
$ACADMAINTVER
 70
     6
  9
$DWGCODEPAGE
  3
ANSI_1252
  9
$INSBASE
 10
0.0
 20
0.0
 30
0.0
  9
$EXTMIN
 10
-113.1574840514984
 20
5.39593610337381
 30
0.0
  9
$EXTMAX
 10
36.844942115289
 20
114.16532302068
 30
0.0
  9
$LIMMIN
 10
0.0
 20
0.0
  9
$LIMMAX
 10
12.0
 20
9.0
  9
$ORTHOMODE
 70
     0
  9
$REGENMODE
 70
     1
  9
$FILLMODE
 70
     1
  9
$QTEXTMODE
 70
     0
  9
$MIRRTEXT
 70
     1
  9
$LTSCALE
 40
1.0
  9
$ATTMODE
 70
     1
  9
$TEXTSIZE
 40
0.2
  9
$TRACEWID
 40
0.05
  9
$TEXTSTYLE
  7
Standard
  9
$CLAYER
  8
0
  9
$CELTYPE
  6
ByLayer
  9
$CECOLOR
 62
   256
  9
$CELTSCALE
 40
1.0
  9
$DISPSILH
 70
     0
  9
$DIMSCALE
 40
1.0
  9
$DIMASZ
 40
0.18
  9
$DIMEXO
 40
0.0625
  9
$DIMDLI
 40
0.38
  9
$DIMRND
 40
0.0
  9
$DIMDLE
 40
0.0
  9
$DIMEXE
 40
0.18
  9
$DIMTP
 40
0.0
  9
$DIMTM
 40
0.0
  9
$DIMTXT
 40
0.18
  9
$DIMCEN
 40
0.09
  9
$DIMTSZ
 40
0.0
  9
$DIMTOL
 70
     0
  9
$DIMLIM
 70
     0
  9
$DIMTIH
 70
     1
  9
$DIMTOH
 70
     1
  9
$DIMSE1
 70
     0
  9
$DIMSE2
 70
     0
  9
$DIMTAD
 70
     0
  9
$DIMZIN
 70
     0
  9
$DIMBLK
  1

  9
$DIMASO
 70
     1
  9
$DIMSHO
 70
     1
  9
$DIMPOST
  1

  9
$DIMAPOST
  1

  9
$DIMALT
 70
     0
  9
$DIMALTD
 70
     2
  9
$DIMALTF
 40
25.4
  9
$DIMLFAC
 40
1.0
  9
$DIMTOFL
 70
     0
  9
$DIMTVP
 40
0.0
  9
$DIMTIX
 70
     0
  9
$DIMSOXD
 70
     0
  9
$DIMSAH
 70
     0
  9
$DIMBLK1
  1

  9
$DIMBLK2
  1

  9
$DIMSTYLE
  2
Standard
  9
$DIMCLRD
 70
     0
  9
$DIMCLRE
 70
     0
  9
$DIMCLRT
 70
     0
  9
$DIMTFAC
 40
1.0
  9
$DIMGAP
 40
0.09
  9
$DIMJUST
 70
     0
  9
$DIMSD1
 70
     0
  9
$DIMSD2
 70
     0
  9
$DIMTOLJ
 70
     1
  9
$DIMTZIN
 70
     0
  9
$DIMALTZ
 70
     0
  9
$DIMALTTZ
 70
     0
  9
$DIMUPT
 70
     0
  9
$DIMDEC
 70
     4
  9
$DIMTDEC
 70
     4
  9
$DIMALTU
 70
     2
  9
$DIMALTTD
 70
     2
  9
$DIMTXSTY
  7
Standard
  9
$DIMAUNIT
 70
     0
  9
$DIMADEC
 70
     0
  9
$DIMALTRND
 40
0.0
  9
$DIMAZIN
 70
     0
  9
$DIMDSEP
 70
    46
  9
$DIMATFIT
 70
     3
  9
$DIMFRAC
 70
     0
  9
$DIMLDRBLK
  1

  9
$DIMLUNIT
 70
     2
  9
$DIMLWD
 70
    -2
  9
$DIMLWE
 70
    -2
  9
$DIMTMOVE
 70
     0
  9
$LUNITS
 70
     2
  9
$LUPREC
 70
     4
  9
$SKETCHINC
 40
0.1
  9
$FILLETRAD
 40
0.5
  9
$AUNITS
 70
     0
  9
$AUPREC
 70
     0
  9
$MENU
  1
.
  9
$ELEVATION
 40
0.0
  9
$PELEVATION
 40
0.0
  9
$THICKNESS
 40
0.0
  9
$LIMCHECK
 70
     0
  9
$CHAMFERA
 40
0.5
  9
$CHAMFERB
 40
0.5
  9
$CHAMFERC
 40
1.0
  9
$CHAMFERD
 40
0.0
  9
$SKPOLY
 70
     0
  9
$TDCREATE
 40
2456332.556675058
  9
$TDUCREATE
 40
2456332.515008391
  9
$TDUPDATE
 40
2456332.556675069
  9
$TDUUPDATE
 40
2456332.515008403
  9
$TDINDWG
 40
0.0000000116
  9
$TDUSRTIMER
 40
0.0000000116
  9
$USRTIMER
 70
     1
  9
$ANGBASE
 50
0.0
  9
$ANGDIR
 70
     0
  9
$PDMODE
 70
     0
  9
$PDSIZE
 40
0.0
  9
$PLINEWID
 40
0.0
  9
$SPLFRAME
 70
     0
  9
$SPLINETYPE
 70
     6
  9
$SPLINESEGS
 70
     8
  9
$HANDSEED
  5
165
  9
$SURFTAB1
 70
     6
  9
$SURFTAB2
 70
     6
  9
$SURFTYPE
 70
     6
  9
$SURFU
 70
     6
  9
$SURFV
 70
     6
  9
$UCSBASE
  2

  9
$UCSNAME
  2

  9
$UCSORG
 10
0.0
 20
0.0
 30
0.0
  9
$UCSXDIR
 10
1.0
 20
0.0
 30
0.0
  9
$UCSYDIR
 10
0.0
 20
1.0
 30
0.0
  9
$UCSORTHOREF
  2

  9
$UCSORTHOVIEW
 70
     0
  9
$UCSORGTOP
 10
0.0
 20
0.0
 30
0.0
  9
$UCSORGBOTTOM
 10
0.0
 20
0.0
 30
0.0
  9
$UCSORGLEFT
 10
0.0
 20
0.0
 30
0.0
  9
$UCSORGRIGHT
 10
0.0
 20
0.0
 30
0.0
  9
$UCSORGFRONT
 10
0.0
 20
0.0
 30
0.0
  9
$UCSORGBACK
 10
0.0
 20
0.0
 30
0.0
  9
$PUCSBASE
  2

  9
$PUCSNAME
  2

  9
$PUCSORG
 10
0.0
 20
0.0
 30
0.0
  9
$PUCSXDIR
 10
1.0
 20
0.0
 30
0.0
  9
$PUCSYDIR
 10
0.0
 20
1.0
 30
0.0
  9
$PUCSORTHOREF
  2

  9
$PUCSORTHOVIEW
 70
     0
  9
$PUCSORGTOP
 10
0.0
 20
0.0
 30
0.0
  9
$PUCSORGBOTTOM
 10
0.0
 20
0.0
 30
0.0
  9
$PUCSORGLEFT
 10
0.0
 20
0.0
 30
0.0
  9
$PUCSORGRIGHT
 10
0.0
 20
0.0
 30
0.0
  9
$PUCSORGFRONT
 10
0.0
 20
0.0
 30
0.0
  9
$PUCSORGBACK
 10
0.0
 20
0.0
 30
0.0
  9
$USERI1
 70
     0
  9
$USERI2
 70
     0
  9
$USERI3
 70
     0
  9
$USERI4
 70
     0
  9
$USERI5
 70
     0
  9
$USERR1
 40
16.5
  9
$USERR2
 40
0.0
  9
$USERR3
 40
0.0
  9
$USERR4
 40
0.0
  9
$USERR5
 40
0.0
  9
$WORLDVIEW
 70
     1
  9
$SHADEDGE
 70
     3
  9
$SHADEDIF
 70
    70
  9
$TILEMODE
 70
     1
  9
$MAXACTVP
 70
    64
  9
$PINSBASE
 10
0.0
 20
0.0
 30
0.0
  9
$PLIMCHECK
 70
     0
  9
$PEXTMIN
 10
1.00000000000000E+20
 20
1.00000000000000E+20
 30
1.00000000000000E+20
  9
$PEXTMAX
 10
-1.00000000000000E+20
 20
-1.00000000000000E+20
 30
-1.00000000000000E+20
  9
$PLIMMIN
 10
0.0
 20
0.0
  9
$PLIMMAX
 10
12.0
 20
9.0
  9
$UNITMODE
 70
     0
  9
$VISRETAIN
 70
     1
  9
$PLINEGEN
 70
     0
  9
$PSLTSCALE
 70
     1
  9
$TREEDEPTH
 70
  3020
  9
$CMLSTYLE
  2
Standard
  9
$CMLJUST
 70
     0
  9
$CMLSCALE
 40
1.0
  9
$PROXYGRAPHICS
 70
     1
  9
$MEASUREMENT
 70
     1
  9
$CELWEIGHT
370
    -1
  9
$ENDCAPS
280
     0
  9
$JOINSTYLE
280
     0
  9
$LWDISPLAY
290
     0
  9
$INSUNITS
 70
     1
  9
$HYPERLINKBASE
  1

  9
$STYLESHEET
  1

  9
$XEDIT
290
     1
  9
$CEPSNTYPE
380
     0
  9
$PSTYLEMODE
290
     1
  9
$FINGERPRINTGUID
  2
{5F594E22-F6BB-40D0-A523-EBD185DB07B0}
  9
$VERSIONGUID
  2
{FAEB1C32-E019-11D5-929B-00C0DF256EC4}
  9
$EXTNAMES
290
     1
  9
$PSVPSCALE
 40
0.0
  9
$OLESTARTUP
290
     0
  0
ENDSEC
  0
SECTION
  2
CLASSES
  0
CLASS
  1
ACDBDICTIONARYWDFLT
  2
AcDbDictionaryWithDefault
  3
ObjectDBX Classes
 90
        0
280
     0
281
     0
  0
CLASS
  1
VISUALSTYLE
  2
AcDbVisualStyle
  3
ObjectDBX Classes
 90
     4095
280
     0
281
     0
  0
CLASS
  1
SCALE
  2
AcDbScale
  3
ObjectDBX Classes
 90
     1153
280
     0
281
     0
  0
CLASS
  1

  2
exOdDbPolyline
  3

 90
        0
280
     0
281
     1
  0
CLASS
  1
DICTIONARYVAR
  2
AcDbDictionaryVar
  3
ObjectDBX Classes
 90
        0
280
     0
281
     0
  0
CLASS
  1
ACDBPLACEHOLDER
  2
AcDbPlaceHolder
  3
ObjectDBX Classes
 90
        0
280
     0
281
     0
  0
CLASS
  1
LAYOUT
  2
AcDbLayout
  3
ObjectDBX Classes
 90
        0
280
     0
281
     0
  0
ENDSEC
  0
SECTION
  2
TABLES
  0
TABLE
  2
VPORT
  5
8
330
0
100
AcDbSymbolTable
 70
     1
  0
VPORT
  5
29
330
8
100
AcDbSymbolTableRecord
100
AcDbViewportTableRecord
  2
*Active
 70
     0
 10
0.0
 20
0.0
 11
1.0
 21
1.0
 12
-38.1562709681047
 22
59.78062956202691
 13
0.0
 23
0.0
 14
0.5
 24
0.5
 15
0.5
 25
0.5
 16
0.0
 26
0.0
 36
1.0
 17
0.0
 27
0.0
 37
0.0
 40
119.6463256090368
 41
1.60267857142857
 42
50.0
 43
0.0
 44
0.0
 50
0.0
 51
0.0
 71
     0
 72
   100
 73
     1
 74
     3
 75
     0
 76
     0
 77
     0
 78
     0
281
     0
 65
     1
110
0.0
120
0.0
130
0.0
111
1.0
121
0.0
131
0.0
112
0.0
122
1.0
132
0.0
 79
     0
146
0.0
  0
ENDTAB
  0
TABLE
  2
LTYPE
  5
5
330
0
100
AcDbSymbolTable
 70
     8
  0
LTYPE
  5
14
330
5
100
AcDbSymbolTableRecord
100
AcDbLinetypeTableRecord
  2
ByBlock
 70
     0
  3

 72
    65
 73
     0
 40
0.0
  0
LTYPE
  5
15
330
5
100
AcDbSymbolTableRecord
100
AcDbLinetypeTableRecord
  2
ByLayer
 70
     0
  3

 72
    65
 73
     0
 40
0.0
  0
LTYPE
  5
16
330
5
100
AcDbSymbolTableRecord
100
AcDbLinetypeTableRecord
  2
Continuous
 70
     0
  3
Solid line
 72
    65
 73
     0
 40
0.0
  0
LTYPE
  5
3B
330
5
100
AcDbSymbolTableRecord
100
AcDbLinetypeTableRecord
  2
DASHED
 70
     0
  3
Dashed
 72
    65
 73
     2
 40
15.0
 49
7.0
 74
     0
 49
-8.0
 74
     0
  0
LTYPE
  5
3C
330
5
100
AcDbSymbolTableRecord
100
AcDbLinetypeTableRecord
  2
DOTTED
 70
     0
  3
Dotted
 72
    65
 73
     2
 40
1.0
 49
0.0
 74
     0
 49
-1.0
 74
     0
  0
LTYPE
  5
3D
330
5
100
AcDbSymbolTableRecord
100
AcDbLinetypeTableRecord
  2
DOT_CENTER
 70
     0
  3
Dot_Center
 72
    65
 73
     4
 40
14.0
 49
12.0
 74
     0
 49
-1.0
 74
     0
 49
0.0
 74
     0
 49
-1.0
 74
     0
  0
LTYPE
  5
3E
330
5
100
AcDbSymbolTableRecord
100
AcDbLinetypeTableRecord
  2
LONG_DASHED
 70
     0
  3
Long_Dashed
 72
    65
 73
     2
 40
15.0
 49
10.0
 74
     0
 49
-5.0
 74
     0
  0
LTYPE
  5
3F
330
5
100
AcDbSymbolTableRecord
100
AcDbLinetypeTableRecord
  2
DASH_CENTER
 70
     0
  3
Dash_Center
 72
    65
 73
     4
 40
14.0
 49
11.0
 74
     0
 49
-1.0
 74
     0
 49
1.0
 74
     0
 49
-1.0
 74
     0
  0
LTYPE
  5
40
330
5
100
AcDbSymbolTableRecord
100
AcDbLinetypeTableRecord
  2
PHANTOM
 70
     0
  3
Phantom
 72
    65
 73
     6
 40
13.0
 49
10.0
 74
     0
 49
-1.0
 74
     0
 49
0.0
 74
     0
 49
-1.0
 74
     0
 49
0.0
 74
     0
 49
-1.0
 74
     0
  0
LTYPE
  5
41
330
5
100
AcDbSymbolTableRecord
100
AcDbLinetypeTableRecord
  2
CENTER_DASH_DASH
 70
     0
  3
Center_Dash_Dash
 72
    65
 73
     6
 40
14.0
 49
9.0
 74
     0
 49
-1.0
 74
     0
 49
1.0
 74
     0
 49
-1.0
 74
     0
 49
1.0
 74
     0
 49
-1.0
 74
     0
  0
ENDTAB
  0
TABLE
  2
LAYER
  5
2
330
0
100
AcDbSymbolTable
 70
     2
  0
LAYER
  5
10
330
2
100
AcDbSymbolTableRecord
100
AcDbLayerTableRecord
  2
0
 70
     0
 62
     7
  6
Continuous
370
    -3
390
F
  0
LAYER
  5
42
330
2
100
AcDbSymbolTableRecord
100
AcDbLayerTableRecord
  2
1
 70
     0
 62
     7
  6
Continuous
370
    -3
390
F
  0
ENDTAB
  0
TABLE
  2
STYLE
  5
3
330
0
100
AcDbSymbolTable
 70
     2
  0
STYLE
  5
11
330
3
100
AcDbSymbolTableRecord
100
AcDbTextStyleTableRecord
  2
Standard
 70
     0
 40
0.0
 41
1.0
 50
0.0
 71
     0
 42
0.2
  3
txt
  4

  0
STYLE
  5
71
330
3
100
AcDbSymbolTableRecord
100
AcDbTextStyleTableRecord
  2
CONVERTER_11
 70
     0
 40
0.0
 41
0.72
 50
0.0
 71
     0
 42
0.2
  3
txt.shx
  4

  0
ENDTAB
  0
TABLE
  2
VIEW
  5
6
330
0
100
AcDbSymbolTable
 70
     0
  0
ENDTAB
  0
TABLE
  2
UCS
  5
7
330
0
100
AcDbSymbolTable
 70
     0
  0
ENDTAB
  0
TABLE
  2
APPID
  5
9
330
0
100
AcDbSymbolTable
 70
     1
  0
APPID
  5
12
330
9
100
AcDbSymbolTableRecord
100
AcDbRegAppTableRecord
  2
ACAD
 70
     0
  0
ENDTAB
  0
TABLE
  2
DIMSTYLE
  5
A
330
0
100
AcDbSymbolTable
 70
     7
100
AcDbDimStyleTable
  0
DIMSTYLE
105
27
330
A
100
AcDbSymbolTableRecord
100
AcDbDimStyleTableRecord
  2
Standard
 70
     0
340
11
  0
DIMSTYLE
105
127
102
{ACAD_REACTORS
330
128
102
}
330
A
100
AcDbSymbolTableRecord
100
AcDbDimStyleTableRecord
  2
ME10_DIM_10
 70
     0
  3
ER<>
 41
3.5
 42
2.0
 44
2.0
 71
     1
 73
     0
 74
     0
 77
     1
 78
     8
140
3.5
146
0.7
147
2.0
172
     1
173
     1
176
     2
177
     2
178
     3
271
     2
272
     0
340
71
  0
DIMSTYLE
105
132
102
{ACAD_REACTORS
330
133
102
}
330
A
100
AcDbSymbolTableRecord
100
AcDbDimStyleTableRecord
  2
ME10_DIM_11
 70
     0
  3
\U+2300<>
 41
3.5
 42
2.0
 44
2.0
 71
     1
 73
     0
 74
     0
 77
     1
 78
     8
140
3.5
146
0.7
147
2.0
172
     1
173
     1
176
     2
177
     2
178
     3
271
     2
272
     0
340
71
  0
DIMSTYLE
105
13D
102
{ACAD_REACTORS
330
13E
102
}
330
A
100
AcDbSymbolTableRecord
100
AcDbDimStyleTableRecord
  2
ME10_DIM_12
 70
     0
  3
<>
 41
3.5
 42
2.0
 44
2.0
 71
     1
 73
     0
 74
     0
 77
     1
 78
     8
140
3.5
146
0.7
147
2.0
172
     1
173
     1
176
     2
177
     2
178
     3
271
     2
272
     0
340
71
  0
DIMSTYLE
105
148
102
{ACAD_REACTORS
330
149
102
}
330
A
100
AcDbSymbolTableRecord
100
AcDbDimStyleTableRecord
  2
ME10_DIM_13
 70
     0
  3
<>
 41
3.5
 42
2.0
 44
2.0
 71
     1
 73
     0
 74
     0
 77
     1
 78
     8
140
3.5
146
0.7
147
2.0
172
     1
173
     1
176
     2
177
     2
178
     3
271
     2
272
     0
340
71
  0
DIMSTYLE
105
153
102
{ACAD_REACTORS
330
154
102
}
330
A
100
AcDbSymbolTableRecord
100
AcDbDimStyleTableRecord
  2
ME10_DIM_14
 70
     0
  3
<>
 41
3.5
 42
2.0
 44
2.0
 71
     1
 73
     0
 74
     0
 77
     1
 78
     8
140
3.5
146
0.7
147
2.0
172
     1
173
     1
176
     2
177
     2
178
     3
271
     2
272
     0
340
71
  0
DIMSTYLE
105
15F
102
{ACAD_REACTORS
330
160
102
}
330
A
100
AcDbSymbolTableRecord
100
AcDbDimStyleTableRecord
  2
ME10_DIM_15
 70
     0
  3
<>
 41
3.5
 42
2.0
 44
2.0
 71
     1
 73
     0
 74
     0
 77
     1
 78
     8
140
3.5
146
0.7
147
2.0
172
     1
173
     1
176
     2
177
     2
178
     3
271
     2
272
     0
340
71
  0
ENDTAB
  0
TABLE
  2
BLOCK_RECORD
  5
1
330
0
100
AcDbSymbolTable
 70
    10
  0
BLOCK_RECORD
  5
1F
330
1
100
AcDbSymbolTableRecord
100
AcDbBlockTableRecord
  2
*Model_Space
340
22
  0
BLOCK_RECORD
  5
1B
330
1
100
AcDbSymbolTableRecord
100
AcDbBlockTableRecord
  2
*Paper_Space
340
1E
  0
BLOCK_RECORD
  5
23
330
1
100
AcDbSymbolTableRecord
100
AcDbBlockTableRecord
  2
*Paper_Space0
340
26
  0
BLOCK_RECORD
  5
43
330
1
100
AcDbSymbolTableRecord
100
AcDbBlockTableRecord
  2
Urheberrecht_DE-EN
340
0
102
{BLKREFS
331
6E
102
}
  0
BLOCK_RECORD
  5
46
330
1
100
AcDbSymbolTableRecord
100
AcDbBlockTableRecord
  2
A63Aussen
340
0
102
{BLKREFS
331
6F
102
}
  0
BLOCK_RECORD
  5
49
330
1
100
AcDbSymbolTableRecord
100
AcDbBlockTableRecord
  2
_1
340
0
102
{BLKREFS
331
70
102
}
  0
BLOCK_RECORD
  5
11E
330
1
100
AcDbSymbolTableRecord
100
AcDbBlockTableRecord
  2
*D4
340
0
  0
BLOCK_RECORD
  5
129
330
1
100
AcDbSymbolTableRecord
100
AcDbBlockTableRecord
  2
*D5
340
0
  0
BLOCK_RECORD
  5
134
330
1
100
AcDbSymbolTableRecord
100
AcDbBlockTableRecord
  2
*D6
340
0
  0
BLOCK_RECORD
  5
13F
330
1
100
AcDbSymbolTableRecord
100
AcDbBlockTableRecord
  2
*D7
340
0
  0
BLOCK_RECORD
  5
14A
330
1
100
AcDbSymbolTableRecord
100
AcDbBlockTableRecord
  2
*D8
340
0
  0
BLOCK_RECORD
  5
155
330
1
100
AcDbSymbolTableRecord
100
AcDbBlockTableRecord
  2
*D9
340
0
  0
ENDTAB
  0
ENDSEC
  0
SECTION
  2
BLOCKS
  0
BLOCK
  5
20
330
1F
100
AcDbEntity
  8
0
100
AcDbBlockBegin
  2
*Model_Space
 70
     0
 10
0.0
 20
0.0
 30
0.0
  3
*Model_Space
  1

  0
ENDBLK
  5
21
330
1F
100
AcDbEntity
  8
0
100
AcDbBlockEnd
  0
BLOCK
  5
1C
330
1B
100
AcDbEntity
 67
     1
  8
0
100
AcDbBlockBegin
  2
*Paper_Space
 70
     0
 10
0.0
 20
0.0
 30
0.0
  3
*Paper_Space
  1

  0
ENDBLK
  5
1D
330
1B
100
AcDbEntity
 67
     1
  8
0
100
AcDbBlockEnd
  0
BLOCK
  5
24
330
23
100
AcDbEntity
  8
0
100
AcDbBlockBegin
  2
*Paper_Space0
 70
     0
 10
0.0
 20
0.0
 30
0.0
  3
*Paper_Space0
  1

  0
ENDBLK
  5
25
330
23
100
AcDbEntity
  8
0
100
AcDbBlockEnd
  0
BLOCK
  5
44
330
43
100
AcDbEntity
  8
0
100
AcDbBlockBegin
  2
Urheberrecht_DE-EN
 70
     0
 10
-99.1574840514984
 20
61.68532302068001
 30
0.0
  3
Urheberrecht_DE-EN
  1

  0
MTEXT
  5
72
330
43
100
AcDbEntity
  8
1
 62
     1
100
AcDbMText
 10
-99.1574840514984
 20
61.68532302068001
 30
0.0
 40
2.0
 41
0.0
 71
     7
 72
     1
  1
We own the copyright of this document. It \Pdetermined and may neither be copied or \Pmade accessible to outsiders without our\Ppermission.
  7
CONVERTER_11
 11
0.0
 21
1.0
 31
0.0
 73
     1
 44
0.90036014405762
  0
MTEXT
  5
73
330
43
100
AcDbEntity
  8
1
 62
     1
100
AcDbMText
 10
-99.1574840514984
 20
5.39593610337381
 30
0.0
 40
2.0
 41
0.0
 71
     7
 72
     1
  1
F\U+00fcr diese Unterlage behalten wir das Ur-\Pheberrecht. Sie darf nur f\U+00fcr den von uns \Pbestimmten Zweck benutzt und ohne unsere \PZustimmung weder vervielf\U+00e4ltigt noch\PDritten zug\U+00e4nglich gemacht werden.
  7
CONVERTER_11
 11
0.0
 21
1.0
 31
0.0
 73
     1
 44
0.90036014405762
  0
ENDBLK
  5
45
330
43
100
AcDbEntity
  8
0
100
AcDbBlockEnd
  0
BLOCK
  5
47
330
46
100
AcDbEntity
  8
0
100
AcDbBlockBegin
  2
A63Aussen
 70
     0
 10
-58.993
 20
44.083
 30
0.0
  3
A63Aussen
  1

  0
LWPOLYLINE
  5
74
330
46
100
AcDbEntity
  8
1
  6
Continuous
 62
     7
100
AcDbPolyline
 90
        2
 70
     0
 43
0.5
 10
-44.37
 20
75.583
 10
-44.37
 20
52.083
  0
LWPOLYLINE
  5
75
330
46
100
AcDbEntity
  8
1
  6
DOT_CENTER
 62
     7
100
AcDbPolyline
 90
        2
 70
     0
 43
0.25
 10
-79.993
 20
72.643
 10
-79.993
 20
15.499
  0
LWPOLYLINE
  5
76
330
46
100
AcDbEntity
  8
1
  6
LONG_DASHED
 62
     7
100
AcDbPolyline
 90
        2
 70
     0
 43
0.35
 10
-53.993
 20
45.083
 10
-53.993
 20
43.083
  0
LWPOLYLINE
  5
77
330
46
100
AcDbEntity
  8
1
  6
DOT_CENTER
 62
     7
100
AcDbPolyline
 90
        2
 70
     0
 43
0.25
 10
-67.993
 20
44.083
 10
-67.993
 20
49.833
  0
LWPOLYLINE
  5
78
330
46
100
AcDbEntity
  8
1
  6
DOT_CENTER
 62
     7
100
AcDbPolyline
 90
        2
 70
     0
 43
0.25
 10
-67.993
 20
38.333
 10
-67.993
 20
44.083
  0
LWPOLYLINE
  5
79
330
46
100
AcDbEntity
  8
1
  6
DOT_CENTER
 62
     7
100
AcDbPolyline
 90
        2
 70
     0
 43
0.25
 10
-67.993
 20
44.083
 10
-62.243
 20
44.083
  0
LWPOLYLINE
  5
7A
330
46
100
AcDbEntity
  8
1
  6
DOT_CENTER
 62
     7
100
AcDbPolyline
 90
        2
 70
     0
 43
0.25
 10
-73.743
 20
44.083
 10
-67.993
 20
44.083
  0
LWPOLYLINE
  5
7B
330
46
100
AcDbEntity
  8
1
  6
Continuous
 62
     7
100
AcDbPolyline
 90
        2
 70
     0
 43
0.5
 10
-41.868
 20
71.583
 10
-40.118
 20
71.583
  0
LWPOLYLINE
  5
7C
330
46
100
AcDbEntity
  8
1
  6
Continuous
 62
     7
100
AcDbPolyline
 90
        2
 70
     0
 43
0.5
 10
-37.616
 20
75.583
 10
-39.118
 20
72.981
  0
LWPOLYLINE
  5
7D
330
46
100
AcDbEntity
  8
1
  6
Continuous
 62
     7
100
AcDbPolyline
 90
        2
 70
     0
 43
0.5
 10
-44.37
 20
75.583
 10
-42.868
 20
72.97999999999999
  0
LWPOLYLINE
  5
7E
330
46
100
AcDbEntity
  8
1
  6
Continuous
 62
     7
100
AcDbPolyline
 90
        2
 70
     0
 43
0.5
 10
-41.868
 20
16.583
 10
-40.118
 20
16.583
  0
LWPOLYLINE
  5
7F
330
46
100
AcDbEntity
  8
1
  6
Continuous
 62
     7
100
AcDbPolyline
 90
        2
 70
     0
 43
0.5
 10
-37.616
 20
12.583
 10
-39.118
 20
15.185
  0
LWPOLYLINE
  5
80
330
46
100
AcDbEntity
  8
1
  6
Continuous
 62
     7
100
AcDbPolyline
 90
        2
 70
     0
 43
0.5
 10
-44.37
 20
12.583
 10
-42.868
 20
15.186
  0
LWPOLYLINE
  5
81
330
46
100
AcDbEntity
  8
1
  6
Continuous
 62
     7
100
AcDbPolyline
 90
        2
 70
     0
 43
0.5
 10
-60.993
 20
19.868
 10
-60.69599999999998
 20
19.948
  0
LWPOLYLINE
  5
82
330
46
100
AcDbEntity
  8
1
  6
Continuous
 62
     7
100
AcDbPolyline
 90
        2
 70
     0
 43
0.5
 10
-59.48599999999999
 20
19.968
 10
-60.541
 20
19.968
  0
LWPOLYLINE
  5
83
330
46
100
AcDbEntity
  8
1
  6
Continuous
 62
     7
100
AcDbPolyline
 90
        2
 70
     0
 43
0.5
 10
-84.993
 20
35.26199999999999
 10
-84.993
 20
39.313
  0
LWPOLYLINE
  5
84
330
46
100
AcDbEntity
  8
1
  6
Continuous
 62
     7
100
AcDbPolyline
 90
        2
 70
     0
 43
0.5
 10
-89.993
 20
37.813
 10
-89.993
 20
35.26199999999999
  0
LWPOLYLINE
  5
85
330
46
100
AcDbEntity
  8
1
  6
Continuous
 62
     7
100
AcDbPolyline
 90
        2
 70
     0
 43
0.5
 10
-89.993
 20
35.26199999999999
 10
-90.993
 20
34.26199999999999
  0
LWPOLYLINE
  5
86
330
46
100
AcDbEntity
  8
1
  6
Continuous
 62
     7
100
AcDbPolyline
 90
        2
 70
     0
 43
0.5
 10
-84.993
 20
52.90399999999999
 10
-84.993
 20
48.85299999999999
  0
LWPOLYLINE
  5
87
330
46
100
AcDbEntity
  8
1
  6
Continuous
 62
     7
100
AcDbPolyline
 90
        2
 70
     0
 43
0.5
 10
-89.993
 20
50.35299999999999
 10
-89.993
 20
52.90399999999999
  0
LWPOLYLINE
  5
88
330
46
100
AcDbEntity
  8
1
  6
Continuous
 62
     7
100
AcDbPolyline
 90
        2
 70
     0
 43
0.5
 10
-89.993
 20
52.90399999999999
 10
-90.993
 20
53.90399999999999
  0
LWPOLYLINE
  5
89
330
46
100
AcDbEntity
  8
1
  6
Continuous
 62
     7
100
AcDbPolyline
 90
        2
 70
     0
 43
0.5
 10
-60.993
 20
68.298
 10
-60.69599999999998
 20
68.218
  0
LWPOLYLINE
  5
8A
330
46
100
AcDbEntity
  8
1
  6
Continuous
 62
     7
100
AcDbPolyline
 90
        2
 70
     0
 43
0.5
 10
-59.48599999999999
 20
68.198
 10
-60.541
 20
68.198
  0
LWPOLYLINE
  5
8B
330
46
100
AcDbEntity
  8
1
  6
Continuous
 62
     7
100
AcDbPolyline
 90
        2
 70
     0
 43
0.5
 10
-42.868
 20
51.43099999999999
 10
-39.118
 20
51.43099999999999
  0
LWPOLYLINE
  5
8C
330
46
100
AcDbEntity
  8
1
  6
Continuous
 62
     7
100
AcDbPolyline
 90
        2
 70
     0
 43
0.5
 10
-39.118
 20
52.083
 10
-32.993
 20
52.083
  0
LWPOLYLINE
  5
8D
330
46
100
AcDbEntity
  8
1
  6
Continuous
 62
     7
100
AcDbPolyline
 90
        2
 70
     0
 43
0.5
 10
-45.993
 20
52.083
 10
-42.868
 20
52.083
  0
LWPOLYLINE
  5
8E
330
46
100
AcDbEntity
  8
1
  6
Continuous
 62
     7
100
AcDbPolyline
 90
        2
 70
     0
 43
0.5
 10
-39.118
 20
36.083
 10
-32.993
 20
36.083
  0
LWPOLYLINE
  5
8F
330
46
100
AcDbEntity
  8
1
  6
Continuous
 62
     7
100
AcDbPolyline
 90
        2
 70
     0
 43
0.5
 10
-45.993
 20
36.083
 10
-42.868
 20
36.083
  0
LWPOLYLINE
  5
90
330
46
100
AcDbEntity
  8
1
  6
Continuous
 62
     7
100
AcDbPolyline
 90
        2
 70
     0
 43
0.5
 10
-42.868
 20
36.735
 10
-39.118
 20
36.735
  0
LWPOLYLINE
  5
91
330
46
100
AcDbEntity
  8
1
  6
Continuous
 62
     7
100
AcDbPolyline
 90
        2
 70
     0
 43
0.5
 10
-37.616
 20
52.083
 10
-37.616
 20
75.583
  0
LWPOLYLINE
  5
92
330
46
100
AcDbEntity
  8
1
  6
Continuous
 62
     7
100
AcDbPolyline
 90
        2
 70
     0
 43
0.5
 10
-37.616
 20
24.083
 10
-37.616
 20
36.083
  0
LWPOLYLINE
  5
93
330
46
100
AcDbEntity
  8
1
  6
Continuous
 62
     7
100
AcDbPolyline
 90
        2
 70
     0
 43
0.5
 10
-37.616
 20
12.583
 10
-37.616
 20
19.74699999999999
  0
LWPOLYLINE
  5
94
330
46
100
AcDbEntity
  8
1
  6
Continuous
 62
     7
100
AcDbPolyline
 90
        2
 70
     0
 43
0.5
 10
-39.118
 20
30.03899999999999
 10
-39.118
 20
15.185
  0
LWPOLYLINE
  5
95
330
46
100
AcDbEntity
  8
1
  6
Continuous
 62
     7
100
AcDbPolyline
 90
        2
 70
     0
 43
0.5
 10
-39.118
 20
36.735
 10
-39.118
 20
29.99199999999999
  0
LWPOLYLINE
  5
96
330
46
100
AcDbEntity
  8
1
  6
Continuous
 62
     7
100
AcDbPolyline
 90
        2
 70
     0
 43
0.5
 10
-39.118
 20
72.981
 10
-39.118
 20
51.43099999999999
  0
LWPOLYLINE
  5
97
330
46
100
AcDbEntity
  8
1
  6
Continuous
 62
     7
100
AcDbPolyline
 90
        2
 70
     0
 43
0.5
 10
-42.868
 20
30.039
 10
-42.868
 20
15.186
  0
LWPOLYLINE
  5
98
330
46
100
AcDbEntity
  8
1
  6
Continuous
 62
     7
100
AcDbPolyline
 90
        2
 70
     0
 43
0.5
 10
-42.868
 20
36.735
 10
-42.868
 20
30.039
  0
LWPOLYLINE
  5
99
330
46
100
AcDbEntity
  8
1
  6
Continuous
 62
     7
100
AcDbPolyline
 90
        2
 70
     0
 43
0.5
 10
-42.868
 20
72.97999999999999
 10
-42.868
 20
51.43099999999999
  0
LWPOLYLINE
  5
9A
330
46
100
AcDbEntity
  8
1
  6
Continuous
 62
     7
100
AcDbPolyline
 90
        2
 70
     0
 43
0.5
 10
-44.37
 20
19.74699999999999
 10
-44.37
 20
12.583
  0
LWPOLYLINE
  5
9B
330
46
100
AcDbEntity
  8
1
  6
Continuous
 62
     7
100
AcDbPolyline
 90
        2
 70
     0
 43
0.5
 10
-44.37
 20
36.083
 10
-44.37
 20
24.083
  0
LWPOLYLINE
  5
9C
330
46
100
AcDbEntity
  8
1
  6
Continuous
 62
     7
100
AcDbPolyline
 90
        2
 70
     0
 43
0.5
 10
-44.37
 20
12.583
 10
-58.493
 20
12.583
  0
LWPOLYLINE
  5
9D
330
46
100
AcDbEntity
  8
1
  6
Continuous
 62
     7
100
AcDbPolyline
 90
        2
 70
     0
 43
0.5
 10
-32.993
 20
12.583
 10
-37.616
 20
12.583
  0
LWPOLYLINE
  5
9E
330
46
100
AcDbEntity
  8
1
  6
Continuous
 62
     7
100
AcDbPolyline
 90
        2
 70
     0
 43
0.5
 10
-44.37
 20
19.74699999999999
 10
-53.993
 20
19.74699999999999
  0
LWPOLYLINE
  5
9F
330
46
100
AcDbEntity
  8
1
  6
Continuous
 62
     7
100
AcDbPolyline
 90
        2
 70
     0
 43
0.5
 10
-32.993
 20
19.74699999999999
 10
-37.616
 20
19.74699999999999
  0
LWPOLYLINE
  5
A0
330
46
100
AcDbEntity
  8
1
  6
Continuous
 62
     7
100
AcDbPolyline
 90
        2
 70
     0
 43
0.5
 10
-42.868
 20
24.083
 10
-46.88099999999999
 20
24.083
  0
LWPOLYLINE
  5
A1
330
46
100
AcDbEntity
  8
1
  6
Continuous
 62
     7
100
AcDbPolyline
 90
        2
 70
     0
 43
0.5
 10
-32.993
 20
24.083
 10
-39.118
 20
24.083
  0
LWPOLYLINE
  5
A2
330
46
100
AcDbEntity
  8
1
  6
Continuous
 62
     7
100
AcDbPolyline
 90
        2
 70
     0
 43
0.5
 10
-32.993
 20
75.583
 10
-32.993
 20
12.583
  0
LWPOLYLINE
  5
A3
330
46
100
AcDbEntity
  8
1
  6
Continuous
 62
     7
100
AcDbPolyline
 90
        2
 70
     0
 43
0.5
 10
-56.993
 20
75.583
 10
-58.493
 20
75.583
  0
LWPOLYLINE
  5
A4
330
46
100
AcDbEntity
  8
1
  6
Continuous
 62
     7
100
AcDbPolyline
 90
        2
 70
     0
 43
0.5
 10
-44.37
 20
75.583
 10
-46.993
 20
75.583
  0
LWPOLYLINE
  5
A5
330
46
100
AcDbEntity
  8
1
  6
Continuous
 62
     7
100
AcDbPolyline
 90
        2
 70
     0
 43
0.5
 10
-32.993
 20
75.583
 10
-37.616
 20
75.583
  0
LWPOLYLINE
  5
A6
330
46
100
AcDbEntity
  8
1
  6
Continuous
 62
     7
100
AcDbPolyline
 90
        2
 70
     0
 43
0.5
 10
-60.993
 20
19.868
 10
-89.853
 20
21.31099999999999
  0
LWPOLYLINE
  5
A7
330
46
100
AcDbEntity
  8
1
  6
Continuous
 62
     7
100
AcDbPolyline
 90
        2
 70
     0
 43
0.5
 10
-89.993
 20
37.813
 10
-86.493
 20
37.813
  0
LWPOLYLINE
  5
A8
330
46
100
AcDbEntity
  8
1
  6
Continuous
 62
     7
100
AcDbPolyline
 90
        2
 70
     0
 43
0.5
 10
-89.993
 20
37.813
 10
-90.993
 20
36.81299999999999
  0
LWPOLYLINE
  5
A9
330
46
100
AcDbEntity
  8
1
  6
Continuous
 62
     7
100
AcDbPolyline
 90
        2
 70
     0
 43
0.5
 10
-84.993
 20
48.85299999999999
 10
-84.993
 20
39.313
  0
LWPOLYLINE
  5
AA
330
46
100
AcDbEntity
  8
1
  6
Continuous
 62
     7
100
AcDbPolyline
 90
        2
 70
     0
 43
0.5
 10
-89.993
 20
50.35299999999999
 10
-86.493
 20
50.35299999999999
  0
LWPOLYLINE
  5
AB
330
46
100
AcDbEntity
  8
1
  6
Continuous
 62
     7
100
AcDbPolyline
 90
        2
 70
     0
 43
0.5
 10
-89.993
 20
50.35299999999999
 10
-90.993
 20
51.35299999999999
  0
LWPOLYLINE
  5
AC
330
46
100
AcDbEntity
  8
1
  6
Continuous
 62
     7
100
AcDbPolyline
 90
        2
 70
     0
 43
0.5
 10
-90.993
 20
36.81299999999999
 10
-90.993
 20
22.50999999999999
  0
LWPOLYLINE
  5
AD
330
46
100
AcDbEntity
  8
1
  6
Continuous
 62
     7
100
AcDbPolyline
 90
        2
 70
     0
 43
0.5
 10
-90.993
 20
65.657
 10
-90.993
 20
51.35299999999999
  0
LWPOLYLINE
  5
AE
330
46
100
AcDbEntity
  8
1
  6
Continuous
 62
     7
100
AcDbPolyline
 90
        2
 70
     0
 43
0.5
 10
-60.993
 20
68.298
 10
-60.993
 20
19.868
  0
LWPOLYLINE
  5
AF
330
46
100
AcDbEntity
  8
1
  6
Continuous
 62
     7
100
AcDbPolyline
 90
        2
 70
     0
 43
0.5
 10
-60.993
 20
68.298
 10
-89.853
 20
66.855
  0
LWPOLYLINE
  5
B0
330
46
100
AcDbEntity
  8
1
  6
Continuous
 62
     7
100
AcDbPolyline
 90
        2
 70
     0
 43
0.25
 10
-60.622
 20
20.075
 10
-60.622
 20
68.1
  0
LWPOLYLINE
  5
B1
330
46
100
AcDbEntity
  8
1
  6
Continuous
 62
     7
100
AcDbPolyline
 90
        2
 70
     0
 43
0.5
 10
-58.493
 20
75.583
 10
-58.493
 20
12.583
  0
LWPOLYLINE
  5
B2
330
46
100
AcDbEntity
  8
1
  6
Continuous
 62
     7
100
AcDbPolyline
 90
        2
 70
     0
 43
0.5
 10
-58.993
 20
75.083
 10
-58.493
 20
75.583
  0
LWPOLYLINE
  5
B3
330
46
100
AcDbEntity
  8
1
  6
Continuous
 62
     7
100
AcDbPolyline
 90
        2
 70
     0
 43
0.5
 10
-58.993
 20
13.083
 10
-58.993
 20
75.083
  0
LWPOLYLINE
  5
B4
330
46
100
AcDbEntity
  8
1
  6
Continuous
 62
     7
100
AcDbPolyline
 90
        2
 70
     0
 43
0.5
 10
-58.493
 20
12.583
 10
-58.993
 20
13.083
  0
LWPOLYLINE
  5
B5
330
46
100
AcDbEntity
  8
1
  6
DOT_CENTER
 62
     7
100
AcDbPolyline
 90
        2
 70
     0
 43
0.25
 10
-40.993
 20
82.464
 10
-40.993
 20
5.756
  0
LWPOLYLINE
  5
B6
330
46
100
AcDbEntity
  8
1
  6
DOT_CENTER
 62
     7
100
AcDbPolyline
 90
        2
 70
     0
 43
0.25
 10
-45.993
 20
53.789
 10
-45.993
 20
33.758
  0
LWPOLYLINE
  5
B7
330
46
100
AcDbEntity
  8
1
  6
DOT_CENTER
 62
     7
100
AcDbPolyline
 90
        2
 70
     0
 43
0.25
 10
-51.993
 20
79.115
 10
-51.993
 20
67.91
  0
LWPOLYLINE
  5
B8
330
46
100
AcDbEntity
  8
1
  6
DOT_CENTER
 62
     7
100
AcDbPolyline
 90
        2
 70
     0
 43
0.25
 10
-94.65599999999999
 20
44.083
 10
17.96299999999999
 20
44.083
  0
LWPOLYLINE
  5
B9
330
46
100
AcDbEntity
  8
1
  6
DOT_CENTER
 62
     7
100
AcDbPolyline
 90
        2
 70
     0
 43
0.25
 10
-65.29299999999999
 20
72.643
 10
-65.29299999999999
 20
15.499
  0
LWPOLYLINE
  5
BA
330
46
100
AcDbEntity
  8
1
  6
Continuous
 62
     7
100
AcDbPolyline
 90
        2
 70
     0
 43
0.5
 10
-12.00700000000001
 20
58.083
 10
-26.99299999999999
 20
58.083
  0
LWPOLYLINE
  5
BB
330
46
100
AcDbEntity
  8
1
  6
Continuous
 62
     7
100
AcDbPolyline
 90
        2
 70
     0
 43
0.5
 10
-8.886
 20
55.376
 10
-11.3
 20
57.79
  0
LWPOLYLINE
  5
BC
330
46
100
AcDbEntity
  8
1
  6
Continuous
 62
     7
100
AcDbPolyline
 90
        2
 70
     0
 43
0.5
 10
4.541
 20
55.083
 10
-8.179
 20
55.083
  0
LWPOLYLINE
  5
BD
330
46
100
AcDbEntity
  8
1
  6
Continuous
 62
     7
100
AcDbPolyline
 90
        2
 70
     0
 43
0.5
 10
-6.593
 20
55.083
 10
-6.593
 20
54.163
  0
LWPOLYLINE
  5
BE
330
46
100
AcDbEntity
  8
1
  6
Continuous
 62
     7
100
AcDbPolyline
 90
        2
 70
     0
 43
0.25
 10
-6.593
 20
54.163
 10
5.072
 20
54.163
  0
LWPOLYLINE
  5
BF
330
46
100
AcDbEntity
  8
1
  6
Continuous
 62
     7
100
AcDbPolyline
 90
        2
 70
     0
 43
0.5
 10
5.407
 20
53.583
 10
4.541
 20
55.083
  0
LWPOLYLINE
  5
C0
330
46
100
AcDbEntity
  8
1
  6
Continuous
 62
     7
100
AcDbPolyline
 90
        2
 70
     0
 43
0.5
 10
5.407
 20
34.58300000000001
 10
5.407
 20
36.08126792452831
  0
LWPOLYLINE
  5
C1
330
46
100
AcDbEntity
  8
1
  6
Continuous
 62
     7
100
AcDbPolyline
 90
        2
 70
     0
 43
0.5
 10
4.541
 20
33.08300000000001
 10
5.407
 20
34.58300000000001
  0
LWPOLYLINE
  5
C2
330
46
100
AcDbEntity
  8
1
  6
Continuous
 62
     7
100
AcDbPolyline
 90
        2
 70
     0
 43
0.25
 10
5.072
 20
34.00300000000001
 10
-6.593
 20
34.00300000000001
  0
LWPOLYLINE
  5
C3
330
46
100
AcDbEntity
  8
1
  6
Continuous
 62
     7
100
AcDbPolyline
 90
        2
 70
     0
 43
0.5
 10
-6.593
 20
34.00300000000001
 10
-6.593
 20
33.08300000000001
  0
LWPOLYLINE
  5
C4
330
46
100
AcDbEntity
  8
1
  6
Continuous
 62
     7
100
AcDbPolyline
 90
        2
 70
     0
 43
0.5
 10
-8.179
 20
33.08300000000001
 10
4.541
 20
33.08300000000001
  0
LWPOLYLINE
  5
C5
330
46
100
AcDbEntity
  8
1
  6
Continuous
 62
     7
100
AcDbPolyline
 90
        2
 70
     0
 43
0.5
 10
-11.3
 20
30.37600000000001
 10
-8.886
 20
32.79000000000001
  0
LWPOLYLINE
  5
C6
330
46
100
AcDbEntity
  8
1
  6
Continuous
 62
     7
100
AcDbPolyline
 90
        2
 70
     0
 43
0.5
 10
-26.99299999999999
 20
30.08300000000001
 10
-12.00700000000001
 20
30.08300000000001
  0
LWPOLYLINE
  5
C7
330
46
100
AcDbEntity
  8
1
  6
DASHED
 62
     7
100
AcDbPolyline
 90
        2
 70
     0
 43
0.35
 10
5.407
 20
52.08254528301887
 10
-12.38200000000001
 20
49.583
  0
LWPOLYLINE
  5
C8
330
46
100
AcDbEntity
  8
1
  6
Continuous
 62
     7
100
AcDbPolyline
 90
        2
 70
     0
 43
0.5
 10
5.407
 20
52.08254528301887
 10
5.407
 20
53.583
  0
LWPOLYLINE
  5
C9
330
46
100
AcDbEntity
  8
1
  6
DASHED
 62
     7
100
AcDbPolyline
 90
        2
 70
     0
 43
0.35
 10
-12.38200000000001
 20
49.583
 10
-30.59300000000001
 20
49.583
  0
LWPOLYLINE
  5
CA
330
46
100
AcDbEntity
  8
1
  6
DASHED
 62
     7
100
AcDbPolyline
 90
        2
 70
     0
 43
0.35
 10
-30.59300000000001
 20
49.583
 10
-30.59300000000001
 20
38.583
  0
LWPOLYLINE
  5
CB
330
46
100
AcDbEntity
  8
1
  6
DASHED
 62
     7
100
AcDbPolyline
 90
        2
 70
     0
 43
0.35
 10
-30.59300000000001
 20
38.583
 10
-12.38200000000001
 20
38.583
  0
LWPOLYLINE
  5
CC
330
46
100
AcDbEntity
  8
1
  6
DASHED
 62
     7
100
AcDbPolyline
 90
        2
 70
     0
 43
0.35
 10
-12.38200000000001
 20
38.583
 10
5.407
 20
36.08126792452831
  0
LWPOLYLINE
  5
CD
330
46
100
AcDbEntity
  8
1
  6
Continuous
 62
     7
100
AcDbPolyline
 90
        2
 70
     0
 43
0.5
 10
5.407
 20
36.08126792452831
 10
5.407
 20
52.08254528301887
  0
LWPOLYLINE
  5
CE
330
46
100
AcDbEntity
  8
1
  6
DASHED
 62
     7
100
AcDbPolyline
 90
        2
 70
     0
 43
0.35
 10
-12.38200000000001
 20
49.583
 10
-12.38200000000001
 20
38.583
  0
LWPOLYLINE
  5
CF
330
46
100
AcDbEntity
  8
1
  6
Continuous
 62
     7
100
AcDbPolyline
 90
        2
 70
     0
 43
0.25
 10
-11.7443906063612
 20
57.3479696284148
 10
-11.7443906063612
 20
30.8479696284148
  0
LWPOLYLINE
  5
D0
330
46
100
AcDbEntity
  8
1
  6
Continuous
 62
     7
100
AcDbPolyline
 90
        2
 70
     0
 43
0.25
 10
-8.63373113753969
 20
33.6240067462025
 10
-8.63373113753969
 20
54.42400674620249
  0
LWPOLYLINE
  5
D1
330
46
100
AcDbEntity
  8
1
  6
Continuous
 62
     7
100
AcDbPolyline
 90
        2
 70
     0
 43
0.5
 10
-58.99299467658996
 20
19.70997342395782
 42
0.24586817814485
 10
-59.48599999999999
 20
19.968
 42
0.24586817814485
  0
LWPOLYLINE
  5
D2
330
46
100
AcDbEntity
  8
1
  6
Continuous
 62
     7
100
AcDbPolyline
 90
        2
 70
     0
 43
0.5
 10
-60.541
 20
19.968
 42
0.06539724823503
 10
-60.69599999999998
 20
19.948
 42
0.06539724823503
  0
LWPOLYLINE
  5
D3
330
46
100
AcDbEntity
  8
1
  6
Continuous
 62
     7
100
AcDbPolyline
 90
        2
 70
     0
 43
0.5
 10
-86.49299504627898
 20
34.85788343917436
 42
0.0190215038091
 10
-89.993
 20
35.26199999999999
 42
0.0190215038091
  0
LWPOLYLINE
  5
D4
330
46
100
AcDbEntity
  8
1
  6
Continuous
 62
     7
100
AcDbPolyline
 90
        2
 70
     0
 43
0.5
 10
-89.993
 20
52.90399999999999
 42
0.0190215038091
 10
-86.49299504627898
 20
53.30811656082562
 42
0.0190215038091
  0
LWPOLYLINE
  5
D5
330
46
100
AcDbEntity
  8
1
  6
Continuous
 62
     7
100
AcDbPolyline
 90
        2
 70
     0
 43
0.5
 10
-59.48599999999999
 20
68.198
 42
0.24586817814484
 10
-58.99299467658996
 20
68.45602657604216
 42
0.24586817814484
  0
LWPOLYLINE
  5
D6
330
46
100
AcDbEntity
  8
1
  6
Continuous
 62
     7
100
AcDbPolyline
 90
        2
 70
     0
 43
0.5
 10
-60.69599999999998
 20
68.218
 42
0.06539724823504
 10
-60.541
 20
68.198
 42
0.06539724823504
  0
LWPOLYLINE
  5
D7
330
46
100
AcDbEntity
  8
1
  6
Continuous
 62
     7
100
AcDbPolyline
 90
        2
 70
     0
 43
0.5
 10
-40.118
 20
71.583
 42
0.41421359728869
 10
-39.118
 20
72.58300011920927
 42
0.41421359728869
  0
LWPOLYLINE
  5
D8
330
46
100
AcDbEntity
  8
1
  6
Continuous
 62
     7
100
AcDbPolyline
 90
        2
 70
     0
 43
0.5
 10
-42.868
 20
72.58299988079071
 42
0.4142135274575
 10
-41.868
 20
71.583
 42
0.4142135274575
  0
LWPOLYLINE
  5
D9
330
46
100
AcDbEntity
  8
1
  6
Continuous
 62
     7
100
AcDbPolyline
 90
        2
 70
     0
 43
0.5
 10
-45.993
 20
52.083
 42
1.0
 10
-45.993
 20
36.083
 42
1.0
  0
LWPOLYLINE
  5
DA
330
46
100
AcDbEntity
  8
1
  6
Continuous
 62
     7
100
AcDbPolyline
 90
        2
 70
     0
 43
0.5
 10
-41.868
 20
16.583
 42
0.41421359728869
 10
-42.868
 20
15.58299988079071
 42
0.41421359728869
  0
LWPOLYLINE
  5
DB
330
46
100
AcDbEntity
  8
1
  6
Continuous
 62
     7
100
AcDbPolyline
 90
        2
 70
     0
 43
0.5
 10
-39.118
 20
15.58300011920928
 42
0.41421352745751
 10
-40.118
 20
16.583
 42
0.41421352745751
  0
LWPOLYLINE
  5
DC
330
46
100
AcDbEntity
  8
1
  6
Continuous
 62
     7
100
AcDbPolyline
 90
        2
 70
     0
 43
0.5
 10
-46.88099999999999
 20
24.083
 42
0.28082657473577
 10
-53.993
 20
19.74699999999999
 42
0.28082657473577
  0
LWPOLYLINE
  5
DD
330
46
100
AcDbEntity
  8
1
  6
Continuous
 62
     7
100
AcDbPolyline
 90
        2
 70
     0
 43
0.5
 10
-42.86819536685943
 20
23.22716106057166
 42
0.13766052157885
 10
-44.37
 20
19.74699999999999
 42
0.13766052157885
  0
LWPOLYLINE
  5
DE
330
46
100
AcDbEntity
  8
1
  6
Continuous
 62
     7
100
AcDbPolyline
 90
        2
 70
     0
 43
0.5
 10
-37.616
 20
19.74699999999999
 42
0.13766050511666
 10
-39.11780546927452
 20
23.22716022443771
 42
0.13766050511666
  0
LWPOLYLINE
  5
DF
330
46
100
AcDbEntity
  8
1
  6
Continuous
 62
     7
100
AcDbPolyline
 90
        2
 70
     0
 43
0.5
 10
-90.993
 20
22.50999999999999
 42
0.39975859315767
 10
-89.853
 20
21.31099999999999
 42
0.39975859315767
  0
LWPOLYLINE
  5
E0
330
46
100
AcDbEntity
  8
1
  6
Continuous
 62
     7
100
AcDbPolyline
 90
        2
 70
     0
 43
0.5
 10
-86.493
 20
37.813
 42
0.4142135623731
 10
-84.993
 20
39.313
 42
0.4142135623731
  0
LWPOLYLINE
  5
E1
330
46
100
AcDbEntity
  8
1
  6
Continuous
 62
     7
100
AcDbPolyline
 90
        2
 70
     0
 43
0.5
 10
-84.993
 20
48.85299999999999
 42
0.4142135623731
 10
-86.493
 20
50.35299999999999
 42
0.4142135623731
  0
LWPOLYLINE
  5
E2
330
46
100
AcDbEntity
  8
1
  6
Continuous
 62
     7
100
AcDbPolyline
 90
        2
 70
     0
 43
0.5
 10
-89.853
 20
66.855
 42
0.3995169866458
 10
-90.993
 20
65.657
 42
0.3995169866458
  0
LWPOLYLINE
  5
E3
330
46
100
AcDbEntity
  8
1
  6
Continuous
 62
     7
100
AcDbPolyline
 90
        2
 70
     0
 43
0.5
 10
-11.3
 20
57.79
 42
0.19889611464511
 10
-12.00700000000001
 20
58.083
 42
0.19889611464511
  0
LWPOLYLINE
  5
E4
330
46
100
AcDbEntity
  8
1
  6
Continuous
 62
     7
100
AcDbPolyline
 90
        2
 70
     0
 43
0.5
 10
-8.886
 20
55.376
 42
0.19889611464511
 10
-8.179
 20
55.083
 42
0.19889611464511
  0
LWPOLYLINE
  5
E5
330
46
100
AcDbEntity
  8
1
  6
Continuous
 62
     7
100
AcDbPolyline
 90
        2
 70
     0
 43
0.5
 10
-8.179
 20
33.08300000000001
 42
0.19889611464511
 10
-8.886
 20
32.79000000000001
 42
0.19889611464511
  0
LWPOLYLINE
  5
E6
330
46
100
AcDbEntity
  8
1
  6
Continuous
 62
     7
100
AcDbPolyline
 90
        2
 70
     0
 43
0.5
 10
-12.00700000000001
 20
30.08300000000001
 42
0.19889611464511
 10
-11.3
 20
30.37600000000001
 42
0.19889611464511
  0
LWPOLYLINE
  5
E7
330
46
100
AcDbEntity
  8
1
  6
Continuous
 62
     7
100
AcDbPolyline
 90
        2
 70
     1
 43
0.5
 10
-71.743
 20
44.083
 42
1.0
 10
-64.243
 20
44.083
 42
1.0
  0
LWPOLYLINE
  5
E8
330
46
100
AcDbEntity
  8
1
  6
Continuous
 62
     7
100
AcDbPolyline
 90
        2
 70
     1
 43
0.5
 10
-72.243
 20
44.083
 42
1.0
 10
-63.74300000000001
 20
44.083
 42
1.0
  0
LWPOLYLINE
  5
E9
330
46
100
AcDbEntity
  8
1
  6
Continuous
 62
     7
100
AcDbPolyline
 90
        2
 70
     0
 43
0.5
 10
-32.99299999999999
 20
64.083
 42
0.4142135623731
 10
-26.99299999999999
 20
58.083
 42
0.4142135623731
  0
LWPOLYLINE
  5
EA
330
46
100
AcDbEntity
  8
1
  6
Continuous
 62
     7
100
AcDbPolyline
 90
        2
 70
     0
 43
0.5
 10
-26.99299999999999
 20
30.08300000000001
 42
0.4142135623731
 10
-32.993
 20
24.083
 42
0.4142135623731
  0
LEADER
  5
EB
330
46
100
AcDbEntity
  8
1
  6
Continuous
 62
     7
100
AcDbLeader
  3
Standard
 71
     0
 76
     1
 10
-51.993
 20
75.583
 30
0.0
  0
LEADER
  5
EC
330
46
100
AcDbEntity
  8
1
  6
Continuous
 62
     7
100
AcDbLeader
  3
Standard
 71
     0
 76
    60
 10
-46.993
 20
75.583
 30
0.0
 10
-47.0000866775431
 20
75.56177131736386
 30
0.0
 10
-47.02132630499112
 20
75.54060304745418
 30
0.0
 10
-47.05665867633617
 20
75.51955495626719
 30
0.0
 10
-47.10598363817093
 20
75.49868670688149
 30
0.0
 10
-47.16916137358514
 20
75.47805745259481
 30
0.0
 10
-47.24601279849166
 20
75.45772566924754
 30
0.0
 10
-47.33632006925962
 20
75.43774898946668
 30
0.0
 10
-47.43982720021555
 20
75.41818403930002
 30
0.0
 10
-47.55624078926238
 20
75.39908627770338
 30
0.0
 10
-47.68523084955922
 20
75.3805098393364
 30
0.0
 10
-47.82643174490456
 20
75.36250738111193
 30
0.0
 10
-47.9794432261714
 20
75.34512993293431
 30
0.0
 10
-48.14383156585647
 20
75.32842675304975
 30
0.0
 10
-48.31913078752749
 20
75.31244518841841
 30
0.0
 10
-48.50484398668351
 20
75.29723054050437
 30
0.0
 10
-48.70044473928413
 20
75.28282593686382
 30
0.0
 10
-48.90537859395513
 20
75.26927220889529
 30
0.0
 10
-49.11906464364046
 20
75.25660777609869
 30
0.0
 10
-49.34089717224586
 20
75.24486853717113
 30
0.0
 10
-49.5702473716062
 20
75.23408776824813
 30
0.0
 10
-49.80646512390995
 20
75.22429602857892
 30
0.0
 10
-50.04888084452799
 20
75.21552107390288
 30
0.0
 10
-50.2968073800233
 20
75.207787777773
 30
0.0
 10
-50.54954195596129
 20
75.20111806104902
 30
0.0
 10
-50.8063681689995
 20
75.19553082976044
 30
0.0
 10
-51.06655801761001
 20
75.19104192151542
 30
0.0
 10
-51.329373965678
 20
75.18766406060723
 30
0.0
 10
-51.59407103312728
 20
75.18540682194599
 30
0.0
 10
-51.8598989076464
 20
75.1842766039175
 30
0.0
 10
-52.12610407152963
 20
75.1842766102463
 30
0.0
 10
-52.39193193760394
 20
75.1854068409145
 30
0.0
 10
-52.65662898818757
 20
75.18766409216165
 30
0.0
 10
-52.91944491101686
 20
75.19104196556631
 30
0.0
 10
-53.17963472608716
 20
75.19553088618294
 30
0.0
 10
-53.43646089737872
 20
75.20111812968317
 30
0.0
 10
-53.68919542348196
 20
75.20778785842428
 30
0.0
 10
-53.9371219011957
 20
75.21552116634267
 30
0.0
 10
-54.17953755624911
 20
75.22429613254516
 30
0.0
 10
-54.41575523539103
 20
75.23408788344616
 30
0.0
 10
-54.64510535419973
 20
75.24486866327439
 30
0.0
 10
-54.866937795092
 20
75.25660791274973
 30
0.0
 10
-55.08062375015136
 20
75.26927235570675
 30
0.0
 10
-55.28555750355176
 20
75.28282609341954
 30
0.0
 10
-55.48115814852423
 20
75.2972307063606
 30
0.0
 10
-55.66687123399962
 20
75.312445363105
 30
0.0
 10
-55.84217033625977
 20
75.32842693607152
 30
0.0
 10
-56.00655855114221
 20
75.34513012377249
 30
0.0
 10
-56.15956990256844
 20
75.36250757922554
 30
0.0
 10
-56.30077066340324
 20
75.3805100441639
 30
0.0
 10
-56.42976058490088
 20
75.39908648866414
 30
0.0
 10
-56.5461740312533
 20
75.41818425579605
 30
0.0
 10
-56.64968101602408
 20
75.43774921088432
 30
0.0
 10
-56.73998813753053
 20
75.45772589495913
 30
0.0
 10
-56.81683941052229
 20
75.47805768196055
 30
0.0
 10
-56.88001699179911
 20
75.49868693925121
 30
0.0
 10
-56.92934179771076
 20
75.51955519098223
 30
0.0
 10
-56.96467401178896
 20
75.54060328384924
 30
0.0
 10
-56.98591348107219
 20
75.56177155476882
 30
0.0
 10
-56.993
 20
75.583
 30
0.0
  0
LEADER
  5
ED
330
46
100
AcDbEntity
  8
1
  6
Continuous
 62
     7
100
AcDbLeader
  3
Standard
 71
     0
 76
     1
 10
-86.36699999999999
 20
35.52199999999999
 30
0.0
  0
LEADER
  5
EE
330
46
100
AcDbEntity
  8
1
  6
Continuous
 62
     7
100
AcDbLeader
  3
Standard
 71
     0
 76
    31
 10
-86.49299504627898
 20
34.85788343917436
 30
0.0
 10
-86.4205462026076
 20
34.8454806270635
 30
0.0
 10
-86.34833880873134
 20
34.83464221135485
 30
0.0
 10
-86.27618256389101
 20
34.82568779585311
 30
0.0
 10
-86.20427524336817
 20
34.81864192399248
 30
0.0
 10
-86.13281394016009
 20
34.81352390802092
 30
0.0
 10
-86.06199452476136
 20
34.81034777606658
 30
0.0
 10
-85.99201110829645
 20
34.80912223368769
 30
0.0
 10
-85.9230555104745
 20
34.80985064001125
 30
0.0
 10
-85.8553167338248
 20
34.81253099852585
 30
0.0
 10
-85.78898044565383
 20
34.81715596255399
 30
0.0
 10
-85.7242284691441
 20
34.82371285538882
 30
0.0
 10
-85.6612382849893
 20
34.83218370504013
 30
0.0
 10
-85.60018254493197
 20
34.8425452934943
 30
0.0
 10
-85.54122859853712
 20
34.85476922035328
 30
0.0
 10
-85.48453803449846
 20
34.86882198067816
 30
0.0
 10
-85.43026623773511
 20
34.88466505682382
 30
0.0
 10
-85.37856196349217
 20
34.90225502401321
 30
0.0
 10
-85.32956692961294
 20
34.9215436693616
 30
0.0
 10
-85.28341542810004
 20
34.94247812402481
 30
0.0
 10
-85.24023395703038
 20
34.96500100810904
 30
0.0
 10
-85.20014087383261
 20
34.98905058794518
 30
0.0
 10
-85.1632460708776
 20
35.01456094529658
 30
0.0
 10
-85.12965067427109
 20
35.04146215803632
 30
0.0
 10
-85.09944676667396
 20
35.06968049179898
 30
0.0
 10
-85.07271713491004
 20
35.09913860208141
 30
0.0
 10
-85.04953504305315
 20
35.12975574623867
 30
0.0
 10
-85.02996403161538
 20
35.16144800479408
 30
0.0
 10
-85.01405774338681
 20
35.19412851145665
 30
0.0
 10
-85.00185977640449
 20
35.22770769121562
 30
0.0
 10
-84.993
 20
35.26199999999999
 30
0.0
  0
LEADER
  5
EF
330
46
100
AcDbEntity
  8
1
  6
Continuous
 62
     7
100
AcDbLeader
  3
Standard
 71
     0
 76
     1
 10
-86.36699999999999
 20
52.64399999999999
 30
0.0
  0
LEADER
  5
F0
330
46
100
AcDbEntity
  8
1
  6
Continuous
 62
     7
100
AcDbLeader
  3
Standard
 71
     0
 76
    31
 10
-86.49299504627898
 20
53.30811656082562
 30
0.0
 10
-86.4205462026076
 20
53.32051937293648
 30
0.0
 10
-86.34833880873134
 20
53.33135778864514
 30
0.0
 10
-86.27618256389101
 20
53.34031220414688
 30
0.0
 10
-86.20427524336817
 20
53.34735807600751
 30
0.0
 10
-86.13281394016009
 20
53.35247609197907
 30
0.0
 10
-86.06199452476136
 20
53.3556522239334
 30
0.0
 10
-85.99201110829645
 20
53.35687776631229
 30
0.0
 10
-85.9230555104745
 20
53.35614935998873
 30
0.0
 10
-85.8553167338248
 20
53.35346900147414
 30
0.0
 10
-85.78898044565383
 20
53.348844037446
 30
0.0
 10
-85.7242284691441
 20
53.34228714461116
 30
0.0
 10
-85.6612382849893
 20
53.33381629495985
 30
0.0
 10
-85.60018254493197
 20
53.32345470650569
 30
0.0
 10
-85.54122859853712
 20
53.3112307796467
 30
0.0
 10
-85.48453803449846
 20
53.29717801932183
 30
0.0
 10
-85.43026623773511
 20
53.28133494317616
 30
0.0
 10
-85.37856196349217
 20
53.26374497598678
 30
0.0
 10
-85.32956692961294
 20
53.24445633063839
 30
0.0
 10
-85.28341542810004
 20
53.22352187597518
 30
0.0
 10
-85.24023395703038
 20
53.20099899189095
 30
0.0
 10
-85.20014087383261
 20
53.1769494120548
 30
0.0
 10
-85.1632460708776
 20
53.15143905470341
 30
0.0
 10
-85.12965067427109
 20
53.12453784196366
 30
0.0
 10
-85.09944676667396
 20
53.096319508201
 30
0.0
 10
-85.07271713491004
 20
53.06686139791858
 30
0.0
 10
-85.04953504305315
 20
53.03624425376131
 30
0.0
 10
-85.02996403161538
 20
53.0045519952059
 30
0.0
 10
-85.01405774338681
 20
52.97187148854333
 30
0.0
 10
-85.00185977640449
 20
52.93829230878436
 30
0.0
 10
-84.993
 20
52.90399999999999
 30
0.0
  0
ENDBLK
  5
48
330
46
100
AcDbEntity
  8
0
100
AcDbBlockEnd
  0
BLOCK
  5
4A
330
49
100
AcDbEntity
  8
0
100
AcDbBlockBegin
  2
_1
 70
     0
 10
-1.618
 20
29.95799999999999
 30
0.0
  3
_1
  1

  0
LWPOLYLINE
  5
F1
330
49
100
AcDbEntity
  8
1
  6
DOT_CENTER
 62
     5
100
AcDbPolyline
 90
        2
 70
     0
 43
0.25
 10
16.007
 20
54.833
 10
14.492
 20
57.458
  0
LWPOLYLINE
  5
F2
330
49
100
AcDbEntity
  8
1
  6
DOT_CENTER
 62
     5
100
AcDbPolyline
 90
        2
 70
     0
 43
0.25
 10
-1.493
 20
56.833
 10
-1.493
 20
55.333
  0
LWPOLYLINE
  5
F3
330
49
100
AcDbEntity
  8
1
  6
DOT_CENTER
 62
     5
100
AcDbPolyline
 90
        2
 70
     0
 43
0.25
 10
-1.493
 20
55.333
 10
-1.243
 20
55.083
  0
LWPOLYLINE
  5
F4
330
49
100
AcDbEntity
  8
1
  6
DOT_CENTER
 62
     5
100
AcDbPolyline
 90
        2
 70
     0
 43
0.25
 10
-0.243
 20
58.083
 10
13.409
 20
58.083
  0
LWPOLYLINE
  5
F5
330
49
100
AcDbEntity
  8
1
  6
DOT_CENTER
 62
     5
100
AcDbPolyline
 90
        2
 70
     0
 43
0.25
 10
-1.243
 20
55.083
 10
6.519
 20
55.083
  0
LWPOLYLINE
  5
F6
330
49
100
AcDbEntity
  8
1
  6
DOT_CENTER
 62
     5
100
AcDbPolyline
 90
        2
 70
     0
 43
0.25
 10
5.01
 20
54.271
 10
5.707
 20
54.271
  0
LWPOLYLINE
  5
F7
330
49
100
AcDbEntity
  8
1
  6
DOT_CENTER
 62
     5
100
AcDbPolyline
 90
        2
 70
     0
 43
0.25
 10
5.707
 20
54.271
 10
6.785
 20
55.349
  0
LWPOLYLINE
  5
F8
330
49
100
AcDbEntity
  8
1
  6
DOT_CENTER
 62
     5
100
AcDbPolyline
 90
        2
 70
     0
 43
0.25
 10
5.707
 20
54.271
 10
5.707
 20
36.043
  0
LWPOLYLINE
  5
F9
330
49
100
AcDbEntity
  8
1
  6
DOT_CENTER
 62
     5
100
AcDbPolyline
 90
        2
 70
     0
 43
0.25
 10
6.519
 20
55.083
 10
6.519
 20
52.235
  0
LWPOLYLINE
  5
FA
330
49
100
AcDbEntity
  8
1
  6
DOT_CENTER
 62
     5
100
AcDbPolyline
 90
        2
 70
     0
 43
0.25
 10
7.019
 20
54.78099999999999
 10
7.019
 20
35.858
  0
LWPOLYLINE
  5
FB
330
49
100
AcDbEntity
  8
1
  6
DOT_CENTER
 62
     5
100
AcDbPolyline
 90
        2
 70
     0
 43
0.25
 10
9.407
 20
55.583
 10
7.34999999999999
 20
55.583
  0
LWPOLYLINE
  5
FC
330
49
100
AcDbEntity
  8
1
  6
DOT_CENTER
 62
     5
100
AcDbPolyline
 90
        2
 70
     0
 43
0.25
 10
10.207
 20
51.283
 10
10.207
 20
54.78299999999999
  0
LWPOLYLINE
  5
FD
330
49
100
AcDbEntity
  8
1
  6
DOT_CENTER
 62
     5
100
AcDbPolyline
 90
        2
 70
     0
 43
0.25
 10
10.207
 20
51.283
 10
11.307
 20
51.28299999999999
  0
LWPOLYLINE
  5
FE
330
49
100
AcDbEntity
  8
1
  6
DOT_CENTER
 62
     5
100
AcDbPolyline
 90
        2
 70
     0
 43
0.25
 10
10.207
 20
50.983
 10
10.207
 20
51.283
  0
LWPOLYLINE
  5
FF
330
49
100
AcDbEntity
  8
1
  6
DOT_CENTER
 62
     5
100
AcDbPolyline
 90
        2
 70
     0
 43
0.25
 10
11.307
 20
37.18299999999999
 10
11.307
 20
51.28299999999999
  0
LWPOLYLINE
  5
100
330
49
100
AcDbEntity
  8
1
  6
DOT_CENTER
 62
     5
100
AcDbPolyline
 90
        2
 70
     0
 43
0.25
 10
11.307
 20
51.28299999999999
 10
11.307
 20
54.083
  0
LWPOLYLINE
  5
101
330
49
100
AcDbEntity
  8
1
  6
DOT_CENTER
 62
     5
100
AcDbPolyline
 90
        2
 70
     0
 43
0.25
 10
11.307
 20
54.083
 10
12.407
 20
54.083
  0
LWPOLYLINE
  5
102
330
49
100
AcDbEntity
  8
1
  6
DOT_CENTER
 62
     5
100
AcDbPolyline
 90
        2
 70
     0
 43
0.25
 10
12.407
 20
52.303
 10
12.407
 20
54.083
  0
LWPOLYLINE
  5
103
330
49
100
AcDbEntity
  8
1
  6
DOT_CENTER
 62
     5
100
AcDbPolyline
 90
        2
 70
     0
 43
0.25
 10
16.007
 20
37.883
 10
16.007
 20
54.833
  0
LWPOLYLINE
  5
104
330
49
100
AcDbEntity
  8
1
  6
DOT_CENTER
 62
     5
100
AcDbPolyline
 90
        2
 70
     0
 43
0.25
 10
16.007
 20
33.333
 10
16.007
 20
37.883
  0
LWPOLYLINE
  5
105
330
49
100
AcDbEntity
  8
1
  6
DOT_CENTER
 62
     5
100
AcDbPolyline
 90
        2
 70
     0
 43
0.25
 10
12.407
 20
34.083
 10
12.407
 20
52.303
  0
LWPOLYLINE
  5
106
330
49
100
AcDbEntity
  8
1
  6
DOT_CENTER
 62
     5
100
AcDbPolyline
 90
        2
 70
     0
 43
0.25
 10
11.307
 20
34.083
 10
11.307
 20
37.18299999999999
  0
LWPOLYLINE
  5
107
330
49
100
AcDbEntity
  8
1
  6
DOT_CENTER
 62
     5
100
AcDbPolyline
 90
        2
 70
     0
 43
0.25
 10
10.207
 20
34.083
 10
12.407
 20
34.083
  0
LWPOLYLINE
  5
108
330
49
100
AcDbEntity
  8
1
  6
DOT_CENTER
 62
     5
100
AcDbPolyline
 90
        2
 70
     0
 43
0.25
 10
10.207
 20
34.083
 10
10.207
 20
50.983
  0
LWPOLYLINE
  5
109
330
49
100
AcDbEntity
  8
1
  6
DOT_CENTER
 62
     5
100
AcDbPolyline
 90
        2
 70
     0
 43
0.25
 10
10.207
 20
33.383
 10
10.207
 20
34.083
  0
LWPOLYLINE
  5
10A
330
49
100
AcDbEntity
  8
1
  6
DOT_CENTER
 62
     5
100
AcDbPolyline
 90
        2
 70
     0
 43
0.25
 10
9.407
 20
32.583
 10
7.34999999999999
 20
32.583
  0
LWPOLYLINE
  5
10B
330
49
100
AcDbEntity
  8
1
  6
DOT_CENTER
 62
     5
100
AcDbPolyline
 90
        2
 70
     0
 43
0.25
 10
7.019
 20
35.858
 10
7.019
 20
33.15799999999999
  0
LWPOLYLINE
  5
10C
330
49
100
AcDbEntity
  8
1
  6
DOT_CENTER
 62
     5
100
AcDbPolyline
 90
        2
 70
     0
 43
0.25
 10
6.519
 20
52.235
 10
6.519
 20
33.083
  0
LWPOLYLINE
  5
10D
330
49
100
AcDbEntity
  8
1
  6
DOT_CENTER
 62
     5
100
AcDbPolyline
 90
        2
 70
     0
 43
0.25
 10
-1.243
 20
33.083
 10
6.519
 20
33.083
  0
LWPOLYLINE
  5
10E
330
49
100
AcDbEntity
  8
1
  6
DOT_CENTER
 62
     5
100
AcDbPolyline
 90
        2
 70
     0
 43
0.25
 10
5.707
 20
33.895
 10
6.785
 20
32.81699999999999
  0
LWPOLYLINE
  5
10F
330
49
100
AcDbEntity
  8
1
  6
DOT_CENTER
 62
     5
100
AcDbPolyline
 90
        2
 70
     0
 43
0.25
 10
5.01
 20
33.895
 10
5.707
 20
33.895
  0
LWPOLYLINE
  5
110
330
49
100
AcDbEntity
  8
1
  6
DOT_CENTER
 62
     5
100
AcDbPolyline
 90
        2
 70
     0
 43
0.25
 10
5.707
 20
36.043
 10
5.707
 20
33.895
  0
LWPOLYLINE
  5
111
330
49
100
AcDbEntity
  8
1
  6
DOT_CENTER
 62
     5
100
AcDbPolyline
 90
        2
 70
     0
 43
0.25
 10
-1.493
 20
32.833
 10
-1.493
 20
31.33299999999999
  0
LWPOLYLINE
  5
112
330
49
100
AcDbEntity
  8
1
  6
DOT_CENTER
 62
     5
100
AcDbPolyline
 90
        2
 70
     0
 43
0.25
 10
-0.243
 20
30.08299999999999
 10
4.007
 20
30.08299999999999
  0
LWPOLYLINE
  5
113
330
49
100
AcDbEntity
  8
1
  6
DOT_CENTER
 62
     5
100
AcDbPolyline
 90
        2
 70
     0
 43
0.25
 10
5.507
 20
31.58299999999999
 10
4.007
 20
30.08299999999999
  0
LWPOLYLINE
  5
114
330
49
100
AcDbEntity
  8
1
  6
DOT_CENTER
 62
     5
100
AcDbPolyline
 90
        2
 70
     0
 43
0.25
 10
14.997
 20
31.58299999999999
 10
5.507
 20
31.58299999999999
  0
LWPOLYLINE
  5
115
330
49
100
AcDbEntity
  8
1
  6
DOT_CENTER
 62
     5
100
AcDbPolyline
 90
        2
 70
     0
 43
0.25
 10
14.997
 20
31.58299999999999
 10
16.007
 20
33.333
  0
LWPOLYLINE
  5
116
330
49
100
AcDbEntity
  8
1
  6
DOT_CENTER
 62
     5
100
AcDbPolyline
 90
        2
 70
     0
 43
0.25
 10
-1.243
 20
33.083
 10
-1.493
 20
32.833
  0
LWPOLYLINE
  5
117
330
49
100
AcDbEntity
  8
1
  6
DOT_CENTER
 62
     5
100
AcDbPolyline
 90
        2
 70
     0
 43
0.25
 10
-0.243
 20
58.083
 42
0.4142135623731
 10
-1.493
 20
56.833
 42
0.4142135623731
  0
LWPOLYLINE
  5
118
330
49
100
AcDbEntity
  8
1
  6
DOT_CENTER
 62
     5
100
AcDbPolyline
 90
        2
 70
     0
 43
0.25
 10
7.34999999999999
 20
55.583
 42
0.19864740858603
 10
6.785
 20
55.349
 42
0.19864740858603
  0
LWPOLYLINE
  5
119
330
49
100
AcDbEntity
  8
1
  6
DOT_CENTER
 62
     5
100
AcDbPolyline
 90
        2
 70
     0
 43
0.25
 10
10.207
 20
54.78299999999999
 42
0.4142135623731
 10
9.407
 20
55.583
 42
0.4142135623731
  0
LWPOLYLINE
  5
11A
330
49
100
AcDbEntity
  8
1
  6
DOT_CENTER
 62
     5
100
AcDbPolyline
 90
        2
 70
     0
 43
0.25
 10
14.492
 20
57.458
 42
0.26804957855811
 10
13.409
 20
58.083
 42
0.26804957855811
  0
LWPOLYLINE
  5
11B
330
49
100
AcDbEntity
  8
1
  6
DOT_CENTER
 62
     5
100
AcDbPolyline
 90
        2
 70
     0
 43
0.25
 10
9.407
 20
32.583
 42
0.4142135623731
 10
10.207
 20
33.383
 42
0.4142135623731
  0
LWPOLYLINE
  5
11C
330
49
100
AcDbEntity
  8
1
  6
DOT_CENTER
 62
     5
100
AcDbPolyline
 90
        2
 70
     0
 43
0.25
 10
6.785
 20
32.81699999999999
 42
0.19864740858603
 10
7.34999999999999
 20
32.583
 42
0.19864740858603
  0
LWPOLYLINE
  5
11D
330
49
100
AcDbEntity
  8
1
  6
DOT_CENTER
 62
     5
100
AcDbPolyline
 90
        2
 70
     0
 43
0.25
 10
-1.493
 20
31.33299999999999
 42
0.4142135623731
 10
-0.243
 20
30.08299999999999
 42
0.4142135623731
  0
ENDBLK
  5
4B
330
49
100
AcDbEntity
  8
0
100
AcDbBlockEnd
  0
BLOCK
  5
125
330
11E
100
AcDbEntity
  8
0
100
AcDbBlockBegin
  2
*D4
 70
     1
 10
0.0
 20
0.0
 30
0.0
  3
*D4
  1

  0
LINE
  5
11F
330
11E
100
AcDbEntity
  8
1
  6
Continuous
 62
     2
100
AcDbLine
 10
25.5657321130219
 20
52.08254528301887
 30
0.0
 11
25.5657321130219
 21
36.08126792452831
 31
0.0
  0
LINE
  5
120
330
11E
100
AcDbEntity
  8
1
  6
Continuous
 62
     2
100
AcDbLine
 10
7.407
 20
52.08254528301887
 30
0.0
 11
27.5657321130219
 21
52.08254528301887
 31
0.0
  0
LINE
  5
121
330
11E
100
AcDbEntity
  8
1
  6
Continuous
 62
     2
100
AcDbLine
 10
7.407
 20
36.08126792452831
 30
0.0
 11
27.5657321130219
 21
36.08126792452831
 31
0.0
  0
SOLID
  5
122
330
11E
100
AcDbEntity
  8
1
 62
     2
100
AcDbTrace
 10
26.02651585457778
 20
48.58254528301887
 30
0.0
 11
25.10494837146602
 21
48.58254528301887
 31
0.0
 12
25.5657321130219
 22
52.08254528301887
 32
0.0
 13
25.5657321130219
 23
52.08254528301887
 33
0.0
  0
SOLID
  5
123
330
11E
100
AcDbEntity
  8
1
 62
     2
100
AcDbTrace
 10
25.10494837146602
 20
39.58126792452831
 30
0.0
 11
26.02651585457779
 21
39.58126792452831
 31
0.0
 12
25.5657321130219
 22
36.08126792452831
 32
0.0
 13
25.5657321130219
 23
36.08126792452831
 33
0.0
  0
MTEXT
  5
124
330
11E
100
AcDbEntity
  8
1
 62
     3
100
AcDbMText
 10
23.5657321130219
 20
40.7641684521883
 30
0.0
 40
3.5
 41
0.0
 71
     7
 72
     1
  1
\C3;ER\C3;\C3;16\C2;\H2.45;\S^ ;\C3;
  7
CONVERTER_11
 11
0.0
 21
1.0
 31
0.0
 73
     1
 44
0.60024009603842
  0
ENDBLK
  5
126
330
11E
100
AcDbEntity
  8
0
100
AcDbBlockEnd
  0
BLOCK
  5
130
330
129
100
AcDbEntity
  8
0
100
AcDbBlockBegin
  2
*D5
 70
     1
 10
0.0
 20
0.0
 30
0.0
  3
*D5
  1

  0
LINE
  5
12A
330
129
100
AcDbEntity
  8
1
  6
Continuous
 62
     2
100
AcDbLine
 10
34.844942115289
 20
58.083
 30
0.0
 11
34.844942115289
 21
30.08299999999999
 31
0.0
  0
LINE
  5
12B
330
129
100
AcDbEntity
  8
1
  6
Continuous
 62
     2
100
AcDbLine
 10
15.409
 20
58.083
 30
0.0
 11
36.844942115289
 21
58.083
 31
0.0
  0
LINE
  5
12C
330
129
100
AcDbEntity
  8
1
  6
Continuous
 62
     2
100
AcDbLine
 10
6.007
 20
30.08299999999999
 30
0.0
 11
36.844942115289
 21
30.08299999999999
 31
0.0
  0
SOLID
  5
12D
330
129
100
AcDbEntity
  8
1
 62
     2
100
AcDbTrace
 10
35.30572585684489
 20
54.583
 30
0.0
 11
34.38415837373311
 21
54.583
 31
0.0
 12
34.844942115289
 22
58.083
 32
0.0
 13
34.844942115289
 23
58.083
 33
0.0
  0
SOLID
  5
12E
330
129
100
AcDbEntity
  8
1
 62
     2
100
AcDbTrace
 10
34.38415837373311
 20
33.58299999999999
 30
0.0
 11
35.30572585684489
 21
33.58299999999999
 31
0.0
 12
34.844942115289
 22
30.08299999999999
 32
0.0
 13
34.844942115289
 23
30.08299999999999
 33
0.0
  0
MTEXT
  5
12F
330
129
100
AcDbEntity
  8
1
 62
     3
100
AcDbMText
 10
32.844942115289
 20
35.5021623561582
 30
0.0
 40
3.5
 41
0.0
 71
     7
 72
     1
  1
\C3;%%c\C3;\C3;28\C2;\H2.45;\S^ ;\C3;
  7
CONVERTER_11
 11
0.0
 21
1.0
 31
0.0
 73
     1
 44
0.60024009603842
  0
ENDBLK
  5
131
330
129
100
AcDbEntity
  8
0
100
AcDbBlockEnd
  0
BLOCK
  5
13B
330
134
100
AcDbEntity
  8
0
100
AcDbBlockBegin
  2
*D6
 70
     1
 10
0.0
 20
0.0
 30
0.0
  3
*D6
  1

  0
LINE
  5
135
330
134
100
AcDbEntity
  8
1
  6
Continuous
 62
     2
100
AcDbLine
 10
5.407
 20
81.1277672974479
 30
0.0
 11
-32.99300000000001
 21
81.1277672974479
 31
0.0
  0
LINE
  5
136
330
134
100
AcDbEntity
  8
1
  6
Continuous
 62
     2
100
AcDbLine
 10
5.407
 20
55.583
 30
0.0
 11
5.407
 21
83.1277672974479
 31
0.0
  0
LINE
  5
137
330
134
100
AcDbEntity
  8
1
  6
Continuous
 62
     2
100
AcDbLine
 10
-32.99300000000001
 20
77.583
 30
0.0
 11
-32.99300000000001
 21
83.1277672974479
 31
0.0
  0
SOLID
  5
138
330
134
100
AcDbEntity
  8
1
 62
     2
100
AcDbTrace
 10
1.907
 20
80.66698355589202
 30
0.0
 11
1.907
 21
81.58855103900379
 31
0.0
 12
5.407
 22
81.1277672974479
 32
0.0
 13
5.407
 23
81.1277672974479
 33
0.0
  0
SOLID
  5
139
330
134
100
AcDbEntity
  8
1
 62
     2
100
AcDbTrace
 10
-29.49300000000001
 20
81.58855103900379
 30
0.0
 11
-29.49300000000001
 21
80.66698355589202
 31
0.0
 12
-32.99300000000001
 22
81.1277672974479
 32
0.0
 13
-32.99300000000001
 23
81.1277672974479
 33
0.0
  0
MTEXT
  5
13A
330
134
100
AcDbEntity
  8
1
 62
     3
100
AcDbMText
 10
-17.4906144844128
 20
83.1277672974479
 30
0.0
 40
3.5
 41
0.0
 71
     7
 72
     1
  1
\C3;\C3;\C3;38.4\C2;\H2.45;\S^ ;\C3;
  7
CONVERTER_11
 11
0.9999999999970619
 21
2.424068405545306E-6
 31
0.0
 73
     1
 44
0.60024009603842
  0
ENDBLK
  5
13C
330
134
100
AcDbEntity
  8
0
100
AcDbBlockEnd
  0
BLOCK
  5
146
330
13F
100
AcDbEntity
  8
0
100
AcDbBlockBegin
  2
*D7
 70
     1
 10
0.0
 20
0.0
 30
0.0
  3
*D7
  1

  0
LINE
  5
140
330
13F
100
AcDbEntity
  8
1
  6
Continuous
 62
     2
100
AcDbLine
 10
-58.99299999999999
 20
89.1254672691798
 30
0.0
 11
5.407
 21
89.1254672691798
 31
0.0
  0
LINE
  5
141
330
13F
100
AcDbEntity
  8
1
  6
Continuous
 62
     2
100
AcDbLine
 10
-58.99299999999999
 20
77.083
 30
0.0
 11
-58.99299999999999
 21
91.1254672691798
 31
0.0
  0
LINE
  5
142
330
13F
100
AcDbEntity
  8
1
  6
Continuous
 62
     2
100
AcDbLine
 10
5.407
 20
55.58299999999999
 30
0.0
 11
5.407
 21
91.1254672691798
 31
0.0
  0
SOLID
  5
143
330
13F
100
AcDbEntity
  8
1
 62
     2
100
AcDbTrace
 10
-55.49299999999999
 20
89.58625101073568
 30
0.0
 11
-55.49299999999999
 21
88.66468352762391
 31
0.0
 12
-58.99299999999999
 22
89.1254672691798
 32
0.0
 13
-58.99299999999999
 23
89.1254672691798
 33
0.0
  0
SOLID
  5
144
330
13F
100
AcDbEntity
  8
1
 62
     2
100
AcDbTrace
 10
1.907
 20
88.66468352762391
 30
0.0
 11
1.907
 21
89.58625101073568
 31
0.0
 12
5.407
 22
89.1254672691798
 32
0.0
 13
5.407
 23
89.1254672691798
 33
0.0
  0
MTEXT
  5
145
330
13F
100
AcDbEntity
  8
1
 62
     3
100
AcDbMText
 10
-29.3205456925996
 20
91.1254672691798
 30
0.0
 40
3.5
 41
0.0
 71
     7
 72
     1
  1
\C3;\C3;\C3;64.4\C2;\H2.45;\S^ ;\C3;
  7
CONVERTER_11
 11
0.9999999999970619
 21
2.424068405545306E-6
 31
0.0
 73
     1
 44
0.60024009603842
  0
ENDBLK
  5
147
330
13F
100
AcDbEntity
  8
0
100
AcDbBlockEnd
  0
BLOCK
  5
151
330
14A
100
AcDbEntity
  8
0
100
AcDbBlockBegin
  2
*D8
 70
     1
 10
0.0
 20
0.0
 30
0.0
  3
*D8
  1

  0
LINE
  5
14B
330
14A
100
AcDbEntity
  8
1
  6
Continuous
 62
     2
100
AcDbLine
 10
-58.993
 20
99.0392828591391
 30
0.0
 11
16.00700000000001
 21
99.0392828591391
 31
0.0
  0
LINE
  5
14C
330
14A
100
AcDbEntity
  8
1
  6
Continuous
 62
     2
100
AcDbLine
 10
-58.993
 20
77.083
 30
0.0
 11
-58.993
 21
101.0392828591391
 31
0.0
  0
LINE
  5
14D
330
14A
100
AcDbEntity
  8
1
  6
Continuous
 62
     2
100
AcDbLine
 10
16.00700000000001
 20
56.833
 30
0.0
 11
16.00700000000001
 21
101.0392828591391
 31
0.0
  0
SOLID
  5
14E
330
14A
100
AcDbEntity
  8
1
 62
     2
100
AcDbTrace
 10
-55.493
 20
99.50006660069499
 30
0.0
 11
-55.493
 21
98.57849911758322
 31
0.0
 12
-58.993
 22
99.0392828591391
 32
0.0
 13
-58.993
 23
99.0392828591391
 33
0.0
  0
SOLID
  5
14F
330
14A
100
AcDbEntity
  8
1
 62
     2
100
AcDbTrace
 10
12.50700000000001
 20
98.57849911758322
 30
0.0
 11
12.50700000000001
 21
99.50006660069499
 31
0.0
 12
16.00700000000001
 22
99.0392828591391
 32
0.0
 13
16.00700000000001
 23
99.0392828591391
 33
0.0
  0
MTEXT
  5
150
330
14A
100
AcDbEntity
  8
1
 62
     3
100
AcDbMText
 10
-23.356767582617
 20
101.0392828591391
 30
0.0
 40
3.5
 41
0.0
 71
     7
 72
     1
  1
\C3;\C3;\C3;75\C2;\H2.45;\S^ ;\C3;
  7
CONVERTER_11
 11
0.9999999999970619
 21
2.424068405545306E-6
 31
0.0
 73
     1
 44
0.60024009603842
  0
ENDBLK
  5
152
330
14A
100
AcDbEntity
  8
0
100
AcDbBlockEnd
  0
BLOCK
  5
15D
330
155
100
AcDbEntity
  8
0
100
AcDbBlockBegin
  2
*D9
 70
     1
 10
0.0
 20
0.0
 30
0.0
  3
*D9
  1

  0
LINE
  5
156
330
155
100
AcDbEntity
  8
1
  6
Continuous
 62
     2
100
AcDbLine
 10
5.407
 20
106.620435957343
 30
0.0
 11
-90.993
 21
106.620435957343
 31
0.0
  0
LINE
  5
157
330
155
100
AcDbEntity
  8
1
  6
Continuous
 62
     2
100
AcDbLine
 10
5.407
 20
100.538851603839
 30
0.0
 11
5.407
 21
108.620435957343
 31
0.0
  0
LINE
  5
158
330
155
100
AcDbEntity
  8
1
  6
Continuous
 62
     2
100
AcDbLine
 10
5.407
 20
55.583
 30
0.0
 11
5.407
 21
97.5397141144393
 31
0.0
  0
LINE
  5
159
330
155
100
AcDbEntity
  8
1
  6
Continuous
 62
     2
100
AcDbLine
 10
-90.993
 20
67.657
 30
0.0
 11
-90.993
 21
108.620435957343
 31
0.0
  0
SOLID
  5
15A
330
155
100
AcDbEntity
  8
1
 62
     2
100
AcDbTrace
 10
1.907
 20
106.1596522157871
 30
0.0
 11
1.907
 21
107.0812196988989
 31
0.0
 12
5.407
 22
106.620435957343
 32
0.0
 13
5.407
 23
106.620435957343
 33
0.0
  0
SOLID
  5
15B
330
155
100
AcDbEntity
  8
1
 62
     2
100
AcDbTrace
 10
-87.493
 20
107.0812196988989
 30
0.0
 11
-87.493
 21
106.1596522157871
 31
0.0
 12
-90.993
 22
106.620435957343
 32
0.0
 13
-90.993
 23
106.620435957343
 33
0.0
  0
MTEXT
  5
15C
330
155
100
AcDbEntity
  8
1
 62
     3
100
AcDbMText
 10
-41.56702377431409
 20
108.620435957343
 30
0.0
 40
3.5
 41
0.0
 71
     7
 72
     1
  1
\C3;\C3;\C3;96.4\C2;\H2.45;\S^ ;\C3;
  7
CONVERTER_11
 11
0.9999999999970619
 21
2.424068405545306E-6
 31
0.0
 73
     1
 44
0.60024009603842
  0
ENDBLK
  5
15E
330
155
100
AcDbEntity
  8
0
100
AcDbBlockEnd
  0
ENDSEC
  0
SECTION
  2
ENTITIES
  0
INSERT
  5
6E
330
1F
100
AcDbEntity
  8
0
100
AcDbBlockReference
  2
Urheberrecht_DE-EN
 10
-99.1574840514984
 20
61.68532302068001
 30
0.0
  0
INSERT
  5
6F
330
1F
100
AcDbEntity
  8
1
100
AcDbBlockReference
  2
A63Aussen
 10
-58.993
 20
44.083
 30
0.0
  0
INSERT
  5
70
330
1F
100
AcDbEntity
  8
1
100
AcDbBlockReference
  2
_1
 10
-1.618
 20
29.95799999999999
 30
0.0
  0
DIMENSION
  5
128
330
1F
100
AcDbEntity
  8
1
100
AcDbDimension
  2
*D4
 10
25.5657321130219
 20
52.08254528301887
 30
0.0
 11
21.8157321130219
 21
44.9291684521883
 31
0.0
 70
    32
  1
<>
 71
     5
 42
-1.0
 53
90.0
  3
ME10_DIM_10
100
AcDbAlignedDimension
 13
5.407
 23
36.08126792452831
 33
0.0
 14
5.407
 24
52.08254528301887
 34
0.0
 50
90.0
100
AcDbRotatedDimension
  0
DIMENSION
  5
133
330
1F
100
AcDbEntity
  8
1
100
AcDbDimension
  2
*D5
 10
34.844942115289
 20
58.083
 30
0.0
 11
31.094942115289
 21
44.3571623561582
 31
0.0
 70
    32
  1
<>
 71
     5
 42
-1.0
 53
90.0
  3
ME10_DIM_11
100
AcDbAlignedDimension
 13
4.007
 23
30.08299999999999
 33
0.0
 14
13.409
 24
58.083
 34
0.0
 50
90.0
100
AcDbRotatedDimension
  0
DIMENSION
  5
13E
330
1F
100
AcDbEntity
  8
1
100
AcDbDimension
  2
*D6
 10
5.407
 20
81.1277672974479
 30
0.0
 11
-13.6756144844128
 21
84.8777672974479
 31
0.0
 70
    32
  1
<>
 71
     5
 42
-1.0
 53
0.00013888888889
  3
ME10_DIM_12
100
AcDbAlignedDimension
 13
-32.993
 23
75.583
 33
0.0
 14
5.407
 24
53.583
 34
0.0
100
AcDbRotatedDimension
  0
DIMENSION
  5
149
330
1F
100
AcDbEntity
  8
1
100
AcDbDimension
  2
*D7
 10
-58.99299999999999
 20
89.1254672691798
 30
0.0
 11
-25.5055456925996
 21
92.8754672691798
 31
0.0
 70
    32
  1
<>
 71
     5
 42
-1.0
 53
0.00013888888889
  3
ME10_DIM_13
100
AcDbAlignedDimension
 13
5.407
 23
53.583
 33
0.0
 14
-58.993
 24
75.083
 34
0.0
100
AcDbRotatedDimension
  0
DIMENSION
  5
154
330
1F
100
AcDbEntity
  8
1
100
AcDbDimension
  2
*D8
 10
-58.993
 20
99.0392828591391
 30
0.0
 11
-21.256767582617
 21
102.7892828591391
 31
0.0
 70
    32
  1
<>
 71
     5
 42
-1.0
 53
0.00013888888889
  3
ME10_DIM_14
100
AcDbAlignedDimension
 13
16.007
 23
54.833
 33
0.0
 14
-58.993
 24
75.083
 34
0.0
100
AcDbRotatedDimension
  0
DIMENSION
  5
160
330
1F
100
AcDbEntity
  8
1
100
AcDbDimension
  2
*D9
 10
5.407
 20
106.620435957343
 30
0.0
 11
-37.7520237743141
 21
110.370435957343
 31
0.0
 70
    32
  1
<>
 71
     5
 42
-1.0
 53
0.00013888888889
  3
ME10_DIM_15
100
AcDbAlignedDimension
 13
-90.993
 23
65.657
 33
0.0
 14
5.407
 24
53.583
 34
0.0
100
AcDbRotatedDimension
  0
ENDSEC
  0
SECTION
  2
OBJECTS
  0
DICTIONARY
  5
C
330
0
100
AcDbDictionary
281
     1
  3
ACAD_GROUP
350
D
  3
ACAD_LAYOUT
350
1A
  3
ACAD_MLEADERSTYLE
350
163
  3
ACAD_MLINESTYLE
350
17
  3
ACAD_PLOTSETTINGS
350
19
  3
ACAD_PLOTSTYLENAME
350
E
  3
ACAD_SCALELIST
350
4C
  3
ACAD_VISUALSTYLE
350
2A
  3
AcDbVariableDictionary
350
161
  0
DICTIONARY
  5
D
102
{ACAD_REACTORS
330
C
102
}
330
C
100
AcDbDictionary
281
     1
  0
DICTIONARY
  5
1A
102
{ACAD_REACTORS
330
C
102
}
330
C
100
AcDbDictionary
281
     1
  3
Layout1
350
1E
  3
Layout2
350
26
  3
Model
350
22
  0
DICTIONARY
  5
163
102
{ACAD_REACTORS
330
C
102
}
330
C
100
AcDbDictionary
281
     1
  0
DICTIONARY
  5
17
102
{ACAD_REACTORS
330
C
102
}
330
C
100
AcDbDictionary
281
     1
  3
Standard
350
18
  0
DICTIONARY
  5
19
102
{ACAD_REACTORS
330
C
102
}
330
C
100
AcDbDictionary
281
     1
  0
ACDBDICTIONARYWDFLT
  5
E
102
{ACAD_REACTORS
330
C
102
}
330
C
100
AcDbDictionary
281
     1
  3
Normal
350
F
100
AcDbDictionaryWithDefault
340
F
  0
DICTIONARY
  5
4C
102
{ACAD_REACTORS
330
C
102
}
330
C
100
AcDbDictionary
281
     1
  3
A0
350
4D
  3
A1
350
4E
  3
A2
350
4F
  3
A3
350
50
  3
A4
350
51
  3
A5
350
52
  3
A6
350
53
  3
A7
350
54
  3
A8
350
55
  3
A9
350
56
  3
B0
350
57
  3
B1
350
58
  3
B2
350
59
  3
B3
350
5A
  3
B4
350
5B
  3
B5
350
5C
  3
B6
350
5D
  3
B7
350
5E
  3
B8
350
5F
  3
B9
350
60
  3
C0
350
61
  3
C1
350
62
  3
C2
350
63
  3
C3
350
64
  3
C4
350
65
  3
C5
350
66
  3
C6
350
67
  3
C7
350
68
  3
C8
350
69
  3
C9
350
6A
  3
D0
350
6B
  3
D1
350
6C
  3
D2
350
6D
  0
DICTIONARY
  5
2A
102
{ACAD_REACTORS
330
C
102
}
330
C
100
AcDbDictionary
281
     1
  3
2dWireframe
350
2F
  3
3D Hidden
350
31
  3
3dWireframe
350
30
  3
Basic
350
32
  3
Brighten
350
36
  3
ColorChange
350
3A
  3
Conceptual
350
34
  3
Dim
350
35
  3
Facepattern
350
39
  3
Flat
350
2B
  3
FlatWithEdges
350
2C
  3
Gouraud
350
2D
  3
GouraudWithEdges
350
2E
  3
Linepattern
350
38
  3
Realistic
350
33
  3
Thicken
350
37
  0
DICTIONARY
  5
161
102
{ACAD_REACTORS
330
C
102
}
330
C
100
AcDbDictionary
281
     1
  3
CANNOSCALE
350
164
  0
LAYOUT
  5
1E
102
{ACAD_REACTORS
330
1A
102
}
330
1A
100
AcDbPlotSettings
  1

  2
none_device
  4

  6

 40
0.0
 41
0.0
 42
0.0
 43
0.0
 44
0.0
 45
0.0
 46
0.0
 47
0.0
 48
0.0
 49
0.0
140
0.0
141
0.0
142
1.0
143
1.0
 70
   688
 72
     0
 73
     0
 74
     5
  7

 75
    16
147
1.0
148
0.0
149
0.0
100
AcDbLayout
  1
Layout1
 70
     1
 71
     1
 10
0.0
 20
0.0
 11
12.0
 21
9.0
 12
0.0
 22
0.0
 32
0.0
 14
1.00000000000000E+20
 24
1.00000000000000E+20
 34
1.00000000000000E+20
 15
-1.00000000000000E+20
 25
-1.00000000000000E+20
 35
-1.00000000000000E+20
146
0.0
 13
0.0
 23
0.0
 33
0.0
 16
1.0
 26
0.0
 36
0.0
 17
0.0
 27
1.0
 37
0.0
 76
     0
330
1B
  0
LAYOUT
  5
26
102
{ACAD_REACTORS
330
1A
102
}
330
1A
100
AcDbPlotSettings
  1

  2
none_device
  4

  6

 40
0.0
 41
0.0
 42
0.0
 43
0.0
 44
0.0
 45
0.0
 46
0.0
 47
0.0
 48
0.0
 49
0.0
140
0.0
141
0.0
142
1.0
143
1.0
 70
   688
 72
     0
 73
     0
 74
     5
  7

 75
    16
147
1.0
148
0.0
149
0.0
100
AcDbLayout
  1
Layout2
 70
     1
 71
     2
 10
0.0
 20
0.0
 11
0.0
 21
0.0
 12
0.0
 22
0.0
 32
0.0
 14
0.0
 24
0.0
 34
0.0
 15
0.0
 25
0.0
 35
0.0
146
0.0
 13
0.0
 23
0.0
 33
0.0
 16
1.0
 26
0.0
 36
0.0
 17
0.0
 27
1.0
 37
0.0
 76
     0
330
23
  0
LAYOUT
  5
22
102
{ACAD_REACTORS
330
1A
102
}
330
1A
100
AcDbPlotSettings
  1

  2
none_device
  4

  6

 40
0.0
 41
0.0
 42
0.0
 43
0.0
 44
0.0
 45
0.0
 46
0.0
 47
0.0
 48
0.0
 49
0.0
140
0.0
141
0.0
142
1.0
143
1.0
 70
  1712
 72
     0
 73
     0
 74
     0
  7

 75
     0
147
1.0
148
0.0
149
0.0
100
AcDbLayout
  1
Model
 70
     1
 71
     0
 10
0.0
 20
0.0
 11
12.0
 21
9.0
 12
0.0
 22
0.0
 32
0.0
 14
-113.1574840514984
 24
5.39593610337381
 34
0.0
 15
36.844942115289
 25
114.16532302068
 35
0.0
146
0.0
 13
0.0
 23
0.0
 33
0.0
 16
1.0
 26
0.0
 36
0.0
 17
0.0
 27
1.0
 37
0.0
 76
     0
330
1F
331
29
  0
MLINESTYLE
  5
18
102
{ACAD_REACTORS
330
17
102
}
330
17
100
AcDbMlineStyle
  2
Standard
 70
     0
  3

 62
   256
 51
90.0
 52
90.0
 71
     2
 49
0.5
 62
   256
  6
BYLAYER
 49
-0.5
 62
   256
  6
BYLAYER
  0
ACDBPLACEHOLDER
  5
F
102
{ACAD_REACTORS
330
E
102
}
330
E
  0
SCALE
  5
4D
102
{ACAD_REACTORS
330
4C
102
}
330
4C
100
AcDbScale
 70
     0
300
1:1
140
1.0
141
1.0
290
     1
  0
SCALE
  5
4E
102
{ACAD_REACTORS
330
4C
102
}
330
4C
100
AcDbScale
 70
     0
300
1:2
140
1.0
141
2.0
290
     0
  0
SCALE
  5
4F
102
{ACAD_REACTORS
330
4C
102
}
330
4C
100
AcDbScale
 70
     0
300
1:4
140
1.0
141
4.0
290
     0
  0
SCALE
  5
50
102
{ACAD_REACTORS
330
4C
102
}
330
4C
100
AcDbScale
 70
     0
300
1:5
140
1.0
141
5.0
290
     0
  0
SCALE
  5
51
102
{ACAD_REACTORS
330
4C
102
}
330
4C
100
AcDbScale
 70
     0
300
1:8
140
1.0
141
8.0
290
     0
  0
SCALE
  5
52
102
{ACAD_REACTORS
330
4C
102
}
330
4C
100
AcDbScale
 70
     0
300
1:10
140
1.0
141
10.0
290
     0
  0
SCALE
  5
53
102
{ACAD_REACTORS
330
4C
102
}
330
4C
100
AcDbScale
 70
     0
300
1:16
140
1.0
141
16.0
290
     0
  0
SCALE
  5
54
102
{ACAD_REACTORS
330
4C
102
}
330
4C
100
AcDbScale
 70
     0
300
1:20
140
1.0
141
20.0
290
     0
  0
SCALE
  5
55
102
{ACAD_REACTORS
330
4C
102
}
330
4C
100
AcDbScale
 70
     0
300
1:30
140
1.0
141
30.0
290
     0
  0
SCALE
  5
56
102
{ACAD_REACTORS
330
4C
102
}
330
4C
100
AcDbScale
 70
     0
300
1:40
140
1.0
141
40.0
290
     0
  0
SCALE
  5
57
102
{ACAD_REACTORS
330
4C
102
}
330
4C
100
AcDbScale
 70
     0
300
1:50
140
1.0
141
50.0
290
     0
  0
SCALE
  5
58
102
{ACAD_REACTORS
330
4C
102
}
330
4C
100
AcDbScale
 70
     0
300
1:100
140
1.0
141
100.0
290
     0
  0
SCALE
  5
59
102
{ACAD_REACTORS
330
4C
102
}
330
4C
100
AcDbScale
 70
     0
300
2:1
140
2.0
141
1.0
290
     0
  0
SCALE
  5
5A
102
{ACAD_REACTORS
330
4C
102
}
330
4C
100
AcDbScale
 70
     0
300
4:1
140
4.0
141
1.0
290
     0
  0
SCALE
  5
5B
102
{ACAD_REACTORS
330
4C
102
}
330
4C
100
AcDbScale
 70
     0
300
8:1
140
8.0
141
1.0
290
     0
  0
SCALE
  5
5C
102
{ACAD_REACTORS
330
4C
102
}
330
4C
100
AcDbScale
 70
     0
300
10:1
140
10.0
141
1.0
290
     0
  0
SCALE
  5
5D
102
{ACAD_REACTORS
330
4C
102
}
330
4C
100
AcDbScale
 70
     0
300
100:1
140
100.0
141
1.0
290
     0
  0
SCALE
  5
5E
102
{ACAD_REACTORS
330
4C
102
}
330
4C
100
AcDbScale
 70
     0
300
1/128" = 1'-0"
140
0.0078125
141
12.0
290
     0
  0
SCALE
  5
5F
102
{ACAD_REACTORS
330
4C
102
}
330
4C
100
AcDbScale
 70
     0
300
1/64" = 1'-0"
140
0.015625
141
12.0
290
     0
  0
SCALE
  5
60
102
{ACAD_REACTORS
330
4C
102
}
330
4C
100
AcDbScale
 70
     0
300
1/32" = 1'-0"
140
0.03125
141
12.0
290
     0
  0
SCALE
  5
61
102
{ACAD_REACTORS
330
4C
102
}
330
4C
100
AcDbScale
 70
     0
300
1/16" = 1'-0"
140
0.0625
141
12.0
290
     0
  0
SCALE
  5
62
102
{ACAD_REACTORS
330
4C
102
}
330
4C
100
AcDbScale
 70
     0
300
3/32" = 1'-0"
140
0.09375
141
12.0
290
     0
  0
SCALE
  5
63
102
{ACAD_REACTORS
330
4C
102
}
330
4C
100
AcDbScale
 70
     0
300
1/8" = 1'-0"
140
0.125
141
12.0
290
     0
  0
SCALE
  5
64
102
{ACAD_REACTORS
330
4C
102
}
330
4C
100
AcDbScale
 70
     0
300
3/16" = 1'-0"
140
0.1875
141
12.0
290
     0
  0
SCALE
  5
65
102
{ACAD_REACTORS
330
4C
102
}
330
4C
100
AcDbScale
 70
     0
300
1/4" = 1'-0"
140
0.25
141
12.0
290
     0
  0
SCALE
  5
66
102
{ACAD_REACTORS
330
4C
102
}
330
4C
100
AcDbScale
 70
     0
300
3/8" = 1'-0"
140
0.375
141
12.0
290
     0
  0
SCALE
  5
67
102
{ACAD_REACTORS
330
4C
102
}
330
4C
100
AcDbScale
 70
     0
300
1/2" = 1'-0"
140
0.5
141
12.0
290
     0
  0
SCALE
  5
68
102
{ACAD_REACTORS
330
4C
102
}
330
4C
100
AcDbScale
 70
     0
300
3/4" = 1'-0"
140
0.75
141
12.0
290
     0
  0
SCALE
  5
69
102
{ACAD_REACTORS
330
4C
102
}
330
4C
100
AcDbScale
 70
     0
300
1" = 1'-0"
140
1.0
141
12.0
290
     0
  0
SCALE
  5
6A
102
{ACAD_REACTORS
330
4C
102
}
330
4C
100
AcDbScale
 70
     0
300
1-1/2" = 1'-0"
140
1.5
141
12.0
290
     0
  0
SCALE
  5
6B
102
{ACAD_REACTORS
330
4C
102
}
330
4C
100
AcDbScale
 70
     0
300
3" = 1'-0"
140
3.0
141
12.0
290
     0
  0
SCALE
  5
6C
102
{ACAD_REACTORS
330
4C
102
}
330
4C
100
AcDbScale
 70
     0
300
6" = 1'-0"
140
6.0
141
12.0
290
     0
  0
SCALE
  5
6D
102
{ACAD_REACTORS
330
4C
102
}
330
4C
100
AcDbScale
 70
     0
300
1'-0" = 1'-0"
140
12.0
141
12.0
290
     0
  0
VISUALSTYLE
  5
2F
102
{ACAD_REACTORS
330
2A
102
}
330
2A
100
AcDbVisualStyle
  2
2dWireframe
 70
     4
 71
     0
 72
     2
 73
     0
 90
        0
 40
-0.6
 41
-30.0
 62
     5
 63
     7
 74
     1
 91
        4
 64
     7
 65
   257
 75
     1
175
     1
 42
1.0
 92
        0
 66
   257
 43
1.0
 76
     1
 77
     6
 78
     2
 67
     7
 79
     5
170
     0
171
     0
290
     0
174
     0
 93
        1
 44
0.0
173
     0
291
     0
 45
0.0
1001
ACAD
1000
AcDbSavedByObjectVersion
1070
     0
  0
VISUALSTYLE
  5
31
102
{ACAD_REACTORS
330
2A
102
}
330
2A
100
AcDbVisualStyle
  2
3D Hidden
 70
     6
 71
     1
 72
     2
 73
     2
 90
        0
 40
-0.6
 41
-30.0
 62
     5
 63
     7
 74
     2
 91
        2
 64
     7
 65
   257
 75
     2
175
     1
 42
40.0
 92
        0
 66
   257
 43
1.0
 76
     1
 77
     6
 78
     2
 67
     7
 79
     3
170
     0
171
     0
290
     0
174
     0
 93
        1
 44
0.0
173
     0
291
     0
 45
0.0
1001
ACAD
1000
AcDbSavedByObjectVersion
1070
     0
  0
VISUALSTYLE
  5
30
102
{ACAD_REACTORS
330
2A
102
}
330
2A
100
AcDbVisualStyle
  2
3dWireframe
 70
     5
 71
     0
 72
     2
 73
     0
 90
        0
 40
-0.6
 41
-30.0
 62
     5
 63
     7
 74
     1
 91
        4
 64
     7
 65
   257
 75
     1
175
     1
 42
1.0
 92
        0
 66
   257
 43
1.0
 76
     1
 77
     6
 78
     2
 67
     7
 79
     5
170
     0
171
     0
290
     0
174
     0
 93
        1
 44
0.0
173
     0
291
     0
 45
0.0
1001
ACAD
1000
AcDbSavedByObjectVersion
1070
     0
  0
VISUALSTYLE
  5
32
102
{ACAD_REACTORS
330
2A
102
}
330
2A
100
AcDbVisualStyle
  2
Basic
 70
     7
 71
     1
 72
     0
 73
     1
 90
        0
 40
-0.6
 41
-30.0
 62
     5
 63
     7
 74
     0
 91
        4
 64
     7
 65
   257
 75
     1
175
     1
 42
1.0
 92
        8
 66
     7
 43
1.0
 76
     1
 77
     6
 78
     2
 67
     7
 79
     5
170
     0
171
     0
290
     0
174
     0
 93
        1
 44
0.0
173
     0
291
     1
 45
0.0
1001
ACAD
1000
AcDbSavedByObjectVersion
1070
     0
  0
VISUALSTYLE
  5
36
102
{ACAD_REACTORS
330
2A
102
}
330
2A
100
AcDbVisualStyle
  2
Brighten
 70
    12
 71
     2
 72
     2
 73
     0
 90
        0
 40
-0.6
 41
-30.0
 62
     5
 63
     7
 74
     1
 91
        4
 64
     7
 65
   257
 75
     1
175
     1
 42
1.0
 92
        8
 66
     7
 43
1.0
 76
     1
 77
     6
 78
     2
 67
     7
 79
     5
170
     0
171
     0
290
     0
174
     0
 93
        1
 44
50.0
173
     0
291
     1
 45
0.0
1001
ACAD
1000
AcDbSavedByObjectVersion
1070
     0
  0
VISUALSTYLE
  5
3A
102
{ACAD_REACTORS
330
2A
102
}
330
2A
100
AcDbVisualStyle
  2
ColorChange
 70
    16
 71
     2
 72
     2
 73
     3
 90
        0
 40
-0.6
 41
-30.0
 62
     5
 63
     8
 74
     1
 91
        4
 64
     7
 65
   257
 75
     1
175
     1
 42
1.0
 92
        8
 66
     8
 43
1.0
 76
     1
 77
     6
 78
     2
 67
     7
 79
     5
170
     0
171
     0
290
     0
174
     0
 93
        1
 44
0.0
173
     0
291
     1
 45
0.0
1001
ACAD
1000
AcDbSavedByObjectVersion
1070
     0
  0
VISUALSTYLE
  5
34
102
{ACAD_REACTORS
330
2A
102
}
330
2A
100
AcDbVisualStyle
  2
Conceptual
 70
     9
 71
     3
 72
     2
 73
     0
 90
        0
 40
-0.6
 41
-30.0
 62
     5
 63
     7
 74
     2
 91
        2
 64
     7
 65
   257
 75
     1
175
     1
 42
40.0
 92
        8
 66
     7
 43
1.0
 76
     1
 77
     6
 78
     2
 67
     7
 79
     3
170
     0
171
     0
290
     0
174
     0
 93
        1
 44
0.0
173
     0
291
     0
 45
0.0
1001
ACAD
1000
AcDbSavedByObjectVersion
1070
     0
  0
VISUALSTYLE
  5
35
102
{ACAD_REACTORS
330
2A
102
}
330
2A
100
AcDbVisualStyle
  2
Dim
 70
    11
 71
     2
 72
     2
 73
     0
 90
        0
 40
-0.6
 41
-30.0
 62
     5
 63
     7
 74
     1
 91
        4
 64
     7
 65
   257
 75
     1
175
     1
 42
1.0
 92
        8
 66
     7
 43
1.0
 76
     1
 77
     6
 78
     2
 67
     7
 79
     5
170
     0
171
     0
290
     0
174
     0
 93
        1
 44
-50.0
173
     0
291
     1
 45
0.0
1001
ACAD
1000
AcDbSavedByObjectVersion
1070
     0
  0
VISUALSTYLE
  5
39
102
{ACAD_REACTORS
330
2A
102
}
330
2A
100
AcDbVisualStyle
  2
Facepattern
 70
    15
 71
     2
 72
     2
 73
     0
 90
        0
 40
-0.6
 41
-30.0
 62
     5
 63
     7
 74
     1
 91
        4
 64
     7
 65
   257
 75
     1
175
     1
 42
1.0
 92
        8
 66
     7
 43
1.0
 76
     1
 77
     6
 78
     2
 67
     7
 79
     5
170
     0
171
     0
290
     0
174
     0
 93
        1
 44
0.0
173
     0
291
     1
 45
0.0
1001
ACAD
1000
AcDbSavedByObjectVersion
1070
     0
  0
VISUALSTYLE
  5
2B
102
{ACAD_REACTORS
330
2A
102
}
330
2A
100
AcDbVisualStyle
  2
Flat
 70
     0
 71
     2
 72
     1
 73
     1
 90
        2
 40
-0.6
 41
30.0
 62
     5
 63
     7
 74
     0
 91
        4
 64
     7
 65
   257
 75
     1
175
     1
 42
1.0
 92
        8
 66
     7
 43
1.0
 76
     1
 77
     6
 78
     2
 67
     7
 79
     5
170
     0
171
     0
290
     0
174
     0
 93
       13
 44
0.0
173
     0
291
     1
 45
0.0
1001
ACAD
1000
AcDbSavedByObjectVersion
1070
     0
  0
VISUALSTYLE
  5
2C
102
{ACAD_REACTORS
330
2A
102
}
330
2A
100
AcDbVisualStyle
  2
FlatWithEdges
 70
     1
 71
     2
 72
     1
 73
     1
 90
        2
 40
-0.6
 41
30.0
 62
     5
 63
     7
 74
     1
 91
        4
 64
     7
 65
   257
 75
     1
175
     1
 42
1.0
 92
        0
 66
   257
 43
1.0
 76
     1
 77
     6
 78
     2
 67
     7
 79
     5
170
     0
171
     0
290
     0
174
     0
 93
       13
 44
0.0
173
     0
291
     1
 45
0.0
1001
ACAD
1000
AcDbSavedByObjectVersion
1070
     0
  0
VISUALSTYLE
  5
2D
102
{ACAD_REACTORS
330
2A
102
}
330
2A
100
AcDbVisualStyle
  2
Gouraud
 70
     2
 71
     2
 72
     2
 73
     1
 90
        2
 40
-0.6
 41
30.0
 62
     5
 63
     7
 74
     0
 91
        4
 64
     7
 65
   257
 75
     1
175
     1
 42
1.0
 92
        0
 66
     7
 43
1.0
 76
     1
 77
     6
 78
     2
 67
     7
 79
     5
170
     0
171
     0
290
     0
174
     0
 93
       13
 44
0.0
173
     0
291
     1
 45
0.0
1001
ACAD
1000
AcDbSavedByObjectVersion
1070
     0
  0
VISUALSTYLE
  5
2E
102
{ACAD_REACTORS
330
2A
102
}
330
2A
100
AcDbVisualStyle
  2
GouraudWithEdges
 70
     3
 71
     2
 72
     2
 73
     1
 90
        2
 40
-0.6
 41
30.0
 62
     5
 63
     7
 74
     1
 91
        4
 64
     7
 65
   257
 75
     1
175
     1
 42
1.0
 92
        0
 66
   257
 43
1.0
 76
     1
 77
     6
 78
     2
 67
     7
 79
     5
170
     0
171
     0
290
     0
174
     0
 93
       13
 44
0.0
173
     0
291
     1
 45
0.0
1001
ACAD
1000
AcDbSavedByObjectVersion
1070
     0
  0
VISUALSTYLE
  5
38
102
{ACAD_REACTORS
330
2A
102
}
330
2A
100
AcDbVisualStyle
  2
Linepattern
 70
    14
 71
     2
 72
     2
 73
     0
 90
        0
 40
-0.6
 41
-30.0
 62
     5
 63
     7
 74
     1
 91
        4
 64
     7
 65
   257
 75
     7
175
     7
 42
1.0
 92
        8
 66
     7
 43
1.0
 76
     1
 77
     6
 78
     2
 67
     7
 79
     5
170
     0
171
     0
290
     0
174
     0
 93
        1
 44
0.0
173
     0
291
     1
 45
0.0
1001
ACAD
1000
AcDbSavedByObjectVersion
1070
     0
  0
VISUALSTYLE
  5
33
102
{ACAD_REACTORS
330
2A
102
}
330
2A
100
AcDbVisualStyle
  2
Realistic
 70
     8
 71
     2
 72
     2
 73
     0
 90
        0
 40
-0.6
 41
-30.0
 62
     5
 63
     7
 74
     1
 91
        0
 64
     7
 65
   257
 75
     1
175
     1
 42
1.0
 92
        8
 66
     8
 43
1.0
 76
     1
 77
     6
 78
     2
 67
     7
 79
     5
170
     0
171
     0
290
     0
174
     0
 93
       13
 44
0.0
173
     0
291
     0
 45
0.0
1001
ACAD
1000
AcDbSavedByObjectVersion
1070
     0
  0
VISUALSTYLE
  5
37
102
{ACAD_REACTORS
330
2A
102
}
330
2A
100
AcDbVisualStyle
  2
Thicken
 70
    13
 71
     2
 72
     2
 73
     0
 90
        0
 40
-0.6
 41
-30.0
 62
     5
 63
     7
 74
     1
 91
        4
 64
     7
 65
   257
 75
     1
175
     1
 42
1.0
 92
       12
 66
     7
 43
1.0
 76
     1
 77
     6
 78
     2
 67
     7
 79
     5
170
     0
171
     0
290
     0
174
     0
 93
        1
 44
0.0
173
     0
291
     1
 45
0.0
1001
ACAD
1000
AcDbSavedByObjectVersion
1070
     0
  0
DICTIONARYVAR
  5
164
102
{ACAD_REACTORS
330
161
102
}
330
161
100
DictionaryVariables
280
     0
  1
1:1
  0
ENDSEC
  0
EOF
