  0
SECTION
  2
HEADER
  9
$ACADVER
  1
AC1015
  9
$ACADMAINTVER
 70
     6
  9
$DWGCODEPAGE
  3
ANSI_1252
  9
$INSBASE
 10
0.0
 20
0.0
 30
0.0
  9
$EXTMIN
 10
-108.1287094399426
 20
8.0286309402982
 30
0.0
  9
$EXTMAX
 10
35.0416146129026
 20
116.7980178576044
 30
0.0
  9
$LIMMIN
 10
0.0
 20
0.0
  9
$LIMMAX
 10
12.0
 20
9.0
  9
$ORTHOMODE
 70
     0
  9
$REGENMODE
 70
     1
  9
$FILLMODE
 70
     1
  9
$QTEXTMODE
 70
     0
  9
$MIRRTEXT
 70
     1
  9
$LTSCALE
 40
1.0
  9
$ATTMODE
 70
     1
  9
$TEXTSIZE
 40
0.2
  9
$TRACEWID
 40
0.05
  9
$TEXTSTYLE
  7
Standard
  9
$CLAYER
  8
0
  9
$CELTYPE
  6
ByLayer
  9
$CECOLOR
 62
   256
  9
$CELTSCALE
 40
1.0
  9
$DISPSILH
 70
     0
  9
$DIMSCALE
 40
1.0
  9
$DIMASZ
 40
0.18
  9
$DIMEXO
 40
0.0625
  9
$DIMDLI
 40
0.38
  9
$DIMRND
 40
0.0
  9
$DIMDLE
 40
0.0
  9
$DIMEXE
 40
0.18
  9
$DIMTP
 40
0.0
  9
$DIMTM
 40
0.0
  9
$DIMTXT
 40
0.18
  9
$DIMCEN
 40
0.09
  9
$DIMTSZ
 40
0.0
  9
$DIMTOL
 70
     0
  9
$DIMLIM
 70
     0
  9
$DIMTIH
 70
     1
  9
$DIMTOH
 70
     1
  9
$DIMSE1
 70
     0
  9
$DIMSE2
 70
     0
  9
$DIMTAD
 70
     0
  9
$DIMZIN
 70
     0
  9
$DIMBLK
  1

  9
$DIMASO
 70
     1
  9
$DIMSHO
 70
     1
  9
$DIMPOST
  1

  9
$DIMAPOST
  1

  9
$DIMALT
 70
     0
  9
$DIMALTD
 70
     2
  9
$DIMALTF
 40
25.4
  9
$DIMLFAC
 40
1.0
  9
$DIMTOFL
 70
     0
  9
$DIMTVP
 40
0.0
  9
$DIMTIX
 70
     0
  9
$DIMSOXD
 70
     0
  9
$DIMSAH
 70
     0
  9
$DIMBLK1
  1

  9
$DIMBLK2
  1

  9
$DIMSTYLE
  2
Standard
  9
$DIMCLRD
 70
     0
  9
$DIMCLRE
 70
     0
  9
$DIMCLRT
 70
     0
  9
$DIMTFAC
 40
1.0
  9
$DIMGAP
 40
0.09
  9
$DIMJUST
 70
     0
  9
$DIMSD1
 70
     0
  9
$DIMSD2
 70
     0
  9
$DIMTOLJ
 70
     1
  9
$DIMTZIN
 70
     0
  9
$DIMALTZ
 70
     0
  9
$DIMALTTZ
 70
     0
  9
$DIMUPT
 70
     0
  9
$DIMDEC
 70
     4
  9
$DIMTDEC
 70
     4
  9
$DIMALTU
 70
     2
  9
$DIMALTTD
 70
     2
  9
$DIMTXSTY
  7
Standard
  9
$DIMAUNIT
 70
     0
  9
$DIMADEC
 70
     0
  9
$DIMALTRND
 40
0.0
  9
$DIMAZIN
 70
     0
  9
$DIMDSEP
 70
    46
  9
$DIMATFIT
 70
     3
  9
$DIMFRAC
 70
     0
  9
$DIMLDRBLK
  1

  9
$DIMLUNIT
 70
     2
  9
$DIMLWD
 70
    -2
  9
$DIMLWE
 70
    -2
  9
$DIMTMOVE
 70
     0
  9
$LUNITS
 70
     2
  9
$LUPREC
 70
     4
  9
$SKETCHINC
 40
0.1
  9
$FILLETRAD
 40
0.5
  9
$AUNITS
 70
     0
  9
$AUPREC
 70
     0
  9
$MENU
  1
.
  9
$ELEVATION
 40
0.0
  9
$PELEVATION
 40
0.0
  9
$THICKNESS
 40
0.0
  9
$LIMCHECK
 70
     0
  9
$CHAMFERA
 40
0.5
  9
$CHAMFERB
 40
0.5
  9
$CHAMFERC
 40
1.0
  9
$CHAMFERD
 40
0.0
  9
$SKPOLY
 70
     0
  9
$TDCREATE
 40
2455954.463122303
  9
$TDUCREATE
 40
2455954.421455637
  9
$TDUPDATE
 40
2455954.463122315
  9
$TDUUPDATE
 40
2455954.421455648
  9
$TDINDWG
 40
0.0000000116
  9
$TDUSRTIMER
 40
0.0000000116
  9
$USRTIMER
 70
     1
  9
$ANGBASE
 50
0.0
  9
$ANGDIR
 70
     0
  9
$PDMODE
 70
     0
  9
$PDSIZE
 40
0.0
  9
$PLINEWID
 40
0.0
  9
$SPLFRAME
 70
     0
  9
$SPLINETYPE
 70
     6
  9
$SPLINESEGS
 70
     8
  9
$HANDSEED
  5
141
  9
$SURFTAB1
 70
     6
  9
$SURFTAB2
 70
     6
  9
$SURFTYPE
 70
     6
  9
$SURFU
 70
     6
  9
$SURFV
 70
     6
  9
$UCSBASE
  2

  9
$UCSNAME
  2

  9
$UCSORG
 10
0.0
 20
0.0
 30
0.0
  9
$UCSXDIR
 10
1.0
 20
0.0
 30
0.0
  9
$UCSYDIR
 10
0.0
 20
1.0
 30
0.0
  9
$UCSORTHOREF
  2

  9
$UCSORTHOVIEW
 70
     0
  9
$UCSORGTOP
 10
0.0
 20
0.0
 30
0.0
  9
$UCSORGBOTTOM
 10
0.0
 20
0.0
 30
0.0
  9
$UCSORGLEFT
 10
0.0
 20
0.0
 30
0.0
  9
$UCSORGRIGHT
 10
0.0
 20
0.0
 30
0.0
  9
$UCSORGFRONT
 10
0.0
 20
0.0
 30
0.0
  9
$UCSORGBACK
 10
0.0
 20
0.0
 30
0.0
  9
$PUCSBASE
  2

  9
$PUCSNAME
  2

  9
$PUCSORG
 10
0.0
 20
0.0
 30
0.0
  9
$PUCSXDIR
 10
1.0
 20
0.0
 30
0.0
  9
$PUCSYDIR
 10
0.0
 20
1.0
 30
0.0
  9
$PUCSORTHOREF
  2

  9
$PUCSORTHOVIEW
 70
     0
  9
$PUCSORGTOP
 10
0.0
 20
0.0
 30
0.0
  9
$PUCSORGBOTTOM
 10
0.0
 20
0.0
 30
0.0
  9
$PUCSORGLEFT
 10
0.0
 20
0.0
 30
0.0
  9
$PUCSORGRIGHT
 10
0.0
 20
0.0
 30
0.0
  9
$PUCSORGFRONT
 10
0.0
 20
0.0
 30
0.0
  9
$PUCSORGBACK
 10
0.0
 20
0.0
 30
0.0
  9
$USERI1
 70
     0
  9
$USERI2
 70
     0
  9
$USERI3
 70
     0
  9
$USERI4
 70
     0
  9
$USERI5
 70
     0
  9
$USERR1
 40
16.5
  9
$USERR2
 40
0.0
  9
$USERR3
 40
0.0
  9
$USERR4
 40
0.0
  9
$USERR5
 40
0.0
  9
$WORLDVIEW
 70
     1
  9
$SHADEDGE
 70
     3
  9
$SHADEDIF
 70
    70
  9
$TILEMODE
 70
     1
  9
$MAXACTVP
 70
    64
  9
$PINSBASE
 10
0.0
 20
0.0
 30
0.0
  9
$PLIMCHECK
 70
     0
  9
$PEXTMIN
 10
1.00000000000000E+20
 20
1.00000000000000E+20
 30
1.00000000000000E+20
  9
$PEXTMAX
 10
-1.00000000000000E+20
 20
-1.00000000000000E+20
 30
-1.00000000000000E+20
  9
$PLIMMIN
 10
0.0
 20
0.0
  9
$PLIMMAX
 10
12.0
 20
9.0
  9
$UNITMODE
 70
     0
  9
$VISRETAIN
 70
     1
  9
$PLINEGEN
 70
     0
  9
$PSLTSCALE
 70
     1
  9
$TREEDEPTH
 70
  3020
  9
$CMLSTYLE
  2
Standard
  9
$CMLJUST
 70
     0
  9
$CMLSCALE
 40
1.0
  9
$PROXYGRAPHICS
 70
     1
  9
$MEASUREMENT
 70
     1
  9
$CELWEIGHT
370
    -1
  9
$ENDCAPS
280
     0
  9
$JOINSTYLE
280
     0
  9
$LWDISPLAY
290
     0
  9
$INSUNITS
 70
     1
  9
$HYPERLINKBASE
  1

  9
$STYLESHEET
  1

  9
$XEDIT
290
     1
  9
$CEPSNTYPE
380
     0
  9
$PSTYLEMODE
290
     1
  9
$FINGERPRINTGUID
  2
{EFA29E22-C173-446F-86F1-C9363D36E448}
  9
$VERSIONGUID
  2
{FAEB1C32-E019-11D5-929B-00C0DF256EC4}
  9
$EXTNAMES
290
     1
  9
$PSVPSCALE
 40
0.0
  9
$OLESTARTUP
290
     0
  0
ENDSEC
  0
SECTION
  2
CLASSES
  0
CLASS
  1
ACDBDICTIONARYWDFLT
  2
AcDbDictionaryWithDefault
  3
ObjectDBX Classes
 90
        0
280
     0
281
     0
  0
CLASS
  1
VISUALSTYLE
  2
AcDbVisualStyle
  3
ObjectDBX Classes
 90
     4095
280
     0
281
     0
  0
CLASS
  1
SCALE
  2
AcDbScale
  3
ObjectDBX Classes
 90
     1153
280
     0
281
     0
  0
CLASS
  1

  2
exOdDbPolyline
  3

 90
        0
280
     0
281
     1
  0
CLASS
  1
DICTIONARYVAR
  2
AcDbDictionaryVar
  3
ObjectDBX Classes
 90
        0
280
     0
281
     0
  0
CLASS
  1
ACDBPLACEHOLDER
  2
AcDbPlaceHolder
  3
ObjectDBX Classes
 90
        0
280
     0
281
     0
  0
CLASS
  1
LAYOUT
  2
AcDbLayout
  3
ObjectDBX Classes
 90
        0
280
     0
281
     0
  0
ENDSEC
  0
SECTION
  2
TABLES
  0
TABLE
  2
VPORT
  5
8
330
0
100
AcDbSymbolTable
 70
     1
  0
VPORT
  5
29
330
8
100
AcDbSymbolTableRecord
100
AcDbViewportTableRecord
  2
*Active
 70
     0
 10
0.0
 20
0.0
 11
1.0
 21
1.0
 12
-36.54354741352
 22
62.4133243989513
 13
0.0
 23
0.0
 14
0.5
 24
0.5
 15
0.5
 25
0.5
 16
0.0
 26
0.0
 36
1.0
 17
0.0
 27
0.0
 37
0.0
 40
119.6463256090368
 41
1.60267857142857
 42
50.0
 43
0.0
 44
0.0
 50
0.0
 51
0.0
 71
     0
 72
   100
 73
     1
 74
     3
 75
     0
 76
     0
 77
     0
 78
     0
281
     0
 65
     1
110
0.0
120
0.0
130
0.0
111
1.0
121
0.0
131
0.0
112
0.0
122
1.0
132
0.0
 79
     0
146
0.0
  0
ENDTAB
  0
TABLE
  2
LTYPE
  5
5
330
0
100
AcDbSymbolTable
 70
     8
  0
LTYPE
  5
14
330
5
100
AcDbSymbolTableRecord
100
AcDbLinetypeTableRecord
  2
ByBlock
 70
     0
  3

 72
    65
 73
     0
 40
0.0
  0
LTYPE
  5
15
330
5
100
AcDbSymbolTableRecord
100
AcDbLinetypeTableRecord
  2
ByLayer
 70
     0
  3

 72
    65
 73
     0
 40
0.0
  0
LTYPE
  5
16
330
5
100
AcDbSymbolTableRecord
100
AcDbLinetypeTableRecord
  2
Continuous
 70
     0
  3
Solid line
 72
    65
 73
     0
 40
0.0
  0
LTYPE
  5
3B
330
5
100
AcDbSymbolTableRecord
100
AcDbLinetypeTableRecord
  2
DASHED
 70
     0
  3
Dashed
 72
    65
 73
     2
 40
15.0
 49
7.0
 74
     0
 49
-8.0
 74
     0
  0
LTYPE
  5
3C
330
5
100
AcDbSymbolTableRecord
100
AcDbLinetypeTableRecord
  2
DOTTED
 70
     0
  3
Dotted
 72
    65
 73
     2
 40
1.0
 49
0.0
 74
     0
 49
-1.0
 74
     0
  0
LTYPE
  5
3D
330
5
100
AcDbSymbolTableRecord
100
AcDbLinetypeTableRecord
  2
DOT_CENTER
 70
     0
  3
Dot_Center
 72
    65
 73
     4
 40
14.0
 49
12.0
 74
     0
 49
-1.0
 74
     0
 49
0.0
 74
     0
 49
-1.0
 74
     0
  0
LTYPE
  5
3E
330
5
100
AcDbSymbolTableRecord
100
AcDbLinetypeTableRecord
  2
LONG_DASHED
 70
     0
  3
Long_Dashed
 72
    65
 73
     2
 40
15.0
 49
10.0
 74
     0
 49
-5.0
 74
     0
  0
LTYPE
  5
3F
330
5
100
AcDbSymbolTableRecord
100
AcDbLinetypeTableRecord
  2
DASH_CENTER
 70
     0
  3
Dash_Center
 72
    65
 73
     4
 40
14.0
 49
11.0
 74
     0
 49
-1.0
 74
     0
 49
1.0
 74
     0
 49
-1.0
 74
     0
  0
LTYPE
  5
40
330
5
100
AcDbSymbolTableRecord
100
AcDbLinetypeTableRecord
  2
PHANTOM
 70
     0
  3
Phantom
 72
    65
 73
     6
 40
13.0
 49
10.0
 74
     0
 49
-1.0
 74
     0
 49
0.0
 74
     0
 49
-1.0
 74
     0
 49
0.0
 74
     0
 49
-1.0
 74
     0
  0
LTYPE
  5
41
330
5
100
AcDbSymbolTableRecord
100
AcDbLinetypeTableRecord
  2
CENTER_DASH_DASH
 70
     0
  3
Center_Dash_Dash
 72
    65
 73
     6
 40
14.0
 49
9.0
 74
     0
 49
-1.0
 74
     0
 49
1.0
 74
     0
 49
-1.0
 74
     0
 49
1.0
 74
     0
 49
-1.0
 74
     0
  0
ENDTAB
  0
TABLE
  2
LAYER
  5
2
330
0
100
AcDbSymbolTable
 70
     2
  0
LAYER
  5
10
330
2
100
AcDbSymbolTableRecord
100
AcDbLayerTableRecord
  2
0
 70
     0
 62
     7
  6
Continuous
370
    -3
390
F
  0
LAYER
  5
42
330
2
100
AcDbSymbolTableRecord
100
AcDbLayerTableRecord
  2
1
 70
     0
 62
     7
  6
Continuous
370
    -3
390
F
  0
ENDTAB
  0
TABLE
  2
STYLE
  5
3
330
0
100
AcDbSymbolTable
 70
     2
  0
STYLE
  5
11
330
3
100
AcDbSymbolTableRecord
100
AcDbTextStyleTableRecord
  2
Standard
 70
     0
 40
0.0
 41
1.0
 50
0.0
 71
     0
 42
0.2
  3
txt
  4

  0
STYLE
  5
F8
330
3
100
AcDbSymbolTableRecord
100
AcDbTextStyleTableRecord
  2
CONVERTER_11
 70
     0
 40
0.0
 41
0.72
 50
0.0
 71
     0
 42
0.2
  3
txt.shx
  4

  0
ENDTAB
  0
TABLE
  2
VIEW
  5
6
330
0
100
AcDbSymbolTable
 70
     0
  0
ENDTAB
  0
TABLE
  2
UCS
  5
7
330
0
100
AcDbSymbolTable
 70
     0
  0
ENDTAB
  0
TABLE
  2
APPID
  5
9
330
0
100
AcDbSymbolTable
 70
     1
  0
APPID
  5
12
330
9
100
AcDbSymbolTableRecord
100
AcDbRegAppTableRecord
  2
ACAD
 70
     0
  0
ENDTAB
  0
TABLE
  2
DIMSTYLE
  5
A
330
0
100
AcDbSymbolTable
 70
     7
100
AcDbDimStyleTable
  0
DIMSTYLE
105
27
330
A
100
AcDbSymbolTableRecord
100
AcDbDimStyleTableRecord
  2
Standard
 70
     0
340
11
  0
DIMSTYLE
105
104
102
{ACAD_REACTORS
330
105
102
}
330
A
100
AcDbSymbolTableRecord
100
AcDbDimStyleTableRecord
  2
ME10_DIM_10
 70
     0
  3
<>
 41
3.5
 42
2.0
 44
2.0
 71
     1
 73
     0
 74
     0
 77
     1
 78
     8
140
3.5
146
0.7
147
2.0
172
     1
173
     1
176
     2
177
     2
178
     3
271
     2
272
     0
340
F8
  0
DIMSTYLE
105
10F
102
{ACAD_REACTORS
330
110
102
}
330
A
100
AcDbSymbolTableRecord
100
AcDbDimStyleTableRecord
  2
ME10_DIM_11
 70
     0
  3
<>
 41
3.5
 42
2.0
 44
2.0
 71
     1
 73
     0
 74
     0
 77
     1
 78
     8
140
3.5
146
0.7
147
2.0
172
     1
173
     1
176
     2
177
     2
178
     3
271
     2
272
     0
340
F8
  0
DIMSTYLE
105
11A
102
{ACAD_REACTORS
330
11B
102
}
330
A
100
AcDbSymbolTableRecord
100
AcDbDimStyleTableRecord
  2
ME10_DIM_12
 70
     0
  3
<>
 41
3.5
 42
2.0
 44
2.0
 71
     1
 73
     0
 74
     0
 77
     1
 78
     8
140
3.5
146
0.7
147
2.0
172
     1
173
     1
176
     2
177
     2
178
     3
271
     2
272
     0
340
F8
  0
DIMSTYLE
105
125
102
{ACAD_REACTORS
330
126
102
}
330
A
100
AcDbSymbolTableRecord
100
AcDbDimStyleTableRecord
  2
ME10_DIM_13
 70
     0
  3
<>
 41
3.5
 42
2.0
 44
2.0
 71
     1
 73
     0
 74
     0
 77
     1
 78
     8
140
3.5
146
0.7
147
2.0
172
     1
173
     1
176
     2
177
     2
178
     3
271
     2
272
     0
340
F8
  0
DIMSTYLE
105
130
102
{ACAD_REACTORS
330
131
102
}
330
A
100
AcDbSymbolTableRecord
100
AcDbDimStyleTableRecord
  2
ME10_DIM_14
 70
     0
  3
\U+2300<>
 41
3.5
 42
2.0
 44
2.0
 71
     1
 73
     0
 74
     0
 77
     1
 78
     8
140
3.5
146
0.7
147
2.0
172
     1
173
     1
176
     2
177
     2
178
     3
271
     2
272
     0
340
F8
  0
DIMSTYLE
105
13B
102
{ACAD_REACTORS
330
13C
102
}
330
A
100
AcDbSymbolTableRecord
100
AcDbDimStyleTableRecord
  2
ME10_DIM_15
 70
     0
  3
ER<>
 41
3.5
 42
2.0
 44
2.0
 71
     1
 73
     0
 74
     0
 77
     1
 78
     8
140
3.5
146
0.7
147
2.0
172
     1
173
     1
176
     2
177
     2
178
     3
271
     2
272
     0
340
F8
  0
ENDTAB
  0
TABLE
  2
BLOCK_RECORD
  5
1
330
0
100
AcDbSymbolTable
 70
    10
  0
BLOCK_RECORD
  5
1F
330
1
100
AcDbSymbolTableRecord
100
AcDbBlockTableRecord
  2
*Model_Space
340
22
  0
BLOCK_RECORD
  5
1B
330
1
100
AcDbSymbolTableRecord
100
AcDbBlockTableRecord
  2
*Paper_Space
340
1E
  0
BLOCK_RECORD
  5
23
330
1
100
AcDbSymbolTableRecord
100
AcDbBlockTableRecord
  2
*Paper_Space0
340
26
  0
BLOCK_RECORD
  5
43
330
1
100
AcDbSymbolTableRecord
100
AcDbBlockTableRecord
  2
IGS15
340
0
102
{BLKREFS
331
6E
102
}
  0
BLOCK_RECORD
  5
46
330
1
100
AcDbSymbolTableRecord
100
AcDbBlockTableRecord
  2
A50_Aussen
340
0
102
{BLKREFS
331
6F
102
}
  0
BLOCK_RECORD
  5
49
330
1
100
AcDbSymbolTableRecord
100
AcDbBlockTableRecord
  2
Urheberrecht_DE-EN
340
0
102
{BLKREFS
331
70
102
}
  0
BLOCK_RECORD
  5
FB
330
1
100
AcDbSymbolTableRecord
100
AcDbBlockTableRecord
  2
*D4
340
0
  0
BLOCK_RECORD
  5
106
330
1
100
AcDbSymbolTableRecord
100
AcDbBlockTableRecord
  2
*D5
340
0
  0
BLOCK_RECORD
  5
111
330
1
100
AcDbSymbolTableRecord
100
AcDbBlockTableRecord
  2
*D6
340
0
  0
BLOCK_RECORD
  5
11C
330
1
100
AcDbSymbolTableRecord
100
AcDbBlockTableRecord
  2
*D7
340
0
  0
BLOCK_RECORD
  5
127
330
1
100
AcDbSymbolTableRecord
100
AcDbBlockTableRecord
  2
*D8
340
0
  0
BLOCK_RECORD
  5
132
330
1
100
AcDbSymbolTableRecord
100
AcDbBlockTableRecord
  2
*D9
340
0
  0
ENDTAB
  0
ENDSEC
  0
SECTION
  2
BLOCKS
  0
BLOCK
  5
20
330
1F
100
AcDbEntity
  8
0
100
AcDbBlockBegin
  2
*Model_Space
 70
     0
 10
0.0
 20
0.0
 30
0.0
  3
*Model_Space
  1

  0
ENDBLK
  5
21
330
1F
100
AcDbEntity
  8
0
100
AcDbBlockEnd
  0
BLOCK
  5
1C
330
1B
100
AcDbEntity
 67
     1
  8
0
100
AcDbBlockBegin
  2
*Paper_Space
 70
     0
 10
0.0
 20
0.0
 30
0.0
  3
*Paper_Space
  1

  0
ENDBLK
  5
1D
330
1B
100
AcDbEntity
 67
     1
  8
0
100
AcDbBlockEnd
  0
BLOCK
  5
24
330
23
100
AcDbEntity
  8
0
100
AcDbBlockBegin
  2
*Paper_Space0
 70
     0
 10
0.0
 20
0.0
 30
0.0
  3
*Paper_Space0
  1

  0
ENDBLK
  5
25
330
23
100
AcDbEntity
  8
0
100
AcDbBlockEnd
  0
BLOCK
  5
44
330
43
100
AcDbEntity
  8
0
100
AcDbBlockBegin
  2
IGS15
 70
     0
 10
1.00700000000006
 20
37.88300000000001
 30
0.0
  3
IGS15
  1

  0
LWPOLYLINE
  5
71
330
43
100
AcDbEntity
  8
1
  6
DOT_CENTER
 62
     5
100
AcDbPolyline
 90
        2
 70
     0
 43
0.25
 10
-7.743
 20
23.08300000000003
 10
7.25428571428575
 20
23.08300000000003
  0
LWPOLYLINE
  5
72
330
43
100
AcDbEntity
  8
1
  6
DOT_CENTER
 62
     5
100
AcDbPolyline
 90
        2
 70
     0
 43
0.25
 10
11.007
 20
29.58522772277232
 10
11.007
 20
58.58299999999997
  0
LWPOLYLINE
  5
73
330
43
100
AcDbEntity
  8
1
  6
DOT_CENTER
 62
     5
100
AcDbPolyline
 90
        2
 70
     0
 43
0.25
 10
-7.743
 20
65.08299999999994
 10
7.25325000000003
 20
65.08299999999997
  0
LWPOLYLINE
  5
74
330
43
100
AcDbEntity
  8
1
  6
DOT_CENTER
 62
     5
100
AcDbPolyline
 90
        2
 70
     0
 43
0.25
 10
-8.993
 20
63.83299999999994
 10
-8.993
 20
24.33300000000003
  0
LWPOLYLINE
  5
75
330
43
100
AcDbEntity
  8
1
  6
DOT_CENTER
 62
     5
100
AcDbPolyline
 90
        2
 70
     0
 43
0.25
 10
11.007
 20
58.58299999999997
 10
7.25325000000003
 20
65.08299999999997
  0
LWPOLYLINE
  5
76
330
43
100
AcDbEntity
  8
1
  6
DOT_CENTER
 62
     5
100
AcDbPolyline
 90
        2
 70
     0
 43
0.25
 10
7.25428571428575
 20
23.08300000000003
 10
11.007
 20
29.58522772277232
  0
LWPOLYLINE
  5
77
330
43
100
AcDbEntity
  8
1
  6
DOT_CENTER
 62
     5
100
AcDbPolyline
 90
        2
 70
     0
 43
0.25
 10
-7.743
 20
65.08299999999994
 42
0.4142135623731
 10
-8.993
 20
63.83299999999994
 42
0.4142135623731
  0
LWPOLYLINE
  5
78
330
43
100
AcDbEntity
  8
1
  6
DOT_CENTER
 62
     5
100
AcDbPolyline
 90
        2
 70
     0
 43
0.25
 10
-8.993
 20
24.33300000000003
 42
0.4142135623731
 10
-7.743
 20
23.08300000000003
 42
0.4142135623731
  0
ENDBLK
  5
45
330
43
100
AcDbEntity
  8
0
100
AcDbBlockEnd
  0
BLOCK
  5
47
330
46
100
AcDbEntity
  8
0
100
AcDbBlockBegin
  2
A50_Aussen
 70
     0
 10
-58.993
 20
44.083
 30
0.0
  3
A50_Aussen
  1

  0
POINT
  5
79
330
46
100
AcDbEntity
  8
1
 62
     3
 60
     1
100
AcDbPoint
 10
-1.859
 20
60.083
 30
0.0
  0
POINT
  5
7A
330
46
100
AcDbEntity
  8
1
 62
     3
 60
     1
100
AcDbPoint
 10
-1.859
 20
28.083
 30
0.0
  0
POINT
  5
7B
330
46
100
AcDbEntity
  8
1
 62
     3
 60
     1
100
AcDbPoint
 10
-25.897
 20
53.082
 30
0.0
  0
POINT
  5
7C
330
46
100
AcDbEntity
  8
1
 62
     3
 60
     1
100
AcDbPoint
 10
-29.993
 20
53.082
 30
0.0
  0
POINT
  5
7D
330
46
100
AcDbEntity
  8
1
 62
     3
 60
     1
100
AcDbPoint
 10
-29.993
 20
35.084
 30
0.0
  0
POINT
  5
7E
330
46
100
AcDbEntity
  8
1
 62
     3
 60
     1
100
AcDbPoint
 10
-63.993
 20
25.08293197278911
 30
0.0
  0
POINT
  5
7F
330
46
100
AcDbEntity
  8
1
 62
     3
 60
     1
100
AcDbPoint
 10
-74.993
 20
25.63268253968253
 30
0.0
  0
POINT
  5
80
330
46
100
AcDbEntity
  8
1
 62
     3
 60
     1
100
AcDbPoint
 10
-65.493
 20
63.083
 30
0.0
  0
POINT
  5
81
330
46
100
AcDbEntity
  8
1
 62
     3
 60
     1
100
AcDbPoint
 10
-63.993
 20
63.083
 30
0.0
  0
POINT
  5
82
330
46
100
AcDbEntity
  8
1
 62
     3
 60
     1
100
AcDbPoint
 10
-75.993
 20
62.53331746031751
 30
0.0
  0
POINT
  5
83
330
46
100
AcDbEntity
  8
1
 62
     3
 60
     1
100
AcDbPoint
 10
-74.993
 20
62.53331746031751
 30
0.0
  0
POINT
  5
84
330
46
100
AcDbEntity
  8
1
 62
   250
100
AcDbPoint
 10
-58.993
 20
64.53299999999999
 30
0.0
  0
POINT
  5
85
330
46
100
AcDbEntity
  8
1
 62
   250
100
AcDbPoint
 10
-58.993
 20
25.23299999999999
 30
0.0
  0
LWPOLYLINE
  5
86
330
46
100
AcDbEntity
  8
1
  6
Continuous
 62
     7
100
AcDbPolyline
 90
        2
 70
     0
 43
0.5
 10
-14.993
 20
60.083
 10
-27.993
 20
60.083
  0
LWPOLYLINE
  5
87
330
46
100
AcDbEntity
  8
1
  6
Continuous
 62
     7
100
AcDbPolyline
 90
        2
 70
     0
 43
0.5
 10
-14.993
 20
28.083
 10
-27.993
 20
28.083
  0
LWPOLYLINE
  5
88
330
46
100
AcDbEntity
  8
1
  6
Continuous
 62
     7
100
AcDbPolyline
 90
        2
 70
     0
 43
0.5
 10
-14.993
 20
60.083
 10
-14.993
 20
28.083
  0
LWPOLYLINE
  5
89
330
46
100
AcDbEntity
  8
1
  6
Continuous
 62
     7
100
AcDbPolyline
 90
        2
 70
     0
 43
0.5
 10
-0.993
 20
29.583
 10
-1.859
 20
28.083
  0
LWPOLYLINE
  5
8A
330
46
100
AcDbEntity
  8
1
  6
Continuous
 62
     7
100
AcDbPolyline
 90
        2
 70
     0
 43
0.5
 10
-0.993
 20
58.583
 10
-0.993
 20
29.583
  0
LWPOLYLINE
  5
8B
330
46
100
AcDbEntity
  8
1
  6
Continuous
 62
     7
100
AcDbPolyline
 90
        2
 70
     0
 43
0.5
 10
-0.993
 20
58.583
 10
-1.859
 20
60.083
  0
LWPOLYLINE
  5
8C
330
46
100
AcDbEntity
  8
1
  6
Continuous
 62
     7
100
AcDbPolyline
 90
        2
 70
     0
 43
0.5
 10
-1.859
 20
60.083
 10
-14.993
 20
60.083
  0
LWPOLYLINE
  5
8D
330
46
100
AcDbEntity
  8
1
  6
Continuous
 62
     7
100
AcDbPolyline
 90
        2
 70
     0
 43
0.25
 10
-14.993
 20
59.163
 10
-1.328
 20
59.163
  0
LWPOLYLINE
  5
8E
330
46
100
AcDbEntity
  8
1
  6
Continuous
 62
     7
100
AcDbPolyline
 90
        2
 70
     0
 43
0.25
 10
-1.328
 20
29.003
 10
-14.993
 20
29.003
  0
LWPOLYLINE
  5
8F
330
46
100
AcDbEntity
  8
1
  6
Continuous
 62
     7
100
AcDbPolyline
 90
        2
 70
     0
 43
0.5
 10
-1.859
 20
28.083
 10
-14.993
 20
28.083
  0
LWPOLYLINE
  5
90
330
46
100
AcDbEntity
  8
1
  6
DASHED
 62
     7
100
AcDbPolyline
 90
        2
 70
     0
 43
0.35
 10
-25.897
 20
35.084
 10
-0.993
 20
31.58375302215281
  0
LWPOLYLINE
  5
91
330
46
100
AcDbEntity
  8
1
  6
DASHED
 62
     7
100
AcDbPolyline
 90
        2
 70
     0
 43
0.35
 10
-25.897
 20
53.082
 10
-0.993
 20
56.58224697784718
  0
LWPOLYLINE
  5
92
330
46
100
AcDbEntity
  8
1
  6
DASHED
 62
     7
100
AcDbPolyline
 90
        2
 70
     0
 43
0.35
 10
-29.993
 20
53.082
 10
-25.897
 20
53.082
  0
LWPOLYLINE
  5
93
330
46
100
AcDbEntity
  8
1
  6
DASHED
 62
     7
100
AcDbPolyline
 90
        2
 70
     0
 43
0.35
 10
-25.897
 20
53.082
 10
-25.897
 20
35.084
  0
LWPOLYLINE
  5
94
330
46
100
AcDbEntity
  8
1
  6
DASHED
 62
     7
100
AcDbPolyline
 90
        2
 70
     0
 43
0.35
 10
-29.993
 20
53.082
 10
-29.993
 20
35.084
  0
LWPOLYLINE
  5
95
330
46
100
AcDbEntity
  8
1
  6
DASHED
 62
     7
100
AcDbPolyline
 90
        2
 70
     0
 43
0.35
 10
-29.993
 20
35.084
 10
-25.897
 20
35.084
  0
LWPOLYLINE
  5
96
330
46
100
AcDbEntity
  8
1
  6
Continuous
 62
     7
100
AcDbPolyline
 90
        2
 70
     0
 43
0.5
 10
-42.868
 20
39.473
 10
-39.118
 20
39.473
  0
LWPOLYLINE
  5
97
330
46
100
AcDbEntity
  8
1
  6
Continuous
 62
     7
100
AcDbPolyline
 90
        2
 70
     0
 43
0.5
 10
-42.868
 20
48.69299999999998
 10
-39.118
 20
48.69299999999998
  0
LWPOLYLINE
  5
98
330
46
100
AcDbEntity
  8
1
  6
Continuous
 62
     7
100
AcDbPolyline
 90
        2
 70
     0
 43
0.5
 10
-42.868
 20
50.083
 10
-42.868
 20
48.69299999999998
  0
LWPOLYLINE
  5
99
330
46
100
AcDbEntity
  8
1
  6
Continuous
 62
     7
100
AcDbPolyline
 90
        2
 70
     0
 43
0.5
 10
-39.118
 20
50.083
 10
-39.118
 20
48.69299999999998
  0
LWPOLYLINE
  5
9A
330
46
100
AcDbEntity
  8
1
  6
Continuous
 62
     7
100
AcDbPolyline
 90
        2
 70
     0
 43
0.5
 10
-39.118
 20
39.473
 10
-39.118
 20
21.68599999999999
  0
LWPOLYLINE
  5
9B
330
46
100
AcDbEntity
  8
1
  6
Continuous
 62
     7
100
AcDbPolyline
 90
        2
 70
     0
 43
0.25
 10
-63.993
 20
25.08293197278911
 10
-65.493
 20
25.08293197278911
  0
LWPOLYLINE
  5
9C
330
46
100
AcDbEntity
  8
1
  6
Continuous
 62
     7
100
AcDbPolyline
 90
        2
 70
     0
 43
0.25
 10
-74.993
 20
25.63268253968253
 10
-76.493
 20
25.63268253968253
  0
LWPOLYLINE
  5
9D
330
46
100
AcDbEntity
  8
1
  6
Continuous
 62
     7
100
AcDbPolyline
 90
        2
 70
     0
 43
0.25
 10
-63.993
 20
63.083
 10
-65.493
 20
63.083
  0
LWPOLYLINE
  5
9E
330
46
100
AcDbEntity
  8
1
  6
Continuous
 62
     7
100
AcDbPolyline
 90
        2
 70
     0
 43
0.25
 10
-74.993
 20
62.53331746031751
 10
-75.993
 20
62.53331746031751
  0
LWPOLYLINE
  5
9F
330
46
100
AcDbEntity
  8
1
  6
DOT_CENTER
 62
     7
100
AcDbPolyline
 90
        2
 70
     0
 43
0.25
 10
-86.44400000000002
 20
44.083
 10
4.007
 20
44.083
  0
LWPOLYLINE
  5
A0
330
46
100
AcDbEntity
  8
1
  6
Continuous
 62
     7
100
AcDbPolyline
 90
        2
 70
     0
 43
0.5
 10
-37.61599999999994
 20
19.083
 10
-37.61599999999994
 20
24.47
  0
LWPOLYLINE
  5
A1
330
46
100
AcDbEntity
  8
1
  6
Continuous
 62
     7
100
AcDbPolyline
 90
        2
 70
     0
 43
0.5
 10
-37.61599999999994
 20
28.59599999999999
 10
-37.61599999999994
 20
38.083
  0
LWPOLYLINE
  5
A2
330
46
100
AcDbEntity
  8
1
  6
Continuous
 62
     7
100
AcDbPolyline
 90
        2
 70
     0
 43
0.5
 10
-37.61599999999994
 20
50.083
 10
-37.61599999999994
 20
69.083
  0
LWPOLYLINE
  5
A3
330
46
100
AcDbEntity
  8
1
  6
Continuous
 62
     7
100
AcDbPolyline
 90
        2
 70
     0
 43
0.5
 10
-44.36999999999996
 20
69.083
 10
-44.36999999999996
 20
50.083
  0
LWPOLYLINE
  5
A4
330
46
100
AcDbEntity
  8
1
  6
Continuous
 62
     7
100
AcDbPolyline
 90
        2
 70
     0
 43
0.5
 10
-44.36999999999996
 20
38.083
 10
-44.36999999999996
 20
28.57899999999999
  0
LWPOLYLINE
  5
A5
330
46
100
AcDbEntity
  8
1
  6
Continuous
 62
     7
100
AcDbPolyline
 90
        2
 70
     0
 43
0.5
 10
-44.36999999999996
 20
24.46799999999999
 10
-44.36999999999996
 20
19.083
  0
LWPOLYLINE
  5
A6
330
46
100
AcDbEntity
  8
1
  6
Continuous
 62
     7
100
AcDbPolyline
 90
        2
 70
     0
 43
0.5
 10
-44.36999999999996
 20
24.46799999999999
 10
-51.993
 20
24.46599999999999
  0
LWPOLYLINE
  5
A7
330
46
100
AcDbEntity
  8
1
  6
Continuous
 62
     7
100
AcDbPolyline
 90
        2
 70
     0
 43
0.5
 10
-32.993
 20
24.46799999999999
 10
-37.61599999999994
 20
24.47
  0
LWPOLYLINE
  5
A8
330
46
100
AcDbEntity
  8
1
  6
Continuous
 62
     7
100
AcDbPolyline
 90
        2
 70
     0
 43
0.5
 10
-58.493
 20
69.083
 10
-56.993
 20
69.083
  0
LWPOLYLINE
  5
A9
330
46
100
AcDbEntity
  8
1
  6
Continuous
 62
     7
100
AcDbPolyline
 90
        2
 70
     0
 43
0.5
 10
-46.993
 20
69.083
 10
-44.36999999999996
 20
69.083
  0
LWPOLYLINE
  5
AA
330
46
100
AcDbEntity
  8
1
  6
Continuous
 62
     7
100
AcDbPolyline
 90
        2
 70
     0
 43
0.5
 10
-37.61599999999994
 20
69.083
 10
-32.993
 20
69.083
  0
LWPOLYLINE
  5
AB
330
46
100
AcDbEntity
  8
1
  6
DOT_CENTER
 62
     7
100
AcDbPolyline
 90
        2
 70
     0
 43
0.25
 10
-51.993
 20
71.007
 10
-51.993
 20
61.86500000000001
  0
LWPOLYLINE
  5
AC
330
46
100
AcDbEntity
  8
1
  6
DOT_CENTER
 62
     7
100
AcDbPolyline
 90
        2
 70
     0
 43
0.25
 10
-74.993
 20
65.25299999999999
 10
-74.993
 20
22.863
  0
LWPOLYLINE
  5
AD
330
46
100
AcDbEntity
  8
1
  6
Continuous
 62
     7
100
AcDbPolyline
 90
        2
 70
     0
 43
0.25
 10
-60.62200000000001
 20
62.898
 10
-60.62200000000001
 20
25.232
  0
LWPOLYLINE
  5
AE
330
46
100
AcDbEntity
  8
1
  6
DOT_CENTER
 62
     7
100
AcDbPolyline
 90
        2
 70
     0
 43
0.25
 10
-63.993
 20
65.517
 10
-63.993
 20
22.46799999999999
  0
LWPOLYLINE
  5
AF
330
46
100
AcDbEntity
  8
1
  6
Continuous
 62
     7
100
AcDbPolyline
 90
        2
 70
     0
 43
0.5
 10
-60.993
 20
63.233
 10
-83.04299999999995
 20
62.131
  0
LWPOLYLINE
  5
B0
330
46
100
AcDbEntity
  8
1
  6
Continuous
 62
     7
100
AcDbPolyline
 90
        2
 70
     0
 43
0.5
 10
-58.493
 20
19.083
 10
-44.36999999999996
 20
19.083
  0
LWPOLYLINE
  5
B1
330
46
100
AcDbEntity
  8
1
  6
Continuous
 62
     7
100
AcDbPolyline
 90
        2
 70
     0
 43
0.5
 10
-37.61599999999994
 20
19.083
 10
-32.993
 20
19.083
  0
LWPOLYLINE
  5
B2
330
46
100
AcDbEntity
  8
1
  6
Continuous
 62
     7
100
AcDbPolyline
 90
        2
 70
     0
 43
0.5
 10
-32.993
 20
69.083
 10
-32.993
 20
19.083
  0
LWPOLYLINE
  5
B3
330
46
100
AcDbEntity
  8
1
  6
Continuous
 62
     7
100
AcDbPolyline
 90
        2
 70
     0
 43
0.5
 10
-37.61599999999994
 20
69.083
 10
-39.118
 20
66.47999999999999
  0
LWPOLYLINE
  5
B4
330
46
100
AcDbEntity
  8
1
  6
Continuous
 62
     7
100
AcDbPolyline
 90
        2
 70
     0
 43
0.5
 10
-60.993
 20
24.93299999999999
 10
-83.04299999999995
 20
26.035
  0
LWPOLYLINE
  5
B5
330
46
100
AcDbEntity
  8
1
  6
Continuous
 62
     7
100
AcDbPolyline
 90
        2
 70
     0
 43
0.5
 10
-58.493
 20
69.083
 10
-58.993
 20
68.583
  0
LWPOLYLINE
  5
B6
330
46
100
AcDbEntity
  8
1
  6
Continuous
 62
     7
100
AcDbPolyline
 90
        2
 70
     0
 43
0.5
 10
-58.993
 20
68.583
 10
-58.993
 20
19.583
  0
LWPOLYLINE
  5
B7
330
46
100
AcDbEntity
  8
1
  6
Continuous
 62
     7
100
AcDbPolyline
 90
        2
 70
     0
 43
0.5
 10
-58.993
 20
19.583
 10
-58.493
 20
19.083
  0
LWPOLYLINE
  5
B8
330
46
100
AcDbEntity
  8
1
  6
Continuous
 62
     7
100
AcDbPolyline
 90
        2
 70
     0
 43
0.5
 10
-60.993
 20
24.93299999999999
 10
-60.993
 20
63.233
  0
LWPOLYLINE
  5
B9
330
46
100
AcDbEntity
  8
1
  6
DOT_CENTER
 62
     7
100
AcDbPolyline
 90
        2
 70
     0
 43
0.25
 10
-40.993
 20
69.083
 10
-40.993
 20
19.083
  0
LWPOLYLINE
  5
BA
330
46
100
AcDbEntity
  8
1
  6
Continuous
 62
     7
100
AcDbPolyline
 90
        2
 70
     0
 43
0.5
 10
-46.29699999999998
 20
28.583
 10
-42.868
 20
28.583
  0
LWPOLYLINE
  5
BB
330
46
100
AcDbEntity
  8
1
  6
Continuous
 62
     7
100
AcDbPolyline
 90
        2
 70
     0
 43
0.5
 10
-39.118
 20
28.583
 10
-32.993
 20
28.583
  0
LWPOLYLINE
  5
BC
330
46
100
AcDbEntity
  8
1
  6
Continuous
 62
     7
100
AcDbPolyline
 90
        2
 70
     0
 43
0.5
 10
-83.993
 20
61.13200000000001
 10
-83.993
 20
50.351
  0
LWPOLYLINE
  5
BD
330
46
100
AcDbEntity
  8
1
  6
Continuous
 62
     7
100
AcDbPolyline
 90
        2
 70
     0
 43
0.5
 10
-83.993
 20
37.815
 10
-83.993
 20
27.03399999999999
  0
LWPOLYLINE
  5
BE
330
46
100
AcDbEntity
  8
1
  6
Continuous
 62
     7
100
AcDbPolyline
 90
        2
 70
     0
 43
0.5
 10
-83.993
 20
52.416
 10
-82.993
 20
51.50399999999999
  0
LWPOLYLINE
  5
BF
330
46
100
AcDbEntity
  8
1
  6
Continuous
 62
     7
100
AcDbPolyline
 90
        2
 70
     0
 43
0.5
 10
-82.993
 20
51.50399999999999
 10
-80.65900000000005
 20
51.89699999999999
  0
LWPOLYLINE
  5
C0
330
46
100
AcDbEntity
  8
1
  6
Continuous
 62
     7
100
AcDbPolyline
 90
        2
 70
     0
 43
0.5
 10
-82.993
 20
51.50399999999999
 10
-82.993
 20
49.351
  0
LWPOLYLINE
  5
C1
330
46
100
AcDbEntity
  8
1
  6
Continuous
 62
     7
100
AcDbPolyline
 90
        2
 70
     0
 43
0.5
 10
-82.993
 20
49.351
 10
-83.993
 20
50.351
  0
LWPOLYLINE
  5
C2
330
46
100
AcDbEntity
  8
1
  6
Continuous
 62
     7
100
AcDbPolyline
 90
        2
 70
     0
 43
0.5
 10
-82.993
 20
49.351
 10
-80.993
 20
49.351
  0
LWPOLYLINE
  5
C3
330
46
100
AcDbEntity
  8
1
  6
Continuous
 62
     7
100
AcDbPolyline
 90
        2
 70
     0
 43
0.5
 10
-82.993
 20
38.815
 10
-83.993
 20
37.815
  0
LWPOLYLINE
  5
C4
330
46
100
AcDbEntity
  8
1
  6
Continuous
 62
     7
100
AcDbPolyline
 90
        2
 70
     0
 43
0.5
 10
-80.993
 20
38.815
 10
-82.993
 20
38.815
  0
LWPOLYLINE
  5
C5
330
46
100
AcDbEntity
  8
1
  6
Continuous
 62
     7
100
AcDbPolyline
 90
        2
 70
     0
 43
0.5
 10
-79.493
 20
47.851
 10
-79.493
 20
50.91099999999999
  0
LWPOLYLINE
  5
C6
330
46
100
AcDbEntity
  8
1
  6
Continuous
 62
     7
100
AcDbPolyline
 90
        2
 70
     0
 43
0.5
 10
-79.493
 20
40.315
 10
-79.493
 20
47.851
  0
LWPOLYLINE
  5
C7
330
46
100
AcDbEntity
  8
1
  6
Continuous
 62
     7
100
AcDbPolyline
 90
        2
 70
     0
 43
0.5
 10
-79.493
 20
40.315
 10
-79.493
 20
37.255
  0
LWPOLYLINE
  5
C8
330
46
100
AcDbEntity
  8
1
  6
Continuous
 62
     7
100
AcDbPolyline
 90
        2
 70
     0
 43
0.5
 10
-83.993
 20
35.75
 10
-82.993
 20
36.66199999999999
  0
LWPOLYLINE
  5
C9
330
46
100
AcDbEntity
  8
1
  6
Continuous
 62
     7
100
AcDbPolyline
 90
        2
 70
     0
 43
0.5
 10
-82.993
 20
36.66199999999999
 10
-80.65900000000005
 20
36.26899999999999
  0
LWPOLYLINE
  5
CA
330
46
100
AcDbEntity
  8
1
  6
Continuous
 62
     7
100
AcDbPolyline
 90
        2
 70
     0
 43
0.5
 10
-82.993
 20
36.66199999999999
 10
-82.993
 20
38.815
  0
LWPOLYLINE
  5
CB
330
46
100
AcDbEntity
  8
1
  6
Continuous
 62
     7
100
AcDbPolyline
 90
        2
 70
     0
 43
0.5
 10
-37.61599999999994
 20
19.083
 10
-39.118
 20
21.68599999999999
  0
LWPOLYLINE
  5
CC
330
46
100
AcDbEntity
  8
1
  6
Continuous
 62
     7
100
AcDbPolyline
 90
        2
 70
     0
 43
0.5
 10
-44.36999999999996
 20
69.083
 10
-42.868
 20
66.481
  0
LWPOLYLINE
  5
CD
330
46
100
AcDbEntity
  8
1
  6
Continuous
 62
     7
100
AcDbPolyline
 90
        2
 70
     0
 43
0.5
 10
-42.16799999999996
 20
65.583
 10
-39.81799999999992
 20
65.583
  0
LWPOLYLINE
  5
CE
330
46
100
AcDbEntity
  8
1
  6
Continuous
 62
     7
100
AcDbPolyline
 90
        2
 70
     0
 43
0.5
 10
-44.36999999999996
 20
24.46799999999999
 10
-42.868
 20
27.883
  0
LWPOLYLINE
  5
CF
330
46
100
AcDbEntity
  8
1
  6
Continuous
 62
     7
100
AcDbPolyline
 90
        2
 70
     0
 43
0.5
 10
-39.118
 20
27.91499999999999
 10
-37.61599999999994
 20
24.47
  0
LWPOLYLINE
  5
D0
330
46
100
AcDbEntity
  8
1
  6
Continuous
 62
     7
100
AcDbPolyline
 90
        2
 70
     0
 43
0.5
 10
-42.16799999999996
 20
22.583
 10
-39.81799999999992
 20
22.583
  0
LWPOLYLINE
  5
D1
330
46
100
AcDbEntity
  8
1
  6
Continuous
 62
     7
100
AcDbPolyline
 90
        2
 70
     0
 43
0.5
 10
-44.36999999999996
 20
19.083
 10
-42.868
 20
21.68499999999999
  0
LWPOLYLINE
  5
D2
330
46
100
AcDbEntity
  8
1
  6
Continuous
 62
     7
100
AcDbPolyline
 90
        2
 70
     0
 43
0.5
 10
-39.118
 20
66.47999999999999
 10
-39.118
 20
50.083
  0
LWPOLYLINE
  5
D3
330
46
100
AcDbEntity
  8
1
  6
Continuous
 62
     7
100
AcDbPolyline
 90
        2
 70
     0
 43
0.5
 10
-42.868
 20
66.481
 10
-42.868
 20
50.083
  0
LWPOLYLINE
  5
D4
330
46
100
AcDbEntity
  8
1
  6
Continuous
 62
     7
100
AcDbPolyline
 90
        2
 70
     0
 43
0.5
 10
-42.868
 20
39.473
 10
-42.868
 20
21.68499999999999
  0
LWPOLYLINE
  5
D5
330
46
100
AcDbEntity
  8
1
  6
Continuous
 62
     7
100
AcDbPolyline
 90
        2
 70
     0
 43
0.5
 10
-45.993
 20
50.083
 10
-42.868
 20
50.083
  0
LWPOLYLINE
  5
D6
330
46
100
AcDbEntity
  8
1
  6
Continuous
 62
     7
100
AcDbPolyline
 90
        2
 70
     0
 43
0.5
 10
-39.118
 20
50.083
 10
-32.993
 20
50.083
  0
LWPOLYLINE
  5
D7
330
46
100
AcDbEntity
  8
1
  6
Continuous
 62
     7
100
AcDbPolyline
 90
        2
 70
     0
 43
0.5
 10
-45.993
 20
38.083
 10
-42.868
 20
38.083
  0
LWPOLYLINE
  5
D8
330
46
100
AcDbEntity
  8
1
  6
Continuous
 62
     7
100
AcDbPolyline
 90
        2
 70
     0
 43
0.5
 10
-39.118
 20
38.083
 10
-32.993
 20
38.083
  0
LWPOLYLINE
  5
D9
330
46
100
AcDbEntity
  8
1
  6
DOT_CENTER
 62
     7
100
AcDbPolyline
 90
        2
 70
     0
 43
0.25
 10
-66.493
 20
38.97999999999999
 10
-66.493
 20
49.083
  0
LWPOLYLINE
  5
DA
330
46
100
AcDbEntity
  8
1
  6
DOT_CENTER
 62
     7
100
AcDbPolyline
 90
        2
 70
     0
 43
0.25
 10
-45.993
 20
36.083
 10
-45.993
 20
44.083
  0
LWPOLYLINE
  5
DB
330
46
100
AcDbEntity
  8
1
  6
DOT_CENTER
 62
     7
100
AcDbPolyline
 90
        2
 70
     0
 43
0.25
 10
-45.993
 20
44.083
 10
-45.993
 20
52.083
  0
LWPOLYLINE
  5
DC
330
46
100
AcDbEntity
  8
1
  6
Continuous
 62
     7
100
AcDbPolyline
 90
        2
 70
     0
 43
0.5
 10
-60.993
 20
24.93299999999999
 10
-60.69599999999998
 20
25.01299999999999
  0
LWPOLYLINE
  5
DD
330
46
100
AcDbEntity
  8
1
  6
Continuous
 62
     7
100
AcDbPolyline
 90
        2
 70
     0
 43
0.5
 10
-59.48600000000004
 20
25.03299999999999
 10
-60.54099999999999
 20
25.03299999999999
  0
LWPOLYLINE
  5
DE
330
46
100
AcDbEntity
  8
1
  6
DOT_CENTER
 62
     7
100
AcDbPolyline
 90
        2
 70
     0
 43
0.25
 10
-60.993
 20
24.93299999999999
 10
-59.04099999999999
 20
24.83499999999999
  0
LWPOLYLINE
  5
DF
330
46
100
AcDbEntity
  8
1
  6
Continuous
 62
     7
100
AcDbPolyline
 90
        2
 70
     0
 43
0.5
 10
-60.993
 20
63.233
 10
-60.69599999999998
 20
63.15299999999999
  0
LWPOLYLINE
  5
E0
330
46
100
AcDbEntity
  8
1
  6
Continuous
 62
     7
100
AcDbPolyline
 90
        2
 70
     0
 43
0.5
 10
-59.48600000000004
 20
63.13300000000001
 10
-60.54099999999999
 20
63.13300000000001
  0
LWPOLYLINE
  5
E1
330
46
100
AcDbEntity
  8
1
  6
DOT_CENTER
 62
     7
100
AcDbPolyline
 90
        2
 70
     0
 43
0.25
 10
-60.993
 20
63.233
 10
-59.04099999999999
 20
63.33099999999999
  0
LWPOLYLINE
  5
E2
330
46
100
AcDbEntity
  8
1
  6
Continuous
 62
     7
100
AcDbPolyline
 90
        2
 70
     0
 43
0.5
 10
-46.29699999999998
 20
28.583
 42
0.32347942878768
 10
-51.993
 20
24.46599999999999
 42
0.32347942878768
  0
LWPOLYLINE
  5
E3
330
46
100
AcDbEntity
  8
1
  6
Continuous
 62
     7
100
AcDbPolyline
 90
        2
 70
     0
 43
0.5
 10
-83.04299999999995
 20
62.131
 42
0.3997102533137
 10
-83.993
 20
61.13200000000001
 42
0.3997102533137
  0
LWPOLYLINE
  5
E4
330
46
100
AcDbEntity
  8
1
  6
Continuous
 62
     7
100
AcDbPolyline
 90
        2
 70
     0
 43
0.5
 10
-83.993
 20
27.03399999999999
 42
0.39971025331371
 10
-83.04299999999995
 20
26.035
 42
0.39971025331371
  0
LWPOLYLINE
  5
E5
330
46
100
AcDbEntity
  8
1
  6
Continuous
 62
     7
100
AcDbPolyline
 90
        2
 70
     0
 43
0.5
 10
-79.493
 20
47.851
 42
0.4142135623731
 10
-80.993
 20
49.351
 42
0.4142135623731
  0
LWPOLYLINE
  5
E6
330
46
100
AcDbEntity
  8
1
  6
Continuous
 62
     7
100
AcDbPolyline
 90
        2
 70
     0
 43
0.5
 10
-79.493
 20
50.91099999999999
 42
0.46390946624649
 10
-80.65900000000005
 20
51.89699999999999
 42
0.46390946624649
  0
LWPOLYLINE
  5
E7
330
46
100
AcDbEntity
  8
1
  6
Continuous
 62
     7
100
AcDbPolyline
 90
        2
 70
     0
 43
0.5
 10
-80.993
 20
38.815
 42
0.4142135623731
 10
-79.493
 20
40.315
 42
0.4142135623731
  0
LWPOLYLINE
  5
E8
330
46
100
AcDbEntity
  8
1
  6
Continuous
 62
     7
100
AcDbPolyline
 90
        2
 70
     0
 43
0.5
 10
-80.65900000000005
 20
36.26899999999999
 42
0.46390946624648
 10
-79.493
 20
37.255
 42
0.46390946624648
  0
LWPOLYLINE
  5
E9
330
46
100
AcDbEntity
  8
1
  6
Continuous
 62
     7
100
AcDbPolyline
 90
        2
 70
     0
 43
0.5
 10
-39.81799999999992
 20
65.583
 42
0.41421359728869
 10
-39.118
 20
66.2830000834465
 42
0.41421359728869
  0
LWPOLYLINE
  5
EA
330
46
100
AcDbEntity
  8
1
  6
Continuous
 62
     7
100
AcDbPolyline
 90
        2
 70
     0
 43
0.5
 10
-42.868
 20
66.28299991655348
 42
0.4142135274575
 10
-42.16799999999996
 20
65.583
 42
0.4142135274575
  0
LWPOLYLINE
  5
EB
330
46
100
AcDbEntity
  8
1
  6
Continuous
 62
     7
100
AcDbPolyline
 90
        2
 70
     0
 43
0.5
 10
-39.118
 20
21.88300008344649
 42
0.41421352745751
 10
-39.81799999999992
 20
22.583
 42
0.41421352745751
  0
LWPOLYLINE
  5
EC
330
46
100
AcDbEntity
  8
1
  6
Continuous
 62
     7
100
AcDbPolyline
 90
        2
 70
     0
 43
0.5
 10
-42.16799999999996
 20
22.583
 42
0.41421359728869
 10
-42.868
 20
21.8829999165535
 42
0.41421359728869
  0
LWPOLYLINE
  5
ED
330
46
100
AcDbEntity
  8
1
  6
Continuous
 62
     7
100
AcDbPolyline
 90
        2
 70
     0
 43
0.5
 10
-45.993
 20
50.083
 42
1.0
 10
-45.993
 20
38.083
 42
1.0
  0
LWPOLYLINE
  5
EE
330
46
100
AcDbEntity
  8
1
  6
Continuous
 62
     7
100
AcDbPolyline
 90
        2
 70
     0
 43
0.5
 10
-60.54099999999999
 20
25.03299999999999
 42
0.06539724823504
 10
-60.69599999999998
 20
25.01299999999999
 42
0.06539724823504
  0
LWPOLYLINE
  5
EF
330
46
100
AcDbEntity
  8
1
  6
Continuous
 62
     7
100
AcDbPolyline
 90
        2
 70
     0
 43
0.5
 10
-58.99299946880336
 20
24.77498036193846
 42
0.24586445625291
 10
-59.48600000000004
 20
25.03299999999999
 42
0.24586445625291
  0
LWPOLYLINE
  5
F0
330
46
100
AcDbEntity
  8
1
  6
Continuous
 62
     7
100
AcDbPolyline
 90
        2
 70
     0
 43
0.5
 10
-60.69599999999998
 20
63.15299999999999
 42
0.06539724823504
 10
-60.54099999999999
 20
63.13300000000001
 42
0.06539724823504
  0
LWPOLYLINE
  5
F1
330
46
100
AcDbEntity
  8
1
  6
Continuous
 62
     7
100
AcDbPolyline
 90
        2
 70
     0
 43
0.5
 10
-59.48600000000004
 20
63.13300000000001
 42
0.24586445625289
 10
-58.99299946880336
 20
63.39101963806149
 42
0.24586445625289
  0
LWPOLYLINE
  5
F2
330
46
100
AcDbEntity
  8
1
  6
Continuous
 62
     7
100
AcDbPolyline
 90
        2
 70
     0
 43
0.5
 10
-27.993
 20
28.083
 42
0.4142135623731
 10
-32.993
 20
23.083
 42
0.4142135623731
  0
LWPOLYLINE
  5
F3
330
46
100
AcDbEntity
  8
1
  6
Continuous
 62
     7
100
AcDbPolyline
 90
        2
 70
     0
 43
0.5
 10
-32.99300000000001
 20
65.083
 42
0.4142135623731
 10
-27.993
 20
60.083
 42
0.4142135623731
  0
LWPOLYLINE
  5
F4
330
46
100
AcDbEntity
  8
1
  6
Continuous
 62
     7
100
AcDbPolyline
 90
        2
 70
     1
 43
0.5
 10
-69.993
 20
44.083
 42
1.0
 10
-62.99300000000001
 20
44.083
 42
1.0
  0
LWPOLYLINE
  5
F5
330
46
100
AcDbEntity
  8
1
  6
Continuous
 62
     7
100
AcDbPolyline
 90
        2
 70
     1
 43
0.5
 10
-69.493
 20
44.083
 42
1.0
 10
-63.49300000000001
 20
44.083
 42
1.0
  0
LEADER
  5
F6
330
46
100
AcDbEntity
  8
1
  6
Continuous
 62
     7
100
AcDbLeader
  3
Standard
 71
     0
 76
     1
 10
-51.993
 20
69.083
 30
0.0
  0
LEADER
  5
F7
330
46
100
AcDbEntity
  8
1
  6
Continuous
 62
     7
100
AcDbLeader
  3
Standard
 71
     0
 76
    60
 10
-46.993
 20
69.083
 30
0.0
 10
-47.00008667754305
 20
69.05611899788619
 30
0.0
 10
-47.02132630499109
 20
69.02931449390718
 30
0.0
 10
-47.05665867633621
 20
69.00266216727019
 30
0.0
 10
-47.10598363817093
 20
68.97623756686221
 30
0.0
 10
-47.16916137358516
 20
68.95011559605541
 30
0.0
 10
-47.24601279849168
 20
68.9243703003861
 30
0.0
 10
-47.33632006925955
 20
68.89907465766439
 30
0.0
 10
-47.43982720021558
 20
68.87430037111059
 30
0.0
 10
-47.5562407892624
 20
68.8501176661049
 30
0.0
 10
-47.68523084955923
 20
68.82659509112608
 30
0.0
 10
-47.8264317449046
 20
68.80379932344317
 30
0.0
 10
-47.97944322617144
 20
68.7817949801119
 30
0.0
 10
-48.14383156585648
 20
68.7606444348105
 30
0.0
 10
-48.31913078752751
 20
68.74040764103478
 30
0.0
 10
-48.50484398668351
 20
68.72114196215358
 30
0.0
 10
-48.70044473928413
 20
68.70290200880609
 30
0.0
 10
-48.90537859395516
 20
68.68573948410227
 30
0.0
 10
-49.11906464364046
 20
68.6697030370645
 30
0.0
 10
-49.3408971722459
 20
68.65483812472701
 30
0.0
 10
-49.57024737160617
 20
68.64118688328278
 30
0.0
 10
-49.80646512390997
 20
68.62878800864428
 30
0.0
 10
-50.04888084452801
 20
68.6176766467554
 30
0.0
 10
-50.29680738002326
 20
68.6078842939666
 30
0.0
 10
-50.54954195596127
 20
68.5994387077553
 30
0.0
 10
-50.80636816899954
 20
68.59236382804397
 30
0.0
 10
-51.06655801761002
 20
68.5866797093405
 30
0.0
 10
-51.32937396567803
 20
68.58240246389059
 30
0.0
 10
-51.59407103312725
 20
68.57954421600658
 30
0.0
 10
-51.85989890764638
 20
68.57811306769969
 30
0.0
 10
-52.1261040715296
 20
68.57811307571359
 30
0.0
 10
-52.39193193760394
 20
68.5795442400256
 30
0.0
 10
-52.65662898818761
 20
68.5824025038466
 30
0.0
 10
-52.9194449110168
 20
68.5866797651203
 30
0.0
 10
-53.17963472608717
 20
68.5923638994895
 30
0.0
 10
-53.43646089737872
 20
68.59943879466391
 30
0.0
 10
-53.68919542348198
 20
68.607884396092
 30
0.0
 10
-53.93712190119566
 20
68.6176767638081
 30
0.0
 10
-54.17953755624905
 20
68.6287881402925
 30
0.0
 10
-54.41575523539103
 20
68.64118702915329
 30
0.0
 10
-54.64510535419976
 20
68.6548382844064
 30
0.0
 10
-54.86693779509204
 20
68.6697032101001
 30
0.0
 10
-55.08062375015135
 20
68.68573967000361
 30
0.0
 10
-55.28555750355174
 20
68.70290220704618
 30
0.0
 10
-55.48115814852423
 20
68.72114217217049
 30
0.0
 10
-55.66687123399964
 20
68.74040786223321
 30
0.0
 10
-55.84217033625981
 20
68.7606446665634
 30
0.0
 10
-56.00655855114217
 20
68.7817952217624
 30
0.0
 10
-56.15956990256842
 20
68.80379957430631
 30
0.0
 10
-56.30077066340317
 20
68.8265953504906
 30
0.0
 10
-56.42976058490086
 20
68.8501179332358
 30
0.0
 10
-56.54617403125332
 20
68.87430064525057
 30
0.0
 10
-56.64968101602409
 20
68.89907493803639
 30
0.0
 10
-56.73998813753047
 20
68.92437058619538
 30
0.0
 10
-56.81683941052227
 20
68.9501158864918
 30
0.0
 10
-56.8800169917991
 20
68.97623786110228
 30
0.0
 10
-56.92934179771072
 20
69.00266246448018
 30
0.0
 10
-56.96467401178899
 20
69.0293147932444
 30
0.0
 10
-56.98591348107215
 20
69.05611929850221
 30
0.0
 10
-56.993
 20
69.083
 30
0.0
  0
ENDBLK
  5
48
330
46
100
AcDbEntity
  8
0
100
AcDbBlockEnd
  0
BLOCK
  5
4A
330
49
100
AcDbEntity
  8
0
100
AcDbBlockBegin
  2
Urheberrecht_DE-EN
 70
     0
 10
-94.12870943994264
 20
64.31801785760439
 30
0.0
  3
Urheberrecht_DE-EN
  1

  0
MTEXT
  5
F9
330
49
100
AcDbEntity
  8
1
 62
     1
100
AcDbMText
 10
-94.12870943994264
 20
8.0286309402982
 30
0.0
 40
2.0
 41
0.0
 71
     7
 72
     1
  1
F\U+00fcr diese Unterlage behalten wir das Ur-\Pheberrecht. Sie darf nur f\U+00fcr den von uns \Pbestimmten Zweck benutzt und ohne unsere \PZustimmung weder vervielf\U+00e4ltigt noch\PDritten zug\U+00e4nglich gemacht werden.
  7
CONVERTER_11
 11
0.0
 21
1.0
 31
0.0
 73
     1
 44
0.90036014405762
  0
MTEXT
  5
FA
330
49
100
AcDbEntity
  8
1
 62
     1
100
AcDbMText
 10
-94.12870943994264
 20
64.31801785760439
 30
0.0
 40
2.0
 41
0.0
 71
     7
 72
     1
  1
We own the copyright of this document. It \Pdetermined and may neither be copied or \Pmade accessible to outsiders without our\Ppermission.
  7
CONVERTER_11
 11
0.0
 21
1.0
 31
0.0
 73
     1
 44
0.90036014405762
  0
ENDBLK
  5
4B
330
49
100
AcDbEntity
  8
0
100
AcDbBlockEnd
  0
BLOCK
  5
102
330
FB
100
AcDbEntity
  8
0
100
AcDbBlockBegin
  2
*D4
 70
     1
 10
0.0
 20
0.0
 30
0.0
  3
*D4
  1

  0
LINE
  5
FC
330
FB
100
AcDbEntity
  8
1
  6
Continuous
 62
     2
100
AcDbLine
 10
-0.993
 20
101.332834163348
 30
0.0
 11
-83.993
 21
101.332834163348
 31
0.0
  0
LINE
  5
FD
330
FB
100
AcDbEntity
  8
1
  6
Continuous
 62
     2
100
AcDbLine
 10
-0.99300000000001
 20
60.583
 30
0.0
 11
-0.99300000000001
 21
103.332834163348
 31
0.0
  0
LINE
  5
FE
330
FB
100
AcDbEntity
  8
1
  6
Continuous
 62
     2
100
AcDbLine
 10
-83.993
 20
63.13199999999998
 30
0.0
 11
-83.993
 21
103.332834163348
 31
0.0
  0
SOLID
  5
FF
330
FB
100
AcDbEntity
  8
1
 62
     2
100
AcDbTrace
 10
-4.493
 20
100.8720504217921
 30
0.0
 11
-4.493
 21
101.7936179049039
 31
0.0
 12
-0.993
 22
101.332834163348
 32
0.0
 13
-0.993
 23
101.332834163348
 33
0.0
  0
SOLID
  5
100
330
FB
100
AcDbEntity
  8
1
 62
     2
100
AcDbTrace
 10
-80.493
 20
101.7936179049039
 30
0.0
 11
-80.493
 21
100.8720504217921
 31
0.0
 12
-83.993
 22
101.332834163348
 32
0.0
 13
-83.993
 23
101.332834163348
 33
0.0
  0
MTEXT
  5
101
330
FB
100
AcDbEntity
  8
1
 62
     3
100
AcDbMText
 10
-38.82007588469386
 20
103.332834163348
 30
0.0
 40
3.5
 41
0.0
 71
     7
 72
     1
  1
\C3;\C3;\C3;83\C2;\H2.45;\S^ ;\C3;
  7
CONVERTER_11
 11
0.9999999999970619
 21
2.424068405545306E-6
 31
0.0
 73
     1
 44
0.60024009603842
  0
ENDBLK
  5
103
330
FB
100
AcDbEntity
  8
0
100
AcDbBlockEnd
  0
BLOCK
  5
10D
330
106
100
AcDbEntity
  8
0
100
AcDbBlockBegin
  2
*D5
 70
     1
 10
0.0
 20
0.0
 30
0.0
  3
*D5
  1

  0
LINE
  5
107
330
106
100
AcDbEntity
  8
1
  6
Continuous
 62
     2
100
AcDbLine
 10
11.007
 20
93.8175693893809
 30
0.0
 11
-58.99299999999999
 21
93.8175693893809
 31
0.0
  0
LINE
  5
108
330
106
100
AcDbEntity
  8
1
  6
Continuous
 62
     2
100
AcDbLine
 10
11.007
 20
60.58299999999997
 30
0.0
 11
11.007
 21
95.8175693893809
 31
0.0
  0
LINE
  5
109
330
106
100
AcDbEntity
  8
1
  6
Continuous
 62
     2
100
AcDbLine
 10
-58.99299999999999
 20
70.583
 30
0.0
 11
-58.99299999999999
 21
95.8175693893809
 31
0.0
  0
SOLID
  5
10A
330
106
100
AcDbEntity
  8
1
 62
     2
100
AcDbTrace
 10
7.507
 20
93.35678564782502
 30
0.0
 11
7.507
 21
94.2783531309368
 31
0.0
 12
11.007
 22
93.8175693893809
 32
0.0
 13
11.007
 23
93.8175693893809
 33
0.0
  0
SOLID
  5
10B
330
106
100
AcDbEntity
  8
1
 62
     2
100
AcDbTrace
 10
-55.49299999999999
 20
94.2783531309368
 30
0.0
 11
-55.49299999999999
 21
93.35678564782502
 31
0.0
 12
-58.99299999999999
 22
93.8175693893809
 32
0.0
 13
-58.99299999999999
 23
93.8175693893809
 33
0.0
  0
MTEXT
  5
10C
330
106
100
AcDbEntity
  8
1
 62
     3
100
AcDbMText
 10
-24.36926773915474
 20
95.8175693893809
 30
0.0
 40
3.5
 41
0.0
 71
     7
 72
     1
  1
\C3;\C3;\C3;70\C2;\H2.45;\S^ ;\C3;
  7
CONVERTER_11
 11
0.9999999999970619
 21
2.424068405545306E-6
 31
0.0
 73
     1
 44
0.60024009603842
  0
ENDBLK
  5
10E
330
106
100
AcDbEntity
  8
0
100
AcDbBlockEnd
  0
BLOCK
  5
118
330
111
100
AcDbEntity
  8
0
100
AcDbBlockBegin
  2
*D6
 70
     1
 10
0.0
 20
0.0
 30
0.0
  3
*D6
  1

  0
LINE
  5
112
330
111
100
AcDbEntity
  8
1
  6
Continuous
 62
     2
100
AcDbLine
 10
-0.993
 20
86.0239614756369
 30
0.0
 11
-58.99299999999999
 21
86.0239614756369
 31
0.0
  0
LINE
  5
113
330
111
100
AcDbEntity
  8
1
  6
Continuous
 62
     2
100
AcDbLine
 10
-0.993
 20
60.583
 30
0.0
 11
-0.993
 21
88.0239614756369
 31
0.0
  0
LINE
  5
114
330
111
100
AcDbEntity
  8
1
  6
Continuous
 62
     2
100
AcDbLine
 10
-58.99299999999999
 20
70.583
 30
0.0
 11
-58.99299999999999
 21
88.0239614756369
 31
0.0
  0
SOLID
  5
115
330
111
100
AcDbEntity
  8
1
 62
     2
100
AcDbTrace
 10
-4.493
 20
85.56317773408101
 30
0.0
 11
-4.493
 21
86.48474521719278
 31
0.0
 12
-0.993
 22
86.0239614756369
 32
0.0
 13
-0.993
 23
86.0239614756369
 33
0.0
  0
SOLID
  5
116
330
111
100
AcDbEntity
  8
1
 62
     2
100
AcDbTrace
 10
-55.49299999999999
 20
86.48474521719278
 30
0.0
 11
-55.49299999999999
 21
85.56317773408101
 31
0.0
 12
-58.99299999999999
 22
86.0239614756369
 32
0.0
 13
-58.99299999999999
 23
86.0239614756369
 33
0.0
  0
MTEXT
  5
117
330
111
100
AcDbEntity
  8
1
 62
     3
100
AcDbMText
 10
-30.34482230613736
 20
88.0239614756369
 30
0.0
 40
3.5
 41
0.0
 71
     7
 72
     1
  1
\C3;\C3;\C3;58\C2;\H2.45;\S^ ;\C3;
  7
CONVERTER_11
 11
0.9999999999970619
 21
2.424068405545306E-6
 31
0.0
 73
     1
 44
0.60024009603842
  0
ENDBLK
  5
119
330
111
100
AcDbEntity
  8
0
100
AcDbBlockEnd
  0
BLOCK
  5
123
330
11C
100
AcDbEntity
  8
0
100
AcDbBlockBegin
  2
*D7
 70
     1
 10
0.0
 20
0.0
 30
0.0
  3
*D7
  1

  0
LINE
  5
11D
330
11C
100
AcDbEntity
  8
1
  6
Continuous
 62
     2
100
AcDbLine
 10
-0.993
 20
77.302543095971
 30
0.0
 11
-32.99299999999999
 21
77.302543095971
 31
0.0
  0
LINE
  5
11E
330
11C
100
AcDbEntity
  8
1
  6
Continuous
 62
     2
100
AcDbLine
 10
-0.993
 20
60.583
 30
0.0
 11
-0.993
 21
79.302543095971
 31
0.0
  0
LINE
  5
11F
330
11C
100
AcDbEntity
  8
1
  6
Continuous
 62
     2
100
AcDbLine
 10
-32.99299999999999
 20
71.083
 30
0.0
 11
-32.99299999999999
 21
79.302543095971
 31
0.0
  0
SOLID
  5
120
330
11C
100
AcDbEntity
  8
1
 62
     2
100
AcDbTrace
 10
-4.493
 20
76.84175935441512
 30
0.0
 11
-4.493
 21
77.76332683752689
 31
0.0
 12
-0.993
 22
77.302543095971
 32
0.0
 13
-0.993
 23
77.302543095971
 33
0.0
  0
SOLID
  5
121
330
11C
100
AcDbEntity
  8
1
 62
     2
100
AcDbTrace
 10
-29.49299999999999
 20
77.76332683752689
 30
0.0
 11
-29.49299999999999
 21
76.84175935441512
 31
0.0
 12
-32.99299999999999
 22
77.302543095971
 32
0.0
 13
-32.99299999999999
 23
77.302543095971
 33
0.0
  0
MTEXT
  5
122
330
11C
100
AcDbEntity
  8
1
 62
     3
100
AcDbMText
 10
-19.35521836102232
 20
79.302543095971
 30
0.0
 40
3.5
 41
0.0
 71
     7
 72
     1
  1
\C3;\C3;\C3;32\C2;\H2.45;\S^ ;\C3;
  7
CONVERTER_11
 11
0.9999999999970619
 21
2.424068405545306E-6
 31
0.0
 73
     1
 44
0.60024009603842
  0
ENDBLK
  5
124
330
11C
100
AcDbEntity
  8
0
100
AcDbBlockEnd
  0
BLOCK
  5
12E
330
127
100
AcDbEntity
  8
0
100
AcDbBlockBegin
  2
*D8
 70
     1
 10
0.0
 20
0.0
 30
0.0
  3
*D8
  1

  0
LINE
  5
128
330
127
100
AcDbEntity
  8
1
  6
Continuous
 62
     2
100
AcDbLine
 10
33.0416146129026
 20
23.08300000000003
 30
0.0
 11
33.0416146129026
 21
65.08299999999997
 31
0.0
  0
LINE
  5
129
330
127
100
AcDbEntity
  8
1
  6
Continuous
 62
     2
100
AcDbLine
 10
9.25325000000003
 20
65.08299999999997
 30
0.0
 11
35.0416146129026
 21
65.08299999999997
 31
0.0
  0
LINE
  5
12A
330
127
100
AcDbEntity
  8
1
  6
Continuous
 62
     2
100
AcDbLine
 10
9.25428571428574
 20
23.08300000000003
 30
0.0
 11
35.0416146129026
 21
23.08300000000003
 31
0.0
  0
SOLID
  5
12B
330
127
100
AcDbEntity
  8
1
 62
     2
100
AcDbTrace
 10
32.58083087134671
 20
26.58300000000003
 30
0.0
 11
33.50239835445849
 21
26.58300000000003
 31
0.0
 12
33.0416146129026
 22
23.08300000000003
 32
0.0
 13
33.0416146129026
 23
23.08300000000003
 33
0.0
  0
SOLID
  5
12C
330
127
100
AcDbEntity
  8
1
 62
     2
100
AcDbTrace
 10
33.50239835445849
 20
61.58299999999997
 30
0.0
 11
32.58083087134671
 21
61.58299999999997
 31
0.0
 12
33.0416146129026
 22
65.08299999999997
 32
0.0
 13
33.0416146129026
 23
65.08299999999997
 33
0.0
  0
MTEXT
  5
12D
330
127
100
AcDbEntity
  8
1
 62
     3
100
AcDbMText
 10
31.0416146129026
 20
36.237586838623
 30
0.0
 40
3.5
 41
0.0
 71
     7
 72
     1
  1
\C3;%%c\C3;\C3;42\C2;\H2.45;\S^ ;\C3;
  7
CONVERTER_11
 11
0.0
 21
1.0
 31
0.0
 73
     1
 44
0.60024009603842
  0
ENDBLK
  5
12F
330
127
100
AcDbEntity
  8
0
100
AcDbBlockEnd
  0
BLOCK
  5
139
330
132
100
AcDbEntity
  8
0
100
AcDbBlockBegin
  2
*D9
 70
     1
 10
0.0
 20
0.0
 30
0.0
  3
*D9
  1

  0
LINE
  5
133
330
132
100
AcDbEntity
  8
1
  6
Continuous
 62
     2
100
AcDbLine
 10
23.9245809183765
 20
31.58375302215281
 30
0.0
 11
23.9245809183765
 21
56.58224697784719
 31
0.0
  0
LINE
  5
134
330
132
100
AcDbEntity
  8
1
  6
Continuous
 62
     2
100
AcDbLine
 10
1.007
 20
31.58375302215281
 30
0.0
 11
25.9245809183765
 21
31.58375302215281
 31
0.0
  0
LINE
  5
135
330
132
100
AcDbEntity
  8
1
  6
Continuous
 62
     2
100
AcDbLine
 10
1.007
 20
56.58224697784719
 30
0.0
 11
25.9245809183765
 21
56.58224697784719
 31
0.0
  0
SOLID
  5
136
330
132
100
AcDbEntity
  8
1
 62
     2
100
AcDbTrace
 10
23.46379717682061
 20
35.08375302215281
 30
0.0
 11
24.38536465993239
 21
35.08375302215281
 31
0.0
 12
23.9245809183765
 22
31.58375302215281
 32
0.0
 13
23.9245809183765
 23
31.58375302215281
 33
0.0
  0
SOLID
  5
137
330
132
100
AcDbEntity
  8
1
 62
     2
100
AcDbTrace
 10
24.38536465993238
 20
53.08224697784719
 30
0.0
 11
23.46379717682061
 21
53.08224697784719
 31
0.0
 12
23.9245809183765
 22
56.58224697784719
 32
0.0
 13
23.9245809183765
 23
56.58224697784719
 33
0.0
  0
MTEXT
  5
138
330
132
100
AcDbEntity
  8
1
 62
     3
100
AcDbMText
 10
21.9245809183765
 20
41.51543237419207
 30
0.0
 40
3.5
 41
0.0
 71
     7
 72
     1
  1
\C3;ER\C3;\C3;25\C2;\H2.45;\S^ ;\C3;
  7
CONVERTER_11
 11
0.0
 21
1.0
 31
0.0
 73
     1
 44
0.60024009603842
  0
ENDBLK
  5
13A
330
132
100
AcDbEntity
  8
0
100
AcDbBlockEnd
  0
ENDSEC
  0
SECTION
  2
ENTITIES
  0
INSERT
  5
6E
330
1F
100
AcDbEntity
  8
1
100
AcDbBlockReference
  2
IGS15
 10
1.00700000000006
 20
37.88300000000001
 30
0.0
  0
INSERT
  5
6F
330
1F
100
AcDbEntity
  8
0
100
AcDbBlockReference
  2
A50_Aussen
 10
-58.993
 20
44.083
 30
0.0
  0
INSERT
  5
70
330
1F
100
AcDbEntity
  8
0
100
AcDbBlockReference
  2
Urheberrecht_DE-EN
 10
-94.12870943994264
 20
64.31801785760439
 30
0.0
  0
DIMENSION
  5
105
330
1F
100
AcDbEntity
  8
1
100
AcDbDimension
  2
*D4
 10
-0.993
 20
101.332834163348
 30
0.0
 11
-36.72007588469386
 21
105.082834163348
 31
0.0
 70
    32
  1
<>
 71
     5
 42
-1.0
 53
0.00013888888889
  3
ME10_DIM_10
100
AcDbAlignedDimension
 13
-83.993
 23
61.13200000000001
 33
0.0
 14
-0.993
 24
58.583
 34
0.0
100
AcDbRotatedDimension
  0
DIMENSION
  5
110
330
1F
100
AcDbEntity
  8
1
100
AcDbDimension
  2
*D5
 10
11.007
 20
93.8175693893809
 30
0.0
 11
-22.26926773915474
 21
97.5675693893809
 31
0.0
 70
    32
  1
<>
 71
     5
 42
-1.0
 53
0.00013888888889
  3
ME10_DIM_11
100
AcDbAlignedDimension
 13
-58.993
 23
68.583
 33
0.0
 14
11.007
 24
58.58299999999997
 34
0.0
100
AcDbRotatedDimension
  0
DIMENSION
  5
11B
330
1F
100
AcDbEntity
  8
1
100
AcDbDimension
  2
*D6
 10
-0.993
 20
86.0239614756369
 30
0.0
 11
-28.24482230613736
 21
89.7739614756369
 31
0.0
 70
    32
  1
<>
 71
     5
 42
-1.0
 53
0.00013888888889
  3
ME10_DIM_12
100
AcDbAlignedDimension
 13
-58.993
 23
68.583
 33
0.0
 14
-0.993
 24
58.583
 34
0.0
100
AcDbRotatedDimension
  0
DIMENSION
  5
126
330
1F
100
AcDbEntity
  8
1
100
AcDbDimension
  2
*D7
 10
-0.993
 20
77.302543095971
 30
0.0
 11
-17.25521836102232
 21
81.052543095971
 31
0.0
 70
    32
  1
<>
 71
     5
 42
-1.0
 53
0.00013888888889
  3
ME10_DIM_13
100
AcDbAlignedDimension
 13
-32.993
 23
69.083
 33
0.0
 14
-0.993
 24
58.583
 34
0.0
100
AcDbRotatedDimension
  0
DIMENSION
  5
131
330
1F
100
AcDbEntity
  8
1
100
AcDbDimension
  2
*D8
 10
33.0416146129026
 20
23.08300000000003
 30
0.0
 11
29.2916146129026
 21
45.092586838623
 31
0.0
 70
    32
  1
<>
 71
     5
 42
-1.0
 53
90.0
  3
ME10_DIM_14
100
AcDbAlignedDimension
 13
7.25325000000003
 23
65.08299999999997
 33
0.0
 14
7.25428571428575
 24
23.08300000000003
 34
0.0
 50
90.0
100
AcDbRotatedDimension
  0
DIMENSION
  5
13C
330
1F
100
AcDbEntity
  8
1
100
AcDbDimension
  2
*D9
 10
23.9245809183765
 20
31.58375302215281
 30
0.0
 11
20.1745809183765
 21
46.10043237419207
 31
0.0
 70
    32
  1
<>
 71
     5
 42
-1.0
 53
90.0
  3
ME10_DIM_15
100
AcDbAlignedDimension
 13
-0.993
 23
56.58224697784718
 33
0.0
 14
-0.993
 24
31.58375302215281
 34
0.0
 50
90.0
100
AcDbRotatedDimension
  0
ENDSEC
  0
SECTION
  2
OBJECTS
  0
DICTIONARY
  5
C
330
0
100
AcDbDictionary
281
     1
  3
ACAD_GROUP
350
D
  3
ACAD_LAYOUT
350
1A
  3
ACAD_MLEADERSTYLE
350
13F
  3
ACAD_MLINESTYLE
350
17
  3
ACAD_PLOTSETTINGS
350
19
  3
ACAD_PLOTSTYLENAME
350
E
  3
ACAD_SCALELIST
350
4C
  3
ACAD_VISUALSTYLE
350
2A
  3
AcDbVariableDictionary
350
13D
  0
DICTIONARY
  5
D
102
{ACAD_REACTORS
330
C
102
}
330
C
100
AcDbDictionary
281
     1
  0
DICTIONARY
  5
1A
102
{ACAD_REACTORS
330
C
102
}
330
C
100
AcDbDictionary
281
     1
  3
Layout1
350
1E
  3
Layout2
350
26
  3
Model
350
22
  0
DICTIONARY
  5
13F
102
{ACAD_REACTORS
330
C
102
}
330
C
100
AcDbDictionary
281
     1
  0
DICTIONARY
  5
17
102
{ACAD_REACTORS
330
C
102
}
330
C
100
AcDbDictionary
281
     1
  3
Standard
350
18
  0
DICTIONARY
  5
19
102
{ACAD_REACTORS
330
C
102
}
330
C
100
AcDbDictionary
281
     1
  0
ACDBDICTIONARYWDFLT
  5
E
102
{ACAD_REACTORS
330
C
102
}
330
C
100
AcDbDictionary
281
     1
  3
Normal
350
F
100
AcDbDictionaryWithDefault
340
F
  0
DICTIONARY
  5
4C
102
{ACAD_REACTORS
330
C
102
}
330
C
100
AcDbDictionary
281
     1
  3
A0
350
4D
  3
A1
350
4E
  3
A2
350
4F
  3
A3
350
50
  3
A4
350
51
  3
A5
350
52
  3
A6
350
53
  3
A7
350
54
  3
A8
350
55
  3
A9
350
56
  3
B0
350
57
  3
B1
350
58
  3
B2
350
59
  3
B3
350
5A
  3
B4
350
5B
  3
B5
350
5C
  3
B6
350
5D
  3
B7
350
5E
  3
B8
350
5F
  3
B9
350
60
  3
C0
350
61
  3
C1
350
62
  3
C2
350
63
  3
C3
350
64
  3
C4
350
65
  3
C5
350
66
  3
C6
350
67
  3
C7
350
68
  3
C8
350
69
  3
C9
350
6A
  3
D0
350
6B
  3
D1
350
6C
  3
D2
350
6D
  0
DICTIONARY
  5
2A
102
{ACAD_REACTORS
330
C
102
}
330
C
100
AcDbDictionary
281
     1
  3
2dWireframe
350
2F
  3
3D Hidden
350
31
  3
3dWireframe
350
30
  3
Basic
350
32
  3
Brighten
350
36
  3
ColorChange
350
3A
  3
Conceptual
350
34
  3
Dim
350
35
  3
Facepattern
350
39
  3
Flat
350
2B
  3
FlatWithEdges
350
2C
  3
Gouraud
350
2D
  3
GouraudWithEdges
350
2E
  3
Linepattern
350
38
  3
Realistic
350
33
  3
Thicken
350
37
  0
DICTIONARY
  5
13D
102
{ACAD_REACTORS
330
C
102
}
330
C
100
AcDbDictionary
281
     1
  3
CANNOSCALE
350
140
  0
LAYOUT
  5
1E
102
{ACAD_REACTORS
330
1A
102
}
330
1A
100
AcDbPlotSettings
  1

  2
none_device
  4

  6

 40
0.0
 41
0.0
 42
0.0
 43
0.0
 44
0.0
 45
0.0
 46
0.0
 47
0.0
 48
0.0
 49
0.0
140
0.0
141
0.0
142
1.0
143
1.0
 70
   688
 72
     0
 73
     0
 74
     5
  7

 75
    16
147
1.0
148
0.0
149
0.0
100
AcDbLayout
  1
Layout1
 70
     1
 71
     1
 10
0.0
 20
0.0
 11
12.0
 21
9.0
 12
0.0
 22
0.0
 32
0.0
 14
1.00000000000000E+20
 24
1.00000000000000E+20
 34
1.00000000000000E+20
 15
-1.00000000000000E+20
 25
-1.00000000000000E+20
 35
-1.00000000000000E+20
146
0.0
 13
0.0
 23
0.0
 33
0.0
 16
1.0
 26
0.0
 36
0.0
 17
0.0
 27
1.0
 37
0.0
 76
     0
330
1B
  0
LAYOUT
  5
26
102
{ACAD_REACTORS
330
1A
102
}
330
1A
100
AcDbPlotSettings
  1

  2
none_device
  4

  6

 40
0.0
 41
0.0
 42
0.0
 43
0.0
 44
0.0
 45
0.0
 46
0.0
 47
0.0
 48
0.0
 49
0.0
140
0.0
141
0.0
142
1.0
143
1.0
 70
   688
 72
     0
 73
     0
 74
     5
  7

 75
    16
147
1.0
148
0.0
149
0.0
100
AcDbLayout
  1
Layout2
 70
     1
 71
     2
 10
0.0
 20
0.0
 11
0.0
 21
0.0
 12
0.0
 22
0.0
 32
0.0
 14
0.0
 24
0.0
 34
0.0
 15
0.0
 25
0.0
 35
0.0
146
0.0
 13
0.0
 23
0.0
 33
0.0
 16
1.0
 26
0.0
 36
0.0
 17
0.0
 27
1.0
 37
0.0
 76
     0
330
23
  0
LAYOUT
  5
22
102
{ACAD_REACTORS
330
1A
102
}
330
1A
100
AcDbPlotSettings
  1

  2
none_device
  4

  6

 40
0.0
 41
0.0
 42
0.0
 43
0.0
 44
0.0
 45
0.0
 46
0.0
 47
0.0
 48
0.0
 49
0.0
140
0.0
141
0.0
142
1.0
143
1.0
 70
  1712
 72
     0
 73
     0
 74
     0
  7

 75
     0
147
1.0
148
0.0
149
0.0
100
AcDbLayout
  1
Model
 70
     1
 71
     0
 10
0.0
 20
0.0
 11
12.0
 21
9.0
 12
0.0
 22
0.0
 32
0.0
 14
-108.1287094399426
 24
8.0286309402982
 34
0.0
 15
35.0416146129026
 25
116.7980178576044
 35
0.0
146
0.0
 13
0.0
 23
0.0
 33
0.0
 16
1.0
 26
0.0
 36
0.0
 17
0.0
 27
1.0
 37
0.0
 76
     0
330
1F
331
29
  0
MLINESTYLE
  5
18
102
{ACAD_REACTORS
330
17
102
}
330
17
100
AcDbMlineStyle
  2
Standard
 70
     0
  3

 62
   256
 51
90.0
 52
90.0
 71
     2
 49
0.5
 62
   256
  6
BYLAYER
 49
-0.5
 62
   256
  6
BYLAYER
  0
ACDBPLACEHOLDER
  5
F
102
{ACAD_REACTORS
330
E
102
}
330
E
  0
SCALE
  5
4D
102
{ACAD_REACTORS
330
4C
102
}
330
4C
100
AcDbScale
 70
     0
300
1:1
140
1.0
141
1.0
290
     1
  0
SCALE
  5
4E
102
{ACAD_REACTORS
330
4C
102
}
330
4C
100
AcDbScale
 70
     0
300
1:2
140
1.0
141
2.0
290
     0
  0
SCALE
  5
4F
102
{ACAD_REACTORS
330
4C
102
}
330
4C
100
AcDbScale
 70
     0
300
1:4
140
1.0
141
4.0
290
     0
  0
SCALE
  5
50
102
{ACAD_REACTORS
330
4C
102
}
330
4C
100
AcDbScale
 70
     0
300
1:5
140
1.0
141
5.0
290
     0
  0
SCALE
  5
51
102
{ACAD_REACTORS
330
4C
102
}
330
4C
100
AcDbScale
 70
     0
300
1:8
140
1.0
141
8.0
290
     0
  0
SCALE
  5
52
102
{ACAD_REACTORS
330
4C
102
}
330
4C
100
AcDbScale
 70
     0
300
1:10
140
1.0
141
10.0
290
     0
  0
SCALE
  5
53
102
{ACAD_REACTORS
330
4C
102
}
330
4C
100
AcDbScale
 70
     0
300
1:16
140
1.0
141
16.0
290
     0
  0
SCALE
  5
54
102
{ACAD_REACTORS
330
4C
102
}
330
4C
100
AcDbScale
 70
     0
300
1:20
140
1.0
141
20.0
290
     0
  0
SCALE
  5
55
102
{ACAD_REACTORS
330
4C
102
}
330
4C
100
AcDbScale
 70
     0
300
1:30
140
1.0
141
30.0
290
     0
  0
SCALE
  5
56
102
{ACAD_REACTORS
330
4C
102
}
330
4C
100
AcDbScale
 70
     0
300
1:40
140
1.0
141
40.0
290
     0
  0
SCALE
  5
57
102
{ACAD_REACTORS
330
4C
102
}
330
4C
100
AcDbScale
 70
     0
300
1:50
140
1.0
141
50.0
290
     0
  0
SCALE
  5
58
102
{ACAD_REACTORS
330
4C
102
}
330
4C
100
AcDbScale
 70
     0
300
1:100
140
1.0
141
100.0
290
     0
  0
SCALE
  5
59
102
{ACAD_REACTORS
330
4C
102
}
330
4C
100
AcDbScale
 70
     0
300
2:1
140
2.0
141
1.0
290
     0
  0
SCALE
  5
5A
102
{ACAD_REACTORS
330
4C
102
}
330
4C
100
AcDbScale
 70
     0
300
4:1
140
4.0
141
1.0
290
     0
  0
SCALE
  5
5B
102
{ACAD_REACTORS
330
4C
102
}
330
4C
100
AcDbScale
 70
     0
300
8:1
140
8.0
141
1.0
290
     0
  0
SCALE
  5
5C
102
{ACAD_REACTORS
330
4C
102
}
330
4C
100
AcDbScale
 70
     0
300
10:1
140
10.0
141
1.0
290
     0
  0
SCALE
  5
5D
102
{ACAD_REACTORS
330
4C
102
}
330
4C
100
AcDbScale
 70
     0
300
100:1
140
100.0
141
1.0
290
     0
  0
SCALE
  5
5E
102
{ACAD_REACTORS
330
4C
102
}
330
4C
100
AcDbScale
 70
     0
300
1/128" = 1'-0"
140
0.0078125
141
12.0
290
     0
  0
SCALE
  5
5F
102
{ACAD_REACTORS
330
4C
102
}
330
4C
100
AcDbScale
 70
     0
300
1/64" = 1'-0"
140
0.015625
141
12.0
290
     0
  0
SCALE
  5
60
102
{ACAD_REACTORS
330
4C
102
}
330
4C
100
AcDbScale
 70
     0
300
1/32" = 1'-0"
140
0.03125
141
12.0
290
     0
  0
SCALE
  5
61
102
{ACAD_REACTORS
330
4C
102
}
330
4C
100
AcDbScale
 70
     0
300
1/16" = 1'-0"
140
0.0625
141
12.0
290
     0
  0
SCALE
  5
62
102
{ACAD_REACTORS
330
4C
102
}
330
4C
100
AcDbScale
 70
     0
300
3/32" = 1'-0"
140
0.09375
141
12.0
290
     0
  0
SCALE
  5
63
102
{ACAD_REACTORS
330
4C
102
}
330
4C
100
AcDbScale
 70
     0
300
1/8" = 1'-0"
140
0.125
141
12.0
290
     0
  0
SCALE
  5
64
102
{ACAD_REACTORS
330
4C
102
}
330
4C
100
AcDbScale
 70
     0
300
3/16" = 1'-0"
140
0.1875
141
12.0
290
     0
  0
SCALE
  5
65
102
{ACAD_REACTORS
330
4C
102
}
330
4C
100
AcDbScale
 70
     0
300
1/4" = 1'-0"
140
0.25
141
12.0
290
     0
  0
SCALE
  5
66
102
{ACAD_REACTORS
330
4C
102
}
330
4C
100
AcDbScale
 70
     0
300
3/8" = 1'-0"
140
0.375
141
12.0
290
     0
  0
SCALE
  5
67
102
{ACAD_REACTORS
330
4C
102
}
330
4C
100
AcDbScale
 70
     0
300
1/2" = 1'-0"
140
0.5
141
12.0
290
     0
  0
SCALE
  5
68
102
{ACAD_REACTORS
330
4C
102
}
330
4C
100
AcDbScale
 70
     0
300
3/4" = 1'-0"
140
0.75
141
12.0
290
     0
  0
SCALE
  5
69
102
{ACAD_REACTORS
330
4C
102
}
330
4C
100
AcDbScale
 70
     0
300
1" = 1'-0"
140
1.0
141
12.0
290
     0
  0
SCALE
  5
6A
102
{ACAD_REACTORS
330
4C
102
}
330
4C
100
AcDbScale
 70
     0
300
1-1/2" = 1'-0"
140
1.5
141
12.0
290
     0
  0
SCALE
  5
6B
102
{ACAD_REACTORS
330
4C
102
}
330
4C
100
AcDbScale
 70
     0
300
3" = 1'-0"
140
3.0
141
12.0
290
     0
  0
SCALE
  5
6C
102
{ACAD_REACTORS
330
4C
102
}
330
4C
100
AcDbScale
 70
     0
300
6" = 1'-0"
140
6.0
141
12.0
290
     0
  0
SCALE
  5
6D
102
{ACAD_REACTORS
330
4C
102
}
330
4C
100
AcDbScale
 70
     0
300
1'-0" = 1'-0"
140
12.0
141
12.0
290
     0
  0
VISUALSTYLE
  5
2F
102
{ACAD_REACTORS
330
2A
102
}
330
2A
100
AcDbVisualStyle
  2
2dWireframe
 70
     4
 71
     0
 72
     2
 73
     0
 90
        0
 40
-0.6
 41
-30.0
 62
     5
 63
     7
 74
     1
 91
        4
 64
     7
 65
   257
 75
     1
175
     1
 42
1.0
 92
        0
 66
   257
 43
1.0
 76
     1
 77
     6
 78
     2
 67
     7
 79
     5
170
     0
171
     0
290
     0
174
     0
 93
        1
 44
0.0
173
     0
291
     0
 45
0.0
1001
ACAD
1000
AcDbSavedByObjectVersion
1070
     0
  0
VISUALSTYLE
  5
31
102
{ACAD_REACTORS
330
2A
102
}
330
2A
100
AcDbVisualStyle
  2
3D Hidden
 70
     6
 71
     1
 72
     2
 73
     2
 90
        0
 40
-0.6
 41
-30.0
 62
     5
 63
     7
 74
     2
 91
        2
 64
     7
 65
   257
 75
     2
175
     1
 42
40.0
 92
        0
 66
   257
 43
1.0
 76
     1
 77
     6
 78
     2
 67
     7
 79
     3
170
     0
171
     0
290
     0
174
     0
 93
        1
 44
0.0
173
     0
291
     0
 45
0.0
1001
ACAD
1000
AcDbSavedByObjectVersion
1070
     0
  0
VISUALSTYLE
  5
30
102
{ACAD_REACTORS
330
2A
102
}
330
2A
100
AcDbVisualStyle
  2
3dWireframe
 70
     5
 71
     0
 72
     2
 73
     0
 90
        0
 40
-0.6
 41
-30.0
 62
     5
 63
     7
 74
     1
 91
        4
 64
     7
 65
   257
 75
     1
175
     1
 42
1.0
 92
        0
 66
   257
 43
1.0
 76
     1
 77
     6
 78
     2
 67
     7
 79
     5
170
     0
171
     0
290
     0
174
     0
 93
        1
 44
0.0
173
     0
291
     0
 45
0.0
1001
ACAD
1000
AcDbSavedByObjectVersion
1070
     0
  0
VISUALSTYLE
  5
32
102
{ACAD_REACTORS
330
2A
102
}
330
2A
100
AcDbVisualStyle
  2
Basic
 70
     7
 71
     1
 72
     0
 73
     1
 90
        0
 40
-0.6
 41
-30.0
 62
     5
 63
     7
 74
     0
 91
        4
 64
     7
 65
   257
 75
     1
175
     1
 42
1.0
 92
        8
 66
     7
 43
1.0
 76
     1
 77
     6
 78
     2
 67
     7
 79
     5
170
     0
171
     0
290
     0
174
     0
 93
        1
 44
0.0
173
     0
291
     1
 45
0.0
1001
ACAD
1000
AcDbSavedByObjectVersion
1070
     0
  0
VISUALSTYLE
  5
36
102
{ACAD_REACTORS
330
2A
102
}
330
2A
100
AcDbVisualStyle
  2
Brighten
 70
    12
 71
     2
 72
     2
 73
     0
 90
        0
 40
-0.6
 41
-30.0
 62
     5
 63
     7
 74
     1
 91
        4
 64
     7
 65
   257
 75
     1
175
     1
 42
1.0
 92
        8
 66
     7
 43
1.0
 76
     1
 77
     6
 78
     2
 67
     7
 79
     5
170
     0
171
     0
290
     0
174
     0
 93
        1
 44
50.0
173
     0
291
     1
 45
0.0
1001
ACAD
1000
AcDbSavedByObjectVersion
1070
     0
  0
VISUALSTYLE
  5
3A
102
{ACAD_REACTORS
330
2A
102
}
330
2A
100
AcDbVisualStyle
  2
ColorChange
 70
    16
 71
     2
 72
     2
 73
     3
 90
        0
 40
-0.6
 41
-30.0
 62
     5
 63
     8
 74
     1
 91
        4
 64
     7
 65
   257
 75
     1
175
     1
 42
1.0
 92
        8
 66
     8
 43
1.0
 76
     1
 77
     6
 78
     2
 67
     7
 79
     5
170
     0
171
     0
290
     0
174
     0
 93
        1
 44
0.0
173
     0
291
     1
 45
0.0
1001
ACAD
1000
AcDbSavedByObjectVersion
1070
     0
  0
VISUALSTYLE
  5
34
102
{ACAD_REACTORS
330
2A
102
}
330
2A
100
AcDbVisualStyle
  2
Conceptual
 70
     9
 71
     3
 72
     2
 73
     0
 90
        0
 40
-0.6
 41
-30.0
 62
     5
 63
     7
 74
     2
 91
        2
 64
     7
 65
   257
 75
     1
175
     1
 42
40.0
 92
        8
 66
     7
 43
1.0
 76
     1
 77
     6
 78
     2
 67
     7
 79
     3
170
     0
171
     0
290
     0
174
     0
 93
        1
 44
0.0
173
     0
291
     0
 45
0.0
1001
ACAD
1000
AcDbSavedByObjectVersion
1070
     0
  0
VISUALSTYLE
  5
35
102
{ACAD_REACTORS
330
2A
102
}
330
2A
100
AcDbVisualStyle
  2
Dim
 70
    11
 71
     2
 72
     2
 73
     0
 90
        0
 40
-0.6
 41
-30.0
 62
     5
 63
     7
 74
     1
 91
        4
 64
     7
 65
   257
 75
     1
175
     1
 42
1.0
 92
        8
 66
     7
 43
1.0
 76
     1
 77
     6
 78
     2
 67
     7
 79
     5
170
     0
171
     0
290
     0
174
     0
 93
        1
 44
-50.0
173
     0
291
     1
 45
0.0
1001
ACAD
1000
AcDbSavedByObjectVersion
1070
     0
  0
VISUALSTYLE
  5
39
102
{ACAD_REACTORS
330
2A
102
}
330
2A
100
AcDbVisualStyle
  2
Facepattern
 70
    15
 71
     2
 72
     2
 73
     0
 90
        0
 40
-0.6
 41
-30.0
 62
     5
 63
     7
 74
     1
 91
        4
 64
     7
 65
   257
 75
     1
175
     1
 42
1.0
 92
        8
 66
     7
 43
1.0
 76
     1
 77
     6
 78
     2
 67
     7
 79
     5
170
     0
171
     0
290
     0
174
     0
 93
        1
 44
0.0
173
     0
291
     1
 45
0.0
1001
ACAD
1000
AcDbSavedByObjectVersion
1070
     0
  0
VISUALSTYLE
  5
2B
102
{ACAD_REACTORS
330
2A
102
}
330
2A
100
AcDbVisualStyle
  2
Flat
 70
     0
 71
     2
 72
     1
 73
     1
 90
        2
 40
-0.6
 41
30.0
 62
     5
 63
     7
 74
     0
 91
        4
 64
     7
 65
   257
 75
     1
175
     1
 42
1.0
 92
        8
 66
     7
 43
1.0
 76
     1
 77
     6
 78
     2
 67
     7
 79
     5
170
     0
171
     0
290
     0
174
     0
 93
       13
 44
0.0
173
     0
291
     1
 45
0.0
1001
ACAD
1000
AcDbSavedByObjectVersion
1070
     0
  0
VISUALSTYLE
  5
2C
102
{ACAD_REACTORS
330
2A
102
}
330
2A
100
AcDbVisualStyle
  2
FlatWithEdges
 70
     1
 71
     2
 72
     1
 73
     1
 90
        2
 40
-0.6
 41
30.0
 62
     5
 63
     7
 74
     1
 91
        4
 64
     7
 65
   257
 75
     1
175
     1
 42
1.0
 92
        0
 66
   257
 43
1.0
 76
     1
 77
     6
 78
     2
 67
     7
 79
     5
170
     0
171
     0
290
     0
174
     0
 93
       13
 44
0.0
173
     0
291
     1
 45
0.0
1001
ACAD
1000
AcDbSavedByObjectVersion
1070
     0
  0
VISUALSTYLE
  5
2D
102
{ACAD_REACTORS
330
2A
102
}
330
2A
100
AcDbVisualStyle
  2
Gouraud
 70
     2
 71
     2
 72
     2
 73
     1
 90
        2
 40
-0.6
 41
30.0
 62
     5
 63
     7
 74
     0
 91
        4
 64
     7
 65
   257
 75
     1
175
     1
 42
1.0
 92
        0
 66
     7
 43
1.0
 76
     1
 77
     6
 78
     2
 67
     7
 79
     5
170
     0
171
     0
290
     0
174
     0
 93
       13
 44
0.0
173
     0
291
     1
 45
0.0
1001
ACAD
1000
AcDbSavedByObjectVersion
1070
     0
  0
VISUALSTYLE
  5
2E
102
{ACAD_REACTORS
330
2A
102
}
330
2A
100
AcDbVisualStyle
  2
GouraudWithEdges
 70
     3
 71
     2
 72
     2
 73
     1
 90
        2
 40
-0.6
 41
30.0
 62
     5
 63
     7
 74
     1
 91
        4
 64
     7
 65
   257
 75
     1
175
     1
 42
1.0
 92
        0
 66
   257
 43
1.0
 76
     1
 77
     6
 78
     2
 67
     7
 79
     5
170
     0
171
     0
290
     0
174
     0
 93
       13
 44
0.0
173
     0
291
     1
 45
0.0
1001
ACAD
1000
AcDbSavedByObjectVersion
1070
     0
  0
VISUALSTYLE
  5
38
102
{ACAD_REACTORS
330
2A
102
}
330
2A
100
AcDbVisualStyle
  2
Linepattern
 70
    14
 71
     2
 72
     2
 73
     0
 90
        0
 40
-0.6
 41
-30.0
 62
     5
 63
     7
 74
     1
 91
        4
 64
     7
 65
   257
 75
     7
175
     7
 42
1.0
 92
        8
 66
     7
 43
1.0
 76
     1
 77
     6
 78
     2
 67
     7
 79
     5
170
     0
171
     0
290
     0
174
     0
 93
        1
 44
0.0
173
     0
291
     1
 45
0.0
1001
ACAD
1000
AcDbSavedByObjectVersion
1070
     0
  0
VISUALSTYLE
  5
33
102
{ACAD_REACTORS
330
2A
102
}
330
2A
100
AcDbVisualStyle
  2
Realistic
 70
     8
 71
     2
 72
     2
 73
     0
 90
        0
 40
-0.6
 41
-30.0
 62
     5
 63
     7
 74
     1
 91
        0
 64
     7
 65
   257
 75
     1
175
     1
 42
1.0
 92
        8
 66
     8
 43
1.0
 76
     1
 77
     6
 78
     2
 67
     7
 79
     5
170
     0
171
     0
290
     0
174
     0
 93
       13
 44
0.0
173
     0
291
     0
 45
0.0
1001
ACAD
1000
AcDbSavedByObjectVersion
1070
     0
  0
VISUALSTYLE
  5
37
102
{ACAD_REACTORS
330
2A
102
}
330
2A
100
AcDbVisualStyle
  2
Thicken
 70
    13
 71
     2
 72
     2
 73
     0
 90
        0
 40
-0.6
 41
-30.0
 62
     5
 63
     7
 74
     1
 91
        4
 64
     7
 65
   257
 75
     1
175
     1
 42
1.0
 92
       12
 66
     7
 43
1.0
 76
     1
 77
     6
 78
     2
 67
     7
 79
     5
170
     0
171
     0
290
     0
174
     0
 93
        1
 44
0.0
173
     0
291
     1
 45
0.0
1001
ACAD
1000
AcDbSavedByObjectVersion
1070
     0
  0
DICTIONARYVAR
  5
140
102
{ACAD_REACTORS
330
13D
102
}
330
13D
100
DictionaryVariables
280
     0
  1
1:1
  0
ENDSEC
  0
EOF
