  0
SECTION
  2
HEADER
  9
$ACADVER
  1
AC1015
  9
$ACADMAINTVER
 70
     6
  9
$DWGCODEPAGE
  3
ANSI_1252
  9
$INSBASE
 10
0.0
 20
0.0
 30
0.0
  9
$EXTMIN
 10
-81.7651238035252
 20
7.9957428220577
 30
0.0
  9
$EXTMAX
 10
45.2411949992117
 20
116.7651297393639
 30
0.0
  9
$LIMMIN
 10
0.0
 20
0.0
  9
$LIMMAX
 10
12.0
 20
9.0
  9
$ORTHOMODE
 70
     0
  9
$REGENMODE
 70
     1
  9
$FILLMODE
 70
     1
  9
$QTEXTMODE
 70
     0
  9
$MIRRTEXT
 70
     1
  9
$LTSCALE
 40
1.0
  9
$ATTMODE
 70
     1
  9
$TEXTSIZE
 40
0.2
  9
$TRACEWID
 40
0.05
  9
$TEXTSTYLE
  7
Standard
  9
$CLAYER
  8
0
  9
$CELTYPE
  6
ByLayer
  9
$CECOLOR
 62
   256
  9
$CELTSCALE
 40
1.0
  9
$DISPSILH
 70
     0
  9
$DIMSCALE
 40
1.0
  9
$DIMASZ
 40
0.18
  9
$DIMEXO
 40
0.0625
  9
$DIMDLI
 40
0.38
  9
$DIMRND
 40
0.0
  9
$DIMDLE
 40
0.0
  9
$DIMEXE
 40
0.18
  9
$DIMTP
 40
0.0
  9
$DIMTM
 40
0.0
  9
$DIMTXT
 40
0.18
  9
$DIMCEN
 40
0.09
  9
$DIMTSZ
 40
0.0
  9
$DIMTOL
 70
     0
  9
$DIMLIM
 70
     0
  9
$DIMTIH
 70
     1
  9
$DIMTOH
 70
     1
  9
$DIMSE1
 70
     0
  9
$DIMSE2
 70
     0
  9
$DIMTAD
 70
     0
  9
$DIMZIN
 70
     0
  9
$DIMBLK
  1

  9
$DIMASO
 70
     1
  9
$DIMSHO
 70
     1
  9
$DIMPOST
  1

  9
$DIMAPOST
  1

  9
$DIMALT
 70
     0
  9
$DIMALTD
 70
     2
  9
$DIMALTF
 40
25.4
  9
$DIMLFAC
 40
1.0
  9
$DIMTOFL
 70
     0
  9
$DIMTVP
 40
0.0
  9
$DIMTIX
 70
     0
  9
$DIMSOXD
 70
     0
  9
$DIMSAH
 70
     0
  9
$DIMBLK1
  1

  9
$DIMBLK2
  1

  9
$DIMSTYLE
  2
Standard
  9
$DIMCLRD
 70
     0
  9
$DIMCLRE
 70
     0
  9
$DIMCLRT
 70
     0
  9
$DIMTFAC
 40
1.0
  9
$DIMGAP
 40
0.09
  9
$DIMJUST
 70
     0
  9
$DIMSD1
 70
     0
  9
$DIMSD2
 70
     0
  9
$DIMTOLJ
 70
     1
  9
$DIMTZIN
 70
     0
  9
$DIMALTZ
 70
     0
  9
$DIMALTTZ
 70
     0
  9
$DIMUPT
 70
     0
  9
$DIMDEC
 70
     4
  9
$DIMTDEC
 70
     4
  9
$DIMALTU
 70
     2
  9
$DIMALTTD
 70
     2
  9
$DIMTXSTY
  7
Standard
  9
$DIMAUNIT
 70
     0
  9
$DIMADEC
 70
     0
  9
$DIMALTRND
 40
0.0
  9
$DIMAZIN
 70
     0
  9
$DIMDSEP
 70
    46
  9
$DIMATFIT
 70
     3
  9
$DIMFRAC
 70
     0
  9
$DIMLDRBLK
  1

  9
$DIMLUNIT
 70
     2
  9
$DIMLWD
 70
    -2
  9
$DIMLWE
 70
    -2
  9
$DIMTMOVE
 70
     0
  9
$LUNITS
 70
     2
  9
$LUPREC
 70
     4
  9
$SKETCHINC
 40
0.1
  9
$FILLETRAD
 40
0.5
  9
$AUNITS
 70
     0
  9
$AUPREC
 70
     0
  9
$MENU
  1
.
  9
$ELEVATION
 40
0.0
  9
$PELEVATION
 40
0.0
  9
$THICKNESS
 40
0.0
  9
$LIMCHECK
 70
     0
  9
$CHAMFERA
 40
0.5
  9
$CHAMFERB
 40
0.5
  9
$CHAMFERC
 40
1.0
  9
$CHAMFERD
 40
0.0
  9
$SKPOLY
 70
     0
  9
$TDCREATE
 40
2455897.701635301
  9
$TDUCREATE
 40
2455897.659968634
  9
$TDUPDATE
 40
2455897.701635312
  9
$TDUUPDATE
 40
2455897.659968646
  9
$TDINDWG
 40
0.0000000116
  9
$TDUSRTIMER
 40
0.0000000116
  9
$USRTIMER
 70
     1
  9
$ANGBASE
 50
0.0
  9
$ANGDIR
 70
     0
  9
$PDMODE
 70
     0
  9
$PDSIZE
 40
0.0
  9
$PLINEWID
 40
0.0
  9
$SPLFRAME
 70
     0
  9
$SPLINETYPE
 70
     6
  9
$SPLINESEGS
 70
     8
  9
$HANDSEED
  5
15F
  9
$SURFTAB1
 70
     6
  9
$SURFTAB2
 70
     6
  9
$SURFTYPE
 70
     6
  9
$SURFU
 70
     6
  9
$SURFV
 70
     6
  9
$UCSBASE
  2

  9
$UCSNAME
  2

  9
$UCSORG
 10
0.0
 20
0.0
 30
0.0
  9
$UCSXDIR
 10
1.0
 20
0.0
 30
0.0
  9
$UCSYDIR
 10
0.0
 20
1.0
 30
0.0
  9
$UCSORTHOREF
  2

  9
$UCSORTHOVIEW
 70
     0
  9
$UCSORGTOP
 10
0.0
 20
0.0
 30
0.0
  9
$UCSORGBOTTOM
 10
0.0
 20
0.0
 30
0.0
  9
$UCSORGLEFT
 10
0.0
 20
0.0
 30
0.0
  9
$UCSORGRIGHT
 10
0.0
 20
0.0
 30
0.0
  9
$UCSORGFRONT
 10
0.0
 20
0.0
 30
0.0
  9
$UCSORGBACK
 10
0.0
 20
0.0
 30
0.0
  9
$PUCSBASE
  2

  9
$PUCSNAME
  2

  9
$PUCSORG
 10
0.0
 20
0.0
 30
0.0
  9
$PUCSXDIR
 10
1.0
 20
0.0
 30
0.0
  9
$PUCSYDIR
 10
0.0
 20
1.0
 30
0.0
  9
$PUCSORTHOREF
  2

  9
$PUCSORTHOVIEW
 70
     0
  9
$PUCSORGTOP
 10
0.0
 20
0.0
 30
0.0
  9
$PUCSORGBOTTOM
 10
0.0
 20
0.0
 30
0.0
  9
$PUCSORGLEFT
 10
0.0
 20
0.0
 30
0.0
  9
$PUCSORGRIGHT
 10
0.0
 20
0.0
 30
0.0
  9
$PUCSORGFRONT
 10
0.0
 20
0.0
 30
0.0
  9
$PUCSORGBACK
 10
0.0
 20
0.0
 30
0.0
  9
$USERI1
 70
     0
  9
$USERI2
 70
     0
  9
$USERI3
 70
     0
  9
$USERI4
 70
     0
  9
$USERI5
 70
     0
  9
$USERR1
 40
16.5
  9
$USERR2
 40
0.0
  9
$USERR3
 40
0.0
  9
$USERR4
 40
0.0
  9
$USERR5
 40
0.0
  9
$WORLDVIEW
 70
     1
  9
$SHADEDGE
 70
     3
  9
$SHADEDIF
 70
    70
  9
$TILEMODE
 70
     1
  9
$MAXACTVP
 70
    64
  9
$PINSBASE
 10
0.0
 20
0.0
 30
0.0
  9
$PLIMCHECK
 70
     0
  9
$PEXTMIN
 10
1.00000000000000E+20
 20
1.00000000000000E+20
 30
1.00000000000000E+20
  9
$PEXTMAX
 10
-1.00000000000000E+20
 20
-1.00000000000000E+20
 30
-1.00000000000000E+20
  9
$PLIMMIN
 10
0.0
 20
0.0
  9
$PLIMMAX
 10
12.0
 20
9.0
  9
$UNITMODE
 70
     0
  9
$VISRETAIN
 70
     1
  9
$PLINEGEN
 70
     0
  9
$PSLTSCALE
 70
     1
  9
$TREEDEPTH
 70
  3020
  9
$CMLSTYLE
  2
Standard
  9
$CMLJUST
 70
     0
  9
$CMLSCALE
 40
1.0
  9
$PROXYGRAPHICS
 70
     1
  9
$MEASUREMENT
 70
     1
  9
$CELWEIGHT
370
    -1
  9
$ENDCAPS
280
     0
  9
$JOINSTYLE
280
     0
  9
$LWDISPLAY
290
     0
  9
$INSUNITS
 70
     1
  9
$HYPERLINKBASE
  1

  9
$STYLESHEET
  1

  9
$XEDIT
290
     1
  9
$CEPSNTYPE
380
     0
  9
$PSTYLEMODE
290
     1
  9
$FINGERPRINTGUID
  2
{EC6AF935-8C44-4D6E-8A58-4FD3A71B2CCC}
  9
$VERSIONGUID
  2
{FAEB1C32-E019-11D5-929B-00C0DF256EC4}
  9
$EXTNAMES
290
     1
  9
$PSVPSCALE
 40
0.0
  9
$OLESTARTUP
290
     0
  0
ENDSEC
  0
SECTION
  2
CLASSES
  0
CLASS
  1
ACDBDICTIONARYWDFLT
  2
AcDbDictionaryWithDefault
  3
ObjectDBX Classes
 90
        0
280
     0
281
     0
  0
CLASS
  1
VISUALSTYLE
  2
AcDbVisualStyle
  3
ObjectDBX Classes
 90
     4095
280
     0
281
     0
  0
CLASS
  1
SCALE
  2
AcDbScale
  3
ObjectDBX Classes
 90
     1153
280
     0
281
     0
  0
CLASS
  1

  2
exOdDbPolyline
  3

 90
        0
280
     0
281
     1
  0
CLASS
  1
DICTIONARYVAR
  2
AcDbDictionaryVar
  3
ObjectDBX Classes
 90
        0
280
     0
281
     0
  0
CLASS
  1
ACDBPLACEHOLDER
  2
AcDbPlaceHolder
  3
ObjectDBX Classes
 90
        0
280
     0
281
     0
  0
CLASS
  1
LAYOUT
  2
AcDbLayout
  3
ObjectDBX Classes
 90
        0
280
     0
281
     0
  0
ENDSEC
  0
SECTION
  2
TABLES
  0
TABLE
  2
VPORT
  5
8
330
0
100
AcDbSymbolTable
 70
     1
  0
VPORT
  5
29
330
8
100
AcDbSymbolTableRecord
100
AcDbViewportTableRecord
  2
*Active
 70
     0
 10
0.0
 20
0.0
 11
1.0
 21
1.0
 12
-18.26196440215675
 22
62.3804362807108
 13
0.0
 23
0.0
 14
0.5
 24
0.5
 15
0.5
 25
0.5
 16
0.0
 26
0.0
 36
1.0
 17
0.0
 27
0.0
 37
0.0
 40
119.6463256090368
 41
1.60267857142857
 42
50.0
 43
0.0
 44
0.0
 50
0.0
 51
0.0
 71
     0
 72
   100
 73
     1
 74
     3
 75
     0
 76
     0
 77
     0
 78
     0
281
     0
 65
     1
110
0.0
120
0.0
130
0.0
111
1.0
121
0.0
131
0.0
112
0.0
122
1.0
132
0.0
 79
     0
146
0.0
  0
ENDTAB
  0
TABLE
  2
LTYPE
  5
5
330
0
100
AcDbSymbolTable
 70
     8
  0
LTYPE
  5
14
330
5
100
AcDbSymbolTableRecord
100
AcDbLinetypeTableRecord
  2
ByBlock
 70
     0
  3

 72
    65
 73
     0
 40
0.0
  0
LTYPE
  5
15
330
5
100
AcDbSymbolTableRecord
100
AcDbLinetypeTableRecord
  2
ByLayer
 70
     0
  3

 72
    65
 73
     0
 40
0.0
  0
LTYPE
  5
16
330
5
100
AcDbSymbolTableRecord
100
AcDbLinetypeTableRecord
  2
Continuous
 70
     0
  3
Solid line
 72
    65
 73
     0
 40
0.0
  0
LTYPE
  5
3B
330
5
100
AcDbSymbolTableRecord
100
AcDbLinetypeTableRecord
  2
DASHED
 70
     0
  3
Dashed
 72
    65
 73
     2
 40
15.0
 49
7.0
 74
     0
 49
-8.0
 74
     0
  0
LTYPE
  5
3C
330
5
100
AcDbSymbolTableRecord
100
AcDbLinetypeTableRecord
  2
DOTTED
 70
     0
  3
Dotted
 72
    65
 73
     2
 40
1.0
 49
0.0
 74
     0
 49
-1.0
 74
     0
  0
LTYPE
  5
3D
330
5
100
AcDbSymbolTableRecord
100
AcDbLinetypeTableRecord
  2
DOT_CENTER
 70
     0
  3
Dot_Center
 72
    65
 73
     4
 40
14.0
 49
12.0
 74
     0
 49
-1.0
 74
     0
 49
0.0
 74
     0
 49
-1.0
 74
     0
  0
LTYPE
  5
3E
330
5
100
AcDbSymbolTableRecord
100
AcDbLinetypeTableRecord
  2
LONG_DASHED
 70
     0
  3
Long_Dashed
 72
    65
 73
     2
 40
15.0
 49
10.0
 74
     0
 49
-5.0
 74
     0
  0
LTYPE
  5
3F
330
5
100
AcDbSymbolTableRecord
100
AcDbLinetypeTableRecord
  2
DASH_CENTER
 70
     0
  3
Dash_Center
 72
    65
 73
     4
 40
14.0
 49
11.0
 74
     0
 49
-1.0
 74
     0
 49
1.0
 74
     0
 49
-1.0
 74
     0
  0
LTYPE
  5
40
330
5
100
AcDbSymbolTableRecord
100
AcDbLinetypeTableRecord
  2
PHANTOM
 70
     0
  3
Phantom
 72
    65
 73
     6
 40
13.0
 49
10.0
 74
     0
 49
-1.0
 74
     0
 49
0.0
 74
     0
 49
-1.0
 74
     0
 49
0.0
 74
     0
 49
-1.0
 74
     0
  0
LTYPE
  5
41
330
5
100
AcDbSymbolTableRecord
100
AcDbLinetypeTableRecord
  2
CENTER_DASH_DASH
 70
     0
  3
Center_Dash_Dash
 72
    65
 73
     6
 40
14.0
 49
9.0
 74
     0
 49
-1.0
 74
     0
 49
1.0
 74
     0
 49
-1.0
 74
     0
 49
1.0
 74
     0
 49
-1.0
 74
     0
  0
ENDTAB
  0
TABLE
  2
LAYER
  5
2
330
0
100
AcDbSymbolTable
 70
     2
  0
LAYER
  5
10
330
2
100
AcDbSymbolTableRecord
100
AcDbLayerTableRecord
  2
0
 70
     0
 62
     7
  6
Continuous
370
    -3
390
F
  0
LAYER
  5
42
330
2
100
AcDbSymbolTableRecord
100
AcDbLayerTableRecord
  2
1
 70
     0
 62
     7
  6
Continuous
370
    -3
390
F
  0
ENDTAB
  0
TABLE
  2
STYLE
  5
3
330
0
100
AcDbSymbolTable
 70
     2
  0
STYLE
  5
11
330
3
100
AcDbSymbolTableRecord
100
AcDbTextStyleTableRecord
  2
Standard
 70
     0
 40
0.0
 41
1.0
 50
0.0
 71
     0
 42
0.2
  3
txt
  4

  0
STYLE
  5
116
330
3
100
AcDbSymbolTableRecord
100
AcDbTextStyleTableRecord
  2
CONVERTER_11
 70
     0
 40
0.0
 41
0.72
 50
0.0
 71
     0
 42
0.2
  3
txt.shx
  4

  0
ENDTAB
  0
TABLE
  2
VIEW
  5
6
330
0
100
AcDbSymbolTable
 70
     0
  0
ENDTAB
  0
TABLE
  2
UCS
  5
7
330
0
100
AcDbSymbolTable
 70
     0
  0
ENDTAB
  0
TABLE
  2
APPID
  5
9
330
0
100
AcDbSymbolTable
 70
     1
  0
APPID
  5
12
330
9
100
AcDbSymbolTableRecord
100
AcDbRegAppTableRecord
  2
ACAD
 70
     0
  0
ENDTAB
  0
TABLE
  2
DIMSTYLE
  5
A
330
0
100
AcDbSymbolTable
 70
     7
100
AcDbDimStyleTable
  0
DIMSTYLE
105
27
330
A
100
AcDbSymbolTableRecord
100
AcDbDimStyleTableRecord
  2
Standard
 70
     0
340
11
  0
DIMSTYLE
105
122
102
{ACAD_REACTORS
330
123
102
}
330
A
100
AcDbSymbolTableRecord
100
AcDbDimStyleTableRecord
  2
ME10_DIM_10
 70
     0
  3
ER<>
 41
3.5
 42
2.0
 44
2.0
 71
     1
 73
     0
 74
     0
 77
     1
 78
     8
140
3.5
146
0.7
147
2.0
172
     1
173
     1
176
     2
177
     2
178
     3
271
     2
272
     0
340
116
  0
DIMSTYLE
105
12D
102
{ACAD_REACTORS
330
12E
102
}
330
A
100
AcDbSymbolTableRecord
100
AcDbDimStyleTableRecord
  2
ME10_DIM_11
 70
     0
  3
\U+2300<>
 41
3.5
 42
2.0
 44
2.0
 71
     1
 73
     0
 74
     0
 77
     1
 78
     8
140
3.5
146
0.7
147
2.0
172
     1
173
     1
176
     2
177
     2
178
     3
271
     2
272
     0
340
116
  0
DIMSTYLE
105
138
102
{ACAD_REACTORS
330
139
102
}
330
A
100
AcDbSymbolTableRecord
100
AcDbDimStyleTableRecord
  2
ME10_DIM_12
 70
     0
  3
<>
 41
3.5
 42
2.0
 44
2.0
 71
     1
 73
     0
 74
     0
 77
     1
 78
     8
140
3.5
146
0.7
147
2.0
172
     1
173
     1
176
     2
177
     2
178
     3
271
     2
272
     0
340
116
  0
DIMSTYLE
105
143
102
{ACAD_REACTORS
330
144
102
}
330
A
100
AcDbSymbolTableRecord
100
AcDbDimStyleTableRecord
  2
ME10_DIM_13
 70
     0
  3
<>
 41
3.5
 42
2.0
 44
2.0
 71
     1
 73
     0
 74
     0
 77
     1
 78
     8
140
3.5
146
0.7
147
2.0
172
     1
173
     1
176
     2
177
     2
178
     3
271
     2
272
     0
340
116
  0
DIMSTYLE
105
14E
102
{ACAD_REACTORS
330
14F
102
}
330
A
100
AcDbSymbolTableRecord
100
AcDbDimStyleTableRecord
  2
ME10_DIM_14
 70
     0
  3
<>
 41
3.5
 42
2.0
 44
2.0
 71
     1
 73
     0
 74
     0
 77
     1
 78
     8
140
3.5
146
0.7
147
2.0
172
     1
173
     1
176
     2
177
     2
178
     3
271
     2
272
     0
340
116
  0
DIMSTYLE
105
159
102
{ACAD_REACTORS
330
15A
102
}
330
A
100
AcDbSymbolTableRecord
100
AcDbDimStyleTableRecord
  2
ME10_DIM_15
 70
     0
  3
<>
 41
3.5
 42
2.0
 44
2.0
 71
     1
 73
     0
 74
     0
 77
     1
 78
     8
140
3.5
146
0.7
147
2.0
172
     1
173
     1
176
     2
177
     2
178
     3
271
     2
272
     0
340
116
  0
ENDTAB
  0
TABLE
  2
BLOCK_RECORD
  5
1
330
0
100
AcDbSymbolTable
 70
    11
  0
BLOCK_RECORD
  5
1F
330
1
100
AcDbSymbolTableRecord
100
AcDbBlockTableRecord
  2
*Model_Space
340
22
  0
BLOCK_RECORD
  5
1B
330
1
100
AcDbSymbolTableRecord
100
AcDbBlockTableRecord
  2
*Paper_Space
340
1E
  0
BLOCK_RECORD
  5
23
330
1
100
AcDbSymbolTableRecord
100
AcDbBlockTableRecord
  2
*Paper_Space0
340
26
  0
BLOCK_RECORD
  5
43
330
1
100
AcDbSymbolTableRecord
100
AcDbBlockTableRecord
  2
A40_Aussen
340
0
102
{BLKREFS
331
69
102
}
  0
BLOCK_RECORD
  5
46
330
1
100
AcDbSymbolTableRecord
100
AcDbBlockTableRecord
  2
IGS24
340
0
102
{BLKREFS
331
72
102
}
  0
BLOCK_RECORD
  5
6C
330
1
100
AcDbSymbolTableRecord
100
AcDbBlockTableRecord
  2
IGS31
340
0
102
{BLKREFS
331
73
102
}
  0
BLOCK_RECORD
  5
6F
330
1
100
AcDbSymbolTableRecord
100
AcDbBlockTableRecord
  2
Urheberrecht_DE-EN
340
0
102
{BLKREFS
331
74
102
}
  0
BLOCK_RECORD
  5
119
330
1
100
AcDbSymbolTableRecord
100
AcDbBlockTableRecord
  2
*D5
340
0
  0
BLOCK_RECORD
  5
124
330
1
100
AcDbSymbolTableRecord
100
AcDbBlockTableRecord
  2
*D6
340
0
  0
BLOCK_RECORD
  5
12F
330
1
100
AcDbSymbolTableRecord
100
AcDbBlockTableRecord
  2
*D7
340
0
  0
BLOCK_RECORD
  5
13A
330
1
100
AcDbSymbolTableRecord
100
AcDbBlockTableRecord
  2
*D8
340
0
  0
BLOCK_RECORD
  5
145
330
1
100
AcDbSymbolTableRecord
100
AcDbBlockTableRecord
  2
*D9
340
0
  0
BLOCK_RECORD
  5
150
330
1
100
AcDbSymbolTableRecord
100
AcDbBlockTableRecord
  2
*D10
340
0
  0
ENDTAB
  0
ENDSEC
  0
SECTION
  2
BLOCKS
  0
BLOCK
  5
20
330
1F
100
AcDbEntity
  8
0
100
AcDbBlockBegin
  2
*Model_Space
 70
     0
 10
0.0
 20
0.0
 30
0.0
  3
*Model_Space
  1

  0
ENDBLK
  5
21
330
1F
100
AcDbEntity
  8
0
100
AcDbBlockEnd
  0
BLOCK
  5
1C
330
1B
100
AcDbEntity
 67
     1
  8
0
100
AcDbBlockBegin
  2
*Paper_Space
 70
     0
 10
0.0
 20
0.0
 30
0.0
  3
*Paper_Space
  1

  0
ENDBLK
  5
1D
330
1B
100
AcDbEntity
 67
     1
  8
0
100
AcDbBlockEnd
  0
BLOCK
  5
24
330
23
100
AcDbEntity
  8
0
100
AcDbBlockBegin
  2
*Paper_Space0
 70
     0
 10
0.0
 20
0.0
 30
0.0
  3
*Paper_Space0
  1

  0
ENDBLK
  5
25
330
23
100
AcDbEntity
  8
0
100
AcDbBlockEnd
  0
BLOCK
  5
44
330
43
100
AcDbEntity
  8
0
100
AcDbBlockBegin
  2
A40_Aussen
 70
     0
 10
-38.993
 20
44.083
 30
0.0
  3
A40_Aussen
  1

  0
POINT
  5
75
330
43
100
AcDbEntity
  8
1
 62
   250
100
AcDbPoint
 10
-38.993
 20
29.98299999999998
 30
0.0
  0
POINT
  5
76
330
43
100
AcDbEntity
  8
1
 62
   250
100
AcDbPoint
 10
-38.993
 20
60.18299999999999
 30
0.0
  0
LWPOLYLINE
  5
77
330
43
100
AcDbEntity
  8
1
  6
DOT_CENTER
 62
     7
100
AcDbPolyline
 90
        2
 70
     0
 43
0.25
 10
-31.993
 20
65.75799999999998
 10
-31.993
 20
20.577
  0
LWPOLYLINE
  5
78
330
43
100
AcDbEntity
  8
1
  6
DOT_CENTER
 62
     7
100
AcDbPolyline
 90
        2
 70
     0
 43
0.25
 10
-37.10999999999997
 20
24.953
 10
-26.50200000000002
 20
24.953
  0
LWPOLYLINE
  5
79
330
43
100
AcDbEntity
  8
1
  6
DOT_CENTER
 62
     7
100
AcDbPolyline
 90
        2
 70
     0
 43
0.25
 10
-20.97199999999994
 20
24.953
 10
-18.99300000000001
 20
24.953
  0
LWPOLYLINE
  5
7A
330
43
100
AcDbEntity
  8
1
  6
Continuous
 62
     7
100
AcDbPolyline
 90
        2
 70
     0
 43
0.5
 10
-38.493
 20
64.083
 10
-38.993
 20
63.583
  0
LWPOLYLINE
  5
7B
330
43
100
AcDbEntity
  8
1
  6
Continuous
 62
     7
100
AcDbPolyline
 90
        2
 70
     0
 43
0.5
 10
-38.993
 20
63.583
 10
-38.993
 20
24.583
  0
LWPOLYLINE
  5
7C
330
43
100
AcDbEntity
  8
1
  6
Continuous
 62
     7
100
AcDbPolyline
 90
        2
 70
     0
 43
0.5
 10
-38.993
 20
24.583
 10
-38.493
 20
24.083
  0
LWPOLYLINE
  5
7D
330
43
100
AcDbEntity
  8
1
  6
Continuous
 62
     7
100
AcDbPolyline
 90
        2
 70
     0
 43
0.5
 10
-18.99300000000001
 20
32.083
 10
-26.52100000000003
 20
32.083
  0
LWPOLYLINE
  5
7E
330
43
100
AcDbEntity
  8
1
  6
Continuous
 62
     7
100
AcDbPolyline
 90
        2
 70
     0
 43
0.5
 10
-18.99300000000001
 20
28.083
 10
-20.97199999999994
 20
28.083
  0
LWPOLYLINE
  5
7F
330
43
100
AcDbEntity
  8
1
  6
Continuous
 62
     7
100
AcDbPolyline
 90
        2
 70
     0
 43
0.5
 10
-25.01399999999997
 20
28.083
 10
-30.993
 20
28.083
  0
LWPOLYLINE
  5
80
330
43
100
AcDbEntity
  8
1
  6
Continuous
 62
     7
100
AcDbPolyline
 90
        2
 70
     0
 43
0.5
 10
-21.99300000000001
 20
25.98299999999998
 10
-21.99300000000001
 20
30.357
  0
LWPOLYLINE
  5
81
330
43
100
AcDbEntity
  8
1
  6
Continuous
 62
     7
100
AcDbPolyline
 90
        2
 70
     0
 43
0.5
 10
-21.99300000000001
 20
32.083
 10
-21.99300000000001
 20
39.583
  0
LWPOLYLINE
  5
82
330
43
100
AcDbEntity
  8
1
  6
Continuous
 62
     7
100
AcDbPolyline
 90
        2
 70
     0
 43
0.5
 10
-21.99300000000001
 20
48.583
 10
-21.99300000000001
 20
62.18299999999999
  0
LWPOLYLINE
  5
83
330
43
100
AcDbEntity
  8
1
  6
Continuous
 62
     7
100
AcDbPolyline
 90
        2
 70
     0
 43
0.5
 10
-23.99300000000001
 20
62.18299999999999
 10
-23.99300000000001
 20
48.583
  0
LWPOLYLINE
  5
84
330
43
100
AcDbEntity
  8
1
  6
Continuous
 62
     7
100
AcDbPolyline
 90
        2
 70
     0
 43
0.5
 10
-23.99300000000001
 20
39.583
 10
-23.99300000000001
 20
32.083
  0
LWPOLYLINE
  5
85
330
43
100
AcDbEntity
  8
1
  6
Continuous
 62
     7
100
AcDbPolyline
 90
        2
 70
     0
 43
0.5
 10
-23.99300000000001
 20
30.357
 10
-23.99300000000001
 20
25.98299999999998
  0
LWPOLYLINE
  5
86
330
43
100
AcDbEntity
  8
1
  6
Continuous
 62
     7
100
AcDbPolyline
 90
        2
 70
     0
 43
0.5
 10
-25.01399999999997
 20
24.083
 10
-25.01399999999997
 20
28.083
  0
LWPOLYLINE
  5
87
330
43
100
AcDbEntity
  8
1
  6
Continuous
 62
     7
100
AcDbPolyline
 90
        2
 70
     0
 43
0.5
 10
-25.01399999999997
 20
32.083
 10
-25.01399999999997
 20
39.583
  0
LWPOLYLINE
  5
88
330
43
100
AcDbEntity
  8
1
  6
Continuous
 62
     7
100
AcDbPolyline
 90
        2
 70
     0
 43
0.5
 10
-25.01399999999997
 20
48.583
 10
-25.01399999999997
 20
64.083
  0
LWPOLYLINE
  5
89
330
43
100
AcDbEntity
  8
1
  6
Continuous
 62
     7
100
AcDbPolyline
 90
        2
 70
     0
 43
0.5
 10
-20.97199999999994
 20
64.083
 10
-20.97199999999994
 20
48.583
  0
LWPOLYLINE
  5
8A
330
43
100
AcDbEntity
  8
1
  6
Continuous
 62
     7
100
AcDbPolyline
 90
        2
 70
     0
 43
0.5
 10
-20.97199999999994
 20
39.583
 10
-20.97199999999994
 20
32.083
  0
LWPOLYLINE
  5
8B
330
43
100
AcDbEntity
  8
1
  6
Continuous
 62
     7
100
AcDbPolyline
 90
        2
 70
     0
 43
0.5
 10
-20.97199999999994
 20
28.083
 10
-20.97199999999994
 20
24.083
  0
LWPOLYLINE
  5
8C
330
43
100
AcDbEntity
  8
1
  6
Continuous
 62
     7
100
AcDbPolyline
 90
        2
 70
     0
 43
0.5
 10
-25.01399999999997
 20
28.083
 10
-23.99300000000001
 20
30.357
  0
LWPOLYLINE
  5
8D
330
43
100
AcDbEntity
  8
1
  6
Continuous
 62
     7
100
AcDbPolyline
 90
        2
 70
     0
 43
0.5
 10
-23.99300000000001
 20
30.357
 10
-23.99300000000001
 20
31.48299999999998
  0
LWPOLYLINE
  5
8E
330
43
100
AcDbEntity
  8
1
  6
Continuous
 62
     7
100
AcDbPolyline
 90
        2
 70
     0
 43
0.5
 10
-23.99300000000001
 20
31.48299999999998
 10
-21.99300000000001
 20
31.48299999999998
  0
LWPOLYLINE
  5
8F
330
43
100
AcDbEntity
  8
1
  6
Continuous
 62
     7
100
AcDbPolyline
 90
        2
 70
     0
 43
0.5
 10
-21.99300000000001
 20
31.48299999999998
 10
-21.99300000000001
 20
30.357
  0
LWPOLYLINE
  5
90
330
43
100
AcDbEntity
  8
1
  6
Continuous
 62
     7
100
AcDbPolyline
 90
        2
 70
     0
 43
0.5
 10
-21.99300000000001
 20
30.357
 10
-20.97199999999994
 20
28.083
  0
LWPOLYLINE
  5
91
330
43
100
AcDbEntity
  8
1
  6
Continuous
 62
     7
100
AcDbPolyline
 90
        2
 70
     0
 43
0.5
 10
-38.493
 20
64.083
 10
-36.993
 20
64.083
  0
LWPOLYLINE
  5
92
330
43
100
AcDbEntity
  8
1
  6
Continuous
 62
     7
100
AcDbPolyline
 90
        2
 70
     0
 43
0.5
 10
-26.99300000000001
 20
64.083
 10
-25.01399999999997
 20
64.083
  0
LWPOLYLINE
  5
93
330
43
100
AcDbEntity
  8
1
  6
Continuous
 62
     7
100
AcDbPolyline
 90
        2
 70
     0
 43
0.5
 10
-20.97199999999994
 20
64.083
 10
-18.99300000000001
 20
64.083
  0
LWPOLYLINE
  5
94
330
43
100
AcDbEntity
  8
1
  6
Continuous
 62
     7
100
AcDbPolyline
 90
        2
 70
     0
 43
0.5
 10
-40.993
 20
59.18299999999999
 10
-42.993
 20
59.083
  0
LWPOLYLINE
  5
95
330
43
100
AcDbEntity
  8
1
  6
DOT_CENTER
 62
     7
100
AcDbPolyline
 90
        2
 70
     0
 43
0.25
 10
-22.99300000000001
 20
67.24099999999999
 10
-22.99300000000001
 20
20.44299999999998
  0
LWPOLYLINE
  5
96
330
43
100
AcDbEntity
  8
1
  6
Continuous
 62
     7
100
AcDbPolyline
 90
        2
 70
     0
 43
0.5
 10
-40.993
 20
59.18299999999999
 10
-40.993
 20
28.98299999999998
  0
LWPOLYLINE
  5
97
330
43
100
AcDbEntity
  8
1
  6
Continuous
 62
     7
100
AcDbPolyline
 90
        2
 70
     0
 43
0.5
 10
-18.99300000000001
 20
64.083
 10
-18.99300000000001
 20
24.083
  0
LWPOLYLINE
  5
98
330
43
100
AcDbEntity
  8
1
  6
Continuous
 62
     7
100
AcDbPolyline
 90
        2
 70
     0
 43
0.5
 10
-40.993
 20
28.98299999999998
 10
-42.993
 20
29.083
  0
LWPOLYLINE
  5
99
330
43
100
AcDbEntity
  8
1
  6
DOT_CENTER
 62
     7
100
AcDbPolyline
 90
        2
 70
     0
 43
0.25
 10
-52.493
 20
60.33599999999998
 10
-52.493
 20
58.60799999999999
  0
LWPOLYLINE
  5
9A
330
43
100
AcDbEntity
  8
1
  6
Continuous
 62
     7
100
AcDbPolyline
 90
        2
 70
     0
 43
0.5
 10
-38.493
 20
24.083
 10
-25.01399999999997
 20
24.083
  0
LWPOLYLINE
  5
9B
330
43
100
AcDbEntity
  8
1
  6
Continuous
 62
     7
100
AcDbPolyline
 90
        2
 70
     0
 43
0.5
 10
-20.97199999999994
 20
24.083
 10
-18.99300000000001
 20
24.083
  0
LWPOLYLINE
  5
9C
330
43
100
AcDbEntity
  8
1
  6
Continuous
 62
     7
100
AcDbPolyline
 90
        2
 70
     0
 43
0.25
 10
-40.61899999999999
 20
29.19399999999999
 10
-40.61899999999999
 20
58.93899999999999
  0
LWPOLYLINE
  5
9D
330
43
100
AcDbEntity
  8
1
  6
DOT_CENTER
 62
     7
100
AcDbPolyline
 90
        2
 70
     0
 43
0.25
 10
-42.993
 20
26.66399999999999
 10
-42.993
 20
29.083
  0
LWPOLYLINE
  5
9E
330
43
100
AcDbEntity
  8
1
  6
Continuous
 62
     7
100
AcDbPolyline
 90
        2
 70
     0
 43
0.5
 10
-18.99300000000001
 20
48.583
 10
-21.99300000000001
 20
48.583
  0
LWPOLYLINE
  5
9F
330
43
100
AcDbEntity
  8
1
  6
Continuous
 62
     7
100
AcDbPolyline
 90
        2
 70
     0
 43
0.5
 10
-23.99300000000001
 20
48.583
 10
-26.49300000000001
 20
48.583
  0
LWPOLYLINE
  5
A0
330
43
100
AcDbEntity
  8
1
  6
Continuous
 62
     7
100
AcDbPolyline
 90
        2
 70
     0
 43
0.5
 10
-18.99300000000001
 20
39.583
 10
-21.99300000000001
 20
39.583
  0
LWPOLYLINE
  5
A1
330
43
100
AcDbEntity
  8
1
  6
Continuous
 62
     7
100
AcDbPolyline
 90
        2
 70
     0
 43
0.5
 10
-23.99300000000001
 20
39.583
 10
-26.49300000000001
 20
39.583
  0
LWPOLYLINE
  5
A2
330
43
100
AcDbEntity
  8
1
  6
Continuous
 62
     7
100
AcDbPolyline
 90
        2
 70
     0
 43
0.5
 10
-58.993
 20
37.38
 10
-58.19299999999994
 20
38.17999999999998
  0
LWPOLYLINE
  5
A3
330
43
100
AcDbEntity
  8
1
  6
Continuous
 62
     7
100
AcDbPolyline
 90
        2
 70
     0
 43
0.5
 10
-58.19299999999994
 20
38.17999999999998
 10
-56.2859999999999
 20
37.92400000000001
  0
LWPOLYLINE
  5
A4
330
43
100
AcDbEntity
  8
1
  6
Continuous
 62
     7
100
AcDbPolyline
 90
        2
 70
     0
 43
0.5
 10
-58.993
 20
50.786
 10
-58.19299999999994
 20
49.98599999999999
  0
LWPOLYLINE
  5
A5
330
43
100
AcDbEntity
  8
1
  6
Continuous
 62
     7
100
AcDbPolyline
 90
        2
 70
     0
 43
0.5
 10
-58.19299999999994
 20
49.98599999999999
 10
-56.2859999999999
 20
50.24199999999999
  0
LWPOLYLINE
  5
A6
330
43
100
AcDbEntity
  8
1
  6
Continuous
 62
     7
100
AcDbPolyline
 90
        2
 70
     0
 43
0.5
 10
-55.493
 20
41.05799999999999
 10
-55.493
 20
38.618
  0
LWPOLYLINE
  5
A7
330
43
100
AcDbEntity
  8
1
  6
Continuous
 62
     7
100
AcDbPolyline
 90
        2
 70
     0
 43
0.5
 10
-55.493
 20
47.10799999999998
 10
-55.493
 20
49.54799999999997
  0
LWPOLYLINE
  5
A8
330
43
100
AcDbEntity
  8
1
  6
Continuous
 62
     7
100
AcDbPolyline
 90
        2
 70
     0
 43
0.5
 10
-58.19299999999994
 20
40.05799999999999
 10
-58.19299999999994
 20
38.17999999999998
  0
LWPOLYLINE
  5
A9
330
43
100
AcDbEntity
  8
1
  6
Continuous
 62
     7
100
AcDbPolyline
 90
        2
 70
     0
 43
0.5
 10
-58.19299999999994
 20
48.10799999999998
 10
-58.19299999999994
 20
49.98599999999999
  0
LWPOLYLINE
  5
AA
330
43
100
AcDbEntity
  8
1
  6
Continuous
 62
     7
100
AcDbPolyline
 90
        2
 70
     0
 43
0.5
 10
-21.99300000000001
 20
39.583
 10
-21.99300000000001
 20
40.374
  0
LWPOLYLINE
  5
AB
330
43
100
AcDbEntity
  8
1
  6
Continuous
 62
     7
100
AcDbPolyline
 90
        2
 70
     0
 43
0.5
 10
-21.99300000000001
 20
40.374
 10
-23.99300000000001
 20
40.374
  0
LWPOLYLINE
  5
AC
330
43
100
AcDbEntity
  8
1
  6
Continuous
 62
     7
100
AcDbPolyline
 90
        2
 70
     0
 43
0.5
 10
-23.99300000000001
 20
40.374
 10
-23.99300000000001
 20
39.583
  0
LWPOLYLINE
  5
AD
330
43
100
AcDbEntity
  8
1
  6
Continuous
 62
     7
100
AcDbPolyline
 90
        2
 70
     0
 43
0.5
 10
-23.99300000000001
 20
48.583
 10
-23.99300000000001
 20
47.792
  0
LWPOLYLINE
  5
AE
330
43
100
AcDbEntity
  8
1
  6
Continuous
 62
     7
100
AcDbPolyline
 90
        2
 70
     0
 43
0.5
 10
-23.99300000000001
 20
47.792
 10
-21.99300000000001
 20
47.792
  0
LWPOLYLINE
  5
AF
330
43
100
AcDbEntity
  8
1
  6
Continuous
 62
     7
100
AcDbPolyline
 90
        2
 70
     0
 43
0.5
 10
-21.99300000000001
 20
47.792
 10
-21.99300000000001
 20
48.583
  0
LWPOLYLINE
  5
B0
330
43
100
AcDbEntity
  8
1
  6
DOT_CENTER
 62
     7
100
AcDbPolyline
 90
        2
 70
     0
 43
0.25
 10
-26.49300000000001
 20
37.583
 10
-26.49300000000001
 20
44.083
  0
LWPOLYLINE
  5
B1
330
43
100
AcDbEntity
  8
1
  6
DOT_CENTER
 62
     7
100
AcDbPolyline
 90
        2
 70
     0
 43
0.25
 10
-26.49300000000001
 20
44.083
 10
-26.49300000000001
 20
50.583
  0
LWPOLYLINE
  5
B2
330
43
100
AcDbEntity
  8
1
  6
Continuous
 62
     7
100
AcDbPolyline
 90
        2
 70
     0
 43
0.5
 10
-25.01399999999997
 20
64.083
 10
-23.99300000000001
 20
62.315
  0
LWPOLYLINE
  5
B3
330
43
100
AcDbEntity
  8
1
  6
Continuous
 62
     7
100
AcDbPolyline
 90
        2
 70
     0
 43
0.5
 10
-23.99300000000001
 20
62.18299999999999
 10
-23.99300000000001
 20
62.315
  0
LWPOLYLINE
  5
B4
330
43
100
AcDbEntity
  8
1
  6
Continuous
 62
     7
100
AcDbPolyline
 90
        2
 70
     0
 43
0.5
 10
-23.29299999999996
 20
61.48299999999998
 10
-22.69299999999994
 20
61.48299999999998
  0
LWPOLYLINE
  5
B5
330
43
100
AcDbEntity
  8
1
  6
Continuous
 62
     7
100
AcDbPolyline
 90
        2
 70
     0
 43
0.5
 10
-21.99300000000001
 20
62.18299999999999
 10
-21.99300000000001
 20
62.315
  0
LWPOLYLINE
  5
B6
330
43
100
AcDbEntity
  8
1
  6
Continuous
 62
     7
100
AcDbPolyline
 90
        2
 70
     0
 43
0.5
 10
-20.97199999999994
 20
64.083
 10
-21.99300000000001
 20
62.315
  0
LWPOLYLINE
  5
B7
330
43
100
AcDbEntity
  8
1
  6
Continuous
 62
     7
100
AcDbPolyline
 90
        2
 70
     0
 43
0.5
 10
-40.993
 20
59.18299999999999
 10
-40.67099999999989
 20
59.09699999999999
  0
LWPOLYLINE
  5
B8
330
43
100
AcDbEntity
  8
1
  6
Continuous
 62
     7
100
AcDbPolyline
 90
        2
 70
     0
 43
0.5
 10
-40.56699999999997
 20
59.083
 10
-39.29799999999995
 20
59.083
  0
LWPOLYLINE
  5
B9
330
43
100
AcDbEntity
  8
1
  6
Continuous
 62
     7
100
AcDbPolyline
 90
        2
 70
     0
 43
0.5
 10
-40.993
 20
28.98299999999998
 10
-40.67099999999989
 20
29.06899999999999
  0
LWPOLYLINE
  5
BA
330
43
100
AcDbEntity
  8
1
  6
Continuous
 62
     7
100
AcDbPolyline
 90
        2
 70
     0
 43
0.5
 10
-40.56699999999997
 20
29.083
 10
-39.29799999999995
 20
29.083
  0
LWPOLYLINE
  5
BB
330
43
100
AcDbEntity
  8
1
  6
Continuous
 62
     7
100
AcDbPolyline
 90
        2
 70
     0
 43
0.5
 10
-25.01399999999997
 20
24.083
 10
-23.99300000000001
 20
25.85099999999997
  0
LWPOLYLINE
  5
BC
330
43
100
AcDbEntity
  8
1
  6
Continuous
 62
     7
100
AcDbPolyline
 90
        2
 70
     0
 43
0.5
 10
-23.99300000000001
 20
25.98299999999998
 10
-23.99300000000001
 20
25.85099999999997
  0
LWPOLYLINE
  5
BD
330
43
100
AcDbEntity
  8
1
  6
Continuous
 62
     7
100
AcDbPolyline
 90
        2
 70
     0
 43
0.5
 10
-23.29299999999996
 20
26.68299999999999
 10
-22.69299999999994
 20
26.68299999999999
  0
LWPOLYLINE
  5
BE
330
43
100
AcDbEntity
  8
1
  6
Continuous
 62
     7
100
AcDbPolyline
 90
        2
 70
     0
 43
0.5
 10
-21.99300000000001
 20
25.98299999999998
 10
-21.99300000000001
 20
25.85099999999997
  0
LWPOLYLINE
  5
BF
330
43
100
AcDbEntity
  8
1
  6
Continuous
 62
     7
100
AcDbPolyline
 90
        2
 70
     0
 43
0.5
 10
-20.97199999999994
 20
24.083
 10
-21.99300000000001
 20
25.85099999999997
  0
LWPOLYLINE
  5
C0
330
43
100
AcDbEntity
  8
1
  6
DOT_CENTER
 62
     7
100
AcDbPolyline
 90
        2
 70
     0
 43
0.25
 10
-44.993
 20
39.78299999999999
 10
-44.993
 20
48.38299999999998
  0
LWPOLYLINE
  5
C1
330
43
100
AcDbEntity
  8
1
  6
Continuous
 62
     7
100
AcDbPolyline
 90
        2
 70
     0
 43
0.5
 10
-58.993
 20
57.52199999999999
 10
-58.993
 20
48.90799999999999
  0
LWPOLYLINE
  5
C2
330
43
100
AcDbEntity
  8
1
  6
Continuous
 62
     7
100
AcDbPolyline
 90
        2
 70
     0
 43
0.5
 10
-58.993
 20
39.25800000000001
 10
-58.993
 20
30.64399999999998
  0
LWPOLYLINE
  5
C3
330
43
100
AcDbEntity
  8
1
  6
Continuous
 62
     7
100
AcDbPolyline
 90
        2
 70
     0
 43
0.5
 10
-58.19299999999994
 20
48.10799999999998
 10
-58.993
 20
48.90799999999999
  0
LWPOLYLINE
  5
C4
330
43
100
AcDbEntity
  8
1
  6
Continuous
 62
     7
100
AcDbPolyline
 90
        2
 70
     0
 43
0.5
 10
-58.19299999999994
 20
48.10799999999998
 10
-56.493
 20
48.10799999999998
  0
LWPOLYLINE
  5
C5
330
43
100
AcDbEntity
  8
1
  6
Continuous
 62
     7
100
AcDbPolyline
 90
        2
 70
     0
 43
0.5
 10
-55.493
 20
47.10799999999998
 10
-55.493
 20
41.05799999999999
  0
LWPOLYLINE
  5
C6
330
43
100
AcDbEntity
  8
1
  6
Continuous
 62
     7
100
AcDbPolyline
 90
        2
 70
     0
 43
0.5
 10
-58.19299999999994
 20
40.05799999999999
 10
-58.993
 20
39.25800000000001
  0
LWPOLYLINE
  5
C7
330
43
100
AcDbEntity
  8
1
  6
Continuous
 62
     7
100
AcDbPolyline
 90
        2
 70
     0
 43
0.5
 10
-58.19299999999994
 20
40.05799999999999
 10
-56.493
 20
40.05799999999999
  0
LWPOLYLINE
  5
C8
330
43
100
AcDbEntity
  8
1
  6
Continuous
 62
     7
100
AcDbPolyline
 90
        2
 70
     0
 43
0.25
 10
-52.493
 20
58.60799999999999
 10
-53.70954131780202
 20
58.60799999999999
  0
LWPOLYLINE
  5
C9
330
43
100
AcDbEntity
  8
1
  6
Continuous
 62
     7
100
AcDbPolyline
 90
        2
 70
     0
 43
0.5
 10
-52.493
 20
58.60799999999999
 10
-58.233
 20
58.321
  0
LWPOLYLINE
  5
CA
330
43
100
AcDbEntity
  8
1
  6
DOT_CENTER
 62
     7
100
AcDbPolyline
 90
        2
 70
     0
 43
0.25
 10
-52.493
 20
58.60799999999999
 10
-52.493
 20
29.55799999999999
  0
LWPOLYLINE
  5
CB
330
43
100
AcDbEntity
  8
1
  6
Continuous
 62
     7
100
AcDbPolyline
 90
        2
 70
     0
 43
0.5
 10
-42.993
 20
59.083
 10
-52.493
 20
58.60799999999999
  0
LWPOLYLINE
  5
CC
330
43
100
AcDbEntity
  8
1
  6
DOT_CENTER
 62
     7
100
AcDbPolyline
 90
        2
 70
     0
 43
0.25
 10
-42.993
 20
59.083
 10
-42.993
 20
61.28999999999999
  0
LWPOLYLINE
  5
CD
330
43
100
AcDbEntity
  8
1
  6
Continuous
 62
     7
100
AcDbPolyline
 90
        2
 70
     0
 43
0.25
 10
-52.493
 20
29.55799999999999
 10
-53.93315569671467
 20
29.55799999999999
  0
LWPOLYLINE
  5
CE
330
43
100
AcDbEntity
  8
1
  6
Continuous
 62
     7
100
AcDbPolyline
 90
        2
 70
     0
 43
0.5
 10
-52.493
 20
29.55799999999999
 10
-58.233
 20
29.845
  0
LWPOLYLINE
  5
CF
330
43
100
AcDbEntity
  8
1
  6
DOT_CENTER
 62
     7
100
AcDbPolyline
 90
        2
 70
     0
 43
0.25
 10
-52.493
 20
29.55799999999999
 10
-52.493
 20
27.52199999999999
  0
LWPOLYLINE
  5
D0
330
43
100
AcDbEntity
  8
1
  6
Continuous
 62
     7
100
AcDbPolyline
 90
        2
 70
     0
 43
0.5
 10
-42.993
 20
29.083
 10
-52.493
 20
29.55799999999999
  0
LWPOLYLINE
  5
D1
330
43
100
AcDbEntity
  8
1
  6
DOT_CENTER
 62
     7
100
AcDbPolyline
 90
        2
 70
     0
 43
0.25
 10
-42.993
 20
29.083
 10
-42.993
 20
59.083
  0
LWPOLYLINE
  5
D2
330
43
100
AcDbEntity
  8
1
  6
Continuous
 62
     7
100
AcDbPolyline
 90
        2
 70
     0
 43
0.5
 10
-26.49300000000001
 20
48.583
 42
1.0
 10
-26.49300000000001
 20
39.583
 42
1.0
  0
LWPOLYLINE
  5
D3
330
43
100
AcDbEntity
  8
1
  6
Continuous
 62
     7
100
AcDbPolyline
 90
        2
 70
     0
 43
0.5
 10
-26.52100000000003
 20
32.083
 42
0.38195735636052
 10
-30.993
 20
28.083
 42
0.38195735636052
  0
LWPOLYLINE
  5
D4
330
43
100
AcDbEntity
  8
1
  6
Continuous
 62
     7
100
AcDbPolyline
 90
        2
 70
     0
 43
0.5
 10
-58.993
 20
30.64399999999998
 42
0.39963776093386
 10
-58.233
 20
29.845
 42
0.39963776093386
  0
LWPOLYLINE
  5
D5
330
43
100
AcDbEntity
  8
1
  6
Continuous
 62
     7
100
AcDbPolyline
 90
        2
 70
     0
 43
0.5
 10
-58.233
 20
58.321
 42
0.39963776093386
 10
-58.993
 20
57.52199999999999
 42
0.39963776093386
  0
LWPOLYLINE
  5
D6
330
43
100
AcDbEntity
  8
1
  6
Continuous
 62
     7
100
AcDbPolyline
 90
        2
 70
     0
 43
0.5
 10
-55.493
 20
49.54799999999997
 42
0.45389130098501
 10
-56.2859999999999
 20
50.24199999999999
 42
0.45389130098501
  0
LWPOLYLINE
  5
D7
330
43
100
AcDbEntity
  8
1
  6
Continuous
 62
     7
100
AcDbPolyline
 90
        2
 70
     0
 43
0.5
 10
-56.2859999999999
 20
37.92400000000001
 42
0.453891300985
 10
-55.493
 20
38.618
 42
0.453891300985
  0
LWPOLYLINE
  5
D8
330
43
100
AcDbEntity
  8
1
  6
Continuous
 62
     7
100
AcDbPolyline
 90
        2
 70
     0
 43
0.5
 10
-23.99300000000001
 20
62.18299999999999
 42
0.4142135623731
 10
-23.29299999999996
 20
61.48299999999998
 42
0.4142135623731
  0
LWPOLYLINE
  5
D9
330
43
100
AcDbEntity
  8
1
  6
Continuous
 62
     7
100
AcDbPolyline
 90
        2
 70
     0
 43
0.5
 10
-22.69299999999994
 20
61.48299999999998
 42
0.4142135623731
 10
-21.99300000000001
 20
62.18299999999999
 42
0.4142135623731
  0
LWPOLYLINE
  5
DA
330
43
100
AcDbEntity
  8
1
  6
Continuous
 62
     7
100
AcDbPolyline
 90
        2
 70
     0
 43
0.5
 10
-40.67099999999989
 20
59.09699999999999
 42
0.06587087523617
 10
-40.56699999999997
 20
59.083
 42
0.06587087523617
  0
LWPOLYLINE
  5
DB
330
43
100
AcDbEntity
  8
1
  6
Continuous
 62
     7
100
AcDbPolyline
 90
        2
 70
     0
 43
0.5
 10
-39.29799999999995
 20
59.083
 42
0.22025525570698
 10
-38.9929982643127
 20
59.22420669364929
 42
0.22025525570698
  0
LWPOLYLINE
  5
DC
330
43
100
AcDbEntity
  8
1
  6
Continuous
 62
     7
100
AcDbPolyline
 90
        2
 70
     0
 43
0.5
 10
-40.56699999999997
 20
29.083
 42
0.06587087523617
 10
-40.67099999999989
 20
29.06899999999999
 42
0.06587087523617
  0
LWPOLYLINE
  5
DD
330
43
100
AcDbEntity
  8
1
  6
Continuous
 62
     7
100
AcDbPolyline
 90
        2
 70
     0
 43
0.5
 10
-38.99299874114986
 20
28.94179387855527
 42
0.22025476962292
 10
-39.29799999999995
 20
29.083
 42
0.22025476962292
  0
LWPOLYLINE
  5
DE
330
43
100
AcDbEntity
  8
1
  6
Continuous
 62
     7
100
AcDbPolyline
 90
        2
 70
     0
 43
0.5
 10
-23.29299999999996
 20
26.68299999999999
 42
0.4142135623731
 10
-23.99300000000001
 20
25.98299999999998
 42
0.4142135623731
  0
LWPOLYLINE
  5
DF
330
43
100
AcDbEntity
  8
1
  6
Continuous
 62
     7
100
AcDbPolyline
 90
        2
 70
     0
 43
0.5
 10
-21.99300000000001
 20
25.98299999999998
 42
0.4142135623731
 10
-22.69299999999994
 20
26.68299999999999
 42
0.4142135623731
  0
LWPOLYLINE
  5
E0
330
43
100
AcDbEntity
  8
1
  6
Continuous
 62
     7
100
AcDbPolyline
 90
        2
 70
     0
 43
0.5
 10
-55.493
 20
47.10799999999998
 42
0.4142135623731
 10
-56.493
 20
48.10799999999998
 42
0.4142135623731
  0
LWPOLYLINE
  5
E1
330
43
100
AcDbEntity
  8
1
  6
Continuous
 62
     7
100
AcDbPolyline
 90
        2
 70
     0
 43
0.5
 10
-56.493
 20
40.05799999999999
 42
0.4142135623731
 10
-55.493
 20
41.05799999999999
 42
0.4142135623731
  0
LWPOLYLINE
  5
E2
330
43
100
AcDbEntity
  8
1
  6
Continuous
 62
     7
100
AcDbPolyline
 90
        2
 70
     1
 43
0.5
 10
-47.79300000000006
 20
44.083
 42
1.0
 10
-42.19299999999994
 20
44.083
 42
1.0
  0
LWPOLYLINE
  5
E3
330
43
100
AcDbEntity
  8
1
  6
Continuous
 62
     7
100
AcDbPolyline
 90
        2
 70
     1
 43
0.5
 10
-47.29300000000006
 20
44.083
 42
1.0
 10
-42.69299999999994
 20
44.083
 42
1.0
  0
LEADER
  5
E4
330
43
100
AcDbEntity
  8
1
  6
Continuous
 62
     7
100
AcDbLeader
  3
Standard
 71
     0
 76
     1
 10
-31.993
 20
64.083
 30
0.0
  0
LEADER
  5
E5
330
43
100
AcDbEntity
  8
1
  6
Continuous
 62
     7
100
AcDbLeader
  3
Standard
 71
     0
 76
    60
 10
-26.99300000000001
 20
64.083
 30
0.0
 10
-27.00008667754305
 20
64.04919977921517
 30
0.0
 10
-27.02132630499109
 20
64.01549574732377
 30
0.0
 10
-27.05665867633611
 20
63.98198306349806
 30
0.0
 10
-27.10598363817083
 20
63.94875672304542
 30
0.0
 10
-27.16916137358506
 20
63.91591090960199
 30
0.0
 10
-27.24601279849169
 20
63.88353872815924
 30
0.0
 10
-27.33632006925957
 20
63.85173194114779
 30
0.0
 10
-27.43982720021548
 20
63.82058070832696
 30
0.0
 10
-27.55624078926242
 20
63.79017333121709
 30
0.0
 10
-27.68523084955912
 20
63.76059600279959
 30
0.0
 10
-27.8264317449045
 20
63.73193256319351
 30
0.0
 10
-27.97944322617134
 20
63.70426426200177
 30
0.0
 10
-28.14383156585639
 20
63.67766952800039
 30
0.0
 10
-28.31913078752753
 20
63.65222374682381
 30
0.0
 10
-28.50484398668353
 20
63.62799904727589
 30
0.0
 10
-28.70044473928404
 20
63.60506409687346
 30
0.0
 10
-28.90537859395506
 20
63.58348390720053
 30
0.0
 10
-29.11906464364036
 20
63.56331964962615
 30
0.0
 10
-29.34089717224579
 20
63.54462848190752
 30
0.0
 10
-29.57024737160619
 20
63.52746338617013
 30
0.0
 10
-29.80646512390997
 20
63.51187301872434
 30
0.0
 10
-30.04888084452803
 20
63.49790157214378
 30
0.0
 10
-30.29680738002328
 20
63.48558864999663
 30
0.0
 10
-30.54954195596118
 20
63.4749691545853
 30
0.0
 10
-30.80636816899944
 20
63.46607318801185
 30
0.0
 10
-31.06655801760992
 20
63.4589259668505
 30
0.0
 10
-31.32937396567793
 20
63.45354775066843
 30
0.0
 10
-31.59407103312726
 20
63.44995378459802
 30
0.0
 10
-31.85989890764638
 20
63.44815425612262
 30
0.0
 10
-32.12610407152961
 20
63.44815426619934
 30
0.0
 10
-32.39193193760396
 20
63.44995381479959
 30
0.0
 10
-32.65662898818751
 20
63.45354780090926
 30
0.0
 10
-32.91944491101681
 20
63.45892603698815
 30
0.0
 10
-33.17963472608705
 20
63.46607327784753
 30
0.0
 10
-33.4364608973786
 20
63.47496926386432
 30
0.0
 10
-33.68919542348188
 20
63.48558877840927
 30
0.0
 10
-33.93712190119568
 20
63.497901719326
 30
0.0
 10
-34.17953755624905
 20
63.511873184259
 30
0.0
 10
-34.41575523539093
 20
63.52746356958795
 30
0.0
 10
-34.64510535419966
 20
63.5446286826886
 30
0.0
 10
-34.86693779509194
 20
63.56331986720139
 30
0.0
 10
-35.08062375015136
 20
63.58348414095312
 30
0.0
 10
-35.28555750355174
 20
63.60506434614084
 30
0.0
 10
-35.48115814852424
 20
63.62799931135149
 30
0.0
 10
-35.66687123399954
 20
63.65222402495905
 30
0.0
 10
-35.84217033625971
 20
63.67766981940693
 30
0.0
 10
-36.00655855114219
 20
63.70426456585352
 30
0.0
 10
-36.15956990256844
 20
63.73193287862918
 30
0.0
 10
-36.30077066340319
 20
63.76059632892506
 30
0.0
 10
-36.42976058490088
 20
63.79017366710792
 30
0.0
 10
-36.54617403125334
 20
63.82058105303105
 30
0.0
 10
-36.6496810160241
 20
63.85173229368803
 30
0.0
 10
-36.73998813753048
 20
63.88353908753629
 30
0.0
 10
-36.81683941052229
 20
63.91591127479717
 30
0.0
 10
-36.88001699179912
 20
63.94875709302355
 30
0.0
 10
-36.92934179771073
 20
63.98198343721043
 30
0.0
 10
-36.964674011789
 20
64.01549612371096
 30
0.0
 10
-36.98591348107217
 20
64.04920015721035
 30
0.0
 10
-36.993
 20
64.083
 30
0.0
  0
LEADER
  5
E6
330
43
100
AcDbEntity
  8
1
  6
Continuous
 62
     7
100
AcDbLeader
  3
Standard
 71
     0
 76
     1
 10
-31.993
 20
24.85099999999997
 30
0.0
  0
LEADER
  5
E7
330
43
100
AcDbEntity
  8
1
  6
Continuous
 62
     7
100
AcDbLeader
  3
Standard
 71
     0
 76
    90
 10
-28.75279437830268
 20
24.08666739462879
 30
0.0
 10
-28.59342392436459
 20
24.12941195451711
 30
0.0
 10
-28.44343609276332
 20
24.17414805333937
 30
0.0
 10
-28.30324484075341
 20
24.22075222219516
 30
0.0
 10
-28.17323708762827
 20
24.26909583642473
 30
0.0
 10
-28.05377164684622
 20
24.31904547060555
 30
0.0
 10
-27.94517823572717
 20
24.37046326679794
 30
0.0
 10
-27.84775656545351
 20
24.42320731502477
 30
0.0
 10
-27.76177551388521
 20
24.47713204493434
 30
0.0
 10
-27.68747238347289
 20
24.53208862756563
 30
0.0
 10
-27.62505224631862
 20
24.58792538610706
 30
0.0
 10
-27.57468737818859
 20
24.64448821451529
 30
0.0
 10
-27.53651678304262
 20
24.70162100283864
 30
0.0
 10
-27.51064580939222
 20
24.7591660680707
 30
0.0
 10
-27.49714585954446
 20
24.81696458934601
 30
0.0
 10
-27.49605419253619
 20
24.87485704627605
 30
0.0
 10
-27.50737382130212
 20
24.9326836592154
 30
0.0
 10
-27.53107350435774
 20
24.99028483024424
 30
0.0
 10
-27.56708783202573
 20
25.04750158364854
 30
0.0
 10
-27.61531740696098
 20
25.10417600468347
 30
0.0
 10
-27.67562911848252
 20
25.16015167540837
 30
0.0
 10
-27.74785650995007
 20
25.21527410639087
 30
0.0
 10
-27.83180023817461
 20
25.26939116308805
 30
0.0
 10
-27.92722862359308
 20
25.32235348572871
 30
0.0
 10
-28.03387828969012
 20
25.37401490153704
 30
0.0
 10
-28.15145488990102
 20
25.42423282816068
 30
0.0
 10
-28.27963391999033
 20
25.47286866718929
 30
0.0
 10
-28.41806161366351
 20
25.51978818667757
 30
0.0
 10
-28.56635591894072
 20
25.56486189161743
 30
0.0
 10
-28.72410755259655
 20
25.60796538133613
 30
0.0
 10
-28.89088112975703
 20
25.64897969283459
 30
0.0
 10
-29.0662163655348
 20
25.6877916291181
 30
0.0
 10
-29.2496293453881
 20
25.72429407161297
 30
0.0
 10
-29.44061386069457
 20
25.75838627580734
 30
0.0
 10
-29.63864280585638
 20
25.78997414929987
 30
0.0
 10
-29.84316963307965
 20
25.81897051148891
 30
0.0
 10
-30.05362986081316
 20
25.84529533418584
 30
0.0
 10
-30.26944263168203
 20
25.86887596248781
 30
0.0
 10
-30.49001231561984
 20
25.88964731530095
 30
0.0
 10
-30.7147301537703
 20
25.90755206496007
 30
0.0
 10
-30.94297593862513
 20
25.92254079544969
 30
0.0
 10
-31.1741197257581
 20
25.93457213878909
 30
0.0
 10
-31.4075235724343
 20
25.9436128892055
 30
0.0
 10
-31.6425432982921
 20
25.94963809477991
 30
0.0
 10
-31.87853026324213
 20
25.95263112631295
 30
0.0
 10
-32.11483315767436
 20
25.95258372322039
 30
0.0
 10
-32.35079980003248
 20
25.94949601633189
 30
0.0
 10
-32.58577893679542
 20
25.94337652752981
 30
0.0
 10
-32.8191220398972
 20
25.93424214622959
 30
0.0
 10
-33.05018509662495
 20
25.92211808276565
 30
0.0
 10
-33.27833038705452
 20
25.9070377988127
 30
0.0
 10
-33.50292824411834
 20
25.88904291503337
 30
0.0
 10
-33.72335879144846
 20
25.8681830962079
 30
0.0
 10
-33.9390136541975
 20
25.84451591416215
 30
0.0
 10
-34.14929763811514
 20
25.81810668887314
 30
0.0
 10
-34.35363037224927
 20
25.78902830818967
 30
0.0
 10
-34.55144791073334
 20
25.75736102666642
 30
0.0
 10
-34.74220428924316
 20
25.72319224406633
 30
0.0
 10
-34.92537303182446
 20
25.68661626414249
 30
0.0
 10
-35.10044860393516
 20
25.64773403436553
 30
0.0
 10
-35.26694780768897
 20
25.60665286731492
 30
0.0
 10
-35.42441111545242
 20
25.56348614450261
 30
0.0
 10
-35.57240393811362
 20
25.51835300344718
 30
0.0
 10
-35.71051782452066
 20
25.47137800886134
 30
0.0
 10
-35.83837158878232
 20
25.42269080886118
 30
0.0
 10
-35.95561236231817
 20
25.372425777145
 30
0.0
 10
-36.06191656775395
 20
25.32072164213042
 30
0.0
 10
-36.15699081197506
 20
25.2677211040722
 30
0.0
 10
-36.24057269587429
 20
25.21357044121831
 30
0.0
 10
-36.31243153855674
 20
25.15841910609095
 30
0.0
 10
-36.37236901400578
 20
25.10241931300666
 30
0.0
 10
-36.42021969844957
 20
25.04572561797411
 30
0.0
 10
-36.45585152692179
 20
24.98849449212898
 30
0.0
 10
-36.47916615775201
 20
24.93088388988315
 30
0.0
 10
-36.49009924398303
 20
24.87305281298021
 30
0.0
 10
-36.4886206109647
 20
24.81516087166037
 30
0.0
 10
-36.47473433963383
 20
24.75736784414582
 30
0.0
 10
-36.44847875525108
 20
24.69983323566277
 30
0.0
 10
-36.40992632162597
 20
24.64271583821667
 30
0.0
 10
-36.35918344112049
 20
24.58617329233593
 30
0.0
 10
-36.29639016098584
 20
24.53036165199387
 30
0.0
 10
-36.22171978683976
 20
24.47543495390906
 30
0.0
 10
-36.13537840435465
 20
24.4215447924135
 30
0.0
 10
-36.03760431047257
 20
24.36883990106153
 30
0.0
 10
-35.9286673557212
 20
24.31746574213437
 30
0.0
 10
-35.8088681994421
 20
24.26756410517282
 30
0.0
 10
-35.67853747998977
 20
24.21927271564721
 30
0.0
 10
-35.53803490218997
 20
24.17272485484313
 30
0.0
 10
-35.38774824457603
 20
24.12804899201348
 30
0.0
 10
-35.22809228914395
 20
24.08536842981104
 30
0.0
  0
ENDBLK
  5
45
330
43
100
AcDbEntity
  8
0
100
AcDbBlockEnd
  0
BLOCK
  5
6A
330
46
100
AcDbEntity
  8
0
100
AcDbBlockBegin
  2
IGS24
 70
     0
 10
21.007
 20
37.88300000000004
 30
0.0
  3
IGS24
  1

  0
INSERT
  5
69
330
46
100
AcDbEntity
  8
0
100
AcDbBlockReference
  2
A40_Aussen
 10
-38.993
 20
44.083
 30
0.0
  0
LWPOLYLINE
  5
E8
330
46
100
AcDbEntity
  8
1
  6
DOT_CENTER
 62
     4
100
AcDbPolyline
 90
        2
 70
     0
 43
0.25
 10
21.007
 20
54.83299999999997
 10
19.492
 20
57.458
  0
LWPOLYLINE
  5
E9
330
46
100
AcDbEntity
  8
1
  6
DOT_CENTER
 62
     4
100
AcDbPolyline
 90
        2
 70
     0
 43
0.25
 10
3.507
 20
56.83299999999997
 10
3.507
 20
31.33299999999997
  0
LWPOLYLINE
  5
EA
330
46
100
AcDbEntity
  8
1
  6
DOT_CENTER
 62
     4
100
AcDbPolyline
 90
        2
 70
     0
 43
0.25
 10
4.757
 20
58.08299999999997
 10
18.409
 20
58.083
  0
LWPOLYLINE
  5
EB
330
46
100
AcDbEntity
  8
1
  6
DOT_CENTER
 62
     4
100
AcDbPolyline
 90
        2
 70
     0
 43
0.25
 10
19.997
 20
31.58299999999997
 10
21.007
 20
33.33299999999997
  0
LWPOLYLINE
  5
EC
330
46
100
AcDbEntity
  8
1
  6
DOT_CENTER
 62
     4
100
AcDbPolyline
 90
        2
 70
     0
 43
0.25
 10
21.007
 20
33.33299999999997
 10
21.007
 20
54.83299999999997
  0
LWPOLYLINE
  5
ED
330
46
100
AcDbEntity
  8
1
  6
DOT_CENTER
 62
     4
100
AcDbPolyline
 90
        2
 70
     0
 43
0.25
 10
10.507
 20
31.58299999999997
 10
9.007
 20
30.08299999999997
  0
LWPOLYLINE
  5
EE
330
46
100
AcDbEntity
  8
1
  6
DOT_CENTER
 62
     4
100
AcDbPolyline
 90
        2
 70
     0
 43
0.25
 10
4.757
 20
30.08299999999997
 10
9.007
 20
30.08299999999997
  0
LWPOLYLINE
  5
EF
330
46
100
AcDbEntity
  8
1
  6
DOT_CENTER
 62
     4
100
AcDbPolyline
 90
        2
 70
     0
 43
0.25
 10
19.997
 20
31.58299999999997
 10
10.507
 20
31.58299999999997
  0
LWPOLYLINE
  5
F0
330
46
100
AcDbEntity
  8
1
  6
DOT_CENTER
 62
     4
100
AcDbPolyline
 90
        2
 70
     0
 43
0.25
 10
3.507
 20
31.33299999999997
 42
0.4142135623731
 10
4.757
 20
30.08299999999997
 42
0.4142135623731
  0
LWPOLYLINE
  5
F1
330
46
100
AcDbEntity
  8
1
  6
DOT_CENTER
 62
     4
100
AcDbPolyline
 90
        2
 70
     0
 43
0.25
 10
4.757
 20
58.08299999999997
 42
0.4142135623731
 10
3.507
 20
56.83299999999997
 42
0.4142135623731
  0
LWPOLYLINE
  5
F2
330
46
100
AcDbEntity
  8
1
  6
DOT_CENTER
 62
     4
100
AcDbPolyline
 90
        2
 70
     0
 43
0.25
 10
19.492
 20
57.458
 42
0.26804957855811
 10
18.409
 20
58.083
 42
0.26804957855811
  0
ENDBLK
  5
6B
330
46
100
AcDbEntity
  8
0
100
AcDbBlockEnd
  0
BLOCK
  5
6D
330
6C
100
AcDbEntity
  8
0
100
AcDbBlockBegin
  2
IGS31
 70
     0
 10
-37.993
 20
61.08299999999997
 30
0.0
  3
IGS31
  1

  0
POINT
  5
F3
330
6C
100
AcDbEntity
  8
1
 62
     4
100
AcDbPoint
 10
10.407
 20
52.08254528301887
 30
0.0
  0
LWPOLYLINE
  5
F4
330
6C
100
AcDbEntity
  8
1
  6
Continuous
 62
     7
100
AcDbPolyline
 90
        2
 70
     0
 43
0.25
 10
-3.59332073032805
 20
33.08276780240171
 10
-3.59332073032805
 20
32.9827678024017
  0
LWPOLYLINE
  5
F5
330
6C
100
AcDbEntity
  8
1
  6
Continuous
 62
     7
100
AcDbPolyline
 90
        2
 70
     0
 43
0.25
 10
-3.886
 20
32.78999999999999
 10
-3.59332073032805
 20
33.08276780240171
  0
LWPOLYLINE
  5
F6
330
6C
100
AcDbEntity
  8
1
  6
Continuous
 62
     7
100
AcDbPolyline
 90
        2
 70
     0
 43
0.25
 10
-3.1793471960253
 20
33.083
 10
-3.59332073032805
 20
33.08276780240171
  0
LWPOLYLINE
  5
F7
330
6C
100
AcDbEntity
  8
1
  6
Continuous
 62
     7
100
AcDbPolyline
 90
        2
 70
     0
 43
0.5
 10
-7.007
 20
30.083
 10
-15.99300035762787
 20
30.083
  0
LWPOLYLINE
  5
F8
330
6C
100
AcDbEntity
  8
1
  6
Continuous
 62
     7
100
AcDbPolyline
 90
        2
 70
     0
 43
0.5
 10
-3.886
 20
32.78999999999999
 10
-6.3
 20
30.37600000000001
  0
LWPOLYLINE
  5
F9
330
6C
100
AcDbEntity
  8
1
  6
Continuous
 62
     7
100
AcDbPolyline
 90
        2
 70
     0
 43
0.5
 10
-3.886
 20
55.37600000000001
 10
-6.3
 20
57.79000000000002
  0
LWPOLYLINE
  5
FA
330
6C
100
AcDbEntity
  8
1
  6
Continuous
 62
     7
100
AcDbPolyline
 90
        2
 70
     0
 43
0.5
 10
-1.593
 20
33.083
 10
-1.593
 20
34.00299999999999
  0
LWPOLYLINE
  5
FB
330
6C
100
AcDbEntity
  8
1
  6
Continuous
 62
     7
100
AcDbPolyline
 90
        2
 70
     0
 43
0.25
 10
10.072
 20
34.00299999999999
 10
-1.593
 20
34.00299999999999
  0
LWPOLYLINE
  5
FC
330
6C
100
AcDbEntity
  8
1
  6
DASHED
 62
     7
100
AcDbPolyline
 90
        2
 70
     0
 43
0.35
 10
-9.16011568807893
 20
49.33318549329957
 10
-9.16011568807893
 20
38.83281450670043
  0
LWPOLYLINE
  5
FD
330
6C
100
AcDbEntity
  8
1
  6
DASHED
 62
     7
100
AcDbPolyline
 90
        2
 70
     0
 43
0.35
 10
-11.593
 20
38.833
 10
-9.16143598188553
 20
38.833
  0
LWPOLYLINE
  5
FE
330
6C
100
AcDbEntity
  8
1
  6
DASHED
 62
     7
100
AcDbPolyline
 90
        2
 70
     0
 43
0.35
 10
-9.16143598188553
 20
38.833
 10
10.407
 20
36.08375302215282
  0
LWPOLYLINE
  5
FF
330
6C
100
AcDbEntity
  8
1
  6
Continuous
 62
     7
100
AcDbPolyline
 90
        2
 70
     0
 43
0.5
 10
10.407
 20
34.583
 10
9.541
 20
33.083
  0
LWPOLYLINE
  5
100
330
6C
100
AcDbEntity
  8
1
  6
Continuous
 62
     7
100
AcDbPolyline
 90
        2
 70
     0
 43
0.5
 10
9.541
 20
33.083
 10
-1.593
 20
33.083
  0
LWPOLYLINE
  5
101
330
6C
100
AcDbEntity
  8
1
  6
DASHED
 62
     7
100
AcDbPolyline
 90
        2
 70
     0
 43
0.35
 10
-11.593
 20
49.333
 10
-11.593
 20
38.833
  0
LWPOLYLINE
  5
102
330
6C
100
AcDbEntity
  8
1
  6
Continuous
 62
     7
100
AcDbPolyline
 90
        2
 70
     0
 43
0.5
 10
-1.593
 20
55.083
 10
-1.593
 20
54.16300000000001
  0
LWPOLYLINE
  5
103
330
6C
100
AcDbEntity
  8
1
  6
Continuous
 62
     7
100
AcDbPolyline
 90
        2
 70
     0
 43
0.25
 10
-1.593
 20
54.16300000000001
 10
10.072
 20
54.16300000000001
  0
LWPOLYLINE
  5
104
330
6C
100
AcDbEntity
  8
1
  6
Continuous
 62
     7
100
AcDbPolyline
 90
        2
 70
     0
 43
0.5
 10
-7.007
 20
58.08299999999997
 10
-15.993
 20
58.08299999999997
  0
LWPOLYLINE
  5
105
330
6C
100
AcDbEntity
  8
1
  6
DASHED
 62
     7
100
AcDbPolyline
 90
        2
 70
     0
 43
0.35
 10
-11.593
 20
49.333
 10
-9.16143598188558
 20
49.333
  0
LWPOLYLINE
  5
106
330
6C
100
AcDbEntity
  8
1
  6
DASHED
 62
     7
100
AcDbPolyline
 90
        2
 70
     0
 43
0.35
 10
-9.16011568807893
 20
49.33318549329957
 10
10.407
 20
52.08224697784718
  0
LWPOLYLINE
  5
107
330
6C
100
AcDbEntity
  8
1
  6
Continuous
 62
     7
100
AcDbPolyline
 90
        2
 70
     0
 43
0.5
 10
10.407
 20
52.08224697784718
 10
10.407
 20
53.583
  0
LWPOLYLINE
  5
108
330
6C
100
AcDbEntity
  8
1
  6
Continuous
 62
     7
100
AcDbPolyline
 90
        2
 70
     0
 43
0.5
 10
10.407
 20
53.583
 10
9.541
 20
55.083
  0
LWPOLYLINE
  5
109
330
6C
100
AcDbEntity
  8
1
  6
Continuous
 62
     7
100
AcDbPolyline
 90
        2
 70
     0
 43
0.5
 10
9.541
 20
55.083
 10
-1.593
 20
55.083
  0
LWPOLYLINE
  5
10A
330
6C
100
AcDbEntity
  8
1
  6
DOT_CENTER
 62
     7
100
AcDbPolyline
 90
        2
 70
     0
 43
0.25
 10
-60.49300000000001
 20
44.083
 10
23.98900000000001
 20
44.083
  0
LWPOLYLINE
  5
10B
330
6C
100
AcDbEntity
  8
1
  6
Continuous
 62
     7
100
AcDbPolyline
 90
        2
 70
     0
 43
0.5
 10
10.407
 20
52.08254528301887
 10
10.407
 20
36.08126792452828
  0
LWPOLYLINE
  5
10C
330
6C
100
AcDbEntity
  8
1
  6
Continuous
 62
     7
100
AcDbPolyline
 90
        2
 70
     0
 43
0.5
 10
10.407
 20
36.08375302215282
 10
10.407
 20
34.583
  0
LWPOLYLINE
  5
10D
330
6C
100
AcDbEntity
  8
1
  6
Continuous
 62
     7
100
AcDbPolyline
 90
        2
 70
     0
 43
0.5
 10
-1.593
 20
55.083
 10
-1.593
 20
33.083
  0
LWPOLYLINE
  5
10E
330
6C
100
AcDbEntity
  8
1
  6
Continuous
 62
     7
100
AcDbPolyline
 90
        2
 70
     0
 43
0.5
 10
-1.593
 20
33.083
 10
-3.1793471960253
 20
33.083
  0
LWPOLYLINE
  5
10F
330
6C
100
AcDbEntity
  8
1
  6
Continuous
 62
     7
100
AcDbPolyline
 90
        2
 70
     0
 43
0.5
 10
-1.593
 20
55.083
 10
-3.17934719604014
 20
55.083
  0
LWPOLYLINE
  5
110
330
6C
100
AcDbEntity
  8
1
  6
Continuous
 62
     7
100
AcDbPolyline
 90
        2
 70
     0
 43
0.5
 10
-15.99300035762787
 20
30.083
 42
0.41421352745751
 10
-18.993
 20
27.083
 42
0.41421352745751
  0
LWPOLYLINE
  5
111
330
6C
100
AcDbEntity
  8
1
  6
Continuous
 62
     7
100
AcDbPolyline
 90
        2
 70
     0
 43
0.5
 10
-18.993
 20
61.08299999999997
 42
0.4142135623731
 10
-15.993
 20
58.08299999999997
 42
0.4142135623731
  0
LWPOLYLINE
  5
112
330
6C
100
AcDbEntity
  8
1
  6
Continuous
 62
     7
100
AcDbPolyline
 90
        2
 70
     0
 43
0.5
 10
-7.007
 20
30.083
 42
0.19889611464511
 10
-6.3
 20
30.37600000000001
 42
0.19889611464511
  0
LWPOLYLINE
  5
113
330
6C
100
AcDbEntity
  8
1
  6
Continuous
 62
     7
100
AcDbPolyline
 90
        2
 70
     0
 43
0.5
 10
-3.1793471960253
 20
33.083
 42
0.19880589793085
 10
-3.886
 20
32.78999999999999
 42
0.19880589793085
  0
LWPOLYLINE
  5
114
330
6C
100
AcDbEntity
  8
1
  6
Continuous
 62
     7
100
AcDbPolyline
 90
        2
 70
     0
 43
0.5
 10
-6.3
 20
57.79000000000002
 42
0.19889611464511
 10
-7.007
 20
58.08299999999997
 42
0.19889611464511
  0
LWPOLYLINE
  5
115
330
6C
100
AcDbEntity
  8
1
  6
Continuous
 62
     7
100
AcDbPolyline
 90
        2
 70
     0
 43
0.5
 10
-3.886
 20
55.37600000000001
 42
0.198805897927
 10
-3.17934719604014
 20
55.083
 42
0.198805897927
  0
ENDBLK
  5
6E
330
6C
100
AcDbEntity
  8
0
100
AcDbBlockEnd
  0
BLOCK
  5
70
330
6F
100
AcDbEntity
  8
0
100
AcDbBlockBegin
  2
Urheberrecht_DE-EN
 70
     0
 10
-67.7651238035252
 20
64.2851297393639
 30
0.0
  3
Urheberrecht_DE-EN
  1

  0
MTEXT
  5
117
330
6F
100
AcDbEntity
  8
1
 62
     1
100
AcDbMText
 10
-67.7651238035252
 20
64.2851297393639
 30
0.0
 40
2.0
 41
0.0
 71
     7
 72
     1
  1
We own the copyright of this document. It \Pdetermined and may neither be copied or \Pmade accessible to outsiders without our\Ppermission.
  7
CONVERTER_11
 11
0.0
 21
1.0
 31
0.0
 73
     1
 44
0.90036014405762
  0
MTEXT
  5
118
330
6F
100
AcDbEntity
  8
1
 62
     1
100
AcDbMText
 10
-67.7651238035252
 20
7.9957428220577
 30
0.0
 40
2.0
 41
0.0
 71
     7
 72
     1
  1
F\U+00fcr diese Unterlage behalten wir das Ur-\Pheberrecht. Sie darf nur f\U+00fcr den von uns \Pbestimmten Zweck benutzt und ohne unsere \PZustimmung weder vervielf\U+00e4ltigt noch\PDritten zug\U+00e4nglich gemacht werden.
  7
CONVERTER_11
 11
0.0
 21
1.0
 31
0.0
 73
     1
 44
0.90036014405762
  0
ENDBLK
  5
71
330
6F
100
AcDbEntity
  8
0
100
AcDbBlockEnd
  0
BLOCK
  5
120
330
119
100
AcDbEntity
  8
0
100
AcDbBlockBegin
  2
*D5
 70
     1
 10
0.0
 20
0.0
 30
0.0
  3
*D5
  1

  0
LINE
  5
11A
330
119
100
AcDbEntity
  8
1
  6
Continuous
 62
     2
100
AcDbLine
 10
33.9323941574089
 20
52.08224697784718
 30
0.0
 11
33.9323941574089
 21
36.08375302215282
 31
0.0
  0
LINE
  5
11B
330
119
100
AcDbEntity
  8
1
  6
Continuous
 62
     2
100
AcDbLine
 10
12.407
 20
52.08224697784718
 30
0.0
 11
35.9323941574089
 21
52.08224697784718
 31
0.0
  0
LINE
  5
11C
330
119
100
AcDbEntity
  8
1
  6
Continuous
 62
     2
100
AcDbLine
 10
12.407
 20
36.08375302215282
 30
0.0
 11
35.9323941574089
 21
36.08375302215282
 31
0.0
  0
SOLID
  5
11D
330
119
100
AcDbEntity
  8
1
 62
     2
100
AcDbTrace
 10
34.39317789896479
 20
48.58224697784718
 30
0.0
 11
33.47161041585301
 21
48.58224697784718
 31
0.0
 12
33.9323941574089
 22
52.08224697784718
 32
0.0
 13
33.9323941574089
 23
52.08224697784718
 33
0.0
  0
SOLID
  5
11E
330
119
100
AcDbEntity
  8
1
 62
     2
100
AcDbTrace
 10
33.47161041585301
 20
39.58375302215282
 30
0.0
 11
34.39317789896479
 21
39.58375302215282
 31
0.0
 12
33.9323941574089
 22
36.08375302215282
 32
0.0
 13
33.9323941574089
 23
36.08375302215282
 33
0.0
  0
MTEXT
  5
11F
330
119
100
AcDbEntity
  8
1
 62
     3
100
AcDbMText
 10
31.9323941574089
 20
40.2282842925526
 30
0.0
 40
3.5
 41
0.0
 71
     7
 72
     1
  1
\C3;ER\C3;\C3;16\C2;\H2.45;\S^ ;\C3;
  7
CONVERTER_11
 11
0.0
 21
1.0
 31
0.0
 73
     1
 44
0.60024009603842
  0
ENDBLK
  5
121
330
119
100
AcDbEntity
  8
0
100
AcDbBlockEnd
  0
BLOCK
  5
12B
330
124
100
AcDbEntity
  8
0
100
AcDbBlockBegin
  2
*D6
 70
     1
 10
0.0
 20
0.0
 30
0.0
  3
*D6
  1

  0
LINE
  5
125
330
124
100
AcDbEntity
  8
1
  6
Continuous
 62
     2
100
AcDbLine
 10
43.2411949992117
 20
30.08299999999999
 30
0.0
 11
43.2411949992117
 21
58.08299999999997
 31
0.0
  0
LINE
  5
126
330
124
100
AcDbEntity
  8
1
  6
Continuous
 62
     2
100
AcDbLine
 10
-5.007
 20
30.08299999999999
 30
0.0
 11
45.2411949992117
 21
30.08299999999999
 31
0.0
  0
LINE
  5
127
330
124
100
AcDbEntity
  8
1
  6
Continuous
 62
     2
100
AcDbLine
 10
-5.007
 20
58.08299999999997
 30
0.0
 11
45.2411949992117
 21
58.08299999999997
 31
0.0
  0
SOLID
  5
128
330
124
100
AcDbEntity
  8
1
 62
     2
100
AcDbTrace
 10
42.78041125765581
 20
33.58299999999999
 30
0.0
 11
43.70197874076759
 21
33.58299999999999
 31
0.0
 12
43.2411949992117
 22
30.08299999999999
 32
0.0
 13
43.2411949992117
 23
30.08299999999999
 33
0.0
  0
SOLID
  5
129
330
124
100
AcDbEntity
  8
1
 62
     2
100
AcDbTrace
 10
43.70197874076759
 20
54.58299999999997
 30
0.0
 11
42.78041125765581
 21
54.58299999999997
 31
0.0
 12
43.2411949992117
 22
58.08299999999997
 32
0.0
 13
43.2411949992117
 23
58.08299999999997
 33
0.0
  0
MTEXT
  5
12A
330
124
100
AcDbEntity
  8
1
 62
     3
100
AcDbMText
 10
41.2411949992117
 20
35.78542059808721
 30
0.0
 40
3.5
 41
0.0
 71
     7
 72
     1
  1
\C3;%%c\C3;\C3;28\C2;\H2.45;\S^ ;\C3;
  7
CONVERTER_11
 11
0.0
 21
1.0
 31
0.0
 73
     1
 44
0.60024009603842
  0
ENDBLK
  5
12C
330
124
100
AcDbEntity
  8
0
100
AcDbBlockEnd
  0
BLOCK
  5
136
330
12F
100
AcDbEntity
  8
0
100
AcDbBlockBegin
  2
*D7
 70
     1
 10
0.0
 20
0.0
 30
0.0
  3
*D7
  1

  0
LINE
  5
130
330
12F
100
AcDbEntity
  8
1
  6
Continuous
 62
     2
100
AcDbLine
 10
21.007
 20
87.0654863815253
 30
0.0
 11
-38.993
 21
87.0654863815253
 31
0.0
  0
LINE
  5
131
330
12F
100
AcDbEntity
  8
1
  6
Continuous
 62
     2
100
AcDbLine
 10
21.007
 20
56.83299999999998
 30
0.0
 11
21.007
 21
89.0654863815253
 31
0.0
  0
LINE
  5
132
330
12F
100
AcDbEntity
  8
1
  6
Continuous
 62
     2
100
AcDbLine
 10
-38.993
 20
65.583
 30
0.0
 11
-38.993
 21
89.0654863815253
 31
0.0
  0
SOLID
  5
133
330
12F
100
AcDbEntity
  8
1
 62
     2
100
AcDbTrace
 10
17.507
 20
86.60470263996942
 30
0.0
 11
17.507
 21
87.52627012308119
 31
0.0
 12
21.007
 22
87.0654863815253
 32
0.0
 13
21.007
 23
87.0654863815253
 33
0.0
  0
SOLID
  5
134
330
12F
100
AcDbEntity
  8
1
 62
     2
100
AcDbTrace
 10
-35.493
 20
87.52627012308119
 30
0.0
 11
-35.493
 21
86.60470263996942
 31
0.0
 12
-38.993
 22
87.0654863815253
 32
0.0
 13
-38.993
 23
87.0654863815253
 33
0.0
  0
MTEXT
  5
135
330
12F
100
AcDbEntity
  8
1
 62
     3
100
AcDbMText
 10
-11.74597438519053
 20
89.0654863815253
 30
0.0
 40
3.5
 41
0.0
 71
     7
 72
     1
  1
\C3;\C3;\C3;60\C2;\H2.45;\S^ ;\C3;
  7
CONVERTER_11
 11
0.9999999999970619
 21
2.424068405545306E-6
 31
0.0
 73
     1
 44
0.60024009603842
  0
ENDBLK
  5
137
330
12F
100
AcDbEntity
  8
0
100
AcDbBlockEnd
  0
BLOCK
  5
141
330
13A
100
AcDbEntity
  8
0
100
AcDbBlockBegin
  2
*D8
 70
     1
 10
0.0
 20
0.0
 30
0.0
  3
*D8
  1

  0
LINE
  5
13B
330
13A
100
AcDbEntity
  8
1
  6
Continuous
 62
     2
100
AcDbLine
 10
-18.99300000000001
 20
71.4958991328461
 30
0.0
 11
10.407
 21
71.4958991328461
 31
0.0
  0
LINE
  5
13C
330
13A
100
AcDbEntity
  8
1
  6
Continuous
 62
     2
100
AcDbLine
 10
-18.99300000000001
 20
66.083
 30
0.0
 11
-18.99300000000001
 21
73.4958991328461
 31
0.0
  0
LINE
  5
13D
330
13A
100
AcDbEntity
  8
1
  6
Continuous
 62
     2
100
AcDbLine
 10
10.407
 20
55.583
 30
0.0
 11
10.407
 21
73.4958991328461
 31
0.0
  0
SOLID
  5
13E
330
13A
100
AcDbEntity
  8
1
 62
     2
100
AcDbTrace
 10
-15.49300000000001
 20
71.95668287440199
 30
0.0
 11
-15.49300000000001
 21
71.03511539129022
 31
0.0
 12
-18.99300000000001
 22
71.4958991328461
 32
0.0
 13
-18.99300000000001
 23
71.4958991328461
 33
0.0
  0
SOLID
  5
13F
330
13A
100
AcDbEntity
  8
1
 62
     2
100
AcDbTrace
 10
6.907
 20
71.03511539129022
 30
0.0
 11
6.907
 21
71.95668287440199
 31
0.0
 12
10.407
 22
71.4958991328461
 32
0.0
 13
10.407
 23
71.4958991328461
 33
0.0
  0
MTEXT
  5
140
330
13A
100
AcDbEntity
  8
1
 62
     3
100
AcDbMText
 10
-8.10635443194109
 20
73.4958991328461
 30
0.0
 40
3.5
 41
0.0
 71
     7
 72
     1
  1
\C3;\C3;\C3;29.4\C2;\H2.45;\S^ ;\C3;
  7
CONVERTER_11
 11
0.9999999999970619
 21
2.424068405545306E-6
 31
0.0
 73
     1
 44
0.60024009603842
  0
ENDBLK
  5
142
330
13A
100
AcDbEntity
  8
0
100
AcDbBlockEnd
  0
BLOCK
  5
14C
330
145
100
AcDbEntity
  8
0
100
AcDbBlockBegin
  2
*D9
 70
     1
 10
0.0
 20
0.0
 30
0.0
  3
*D9
  1

  0
LINE
  5
146
330
145
100
AcDbEntity
  8
1
  6
Continuous
 62
     2
100
AcDbLine
 10
10.407
 20
79.7337759839991
 30
0.0
 11
-38.993
 21
79.7337759839991
 31
0.0
  0
LINE
  5
147
330
145
100
AcDbEntity
  8
1
  6
Continuous
 62
     2
100
AcDbLine
 10
10.407
 20
55.583
 30
0.0
 11
10.407
 21
81.7337759839991
 31
0.0
  0
LINE
  5
148
330
145
100
AcDbEntity
  8
1
  6
Continuous
 62
     2
100
AcDbLine
 10
-38.993
 20
65.583
 30
0.0
 11
-38.993
 21
81.7337759839991
 31
0.0
  0
SOLID
  5
149
330
145
100
AcDbEntity
  8
1
 62
     2
100
AcDbTrace
 10
6.907
 20
79.27299224244321
 30
0.0
 11
6.907
 21
80.19455972555498
 31
0.0
 12
10.407
 22
79.7337759839991
 32
0.0
 13
10.407
 23
79.7337759839991
 33
0.0
  0
SOLID
  5
14A
330
145
100
AcDbEntity
  8
1
 62
     2
100
AcDbTrace
 10
-35.493
 20
80.19455972555498
 30
0.0
 11
-35.493
 21
79.27299224244321
 31
0.0
 12
-38.993
 22
79.7337759839991
 32
0.0
 13
-38.993
 23
79.7337759839991
 33
0.0
  0
MTEXT
  5
14B
330
145
100
AcDbEntity
  8
1
 62
     3
100
AcDbMText
 10
-19.2274881809976
 20
81.7337759839991
 30
0.0
 40
3.5
 41
0.0
 71
     7
 72
     1
  1
\C3;\C3;\C3;49.4\C2;\H2.45;\S^ ;\C3;
  7
CONVERTER_11
 11
0.9999999999970619
 21
2.424068405545306E-6
 31
0.0
 73
     1
 44
0.60024009603842
  0
ENDBLK
  5
14D
330
145
100
AcDbEntity
  8
0
100
AcDbBlockEnd
  0
BLOCK
  5
157
330
150
100
AcDbEntity
  8
0
100
AcDbBlockBegin
  2
*D10
 70
     1
 10
0.0
 20
0.0
 30
0.0
  3
*D10
  1

  0
LINE
  5
151
330
150
100
AcDbEntity
  8
1
  6
Continuous
 62
     2
100
AcDbLine
 10
10.407
 20
95.3857420011899
 30
0.0
 11
-58.99299999999999
 21
95.3857420011899
 31
0.0
  0
LINE
  5
152
330
150
100
AcDbEntity
  8
1
  6
Continuous
 62
     2
100
AcDbLine
 10
10.407
 20
55.583
 30
0.0
 11
10.407
 21
97.3857420011899
 31
0.0
  0
LINE
  5
153
330
150
100
AcDbEntity
  8
1
  6
Continuous
 62
     2
100
AcDbLine
 10
-58.99299999999999
 20
59.52199999999998
 30
0.0
 11
-58.99299999999999
 21
97.3857420011899
 31
0.0
  0
SOLID
  5
154
330
150
100
AcDbEntity
  8
1
 62
     2
100
AcDbTrace
 10
6.907
 20
94.92495825963401
 30
0.0
 11
6.907
 21
95.84652574274578
 31
0.0
 12
10.407
 22
95.3857420011899
 32
0.0
 13
10.407
 23
95.3857420011899
 33
0.0
  0
SOLID
  5
155
330
150
100
AcDbEntity
  8
1
 62
     2
100
AcDbTrace
 10
-55.49299999999999
 20
95.84652574274578
 30
0.0
 11
-55.49299999999999
 21
94.92495825963401
 31
0.0
 12
-58.99299999999999
 22
95.3857420011899
 32
0.0
 13
-58.99299999999999
 23
95.3857420011899
 33
0.0
  0
MTEXT
  5
156
330
150
100
AcDbEntity
  8
1
 62
     3
100
AcDbMText
 10
-24.7468656712701
 20
97.3857420011899
 30
0.0
 40
3.5
 41
0.0
 71
     7
 72
     1
  1
\C3;\C3;\C3;69.4\C2;\H2.45;\S^ ;\C3;
  7
CONVERTER_11
 11
0.9999999999970619
 21
2.424068405545306E-6
 31
0.0
 73
     1
 44
0.60024009603842
  0
ENDBLK
  5
158
330
150
100
AcDbEntity
  8
0
100
AcDbBlockEnd
  0
ENDSEC
  0
SECTION
  2
ENTITIES
  0
INSERT
  5
72
330
1F
100
AcDbEntity
  8
1
100
AcDbBlockReference
  2
IGS24
 10
21.007
 20
37.88300000000004
 30
0.0
  0
INSERT
  5
73
330
1F
100
AcDbEntity
  8
1
100
AcDbBlockReference
  2
IGS31
 10
-37.993
 20
61.08299999999997
 30
0.0
  0
INSERT
  5
74
330
1F
100
AcDbEntity
  8
0
100
AcDbBlockReference
  2
Urheberrecht_DE-EN
 10
-67.7651238035252
 20
64.2851297393639
 30
0.0
  0
DIMENSION
  5
123
330
1F
100
AcDbEntity
  8
1
100
AcDbDimension
  2
*D5
 10
33.9323941574089
 20
52.08224697784718
 30
0.0
 11
30.1823941574089
 21
44.3932842925526
 31
0.0
 70
    32
  1
<>
 71
     5
 42
-1.0
 53
90.0
  3
ME10_DIM_10
100
AcDbAlignedDimension
 13
10.407
 23
36.08375302215282
 33
0.0
 14
10.407
 24
52.08224697784718
 34
0.0
 50
90.0
100
AcDbRotatedDimension
  0
DIMENSION
  5
12E
330
1F
100
AcDbEntity
  8
1
100
AcDbDimension
  2
*D6
 10
43.2411949992117
 20
30.08299999999999
 30
0.0
 11
39.4911949992117
 21
44.6404205980872
 31
0.0
 70
    32
  1
<>
 71
     5
 42
-1.0
 53
90.0
  3
ME10_DIM_11
100
AcDbAlignedDimension
 13
-7.007
 23
58.08299999999997
 33
0.0
 14
-7.007
 24
30.083
 34
0.0
 50
90.0
100
AcDbRotatedDimension
  0
DIMENSION
  5
139
330
1F
100
AcDbEntity
  8
1
100
AcDbDimension
  2
*D7
 10
21.007
 20
87.0654863815253
 30
0.0
 11
-9.64597438519053
 21
90.8154863815253
 31
0.0
 70
    32
  1
<>
 71
     5
 42
-1.0
 53
0.00013888888889
  3
ME10_DIM_12
100
AcDbAlignedDimension
 13
-38.993
 23
63.583
 33
0.0
 14
21.007
 24
54.83299999999997
 34
0.0
100
AcDbRotatedDimension
  0
DIMENSION
  5
144
330
1F
100
AcDbEntity
  8
1
100
AcDbDimension
  2
*D8
 10
-18.99300000000001
 20
71.4958991328461
 30
0.0
 11
-4.29135443194109
 21
75.2458991328461
 31
0.0
 70
    32
  1
<>
 71
     5
 42
-1.0
 53
0.00013888888889
  3
ME10_DIM_13
100
AcDbAlignedDimension
 13
10.407
 23
53.583
 33
0.0
 14
-18.99300000000001
 24
64.083
 34
0.0
100
AcDbRotatedDimension
  0
DIMENSION
  5
14F
330
1F
100
AcDbEntity
  8
1
100
AcDbDimension
  2
*D9
 10
10.407
 20
79.7337759839991
 30
0.0
 11
-15.4124881809976
 21
83.4837759839991
 31
0.0
 70
    32
  1
<>
 71
     5
 42
-1.0
 53
0.00013888888889
  3
ME10_DIM_14
100
AcDbAlignedDimension
 13
-38.993
 23
63.583
 33
0.0
 14
10.407
 24
53.583
 34
0.0
100
AcDbRotatedDimension
  0
DIMENSION
  5
15A
330
1F
100
AcDbEntity
  8
1
100
AcDbDimension
  2
*D10
 10
10.407
 20
95.3857420011899
 30
0.0
 11
-20.9318656712701
 21
99.1357420011899
 31
0.0
 70
    32
  1
<>
 71
     5
 42
-1.0
 53
0.00013888888889
  3
ME10_DIM_15
100
AcDbAlignedDimension
 13
-58.993
 23
57.52199999999999
 33
0.0
 14
10.407
 24
53.583
 34
0.0
100
AcDbRotatedDimension
  0
ENDSEC
  0
SECTION
  2
OBJECTS
  0
DICTIONARY
  5
C
330
0
100
AcDbDictionary
281
     1
  3
ACAD_GROUP
350
D
  3
ACAD_LAYOUT
350
1A
  3
ACAD_MLEADERSTYLE
350
15D
  3
ACAD_MLINESTYLE
350
17
  3
ACAD_PLOTSETTINGS
350
19
  3
ACAD_PLOTSTYLENAME
350
E
  3
ACAD_SCALELIST
350
47
  3
ACAD_VISUALSTYLE
350
2A
  3
AcDbVariableDictionary
350
15B
  0
DICTIONARY
  5
D
102
{ACAD_REACTORS
330
C
102
}
330
C
100
AcDbDictionary
281
     1
  0
DICTIONARY
  5
1A
102
{ACAD_REACTORS
330
C
102
}
330
C
100
AcDbDictionary
281
     1
  3
Layout1
350
1E
  3
Layout2
350
26
  3
Model
350
22
  0
DICTIONARY
  5
15D
102
{ACAD_REACTORS
330
C
102
}
330
C
100
AcDbDictionary
281
     1
  0
DICTIONARY
  5
17
102
{ACAD_REACTORS
330
C
102
}
330
C
100
AcDbDictionary
281
     1
  3
Standard
350
18
  0
DICTIONARY
  5
19
102
{ACAD_REACTORS
330
C
102
}
330
C
100
AcDbDictionary
281
     1
  0
ACDBDICTIONARYWDFLT
  5
E
102
{ACAD_REACTORS
330
C
102
}
330
C
100
AcDbDictionary
281
     1
  3
Normal
350
F
100
AcDbDictionaryWithDefault
340
F
  0
DICTIONARY
  5
47
102
{ACAD_REACTORS
330
C
102
}
330
C
100
AcDbDictionary
281
     1
  3
A0
350
48
  3
A1
350
49
  3
A2
350
4A
  3
A3
350
4B
  3
A4
350
4C
  3
A5
350
4D
  3
A6
350
4E
  3
A7
350
4F
  3
A8
350
50
  3
A9
350
51
  3
B0
350
52
  3
B1
350
53
  3
B2
350
54
  3
B3
350
55
  3
B4
350
56
  3
B5
350
57
  3
B6
350
58
  3
B7
350
59
  3
B8
350
5A
  3
B9
350
5B
  3
C0
350
5C
  3
C1
350
5D
  3
C2
350
5E
  3
C3
350
5F
  3
C4
350
60
  3
C5
350
61
  3
C6
350
62
  3
C7
350
63
  3
C8
350
64
  3
C9
350
65
  3
D0
350
66
  3
D1
350
67
  3
D2
350
68
  0
DICTIONARY
  5
2A
102
{ACAD_REACTORS
330
C
102
}
330
C
100
AcDbDictionary
281
     1
  3
2dWireframe
350
2F
  3
3D Hidden
350
31
  3
3dWireframe
350
30
  3
Basic
350
32
  3
Brighten
350
36
  3
ColorChange
350
3A
  3
Conceptual
350
34
  3
Dim
350
35
  3
Facepattern
350
39
  3
Flat
350
2B
  3
FlatWithEdges
350
2C
  3
Gouraud
350
2D
  3
GouraudWithEdges
350
2E
  3
Linepattern
350
38
  3
Realistic
350
33
  3
Thicken
350
37
  0
DICTIONARY
  5
15B
102
{ACAD_REACTORS
330
C
102
}
330
C
100
AcDbDictionary
281
     1
  3
CANNOSCALE
350
15E
  0
LAYOUT
  5
1E
102
{ACAD_REACTORS
330
1A
102
}
330
1A
100
AcDbPlotSettings
  1

  2
none_device
  4

  6

 40
0.0
 41
0.0
 42
0.0
 43
0.0
 44
0.0
 45
0.0
 46
0.0
 47
0.0
 48
0.0
 49
0.0
140
0.0
141
0.0
142
1.0
143
1.0
 70
   688
 72
     0
 73
     0
 74
     5
  7

 75
    16
147
1.0
148
0.0
149
0.0
100
AcDbLayout
  1
Layout1
 70
     1
 71
     1
 10
0.0
 20
0.0
 11
12.0
 21
9.0
 12
0.0
 22
0.0
 32
0.0
 14
1.00000000000000E+20
 24
1.00000000000000E+20
 34
1.00000000000000E+20
 15
-1.00000000000000E+20
 25
-1.00000000000000E+20
 35
-1.00000000000000E+20
146
0.0
 13
0.0
 23
0.0
 33
0.0
 16
1.0
 26
0.0
 36
0.0
 17
0.0
 27
1.0
 37
0.0
 76
     0
330
1B
  0
LAYOUT
  5
26
102
{ACAD_REACTORS
330
1A
102
}
330
1A
100
AcDbPlotSettings
  1

  2
none_device
  4

  6

 40
0.0
 41
0.0
 42
0.0
 43
0.0
 44
0.0
 45
0.0
 46
0.0
 47
0.0
 48
0.0
 49
0.0
140
0.0
141
0.0
142
1.0
143
1.0
 70
   688
 72
     0
 73
     0
 74
     5
  7

 75
    16
147
1.0
148
0.0
149
0.0
100
AcDbLayout
  1
Layout2
 70
     1
 71
     2
 10
0.0
 20
0.0
 11
0.0
 21
0.0
 12
0.0
 22
0.0
 32
0.0
 14
0.0
 24
0.0
 34
0.0
 15
0.0
 25
0.0
 35
0.0
146
0.0
 13
0.0
 23
0.0
 33
0.0
 16
1.0
 26
0.0
 36
0.0
 17
0.0
 27
1.0
 37
0.0
 76
     0
330
23
  0
LAYOUT
  5
22
102
{ACAD_REACTORS
330
1A
102
}
330
1A
100
AcDbPlotSettings
  1

  2
none_device
  4

  6

 40
0.0
 41
0.0
 42
0.0
 43
0.0
 44
0.0
 45
0.0
 46
0.0
 47
0.0
 48
0.0
 49
0.0
140
0.0
141
0.0
142
1.0
143
1.0
 70
  1712
 72
     0
 73
     0
 74
     0
  7

 75
     0
147
1.0
148
0.0
149
0.0
100
AcDbLayout
  1
Model
 70
     1
 71
     0
 10
0.0
 20
0.0
 11
12.0
 21
9.0
 12
0.0
 22
0.0
 32
0.0
 14
-81.7651238035252
 24
7.9957428220577
 34
0.0
 15
45.2411949992117
 25
116.7651297393639
 35
0.0
146
0.0
 13
0.0
 23
0.0
 33
0.0
 16
1.0
 26
0.0
 36
0.0
 17
0.0
 27
1.0
 37
0.0
 76
     0
330
1F
331
29
  0
MLINESTYLE
  5
18
102
{ACAD_REACTORS
330
17
102
}
330
17
100
AcDbMlineStyle
  2
Standard
 70
     0
  3

 62
   256
 51
90.0
 52
90.0
 71
     2
 49
0.5
 62
   256
  6
BYLAYER
 49
-0.5
 62
   256
  6
BYLAYER
  0
ACDBPLACEHOLDER
  5
F
102
{ACAD_REACTORS
330
E
102
}
330
E
  0
SCALE
  5
48
102
{ACAD_REACTORS
330
47
102
}
330
47
100
AcDbScale
 70
     0
300
1:1
140
1.0
141
1.0
290
     1
  0
SCALE
  5
49
102
{ACAD_REACTORS
330
47
102
}
330
47
100
AcDbScale
 70
     0
300
1:2
140
1.0
141
2.0
290
     0
  0
SCALE
  5
4A
102
{ACAD_REACTORS
330
47
102
}
330
47
100
AcDbScale
 70
     0
300
1:4
140
1.0
141
4.0
290
     0
  0
SCALE
  5
4B
102
{ACAD_REACTORS
330
47
102
}
330
47
100
AcDbScale
 70
     0
300
1:5
140
1.0
141
5.0
290
     0
  0
SCALE
  5
4C
102
{ACAD_REACTORS
330
47
102
}
330
47
100
AcDbScale
 70
     0
300
1:8
140
1.0
141
8.0
290
     0
  0
SCALE
  5
4D
102
{ACAD_REACTORS
330
47
102
}
330
47
100
AcDbScale
 70
     0
300
1:10
140
1.0
141
10.0
290
     0
  0
SCALE
  5
4E
102
{ACAD_REACTORS
330
47
102
}
330
47
100
AcDbScale
 70
     0
300
1:16
140
1.0
141
16.0
290
     0
  0
SCALE
  5
4F
102
{ACAD_REACTORS
330
47
102
}
330
47
100
AcDbScale
 70
     0
300
1:20
140
1.0
141
20.0
290
     0
  0
SCALE
  5
50
102
{ACAD_REACTORS
330
47
102
}
330
47
100
AcDbScale
 70
     0
300
1:30
140
1.0
141
30.0
290
     0
  0
SCALE
  5
51
102
{ACAD_REACTORS
330
47
102
}
330
47
100
AcDbScale
 70
     0
300
1:40
140
1.0
141
40.0
290
     0
  0
SCALE
  5
52
102
{ACAD_REACTORS
330
47
102
}
330
47
100
AcDbScale
 70
     0
300
1:50
140
1.0
141
50.0
290
     0
  0
SCALE
  5
53
102
{ACAD_REACTORS
330
47
102
}
330
47
100
AcDbScale
 70
     0
300
1:100
140
1.0
141
100.0
290
     0
  0
SCALE
  5
54
102
{ACAD_REACTORS
330
47
102
}
330
47
100
AcDbScale
 70
     0
300
2:1
140
2.0
141
1.0
290
     0
  0
SCALE
  5
55
102
{ACAD_REACTORS
330
47
102
}
330
47
100
AcDbScale
 70
     0
300
4:1
140
4.0
141
1.0
290
     0
  0
SCALE
  5
56
102
{ACAD_REACTORS
330
47
102
}
330
47
100
AcDbScale
 70
     0
300
8:1
140
8.0
141
1.0
290
     0
  0
SCALE
  5
57
102
{ACAD_REACTORS
330
47
102
}
330
47
100
AcDbScale
 70
     0
300
10:1
140
10.0
141
1.0
290
     0
  0
SCALE
  5
58
102
{ACAD_REACTORS
330
47
102
}
330
47
100
AcDbScale
 70
     0
300
100:1
140
100.0
141
1.0
290
     0
  0
SCALE
  5
59
102
{ACAD_REACTORS
330
47
102
}
330
47
100
AcDbScale
 70
     0
300
1/128" = 1'-0"
140
0.0078125
141
12.0
290
     0
  0
SCALE
  5
5A
102
{ACAD_REACTORS
330
47
102
}
330
47
100
AcDbScale
 70
     0
300
1/64" = 1'-0"
140
0.015625
141
12.0
290
     0
  0
SCALE
  5
5B
102
{ACAD_REACTORS
330
47
102
}
330
47
100
AcDbScale
 70
     0
300
1/32" = 1'-0"
140
0.03125
141
12.0
290
     0
  0
SCALE
  5
5C
102
{ACAD_REACTORS
330
47
102
}
330
47
100
AcDbScale
 70
     0
300
1/16" = 1'-0"
140
0.0625
141
12.0
290
     0
  0
SCALE
  5
5D
102
{ACAD_REACTORS
330
47
102
}
330
47
100
AcDbScale
 70
     0
300
3/32" = 1'-0"
140
0.09375
141
12.0
290
     0
  0
SCALE
  5
5E
102
{ACAD_REACTORS
330
47
102
}
330
47
100
AcDbScale
 70
     0
300
1/8" = 1'-0"
140
0.125
141
12.0
290
     0
  0
SCALE
  5
5F
102
{ACAD_REACTORS
330
47
102
}
330
47
100
AcDbScale
 70
     0
300
3/16" = 1'-0"
140
0.1875
141
12.0
290
     0
  0
SCALE
  5
60
102
{ACAD_REACTORS
330
47
102
}
330
47
100
AcDbScale
 70
     0
300
1/4" = 1'-0"
140
0.25
141
12.0
290
     0
  0
SCALE
  5
61
102
{ACAD_REACTORS
330
47
102
}
330
47
100
AcDbScale
 70
     0
300
3/8" = 1'-0"
140
0.375
141
12.0
290
     0
  0
SCALE
  5
62
102
{ACAD_REACTORS
330
47
102
}
330
47
100
AcDbScale
 70
     0
300
1/2" = 1'-0"
140
0.5
141
12.0
290
     0
  0
SCALE
  5
63
102
{ACAD_REACTORS
330
47
102
}
330
47
100
AcDbScale
 70
     0
300
3/4" = 1'-0"
140
0.75
141
12.0
290
     0
  0
SCALE
  5
64
102
{ACAD_REACTORS
330
47
102
}
330
47
100
AcDbScale
 70
     0
300
1" = 1'-0"
140
1.0
141
12.0
290
     0
  0
SCALE
  5
65
102
{ACAD_REACTORS
330
47
102
}
330
47
100
AcDbScale
 70
     0
300
1-1/2" = 1'-0"
140
1.5
141
12.0
290
     0
  0
SCALE
  5
66
102
{ACAD_REACTORS
330
47
102
}
330
47
100
AcDbScale
 70
     0
300
3" = 1'-0"
140
3.0
141
12.0
290
     0
  0
SCALE
  5
67
102
{ACAD_REACTORS
330
47
102
}
330
47
100
AcDbScale
 70
     0
300
6" = 1'-0"
140
6.0
141
12.0
290
     0
  0
SCALE
  5
68
102
{ACAD_REACTORS
330
47
102
}
330
47
100
AcDbScale
 70
     0
300
1'-0" = 1'-0"
140
12.0
141
12.0
290
     0
  0
VISUALSTYLE
  5
2F
102
{ACAD_REACTORS
330
2A
102
}
330
2A
100
AcDbVisualStyle
  2
2dWireframe
 70
     4
 71
     0
 72
     2
 73
     0
 90
        0
 40
-0.6
 41
-30.0
 62
     5
 63
     7
 74
     1
 91
        4
 64
     7
 65
   257
 75
     1
175
     1
 42
1.0
 92
        0
 66
   257
 43
1.0
 76
     1
 77
     6
 78
     2
 67
     7
 79
     5
170
     0
171
     0
290
     0
174
     0
 93
        1
 44
0.0
173
     0
291
     0
 45
0.0
1001
ACAD
1000
AcDbSavedByObjectVersion
1070
     0
  0
VISUALSTYLE
  5
31
102
{ACAD_REACTORS
330
2A
102
}
330
2A
100
AcDbVisualStyle
  2
3D Hidden
 70
     6
 71
     1
 72
     2
 73
     2
 90
        0
 40
-0.6
 41
-30.0
 62
     5
 63
     7
 74
     2
 91
        2
 64
     7
 65
   257
 75
     2
175
     1
 42
40.0
 92
        0
 66
   257
 43
1.0
 76
     1
 77
     6
 78
     2
 67
     7
 79
     3
170
     0
171
     0
290
     0
174
     0
 93
        1
 44
0.0
173
     0
291
     0
 45
0.0
1001
ACAD
1000
AcDbSavedByObjectVersion
1070
     0
  0
VISUALSTYLE
  5
30
102
{ACAD_REACTORS
330
2A
102
}
330
2A
100
AcDbVisualStyle
  2
3dWireframe
 70
     5
 71
     0
 72
     2
 73
     0
 90
        0
 40
-0.6
 41
-30.0
 62
     5
 63
     7
 74
     1
 91
        4
 64
     7
 65
   257
 75
     1
175
     1
 42
1.0
 92
        0
 66
   257
 43
1.0
 76
     1
 77
     6
 78
     2
 67
     7
 79
     5
170
     0
171
     0
290
     0
174
     0
 93
        1
 44
0.0
173
     0
291
     0
 45
0.0
1001
ACAD
1000
AcDbSavedByObjectVersion
1070
     0
  0
VISUALSTYLE
  5
32
102
{ACAD_REACTORS
330
2A
102
}
330
2A
100
AcDbVisualStyle
  2
Basic
 70
     7
 71
     1
 72
     0
 73
     1
 90
        0
 40
-0.6
 41
-30.0
 62
     5
 63
     7
 74
     0
 91
        4
 64
     7
 65
   257
 75
     1
175
     1
 42
1.0
 92
        8
 66
     7
 43
1.0
 76
     1
 77
     6
 78
     2
 67
     7
 79
     5
170
     0
171
     0
290
     0
174
     0
 93
        1
 44
0.0
173
     0
291
     1
 45
0.0
1001
ACAD
1000
AcDbSavedByObjectVersion
1070
     0
  0
VISUALSTYLE
  5
36
102
{ACAD_REACTORS
330
2A
102
}
330
2A
100
AcDbVisualStyle
  2
Brighten
 70
    12
 71
     2
 72
     2
 73
     0
 90
        0
 40
-0.6
 41
-30.0
 62
     5
 63
     7
 74
     1
 91
        4
 64
     7
 65
   257
 75
     1
175
     1
 42
1.0
 92
        8
 66
     7
 43
1.0
 76
     1
 77
     6
 78
     2
 67
     7
 79
     5
170
     0
171
     0
290
     0
174
     0
 93
        1
 44
50.0
173
     0
291
     1
 45
0.0
1001
ACAD
1000
AcDbSavedByObjectVersion
1070
     0
  0
VISUALSTYLE
  5
3A
102
{ACAD_REACTORS
330
2A
102
}
330
2A
100
AcDbVisualStyle
  2
ColorChange
 70
    16
 71
     2
 72
     2
 73
     3
 90
        0
 40
-0.6
 41
-30.0
 62
     5
 63
     8
 74
     1
 91
        4
 64
     7
 65
   257
 75
     1
175
     1
 42
1.0
 92
        8
 66
     8
 43
1.0
 76
     1
 77
     6
 78
     2
 67
     7
 79
     5
170
     0
171
     0
290
     0
174
     0
 93
        1
 44
0.0
173
     0
291
     1
 45
0.0
1001
ACAD
1000
AcDbSavedByObjectVersion
1070
     0
  0
VISUALSTYLE
  5
34
102
{ACAD_REACTORS
330
2A
102
}
330
2A
100
AcDbVisualStyle
  2
Conceptual
 70
     9
 71
     3
 72
     2
 73
     0
 90
        0
 40
-0.6
 41
-30.0
 62
     5
 63
     7
 74
     2
 91
        2
 64
     7
 65
   257
 75
     1
175
     1
 42
40.0
 92
        8
 66
     7
 43
1.0
 76
     1
 77
     6
 78
     2
 67
     7
 79
     3
170
     0
171
     0
290
     0
174
     0
 93
        1
 44
0.0
173
     0
291
     0
 45
0.0
1001
ACAD
1000
AcDbSavedByObjectVersion
1070
     0
  0
VISUALSTYLE
  5
35
102
{ACAD_REACTORS
330
2A
102
}
330
2A
100
AcDbVisualStyle
  2
Dim
 70
    11
 71
     2
 72
     2
 73
     0
 90
        0
 40
-0.6
 41
-30.0
 62
     5
 63
     7
 74
     1
 91
        4
 64
     7
 65
   257
 75
     1
175
     1
 42
1.0
 92
        8
 66
     7
 43
1.0
 76
     1
 77
     6
 78
     2
 67
     7
 79
     5
170
     0
171
     0
290
     0
174
     0
 93
        1
 44
-50.0
173
     0
291
     1
 45
0.0
1001
ACAD
1000
AcDbSavedByObjectVersion
1070
     0
  0
VISUALSTYLE
  5
39
102
{ACAD_REACTORS
330
2A
102
}
330
2A
100
AcDbVisualStyle
  2
Facepattern
 70
    15
 71
     2
 72
     2
 73
     0
 90
        0
 40
-0.6
 41
-30.0
 62
     5
 63
     7
 74
     1
 91
        4
 64
     7
 65
   257
 75
     1
175
     1
 42
1.0
 92
        8
 66
     7
 43
1.0
 76
     1
 77
     6
 78
     2
 67
     7
 79
     5
170
     0
171
     0
290
     0
174
     0
 93
        1
 44
0.0
173
     0
291
     1
 45
0.0
1001
ACAD
1000
AcDbSavedByObjectVersion
1070
     0
  0
VISUALSTYLE
  5
2B
102
{ACAD_REACTORS
330
2A
102
}
330
2A
100
AcDbVisualStyle
  2
Flat
 70
     0
 71
     2
 72
     1
 73
     1
 90
        2
 40
-0.6
 41
30.0
 62
     5
 63
     7
 74
     0
 91
        4
 64
     7
 65
   257
 75
     1
175
     1
 42
1.0
 92
        8
 66
     7
 43
1.0
 76
     1
 77
     6
 78
     2
 67
     7
 79
     5
170
     0
171
     0
290
     0
174
     0
 93
       13
 44
0.0
173
     0
291
     1
 45
0.0
1001
ACAD
1000
AcDbSavedByObjectVersion
1070
     0
  0
VISUALSTYLE
  5
2C
102
{ACAD_REACTORS
330
2A
102
}
330
2A
100
AcDbVisualStyle
  2
FlatWithEdges
 70
     1
 71
     2
 72
     1
 73
     1
 90
        2
 40
-0.6
 41
30.0
 62
     5
 63
     7
 74
     1
 91
        4
 64
     7
 65
   257
 75
     1
175
     1
 42
1.0
 92
        0
 66
   257
 43
1.0
 76
     1
 77
     6
 78
     2
 67
     7
 79
     5
170
     0
171
     0
290
     0
174
     0
 93
       13
 44
0.0
173
     0
291
     1
 45
0.0
1001
ACAD
1000
AcDbSavedByObjectVersion
1070
     0
  0
VISUALSTYLE
  5
2D
102
{ACAD_REACTORS
330
2A
102
}
330
2A
100
AcDbVisualStyle
  2
Gouraud
 70
     2
 71
     2
 72
     2
 73
     1
 90
        2
 40
-0.6
 41
30.0
 62
     5
 63
     7
 74
     0
 91
        4
 64
     7
 65
   257
 75
     1
175
     1
 42
1.0
 92
        0
 66
     7
 43
1.0
 76
     1
 77
     6
 78
     2
 67
     7
 79
     5
170
     0
171
     0
290
     0
174
     0
 93
       13
 44
0.0
173
     0
291
     1
 45
0.0
1001
ACAD
1000
AcDbSavedByObjectVersion
1070
     0
  0
VISUALSTYLE
  5
2E
102
{ACAD_REACTORS
330
2A
102
}
330
2A
100
AcDbVisualStyle
  2
GouraudWithEdges
 70
     3
 71
     2
 72
     2
 73
     1
 90
        2
 40
-0.6
 41
30.0
 62
     5
 63
     7
 74
     1
 91
        4
 64
     7
 65
   257
 75
     1
175
     1
 42
1.0
 92
        0
 66
   257
 43
1.0
 76
     1
 77
     6
 78
     2
 67
     7
 79
     5
170
     0
171
     0
290
     0
174
     0
 93
       13
 44
0.0
173
     0
291
     1
 45
0.0
1001
ACAD
1000
AcDbSavedByObjectVersion
1070
     0
  0
VISUALSTYLE
  5
38
102
{ACAD_REACTORS
330
2A
102
}
330
2A
100
AcDbVisualStyle
  2
Linepattern
 70
    14
 71
     2
 72
     2
 73
     0
 90
        0
 40
-0.6
 41
-30.0
 62
     5
 63
     7
 74
     1
 91
        4
 64
     7
 65
   257
 75
     7
175
     7
 42
1.0
 92
        8
 66
     7
 43
1.0
 76
     1
 77
     6
 78
     2
 67
     7
 79
     5
170
     0
171
     0
290
     0
174
     0
 93
        1
 44
0.0
173
     0
291
     1
 45
0.0
1001
ACAD
1000
AcDbSavedByObjectVersion
1070
     0
  0
VISUALSTYLE
  5
33
102
{ACAD_REACTORS
330
2A
102
}
330
2A
100
AcDbVisualStyle
  2
Realistic
 70
     8
 71
     2
 72
     2
 73
     0
 90
        0
 40
-0.6
 41
-30.0
 62
     5
 63
     7
 74
     1
 91
        0
 64
     7
 65
   257
 75
     1
175
     1
 42
1.0
 92
        8
 66
     8
 43
1.0
 76
     1
 77
     6
 78
     2
 67
     7
 79
     5
170
     0
171
     0
290
     0
174
     0
 93
       13
 44
0.0
173
     0
291
     0
 45
0.0
1001
ACAD
1000
AcDbSavedByObjectVersion
1070
     0
  0
VISUALSTYLE
  5
37
102
{ACAD_REACTORS
330
2A
102
}
330
2A
100
AcDbVisualStyle
  2
Thicken
 70
    13
 71
     2
 72
     2
 73
     0
 90
        0
 40
-0.6
 41
-30.0
 62
     5
 63
     7
 74
     1
 91
        4
 64
     7
 65
   257
 75
     1
175
     1
 42
1.0
 92
       12
 66
     7
 43
1.0
 76
     1
 77
     6
 78
     2
 67
     7
 79
     5
170
     0
171
     0
290
     0
174
     0
 93
        1
 44
0.0
173
     0
291
     1
 45
0.0
1001
ACAD
1000
AcDbSavedByObjectVersion
1070
     0
  0
DICTIONARYVAR
  5
15E
102
{ACAD_REACTORS
330
15B
102
}
330
15B
100
DictionaryVariables
280
     0
  1
1:1
  0
ENDSEC
  0
EOF
