  0
SECTION
  2
HEADER
  9
$ACADVER
  1
AC1015
  9
$ACADMAINTVER
 70
     6
  9
$DWGCODEPAGE
  3
ANSI_1252
  9
$INSBASE
 10
0.0
 20
0.0
 30
0.0
  9
$EXTMIN
 10
55.5620813106078
 20
262.2594081955
 30
0.0
  9
$EXTMAX
 10
245.024999651961
 20
374.290942336757
 30
0.0
  9
$LIMMIN
 10
0.0
 20
0.0
  9
$LIMMAX
 10
12.0
 20
9.0
  9
$ORTHOMODE
 70
     0
  9
$REGENMODE
 70
     1
  9
$FILLMODE
 70
     1
  9
$QTEXTMODE
 70
     0
  9
$MIRRTEXT
 70
     1
  9
$LTSCALE
 40
1.0
  9
$ATTMODE
 70
     1
  9
$TEXTSIZE
 40
0.2
  9
$TRACEWID
 40
0.05
  9
$TEXTSTYLE
  7
Standard
  9
$CLAYER
  8
0
  9
$CELTYPE
  6
ByLayer
  9
$CECOLOR
 62
   256
  9
$CELTSCALE
 40
1.0
  9
$DISPSILH
 70
     0
  9
$DIMSCALE
 40
1.0
  9
$DIMASZ
 40
0.18
  9
$DIMEXO
 40
0.0625
  9
$DIMDLI
 40
0.38
  9
$DIMRND
 40
0.0
  9
$DIMDLE
 40
0.0
  9
$DIMEXE
 40
0.18
  9
$DIMTP
 40
0.0
  9
$DIMTM
 40
0.0
  9
$DIMTXT
 40
0.18
  9
$DIMCEN
 40
0.09
  9
$DIMTSZ
 40
0.0
  9
$DIMTOL
 70
     0
  9
$DIMLIM
 70
     0
  9
$DIMTIH
 70
     1
  9
$DIMTOH
 70
     1
  9
$DIMSE1
 70
     0
  9
$DIMSE2
 70
     0
  9
$DIMTAD
 70
     0
  9
$DIMZIN
 70
     0
  9
$DIMBLK
  1

  9
$DIMASO
 70
     1
  9
$DIMSHO
 70
     1
  9
$DIMPOST
  1

  9
$DIMAPOST
  1

  9
$DIMALT
 70
     0
  9
$DIMALTD
 70
     2
  9
$DIMALTF
 40
25.4
  9
$DIMLFAC
 40
1.0
  9
$DIMTOFL
 70
     0
  9
$DIMTVP
 40
0.0
  9
$DIMTIX
 70
     0
  9
$DIMSOXD
 70
     0
  9
$DIMSAH
 70
     0
  9
$DIMBLK1
  1

  9
$DIMBLK2
  1

  9
$DIMSTYLE
  2
Standard
  9
$DIMCLRD
 70
     0
  9
$DIMCLRE
 70
     0
  9
$DIMCLRT
 70
     0
  9
$DIMTFAC
 40
1.0
  9
$DIMGAP
 40
0.09
  9
$DIMJUST
 70
     0
  9
$DIMSD1
 70
     0
  9
$DIMSD2
 70
     0
  9
$DIMTOLJ
 70
     1
  9
$DIMTZIN
 70
     0
  9
$DIMALTZ
 70
     0
  9
$DIMALTTZ
 70
     0
  9
$DIMUPT
 70
     0
  9
$DIMDEC
 70
     4
  9
$DIMTDEC
 70
     4
  9
$DIMALTU
 70
     2
  9
$DIMALTTD
 70
     2
  9
$DIMTXSTY
  7
Standard
  9
$DIMAUNIT
 70
     0
  9
$DIMADEC
 70
     0
  9
$DIMALTRND
 40
0.0
  9
$DIMAZIN
 70
     0
  9
$DIMDSEP
 70
    46
  9
$DIMATFIT
 70
     3
  9
$DIMFRAC
 70
     0
  9
$DIMLDRBLK
  1

  9
$DIMLUNIT
 70
     2
  9
$DIMLWD
 70
    -2
  9
$DIMLWE
 70
    -2
  9
$DIMTMOVE
 70
     0
  9
$LUNITS
 70
     2
  9
$LUPREC
 70
     4
  9
$SKETCHINC
 40
0.1
  9
$FILLETRAD
 40
0.5
  9
$AUNITS
 70
     0
  9
$AUPREC
 70
     0
  9
$MENU
  1
.
  9
$ELEVATION
 40
0.0
  9
$PELEVATION
 40
0.0
  9
$THICKNESS
 40
0.0
  9
$LIMCHECK
 70
     0
  9
$CHAMFERA
 40
0.5
  9
$CHAMFERB
 40
0.5
  9
$CHAMFERC
 40
1.0
  9
$CHAMFERD
 40
0.0
  9
$SKPOLY
 70
     0
  9
$TDCREATE
 40
2456749.752339421
  9
$TDUCREATE
 40
2456749.669006088
  9
$TDUPDATE
 40
2456749.752339433
  9
$TDUUPDATE
 40
2456749.669006099
  9
$TDINDWG
 40
0.0000000116
  9
$TDUSRTIMER
 40
0.0000000116
  9
$USRTIMER
 70
     1
  9
$ANGBASE
 50
0.0
  9
$ANGDIR
 70
     0
  9
$PDMODE
 70
     0
  9
$PDSIZE
 40
0.0
  9
$PLINEWID
 40
0.0
  9
$SPLFRAME
 70
     0
  9
$SPLINETYPE
 70
     6
  9
$SPLINESEGS
 70
     8
  9
$HANDSEED
  5
15D
  9
$SURFTAB1
 70
     6
  9
$SURFTAB2
 70
     6
  9
$SURFTYPE
 70
     6
  9
$SURFU
 70
     6
  9
$SURFV
 70
     6
  9
$UCSBASE
  2

  9
$UCSNAME
  2

  9
$UCSORG
 10
0.0
 20
0.0
 30
0.0
  9
$UCSXDIR
 10
1.0
 20
0.0
 30
0.0
  9
$UCSYDIR
 10
0.0
 20
1.0
 30
0.0
  9
$UCSORTHOREF
  2

  9
$UCSORTHOVIEW
 70
     0
  9
$UCSORGTOP
 10
0.0
 20
0.0
 30
0.0
  9
$UCSORGBOTTOM
 10
0.0
 20
0.0
 30
0.0
  9
$UCSORGLEFT
 10
0.0
 20
0.0
 30
0.0
  9
$UCSORGRIGHT
 10
0.0
 20
0.0
 30
0.0
  9
$UCSORGFRONT
 10
0.0
 20
0.0
 30
0.0
  9
$UCSORGBACK
 10
0.0
 20
0.0
 30
0.0
  9
$PUCSBASE
  2

  9
$PUCSNAME
  2

  9
$PUCSORG
 10
0.0
 20
0.0
 30
0.0
  9
$PUCSXDIR
 10
1.0
 20
0.0
 30
0.0
  9
$PUCSYDIR
 10
0.0
 20
1.0
 30
0.0
  9
$PUCSORTHOREF
  2

  9
$PUCSORTHOVIEW
 70
     0
  9
$PUCSORGTOP
 10
0.0
 20
0.0
 30
0.0
  9
$PUCSORGBOTTOM
 10
0.0
 20
0.0
 30
0.0
  9
$PUCSORGLEFT
 10
0.0
 20
0.0
 30
0.0
  9
$PUCSORGRIGHT
 10
0.0
 20
0.0
 30
0.0
  9
$PUCSORGFRONT
 10
0.0
 20
0.0
 30
0.0
  9
$PUCSORGBACK
 10
0.0
 20
0.0
 30
0.0
  9
$USERI1
 70
     0
  9
$USERI2
 70
     0
  9
$USERI3
 70
     0
  9
$USERI4
 70
     0
  9
$USERI5
 70
     0
  9
$USERR1
 40
16.5
  9
$USERR2
 40
0.0
  9
$USERR3
 40
0.0
  9
$USERR4
 40
0.0
  9
$USERR5
 40
0.0
  9
$WORLDVIEW
 70
     1
  9
$SHADEDGE
 70
     3
  9
$SHADEDIF
 70
    70
  9
$TILEMODE
 70
     1
  9
$MAXACTVP
 70
    64
  9
$PINSBASE
 10
0.0
 20
0.0
 30
0.0
  9
$PLIMCHECK
 70
     0
  9
$PEXTMIN
 10
1.00000000000000E+20
 20
1.00000000000000E+20
 30
1.00000000000000E+20
  9
$PEXTMAX
 10
-1.00000000000000E+20
 20
-1.00000000000000E+20
 30
-1.00000000000000E+20
  9
$PLIMMIN
 10
0.0
 20
0.0
  9
$PLIMMAX
 10
12.0
 20
9.0
  9
$UNITMODE
 70
     0
  9
$VISRETAIN
 70
     1
  9
$PLINEGEN
 70
     0
  9
$PSLTSCALE
 70
     1
  9
$TREEDEPTH
 70
  3020
  9
$CMLSTYLE
  2
Standard
  9
$CMLJUST
 70
     0
  9
$CMLSCALE
 40
1.0
  9
$PROXYGRAPHICS
 70
     1
  9
$MEASUREMENT
 70
     1
  9
$CELWEIGHT
370
    -1
  9
$ENDCAPS
280
     0
  9
$JOINSTYLE
280
     0
  9
$LWDISPLAY
290
     0
  9
$INSUNITS
 70
     1
  9
$HYPERLINKBASE
  1

  9
$STYLESHEET
  1

  9
$XEDIT
290
     1
  9
$CEPSNTYPE
380
     0
  9
$PSTYLEMODE
290
     1
  9
$FINGERPRINTGUID
  2
{66263EC9-3114-4867-B195-99798575BF97}
  9
$VERSIONGUID
  2
{FAEB1C32-E019-11D5-929B-00C0DF256EC4}
  9
$EXTNAMES
290
     1
  9
$PSVPSCALE
 40
0.0
  9
$OLESTARTUP
290
     0
  0
ENDSEC
  0
SECTION
  2
CLASSES
  0
CLASS
  1
ACDBDICTIONARYWDFLT
  2
AcDbDictionaryWithDefault
  3
ObjectDBX Classes
 90
        0
280
     0
281
     0
  0
CLASS
  1
VISUALSTYLE
  2
AcDbVisualStyle
  3
ObjectDBX Classes
 90
     4095
280
     0
281
     0
  0
CLASS
  1
SCALE
  2
AcDbScale
  3
ObjectDBX Classes
 90
     1153
280
     0
281
     0
  0
CLASS
  1

  2
exOdDbPolyline
  3

 90
        0
280
     0
281
     1
  0
CLASS
  1

  2
exOdDbCircle
  3

 90
        0
280
     0
281
     1
  0
CLASS
  1

  2
exOdDbSpline
  3

 90
        0
280
     0
281
     1
  0
CLASS
  1
DICTIONARYVAR
  2
AcDbDictionaryVar
  3
ObjectDBX Classes
 90
        0
280
     0
281
     0
  0
CLASS
  1
ACDBPLACEHOLDER
  2
AcDbPlaceHolder
  3
ObjectDBX Classes
 90
        0
280
     0
281
     0
  0
CLASS
  1
LAYOUT
  2
AcDbLayout
  3
ObjectDBX Classes
 90
        0
280
     0
281
     0
  0
ENDSEC
  0
SECTION
  2
TABLES
  0
TABLE
  2
VPORT
  5
8
330
0
100
AcDbSymbolTable
 70
     1
  0
VPORT
  5
29
330
8
100
AcDbSymbolTableRecord
100
AcDbViewportTableRecord
  2
*Active
 70
     0
 10
0.0
 20
0.0
 11
1.0
 21
1.0
 12
150.2935404812844
 22
318.2751752661285
 13
0.0
 23
0.0
 14
0.5
 24
0.5
 15
0.5
 25
0.5
 16
0.0
 26
0.0
 36
1.0
 17
0.0
 27
0.0
 37
0.0
 40
130.0380587167394
 41
1.60267857142857
 42
50.0
 43
0.0
 44
0.0
 50
0.0
 51
0.0
 71
     0
 72
   100
 73
     1
 74
     3
 75
     0
 76
     0
 77
     0
 78
     0
281
     0
 65
     1
110
0.0
120
0.0
130
0.0
111
1.0
121
0.0
131
0.0
112
0.0
122
1.0
132
0.0
 79
     0
146
0.0
  0
ENDTAB
  0
TABLE
  2
LTYPE
  5
5
330
0
100
AcDbSymbolTable
 70
     8
  0
LTYPE
  5
14
330
5
100
AcDbSymbolTableRecord
100
AcDbLinetypeTableRecord
  2
ByBlock
 70
     0
  3

 72
    65
 73
     0
 40
0.0
  0
LTYPE
  5
15
330
5
100
AcDbSymbolTableRecord
100
AcDbLinetypeTableRecord
  2
ByLayer
 70
     0
  3

 72
    65
 73
     0
 40
0.0
  0
LTYPE
  5
16
330
5
100
AcDbSymbolTableRecord
100
AcDbLinetypeTableRecord
  2
Continuous
 70
     0
  3
Solid line
 72
    65
 73
     0
 40
0.0
  0
LTYPE
  5
3B
330
5
100
AcDbSymbolTableRecord
100
AcDbLinetypeTableRecord
  2
DASHED
 70
     0
  3
Dashed
 72
    65
 73
     2
 40
15.0
 49
7.0
 74
     0
 49
-8.0
 74
     0
  0
LTYPE
  5
3C
330
5
100
AcDbSymbolTableRecord
100
AcDbLinetypeTableRecord
  2
DOTTED
 70
     0
  3
Dotted
 72
    65
 73
     2
 40
1.0
 49
0.0
 74
     0
 49
-1.0
 74
     0
  0
LTYPE
  5
3D
330
5
100
AcDbSymbolTableRecord
100
AcDbLinetypeTableRecord
  2
DOT_CENTER
 70
     0
  3
Dot_Center
 72
    65
 73
     4
 40
14.0
 49
12.0
 74
     0
 49
-1.0
 74
     0
 49
0.0
 74
     0
 49
-1.0
 74
     0
  0
LTYPE
  5
3E
330
5
100
AcDbSymbolTableRecord
100
AcDbLinetypeTableRecord
  2
LONG_DASHED
 70
     0
  3
Long_Dashed
 72
    65
 73
     2
 40
15.0
 49
10.0
 74
     0
 49
-5.0
 74
     0
  0
LTYPE
  5
3F
330
5
100
AcDbSymbolTableRecord
100
AcDbLinetypeTableRecord
  2
DASH_CENTER
 70
     0
  3
Dash_Center
 72
    65
 73
     4
 40
14.0
 49
11.0
 74
     0
 49
-1.0
 74
     0
 49
1.0
 74
     0
 49
-1.0
 74
     0
  0
LTYPE
  5
40
330
5
100
AcDbSymbolTableRecord
100
AcDbLinetypeTableRecord
  2
PHANTOM
 70
     0
  3
Phantom
 72
    65
 73
     6
 40
13.0
 49
10.0
 74
     0
 49
-1.0
 74
     0
 49
0.0
 74
     0
 49
-1.0
 74
     0
 49
0.0
 74
     0
 49
-1.0
 74
     0
  0
LTYPE
  5
41
330
5
100
AcDbSymbolTableRecord
100
AcDbLinetypeTableRecord
  2
CENTER_DASH_DASH
 70
     0
  3
Center_Dash_Dash
 72
    65
 73
     6
 40
14.0
 49
9.0
 74
     0
 49
-1.0
 74
     0
 49
1.0
 74
     0
 49
-1.0
 74
     0
 49
1.0
 74
     0
 49
-1.0
 74
     0
  0
ENDTAB
  0
TABLE
  2
LAYER
  5
2
330
0
100
AcDbSymbolTable
 70
     7
  0
LAYER
  5
10
330
2
100
AcDbSymbolTableRecord
100
AcDbLayerTableRecord
  2
0
 70
     0
 62
     7
  6
Continuous
370
    -3
390
F
  0
LAYER
  5
42
330
2
100
AcDbSymbolTableRecord
100
AcDbLayerTableRecord
  2
1
 70
     0
 62
     7
  6
Continuous
370
    -3
390
F
  0
LAYER
  5
43
330
2
100
AcDbSymbolTableRecord
100
AcDbLayerTableRecord
  2
BEZUGSACHSEN
 70
     0
 62
     7
  6
Continuous
370
    -3
390
F
  0
LAYER
  5
44
330
2
100
AcDbSymbolTableRecord
100
AcDbLayerTableRecord
  2
BOHRUNGEN
 70
     0
 62
     7
  6
Continuous
370
    -3
390
F
  0
LAYER
  5
45
330
2
100
AcDbSymbolTableRecord
100
AcDbLayerTableRecord
  2
FASEN
 70
     0
 62
     7
  6
Continuous
370
    -3
390
F
  0
LAYER
  5
46
330
2
100
AcDbSymbolTableRecord
100
AcDbLayerTableRecord
  2
RUNDUNGEN
 70
     0
 62
     7
  6
Continuous
370
    -3
390
F
  0
LAYER
  5
47
330
2
100
AcDbSymbolTableRecord
100
AcDbLayerTableRecord
  2
VERERBUNG
 70
     0
 62
     7
  6
Continuous
370
    -3
390
F
  0
ENDTAB
  0
TABLE
  2
STYLE
  5
3
330
0
100
AcDbSymbolTable
 70
     2
  0
STYLE
  5
11
330
3
100
AcDbSymbolTableRecord
100
AcDbTextStyleTableRecord
  2
Standard
 70
     0
 40
0.0
 41
1.0
 50
0.0
 71
     0
 42
0.2
  3
txt
  4

  0
STYLE
  5
6E
330
3
100
AcDbSymbolTableRecord
100
AcDbTextStyleTableRecord
  2
CONVERTER_11
 70
     0
 40
0.0
 41
0.72
 50
0.0
 71
     0
 42
0.2
  3
txt.shx
  4

  0
ENDTAB
  0
TABLE
  2
VIEW
  5
6
330
0
100
AcDbSymbolTable
 70
     0
  0
ENDTAB
  0
TABLE
  2
UCS
  5
7
330
0
100
AcDbSymbolTable
 70
     0
  0
ENDTAB
  0
TABLE
  2
APPID
  5
9
330
0
100
AcDbSymbolTable
 70
     1
  0
APPID
  5
12
330
9
100
AcDbSymbolTableRecord
100
AcDbRegAppTableRecord
  2
ACAD
 70
     0
  0
ENDTAB
  0
TABLE
  2
DIMSTYLE
  5
A
330
0
100
AcDbSymbolTable
 70
     6
100
AcDbDimStyleTable
  0
DIMSTYLE
105
27
330
A
100
AcDbSymbolTableRecord
100
AcDbDimStyleTableRecord
  2
Standard
 70
     0
340
11
  0
DIMSTYLE
105
124
102
{ACAD_REACTORS
330
125
102
}
330
A
100
AcDbSymbolTableRecord
100
AcDbDimStyleTableRecord
  2
ME10_DIM_10
 70
     0
  3
\U+2300<>
 41
3.5
 42
2.0
 44
2.0
 71
     1
 73
     0
 74
     0
 77
     1
 78
     8
140
3.5
146
0.7
147
2.0
172
     1
173
     1
176
     2
177
     2
178
     3
271
     2
272
     0
340
6E
  0
DIMSTYLE
105
12F
102
{ACAD_REACTORS
330
130
102
}
330
A
100
AcDbSymbolTableRecord
100
AcDbDimStyleTableRecord
  2
ME10_DIM_11
 70
     0
  3
\U+2300<>
 41
3.5
 42
2.0
 44
2.0
 71
     1
 73
     0
 74
     0
 77
     1
 78
     8
140
3.5
146
0.7
147
2.0
172
     1
173
     1
176
     2
177
     2
178
     3
271
     2
272
     0
340
6E
  0
DIMSTYLE
105
13A
102
{ACAD_REACTORS
330
13B
102
}
330
A
100
AcDbSymbolTableRecord
100
AcDbDimStyleTableRecord
  2
ME10_DIM_12
 70
     0
  3
<>
 41
3.5
 42
2.0
 44
2.0
 71
     1
 73
     0
 74
     0
 77
     1
 78
     8
140
3.5
146
0.7
147
2.0
172
     1
173
     1
176
     2
177
     2
178
     3
271
     2
272
     0
340
6E
  0
DIMSTYLE
105
145
102
{ACAD_REACTORS
330
146
102
}
330
A
100
AcDbSymbolTableRecord
100
AcDbDimStyleTableRecord
  2
ME10_DIM_13
 70
     0
  3
<>
 41
3.5
 42
2.0
 44
2.0
 71
     1
 73
     0
 74
     0
 77
     1
 78
     8
140
3.5
146
0.7
147
2.0
172
     1
173
     1
176
     2
177
     2
178
     3
271
     2
272
     0
340
6E
  0
DIMSTYLE
105
150
102
{ACAD_REACTORS
330
151
102
}
330
A
100
AcDbSymbolTableRecord
100
AcDbDimStyleTableRecord
  2
ME10_DIM_14
 70
     0
  3
<>
 41
3.5
 42
2.0
 44
2.0
 71
     1
 73
     0
 74
     0
 77
     1
 78
     8
140
3.5
146
0.7
147
2.0
172
     1
173
     1
176
     2
177
     2
178
     3
271
     2
272
     0
340
6E
  0
ENDTAB
  0
TABLE
  2
BLOCK_RECORD
  5
1
330
0
100
AcDbSymbolTable
 70
     8
  0
BLOCK_RECORD
  5
1F
330
1
100
AcDbSymbolTableRecord
100
AcDbBlockTableRecord
  2
*Model_Space
340
22
  0
BLOCK_RECORD
  5
1B
330
1
100
AcDbSymbolTableRecord
100
AcDbBlockTableRecord
  2
*Paper_Space
340
1E
  0
BLOCK_RECORD
  5
23
330
1
100
AcDbSymbolTableRecord
100
AcDbBlockTableRecord
  2
*Paper_Space0
340
26
  0
BLOCK_RECORD
  5
48
330
1
100
AcDbSymbolTableRecord
100
AcDbBlockTableRecord
  2
Urheberrecht_DE-EN
340
0
102
{BLKREFS
331
6D
102
}
  0
BLOCK_RECORD
  5
11B
330
1
100
AcDbSymbolTableRecord
100
AcDbBlockTableRecord
  2
*D2
340
0
  0
BLOCK_RECORD
  5
126
330
1
100
AcDbSymbolTableRecord
100
AcDbBlockTableRecord
  2
*D3
340
0
  0
BLOCK_RECORD
  5
131
330
1
100
AcDbSymbolTableRecord
100
AcDbBlockTableRecord
  2
*D4
340
0
  0
BLOCK_RECORD
  5
13C
330
1
100
AcDbSymbolTableRecord
100
AcDbBlockTableRecord
  2
*D5
340
0
  0
BLOCK_RECORD
  5
147
330
1
100
AcDbSymbolTableRecord
100
AcDbBlockTableRecord
  2
*D6
340
0
  0
BLOCK_RECORD
  5
152
330
1
100
AcDbSymbolTableRecord
100
AcDbBlockTableRecord
  2
*D7
340
0
102
{BLKREFS
331
158
102
}
  0
ENDTAB
  0
ENDSEC
  0
SECTION
  2
BLOCKS
  0
BLOCK
  5
20
330
1F
100
AcDbEntity
  8
0
100
AcDbBlockBegin
  2
*Model_Space
 70
     0
 10
0.0
 20
0.0
 30
0.0
  3
*Model_Space
  1

  0
ENDBLK
  5
21
330
1F
100
AcDbEntity
  8
0
100
AcDbBlockEnd
  0
BLOCK
  5
1C
330
1B
100
AcDbEntity
 67
     1
  8
0
100
AcDbBlockBegin
  2
*Paper_Space
 70
     0
 10
0.0
 20
0.0
 30
0.0
  3
*Paper_Space
  1

  0
ENDBLK
  5
1D
330
1B
100
AcDbEntity
 67
     1
  8
0
100
AcDbBlockEnd
  0
BLOCK
  5
24
330
23
100
AcDbEntity
  8
0
100
AcDbBlockBegin
  2
*Paper_Space0
 70
     0
 10
0.0
 20
0.0
 30
0.0
  3
*Paper_Space0
  1

  0
ENDBLK
  5
25
330
23
100
AcDbEntity
  8
0
100
AcDbBlockEnd
  0
BLOCK
  5
49
330
48
100
AcDbEntity
  8
0
100
AcDbBlockBegin
  2
Urheberrecht_DE-EN
 70
     0
 10
69.5620813106078
 20
321.810942336757
 30
0.0
  3
Urheberrecht_DE-EN
  1

  0
MTEXT
  5
6F
330
48
100
AcDbEntity
  8
1
 62
     1
100
AcDbMText
 10
69.5620813106078
 20
321.810942336757
 30
0.0
 40
2.0
 41
0.0
 71
     7
 72
     1
  1
We own the copyright of this document. It \Pdetermined and may neither be copied or \Pmade accessible to outsiders without our\Ppermission.
  7
CONVERTER_11
 11
0.0
 21
1.0
 31
0.0
 73
     1
 44
0.90036014405762
  0
MTEXT
  5
70
330
48
100
AcDbEntity
  8
1
 62
     1
100
AcDbMText
 10
69.5620813106078
 20
265.5215554194508
 30
0.0
 40
2.0
 41
0.0
 71
     7
 72
     1
  1
F\U+00fcr diese Unterlage behalten wir das Ur-\Pheberrecht. Sie darf nur f\U+00fcr den von uns \Pbestimmten Zweck benutzt und ohne unsere \PZustimmung weder vervielf\U+00e4ltigt noch\PDritten zug\U+00e4nglich gemacht werden.
  7
CONVERTER_11
 11
0.0
 21
1.0
 31
0.0
 73
     1
 44
0.90036014405762
  0
ENDBLK
  5
4A
330
48
100
AcDbEntity
  8
0
100
AcDbBlockEnd
  0
BLOCK
  5
122
330
11B
100
AcDbEntity
  8
0
100
AcDbBlockBegin
  2
*D2
 70
     1
 10
0.0
 20
0.0
 30
0.0
  3
*D2
  1

  0
LINE
  5
11C
330
11B
100
AcDbEntity
  8
1
  6
Continuous
 62
     2
100
AcDbLine
 10
232.637842211643
 20
318.9167981614
 30
0.0
 11
232.637842211643
 21
286.9167981614
 31
0.0
  0
LINE
  5
11D
330
11B
100
AcDbEntity
  8
1
  6
Continuous
 62
     2
100
AcDbLine
 10
222.050150933
 20
318.9167981614
 30
0.0
 11
234.637842211643
 21
318.9167981614
 31
0.0
  0
LINE
  5
11E
330
11B
100
AcDbEntity
  8
1
  6
Continuous
 62
     2
100
AcDbLine
 10
222.050150933
 20
286.9167981614
 30
0.0
 11
234.637842211643
 21
286.9167981614
 31
0.0
  0
SOLID
  5
11F
330
11B
100
AcDbEntity
  8
1
 62
     2
100
AcDbTrace
 10
233.0986259531989
 20
315.4167981614
 30
0.0
 11
232.1770584700871
 21
315.4167981614
 31
0.0
 12
232.637842211643
 22
318.9167981614
 32
0.0
 13
232.637842211643
 23
318.9167981614
 33
0.0
  0
SOLID
  5
120
330
11B
100
AcDbEntity
  8
1
 62
     2
100
AcDbTrace
 10
232.1770584700871
 20
290.4167981614
 30
0.0
 11
233.0986259531989
 21
290.4167981614
 31
0.0
 12
232.637842211643
 22
286.9167981614
 32
0.0
 13
232.637842211643
 23
286.9167981614
 33
0.0
  0
MTEXT
  5
121
330
11B
100
AcDbEntity
  8
1
 62
     3
100
AcDbMText
 10
230.637842211643
 20
293.452168558918
 30
0.0
 40
3.5
 41
0.0
 71
     7
 72
     1
  1
\C3;%%c\C3;\C3;32\C2;\H2.45;\S^ ;\C3;
  7
CONVERTER_11
 11
0.0
 21
1.0
 31
0.0
 73
     1
 44
0.60024009603842
  0
ENDBLK
  5
123
330
11B
100
AcDbEntity
  8
0
100
AcDbBlockEnd
  0
BLOCK
  5
12D
330
126
100
AcDbEntity
  8
0
100
AcDbBlockBegin
  2
*D3
 70
     1
 10
0.0
 20
0.0
 30
0.0
  3
*D3
  1

  0
LINE
  5
127
330
126
100
AcDbEntity
  8
1
  6
Continuous
 62
     2
100
AcDbLine
 10
243.024999651961
 20
338.9167981614
 30
0.0
 11
243.024999651961
 21
266.9167981614
 31
0.0
  0
LINE
  5
128
330
126
100
AcDbEntity
  8
1
  6
Continuous
 62
     2
100
AcDbLine
 10
213.6359373707
 20
338.9167981614
 30
0.0
 11
245.024999651961
 21
338.9167981614
 31
0.0
  0
LINE
  5
129
330
126
100
AcDbEntity
  8
1
  6
Continuous
 62
     2
100
AcDbLine
 10
213.6359373707
 20
266.9167981614
 30
0.0
 11
245.024999651961
 21
266.9167981614
 31
0.0
  0
SOLID
  5
12A
330
126
100
AcDbEntity
  8
1
 62
     2
100
AcDbTrace
 10
243.4857833935169
 20
335.4167981614
 30
0.0
 11
242.5642159104051
 21
335.4167981614
 31
0.0
 12
243.024999651961
 22
338.9167981614
 32
0.0
 13
243.024999651961
 23
338.9167981614
 33
0.0
  0
SOLID
  5
12B
330
126
100
AcDbEntity
  8
1
 62
     2
100
AcDbTrace
 10
242.5642159104051
 20
270.4167981614
 30
0.0
 11
243.4857833935169
 21
270.4167981614
 31
0.0
 12
243.024999651961
 22
266.9167981614
 32
0.0
 13
243.024999651961
 23
266.9167981614
 33
0.0
  0
MTEXT
  5
12C
330
126
100
AcDbEntity
  8
1
 62
     3
100
AcDbMText
 10
241.024999651961
 20
293.696572263397
 30
0.0
 40
3.5
 41
0.0
 71
     7
 72
     1
  1
\C3;%%c\C3;\C3;72\C2;\H2.45;\S^ ;\C3;
  7
CONVERTER_11
 11
0.0
 21
1.0
 31
0.0
 73
     1
 44
0.60024009603842
  0
ENDBLK
  5
12E
330
126
100
AcDbEntity
  8
0
100
AcDbBlockEnd
  0
BLOCK
  5
138
330
131
100
AcDbEntity
  8
0
100
AcDbBlockBegin
  2
*D4
 70
     1
 10
0.0
 20
0.0
 30
0.0
  3
*D4
  1

  0
LINE
  5
132
330
131
100
AcDbEntity
  8
1
  6
Continuous
 62
     2
100
AcDbLine
 10
220.050150933
 20
350.210294636621
 30
0.0
 11
136.050150933
 21
350.210294636621
 31
0.0
  0
LINE
  5
133
330
131
100
AcDbEntity
  8
1
  6
Continuous
 62
     2
100
AcDbLine
 10
220.050150933
 20
332.502584599
 30
0.0
 11
220.050150933
 21
352.210294636621
 31
0.0
  0
LINE
  5
134
330
131
100
AcDbEntity
  8
1
  6
Continuous
 62
     2
100
AcDbLine
 10
136.050150933
 20
336.4167723475
 30
0.0
 11
136.050150933
 21
352.210294636621
 31
0.0
  0
SOLID
  5
135
330
131
100
AcDbEntity
  8
1
 62
     2
100
AcDbTrace
 10
216.550150933
 20
349.7495108950651
 30
0.0
 11
216.550150933
 21
350.6710783781768
 31
0.0
 12
220.050150933
 22
350.210294636621
 32
0.0
 13
220.050150933
 23
350.210294636621
 33
0.0
  0
SOLID
  5
136
330
131
100
AcDbEntity
  8
1
 62
     2
100
AcDbTrace
 10
139.550150933
 20
350.6710783781768
 30
0.0
 11
139.550150933
 21
349.7495108950651
 31
0.0
 12
136.050150933
 22
350.210294636621
 32
0.0
 13
136.050150933
 23
350.210294636621
 33
0.0
  0
MTEXT
  5
137
330
131
100
AcDbEntity
  8
1
 62
     3
100
AcDbMText
 10
178.235449453335
 20
352.210294636621
 30
0.0
 40
3.5
 41
0.0
 71
     7
 72
     1
  1
\C3;\C3;\C3;84\C2;\H2.45;\S^ ;\C3;
  7
CONVERTER_11
 11
0.9999999999970619
 21
2.424068405545306E-6
 31
0.0
 73
     1
 44
0.60024009603842
  0
ENDBLK
  5
139
330
131
100
AcDbEntity
  8
0
100
AcDbBlockEnd
  0
BLOCK
  5
143
330
13C
100
AcDbEntity
  8
0
100
AcDbBlockBegin
  2
*D5
 70
     1
 10
0.0
 20
0.0
 30
0.0
  3
*D5
  1

  0
LINE
  5
13D
330
13C
100
AcDbEntity
  8
1
  6
Continuous
 62
     2
100
AcDbLine
 10
220.050150933
 20
358.520020588876
 30
0.0
 11
110.050150933
 21
358.520020588876
 31
0.0
  0
LINE
  5
13E
330
13C
100
AcDbEntity
  8
1
  6
Continuous
 62
     2
100
AcDbLine
 10
220.050150933
 20
332.502584599
 30
0.0
 11
220.050150933
 21
360.520020588876
 31
0.0
  0
LINE
  5
13F
330
13C
100
AcDbEntity
  8
1
  6
Continuous
 62
     2
100
AcDbLine
 10
110.050150933
 20
336.4167981614
 30
0.0
 11
110.050150933
 21
360.520020588876
 31
0.0
  0
SOLID
  5
140
330
13C
100
AcDbEntity
  8
1
 62
     2
100
AcDbTrace
 10
216.550150933
 20
358.0592368473201
 30
0.0
 11
216.550150933
 21
358.9808043304319
 31
0.0
 12
220.050150933
 22
358.520020588876
 32
0.0
 13
220.050150933
 23
358.520020588876
 33
0.0
  0
SOLID
  5
141
330
13C
100
AcDbEntity
  8
1
 62
     2
100
AcDbTrace
 10
113.550150933
 20
358.9808043304319
 30
0.0
 11
113.550150933
 21
358.0592368473201
 31
0.0
 12
110.050150933
 22
358.520020588876
 32
0.0
 13
110.050150933
 23
358.520020588876
 33
0.0
  0
MTEXT
  5
142
330
13C
100
AcDbEntity
  8
1
 62
     3
100
AcDbMText
 10
165.71746608167
 20
360.520020588876
 30
0.0
 40
3.5
 41
0.0
 71
     7
 72
     1
  1
\C3;\C3;\C3;110\C2;\H2.45;\S^ ;\C3;
  7
CONVERTER_11
 11
0.9999999999970619
 21
2.424068405545306E-6
 31
0.0
 73
     1
 44
0.60024009603842
  0
ENDBLK
  5
144
330
13C
100
AcDbEntity
  8
0
100
AcDbBlockEnd
  0
BLOCK
  5
14E
330
147
100
AcDbEntity
  8
0
100
AcDbBlockBegin
  2
*D6
 70
     1
 10
0.0
 20
0.0
 30
0.0
  3
*D6
  1

  0
LINE
  5
148
330
147
100
AcDbEntity
  8
1
  6
Continuous
 62
     2
100
AcDbLine
 10
220.050150933
 20
366.463140984413
 30
0.0
 11
78.050150933
 21
366.463140984413
 31
0.0
  0
LINE
  5
149
330
147
100
AcDbEntity
  8
1
  6
Continuous
 62
     2
100
AcDbLine
 10
220.050150933
 20
332.502584599
 30
0.0
 11
220.050150933
 21
368.463140984413
 31
0.0
  0
LINE
  5
14A
330
147
100
AcDbEntity
  8
1
  6
Continuous
 62
     2
100
AcDbLine
 10
78.050150933
 20
326.4928253415
 30
0.0
 11
78.050150933
 21
368.463140984413
 31
0.0
  0
SOLID
  5
14B
330
147
100
AcDbEntity
  8
1
 62
     2
100
AcDbTrace
 10
216.550150933
 20
366.0023572428571
 30
0.0
 11
216.550150933
 21
366.9239247259688
 31
0.0
 12
220.050150933
 22
366.463140984413
 32
0.0
 13
220.050150933
 23
366.463140984413
 33
0.0
  0
SOLID
  5
14C
330
147
100
AcDbEntity
  8
1
 62
     2
100
AcDbTrace
 10
81.550150933
 20
366.9239247259688
 30
0.0
 11
81.550150933
 21
366.0023572428571
 31
0.0
 12
78.050150933
 22
366.463140984413
 32
0.0
 13
78.050150933
 23
366.463140984413
 33
0.0
  0
MTEXT
  5
14D
330
147
100
AcDbEntity
  8
1
 62
     3
100
AcDbMText
 10
154.177097527917
 20
368.463140984413
 30
0.0
 40
3.5
 41
0.0
 71
     7
 72
     1
  1
\C3;\C3;\C3;142\C2;\H2.45;\S^ ;\C3;
  7
CONVERTER_11
 11
0.9999999999970619
 21
2.424068405545306E-6
 31
0.0
 73
     1
 44
0.60024009603842
  0
ENDBLK
  5
14F
330
147
100
AcDbEntity
  8
0
100
AcDbBlockEnd
  0
BLOCK
  5
156
330
152
100
AcDbEntity
  8
0
100
AcDbBlockBegin
  2
*D7
 70
     1
 10
0.0
 20
0.0
 30
0.0
  3
*D7
  1

  0
LINE
  5
153
330
152
100
AcDbEntity
  8
1
  6
Continuous
 62
     2
100
AcDbLine
 10
144.909090495144
 20
335.4037874032896
 30
0.0
 11
136.2546814365674
 21
328.8108045308682
 31
0.0
  0
SOLID
  5
154
330
152
100
AcDbEntity
  8
1
 62
     2
100
AcDbTrace
 10
138.7595926616463
 20
331.2983216485894
 30
0.0
 11
139.3180566865172
 21
330.5652428268698
 31
0.0
 12
136.2546814365674
 22
328.8108045308682
 32
0.0
 13
136.2546814365674
 23
328.8108045308682
 33
0.0
  0
MTEXT
  5
155
330
152
100
AcDbEntity
  8
1
 62
     3
100
AcDbMText
 10
138.4629139475533
 20
333.0072883072556
 30
0.0
 40
3.5
 41
0.0
 71
     7
 72
     1
  1
\C3; R\C3;\C3;1\C2;\H2.45;\S^ ;\C3;
  7
CONVERTER_11
 11
0.7954694964326811
 21
0.6059936305318206
 31
0.0
 73
     1
 44
0.60024009603842
  0
ENDBLK
  5
157
330
152
100
AcDbEntity
  8
0
100
AcDbBlockEnd
  0
ENDSEC
  0
SECTION
  2
ENTITIES
  0
INSERT
  5
6D
330
1F
100
AcDbEntity
  8
0
100
AcDbBlockReference
  2
Urheberrecht_DE-EN
 10
69.5620813106078
 20
321.810942336757
 30
0.0
  0
LINE
  5
71
330
1F
100
AcDbEntity
  8
VERERBUNG
  6
Continuous
 62
     7
100
AcDbLine
 10
78.050150933
 20
281.3407708845
 30
0.0
 11
78.050150933
 21
295.6467981614
 31
0.0
  0
LINE
  5
72
330
1F
100
AcDbEntity
  8
VERERBUNG
  6
Continuous
 62
     7
100
AcDbLine
 10
78.050150933
 20
310.1867981614
 30
0.0
 11
78.050150933
 21
324.4928253415
 31
0.0
  0
LINE
  5
73
330
1F
100
AcDbEntity
  8
VERERBUNG
  6
Continuous
 62
     7
100
AcDbLine
 10
79.050150933
 20
295.2869164815
 30
0.0
 11
79.050150933
 21
296.6467981614
 31
0.0
  0
LINE
  5
74
330
1F
100
AcDbEntity
  8
VERERBUNG
  6
Continuous
 62
     7
100
AcDbLine
 10
79.050150933
 20
309.1867981614
 30
0.0
 11
79.050150933
 21
310.5466798412
 31
0.0
  0
LINE
  5
75
330
1F
100
AcDbEntity
  8
VERERBUNG
  6
Continuous
 62
     9
100
AcDbLine
 10
79.1901078687
 20
325.6913734189
 30
0.0
 11
79.1901078687
 21
312.4788260927
 31
0.0
  0
LINE
  5
76
330
1F
100
AcDbEntity
  8
VERERBUNG
  6
Continuous
 62
     9
100
AcDbLine
 10
79.1901078687
 20
293.35477023
 30
0.0
 11
79.1901078687
 21
280.1422229039
 31
0.0
  0
LINE
  5
77
330
1F
100
AcDbEntity
  8
VERERBUNG
  6
Continuous
 62
     9
100
AcDbLine
 10
82.550150933
 20
292.9604852794
 30
0.0
 11
82.550150933
 21
296.6467981614
 31
0.0
  0
LINE
  5
78
330
1F
100
AcDbEntity
  8
VERERBUNG
  6
Continuous
 62
     9
100
AcDbLine
 10
82.550150933
 20
309.1867981614
 30
0.0
 11
82.550150933
 21
312.8731110433
 31
0.0
  0
LINE
  5
79
330
1F
100
AcDbEntity
  8
VERERBUNG
  6
Continuous
 62
     7
100
AcDbLine
 10
84.050150933
 20
310.3585858799
 30
0.0
 11
84.050150933
 21
295.4750104428
 31
0.0
  0
LWPOLYLINE
  5
7A
330
1F
100
AcDbEntity
  8
BEZUGSACHSEN
  6
DOT_CENTER
 62
     7
100
AcDbPolyline
 90
        2
 70
     0
 43
0.25
 10
101.050150933
 20
302.9167981614
 10
101.050150933
 20
296.1667981614
  0
LWPOLYLINE
  5
7B
330
1F
100
AcDbEntity
  8
BEZUGSACHSEN
  6
DOT_CENTER
 62
     7
100
AcDbPolyline
 90
        2
 70
     0
 43
0.25
 10
101.050150933
 20
302.9167981614
 10
101.050150933
 20
309.6667981614
  0
LINE
  5
7C
330
1F
100
AcDbEntity
  8
VERERBUNG
  6
Continuous
 62
     7
100
AcDbLine
 10
78.050150933
 20
295.6467981614
 30
0.0
 11
79.050150933
 21
296.6467981614
 31
0.0
  0
LINE
  5
7D
330
1F
100
AcDbEntity
  8
VERERBUNG
  6
Continuous
 62
     7
100
AcDbLine
 10
79.050150933
 20
309.1867981614
 30
0.0
 11
78.050150933
 21
310.1867981614
 31
0.0
  0
LINE
  5
7E
330
1F
100
AcDbEntity
  8
VERERBUNG
  6
Continuous
 62
     7
100
AcDbLine
 10
108.050150933
 20
327.137222311
 30
0.0
 11
108.050150933
 21
278.6963740117
 31
0.0
  0
LINE
  5
7F
330
1F
100
AcDbEntity
  8
VERERBUNG
  6
Continuous
 62
     9
100
AcDbLine
 10
108.720261166
 20
278.8759295075
 30
0.0
 11
108.720261166
 21
326.9576668152
 31
0.0
  0
LINE
  5
80
330
1F
100
AcDbEntity
  8
VERERBUNG
  6
Continuous
 62
     9
100
AcDbLine
 10
108.8755525931
 20
278.8963740117
 30
0.0
 11
108.8755525931
 21
326.937222311
 31
0.0
  0
LINE
  5
81
330
1F
100
AcDbEntity
  8
VERERBUNG
  6
Continuous
 62
     9
100
AcDbLine
 10
109.7479813025
 20
278.8963740117
 30
0.0
 11
109.7479813025
 21
326.937222311
 31
0.0
  0
LINE
  5
82
330
1F
100
AcDbEntity
  8
VERERBUNG
  6
Continuous
 62
     7
100
AcDbLine
 10
110.050150933
 20
334.4167981614
 30
0.0
 11
110.050150933
 21
271.4167981614
 31
0.0
  0
LWPOLYLINE
  5
83
330
1F
100
AcDbEntity
  8
BEZUGSACHSEN
  6
DOT_CENTER
 62
     7
100
AcDbPolyline
 90
        2
 70
     0
 43
0.25
 10
117.050150933
 20
326.4174412415
 10
117.050150933
 20
337.4167981614
  0
LINE
  5
84
330
1F
100
AcDbEntity
  8
0
  6
Continuous
 62
     7
100
AcDbLine
 10
153.550150933
 20
266.9167981614
 30
0.0
 11
163.2801883573
 21
266.9167981614
 31
0.0
  0
LINE
  5
85
330
1F
100
AcDbEntity
  8
0
  6
Continuous
 62
     7
100
AcDbLine
 10
180.7908553825
 20
266.9167981614
 30
0.0
 11
187.2948174204
 21
266.9167981614
 31
0.0
  0
LINE
  5
86
330
1F
100
AcDbEntity
  8
0
  6
Continuous
 62
     7
100
AcDbLine
 10
204.8054844457
 20
266.9167981614
 30
0.0
 11
211.6359373707
 21
266.9167981614
 31
0.0
  0
LINE
  5
87
330
1F
100
AcDbEntity
  8
VERERBUNG
  6
Continuous
 62
     7
100
AcDbLine
 10
110.050150933
 20
271.4167981614
 30
0.0
 11
124.6726518583
 21
271.4167981614
 31
0.0
  0
LINE
  5
88
330
1F
100
AcDbEntity
  8
VERERBUNG
  6
Continuous
 62
     7
100
AcDbLine
 10
131.4276500078
 20
271.4167981614
 30
0.0
 11
136.050150933
 21
271.4167981614
 31
0.0
  0
LINE
  5
89
330
1F
100
AcDbEntity
  8
FASEN
  6
Continuous
 62
     9
100
AcDbLine
 10
122.1871613361
 20
282.6667981614
 30
0.0
 11
122.1871613361
 21
283.0667981614
 31
0.0
  0
LINE
  5
8A
330
1F
100
AcDbEntity
  8
VERERBUNG
  6
Continuous
 62
     7
100
AcDbLine
 10
129.925150933
 20
331.8143934256
 30
0.0
 11
131.4276500078
 21
334.4167981614
 31
0.0
  0
LINE
  5
8B
330
1F
100
AcDbEntity
  8
VERERBUNG
  6
Continuous
 62
     9
100
AcDbLine
 10
78.050150933
 20
294.7402103748
 30
0.0
 11
79.050150933
 21
295.2869164815
 31
0.0
  0
LINE
  5
8C
330
1F
100
AcDbEntity
  8
VERERBUNG
  6
Continuous
 62
     7
100
AcDbLine
 10
127.175150933
 20
275.4167981614
 30
0.0
 11
128.925150933
 21
275.4167981614
 31
0.0
  0
LINE
  5
8D
330
1F
100
AcDbEntity
  8
VERERBUNG
  6
Continuous
 62
     7
100
AcDbLine
 10
79.1901078687
 20
280.1422229039
 30
0.0
 11
108.050150933
 21
278.6963740117
 31
0.0
  0
LINE
  5
8E
330
1F
100
AcDbEntity
  8
VERERBUNG
  6
Continuous
 62
     9
100
AcDbLine
 10
79.050150933
 20
310.5466798412
 30
0.0
 11
78.050150933
 21
311.0933859479
 31
0.0
  0
LINE
  5
8F
330
1F
100
AcDbEntity
  8
VERERBUNG
  6
Continuous
 62
     7
100
AcDbLine
 10
129.925150933
 20
274.0192028972
 30
0.0
 11
131.4276500078
 21
271.4167981614
 31
0.0
  0
LINE
  5
90
330
1F
100
AcDbEntity
  8
0
  6
Continuous
 62
     7
100
AcDbLine
 10
124.6726518583
 20
334.4167981614
 30
0.0
 11
124.6726518583
 21
310.9342981614
 31
0.0
  0
LINE
  5
91
330
1F
100
AcDbEntity
  8
0
  6
Continuous
 62
     7
100
AcDbLine
 10
124.6726518583
 20
294.8992981614
 30
0.0
 11
124.6726518583
 21
283.0667981614
 31
0.0
  0
LINE
  5
92
330
1F
100
AcDbEntity
  8
0
  6
Continuous
 62
     7
100
AcDbLine
 10
124.6726518583
 20
278.458108499
 30
0.0
 11
124.6726518583
 21
271.4167981614
 31
0.0
  0
LINE
  5
93
330
1F
100
AcDbEntity
  8
0
  6
Continuous
 62
     7
100
AcDbLine
 10
126.175150933
 20
331.8143708891
 30
0.0
 11
126.175150933
 21
310.9342981614
 31
0.0
  0
LINE
  5
94
330
1F
100
AcDbEntity
  8
0
  6
Continuous
 62
     7
100
AcDbLine
 10
126.175150933
 20
294.8992981614
 30
0.0
 11
126.175150933
 21
283.0667981614
 31
0.0
  0
LINE
  5
95
330
1F
100
AcDbEntity
  8
0
  6
Continuous
 62
     7
100
AcDbLine
 10
126.175150933
 20
274.0192092099
 30
0.0
 11
126.175150933
 21
282.4661869236
 31
0.0
  0
LINE
  5
96
330
1F
100
AcDbEntity
  8
0
  6
Continuous
 62
     9
100
AcDbLine
 10
127.175150933
 20
275.4167981614
 30
0.0
 11
127.175150933
 21
295.2167981614
 31
0.0
  0
LINE
  5
97
330
1F
100
AcDbEntity
  8
0
  6
Continuous
 62
     9
100
AcDbLine
 10
127.175150933
 20
310.6167981614
 30
0.0
 11
127.175150933
 21
330.4167981614
 31
0.0
  0
LINE
  5
98
330
1F
100
AcDbEntity
  8
0
  6
Continuous
 62
     7
100
AcDbLine
 10
137.050150933
 20
277.4167981614
 30
0.0
 11
151.550150933
 21
277.4167981614
 31
0.0
  0
LINE
  5
99
330
1F
100
AcDbEntity
  8
FASEN
  6
Continuous
 62
     7
100
AcDbLine
 10
115.3857633773
 20
278.458108499
 30
0.0
 11
124.6726518583
 21
278.458108499
 31
0.0
  0
LINE
  5
9A
330
1F
100
AcDbEntity
  8
0
  6
Continuous
 62
     7
100
AcDbLine
 10
131.4276500078
 20
278.458108499
 30
0.0
 11
136.050150933
 21
278.458108499
 31
0.0
  0
LINE
  5
9B
330
1F
100
AcDbEntity
  8
VERERBUNG
  6
Continuous
 62
     7
100
AcDbLine
 10
109.7479813025
 20
278.8963740117
 30
0.0
 11
108.8755525931
 21
278.8963740117
 31
0.0
  0
LINE
  5
9C
330
1F
100
AcDbEntity
  8
0
  6
Continuous
 62
     9
100
AcDbLine
 10
128.925150933
 20
275.4167981614
 30
0.0
 11
128.925150933
 21
295.2167981614
 31
0.0
  0
LINE
  5
9D
330
1F
100
AcDbEntity
  8
0
  6
Continuous
 62
     9
100
AcDbLine
 10
128.925150933
 20
310.6167981614
 30
0.0
 11
128.925150933
 21
330.4167981614
 31
0.0
  0
LINE
  5
9E
330
1F
100
AcDbEntity
  8
0
  6
Continuous
 62
     7
100
AcDbLine
 10
129.925150933
 20
274.0192092099
 30
0.0
 11
129.925150933
 21
282.4661869236
 31
0.0
  0
LINE
  5
9F
330
1F
100
AcDbEntity
  8
0
  6
Continuous
 62
     7
100
AcDbLine
 10
129.925150933
 20
283.0667981614
 30
0.0
 11
129.925150933
 21
294.8992981614
 31
0.0
  0
LINE
  5
A0
330
1F
100
AcDbEntity
  8
0
  6
Continuous
 62
     7
100
AcDbLine
 10
129.925150933
 20
310.9342981614
 30
0.0
 11
129.925150933
 21
331.8143708891
 31
0.0
  0
LINE
  5
A1
330
1F
100
AcDbEntity
  8
0
  6
Continuous
 62
     7
100
AcDbLine
 10
131.4276500078
 20
334.4167981614
 30
0.0
 11
131.4276500078
 21
310.9342981614
 31
0.0
  0
LINE
  5
A2
330
1F
100
AcDbEntity
  8
0
  6
Continuous
 62
     7
100
AcDbLine
 10
131.4276500078
 20
294.8992981614
 30
0.0
 11
131.4276500078
 21
283.0667981614
 31
0.0
  0
LINE
  5
A3
330
1F
100
AcDbEntity
  8
0
  6
Continuous
 62
     7
100
AcDbLine
 10
131.4276500078
 20
278.458108499
 30
0.0
 11
131.4276500078
 21
271.4167981614
 31
0.0
  0
LINE
  5
A4
330
1F
100
AcDbEntity
  8
FASEN
  6
Continuous
 62
     7
100
AcDbLine
 10
122.1871613361
 20
282.6667981614
 30
0.0
 11
126.1855161983
 21
282.6667981614
 31
0.0
  0
LINE
  5
A5
330
1F
100
AcDbEntity
  8
0
  6
Continuous
 62
     7
100
AcDbLine
 10
129.9147856678
 20
282.6667981614
 30
0.0
 11
136.050150933
 21
282.6667981614
 31
0.0
  0
LINE
  5
A6
330
1F
100
AcDbEntity
  8
0
  6
Continuous
 62
     7
100
AcDbLine
 10
122.1871613361
 20
283.0667981614
 30
0.0
 11
126.175150933
 21
283.0667981614
 31
0.0
  0
LINE
  5
A7
330
1F
100
AcDbEntity
  8
FASEN
  6
Continuous
 62
     7
100
AcDbLine
 10
126.175150933
 20
283.0667981614
 30
0.0
 11
126.1855161983
 21
283.0667981614
 31
0.0
  0
LINE
  5
A8
330
1F
100
AcDbEntity
  8
FASEN
  6
Continuous
 62
     7
100
AcDbLine
 10
129.9147856678
 20
283.0667981614
 30
0.0
 11
129.925150933
 21
283.0667981614
 31
0.0
  0
LINE
  5
A9
330
1F
100
AcDbEntity
  8
0
  6
Continuous
 62
     7
100
AcDbLine
 10
129.925150933
 20
283.0667981614
 30
0.0
 11
136.050150933
 21
283.0667981614
 31
0.0
  0
LWPOLYLINE
  5
AA
330
1F
100
AcDbEntity
  8
BOHRUNGEN
  6
DASHED
 62
     8
100
AcDbPolyline
 90
        2
 70
     0
 43
0.35
 10
220.050150933
 20
286.9167981614
 10
186.5964020306
 20
286.9167981614
  0
LWPOLYLINE
  5
AB
330
1F
100
AcDbEntity
  8
BOHRUNGEN
  6
DASHED
 62
     8
100
AcDbPolyline
 90
        2
 70
     0
 43
0.35
 10
186.5964020306
 20
286.9167981614
 10
162.5817729674
 20
286.9167981614
  0
LWPOLYLINE
  5
AC
330
1F
100
AcDbEntity
  8
BOHRUNGEN
  6
DASHED
 62
     8
100
AcDbPolyline
 90
        2
 70
     0
 43
0.35
 10
162.5817729674
 20
286.9167981614
 10
157.050150933
 20
286.9167981614
  0
LINE
  5
AD
330
1F
100
AcDbEntity
  8
0
  6
Continuous
 62
     7
100
AcDbLine
 10
136.050150933
 20
334.4167723475
 30
0.0
 11
136.050150933
 21
310.9342981614
 31
0.0
  0
LINE
  5
AE
330
1F
100
AcDbEntity
  8
0
  6
Continuous
 62
     7
100
AcDbLine
 10
136.050150933
 20
271.4167982089
 30
0.0
 11
136.050150933
 21
294.8992981614
 31
0.0
  0
LINE
  5
AF
330
1F
100
AcDbEntity
  8
RUNDUNGEN
  6
Continuous
 62
     7
100
AcDbLine
 10
136.050150933
 20
294.8992981614
 30
0.0
 11
136.050150933
 21
300.6167981614
 31
0.0
  0
LINE
  5
B0
330
1F
100
AcDbEntity
  8
RUNDUNGEN
  6
Continuous
 62
     7
100
AcDbLine
 10
136.050150933
 20
305.2167981614
 30
0.0
 11
136.050150933
 21
310.9342981614
 31
0.0
  0
LINE
  5
B1
330
1F
100
AcDbEntity
  8
RUNDUNGEN
  6
Continuous
 62
     9
100
AcDbLine
 10
137.050150933
 20
277.4167981614
 30
0.0
 11
137.050150933
 21
328.4167981614
 31
0.0
  0
LINE
  5
B2
330
1F
100
AcDbEntity
  8
VERERBUNG
  6
Continuous
 62
     7
100
AcDbLine
 10
108.720261166
 20
278.8759295075
 30
0.0
 11
108.050150933
 21
278.6963740117
 31
0.0
  0
LINE
  5
B3
330
1F
100
AcDbEntity
  8
VERERBUNG
  6
Continuous
 62
     7
100
AcDbLine
 10
124.6726518583
 20
271.4167981614
 30
0.0
 11
126.175150933
 21
274.0192028972
 31
0.0
  0
LINE
  5
B4
330
1F
100
AcDbEntity
  8
VERERBUNG
  6
Continuous
 62
     9
100
AcDbLine
 10
83.5375579708
 20
293.6467981614
 30
0.0
 11
78.7218257435
 21
293.6467981614
 31
0.0
  0
LINE
  5
B5
330
1F
100
AcDbEntity
  8
0
  6
Continuous
 62
     7
100
AcDbLine
 10
136.050150933
 20
294.8992981614
 30
0.0
 11
129.3410378236
 21
294.8992981614
 31
0.0
  0
LINE
  5
B6
330
1F
100
AcDbEntity
  8
0
  6
Continuous
 62
     7
100
AcDbLine
 10
123.017650933
 20
294.8992981614
 30
0.0
 11
126.7592640425
 21
294.8992981614
 31
0.0
  0
LINE
  5
B7
330
1F
100
AcDbEntity
  8
0
  6
Continuous
 62
     7
100
AcDbLine
 10
127.175150933
 20
295.2167981614
 30
0.0
 11
128.925150933
 21
295.2167981614
 31
0.0
  0
LINE
  5
B8
330
1F
100
AcDbEntity
  8
VERERBUNG
  6
Continuous
 62
     7
100
AcDbLine
 10
82.550150933
 20
296.6467981614
 30
0.0
 11
79.050150933
 21
296.6467981614
 31
0.0
  0
LINE
  5
B9
330
1F
100
AcDbEntity
  8
VERERBUNG
  6
Continuous
 62
     7
100
AcDbLine
 10
124.6726518583
 20
334.4167981614
 30
0.0
 11
126.175150933
 21
331.8143934256
 31
0.0
  0
LWPOLYLINE
  5
BA
330
1F
100
AcDbEntity
  8
BEZUGSACHSEN
  6
DOT_CENTER
 62
     7
100
AcDbPolyline
 90
        2
 70
     0
 43
0.25
 10
223.050150933
 20
302.9167981614
 10
75.050150933
 20
302.9167981614
  0
LINE
  5
BB
330
1F
100
AcDbEntity
  8
RUNDUNGEN
  6
Continuous
 62
     9
100
AcDbLine
 10
151.550150933
 20
277.4167981614
 30
0.0
 11
151.550150933
 21
328.4167981614
 31
0.0
  0
LINE
  5
BC
330
1F
100
AcDbEntity
  8
RUNDUNGEN
  6
Continuous
 62
     7
100
AcDbLine
 10
152.550150933
 20
337.9167981614
 30
0.0
 11
152.550150933
 21
267.9167981614
 31
0.0
  0
LINE
  5
BD
330
1F
100
AcDbEntity
  8
RUNDUNGEN
  6
Continuous
 62
     9
100
AcDbLine
 10
153.550150933
 20
338.9167981614
 30
0.0
 11
153.550150933
 21
266.9167981614
 31
0.0
  0
LINE
  5
BE
330
1F
100
AcDbEntity
  8
VERERBUNG
  6
Continuous
 62
     7
100
AcDbLine
 10
82.550150933
 20
309.1867981614
 30
0.0
 11
79.050150933
 21
309.1867981614
 31
0.0
  0
LINE
  5
BF
330
1F
100
AcDbEntity
  8
0
  6
Continuous
 62
     7
100
AcDbLine
 10
127.175150933
 20
310.6167981614
 30
0.0
 11
128.925150933
 21
310.6167981614
 31
0.0
  0
LINE
  5
C0
330
1F
100
AcDbEntity
  8
0
  6
Continuous
 62
     7
100
AcDbLine
 10
123.017650933
 20
310.9342981614
 30
0.0
 11
126.7592640425
 21
310.9342981614
 31
0.0
  0
LINE
  5
C1
330
1F
100
AcDbEntity
  8
0
  6
Continuous
 62
     7
100
AcDbLine
 10
129.3410378236
 20
310.9342981614
 30
0.0
 11
136.050150933
 21
310.9342981614
 31
0.0
  0
LINE
  5
C2
330
1F
100
AcDbEntity
  8
VERERBUNG
  6
Continuous
 62
     9
100
AcDbLine
 10
78.7218257435
 20
312.1867981614
 30
0.0
 11
83.5375579708
 21
312.1867981614
 31
0.0
  0
LWPOLYLINE
  5
C3
330
1F
100
AcDbEntity
  8
BOHRUNGEN
  6
DASHED
 62
     8
100
AcDbPolyline
 90
        2
 70
     0
 43
0.35
 10
162.5817729674
 20
286.9167981614
 10
163.2801883573
 20
266.9167981614
  0
LWPOLYLINE
  5
C4
330
1F
100
AcDbEntity
  8
BOHRUNGEN
  6
DASHED
 62
     8
100
AcDbPolyline
 90
        2
 70
     0
 43
0.35
 10
220.050150933
 20
318.9167981614
 10
157.050150933
 20
318.9167981614
  0
LINE
  5
C5
330
1F
100
AcDbEntity
  8
VERERBUNG
  6
Continuous
 62
     7
100
AcDbLine
 10
108.720261166
 20
326.9576668152
 30
0.0
 11
108.050150933
 21
327.137222311
 31
0.0
  0
LWPOLYLINE
  5
C6
330
1F
100
AcDbEntity
  8
BEZUGSACHSEN
  6
DOT_CENTER
 62
     7
100
AcDbPolyline
 90
        2
 70
     0
 43
0.25
 10
172.1427767873845
 20
263.845419176844
 10
171.1652616792366
 20
291.8377894017229
  0
LINE
  5
C7
330
1F
100
AcDbEntity
  8
VERERBUNG
  6
Continuous
 62
     7
100
AcDbLine
 10
79.1901078687
 20
325.6913734189
 30
0.0
 11
108.050150933
 21
327.137222311
 31
0.0
  0
LINE
  5
C8
330
1F
100
AcDbEntity
  8
VERERBUNG
  6
Continuous
 62
     7
100
AcDbLine
 10
109.7479813025
 20
326.937222311
 30
0.0
 11
108.8755525931
 21
326.937222311
 31
0.0
  0
LINE
  5
C9
330
1F
100
AcDbEntity
  8
0
  6
Continuous
 62
     7
100
AcDbLine
 10
137.050150933
 20
328.4167981614
 30
0.0
 11
151.550150933
 21
328.4167981614
 31
0.0
  0
LWPOLYLINE
  5
CA
330
1F
100
AcDbEntity
  8
BOHRUNGEN
  6
DASHED
 62
     8
100
AcDbPolyline
 90
        2
 70
     0
 43
0.35
 10
180.0924399926
 20
286.9167981614
 10
180.7908553825
 20
266.9167981614
  0
LINE
  5
CB
330
1F
100
AcDbEntity
  8
VERERBUNG
  6
Continuous
 62
     7
100
AcDbLine
 10
127.175150933
 20
330.4167981614
 30
0.0
 11
128.925150933
 21
330.4167981614
 31
0.0
  0
LINE
  5
CC
330
1F
100
AcDbEntity
  8
VERERBUNG
  6
Continuous
 62
     7
100
AcDbLine
 10
110.050150933
 20
334.4167981614
 30
0.0
 11
112.050150933
 21
334.4167981614
 31
0.0
  0
LINE
  5
CD
330
1F
100
AcDbEntity
  8
VERERBUNG
  6
Continuous
 62
     7
100
AcDbLine
 10
122.050150933
 20
334.4167981614
 30
0.0
 11
124.6726518583
 21
334.4167981614
 31
0.0
  0
LINE
  5
CE
330
1F
100
AcDbEntity
  8
VERERBUNG
  6
Continuous
 62
     7
100
AcDbLine
 10
131.4276500078
 20
334.4167981614
 30
0.0
 11
136.050150933
 21
334.4167981614
 31
0.0
  0
LWPOLYLINE
  5
CF
330
1F
100
AcDbEntity
  8
BOHRUNGEN
  6
DASHED
 62
     8
100
AcDbPolyline
 90
        2
 70
     0
 43
0.35
 10
186.5964020306
 20
286.9167981614
 10
187.2948174204
 20
266.9167981614
  0
LINE
  5
D0
330
1F
100
AcDbEntity
  8
0
  6
Continuous
 62
     7
100
AcDbLine
 10
153.550150933
 20
338.9167981614
 30
0.0
 11
211.6359373707
 21
338.9167981614
 31
0.0
  0
LWPOLYLINE
  5
D1
330
1F
100
AcDbEntity
  8
BEZUGSACHSEN
  6
DOT_CENTER
 62
     7
100
AcDbPolyline
 90
        2
 70
     0
 43
0.25
 10
196.2084254783
 20
262.3844081955
 10
195.1506415277358
 20
292.6753773225819
  0
LWPOLYLINE
  5
D2
330
1F
100
AcDbEntity
  8
BOHRUNGEN
  6
DASHED
 62
     8
100
AcDbPolyline
 90
        2
 70
     0
 43
0.35
 10
204.1070690558
 20
286.9167981614
 10
204.8054844457
 20
266.9167981614
  0
LINE
  5
D3
330
1F
100
AcDbEntity
  8
RUNDUNGEN
  6
Continuous
 62
     9
100
AcDbLine
 10
211.6359373707
 20
266.9167981614
 30
0.0
 11
211.6359373707
 21
338.9167981614
 31
0.0
  0
LINE
  5
D4
330
1F
100
AcDbEntity
  8
RUNDUNGEN
  6
Continuous
 62
     9
100
AcDbLine
 10
212.3430441519
 20
267.2096913802
 30
0.0
 11
212.3430441519
 21
338.6239049425
 31
0.0
  0
LINE
  5
D5
330
1F
100
AcDbEntity
  8
RUNDUNGEN
  6
Continuous
 62
     9
100
AcDbLine
 10
219.7572577142
 20
274.6239049425
 30
0.0
 11
219.7572577142
 21
331.2096913802
 31
0.0
  0
LINE
  5
D6
330
1F
100
AcDbEntity
  8
RUNDUNGEN
  6
Continuous
 62
     7
100
AcDbLine
 10
220.050150933
 20
330.502584599
 30
0.0
 11
220.050150933
 21
275.3310117237
 31
0.0
  0
LINE
  5
D7
330
1F
100
AcDbEntity
  8
0
  6
Continuous
 62
     7
100
AcDbLine
 10
212.3430441519
 20
267.2096913802
 30
0.0
 11
219.7572577142
 21
274.6239049425
 31
0.0
  0
LINE
  5
D8
330
1F
100
AcDbEntity
  8
0
  6
Continuous
 62
     7
100
AcDbLine
 10
212.3430441519
 20
338.6239049425
 30
0.0
 11
219.7572577142
 21
331.2096913802
 31
0.0
  0
LWPOLYLINE
  5
D9
330
1F
100
AcDbEntity
  8
1
  6
DASHED
 62
     7
100
AcDbPolyline
 90
        2
 70
     0
 43
0.35
 10
157.050150933
 20
318.9167981614
 10
157.050150933
 20
286.9167981614
  0
LWPOLYLINE
  5
DA
330
1F
100
AcDbEntity
  8
BOHRUNGEN
  6
DASHED
 62
     8
100
AcDbPolyline
 90
        2
 70
     0
 43
0.35
 10
205.3578309861
 20
286.9167981614
 10
206.056246376
 20
266.9167981614
  0
LWPOLYLINE
  5
DB
330
1F
100
AcDbEntity
  8
BOHRUNGEN
  6
DASHED
 62
     8
100
AcDbPolyline
 90
        2
 70
     0
 43
0.35
 10
181.3432019229
 20
286.9167981614
 10
182.0416173128
 20
266.9167981614
  0
LWPOLYLINE
  5
DC
330
1F
100
AcDbEntity
  8
BOHRUNGEN
  6
DASHED
 62
     8
100
AcDbPolyline
 90
        2
 70
     0
 43
0.35
 10
185.3456401003
 20
286.9167981614
 10
186.0440554901
 20
266.9167981614
  0
LWPOLYLINE
  5
DD
330
1F
100
AcDbEntity
  8
BOHRUNGEN
  6
DASHED
 62
     8
100
AcDbPolyline
 90
        2
 70
     0
 43
0.35
 10
161.3310110371
 20
286.9167981614
 10
162.029426427
 20
266.9167981614
  0
ARC
  5
DE
330
1F
100
AcDbEntity
  8
FASEN
  6
Continuous
 62
     7
100
AcDbCircle
 10
28.4799104525
 20
282.8667981614
 30
0.0
 40
97.70581044213137
100
AcDbArc
 50
359.8827176822629
 51
0.11728231773712
  0
ARC
  5
DF
330
1F
100
AcDbEntity
  8
FASEN
  6
Continuous
 62
     7
100
AcDbCircle
 10
125.0941568488
 20
286.9861953182
 30
0.0
 40
12.92211935379971
100
AcDbArc
 50
219.3764519581998
 51
221.2968513340548
  0
ARC
  5
E0
330
1F
100
AcDbEntity
  8
FASEN
  6
Continuous
 62
     7
100
AcDbCircle
 10
122.1871613361
 20
275.0667981614
 30
0.0
 40
8.0
100
AcDbArc
 50
90.0
 51
152.2781454969008
  0
ARC
  5
E1
330
1F
100
AcDbEntity
  8
FASEN
  6
Continuous
 62
     7
100
AcDbCircle
 10
122.1871613361
 20
275.0667981614
 30
0.0
 40
7.599996372100009
100
AcDbArc
 50
90.0
 51
153.498256574603
  0
ARC
  5
E2
330
1F
100
AcDbEntity
  8
FASEN
  6
Continuous
 62
     7
100
AcDbCircle
 10
127.9776054699
 20
282.4661337279
 30
0.0
 40
1.947545463826499
100
AcDbArc
 50
0.00156498996029
 51
5.91393926102729
  0
ARC
  5
E3
330
1F
100
AcDbEntity
  8
VERERBUNG
  6
Continuous
 62
     7
100
AcDbCircle
 10
82.550150933
 20
298.1467981614
 30
0.0
 40
1.5
100
AcDbArc
 50
270.0
 51
354.6662961831095
  0
ARC
  5
E4
330
1F
100
AcDbEntity
  8
VERERBUNG
  6
Continuous
 62
     7
100
AcDbCircle
 10
79.250150933
 20
281.3407198085
 30
0.0
 40
1.200000000000003
100
AcDbArc
 50
180.0
 51
267.1319572715504
  0
ARC
  5
E5
330
1F
100
AcDbEntity
  8
VERERBUNG
  6
Continuous
 62
     7
100
AcDbCircle
 10
127.175150933
 20
274.4167981614
 30
0.0
 40
1.0
100
AcDbArc
 50
90.0
 51
180.0
  0
ARC
  5
E6
330
1F
100
AcDbEntity
  8
VERERBUNG
  6
Continuous
 62
     7
100
AcDbCircle
 10
108.8755525931
 20
278.2963740117
 30
0.0
 40
0.6000000000000227
100
AcDbArc
 50
90.0
 51
105.0000000028924
  0
ARC
  5
E7
330
1F
100
AcDbEntity
  8
VERERBUNG
  6
Continuous
 62
     7
100
AcDbCircle
 10
109.7479813025
 20
278.2963740117
 30
0.0
 40
0.600000000000486
100
AcDbArc
 50
59.74152092740056
 51
90.0
  0
ARC
  5
E8
330
1F
100
AcDbEntity
  8
0
  6
Continuous
 62
     7
100
AcDbCircle
 10
-17.6983905397
 20
342.3818017657
 30
0.0
 40
156.0632957307651
100
AcDbArc
 50
335.8202227521872
 51
337.2043014056001
  0
ARC
  5
E9
330
1F
100
AcDbEntity
  8
VERERBUNG
  6
Continuous
 62
     7
100
AcDbCircle
 10
117.0315847435
 20
365.7313460202
 30
0.0
 40
31.71385608949957
100
AcDbArc
 50
270.0335425167997
 51
279.1049739812994
  0
ARC
  5
EA
330
1F
100
AcDbEntity
  8
0
  6
Continuous
 62
     7
100
AcDbCircle
 10
123.017650933
 20
302.9167981614
 30
0.0
 40
8.017500000000041
100
AcDbArc
 50
90.0
 51
270.0
  0
ARC
  5
EB
330
1F
100
AcDbEntity
  8
VERERBUNG
  6
Continuous
 62
     7
100
AcDbCircle
 10
82.550150933
 20
307.6867981614
 30
0.0
 40
1.499999999999938
100
AcDbArc
 50
5.33370376199131
 51
90.0
  0
ARC
  5
EC
330
1F
100
AcDbEntity
  8
VERERBUNG
  6
Continuous
 62
     7
100
AcDbCircle
 10
79.250150933
 20
324.4928765142
 30
0.0
 40
1.200000000060833
100
AcDbArc
 50
92.8680427282107
 51
180.0
  0
ARC
  5
ED
330
1F
100
AcDbEntity
  8
VERERBUNG
  6
Continuous
 62
     7
100
AcDbCircle
 10
127.175150933
 20
331.4167981614
 30
0.0
 40
1.0
100
AcDbArc
 50
180.0
 51
270.0
  0
ARC
  5
EE
330
1F
100
AcDbEntity
  8
VERERBUNG
  6
Continuous
 62
     7
100
AcDbCircle
 10
108.8755525931
 20
327.537222311
 30
0.0
 40
0.6000000000355948
100
AcDbArc
 50
254.9999999971062
 51
270.0
  0
ARC
  5
EF
330
1F
100
AcDbEntity
  8
VERERBUNG
  6
Continuous
 62
     7
100
AcDbCircle
 10
109.7479813025
 20
327.537222311
 30
0.0
 40
0.5999999999999659
100
AcDbArc
 50
270.0
 51
300.2584790726022
  0
ARC
  5
F0
330
1F
100
AcDbEntity
  8
VERERBUNG
  6
Continuous
 62
     7
100
AcDbCircle
 10
183.9337483396
 20
-565.6182637552
 30
0.0
 40
884.3221864334639
100
AcDbArc
 50
96.58318095120576
 51
96.8023740697
  0
ARC
  5
F1
330
1F
100
AcDbEntity
  8
FASEN
  6
Continuous
 62
     7
100
AcDbCircle
 10
227.6203914136
 20
282.8667981614
 30
0.0
 40
97.70581044213137
100
AcDbArc
 50
179.8827176822629
 51
180.1172823177372
  0
ARC
  5
F2
330
1F
100
AcDbEntity
  8
FASEN
  6
Continuous
 62
     7
100
AcDbCircle
 10
128.1226963961
 20
282.4661337279
 30
0.0
 40
1.947545463813446
100
AcDbArc
 50
174.0860607386696
 51
179.9984350100397
  0
ARC
  5
F3
330
1F
100
AcDbEntity
  8
RUNDUNGEN
  6
Continuous
 62
     7
100
AcDbCircle
 10
153.550150933
 20
267.9167981614
 30
0.0
 40
1.0
100
AcDbArc
 50
180.0
 51
270.0
  0
ARC
  5
F4
330
1F
100
AcDbEntity
  8
RUNDUNGEN
  6
Continuous
 62
     7
100
AcDbCircle
 10
137.050150933
 20
276.4167981614
 30
0.0
 40
1.0
100
AcDbArc
 50
90.0
 51
180.0
  0
ARC
  5
F5
330
1F
100
AcDbEntity
  8
RUNDUNGEN
  6
Continuous
 62
     7
100
AcDbCircle
 10
151.550150933
 20
276.4167981614
 30
0.0
 40
1.0
100
AcDbArc
 50
0.0
 51
90.0
  0
ARC
  5
F6
330
1F
100
AcDbEntity
  8
RUNDUNGEN
  6
Continuous
 62
     7
100
AcDbCircle
 10
219.050150933
 20
275.3310117237
 30
0.0
 40
1.000000000019
100
AcDbArc
 50
315.0000000000011
 51
0.0
  0
ARC
  5
F7
330
1F
100
AcDbEntity
  8
RUNDUNGEN
  6
Continuous
 62
     7
100
AcDbCircle
 10
211.6359373707
 20
267.9167981614
 30
0.0
 40
1.0
100
AcDbArc
 50
270.0
 51
315.0000000000011
  0
ARC
  5
F8
330
1F
100
AcDbEntity
  8
VERERBUNG
  6
Continuous
 62
     7
100
AcDbCircle
 10
128.925150933
 20
274.4167981614
 30
0.0
 40
1.0
100
AcDbArc
 50
0.0
 51
90.0
  0
ARC
  5
F9
330
1F
100
AcDbEntity
  8
VERERBUNG
  6
Continuous
 62
     7
100
AcDbCircle
 10
183.9337483396
 20
1171.4518600779
 30
0.0
 40
884.3221864334004
100
AcDbArc
 50
263.1976259303
 51
263.4168190487943
  0
ARC
  5
FA
330
1F
100
AcDbEntity
  8
0
  6
Continuous
 62
     7
100
AcDbCircle
 10
273.7986924056
 20
342.3818017656
 30
0.0
 40
156.0632957306004
100
AcDbArc
 50
202.7956985944
 51
204.1797772478093
  0
ARC
  5
FB
330
1F
100
AcDbEntity
  8
RUNDUNGEN
  6
Continuous
 62
     7
100
AcDbCircle
 10
153.550150933
 20
337.9167981614
 30
0.0
 40
1.0
100
AcDbArc
 50
90.0
 51
180.0
  0
ARC
  5
FC
330
1F
100
AcDbEntity
  8
RUNDUNGEN
  6
Continuous
 62
     7
100
AcDbCircle
 10
137.050150933
 20
329.4167981614
 30
0.0
 40
1.0
100
AcDbArc
 50
180.0
 51
270.0
  0
ARC
  5
FD
330
1F
100
AcDbEntity
  8
RUNDUNGEN
  6
Continuous
 62
     7
100
AcDbCircle
 10
151.550150933
 20
329.4167981614
 30
0.0
 40
1.0
100
AcDbArc
 50
270.0
 51
0.0
  0
ARC
  5
FE
330
1F
100
AcDbEntity
  8
RUNDUNGEN
  6
Continuous
 62
     7
100
AcDbCircle
 10
219.050150933
 20
330.502584599
 30
0.0
 40
1.0
100
AcDbArc
 50
0.0
 51
45.00000000000115
  0
ARC
  5
FF
330
1F
100
AcDbEntity
  8
RUNDUNGEN
  6
Continuous
 62
     7
100
AcDbCircle
 10
211.6359373707
 20
337.9167981614
 30
0.0
 40
0.9999999999483382
100
AcDbArc
 50
44.99999999595023
 51
90.0
  0
ARC
  5
100
330
1F
100
AcDbEntity
  8
VERERBUNG
  6
Continuous
 62
     7
100
AcDbCircle
 10
128.925150933
 20
331.4167981614
 30
0.0
 40
1.0
100
AcDbArc
 50
270.0
 51
0.0
  0
CIRCLE
  5
101
330
1F
100
AcDbEntity
  8
VERERBUNG
  6
Continuous
 62
     7
100
AcDbCircle
 10
101.050150933
 20
302.9167981614
 30
0.0
 40
3.75
  0
SPLINE
  5
102
330
1F
100
AcDbEntity
  8
0
  6
Continuous
 62
     2
100
AcDbSpline
210
0.0
220
0.0
230
1.0
 70
     8
 71
     3
 72
    63
 73
    59
 74
    57
 42
0.0000000001
 43
0.0000000001
 44
0.00000001
 40
0.0
 40
0.0
 40
0.0
 40
0.0
 40
0.0160970138184648
 40
0.0640945846500669
 40
0.1435449017592316
 40
0.2539697543075273
 40
0.3949067246084239
 40
0.5659854768059442
 40
0.7668609365920093
 40
0.9971925663773461
 40
1.256720234972359
 40
1.545492343402764
 40
1.863357966023302
 40
2.209045003415867
 40
2.580895850823191
 40
2.976807899851091
 40
3.394809071484328
 40
3.833865474978149
 40
4.293293270354339
 40
4.772838460674969
 40
5.271821796600032
 40
5.787387651372971
 40
6.316106837955563
 40
6.854381421983433
 40
7.399016911571801
 40
7.948570820434322
 40
8.50225974258191
 40
9.060170032810808
 40
9.622134870271893
 40
10.18608340253055
 40
10.749480510476
 40
11.30982231970838
 40
11.86508391243835
 40
12.41514114879556
 40
12.96014164720735
 40
13.49944133529462
 40
14.0317554946225
 40
14.55404304709089
 40
15.06286877343517
 40
15.55500741538615
 40
16.0277849489999
 40
16.48057299944831
 40
16.91317231685457
 40
17.32510044610085
 40
17.71553060865322
 40
18.08257445322182
 40
18.42417957766369
 40
18.73872824704228
 40
19.02495862722526
 40
19.28262290474433
 40
19.51163843150054
 40
19.71158539717393
 40
19.88196265396581
 40
20.02229016419131
 40
20.13210110190505
 40
20.21096527778394
 40
20.25848866520854
 40
20.27438689415954
 40
20.27438689415954
 40
20.27438689415954
 40
20.27438689415954
 10
182.0416173129
 20
266.9167981614
 30
0.0
 10
182.0364437760043
 20
266.9182211675002
 30
0.0
 10
182.0158439490896
 20
266.9238872485494
 30
0.0
 10
181.9696933381884
 20
266.9365198375677
 30
0.0
 10
181.8931938794596
 20
266.9573737856851
 30
0.0
 10
181.7867370028256
 20
266.986124281528
 30
0.0
 10
181.6506958219018
 20
267.0224741126579
 30
0.0
 10
181.4853659245756
 20
267.0660030936424
 30
0.0
 10
181.2910085058191
 20
267.1163105011104
 30
0.0
 10
181.0678209256181
 20
267.1728837095558
 30
0.0
 10
180.8158779639568
 20
267.2352419813593
 30
0.0
 10
180.5351643023305
 20
267.3027802904413
 30
0.0
 10
180.2260038012191
 20
267.3748279331497
 30
0.0
 10
179.8892562696192
 20
267.4504700388108
 30
0.0
 10
179.5264268359603
 20
267.5286423641865
 30
0.0
 10
179.1392623129426
 20
267.608234697438
 30
0.0
 10
178.7293163846549
 20
267.688158501996
 30
0.0
 10
178.297699454193
 20
267.7674383348387
 30
0.0
 10
177.8449764934472
 20
267.8452073579438
 30
0.0
 10
177.3716004785697
 20
267.9205330797218
 30
0.0
 10
176.8787683353328
 20
267.9924099259849
 30
0.0
 10
176.3687563576415
 20
268.0597584160157
 30
0.0
 10
175.8448233680318
 20
268.1213284660492
 30
0.0
 10
175.3104084409566
 20
268.1762488520341
 30
0.0
 10
174.7683032742331
 20
268.2236762942921
 30
0.0
 10
174.2204086923812
 20
268.2631494123137
 30
0.0
 10
173.6675455274731
 20
268.2943103019029
 30
0.0
 10
173.1101223781513
 20
268.3168478908709
 30
0.0
 10
172.5489894710499
 20
268.3304926027354
 30
0.0
 10
171.9858799397545
 20
268.3351054801879
 30
0.0
 10
171.423311435063
 20
268.3304906251705
 30
0.0
 10
170.8637862375926
 20
268.3168641049
 30
0.0
 10
170.3089972384755
 20
268.2943861477264
 30
0.0
 10
169.7597443573717
 20
268.2633429873812
 30
0.0
 10
169.2163546617002
 20
268.2240594080924
 30
0.0
 10
168.6795298632413
 20
268.1768937453716
 30
0.0
 10
168.1510208769726
 20
268.1223076124459
 30
0.0
 10
167.6334628256462
 20
268.061130963593
 30
0.0
 10
167.130123183739
 20
267.9942191428838
 30
0.0
 10
166.6440810322562
 20
267.9227943654337
 30
0.0
 10
166.1774697444981
 20
267.8479149214857
 30
0.0
 10
165.7313925679863
 20
267.770570601997
 30
0.0
 10
165.3062028576043
 20
267.6916721689175
 30
0.0
 10
164.9023154981837
 20
267.6120514756997
 30
0.0
 10
164.5206801005504
 20
267.5326525004552
 30
0.0
 10
164.162738977276
 20
267.4545401787198
 30
0.0
 10
163.8301823321416
 20
267.3788107765266
 30
0.0
 10
163.5244804634277
 20
267.3065278287318
 30
0.0
 10
163.2465060180338
 20
267.2386150577237
 30
0.0
 10
162.996649767281
 20
267.1757706272127
 30
0.0
 10
162.7750182231837
 20
267.1186388813336
 30
0.0
 10
162.5818267876029
 20
267.0677528254346
 30
0.0
 10
162.4174142695674
 20
267.0236778974336
 30
0.0
 10
162.2821627343199
 20
266.9868641203082
 30
0.0
 10
162.1764261109021
 20
266.9577648768956
 30
0.0
 10
162.1005675096921
 20
266.936685561301
 30
0.0
 10
162.0548842091886
 20
266.9239376468261
 30
0.0
 10
162.0345289791017
 20
266.918229142177
 30
0.0
 10
162.0294264269
 20
266.9167981614
 30
0.0
 11
182.0416173129
 21
266.9167981614
 31
0.0
 11
182.0260962610083
 21
266.9210655730333
 31
0.0
 11
181.9798039391667
 21
266.9337457837666
 31
0.0
 11
181.9031483754163
 21
266.954633039088
 31
0.0
 11
181.7965447069636
 21
266.9834307114374
 31
0.0
 11
181.6603826665899
 21
267.0198055428304
 31
0.0
 11
181.4949432602103
 21
267.063368626631
 31
0.0
 11
181.3004750211781
 21
267.1136980847243
 31
0.0
 11
181.0772053228143
 21
267.170295800863
 31
0.0
 11
180.8252772100572
 21
267.2326403015749
 31
0.0
 11
180.5445175727338
 21
267.3001929229703
 31
0.0
 11
180.2349450105147
 21
267.3723273999213
 31
0.0
 11
179.8976611138833
 21
267.4480842537
 31
0.0
 11
179.5341503661417
 21
267.5263976560896
 31
0.0
 11
179.14634583105
 21
267.6061095945166
 31
0.0
 11
178.736067409025
 21
267.6860883161083
 31
0.0
 11
178.30423376665
 21
267.76539929115
 31
0.0
 11
177.8514347424196
 21
267.8431613823014
 31
0.0
 11
177.377846096307
 21
267.9185097985613
 31
0.0
 11
176.8840855345433
 21
267.9905158898158
 31
0.0
 11
176.3729526269139
 21
268.0579792231606
 31
0.0
 11
175.8478473724277
 21
268.1196918634505
 31
0.0
 11
175.3123896323077
 21
268.1746876483435
 31
0.0
 11
174.7698262425787
 21
268.2221511569044
 31
0.0
 11
174.2216920756801
 21
268.261628160647
 31
0.0
 11
173.6688797172829
 21
268.2927716818392
 31
0.0
 11
173.1114245605833
 21
268.3153025542667
 31
0.0
 11
172.5496259380334
 21
268.3289695306563
 31
0.0
 11
171.9856961315833
 21
268.3335652279833
 31
0.0
 11
171.42231782755
 21
268.3289622087771
 31
0.0
 11
170.8621423802167
 21
268.3153089535334
 31
0.0
 11
170.3073358571127
 21
268.2928332270205
 31
0.0
 11
169.758154510785
 21
268.2618040131302
 31
0.0
 11
169.2145720623934
 21
268.2225145098292
 31
0.0
 11
168.6773419225319
 21
268.1753135522596
 31
0.0
 11
168.1478416813871
 21
268.1206522419151
 31
0.0
 11
167.6291659669652
 21
268.0593351094614
 31
0.0
 11
167.1247736871925
 21
267.9923123678329
 31
0.0
 11
166.6378638324618
 21
267.9207635294948
 31
0.0
 11
166.1710573294661
 21
267.8458616933973
 31
0.0
 11
165.7249227588667
 21
267.7685250038833
 31
0.0
 11
165.2995831400104
 21
267.6896049300645
 31
0.0
 11
164.8954315930167
 21
267.6099411947333
 31
0.0
 11
164.5131842375063
 21
267.53042596955
 31
0.0
 11
164.1545790903334
 21
267.4521729679667
 31
0.0
 11
163.8214996839248
 21
267.3763299058484
 31
0.0
 11
163.5153897157655
 21
267.3039589669204
 31
0.0
 11
163.2373381138511
 21
267.2360241657316
 31
0.0
 11
162.9874545631656
 21
267.173182372264
 31
0.0
 11
162.7656895100155
 21
267.116012688893
 31
0.0
 11
162.5723356926581
 21
267.0650902930799
 31
0.0
 11
162.4077704297775
 21
267.020969052334
 31
0.0
 11
162.2723670714033
 21
266.9841215196207
 31
0.0
 11
162.1664943822921
 21
266.9549767818119
 31
0.0
 11
162.0905067514333
 21
266.933871375075
 31
0.0
 11
162.0447345466542
 21
266.9210894494781
 31
0.0
 11
162.0294264269
 21
266.9167981614
 31
0.0
  0
SPLINE
  5
103
330
1F
100
AcDbEntity
  8
0
  6
Continuous
 62
     2
100
AcDbSpline
210
0.0
220
0.0
230
1.0
 70
     8
 71
     3
 72
    63
 73
    59
 74
    57
 42
0.0000000001
 43
0.0000000001
 44
0.00000001
 40
0.0
 40
0.0
 40
0.0
 40
0.0
 40
0.0160938527016811
 40
0.064082821178981
 40
0.143520171087774
 40
0.2539277875696041
 40
0.3948430364599486
 40
0.5658950967250767
 40
0.7667379560802202
 40
0.9970285979225793
 40
1.256504874518476
 40
1.545216566968448
 40
1.863015244364218
 40
2.20863237714333
 40
2.580414632920405
 40
2.976265428115773
 40
3.394218432864982
 40
3.833242654749204
 40
4.292656553253056
 40
4.772208872447367
 40
5.27122198173216
 40
5.786836900270488
 40
6.315619855605308
 40
6.853968314262827
 40
7.398682743722981
 40
7.948313819151209
 40
8.50207262133813
 40
9.060047100947974
 40
9.622073421910818
 40
10.18608218913314
 40
10.74953936549518
 40
11.30994217456
 40
11.86526717553071
 40
12.41539321626914
 40
12.96046954053239
 40
13.49984671517896
 40
14.03223336156503
 40
14.5545835193837
 40
15.06345751003324
 40
15.55562557401925
 40
16.02841040999358
 40
16.48118536483252
 40
16.9137539685264
 40
17.32563582227215
 40
17.71600675865627
 40
18.08298399502406
 40
18.42452099660025
 40
18.73900413008698
 40
19.02517499672962
 40
19.28278830149032
 40
19.5117628527691
 40
19.7116769523743
 40
19.88202711487406
 40
20.02233250406758
 40
20.13212592526888
 40
20.21097699871651
 40
20.25849177700135
 40
20.27438686878446
 40
20.27438686878446
 40
20.27438686878446
 40
20.27438686878446
 10
206.056246376
 20
266.9167981614
 30
0.0
 10
206.051073855095
 20
266.9182208881108
 30
0.0
 10
206.0304778089934
 20
266.9238859294832
 30
0.0
 10
205.9843351515254
 20
266.9365163507096
 30
0.0
 10
205.9078481806051
 20
266.9573669260541
 30
0.0
 10
205.8014080356506
 20
266.9861129907808
 30
0.0
 10
205.6653880400816
 20
267.0224573368438
 30
0.0
 10
205.5000843338909
 20
267.0659797320487
 30
0.0
 10
205.3057593947303
 20
267.1162792227875
 30
0.0
 10
205.0826123899427
 20
267.1728429515805
 30
0.0
 10
204.8307191460144
 20
267.2351901043628
 30
0.0
 10
204.5500638067094
 20
267.3027160944122
 30
0.0
 10
204.2409678802372
 20
267.3747511017639
 30
0.0
 10
203.9042878551435
 20
267.4503812625805
 30
0.0
 10
203.5415243803641
 20
267.5285435841697
 30
0.0
 10
203.1544189855592
 20
267.6081288481242
 30
0.0
 10
202.7445205322781
 20
267.6880494846721
 30
0.0
 10
202.3129357311838
 20
267.7673303308362
 30
0.0
 10
201.8602268470527
 20
267.8451046037466
 30
0.0
 10
201.3868445065833
 20
267.9204393733222
 30
0.0
 10
200.8939851808311
 20
267.9923284081071
 30
0.0
 10
200.3839271259535
 20
268.0596910973296
 30
0.0
 10
199.8599331931632
 20
268.1212758429915
 30
0.0
 10
199.3254471287135
 20
268.1762102934842
 30
0.0
 10
198.7832660722889
 20
268.2236499910645
 30
0.0
 10
198.2352966835736
 20
268.263133179357
 30
0.0
 10
197.682363408463
 20
268.2943015712956
 30
0.0
 10
197.1248752173146
 20
268.3168442051383
 30
0.0
 10
196.563680387988
 20
268.3304919196453
 30
0.0
 10
196.0005102592282
 20
268.3351058102256
 30
0.0
 10
195.4378813179574
 20
268.3304899839774
 30
0.0
 10
194.8782946743179
 20
268.3168605127864
 30
0.0
 10
194.3234414114259
 20
268.2943775833895
 30
0.0
 10
193.7741194824903
 20
268.2633270216313
 30
0.0
 10
193.2306562647851
 20
268.2240335040484
 30
0.0
 10
192.693756964542
 20
268.1768557374851
 30
0.0
 10
192.1651781697409
 20
268.1222556983132
 30
0.0
 10
191.6475602884664
 20
268.0610644915702
 30
0.0
 10
191.1441753419553
 20
267.994138565407
 30
0.0
 10
190.6581063410663
 20
267.9227016329251
 30
0.0
 10
190.1914885350897
 20
267.8478130951355
 30
0.0
 10
189.7454246460964
 20
267.7704633794459
 30
0.0
 10
189.3202657128416
 20
267.6915636868334
 30
0.0
 10
188.9164240727091
 20
267.6119458490471
 30
0.0
 10
188.5348458769962
 20
267.5325536015025
 30
0.0
 10
188.1769688189804
 20
267.4544509568576
 30
0.0
 10
187.8444779833403
 20
267.378733226844
 30
0.0
 10
187.5388393394965
 20
267.3064627278629
 30
0.0
 10
187.2609223053445
 20
267.2385621959013
 30
0.0
 10
187.0111153131135
 20
267.1757289065903
 30
0.0
 10
186.7895242630939
 20
267.1186067483418
 30
0.0
 10
186.5963654919231
 20
267.0677287746909
 30
0.0
 10
186.4319794838345
 20
267.0236606239042
 30
0.0
 10
186.2967494591361
 20
266.9868525148711
 30
0.0
 10
186.1910298093595
 20
266.9577578498853
 30
0.0
 10
186.1151838153121
 20
266.9366820046597
 30
0.0
 10
186.0695084954451
 20
266.9239363074571
 30
0.0
 10
186.0491570354091
 20
266.9182288598594
 30
0.0
 10
186.0440554901
 20
266.9167981614
 30
0.0
 11
206.056246376
 21
266.9167981614
 31
0.0
 11
206.0407283722354
 21
266.9210647354292
 31
0.0
 11
205.9944443492833
 21
266.9337426814333
 31
0.0
 11
205.9178013049121
 21
266.9546265582296
 31
0.0
 11
205.8112142979136
 21
266.9834198164042
 31
0.0
 11
205.6750732868753
 21
267.0197892057762
 31
0.0
 11
205.5096597685436
 21
267.0633457813311
 31
0.0
 11
205.3152232111406
 21
267.113667539043
 31
0.0
 11
205.0919934339811
 21
267.170255932813
 31
0.0
 11
204.8401154856239
 21
267.2325892084166
 31
0.0
 11
204.5594149789005
 21
267.3001293215536
 31
0.0
 11
204.2499081486667
 21
267.3722508952546
 31
0.0
 11
203.9126931499334
 21
267.4479955128834
 31
0.0
 11
203.5492503185167
 21
267.5262984758062
 31
0.0
 11
203.1615067933
 21
267.6060029970666
 31
0.0
 11
202.7512767904167
 21
267.6859783614813
 31
0.0
 11
202.3194760319333
 21
267.7652902292833
 31
0.0
 11
201.8666919790925
 21
267.8430573922222
 31
0.0
 11
201.393097543907
 21
267.9184147926947
 31
0.0
 11
200.8993086979247
 21
267.9904332543658
 31
0.0
 11
200.3881282000639
 21
268.0579109753272
 31
0.0
 11
199.8629604892298
 21
268.1196385165859
 31
0.0
 11
199.3274299457742
 21
268.1746485153602
 31
0.0
 11
198.7847884083599
 21
268.2221245254565
 31
0.0
 11
198.2365776068634
 21
268.2616116904469
 31
0.0
 11
197.6836956776037
 21
268.2927626663163
 31
0.0
 11
197.1261764824667
 21
268.3152985698833
 31
0.0
 11
196.5643164307062
 21
268.3289685256541
 31
0.0
 11
196.0003263954833
 21
268.33356522805
 31
0.0
 11
195.4368880289125
 21
268.3289612439166
 31
0.0
 11
194.8766516350167
 21
268.3153050598834
 31
0.0
 11
194.3217818526043
 21
268.2928243733101
 31
0.0
 11
193.7725320077184
 21
268.2617878046968
 31
0.0
 11
193.2288742605122
 21
268.2224882732104
 31
0.0
 11
192.6915674203487
 21
268.175274969543
 31
0.0
 11
192.161995757658
 21
268.120599606488
 31
0.0
 11
191.6432587468151
 21
268.0592677146614
 31
0.0
 11
191.1388196775029
 21
267.9922306822767
 31
0.0
 11
190.6518818972951
 21
267.9206695097449
 31
0.0
 11
190.1850694466348
 21
267.8457586491452
 31
0.0
 11
189.7389490707833
 21
267.7684167460167
 31
0.0
 11
189.3136409031937
 21
267.6894955227417
 31
0.0
 11
188.9095359252667
 21
267.6098348156167
 31
0.0
 11
188.5273475934229
 21
267.5303266589542
 31
0.0
 11
188.1688084162167
 21
267.4520837652167
 31
0.0
 11
187.8357961541707
 21
267.3762526583234
 31
0.0
 11
187.5297505235487
 21
267.3038944298705
 31
0.0
 11
187.2517571482323
 21
267.2359720609837
 31
0.0
 11
187.0019233268322
 21
267.1731415232306
 31
0.0
 11
186.7801981557321
 21
267.1159812780075
 31
0.0
 11
186.5868762513248
 21
267.0650667565299
 31
0.0
 11
186.4223372405838
 21
267.0209522259527
 31
0.0
 11
186.2869552743866
 21
266.9841103277207
 31
0.0
 11
186.1810994970733
 21
266.954970153588
 31
0.0
 11
186.1051244996
 21
266.9338682213834
 31
0.0
 11
186.0593605890125
 21
266.9210886031104
 31
0.0
 11
186.0440554901
 21
266.9167981614
 31
0.0
  0
SPLINE
  5
104
330
1F
100
AcDbEntity
  8
VERERBUNG
  6
Continuous
 62
     7
100
AcDbSpline
210
0.0
220
0.0
230
1.0
 70
     8
 71
     3
 72
    13
 73
     9
 74
     7
 42
0.0000000001
 43
0.0000000001
 44
0.00000001
 40
0.0
 40
0.0
 40
0.0
 40
0.0
 40
0.9581451161110673
 40
1.916374757504066
 40
2.729668920754942
 40
3.542928077666294
 40
4.281951737024861
 40
5.020980281044866
 40
5.020980281044866
 40
5.020980281044866
 40
5.020980281044866
 10
117.050150933
 20
334.0174412415
 30
0.0
 10
116.7307567666946
 20
334.0202847792102
 30
0.0
 10
116.0919402578904
 20
334.0259721054807
 30
0.0
 10
115.1828761366891
 20
334.0695798241663
 30
0.0
 10
114.3235580294593
 20
334.1331362103268
 30
0.0
 10
113.5389194865372
 20
334.2121332263011
 30
0.0
 10
112.7807879590271
 20
334.3055442868056
 30
0.0
 10
112.293697144921
 20
334.3797134548306
 30
0.0
 10
112.050150933
 20
334.4167981614
 30
0.0
 11
117.050150933
 21
334.0174412415
 31
0.0
 11
116.0921195412161
 21
334.032203215762
 31
0.0
 11
115.1349078293042
 21
334.0763595768304
 31
0.0
 11
114.3238564989839
 21
334.1367179694839
 31
0.0
 11
113.5146447508983
 21
334.2177537829263
 31
0.0
 11
112.7812785124013
 21
334.3090222294158
 31
0.0
 11
112.050150933
 21
334.4167981614
 31
0.0
  0
SPLINE
  5
105
330
1F
100
AcDbEntity
  8
BOHRUNGEN
  6
Continuous
 62
     7
100
AcDbSpline
210
0.0
220
0.0
230
1.0
 70
     8
 71
     3
 72
    23
 73
    19
 74
    17
 42
0.0000000001
 43
0.0000000001
 44
0.00000001
 40
0.0
 40
0.0
 40
0.0
 40
0.0
 40
0.3416831051318818
 40
0.6833772250676975
 40
1.646296080768773
 40
2.609271875598425
 40
4.038026648854216
 40
5.46687031680653
 40
7.14849101254031
 40
8.830152491676525
 40
10.51052877600103
 40
12.19086778535034
 40
13.62101078186277
 40
15.05106998661858
 40
16.0213048755258
 40
16.99148662073469
 40
17.33796885343977
 40
17.6844402860386
 40
17.6844402860386
 40
17.6844402860386
 40
17.6844402860386
 10
187.2948174204
 20
266.9167981614
 30
0.0
 10
187.4055065508691
 20
266.9436314093037
 30
0.0
 10
187.6268883800818
 20
266.9972987701317
 30
0.0
 10
188.1615632246679
 20
267.1208867048232
 30
0.0
 10
188.900684256043
 20
267.2794860869188
 30
0.0
 10
189.9996721134825
 20
267.4865440243918
 30
0.0
 10
191.2583715707235
 20
267.682496359433
 30
0.0
 10
192.7617874286811
 20
267.8565316013126
 30
0.0
 10
194.3557222728145
 20
267.9704242230656
 30
0.0
 10
196.0371273163514
 20
268.0098881125323
 30
0.0
 10
197.7180406092452
 20
267.9680625949165
 30
0.0
 10
199.3114311950628
 20
267.852786613237
 30
0.0
 10
200.8152703114366
 20
267.6787289553785
 30
0.0
 10
202.0774083992041
 20
267.4836273786467
 30
0.0
 10
203.1820074750561
 20
267.2779043540487
 30
0.0
 10
203.9278789088332
 20
267.1201233624596
 30
0.0
 10
204.4684514285921
 20
266.9971427276666
 30
0.0
 10
204.6931412739735
 20
266.9435794052165
 30
0.0
 10
204.8054844457
 20
266.9167981614
 30
0.0
 11
187.2948174204
 21
266.9167981614
 31
0.0
 11
187.6270252093985
 21
266.996706416676
 31
0.0
 11
187.9599105516454
 21
267.0737922163793
 31
0.0
 11
188.9014606565695
 21
267.2755250163453
 31
0.0
 11
189.8478001494821
 21
267.4537494411074
 31
0.0
 11
191.2595944646865
 21
267.6732420689053
 31
0.0
 11
192.6789913886178
 21
267.8372743821297
 31
0.0
 11
194.3563432810195
 21
267.9570190829589
 31
0.0
 11
196.037545006455
 21
267.9963394187065
 31
0.0
 11
197.7174081499475
 21
267.9548150155703
 31
0.0
 11
199.3933846209348
 21
267.8338106559883
 31
0.0
 11
200.8140822299265
 21
267.6697152743382
 31
0.0
 11
202.2274097670289
 21
267.4515992456405
 31
0.0
 11
203.1812592545317
 21
267.2740411006755
 31
0.0
 11
204.130499422769
 21
267.0735523934089
 31
0.0
 11
204.4683193368448
 21
266.9965612040813
 31
0.0
 11
204.8054844457
 21
266.9167981614
 31
0.0
  0
SPLINE
  5
106
330
1F
100
AcDbEntity
  8
BOHRUNGEN
  6
Continuous
 62
     7
100
AcDbSpline
210
0.0
220
0.0
230
1.0
 70
     8
 71
     3
 72
    23
 73
    19
 74
    17
 42
0.0000000001
 43
0.0000000001
 44
0.00000001
 40
0.0
 40
0.0
 40
0.0
 40
0.0
 40
0.341683105047185
 40
0.6833772249736141
 40
1.64629608070123
 40
2.609271875559259
 40
4.038026648810192
 40
5.466870316730685
 40
7.148491012447172
 40
8.830152491595946
 40
10.51052877595534
 40
12.19086778533839
 40
13.62101078186276
 40
15.05106998662025
 40
16.02130487552745
 40
16.99148662073634
 40
17.33796885342927
 40
17.68444028594295
 40
17.68444028594295
 40
17.68444028594295
 40
17.68444028594295
 10
163.2801883573
 20
266.9167981614
 30
0.0
 10
163.3908774877398
 20
266.9436314093051
 30
0.0
 10
163.6122593169182
 20
266.9972987701419
 30
0.0
 10
164.1469341614832
 20
267.1208867048243
 30
0.0
 10
164.8860551928739
 20
267.2794860869195
 30
0.0
 10
165.9850430503313
 20
267.4865440243876
 30
0.0
 10
167.2437425075689
 20
267.6824963594315
 30
0.0
 10
168.7471583655081
 20
267.8565316013139
 30
0.0
 10
170.3410932096295
 20
267.9704242230663
 30
0.0
 10
172.0224982531763
 20
268.0098881125322
 30
0.0
 10
173.7034115460973
 20
267.9680625949165
 30
0.0
 10
175.2968021319418
 20
267.8527866132378
 30
0.0
 10
176.8006412483315
 20
267.6787289553794
 30
0.0
 10
178.0627793361035
 20
267.4836273786465
 30
0.0
 10
179.1673784119563
 20
267.2779043540494
 30
0.0
 10
179.9132498457288
 20
267.1201233624589
 30
0.0
 10
180.4538223654569
 20
266.9971427276764
 30
0.0
 10
180.6785122108031
 20
266.9435794052179
 30
0.0
 10
180.7908553825
 20
266.9167981614
 30
0.0
 11
163.2801883573
 21
266.9167981614
 31
0.0
 11
163.6123961462114
 21
266.996706416676
 31
0.0
 11
163.9452814884487
 21
267.0737922163793
 31
0.0
 11
164.8868315933999
 21
267.2755250163453
 31
0.0
 11
165.8331710863413
 21
267.4537494411074
 31
0.0
 11
167.2449654015409
 21
267.6732420689053
 31
0.0
 11
168.6643623254402
 21
267.8372743821297
 31
0.0
 11
170.3417142178245
 21
267.9570190829589
 31
0.0
 11
172.0229159432726
 21
267.9963394187065
 31
0.0
 11
173.7027790867999
 21
267.9548150155703
 31
0.0
 11
175.3787555578211
 21
267.8338106559883
 31
0.0
 11
176.7994531668248
 21
267.6697152743382
 31
0.0
 11
178.2127807039289
 21
267.4515992456405
 31
0.0
 11
179.1666301914317
 21
267.2740411006755
 31
0.0
 11
180.115870359669
 21
267.0735523934089
 31
0.0
 11
180.4536902737324
 21
266.9965612040813
 31
0.0
 11
180.7908553825
 21
266.9167981614
 31
0.0
  0
SPLINE
  5
107
330
1F
100
AcDbEntity
  8
VERERBUNG
  6
Continuous
 62
     7
100
AcDbSpline
210
0.0
220
0.0
230
1.0
 70
     8
 71
     3
 72
    23
 73
    19
 74
    17
 42
0.0000000001
 43
0.0000000001
 44
0.00000001
 40
0.0
 40
0.0
 40
0.0
 40
0.0
 40
0.0621269684789694
 40
0.1242824031031411
 40
0.181313530273923
 40
0.2383411403624987
 40
0.2903938962545332
 40
0.3423956884179568
 40
0.3914747074769055
 40
0.4404962286933504
 40
0.490585573377026
 40
0.5407628275053333
 40
0.5956736073681543
 40
0.6506193812400812
 40
0.7116314425169822
 40
0.7726461252618628
 40
0.8391602986370101
 40
0.9056490031137389
 40
0.9056490031137389
 40
0.9056490031137389
 40
0.9056490031137389
 10
78.62685261
 20
293.7690084811
 30
0.0
 10
78.60804571325558
 20
293.7603192279854
 30
0.0
 10
78.5704233025773
 20
293.7429367404008
 30
0.0
 10
78.51337737802173
 20
293.7226953603184
 30
0.0
 10
78.4565110212146
 20
293.7076877939546
 30
0.0
 10
78.40162018363374
 20
293.6994305690959
 30
0.0
 10
78.34778772997672
 20
293.6981518583713
 30
0.0
 10
78.29690589591652
 20
293.7046568842289
 30
0.0
 10
78.2489483112403
 20
293.7198186177785
 30
0.0
 10
78.20506471675304
 20
293.7431805301669
 30
0.0
 10
78.16656242282613
 20
293.7752179178071
 30
0.0
 10
78.13317481144782
 20
293.8150391805377
 30
0.0
 10
78.10608370226353
 20
293.8612642499945
 30
0.0
 10
78.08445402515721
 20
293.9141032758511
 30
0.0
 10
78.0684797123865
 20
293.9710181059463
 30
0.0
 10
78.05758388496658
 20
294.0329815770855
 30
0.0
 10
78.05119682554894
 20
294.0974194908422
 30
0.0
 10
78.05049951934029
 20
294.1417626871267
 30
0.0
 10
78.050150933
 20
294.1639300396
 30
0.0
 11
78.62685261
 21
293.7690084811
 31
0.0
 11
78.57006207756834
 21
293.743817299339
 31
0.0
 11
78.51150304820865
 21
293.7229813176302
 31
0.0
 11
78.45628933556625
 21
293.7086986217147
 31
0.0
 11
78.39986455695967
 21
293.7004286355229
 31
0.0
 11
78.34782073479076
 21
293.6994642859979
 31
0.0
 11
78.29627642036513
 21
293.7063468755251
 31
0.0
 11
78.2495037265841
 21
293.7212151379742
 31
0.0
 11
78.20630775889808
 21
293.7443930998786
 31
0.0
 11
78.16765477179364
 21
293.7762504230358
 31
0.0
 11
78.13529234197745
 21
293.8145966088729
 31
0.0
 11
78.1072615172586
 21
293.8618138367746
 31
0.0
 11
78.08616760889016
 21
293.9125492789835
 31
0.0
 11
78.06947058411012
 21
293.9712321639224
 31
0.0
 11
78.05862770814922
 21
294.0312756777382
 31
0.0
 11
78.05211662695976
 21
294.0974703986873
 31
0.0
 11
78.050150933
 21
294.1639300396
 31
0.0
  0
SPLINE
  5
108
330
1F
100
AcDbEntity
  8
VERERBUNG
  6
Continuous
 62
     7
100
AcDbSpline
210
0.0
220
0.0
230
1.0
 70
     8
 71
     3
 72
     9
 73
     5
 74
     3
 42
0.0000000001
 43
0.0000000001
 44
0.00000001
 40
0.0
 40
0.0
 40
0.0
 40
0.0
 40
0.0773963057094064
 40
0.1547963631991662
 40
0.1547963631991662
 40
0.1547963631991662
 40
0.1547963631991662
 10
78.7218257435
 20
293.6467981614
 30
0.0
 10
78.70548801314916
 20
293.6667702947506
 30
0.0
 10
78.67281176047715
 20
293.7067155295994
 30
0.0
 10
78.64217257435844
 20
293.7482438284277
 30
0.0
 10
78.62685261
 20
293.7690084811
 30
0.0
 11
78.7218257435
 21
293.6467981614
 31
0.0
 11
78.67332179440001
 21
293.7071103082625
 31
0.0
 11
78.62685261
 21
293.7690084811
 31
0.0
  0
SPLINE
  5
109
330
1F
100
AcDbEntity
  8
0
  6
Continuous
 62
     7
100
AcDbSpline
210
0.0
220
0.0
230
1.0
 70
     8
 71
     3
 72
    17
 73
    13
 74
    11
 42
0.0000000001
 43
0.0000000001
 44
0.00000001
 40
0.0
 40
0.0
 40
0.0
 40
0.0
 40
0.068027795071593
 40
0.1360632351795945
 40
0.2040812641422143
 40
0.2721696697760374
 40
0.3403702855973863
 40
0.4083585486089825
 40
0.4424627524613673
 40
0.4765773021890809
 40
0.5107086427498401
 40
0.5447868109986534
 40
0.5447868109986534
 40
0.5447868109986534
 40
0.5447868109986534
 10
126.7592640425
 20
310.9342981614
 30
0.0
 10
126.7716726650254
 20
310.9153127945367
 30
0.0
 10
126.7964913045704
 20
310.8773399272142
 30
0.0
 10
126.8374328494011
 20
310.8229473959789
 30
0.0
 10
126.8816513860608
 20
310.7711524734932
 30
0.0
 10
126.9302314850611
 20
310.7232780700291
 30
0.0
 10
126.983564286238
 20
310.680697604913
 30
0.0
 10
127.0327193704561
 20
310.6517573726977
 30
0.0
 10
127.0746846082262
 20
310.6342382258278
 30
0.0
 10
127.1074090098851
 20
310.624420254797
 30
0.0
 10
127.1410364743453
 20
310.6180392265551
 30
0.0
 10
127.1637853580336
 20
310.617211634737
 30
0.0
 10
127.175150933
 20
310.6167981614
 30
0.0
 11
126.7592640425
 21
310.9342981614
 31
0.0
 11
126.7971092257383
 21
310.8777692041484
 31
0.0
 11
126.8379804559233
 21
310.8233783625125
 31
0.0
 11
126.8823558410206
 21
310.771829575316
 31
0.0
 11
126.9309974004272
 21
310.7241847468428
 31
0.0
 11
126.9845613213153
 21
310.6819682763899
 31
0.0
 11
127.0433805878499
 21
310.647869921713
 31
0.0
 11
127.0748797255819
 21
310.6347970091628
 31
0.0
 11
127.1075555309148
 21
310.6249942417487
 31
0.0
 11
127.1411372584957
 21
310.6188937515096
 31
0.0
 11
127.175150933
 21
310.6167981614
 31
0.0
  0
SPLINE
  5
10A
330
1F
100
AcDbEntity
  8
0
  6
Continuous
 62
     7
100
AcDbSpline
210
0.0
220
0.0
230
1.0
 70
     8
 71
     3
 72
    17
 73
    13
 74
    11
 42
0.0000000001
 43
0.0000000001
 44
0.00000001
 40
0.0
 40
0.0
 40
0.0
 40
0.0
 40
0.034079097000412
 40
0.068209742075506
 40
0.1023154065611258
 40
0.1364128754735034
 40
0.204399283860025
 40
0.2725935679275321
 40
0.340680350651968
 40
0.4086986202364848
 40
0.4767464406279203
 40
0.5447862542062275
 40
0.5447862542062275
 40
0.5447862542062275
 40
0.5447862542062275
 10
127.175150933
 20
295.2167981614
 30
0.0
 10
127.1637850426033
 20
295.2163868937191
 30
0.0
 10
127.1410360697533
 20
295.2155637362734
 30
0.0
 10
127.1074087059853
 20
295.2091958521587
 30
0.0
 10
127.0746922315211
 20
295.1993678227153
 30
0.0
 10
127.0327412653678
 20
295.1818305884929
 30
0.0
 10
126.9835914255463
 20
295.1528947401432
 30
0.0
 10
126.9302501905177
 20
295.1103298412899
 30
0.0
 10
126.8816662591727
 20
295.062462562248
 30
0.0
 10
126.8374433550425
 20
295.010666450811
 30
0.0
 10
126.7964973626468
 20
294.9562669327377
 30
0.0
 10
126.7716746623952
 20
294.9182870069872
 30
0.0
 10
126.7592640425
 20
294.8992981614
 30
0.0
 11
127.175150933
 21
295.2167981614
 31
0.0
 11
127.1411358628677
 21
295.2147101345184
 31
0.0
 11
127.107553459846
 21
295.2086172583069
 31
0.0
 11
127.07488863993
 21
295.1988087981903
 31
0.0
 11
127.0434010253945
 21
295.1857256977513
 31
0.0
 11
126.9845851585922
 21
295.1516251766762
 31
0.0
 11
126.9310181185103
 21
295.1094228947906
 31
0.0
 11
126.8823717418014
 21
295.0617853044353
 31
0.0
 11
126.8379939579661
 21
295.0102382647614
 31
0.0
 11
126.7971153404757
 21
294.9558374881852
 31
0.0
 11
126.7592640425
 21
294.8992981614
 31
0.0
  0
SPLINE
  5
10B
330
1F
100
AcDbEntity
  8
0
  6
Continuous
 62
     7
100
AcDbSpline
210
0.0
220
0.0
230
1.0
 70
     8
 71
     3
 72
    17
 73
    13
 74
    11
 42
0.0000000001
 43
0.0000000001
 44
0.00000001
 40
0.0
 40
0.0
 40
0.0
 40
0.0
 40
0.0340781916347845
 40
0.0682095735666484
 40
0.1023243844782081
 40
0.1364288245450868
 40
0.204417180115459
 40
0.2726179463693265
 40
0.3407061060481964
 40
0.4087238602408054
 40
0.4767591626679478
 40
0.544786828147388
 40
0.544786828147388
 40
0.544786828147388
 40
0.544786828147388
 10
128.925150933
 20
310.6167981614
 30
0.0
 10
128.9365165156985
 20
310.6172116584434
 30
0.0
 10
128.959265420849
 20
310.618039297929
 30
0.0
 10
128.992892963711
 20
310.6244204762716
 30
0.0
 10
129.0256175677446
 20
310.6342383726092
 30
0.0
 10
129.0675830738786
 20
310.6517574017362
 30
0.0
 10
129.1167382582051
 20
310.6806978226328
 30
0.0
 10
129.1700708667768
 20
310.7232785196386
 30
0.0
 10
129.2186508195219
 20
310.7711528856193
 30
0.0
 10
129.2628692275802
 20
310.8229476295169
 30
0.0
 10
129.3038106440889
 20
310.8773400316059
 30
0.0
 10
129.3286292281025
 20
310.9153128285816
 30
0.0
 10
129.3410378236
 20
310.9342981614
 30
0.0
 11
128.925150933
 21
310.6167981614
 31
0.0
 11
128.9591646259212
 21
310.6188938328817
 31
0.0
 11
128.9927463805561
 21
310.6249944056599
 31
0.0
 11
129.0254224626109
 21
310.6347971596135
 31
0.0
 11
129.0569218670464
 21
310.647870045771
 31
0.0
 11
129.1157411813351
 21
310.6819685026242
 31
0.0
 11
129.1693050730545
 21
310.7241852531088
 31
0.0
 11
129.2179463858873
 21
310.7718299818242
 31
0.0
 11
129.2623215885106
 21
310.8233785635462
 31
0.0
 11
129.3031927241568
 21
310.8777693040021
 31
0.0
 11
129.3410378236
 21
310.9342981614
 31
0.0
  0
SPLINE
  5
10C
330
1F
100
AcDbEntity
  8
0
  6
Continuous
 62
     7
100
AcDbSpline
210
0.0
220
0.0
230
1.0
 70
     8
 71
     3
 72
    17
 73
    13
 74
    11
 42
0.0000000001
 43
0.0000000001
 44
0.00000001
 40
0.0
 40
0.0
 40
0.0
 40
0.0
 40
0.0680405843662004
 40
0.1360892263780065
 40
0.2041088007136889
 40
0.2721966988815147
 40
0.3403905142722755
 40
0.4083768375996815
 40
0.4424735706780505
 40
0.4765783279024425
 40
0.5107080465674004
 40
0.544786343377564
 40
0.544786343377564
 40
0.544786343377564
 40
0.544786343377564
 10
129.3410378236
 20
294.8992981614
 30
0.0
 10
129.3286270513906
 20
294.9182872147272
 30
0.0
 10
129.3038040372373
 20
294.9562675701436
 30
0.0
 10
129.2628574458781
 20
295.0106678413887
 30
0.0
 10
129.2186340421428
 20
295.0624649453939
 30
0.0
 10
129.1700493804402
 20
295.1103324746674
 30
0.0
 10
129.1167068061612
 20
295.1528960542038
 30
0.0
 10
129.0675570857068
 20
295.181830986896
 30
0.0
 10
129.0256071852326
 20
295.1993691918182
 30
0.0
 10
128.9928916770063
 20
295.2091976484517
 30
0.0
 10
128.9592649538991
 20
295.2155642882846
 30
0.0
 10
128.9365165566462
 20
295.2163870771276
 30
0.0
 10
128.925150933
 20
295.2167981614
 30
0.0
 11
129.3410378236
 21
294.8992981614
 31
0.0
 11
129.3031860647954
 21
294.9558381072462
 31
0.0
 11
129.2623069719701
 21
295.0102395543724
 31
0.0
 11
129.2179284255711
 21
295.0617876592098
 31
0.0
 11
129.1692808993696
 21
295.1094256699931
 31
0.0
 11
129.1157133298317
 21
295.1516265224886
 31
0.0
 11
129.0568973272089
 21
295.1857266397179
 31
0.0
 11
129.025410685136
 21
295.1988101628517
 31
0.0
 11
128.9927468594108
 21
295.2086187791825
 31
0.0
 11
128.9591652420486
 21
295.2147107962123
 31
0.0
 11
128.925150933
 21
295.2167981614
 31
0.0
  0
SPLINE
  5
10D
330
1F
100
AcDbEntity
  8
VERERBUNG
  6
Continuous
 62
     7
100
AcDbSpline
210
0.0
220
0.0
230
1.0
 70
     8
 71
     3
 72
    15
 73
    11
 74
     9
 42
0.0000000001
 43
0.0000000001
 44
0.00000001
 40
0.0
 40
0.0
 40
0.0
 40
0.0
 40
0.0705890228645067
 40
0.141317842181253
 40
0.2119756690578571
 40
0.2826066759038662
 40
0.3532320942734181
 40
0.4238693692695327
 40
0.4944866364692614
 40
0.5650782701186248
 40
0.5650782701186248
 40
0.5650782701186248
 40
0.5650782701186248
 10
79.1901078687
 20
293.35477023
 30
0.0
 10
79.16684279938248
 20
293.3585122704132
 30
0.0
 10
79.12026658596105
 20
293.3660037620799
 30
0.0
 10
79.05303257354086
 20
293.3886675668628
 30
0.0
 10
78.98884694634769
 20
293.4184956547493
 30
0.0
 10
78.92827031598843
 20
293.4550799119654
 30
0.0
 10
78.8713147232343
 20
293.4969964194607
 30
0.0
 10
78.81801733407997
 20
293.5434276673837
 30
0.0
 10
78.76791713510826
 20
293.5932924981662
 30
0.0
 10
78.73718768127085
 20
293.6289650988626
 30
0.0
 10
78.7218257435
 20
293.6467981614
 30
0.0
 11
79.1901078687
 21
293.35477023
 31
0.0
 11
79.12075012073589
 21
293.3678970325929
 31
0.0
 11
79.05352100261094
 21
293.3898700059484
 31
0.0
 11
78.98943538905797
 21
293.4196284103825
 31
0.0
 11
78.92887126752888
 21
293.45597020879
 31
0.0
 11
78.87192693352108
 21
293.4977469073705
 31
0.0
 11
78.81854398983819
 21
293.5440058085964
 31
0.0
 11
78.76857769080517
 21
293.5939073856025
 31
0.0
 11
78.7218257435
 21
293.6467981614
 31
0.0
  0
SPLINE
  5
10E
330
1F
100
AcDbEntity
  8
VERERBUNG
  6
Continuous
 62
     7
100
AcDbSpline
210
0.0
220
0.0
230
1.0
 70
     8
 71
     3
 72
    13
 73
     9
 74
     7
 42
0.0000000001
 43
0.0000000001
 44
0.00000001
 40
0.0
 40
0.0
 40
0.0
 40
0.0
 40
0.4765182419162481
 40
0.9529821706214356
 40
1.193158829986338
 40
1.43331079591552
 40
1.675484054956567
 40
1.91749373171434
 40
1.91749373171434
 40
1.91749373171434
 40
1.91749373171434
 10
83.5375579708
 20
312.1867981614
 30
0.0
 10
83.60937858345748
 20
312.0449999985573
 30
0.0
 10
83.75301162271
 20
311.761419834926
 30
0.0
 10
83.88743571659435
 20
311.3858058782965
 30
0.0
 10
83.96903041788553
 20
311.07732941918
 30
0.0
 10
84.01443576324706
 20
310.8406559765282
 30
0.0
 10
84.04431150107567
 20
310.600709525947
 30
0.0
 10
84.04820489415573
 20
310.4392755816431
 30
0.0
 10
84.050150933
 20
310.3585858799
 30
0.0
 11
83.5375579708
 21
312.1867981614
 31
0.0
 11
83.74395182136833
 21
311.7572970399503
 31
0.0
 11
83.90538200779363
 21
311.3090134575297
 31
0.0
 11
83.96633822733662
 21
311.0767008082772
 31
0.0
 11
84.01172610108537
 21
310.8408769170867
 31
0.0
 11
84.0402962577788
 21
310.60039483139
 31
0.0
 11
84.050150933
 21
310.3585858799
 31
0.0
  0
SPLINE
  5
10F
330
1F
100
AcDbEntity
  8
VERERBUNG
  6
Continuous
 62
     7
100
AcDbSpline
210
0.0
220
0.0
230
1.0
 70
     8
 71
     3
 72
    19
 73
    15
 74
    13
 42
0.0000000001
 43
0.0000000001
 44
0.00000001
 40
0.0
 40
0.0
 40
0.0
 40
0.0
 40
0.0835832283125032
 40
0.1672705448919804
 40
0.2499538624528391
 40
0.3326148850766415
 40
0.41384756393224
 40
0.4950848398161944
 40
0.5749375740593868
 40
0.6547985888497885
 40
0.8114954797358896
 40
0.9684466433847595
 40
1.123543258653417
 40
1.278502018144041
 40
1.278502018144041
 40
1.278502018144041
 40
1.278502018144041
 10
82.550150933
 20
312.8731110433
 30
0.0
 10
82.57794957359259
 20
312.8753839239881
 30
0.0
 10
82.63358147311429
 20
312.8799325158391
 30
0.0
 10
82.71701287663772
 20
312.8745663878026
 30
0.0
 10
82.79892195004001
 20
312.8602622043811
 30
0.0
 10
82.87795842291655
 20
312.8370724131925
 30
0.0
 10
82.95365943093142
 20
312.8059677062098
 30
0.0
 10
83.0251890687662
 20
312.7681970571992
 30
0.0
 10
83.09273091092551
 20
312.7245617728208
 30
0.0
 10
83.17660035474832
 20
312.6604662860353
 30
0.0
 10
83.27218828479414
 20
312.5700430876839
 30
0.0
 10
83.37256256370085
 20
312.4499967474902
 30
0.0
 10
83.4616068749298
 20
312.3219980397034
 30
0.0
 10
83.51224844420466
 20
312.2318514272732
 30
0.0
 10
83.5375579708
 20
312.1867981614
 30
0.0
 11
82.550150933
 21
312.8731110433
 31
0.0
 11
82.6335970097342
 21
312.8778973083166
 31
0.0
 11
82.71714269863732
 21
312.8730306028625
 31
0.0
 11
82.79858297276418
 21
312.8587472995677
 31
0.0
 11
82.87792780754042
 21
312.835568821284
 31
0.0
 11
82.95310421501969
 21
312.8047912990874
 31
0.0
 11
83.02498857862555
 21
312.7669477624922
 31
0.0
 11
83.09211980857064
 21
312.7237059178025
 31
0.0
 11
83.15563656264894
 21
312.6752972033524
 31
0.0
 11
83.26987368214948
 21
312.5680414522637
 31
0.0
 11
83.37110740285696
 21
312.4481022945109
 31
0.0
 11
83.45951207382977
 21
312.3206677065139
 31
0.0
 11
83.5375579708
 21
312.1867981614
 31
0.0
  0
SPLINE
  5
110
330
1F
100
AcDbEntity
  8
VERERBUNG
  6
Continuous
 62
     7
100
AcDbSpline
210
0.0
220
0.0
230
1.0
 70
     8
 71
     3
 72
    15
 73
    11
 74
     9
 42
0.0000000001
 43
0.0000000001
 44
0.00000001
 40
0.0
 40
0.0
 40
0.0
 40
0.0
 40
0.0705917490694332
 40
0.141209131078892
 40
0.2118461807340468
 40
0.2824713748307077
 40
0.3531025103982271
 40
0.4237604657828279
 40
0.4944892662598634
 40
0.5650782700244235
 40
0.5650782700244235
 40
0.5650782700244235
 40
0.5650782700244235
 10
78.7218257435
 20
312.1867981614
 30
0.0
 10
78.73718770577118
 20
312.2046312536165
 30
0.0
 10
78.76791720847618
 20
312.2403039135173
 30
0.0
 10
78.81801741076538
 20
312.2901687439012
 30
0.0
 10
78.87131472555922
 20
312.3365999070113
 30
0.0
 10
78.92827023185413
 20
312.3785163500142
 30
0.0
 10
78.98884686592318
 20
312.4151006228724
 30
0.0
 10
79.05303256419033
 20
312.4449287474631
 30
0.0
 10
79.12026660489872
 20
312.4675925625823
 30
0.0
 10
79.1668428057236
 20
312.4750840529457
 30
0.0
 10
79.1901078687
 20
312.4788260927
 30
0.0
 11
78.7218257435
 21
312.1867981614
 31
0.0
 11
78.76857776606687
 21
312.2396890247186
 31
0.0
 11
78.81854415039278
 21
312.2895906787921
 31
0.0
 11
78.87192693195232
 21
312.3358494230136
 31
0.0
 11
78.92887108417602
 21
312.3776259902339
 31
0.0
 11
78.98943531055183
 21
312.4139678640857
 31
0.0
 11
79.05352103943717
 21
312.4437263252752
 31
0.0
 11
79.12075013968982
 21
312.4656992926701
 31
0.0
 11
79.1901078687
 21
312.4788260927
 31
0.0
  0
SPLINE
  5
111
330
1F
100
AcDbEntity
  8
VERERBUNG
  6
Continuous
 62
     7
100
AcDbSpline
210
0.0
220
0.0
230
1.0
 70
     8
 71
     3
 72
    13
 73
     9
 74
     7
 42
0.0000000001
 43
0.0000000001
 44
0.00000001
 40
0.0
 40
0.0
 40
0.0
 40
0.0
 40
0.2420096760820781
 40
0.4841829345389371
 40
0.7243349034435909
 40
0.9645115657846349
 40
1.440975492108941
 40
1.917493731627552
 40
1.917493731627552
 40
1.917493731627552
 40
1.917493731627552
 10
84.050150933
 20
295.4750104428
 30
0.0
 10
84.0482048941616
 20
295.3943207412823
 30
0.0
 10
84.04431150109258
 20
295.2328867973988
 30
0.0
 10
84.01443576325784
 20
294.9929403462443
 30
0.0
 10
83.96903041757504
 20
294.7562669018268
 30
0.0
 10
83.88743571574858
 20
294.4477904416132
 30
0.0
 10
83.75301162168122
 20
294.072176485706
 30
0.0
 10
83.60937858311371
 20
293.7885963235183
 30
0.0
 10
83.5375579708
 20
293.6467981614
 30
0.0
 11
84.050150933
 21
295.4750104428
 31
0.0
 11
84.040296257819
 21
295.2332014919846
 31
0.0
 11
84.01172610126069
 21
294.9927194068601
 31
0.0
 11
83.9663382269612
 21
294.7568955127455
 31
0.0
 11
83.90538200648858
 21
294.5245828606601
 31
0.0
 11
83.7439518204511
 21
294.0762992806303
 31
0.0
 11
83.5375579708
 21
293.6467981614
 31
0.0
  0
SPLINE
  5
112
330
1F
100
AcDbEntity
  8
VERERBUNG
  6
Continuous
 62
     7
100
AcDbSpline
210
0.0
220
0.0
230
1.0
 70
     8
 71
     3
 72
    19
 73
    15
 74
    13
 42
0.0000000001
 43
0.0000000001
 44
0.00000001
 40
0.0
 40
0.0
 40
0.0
 40
0.0
 40
0.154959554776475
 40
0.3100569267308308
 40
0.4670093144200671
 40
0.6237075594541469
 40
0.703571682109875
 40
0.783427437227884
 40
0.8646682252108557
 40
0.9459045180832132
 40
1.028561641718344
 40
1.111240956110244
 40
1.194923428890815
 40
1.278501866486183
 40
1.278501866486183
 40
1.278501866486183
 40
1.278501866486183
 10
83.5375579708
 20
293.6467981614
 30
0.0
 10
83.51224832094536
 20
293.6017446605866
 30
0.0
 10
83.4616065114624
 20
293.5115975894955
 30
0.0
 10
83.3725615914203
 20
293.3835981648627
 30
0.0
 10
83.27218619196317
 20
293.2635512962479
 30
0.0
 10
83.176596744965
 20
293.1731269830491
 30
0.0
 10
83.09272545407542
 20
293.109029795856
 30
0.0
 10
83.02518058915416
 20
293.0653931925482
 30
0.0
 10
82.95364692948333
 20
293.0276228222313
 30
0.0
 10
82.87794395861557
 20
292.9965200885407
 30
0.0
 10
82.79890851874971
 20
292.973332058751
 30
0.0
 10
82.71700353173605
 20
292.9590292372388
 30
0.0
 10
82.63357665374946
 20
292.9536640408824
 30
0.0
 10
82.5779479730254
 20
292.9582124762597
 30
0.0
 10
82.550150933
 20
292.9604852794
 30
0.0
 11
83.5375579708
 21
293.6467981614
 31
0.0
 11
83.45951167641536
 21
293.512927927407
 31
0.0
 11
83.37110646011848
 21
293.3854927967771
 31
0.0
 11
83.26987164129127
 21
293.2655529641177
 31
0.0
 11
83.15563343653396
 21
293.1582963905635
 31
0.0
 11
83.09211423434287
 21
293.1098857611462
 31
0.0
 11
83.02498010281174
 21
293.0666428425464
 31
0.0
 11
82.95309173200873
 21
293.0287993784425
 31
0.0
 11
82.87791108884252
 21
292.9980226636607
 31
0.0
 11
82.79856956387975
 21
292.9748467601354
 31
0.0
 11
82.7171330995269
 21
292.9605649079438
 31
0.0
 11
82.63359221322584
 21
292.9556990507014
 31
0.0
 11
82.550150933
 21
292.9604852794
 31
0.0
  0
SPLINE
  5
113
330
1F
100
AcDbEntity
  8
VERERBUNG
  6
Continuous
 62
     7
100
AcDbSpline
210
0.0
220
0.0
230
1.0
 70
     8
 71
     3
 72
     9
 73
     5
 74
     3
 42
0.0000000001
 43
0.0000000001
 44
0.00000001
 40
0.0
 40
0.0
 40
0.0
 40
0.0
 40
0.0774000574998061
 40
0.1547963632773841
 40
0.1547963632773841
 40
0.1547963632773841
 40
0.1547963632773841
 10
78.62685261
 20
312.0645878416
 30
0.0
 10
78.64217257436152
 20
312.0853524942739
 30
0.0
 10
78.67281176049792
 20
312.1268807931211
 30
0.0
 10
78.70548801315198
 20
312.1668260280179
 30
0.0
 10
78.7218257435
 20
312.1867981614
 30
0.0
 11
78.62685261
 21
312.0645878416
 31
0.0
 11
78.67332179440001
 21
312.12648601445
 31
0.0
 11
78.7218257435
 21
312.1867981614
 31
0.0
  0
SPLINE
  5
114
330
1F
100
AcDbEntity
  8
VERERBUNG
  6
Continuous
 62
     7
100
AcDbSpline
210
0.0
220
0.0
230
1.0
 70
     8
 71
     3
 72
    43
 73
    39
 74
    37
 42
0.0000000001
 43
0.0000000001
 44
0.00000001
 40
0.0
 40
0.0
 40
0.0
 40
0.0
 40
0.4175881289726922
 40
0.8356316530958641
 40
1.253282832008265
 40
1.670787328070671
 40
2.088079154539565
 40
2.505458237120478
 40
2.922766757480322
 40
3.339867556044342
 40
3.548612845974961
 40
3.757291312422757
 40
3.966036487524747
 40
4.174848410685396
 40
4.592416990839829
 40
5.010187344131466
 40
5.428059866836112
 40
5.845880990776267
 40
6.263484877123402
 40
6.681103578730492
 40
7.097989619688111
 40
7.514858051202022
 40
7.930683045113935
 40
8.346557961737982
 40
8.761608457042492
 40
9.176458234586091
 40
9.38384686312339
 40
9.591169424601592
 40
9.798492920786355
 40
10.00588294522426
 40
10.42072923636147
 40
10.83577763644987
 40
11.25173036417895
 40
11.66760664529979
 40
12.08452417577359
 40
12.50157511609467
 40
12.91952009629822
 40
13.33702820997506
 40
13.33702820997506
 40
13.33702820997506
 40
13.33702820997506
 10
96.8007772228
 20
302.9167981614
 30
0.0
 10
96.80469810223066
 20
303.0560534399547
 30
0.0
 10
96.81254413695463
 20
303.3347158600463
 30
0.0
 10
96.87669573702446
 20
303.7485679188296
 30
0.0
 10
96.97810619361009
 20
304.1543352308775
 30
0.0
 10
97.11955348661543
 20
304.5479084641735
 30
0.0
 10
97.29893352700495
 20
304.9255166068205
 30
0.0
 10
97.51460082188153
 20
305.283601946457
 30
0.0
 10
97.76452092976191
 20
305.6185616319761
 30
0.0
 10
97.99919095474505
 20
305.8759791200415
 30
0.0
 10
98.20135934005745
 20
306.0671887007913
 30
0.0
 10
98.35994289614874
 20
306.2030300357065
 30
0.0
 10
98.52502438167296
 20
306.3309321686395
 30
0.0
 10
98.7532749233167
 20
306.4904515377564
 30
0.0
 10
99.05303405132483
 20
306.6685186613323
 30
0.0
 10
99.43188678457462
 20
306.8460603386822
 30
0.0
 10
99.82642929808003
 20
306.9856119733308
 30
0.0
 10
100.2326422001569
 20
307.0859911026571
 30
0.0
 10
100.6466383252449
 20
307.1461610356602
 30
0.0
 10
101.0642138693929
 20
307.1657446147059
 30
0.0
 10
101.4814571869599
 20
307.144436080776
 30
0.0
 10
101.8940580624981
 20
307.0827228274261
 30
0.0
 10
102.2983199257636
 20
306.9810533380169
 30
0.0
 10
102.690185240146
 20
306.840665974049
 30
0.0
 10
103.06609058782
 20
306.6626988010877
 30
0.0
 10
103.3632068980571
 20
306.4846769829455
 30
0.0
 10
103.5893498165868
 20
306.3253848541405
 30
0.0
 10
103.7528654585887
 20
306.1977517572357
 30
0.0
 10
103.9099298084996
 20
306.0622579789183
 30
0.0
 10
104.1102597744736
 20
305.8715171593617
 30
0.0
 10
104.3428206655714
 20
305.614836905574
 30
0.0
 10
104.5906400076913
 20
305.2807919974109
 30
0.0
 10
104.804539822776
 20
304.9236358484434
 30
0.0
 10
104.9826401948014
 20
304.5466967624755
 30
0.0
 10
105.1231946053476
 20
304.1537344863826
 30
0.0
 10
105.224044035854
 20
303.748269767879
 30
0.0
 10
105.2877287227568
 20
303.3346216405723
 30
0.0
 10
105.295594040736
 20
303.0560240940042
 30
0.0
 10
105.2995246433
 20
302.9167981614
 30
0.0
 11
96.8007772228
 21
302.9167981614
 31
0.0
 11
96.8212621757913
 21
303.3338835389426
 31
0.0
 11
96.88293387638979
 21
303.7473529929614
 31
0.0
 11
96.98480488188726
 21
304.152389788186
 31
0.0
 11
97.12590807166855
 21
304.5453273074762
 31
0.0
 11
97.30497244676337
 21
304.9222469514451
 31
0.0
 11
97.52032933926846
 21
305.2797755620857
 31
0.0
 11
97.76984505621272
 21
305.6142726594763
 31
0.0
 11
98.05087036641947
 21
305.9224898737683
 31
0.0
 11
98.20252425538813
 21
306.0659321758584
 31
0.0
 11
98.36100565933599
 21
306.2016905898213
 31
0.0
 11
98.52601940984266
 21
306.3295381954777
 31
0.0
 11
98.69717767855738
 21
306.4491511809961
 31
0.0
 11
99.05615334610633
 21
306.6624584458513
 31
0.0
 11
99.43445750171189
 21
306.8397097757221
 31
0.0
 11
99.82839989321954
 21
306.9790899658668
 31
0.0
 11
100.2340243052721
 21
307.0793063714979
 31
0.0
 11
100.6472818433273
 21
307.1393997416216
 31
0.0
 11
101.064443687908
 21
307.1589285756364
 31
0.0
 11
101.4807884008394
 21
307.1376906105872
 31
0.0
 11
101.8930645545768
 21
307.0759843527821
 31
0.0
 11
102.2963347467447
 21
306.9745763764156
 31
0.0
 11
102.6878289899441
 21
306.8342759707898
 31
0.0
 11
103.0629734471561
 21
306.6566990863829
 31
0.0
 11
103.4188060138838
 21
306.4434304239313
 31
0.0
 11
103.5883583762469
 21
306.3240066421134
 31
0.0
 11
103.7517900570331
 21
306.1964420301974
 31
0.0
 11
103.9087717833854
 21
306.0610176244881
 31
0.0
 11
104.0589662848618
 21
305.9180063173735
 31
0.0
 11
104.3375318708056
 21
305.6105999745664
 31
0.0
 11
104.5847868025286
 21
305.277238049394
 31
0.0
 11
104.7985366519448
 21
304.920408014812
 31
0.0
 11
104.9762269064997
 21
304.5444036868647
 31
0.0
 11
105.1165305682473
 21
304.1518032414796
 31
0.0
 11
105.2177832865234
 21
303.7472301654298
 31
0.0
 11
105.2790883729579
 21
303.3338058158147
 31
0.0
 11
105.2995246433
 21
302.9167981614
 31
0.0
  0
SPLINE
  5
115
330
1F
100
AcDbEntity
  8
VERERBUNG
  6
Continuous
 62
     7
100
AcDbSpline
210
0.0
220
0.0
230
1.0
 70
     8
 71
     3
 72
    43
 73
    39
 74
    37
 42
0.0000000001
 43
0.0000000001
 44
0.00000001
 40
0.0
 40
0.0
 40
0.0
 40
0.0
 40
0.417503510990625
 40
0.8354555648622638
 40
1.252511183724409
 40
1.669422664506002
 40
2.085295425827542
 40
2.501251326669458
 40
2.916298094160038
 40
3.331138757784601
 40
3.538526233005138
 40
3.745847790951216
 40
3.953170095096772
 40
4.16055834818957
 40
4.57540754443399
 40
4.990456744693026
 40
5.406332394492003
 40
5.8221588161246
 40
6.239027280561808
 40
6.655913113607636
 40
7.073532178599557
 40
7.491136194414096
 40
7.908956414522855
 40
8.32682866259467
 40
8.744600199995793
 40
9.16216934939904
 40
9.370981458444641
 40
9.57972670622691
 40
9.788406630792364
 40
9.99715392653682
 40
10.41425933414163
 40
10.83156890849087
 40
11.24894510861782
 40
11.6662401160852
 40
12.0837510263229
 40
12.50139861937563
 40
12.91943544784962
 40
13.33702799565812
 40
13.33702799565812
 40
13.33702799565812
 40
13.33702799565812
 10
105.2995246433
 20
302.9167981614
 30
0.0
 10
105.2956200638053
 20
302.7775719544794
 30
0.0
 10
105.2878067099498
 20
302.4989699636354
 30
0.0
 10
105.2240171154683
 20
302.0853326805168
 30
0.0
 10
105.1231804506536
 20
301.6798671643788
 30
0.0
 10
104.9826545738324
 20
301.2868949093444
 30
0.0
 10
104.8045425253786
 20
300.9099625911466
 30
0.0
 10
104.5906289946973
 20
300.5528164047108
 30
0.0
 10
104.342826851616
 20
300.218761543412
 30
0.0
 10
104.1102787812209
 20
299.9620730191055
 30
0.0
 10
103.9099462702582
 20
299.7713395157469
 30
0.0
 10
103.752877603496
 20
299.6358531855724
 30
0.0
 10
103.5893592274728
 20
299.5082250768799
 30
0.0
 10
103.3632149628938
 20
299.3489357053641
 30
0.0
 10
103.0661028852308
 20
299.1709089688979
 30
0.0
 10
102.6902023592495
 20
298.9929320351368
 30
0.0
 10
102.2983367509069
 20
298.8525437695271
 30
0.0
 10
101.8940735830457
 20
298.7508766381542
 30
0.0
 10
101.4814724795147
 20
298.6891627629598
 30
0.0
 10
101.0642292330943
 20
298.6678520637684
 30
0.0
 10
100.6466534707767
 20
298.6874331518539
 30
0.0
 10
100.2326572168764
 20
298.7476019475955
 30
0.0
 10
99.82644513937637
 20
298.847983179336
 30
0.0
 10
99.4319027101044
 20
298.9875342922016
 30
0.0
 10
99.05304567181156
 20
299.1650675128274
 30
0.0
 10
98.75328274071985
 20
299.3431300749191
 30
0.0
 10
98.52503314324501
 20
299.5026514003328
 30
0.0
 10
98.35995397875003
 20
299.6305575504906
 30
0.0
 10
98.20137430605507
 20
299.7664052566286
 30
0.0
 10
97.99920839689344
 20
299.9576211557931
 30
0.0
 10
97.76452749292623
 20
300.2150312419785
 30
0.0
 10
97.5145925312119
 20
300.549981964674
 30
0.0
 10
97.2989369765139
 20
300.9080757461537
 30
0.0
 10
97.11956651470486
 20
301.2856899548606
 30
0.0
 10
96.97809384843663
 20
301.6792548487784
 30
0.0
 10
96.87667352931484
 20
302.0850224771772
 30
0.0
 10
96.8126215595299
 20
302.4988850657298
 30
0.0
 10
96.80472393539499
 20
302.777543181074
 30
0.0
 10
96.8007772228
 20
302.9167981614
 30
0.0
 11
105.2995246433
 21
302.9167981614
 31
0.0
 11
105.2791362607877
 21
302.4997927710895
 31
0.0
 11
105.2177757180267
 21
302.0863694975216
 31
0.0
 11
105.11651785711
 21
301.6817928857074
 31
0.0
 11
104.9762349264678
 21
301.2891914565481
 31
0.0
 11
104.7985401615829
 21
300.913193153172
 31
0.0
 11
104.5847799638955
 21
300.5563656187385
 31
0.0
 11
104.3375366556493
 21
300.2229971053305
 31
0.0
 11
104.0589836779679
 21
299.9155869317492
 31
0.0
 11
103.908788112073
 21
299.7725804393656
 31
0.0
 11
103.7518029915894
 21
299.6371629355637
 31
0.0
 11
103.5883681160478
 21
299.5096028350113
 31
0.0
 11
103.4188148227897
 21
299.3901810268429
 31
0.0
 11
103.0629855691322
 21
299.176907967442
 31
0.0
 11
102.6878459839409
 21
298.9993238176478
 31
0.0
 11
102.2963516930231
 21
298.8590213719298
 31
0.0
 11
101.8930797468926
 21
298.7576145161855
 31
0.0
 11
101.4808036049685
 21
298.6959079570333
 31
0.0
 11
101.0644591992578
 21
298.6746680505431
 31
0.0
 11
100.6472968880352
 21
298.6941946872263
 31
0.0
 11
100.2340391074615
 21
298.7542872892645
 31
0.0
 11
99.82841586629559
 21
298.8545046657906
 31
0.0
 11
99.43447322252479
 21
298.9938833195632
 31
0.0
 11
99.05616478505715
 21
299.1711283014479
 31
0.0
 11
98.69718599828582
 21
299.3844314312457
 31
0.0
 11
98.52602845787872
 21
299.5040457834191
 31
0.0
 11
98.3610174386177
 21
299.6318970329011
 31
0.0
 11
98.20253912390089
 21
299.7676612943294
 31
0.0
 11
98.05088636239714
 21
299.9111077073515
 31
0.0
 11
97.76985035021471
 21
300.2193214009308
 31
0.0
 11
97.5203246833034
 21
300.553812390938
 31
0.0
 11
97.30497661660198
 21
300.9113429527091
 31
0.0
 11
97.12591571617241
 21
301.2882677690778
 31
0.0
 11
96.98479401333748
 21
301.6812054551763
 31
0.0
 11
96.88292962766789
 21
302.0862402177769
 31
0.0
 11
96.82131045502797
 21
302.4997107336831
 31
0.0
 11
96.8007772228
 21
302.9167981614
 31
0.0
  0
SPLINE
  5
116
330
1F
100
AcDbEntity
  8
VERERBUNG
  6
Continuous
 62
     7
100
AcDbSpline
210
0.0
220
0.0
230
1.0
 70
     8
 71
     3
 72
    23
 73
    19
 74
    17
 42
0.0000000001
 43
0.0000000001
 44
0.00000001
 40
0.0
 40
0.0
 40
0.0
 40
0.0
 40
0.0664886891193114
 40
0.1330028506457924
 40
0.1940175413998746
 40
0.2550295991378805
 40
0.3099753629280205
 40
0.3648861555240006
 40
0.4150633580713439
 40
0.4651526181629573
 40
0.5141740379142151
 40
0.5632529905409229
 40
0.6152549116082832
 40
0.667307769832368
 40
0.7243355356362727
 40
0.7813668340518279
 40
0.8435221576441516
 40
0.905649009839828
 40
0.905649009839828
 40
0.905649009839828
 40
0.905649009839828
 10
78.050150933
 20
311.6696662831
 30
0.0
 10
78.05049952036215
 20
311.6918336304543
 30
0.0
 10
78.05119682863338
 20
311.7361768176705
 30
0.0
 10
78.0575838878021
 20
311.8006147245451
 30
0.0
 10
78.0684796910996
 20
311.8625781969987
 30
0.0
 10
78.08445399867973
 20
311.9194930286127
 30
0.0
 10
78.10608372567242
 20
311.9723320353309
 30
0.0
 10
78.13317483480927
 20
312.0185570786384
 30
0.0
 10
78.16656231730559
 20
312.0583783878141
 30
0.0
 10
78.20506449094871
 20
312.0904158104464
 30
0.0
 10
78.24894805863416
 20
312.1137776116325
 30
0.0
 10
78.29690564752981
 20
312.1289392597176
 30
0.0
 10
78.3477875172153
 20
312.135444386517
 30
0.0
 10
78.40162010671159
 20
312.1341657951903
 30
0.0
 10
78.45651109101884
 20
312.1259085515973
 30
0.0
 10
78.51337750493434
 20
312.110900919619
 30
0.0
 10
78.57042340577354
 20
312.090659532476
 30
0.0
 10
78.60804574818424
 20
312.0732770778621
 30
0.0
 10
78.62685261
 20
312.0645878416
 30
0.0
 11
78.050150933
 21
311.6696662831
 31
0.0
 11
78.0521166293031
 21
311.7361259085793
 31
0.0
 11
78.05862770563193
 21
311.8023206181006
 31
0.0
 11
78.06947056674085
 21
311.8623641427372
 31
0.0
 11
78.08616759308758
 21
311.921047023551
 31
0.0
 11
78.10726153070343
 21
311.9717824426814
 31
0.0
 11
78.1352923571709
 21
312.018999684353
 31
0.0
 11
78.16765467920318
 21
312.0573458936592
 31
0.0
 11
78.2063075537695
 21
312.0892032203563
 31
0.0
 11
78.2495034569875
 21
312.112381087808
 31
0.0
 11
78.29627610260658
 21
312.1272492824774
 31
0.0
 11
78.34782053530103
 21
312.1341319602197
 31
0.0
 11
78.39986446157216
 21
312.1331677052841
 31
0.0
 11
78.45628939679632
 21
312.1248977138974
 31
0.0
 11
78.51150326640013
 21
312.1106149409756
 31
0.0
 11
78.5700621842391
 21
312.0897789770575
 31
0.0
 11
78.62685261
 21
312.0645878416
 31
0.0
  0
SPLINE
  5
117
330
1F
100
AcDbEntity
  8
RUNDUNGEN
  6
Continuous
 62
     7
100
AcDbSpline
210
0.0
220
0.0
230
1.0
 70
     8
 71
     3
 72
    11
 73
     7
 74
     5
 42
0.0000000001
 43
0.0000000001
 44
0.00000001
 40
0.0
 40
0.0
 40
0.0
 40
0.0
 40
0.5750005519080292
 40
1.15000186466239
 40
1.725003571444284
 40
2.300004020848424
 40
2.300004020848424
 40
2.300004020848424
 40
2.300004020848424
 10
136.0551634959
 20
302.9167958718
 30
0.0
 10
136.0550241339346
 20
302.725129011322
 30
0.0
 10
136.0547454098195
 20
302.3417950367506
 30
0.0
 10
136.0530477129272
 20
301.7667960735944
 30
0.0
 10
136.050829350516
 20
301.1917989176164
 30
0.0
 10
136.0503770720072
 20
300.8084649404302
 30
0.0
 10
136.050150933
 20
300.6167981614
 30
0.0
 11
136.0551634959
 21
302.9167958718
 31
0.0
 11
136.0545321419599
 21
302.3417956665072
 31
0.0
 11
136.0529609357178
 21
301.7667965004381
 31
0.0
 11
136.0510860068513
 21
301.1917978504885
 31
0.0
 11
136.050150933
 21
300.6167981614
 31
0.0
  0
SPLINE
  5
118
330
1F
100
AcDbEntity
  8
RUNDUNGEN
  6
Continuous
 62
     7
100
AcDbSpline
210
0.0
220
0.0
230
1.0
 70
     8
 71
     3
 72
    11
 73
     7
 74
     5
 42
0.0000000001
 43
0.0000000001
 44
0.00000001
 40
0.0
 40
0.0
 40
0.0
 40
0.0
 40
0.5750015942705591
 40
1.150004445849
 40
1.725006903409211
 40
2.300008600046217
 40
2.300008600046217
 40
2.300008600046217
 40
2.300008600046217
 10
136.050150933
 20
305.2167981614
 30
0.0
 10
136.0503770729078
 20
305.0251310007481
 30
0.0
 10
136.0508293532179
 20
304.6417962603418
 30
0.0
 10
136.0530477219754
 20
304.0667979595568
 30
0.0
 10
136.0547454181745
 20
303.4917978516119
 30
0.0
 10
136.0550241367197
 20
303.1084631138569
 30
0.0
 10
136.0551634959
 20
302.9167958718
 30
0.0
 11
136.050150933
 21
305.2167981614
 31
0.0
 11
136.0510860101606
 21
304.641797327449
 31
0.0
 11
136.0529609435928
 21
304.0667975327116
 31
0.0
 11
136.054532149038
 21
303.4917972218302
 31
0.0
 11
136.0551634959
 21
302.9167958718
 31
0.0
  0
SPLINE
  5
119
330
1F
100
AcDbEntity
  8
VERERBUNG
  6
Continuous
 62
     7
100
AcDbSpline
210
0.0
220
0.0
230
1.0
 70
     8
 71
     3
 72
    11
 73
     7
 74
     5
 42
0.0000000001
 43
0.0000000001
 44
0.00000001
 40
0.0
 40
0.0
 40
0.0
 40
0.0
 40
0.5427795452360604
 40
1.085508812848595
 40
1.337448492135654
 40
1.589025708897456
 40
1.589025708897456
 40
1.589025708897456
 40
1.589025708897456
 10
78.62685261
 20
293.7690084811
 30
0.0
 10
78.70458294748458
 20
293.9326288381016
 30
0.0
 10
78.86003642229916
 20
294.2598543959647
 30
0.0
 10
78.98395794441305
 20
294.6904672923403
 30
0.0
 10
79.04151230989643
 20
295.0351003183912
 30
0.0
 10
79.04727277421134
 20
295.2030180529786
 30
0.0
 10
79.050150933
 20
295.2869164815
 30
0.0
 11
78.62685261
 21
293.7690084811
 31
0.0
 11
78.84632348473755
 21
294.265437901933
 31
0.0
 11
78.99694752787914
 21
294.7868470076752
 31
0.0
 11
79.03603980618661
 21
295.0357353275619
 31
0.0
 11
79.050150933
 21
295.2869164815
 31
0.0
  0
SPLINE
  5
11A
330
1F
100
AcDbEntity
  8
VERERBUNG
  6
Continuous
 62
     7
100
AcDbSpline
210
0.0
220
0.0
230
1.0
 70
     8
 71
     3
 72
    11
 73
     7
 74
     5
 42
0.0000000001
 43
0.0000000001
 44
0.00000001
 40
0.0
 40
0.0
 40
0.0
 40
0.0
 40
0.4891002097433448
 40
0.9783817007602129
 40
1.283670603128886
 40
1.588797103076632
 40
1.588797103076632
 40
1.588797103076632
 40
1.588797103076632
 10
79.050150933
 20
310.5466798412
 30
0.0
 10
79.03938017537843
 20
310.7098330345318
 30
0.0
 10
79.01783466803585
 20
311.0361998926856
 30
0.0
 10
78.8943211380305
 20
311.4488187952059
 30
0.0
 10
78.76154073461564
 20
311.7905339995631
 30
0.0
 10
78.67174068770224
 20
311.9732527651702
 30
0.0
 10
78.62685261
 20
312.0645878416
 30
0.0
 11
79.050150933
 21
310.5466798412
 31
0.0
 11
78.99969702905369
 21
311.0331707648024
 31
0.0
 11
78.86922879543017
 21
311.5047366853977
 31
0.0
 11
78.75749477768954
 21
311.7888437482965
 31
0.0
 11
78.62685261
 21
312.0645878416
 31
0.0
  0
DIMENSION
  5
125
330
1F
100
AcDbEntity
  8
1
100
AcDbDimension
  2
*D2
 10
232.637842211643
 20
318.9167981614
 30
0.0
 11
228.887842211643
 21
302.307168558918
 31
0.0
 70
    32
  1
<>
 71
     5
 42
-1.0
 53
90.0
  3
ME10_DIM_10
100
AcDbAlignedDimension
 13
220.050150933
 23
286.9167981614
 33
0.0
 14
220.050150933
 24
318.9167981614
 34
0.0
 50
90.0
100
AcDbRotatedDimension
  0
DIMENSION
  5
130
330
1F
100
AcDbEntity
  8
1
100
AcDbDimension
  2
*D3
 10
243.024999651961
 20
338.9167981614
 30
0.0
 11
239.274999651961
 21
302.551572263397
 31
0.0
 70
    32
  1
<>
 71
     5
 42
-1.0
 53
90.0
  3
ME10_DIM_11
100
AcDbAlignedDimension
 13
211.6359373707
 23
266.9167981614
 33
0.0
 14
211.6359373707
 24
338.9167981614
 34
0.0
 50
90.0
100
AcDbRotatedDimension
  0
DIMENSION
  5
13B
330
1F
100
AcDbEntity
  8
1
100
AcDbDimension
  2
*D4
 10
220.050150933
 20
350.210294636621
 30
0.0
 11
180.335449453335
 21
353.960294636621
 31
0.0
 70
    32
  1
<>
 71
     5
 42
-1.0
 53
0.00013888888889
  3
ME10_DIM_12
100
AcDbAlignedDimension
 13
136.050150933
 23
334.4167723475
 33
0.0
 14
220.050150933
 24
330.502584599
 34
0.0
100
AcDbRotatedDimension
  0
DIMENSION
  5
146
330
1F
100
AcDbEntity
  8
1
100
AcDbDimension
  2
*D5
 10
220.050150933
 20
358.520020588876
 30
0.0
 11
168.23746608167
 21
362.270020588876
 31
0.0
 70
    32
  1
<>
 71
     5
 42
-1.0
 53
0.00013888888889
  3
ME10_DIM_13
100
AcDbAlignedDimension
 13
110.050150933
 23
334.4167981614
 33
0.0
 14
220.050150933
 24
330.502584599
 34
0.0
100
AcDbRotatedDimension
  0
DIMENSION
  5
151
330
1F
100
AcDbEntity
  8
1
100
AcDbDimension
  2
*D6
 10
220.050150933
 20
366.463140984413
 30
0.0
 11
157.117097527917
 21
370.213140984413
 31
0.0
 70
    32
  1
<>
 71
     5
 42
-1.0
 53
0.00013888888889
  3
ME10_DIM_14
100
AcDbAlignedDimension
 13
78.050150933
 23
324.4928253415
 33
0.0
 14
220.050150933
 24
330.502584599
 34
0.0
100
AcDbRotatedDimension
  0
INSERT
  5
158
330
1F
100
AcDbEntity
  8
1
100
AcDbBlockReference
  2
*D7
 10
0.0
 20
0.0
 30
0.0
  0
ENDSEC
  0
SECTION
  2
OBJECTS
  0
DICTIONARY
  5
C
330
0
100
AcDbDictionary
281
     1
  3
ACAD_GROUP
350
D
  3
ACAD_LAYOUT
350
1A
  3
ACAD_MLEADERSTYLE
350
15B
  3
ACAD_MLINESTYLE
350
17
  3
ACAD_PLOTSETTINGS
350
19
  3
ACAD_PLOTSTYLENAME
350
E
  3
ACAD_SCALELIST
350
4B
  3
ACAD_VISUALSTYLE
350
2A
  3
AcDbVariableDictionary
350
159
  0
DICTIONARY
  5
D
102
{ACAD_REACTORS
330
C
102
}
330
C
100
AcDbDictionary
281
     1
  0
DICTIONARY
  5
1A
102
{ACAD_REACTORS
330
C
102
}
330
C
100
AcDbDictionary
281
     1
  3
Layout1
350
1E
  3
Layout2
350
26
  3
Model
350
22
  0
DICTIONARY
  5
15B
102
{ACAD_REACTORS
330
C
102
}
330
C
100
AcDbDictionary
281
     1
  0
DICTIONARY
  5
17
102
{ACAD_REACTORS
330
C
102
}
330
C
100
AcDbDictionary
281
     1
  3
Standard
350
18
  0
DICTIONARY
  5
19
102
{ACAD_REACTORS
330
C
102
}
330
C
100
AcDbDictionary
281
     1
  0
ACDBDICTIONARYWDFLT
  5
E
102
{ACAD_REACTORS
330
C
102
}
330
C
100
AcDbDictionary
281
     1
  3
Normal
350
F
100
AcDbDictionaryWithDefault
340
F
  0
DICTIONARY
  5
4B
102
{ACAD_REACTORS
330
C
102
}
330
C
100
AcDbDictionary
281
     1
  3
A0
350
4C
  3
A1
350
4D
  3
A2
350
4E
  3
A3
350
4F
  3
A4
350
50
  3
A5
350
51
  3
A6
350
52
  3
A7
350
53
  3
A8
350
54
  3
A9
350
55
  3
B0
350
56
  3
B1
350
57
  3
B2
350
58
  3
B3
350
59
  3
B4
350
5A
  3
B5
350
5B
  3
B6
350
5C
  3
B7
350
5D
  3
B8
350
5E
  3
B9
350
5F
  3
C0
350
60
  3
C1
350
61
  3
C2
350
62
  3
C3
350
63
  3
C4
350
64
  3
C5
350
65
  3
C6
350
66
  3
C7
350
67
  3
C8
350
68
  3
C9
350
69
  3
D0
350
6A
  3
D1
350
6B
  3
D2
350
6C
  0
DICTIONARY
  5
2A
102
{ACAD_REACTORS
330
C
102
}
330
C
100
AcDbDictionary
281
     1
  3
2dWireframe
350
2F
  3
3D Hidden
350
31
  3
3dWireframe
350
30
  3
Basic
350
32
  3
Brighten
350
36
  3
ColorChange
350
3A
  3
Conceptual
350
34
  3
Dim
350
35
  3
Facepattern
350
39
  3
Flat
350
2B
  3
FlatWithEdges
350
2C
  3
Gouraud
350
2D
  3
GouraudWithEdges
350
2E
  3
Linepattern
350
38
  3
Realistic
350
33
  3
Thicken
350
37
  0
DICTIONARY
  5
159
102
{ACAD_REACTORS
330
C
102
}
330
C
100
AcDbDictionary
281
     1
  3
CANNOSCALE
350
15C
  0
LAYOUT
  5
1E
102
{ACAD_REACTORS
330
1A
102
}
330
1A
100
AcDbPlotSettings
  1

  2
none_device
  4

  6

 40
0.0
 41
0.0
 42
0.0
 43
0.0
 44
0.0
 45
0.0
 46
0.0
 47
0.0
 48
0.0
 49
0.0
140
0.0
141
0.0
142
1.0
143
1.0
 70
   688
 72
     0
 73
     0
 74
     5
  7

 75
    16
147
1.0
148
0.0
149
0.0
100
AcDbLayout
  1
Layout1
 70
     1
 71
     1
 10
0.0
 20
0.0
 11
12.0
 21
9.0
 12
0.0
 22
0.0
 32
0.0
 14
1.00000000000000E+20
 24
1.00000000000000E+20
 34
1.00000000000000E+20
 15
-1.00000000000000E+20
 25
-1.00000000000000E+20
 35
-1.00000000000000E+20
146
0.0
 13
0.0
 23
0.0
 33
0.0
 16
1.0
 26
0.0
 36
0.0
 17
0.0
 27
1.0
 37
0.0
 76
     0
330
1B
  0
LAYOUT
  5
26
102
{ACAD_REACTORS
330
1A
102
}
330
1A
100
AcDbPlotSettings
  1

  2
none_device
  4

  6

 40
0.0
 41
0.0
 42
0.0
 43
0.0
 44
0.0
 45
0.0
 46
0.0
 47
0.0
 48
0.0
 49
0.0
140
0.0
141
0.0
142
1.0
143
1.0
 70
   688
 72
     0
 73
     0
 74
     5
  7

 75
    16
147
1.0
148
0.0
149
0.0
100
AcDbLayout
  1
Layout2
 70
     1
 71
     2
 10
0.0
 20
0.0
 11
0.0
 21
0.0
 12
0.0
 22
0.0
 32
0.0
 14
0.0
 24
0.0
 34
0.0
 15
0.0
 25
0.0
 35
0.0
146
0.0
 13
0.0
 23
0.0
 33
0.0
 16
1.0
 26
0.0
 36
0.0
 17
0.0
 27
1.0
 37
0.0
 76
     0
330
23
  0
LAYOUT
  5
22
102
{ACAD_REACTORS
330
1A
102
}
330
1A
100
AcDbPlotSettings
  1

  2
none_device
  4

  6

 40
0.0
 41
0.0
 42
0.0
 43
0.0
 44
0.0
 45
0.0
 46
0.0
 47
0.0
 48
0.0
 49
0.0
140
0.0
141
0.0
142
1.0
143
1.0
 70
  1712
 72
     0
 73
     0
 74
     0
  7

 75
     0
147
1.0
148
0.0
149
0.0
100
AcDbLayout
  1
Model
 70
     1
 71
     0
 10
0.0
 20
0.0
 11
12.0
 21
9.0
 12
0.0
 22
0.0
 32
0.0
 14
55.5620813106078
 24
262.2594081955
 34
0.0
 15
245.024999651961
 25
374.290942336757
 35
0.0
146
0.0
 13
0.0
 23
0.0
 33
0.0
 16
1.0
 26
0.0
 36
0.0
 17
0.0
 27
1.0
 37
0.0
 76
     0
330
1F
331
29
  0
MLINESTYLE
  5
18
102
{ACAD_REACTORS
330
17
102
}
330
17
100
AcDbMlineStyle
  2
Standard
 70
     0
  3

 62
   256
 51
90.0
 52
90.0
 71
     2
 49
0.5
 62
   256
  6
BYLAYER
 49
-0.5
 62
   256
  6
BYLAYER
  0
ACDBPLACEHOLDER
  5
F
102
{ACAD_REACTORS
330
E
102
}
330
E
  0
SCALE
  5
4C
102
{ACAD_REACTORS
330
4B
102
}
330
4B
100
AcDbScale
 70
     0
300
1:1
140
1.0
141
1.0
290
     1
  0
SCALE
  5
4D
102
{ACAD_REACTORS
330
4B
102
}
330
4B
100
AcDbScale
 70
     0
300
1:2
140
1.0
141
2.0
290
     0
  0
SCALE
  5
4E
102
{ACAD_REACTORS
330
4B
102
}
330
4B
100
AcDbScale
 70
     0
300
1:4
140
1.0
141
4.0
290
     0
  0
SCALE
  5
4F
102
{ACAD_REACTORS
330
4B
102
}
330
4B
100
AcDbScale
 70
     0
300
1:5
140
1.0
141
5.0
290
     0
  0
SCALE
  5
50
102
{ACAD_REACTORS
330
4B
102
}
330
4B
100
AcDbScale
 70
     0
300
1:8
140
1.0
141
8.0
290
     0
  0
SCALE
  5
51
102
{ACAD_REACTORS
330
4B
102
}
330
4B
100
AcDbScale
 70
     0
300
1:10
140
1.0
141
10.0
290
     0
  0
SCALE
  5
52
102
{ACAD_REACTORS
330
4B
102
}
330
4B
100
AcDbScale
 70
     0
300
1:16
140
1.0
141
16.0
290
     0
  0
SCALE
  5
53
102
{ACAD_REACTORS
330
4B
102
}
330
4B
100
AcDbScale
 70
     0
300
1:20
140
1.0
141
20.0
290
     0
  0
SCALE
  5
54
102
{ACAD_REACTORS
330
4B
102
}
330
4B
100
AcDbScale
 70
     0
300
1:30
140
1.0
141
30.0
290
     0
  0
SCALE
  5
55
102
{ACAD_REACTORS
330
4B
102
}
330
4B
100
AcDbScale
 70
     0
300
1:40
140
1.0
141
40.0
290
     0
  0
SCALE
  5
56
102
{ACAD_REACTORS
330
4B
102
}
330
4B
100
AcDbScale
 70
     0
300
1:50
140
1.0
141
50.0
290
     0
  0
SCALE
  5
57
102
{ACAD_REACTORS
330
4B
102
}
330
4B
100
AcDbScale
 70
     0
300
1:100
140
1.0
141
100.0
290
     0
  0
SCALE
  5
58
102
{ACAD_REACTORS
330
4B
102
}
330
4B
100
AcDbScale
 70
     0
300
2:1
140
2.0
141
1.0
290
     0
  0
SCALE
  5
59
102
{ACAD_REACTORS
330
4B
102
}
330
4B
100
AcDbScale
 70
     0
300
4:1
140
4.0
141
1.0
290
     0
  0
SCALE
  5
5A
102
{ACAD_REACTORS
330
4B
102
}
330
4B
100
AcDbScale
 70
     0
300
8:1
140
8.0
141
1.0
290
     0
  0
SCALE
  5
5B
102
{ACAD_REACTORS
330
4B
102
}
330
4B
100
AcDbScale
 70
     0
300
10:1
140
10.0
141
1.0
290
     0
  0
SCALE
  5
5C
102
{ACAD_REACTORS
330
4B
102
}
330
4B
100
AcDbScale
 70
     0
300
100:1
140
100.0
141
1.0
290
     0
  0
SCALE
  5
5D
102
{ACAD_REACTORS
330
4B
102
}
330
4B
100
AcDbScale
 70
     0
300
1/128" = 1'-0"
140
0.0078125
141
12.0
290
     0
  0
SCALE
  5
5E
102
{ACAD_REACTORS
330
4B
102
}
330
4B
100
AcDbScale
 70
     0
300
1/64" = 1'-0"
140
0.015625
141
12.0
290
     0
  0
SCALE
  5
5F
102
{ACAD_REACTORS
330
4B
102
}
330
4B
100
AcDbScale
 70
     0
300
1/32" = 1'-0"
140
0.03125
141
12.0
290
     0
  0
SCALE
  5
60
102
{ACAD_REACTORS
330
4B
102
}
330
4B
100
AcDbScale
 70
     0
300
1/16" = 1'-0"
140
0.0625
141
12.0
290
     0
  0
SCALE
  5
61
102
{ACAD_REACTORS
330
4B
102
}
330
4B
100
AcDbScale
 70
     0
300
3/32" = 1'-0"
140
0.09375
141
12.0
290
     0
  0
SCALE
  5
62
102
{ACAD_REACTORS
330
4B
102
}
330
4B
100
AcDbScale
 70
     0
300
1/8" = 1'-0"
140
0.125
141
12.0
290
     0
  0
SCALE
  5
63
102
{ACAD_REACTORS
330
4B
102
}
330
4B
100
AcDbScale
 70
     0
300
3/16" = 1'-0"
140
0.1875
141
12.0
290
     0
  0
SCALE
  5
64
102
{ACAD_REACTORS
330
4B
102
}
330
4B
100
AcDbScale
 70
     0
300
1/4" = 1'-0"
140
0.25
141
12.0
290
     0
  0
SCALE
  5
65
102
{ACAD_REACTORS
330
4B
102
}
330
4B
100
AcDbScale
 70
     0
300
3/8" = 1'-0"
140
0.375
141
12.0
290
     0
  0
SCALE
  5
66
102
{ACAD_REACTORS
330
4B
102
}
330
4B
100
AcDbScale
 70
     0
300
1/2" = 1'-0"
140
0.5
141
12.0
290
     0
  0
SCALE
  5
67
102
{ACAD_REACTORS
330
4B
102
}
330
4B
100
AcDbScale
 70
     0
300
3/4" = 1'-0"
140
0.75
141
12.0
290
     0
  0
SCALE
  5
68
102
{ACAD_REACTORS
330
4B
102
}
330
4B
100
AcDbScale
 70
     0
300
1" = 1'-0"
140
1.0
141
12.0
290
     0
  0
SCALE
  5
69
102
{ACAD_REACTORS
330
4B
102
}
330
4B
100
AcDbScale
 70
     0
300
1-1/2" = 1'-0"
140
1.5
141
12.0
290
     0
  0
SCALE
  5
6A
102
{ACAD_REACTORS
330
4B
102
}
330
4B
100
AcDbScale
 70
     0
300
3" = 1'-0"
140
3.0
141
12.0
290
     0
  0
SCALE
  5
6B
102
{ACAD_REACTORS
330
4B
102
}
330
4B
100
AcDbScale
 70
     0
300
6" = 1'-0"
140
6.0
141
12.0
290
     0
  0
SCALE
  5
6C
102
{ACAD_REACTORS
330
4B
102
}
330
4B
100
AcDbScale
 70
     0
300
1'-0" = 1'-0"
140
12.0
141
12.0
290
     0
  0
VISUALSTYLE
  5
2F
102
{ACAD_REACTORS
330
2A
102
}
330
2A
100
AcDbVisualStyle
  2
2dWireframe
 70
     4
 71
     0
 72
     2
 73
     0
 90
        0
 40
-0.6
 41
-30.0
 62
     5
 63
     7
 74
     1
 91
        4
 64
     7
 65
   257
 75
     1
175
     1
 42
1.0
 92
        0
 66
   257
 43
1.0
 76
     1
 77
     6
 78
     2
 67
     7
 79
     5
170
     0
171
     0
290
     0
174
     0
 93
        1
 44
0.0
173
     0
291
     0
 45
0.0
1001
ACAD
1000
AcDbSavedByObjectVersion
1070
     0
  0
VISUALSTYLE
  5
31
102
{ACAD_REACTORS
330
2A
102
}
330
2A
100
AcDbVisualStyle
  2
3D Hidden
 70
     6
 71
     1
 72
     2
 73
     2
 90
        0
 40
-0.6
 41
-30.0
 62
     5
 63
     7
 74
     2
 91
        2
 64
     7
 65
   257
 75
     2
175
     1
 42
40.0
 92
        0
 66
   257
 43
1.0
 76
     1
 77
     6
 78
     2
 67
     7
 79
     3
170
     0
171
     0
290
     0
174
     0
 93
        1
 44
0.0
173
     0
291
     0
 45
0.0
1001
ACAD
1000
AcDbSavedByObjectVersion
1070
     0
  0
VISUALSTYLE
  5
30
102
{ACAD_REACTORS
330
2A
102
}
330
2A
100
AcDbVisualStyle
  2
3dWireframe
 70
     5
 71
     0
 72
     2
 73
     0
 90
        0
 40
-0.6
 41
-30.0
 62
     5
 63
     7
 74
     1
 91
        4
 64
     7
 65
   257
 75
     1
175
     1
 42
1.0
 92
        0
 66
   257
 43
1.0
 76
     1
 77
     6
 78
     2
 67
     7
 79
     5
170
     0
171
     0
290
     0
174
     0
 93
        1
 44
0.0
173
     0
291
     0
 45
0.0
1001
ACAD
1000
AcDbSavedByObjectVersion
1070
     0
  0
VISUALSTYLE
  5
32
102
{ACAD_REACTORS
330
2A
102
}
330
2A
100
AcDbVisualStyle
  2
Basic
 70
     7
 71
     1
 72
     0
 73
     1
 90
        0
 40
-0.6
 41
-30.0
 62
     5
 63
     7
 74
     0
 91
        4
 64
     7
 65
   257
 75
     1
175
     1
 42
1.0
 92
        8
 66
     7
 43
1.0
 76
     1
 77
     6
 78
     2
 67
     7
 79
     5
170
     0
171
     0
290
     0
174
     0
 93
        1
 44
0.0
173
     0
291
     1
 45
0.0
1001
ACAD
1000
AcDbSavedByObjectVersion
1070
     0
  0
VISUALSTYLE
  5
36
102
{ACAD_REACTORS
330
2A
102
}
330
2A
100
AcDbVisualStyle
  2
Brighten
 70
    12
 71
     2
 72
     2
 73
     0
 90
        0
 40
-0.6
 41
-30.0
 62
     5
 63
     7
 74
     1
 91
        4
 64
     7
 65
   257
 75
     1
175
     1
 42
1.0
 92
        8
 66
     7
 43
1.0
 76
     1
 77
     6
 78
     2
 67
     7
 79
     5
170
     0
171
     0
290
     0
174
     0
 93
        1
 44
50.0
173
     0
291
     1
 45
0.0
1001
ACAD
1000
AcDbSavedByObjectVersion
1070
     0
  0
VISUALSTYLE
  5
3A
102
{ACAD_REACTORS
330
2A
102
}
330
2A
100
AcDbVisualStyle
  2
ColorChange
 70
    16
 71
     2
 72
     2
 73
     3
 90
        0
 40
-0.6
 41
-30.0
 62
     5
 63
     8
 74
     1
 91
        4
 64
     7
 65
   257
 75
     1
175
     1
 42
1.0
 92
        8
 66
     8
 43
1.0
 76
     1
 77
     6
 78
     2
 67
     7
 79
     5
170
     0
171
     0
290
     0
174
     0
 93
        1
 44
0.0
173
     0
291
     1
 45
0.0
1001
ACAD
1000
AcDbSavedByObjectVersion
1070
     0
  0
VISUALSTYLE
  5
34
102
{ACAD_REACTORS
330
2A
102
}
330
2A
100
AcDbVisualStyle
  2
Conceptual
 70
     9
 71
     3
 72
     2
 73
     0
 90
        0
 40
-0.6
 41
-30.0
 62
     5
 63
     7
 74
     2
 91
        2
 64
     7
 65
   257
 75
     1
175
     1
 42
40.0
 92
        8
 66
     7
 43
1.0
 76
     1
 77
     6
 78
     2
 67
     7
 79
     3
170
     0
171
     0
290
     0
174
     0
 93
        1
 44
0.0
173
     0
291
     0
 45
0.0
1001
ACAD
1000
AcDbSavedByObjectVersion
1070
     0
  0
VISUALSTYLE
  5
35
102
{ACAD_REACTORS
330
2A
102
}
330
2A
100
AcDbVisualStyle
  2
Dim
 70
    11
 71
     2
 72
     2
 73
     0
 90
        0
 40
-0.6
 41
-30.0
 62
     5
 63
     7
 74
     1
 91
        4
 64
     7
 65
   257
 75
     1
175
     1
 42
1.0
 92
        8
 66
     7
 43
1.0
 76
     1
 77
     6
 78
     2
 67
     7
 79
     5
170
     0
171
     0
290
     0
174
     0
 93
        1
 44
-50.0
173
     0
291
     1
 45
0.0
1001
ACAD
1000
AcDbSavedByObjectVersion
1070
     0
  0
VISUALSTYLE
  5
39
102
{ACAD_REACTORS
330
2A
102
}
330
2A
100
AcDbVisualStyle
  2
Facepattern
 70
    15
 71
     2
 72
     2
 73
     0
 90
        0
 40
-0.6
 41
-30.0
 62
     5
 63
     7
 74
     1
 91
        4
 64
     7
 65
   257
 75
     1
175
     1
 42
1.0
 92
        8
 66
     7
 43
1.0
 76
     1
 77
     6
 78
     2
 67
     7
 79
     5
170
     0
171
     0
290
     0
174
     0
 93
        1
 44
0.0
173
     0
291
     1
 45
0.0
1001
ACAD
1000
AcDbSavedByObjectVersion
1070
     0
  0
VISUALSTYLE
  5
2B
102
{ACAD_REACTORS
330
2A
102
}
330
2A
100
AcDbVisualStyle
  2
Flat
 70
     0
 71
     2
 72
     1
 73
     1
 90
        2
 40
-0.6
 41
30.0
 62
     5
 63
     7
 74
     0
 91
        4
 64
     7
 65
   257
 75
     1
175
     1
 42
1.0
 92
        8
 66
     7
 43
1.0
 76
     1
 77
     6
 78
     2
 67
     7
 79
     5
170
     0
171
     0
290
     0
174
     0
 93
       13
 44
0.0
173
     0
291
     1
 45
0.0
1001
ACAD
1000
AcDbSavedByObjectVersion
1070
     0
  0
VISUALSTYLE
  5
2C
102
{ACAD_REACTORS
330
2A
102
}
330
2A
100
AcDbVisualStyle
  2
FlatWithEdges
 70
     1
 71
     2
 72
     1
 73
     1
 90
        2
 40
-0.6
 41
30.0
 62
     5
 63
     7
 74
     1
 91
        4
 64
     7
 65
   257
 75
     1
175
     1
 42
1.0
 92
        0
 66
   257
 43
1.0
 76
     1
 77
     6
 78
     2
 67
     7
 79
     5
170
     0
171
     0
290
     0
174
     0
 93
       13
 44
0.0
173
     0
291
     1
 45
0.0
1001
ACAD
1000
AcDbSavedByObjectVersion
1070
     0
  0
VISUALSTYLE
  5
2D
102
{ACAD_REACTORS
330
2A
102
}
330
2A
100
AcDbVisualStyle
  2
Gouraud
 70
     2
 71
     2
 72
     2
 73
     1
 90
        2
 40
-0.6
 41
30.0
 62
     5
 63
     7
 74
     0
 91
        4
 64
     7
 65
   257
 75
     1
175
     1
 42
1.0
 92
        0
 66
     7
 43
1.0
 76
     1
 77
     6
 78
     2
 67
     7
 79
     5
170
     0
171
     0
290
     0
174
     0
 93
       13
 44
0.0
173
     0
291
     1
 45
0.0
1001
ACAD
1000
AcDbSavedByObjectVersion
1070
     0
  0
VISUALSTYLE
  5
2E
102
{ACAD_REACTORS
330
2A
102
}
330
2A
100
AcDbVisualStyle
  2
GouraudWithEdges
 70
     3
 71
     2
 72
     2
 73
     1
 90
        2
 40
-0.6
 41
30.0
 62
     5
 63
     7
 74
     1
 91
        4
 64
     7
 65
   257
 75
     1
175
     1
 42
1.0
 92
        0
 66
   257
 43
1.0
 76
     1
 77
     6
 78
     2
 67
     7
 79
     5
170
     0
171
     0
290
     0
174
     0
 93
       13
 44
0.0
173
     0
291
     1
 45
0.0
1001
ACAD
1000
AcDbSavedByObjectVersion
1070
     0
  0
VISUALSTYLE
  5
38
102
{ACAD_REACTORS
330
2A
102
}
330
2A
100
AcDbVisualStyle
  2
Linepattern
 70
    14
 71
     2
 72
     2
 73
     0
 90
        0
 40
-0.6
 41
-30.0
 62
     5
 63
     7
 74
     1
 91
        4
 64
     7
 65
   257
 75
     7
175
     7
 42
1.0
 92
        8
 66
     7
 43
1.0
 76
     1
 77
     6
 78
     2
 67
     7
 79
     5
170
     0
171
     0
290
     0
174
     0
 93
        1
 44
0.0
173
     0
291
     1
 45
0.0
1001
ACAD
1000
AcDbSavedByObjectVersion
1070
     0
  0
VISUALSTYLE
  5
33
102
{ACAD_REACTORS
330
2A
102
}
330
2A
100
AcDbVisualStyle
  2
Realistic
 70
     8
 71
     2
 72
     2
 73
     0
 90
        0
 40
-0.6
 41
-30.0
 62
     5
 63
     7
 74
     1
 91
        0
 64
     7
 65
   257
 75
     1
175
     1
 42
1.0
 92
        8
 66
     8
 43
1.0
 76
     1
 77
     6
 78
     2
 67
     7
 79
     5
170
     0
171
     0
290
     0
174
     0
 93
       13
 44
0.0
173
     0
291
     0
 45
0.0
1001
ACAD
1000
AcDbSavedByObjectVersion
1070
     0
  0
VISUALSTYLE
  5
37
102
{ACAD_REACTORS
330
2A
102
}
330
2A
100
AcDbVisualStyle
  2
Thicken
 70
    13
 71
     2
 72
     2
 73
     0
 90
        0
 40
-0.6
 41
-30.0
 62
     5
 63
     7
 74
     1
 91
        4
 64
     7
 65
   257
 75
     1
175
     1
 42
1.0
 92
       12
 66
     7
 43
1.0
 76
     1
 77
     6
 78
     2
 67
     7
 79
     5
170
     0
171
     0
290
     0
174
     0
 93
        1
 44
0.0
173
     0
291
     1
 45
0.0
1001
ACAD
1000
AcDbSavedByObjectVersion
1070
     0
  0
DICTIONARYVAR
  5
15C
102
{ACAD_REACTORS
330
159
102
}
330
159
100
DictionaryVariables
280
     0
  1
1:1
  0
ENDSEC
  0
EOF
