  0
SECTION
  2
HEADER
  9
$ACADVER
  1
AC1015
  9
$ACADMAINTVER
 70
     6
  9
$DWGCODEPAGE
  3
ANSI_1252
  9
$INSBASE
 10
0.0
 20
0.0
 30
0.0
  9
$EXTMIN
 10
56.3105722819307
 20
286.6530832467918
 30
0.0
  9
$EXTMAX
 10
244.40700432592
 20
395.422470164098
 30
0.0
  9
$LIMMIN
 10
0.0
 20
0.0
  9
$LIMMAX
 10
12.0
 20
9.0
  9
$ORTHOMODE
 70
     0
  9
$REGENMODE
 70
     1
  9
$FILLMODE
 70
     1
  9
$QTEXTMODE
 70
     0
  9
$MIRRTEXT
 70
     1
  9
$LTSCALE
 40
1.0
  9
$ATTMODE
 70
     1
  9
$TEXTSIZE
 40
0.2
  9
$TRACEWID
 40
0.05
  9
$TEXTSTYLE
  7
Standard
  9
$CLAYER
  8
0
  9
$CELTYPE
  6
ByLayer
  9
$CECOLOR
 62
   256
  9
$CELTSCALE
 40
1.0
  9
$DISPSILH
 70
     0
  9
$DIMSCALE
 40
1.0
  9
$DIMASZ
 40
0.18
  9
$DIMEXO
 40
0.0625
  9
$DIMDLI
 40
0.38
  9
$DIMRND
 40
0.0
  9
$DIMDLE
 40
0.0
  9
$DIMEXE
 40
0.18
  9
$DIMTP
 40
0.0
  9
$DIMTM
 40
0.0
  9
$DIMTXT
 40
0.18
  9
$DIMCEN
 40
0.09
  9
$DIMTSZ
 40
0.0
  9
$DIMTOL
 70
     0
  9
$DIMLIM
 70
     0
  9
$DIMTIH
 70
     1
  9
$DIMTOH
 70
     1
  9
$DIMSE1
 70
     0
  9
$DIMSE2
 70
     0
  9
$DIMTAD
 70
     0
  9
$DIMZIN
 70
     0
  9
$DIMBLK
  1

  9
$DIMASO
 70
     1
  9
$DIMSHO
 70
     1
  9
$DIMPOST
  1

  9
$DIMAPOST
  1

  9
$DIMALT
 70
     0
  9
$DIMALTD
 70
     2
  9
$DIMALTF
 40
25.4
  9
$DIMLFAC
 40
1.0
  9
$DIMTOFL
 70
     0
  9
$DIMTVP
 40
0.0
  9
$DIMTIX
 70
     0
  9
$DIMSOXD
 70
     0
  9
$DIMSAH
 70
     0
  9
$DIMBLK1
  1

  9
$DIMBLK2
  1

  9
$DIMSTYLE
  2
Standard
  9
$DIMCLRD
 70
     0
  9
$DIMCLRE
 70
     0
  9
$DIMCLRT
 70
     0
  9
$DIMTFAC
 40
1.0
  9
$DIMGAP
 40
0.09
  9
$DIMJUST
 70
     0
  9
$DIMSD1
 70
     0
  9
$DIMSD2
 70
     0
  9
$DIMTOLJ
 70
     1
  9
$DIMTZIN
 70
     0
  9
$DIMALTZ
 70
     0
  9
$DIMALTTZ
 70
     0
  9
$DIMUPT
 70
     0
  9
$DIMDEC
 70
     4
  9
$DIMTDEC
 70
     4
  9
$DIMALTU
 70
     2
  9
$DIMALTTD
 70
     2
  9
$DIMTXSTY
  7
Standard
  9
$DIMAUNIT
 70
     0
  9
$DIMADEC
 70
     0
  9
$DIMALTRND
 40
0.0
  9
$DIMAZIN
 70
     0
  9
$DIMDSEP
 70
    46
  9
$DIMATFIT
 70
     3
  9
$DIMFRAC
 70
     0
  9
$DIMLDRBLK
  1

  9
$DIMLUNIT
 70
     2
  9
$DIMLWD
 70
    -2
  9
$DIMLWE
 70
    -2
  9
$DIMTMOVE
 70
     0
  9
$LUNITS
 70
     2
  9
$LUPREC
 70
     4
  9
$SKETCHINC
 40
0.1
  9
$FILLETRAD
 40
0.5
  9
$AUNITS
 70
     0
  9
$AUPREC
 70
     0
  9
$MENU
  1
.
  9
$ELEVATION
 40
0.0
  9
$PELEVATION
 40
0.0
  9
$THICKNESS
 40
0.0
  9
$LIMCHECK
 70
     0
  9
$CHAMFERA
 40
0.5
  9
$CHAMFERB
 40
0.5
  9
$CHAMFERC
 40
1.0
  9
$CHAMFERD
 40
0.0
  9
$SKPOLY
 70
     0
  9
$TDCREATE
 40
2456749.75242044
  9
$TDUCREATE
 40
2456749.669087106
  9
$TDUPDATE
 40
2456749.752420451
  9
$TDUUPDATE
 40
2456749.669087118
  9
$TDINDWG
 40
0.0000000116
  9
$TDUSRTIMER
 40
0.0000000116
  9
$USRTIMER
 70
     1
  9
$ANGBASE
 50
0.0
  9
$ANGDIR
 70
     0
  9
$PDMODE
 70
     0
  9
$PDSIZE
 40
0.0
  9
$PLINEWID
 40
0.0
  9
$SPLFRAME
 70
     0
  9
$SPLINETYPE
 70
     6
  9
$SPLINESEGS
 70
     8
  9
$HANDSEED
  5
15D
  9
$SURFTAB1
 70
     6
  9
$SURFTAB2
 70
     6
  9
$SURFTYPE
 70
     6
  9
$SURFU
 70
     6
  9
$SURFV
 70
     6
  9
$UCSBASE
  2

  9
$UCSNAME
  2

  9
$UCSORG
 10
0.0
 20
0.0
 30
0.0
  9
$UCSXDIR
 10
1.0
 20
0.0
 30
0.0
  9
$UCSYDIR
 10
0.0
 20
1.0
 30
0.0
  9
$UCSORTHOREF
  2

  9
$UCSORTHOVIEW
 70
     0
  9
$UCSORGTOP
 10
0.0
 20
0.0
 30
0.0
  9
$UCSORGBOTTOM
 10
0.0
 20
0.0
 30
0.0
  9
$UCSORGLEFT
 10
0.0
 20
0.0
 30
0.0
  9
$UCSORGRIGHT
 10
0.0
 20
0.0
 30
0.0
  9
$UCSORGFRONT
 10
0.0
 20
0.0
 30
0.0
  9
$UCSORGBACK
 10
0.0
 20
0.0
 30
0.0
  9
$PUCSBASE
  2

  9
$PUCSNAME
  2

  9
$PUCSORG
 10
0.0
 20
0.0
 30
0.0
  9
$PUCSXDIR
 10
1.0
 20
0.0
 30
0.0
  9
$PUCSYDIR
 10
0.0
 20
1.0
 30
0.0
  9
$PUCSORTHOREF
  2

  9
$PUCSORTHOVIEW
 70
     0
  9
$PUCSORGTOP
 10
0.0
 20
0.0
 30
0.0
  9
$PUCSORGBOTTOM
 10
0.0
 20
0.0
 30
0.0
  9
$PUCSORGLEFT
 10
0.0
 20
0.0
 30
0.0
  9
$PUCSORGRIGHT
 10
0.0
 20
0.0
 30
0.0
  9
$PUCSORGFRONT
 10
0.0
 20
0.0
 30
0.0
  9
$PUCSORGBACK
 10
0.0
 20
0.0
 30
0.0
  9
$USERI1
 70
     0
  9
$USERI2
 70
     0
  9
$USERI3
 70
     0
  9
$USERI4
 70
     0
  9
$USERI5
 70
     0
  9
$USERR1
 40
16.5
  9
$USERR2
 40
0.0
  9
$USERR3
 40
0.0
  9
$USERR4
 40
0.0
  9
$USERR5
 40
0.0
  9
$WORLDVIEW
 70
     1
  9
$SHADEDGE
 70
     3
  9
$SHADEDIF
 70
    70
  9
$TILEMODE
 70
     1
  9
$MAXACTVP
 70
    64
  9
$PINSBASE
 10
0.0
 20
0.0
 30
0.0
  9
$PLIMCHECK
 70
     0
  9
$PEXTMIN
 10
1.00000000000000E+20
 20
1.00000000000000E+20
 30
1.00000000000000E+20
  9
$PEXTMAX
 10
-1.00000000000000E+20
 20
-1.00000000000000E+20
 30
-1.00000000000000E+20
  9
$PLIMMIN
 10
0.0
 20
0.0
  9
$PLIMMAX
 10
12.0
 20
9.0
  9
$UNITMODE
 70
     0
  9
$VISRETAIN
 70
     1
  9
$PLINEGEN
 70
     0
  9
$PSLTSCALE
 70
     1
  9
$TREEDEPTH
 70
  3020
  9
$CMLSTYLE
  2
Standard
  9
$CMLJUST
 70
     0
  9
$CMLSCALE
 40
1.0
  9
$PROXYGRAPHICS
 70
     1
  9
$MEASUREMENT
 70
     1
  9
$CELWEIGHT
370
    -1
  9
$ENDCAPS
280
     0
  9
$JOINSTYLE
280
     0
  9
$LWDISPLAY
290
     0
  9
$INSUNITS
 70
     1
  9
$HYPERLINKBASE
  1

  9
$STYLESHEET
  1

  9
$XEDIT
290
     1
  9
$CEPSNTYPE
380
     0
  9
$PSTYLEMODE
290
     1
  9
$FINGERPRINTGUID
  2
{AC6E8AF7-4DDB-4FD7-A9EB-33D8CA6F0B3B}
  9
$VERSIONGUID
  2
{FAEB1C32-E019-11D5-929B-00C0DF256EC4}
  9
$EXTNAMES
290
     1
  9
$PSVPSCALE
 40
0.0
  9
$OLESTARTUP
290
     0
  0
ENDSEC
  0
SECTION
  2
CLASSES
  0
CLASS
  1
ACDBDICTIONARYWDFLT
  2
AcDbDictionaryWithDefault
  3
ObjectDBX Classes
 90
        0
280
     0
281
     0
  0
CLASS
  1
VISUALSTYLE
  2
AcDbVisualStyle
  3
ObjectDBX Classes
 90
     4095
280
     0
281
     0
  0
CLASS
  1
SCALE
  2
AcDbScale
  3
ObjectDBX Classes
 90
     1153
280
     0
281
     0
  0
CLASS
  1

  2
exOdDbPolyline
  3

 90
        0
280
     0
281
     1
  0
CLASS
  1

  2
exOdDbCircle
  3

 90
        0
280
     0
281
     1
  0
CLASS
  1

  2
exOdDbSpline
  3

 90
        0
280
     0
281
     1
  0
CLASS
  1
DICTIONARYVAR
  2
AcDbDictionaryVar
  3
ObjectDBX Classes
 90
        0
280
     0
281
     0
  0
CLASS
  1
ACDBPLACEHOLDER
  2
AcDbPlaceHolder
  3
ObjectDBX Classes
 90
        0
280
     0
281
     0
  0
CLASS
  1
LAYOUT
  2
AcDbLayout
  3
ObjectDBX Classes
 90
        0
280
     0
281
     0
  0
ENDSEC
  0
SECTION
  2
TABLES
  0
TABLE
  2
VPORT
  5
8
330
0
100
AcDbSymbolTable
 70
     1
  0
VPORT
  5
29
330
8
100
AcDbSymbolTableRecord
100
AcDbViewportTableRecord
  2
*Active
 70
     0
 10
0.0
 20
0.0
 11
1.0
 21
1.0
 12
150.3587883039254
 22
341.0377767054449
 13
0.0
 23
0.0
 14
0.5
 24
0.5
 15
0.5
 25
0.5
 16
0.0
 26
0.0
 36
1.0
 17
0.0
 27
0.0
 37
0.0
 40
129.1001695143147
 41
1.60267857142857
 42
50.0
 43
0.0
 44
0.0
 50
0.0
 51
0.0
 71
     0
 72
   100
 73
     1
 74
     3
 75
     0
 76
     0
 77
     0
 78
     0
281
     0
 65
     1
110
0.0
120
0.0
130
0.0
111
1.0
121
0.0
131
0.0
112
0.0
122
1.0
132
0.0
 79
     0
146
0.0
  0
ENDTAB
  0
TABLE
  2
LTYPE
  5
5
330
0
100
AcDbSymbolTable
 70
     8
  0
LTYPE
  5
14
330
5
100
AcDbSymbolTableRecord
100
AcDbLinetypeTableRecord
  2
ByBlock
 70
     0
  3

 72
    65
 73
     0
 40
0.0
  0
LTYPE
  5
15
330
5
100
AcDbSymbolTableRecord
100
AcDbLinetypeTableRecord
  2
ByLayer
 70
     0
  3

 72
    65
 73
     0
 40
0.0
  0
LTYPE
  5
16
330
5
100
AcDbSymbolTableRecord
100
AcDbLinetypeTableRecord
  2
Continuous
 70
     0
  3
Solid line
 72
    65
 73
     0
 40
0.0
  0
LTYPE
  5
3B
330
5
100
AcDbSymbolTableRecord
100
AcDbLinetypeTableRecord
  2
DASHED
 70
     0
  3
Dashed
 72
    65
 73
     2
 40
15.0
 49
7.0
 74
     0
 49
-8.0
 74
     0
  0
LTYPE
  5
3C
330
5
100
AcDbSymbolTableRecord
100
AcDbLinetypeTableRecord
  2
DOTTED
 70
     0
  3
Dotted
 72
    65
 73
     2
 40
1.0
 49
0.0
 74
     0
 49
-1.0
 74
     0
  0
LTYPE
  5
3D
330
5
100
AcDbSymbolTableRecord
100
AcDbLinetypeTableRecord
  2
DOT_CENTER
 70
     0
  3
Dot_Center
 72
    65
 73
     4
 40
14.0
 49
12.0
 74
     0
 49
-1.0
 74
     0
 49
0.0
 74
     0
 49
-1.0
 74
     0
  0
LTYPE
  5
3E
330
5
100
AcDbSymbolTableRecord
100
AcDbLinetypeTableRecord
  2
LONG_DASHED
 70
     0
  3
Long_Dashed
 72
    65
 73
     2
 40
15.0
 49
10.0
 74
     0
 49
-5.0
 74
     0
  0
LTYPE
  5
3F
330
5
100
AcDbSymbolTableRecord
100
AcDbLinetypeTableRecord
  2
DASH_CENTER
 70
     0
  3
Dash_Center
 72
    65
 73
     4
 40
14.0
 49
11.0
 74
     0
 49
-1.0
 74
     0
 49
1.0
 74
     0
 49
-1.0
 74
     0
  0
LTYPE
  5
40
330
5
100
AcDbSymbolTableRecord
100
AcDbLinetypeTableRecord
  2
PHANTOM
 70
     0
  3
Phantom
 72
    65
 73
     6
 40
13.0
 49
10.0
 74
     0
 49
-1.0
 74
     0
 49
0.0
 74
     0
 49
-1.0
 74
     0
 49
0.0
 74
     0
 49
-1.0
 74
     0
  0
LTYPE
  5
41
330
5
100
AcDbSymbolTableRecord
100
AcDbLinetypeTableRecord
  2
CENTER_DASH_DASH
 70
     0
  3
Center_Dash_Dash
 72
    65
 73
     6
 40
14.0
 49
9.0
 74
     0
 49
-1.0
 74
     0
 49
1.0
 74
     0
 49
-1.0
 74
     0
 49
1.0
 74
     0
 49
-1.0
 74
     0
  0
ENDTAB
  0
TABLE
  2
LAYER
  5
2
330
0
100
AcDbSymbolTable
 70
     7
  0
LAYER
  5
10
330
2
100
AcDbSymbolTableRecord
100
AcDbLayerTableRecord
  2
0
 70
     0
 62
     7
  6
Continuous
370
    -3
390
F
  0
LAYER
  5
42
330
2
100
AcDbSymbolTableRecord
100
AcDbLayerTableRecord
  2
1
 70
     0
 62
     7
  6
Continuous
370
    -3
390
F
  0
LAYER
  5
43
330
2
100
AcDbSymbolTableRecord
100
AcDbLayerTableRecord
  2
BEZUGSACHSEN
 70
     0
 62
     7
  6
Continuous
370
    -3
390
F
  0
LAYER
  5
44
330
2
100
AcDbSymbolTableRecord
100
AcDbLayerTableRecord
  2
BOHRUNGEN
 70
     0
 62
     7
  6
Continuous
370
    -3
390
F
  0
LAYER
  5
45
330
2
100
AcDbSymbolTableRecord
100
AcDbLayerTableRecord
  2
FASEN
 70
     0
 62
     7
  6
Continuous
370
    -3
390
F
  0
LAYER
  5
46
330
2
100
AcDbSymbolTableRecord
100
AcDbLayerTableRecord
  2
RUNDUNGEN
 70
     0
 62
     7
  6
Continuous
370
    -3
390
F
  0
LAYER
  5
47
330
2
100
AcDbSymbolTableRecord
100
AcDbLayerTableRecord
  2
VERERBUNG
 70
     0
 62
     7
  6
Continuous
370
    -3
390
F
  0
ENDTAB
  0
TABLE
  2
STYLE
  5
3
330
0
100
AcDbSymbolTable
 70
     2
  0
STYLE
  5
11
330
3
100
AcDbSymbolTableRecord
100
AcDbTextStyleTableRecord
  2
Standard
 70
     0
 40
0.0
 41
1.0
 50
0.0
 71
     0
 42
0.2
  3
txt
  4

  0
STYLE
  5
6E
330
3
100
AcDbSymbolTableRecord
100
AcDbTextStyleTableRecord
  2
CONVERTER_11
 70
     0
 40
0.0
 41
0.72
 50
0.0
 71
     0
 42
0.2
  3
txt.shx
  4

  0
ENDTAB
  0
TABLE
  2
VIEW
  5
6
330
0
100
AcDbSymbolTable
 70
     0
  0
ENDTAB
  0
TABLE
  2
UCS
  5
7
330
0
100
AcDbSymbolTable
 70
     0
  0
ENDTAB
  0
TABLE
  2
APPID
  5
9
330
0
100
AcDbSymbolTable
 70
     1
  0
APPID
  5
12
330
9
100
AcDbSymbolTableRecord
100
AcDbRegAppTableRecord
  2
ACAD
 70
     0
  0
ENDTAB
  0
TABLE
  2
DIMSTYLE
  5
A
330
0
100
AcDbSymbolTable
 70
     6
100
AcDbDimStyleTable
  0
DIMSTYLE
105
27
330
A
100
AcDbSymbolTableRecord
100
AcDbDimStyleTableRecord
  2
Standard
 70
     0
340
11
  0
DIMSTYLE
105
124
102
{ACAD_REACTORS
330
125
102
}
330
A
100
AcDbSymbolTableRecord
100
AcDbDimStyleTableRecord
  2
ME10_DIM_10
 70
     0
  3
\U+2300<>
 41
3.5
 42
2.0
 44
2.0
 71
     1
 73
     0
 74
     0
 77
     1
 78
     8
140
3.5
146
0.7
147
2.0
172
     1
173
     1
176
     2
177
     2
178
     3
271
     2
272
     0
340
6E
  0
DIMSTYLE
105
12F
102
{ACAD_REACTORS
330
130
102
}
330
A
100
AcDbSymbolTableRecord
100
AcDbDimStyleTableRecord
  2
ME10_DIM_11
 70
     0
  3
\U+2300<>
 41
3.5
 42
2.0
 44
2.0
 71
     1
 73
     0
 74
     0
 77
     1
 78
     8
140
3.5
146
0.7
147
2.0
172
     1
173
     1
176
     2
177
     2
178
     3
271
     2
272
     0
340
6E
  0
DIMSTYLE
105
13A
102
{ACAD_REACTORS
330
13B
102
}
330
A
100
AcDbSymbolTableRecord
100
AcDbDimStyleTableRecord
  2
ME10_DIM_12
 70
     0
  3
<>
 41
3.5
 42
2.0
 44
2.0
 71
     1
 73
     0
 74
     0
 77
     1
 78
     8
140
3.5
146
0.7
147
2.0
172
     1
173
     1
176
     2
177
     2
178
     3
271
     2
272
     0
340
6E
  0
DIMSTYLE
105
145
102
{ACAD_REACTORS
330
146
102
}
330
A
100
AcDbSymbolTableRecord
100
AcDbDimStyleTableRecord
  2
ME10_DIM_13
 70
     0
  3
<>
 41
3.5
 42
2.0
 44
2.0
 71
     1
 73
     0
 74
     0
 77
     1
 78
     8
140
3.5
146
0.7
147
2.0
172
     1
173
     1
176
     2
177
     2
178
     3
271
     2
272
     0
340
6E
  0
DIMSTYLE
105
150
102
{ACAD_REACTORS
330
151
102
}
330
A
100
AcDbSymbolTableRecord
100
AcDbDimStyleTableRecord
  2
ME10_DIM_14
 70
     0
  3
<>
 41
3.5
 42
2.0
 44
2.0
 71
     1
 73
     0
 74
     0
 77
     1
 78
     8
140
3.5
146
0.7
147
2.0
172
     1
173
     1
176
     2
177
     2
178
     3
271
     2
272
     0
340
6E
  0
ENDTAB
  0
TABLE
  2
BLOCK_RECORD
  5
1
330
0
100
AcDbSymbolTable
 70
     8
  0
BLOCK_RECORD
  5
1F
330
1
100
AcDbSymbolTableRecord
100
AcDbBlockTableRecord
  2
*Model_Space
340
22
  0
BLOCK_RECORD
  5
1B
330
1
100
AcDbSymbolTableRecord
100
AcDbBlockTableRecord
  2
*Paper_Space
340
1E
  0
BLOCK_RECORD
  5
23
330
1
100
AcDbSymbolTableRecord
100
AcDbBlockTableRecord
  2
*Paper_Space0
340
26
  0
BLOCK_RECORD
  5
48
330
1
100
AcDbSymbolTableRecord
100
AcDbBlockTableRecord
  2
Urheberrecht_DE-EN
340
0
102
{BLKREFS
331
6D
102
}
  0
BLOCK_RECORD
  5
11B
330
1
100
AcDbSymbolTableRecord
100
AcDbBlockTableRecord
  2
*D2
340
0
  0
BLOCK_RECORD
  5
126
330
1
100
AcDbSymbolTableRecord
100
AcDbBlockTableRecord
  2
*D3
340
0
  0
BLOCK_RECORD
  5
131
330
1
100
AcDbSymbolTableRecord
100
AcDbBlockTableRecord
  2
*D4
340
0
  0
BLOCK_RECORD
  5
13C
330
1
100
AcDbSymbolTableRecord
100
AcDbBlockTableRecord
  2
*D5
340
0
  0
BLOCK_RECORD
  5
147
330
1
100
AcDbSymbolTableRecord
100
AcDbBlockTableRecord
  2
*D6
340
0
  0
BLOCK_RECORD
  5
152
330
1
100
AcDbSymbolTableRecord
100
AcDbBlockTableRecord
  2
*D7
340
0
102
{BLKREFS
331
158
102
}
  0
ENDTAB
  0
ENDSEC
  0
SECTION
  2
BLOCKS
  0
BLOCK
  5
20
330
1F
100
AcDbEntity
  8
0
100
AcDbBlockBegin
  2
*Model_Space
 70
     0
 10
0.0
 20
0.0
 30
0.0
  3
*Model_Space
  1

  0
ENDBLK
  5
21
330
1F
100
AcDbEntity
  8
0
100
AcDbBlockEnd
  0
BLOCK
  5
1C
330
1B
100
AcDbEntity
 67
     1
  8
0
100
AcDbBlockBegin
  2
*Paper_Space
 70
     0
 10
0.0
 20
0.0
 30
0.0
  3
*Paper_Space
  1

  0
ENDBLK
  5
1D
330
1B
100
AcDbEntity
 67
     1
  8
0
100
AcDbBlockEnd
  0
BLOCK
  5
24
330
23
100
AcDbEntity
  8
0
100
AcDbBlockBegin
  2
*Paper_Space0
 70
     0
 10
0.0
 20
0.0
 30
0.0
  3
*Paper_Space0
  1

  0
ENDBLK
  5
25
330
23
100
AcDbEntity
  8
0
100
AcDbBlockEnd
  0
BLOCK
  5
49
330
48
100
AcDbEntity
  8
0
100
AcDbBlockBegin
  2
Urheberrecht_DE-EN
 70
     0
 10
70.3105722819307
 20
342.942470164098
 30
0.0
  3
Urheberrecht_DE-EN
  1

  0
MTEXT
  5
6F
330
48
100
AcDbEntity
  8
1
 62
     1
100
AcDbMText
 10
70.3105722819307
 20
342.942470164098
 30
0.0
 40
2.0
 41
0.0
 71
     7
 72
     1
  1
We own the copyright of this document. It \Pdetermined and may neither be copied or \Pmade accessible to outsiders without our\Ppermission.
  7
CONVERTER_11
 11
0.0
 21
1.0
 31
0.0
 73
     1
 44
0.90036014405762
  0
MTEXT
  5
70
330
48
100
AcDbEntity
  8
1
 62
     1
100
AcDbMText
 10
70.3105722819307
 20
286.6530832467918
 30
0.0
 40
2.0
 41
0.0
 71
     7
 72
     1
  1
F\U+00fcr diese Unterlage behalten wir das Ur-\Pheberrecht. Sie darf nur f\U+00fcr den von uns \Pbestimmten Zweck benutzt und ohne unsere \PZustimmung weder vervielf\U+00e4ltigt noch\PDritten zug\U+00e4nglich gemacht werden.
  7
CONVERTER_11
 11
0.0
 21
1.0
 31
0.0
 73
     1
 44
0.90036014405762
  0
ENDBLK
  5
4A
330
48
100
AcDbEntity
  8
0
100
AcDbBlockEnd
  0
BLOCK
  5
122
330
11B
100
AcDbEntity
  8
0
100
AcDbBlockBegin
  2
*D2
 70
     1
 10
0.0
 20
0.0
 30
0.0
  3
*D2
  1

  0
LINE
  5
11C
330
11B
100
AcDbEntity
  8
1
  6
Continuous
 62
     2
100
AcDbLine
 10
233.969688263201
 20
337.4223072173
 30
0.0
 11
233.969688263201
 21
312.4223072173
 31
0.0
  0
LINE
  5
11D
330
11B
100
AcDbEntity
  8
1
  6
Continuous
 62
     2
100
AcDbLine
 10
223.4255282656
 20
337.4223072173
 30
0.0
 11
235.969688263201
 21
337.4223072173
 31
0.0
  0
LINE
  5
11E
330
11B
100
AcDbEntity
  8
1
  6
Continuous
 62
     2
100
AcDbLine
 10
223.4255282656
 20
312.4223072173
 30
0.0
 11
235.969688263201
 21
312.4223072173
 31
0.0
  0
SOLID
  5
11F
330
11B
100
AcDbEntity
  8
1
 62
     2
100
AcDbTrace
 10
234.4304720047569
 20
333.9223072173
 30
0.0
 11
233.5089045216451
 21
333.9223072173
 31
0.0
 12
233.969688263201
 22
337.4223072173
 32
0.0
 13
233.969688263201
 23
337.4223072173
 33
0.0
  0
SOLID
  5
120
330
11B
100
AcDbEntity
  8
1
 62
     2
100
AcDbTrace
 10
233.5089045216451
 20
315.9223072173
 30
0.0
 11
234.4304720047569
 21
315.9223072173
 31
0.0
 12
233.969688263201
 22
312.4223072173
 32
0.0
 13
233.969688263201
 23
312.4223072173
 33
0.0
  0
MTEXT
  5
121
330
11B
100
AcDbEntity
  8
1
 62
     3
100
AcDbMText
 10
231.969688263201
 20
315.847978087338
 30
0.0
 40
3.5
 41
0.0
 71
     7
 72
     1
  1
\C3;%%c\C3;\C3;25\C2;\H2.45;\S^ ;\C3;
  7
CONVERTER_11
 11
0.0
 21
1.0
 31
0.0
 73
     1
 44
0.60024009603842
  0
ENDBLK
  5
123
330
11B
100
AcDbEntity
  8
0
100
AcDbBlockEnd
  0
BLOCK
  5
12D
330
126
100
AcDbEntity
  8
0
100
AcDbBlockBegin
  2
*D3
 70
     1
 10
0.0
 20
0.0
 30
0.0
  3
*D3
  1

  0
LINE
  5
127
330
126
100
AcDbEntity
  8
1
  6
Continuous
 62
     2
100
AcDbLine
 10
242.40700432592
 20
356.9223072173
 30
0.0
 11
242.40700432592
 21
292.9223072173
 31
0.0
  0
LINE
  5
128
330
126
100
AcDbEntity
  8
1
  6
Continuous
 62
     2
100
AcDbLine
 10
214.0113147033
 20
356.9223072173
 30
0.0
 11
244.40700432592
 21
356.9223072173
 31
0.0
  0
LINE
  5
129
330
126
100
AcDbEntity
  8
1
  6
Continuous
 62
     2
100
AcDbLine
 10
214.0113147033
 20
292.9223072173
 30
0.0
 11
244.40700432592
 21
292.9223072173
 31
0.0
  0
SOLID
  5
12A
330
126
100
AcDbEntity
  8
1
 62
     2
100
AcDbTrace
 10
242.8677880674759
 20
353.4223072173
 30
0.0
 11
241.9462205843641
 21
353.4223072173
 31
0.0
 12
242.40700432592
 22
356.9223072173
 32
0.0
 13
242.40700432592
 23
356.9223072173
 33
0.0
  0
SOLID
  5
12B
330
126
100
AcDbEntity
  8
1
 62
     2
100
AcDbTrace
 10
241.9462205843641
 20
296.4223072173
 30
0.0
 11
242.8677880674759
 21
296.4223072173
 31
0.0
 12
242.40700432592
 22
292.9223072173
 32
0.0
 13
242.40700432592
 23
292.9223072173
 33
0.0
  0
MTEXT
  5
12C
330
126
100
AcDbEntity
  8
1
 62
     3
100
AcDbMText
 10
240.40700432592
 20
316.716525329089
 30
0.0
 40
3.5
 41
0.0
 71
     7
 72
     1
  1
\C3;%%c\C3;\C3;64\C2;\H2.45;\S^ ;\C3;
  7
CONVERTER_11
 11
0.0
 21
1.0
 31
0.0
 73
     1
 44
0.60024009603842
  0
ENDBLK
  5
12E
330
126
100
AcDbEntity
  8
0
100
AcDbBlockEnd
  0
BLOCK
  5
138
330
131
100
AcDbEntity
  8
0
100
AcDbBlockBegin
  2
*D4
 70
     1
 10
0.0
 20
0.0
 30
0.0
  3
*D4
  1

  0
LINE
  5
132
330
131
100
AcDbEntity
  8
1
  6
Continuous
 62
     2
100
AcDbLine
 10
221.4255282656
 20
369.371121948792
 30
0.0
 11
137.4255282656
 21
369.371121948792
 31
0.0
  0
LINE
  5
133
330
131
100
AcDbEntity
  8
1
  6
Continuous
 62
     2
100
AcDbLine
 10
221.4255282656
 20
349.508093655
 30
0.0
 11
221.4255282656
 21
371.371121948792
 31
0.0
  0
LINE
  5
134
330
131
100
AcDbEntity
  8
1
  6
Continuous
 62
     2
100
AcDbLine
 10
137.4255282656
 20
358.4222915203
 30
0.0
 11
137.4255282656
 21
371.371121948792
 31
0.0
  0
SOLID
  5
135
330
131
100
AcDbEntity
  8
1
 62
     2
100
AcDbTrace
 10
217.9255282656
 20
368.9103382072361
 30
0.0
 11
217.9255282656
 21
369.8319056903479
 31
0.0
 12
221.4255282656
 22
369.371121948792
 32
0.0
 13
221.4255282656
 23
369.371121948792
 33
0.0
  0
SOLID
  5
136
330
131
100
AcDbEntity
  8
1
 62
     2
100
AcDbTrace
 10
140.9255282656
 20
369.8319056903479
 30
0.0
 11
140.9255282656
 21
368.9103382072361
 31
0.0
 12
137.4255282656
 22
369.371121948792
 32
0.0
 13
137.4255282656
 23
369.371121948792
 33
0.0
  0
MTEXT
  5
137
330
131
100
AcDbEntity
  8
1
 62
     3
100
AcDbMText
 10
178.640150161635
 20
371.371121948792
 30
0.0
 40
3.5
 41
0.0
 71
     7
 72
     1
  1
\C3;\C3;\C3;84\C2;\H2.45;\S^ ;\C3;
  7
CONVERTER_11
 11
0.9999999999970619
 21
2.424068405545306E-6
 31
0.0
 73
     1
 44
0.60024009603842
  0
ENDBLK
  5
139
330
131
100
AcDbEntity
  8
0
100
AcDbBlockEnd
  0
BLOCK
  5
143
330
13C
100
AcDbEntity
  8
0
100
AcDbBlockBegin
  2
*D5
 70
     1
 10
0.0
 20
0.0
 30
0.0
  3
*D5
  1

  0
LINE
  5
13D
330
13C
100
AcDbEntity
  8
1
  6
Continuous
 62
     2
100
AcDbLine
 10
221.4255282656
 20
377.188047124546
 30
0.0
 11
111.4255282656
 21
377.188047124546
 31
0.0
  0
LINE
  5
13E
330
13C
100
AcDbEntity
  8
1
  6
Continuous
 62
     2
100
AcDbLine
 10
221.4255282656
 20
349.508093655
 30
0.0
 11
221.4255282656
 21
379.188047124546
 31
0.0
  0
LINE
  5
13F
330
13C
100
AcDbEntity
  8
1
  6
Continuous
 62
     2
100
AcDbLine
 10
111.4255282656
 20
358.4223072173
 30
0.0
 11
111.4255282656
 21
379.188047124546
 31
0.0
  0
SOLID
  5
140
330
13C
100
AcDbEntity
  8
1
 62
     2
100
AcDbTrace
 10
217.9255282656
 20
376.7272633829901
 30
0.0
 11
217.9255282656
 21
377.6488308661019
 31
0.0
 12
221.4255282656
 22
377.188047124546
 32
0.0
 13
221.4255282656
 23
377.188047124546
 33
0.0
  0
SOLID
  5
141
330
13C
100
AcDbEntity
  8
1
 62
     2
100
AcDbTrace
 10
114.9255282656
 20
377.6488308661019
 30
0.0
 11
114.9255282656
 21
376.7272633829901
 31
0.0
 12
111.4255282656
 22
377.188047124546
 32
0.0
 13
111.4255282656
 23
377.188047124546
 33
0.0
  0
MTEXT
  5
142
330
13C
100
AcDbEntity
  8
1
 62
     3
100
AcDbMText
 10
164.44747247102
 20
379.188047124546
 30
0.0
 40
3.5
 41
0.0
 71
     7
 72
     1
  1
\C3;\C3;\C3;110\C2;\H2.45;\S^ ;\C3;
  7
CONVERTER_11
 11
0.9999999999970619
 21
2.424068405545306E-6
 31
0.0
 73
     1
 44
0.60024009603842
  0
ENDBLK
  5
144
330
13C
100
AcDbEntity
  8
0
100
AcDbBlockEnd
  0
BLOCK
  5
14E
330
147
100
AcDbEntity
  8
0
100
AcDbBlockBegin
  2
*D6
 70
     1
 10
0.0
 20
0.0
 30
0.0
  3
*D6
  1

  0
LINE
  5
148
330
147
100
AcDbEntity
  8
1
  6
Continuous
 62
     2
100
AcDbLine
 10
221.4255282656
 20
385.129050477693
 30
0.0
 11
79.4255282656
 21
385.129050477693
 31
0.0
  0
LINE
  5
149
330
147
100
AcDbEntity
  8
1
  6
Continuous
 62
     2
100
AcDbLine
 10
221.4255282656
 20
349.508093655
 30
0.0
 11
221.4255282656
 21
387.129050477693
 31
0.0
  0
LINE
  5
14A
330
147
100
AcDbEntity
  8
1
  6
Continuous
 62
     2
100
AcDbLine
 10
79.4255282656
 20
348.4983343975
 30
0.0
 11
79.4255282656
 21
387.129050477693
 31
0.0
  0
SOLID
  5
14B
330
147
100
AcDbEntity
  8
1
 62
     2
100
AcDbTrace
 10
217.9255282656
 20
384.6682667361371
 30
0.0
 11
217.9255282656
 21
385.5898342192489
 31
0.0
 12
221.4255282656
 22
385.129050477693
 32
0.0
 13
221.4255282656
 23
385.129050477693
 33
0.0
  0
SOLID
  5
14C
330
147
100
AcDbEntity
  8
1
 62
     2
100
AcDbTrace
 10
82.9255282656
 20
385.5898342192489
 30
0.0
 11
82.9255282656
 21
384.6682667361371
 31
0.0
 12
79.4255282656
 22
385.129050477693
 32
0.0
 13
79.4255282656
 23
385.129050477693
 33
0.0
  0
MTEXT
  5
14D
330
147
100
AcDbEntity
  8
1
 62
     3
100
AcDbMText
 10
155.09384369873
 20
387.129050477693
 30
0.0
 40
3.5
 41
0.0
 71
     7
 72
     1
  1
\C3;\C3;\C3;142\C2;\H2.45;\S^ ;\C3;
  7
CONVERTER_11
 11
0.9999999999970619
 21
2.424068405545306E-6
 31
0.0
 73
     1
 44
0.60024009603842
  0
ENDBLK
  5
14F
330
147
100
AcDbEntity
  8
0
100
AcDbBlockEnd
  0
BLOCK
  5
156
330
152
100
AcDbEntity
  8
0
100
AcDbBlockBegin
  2
*D7
 70
     1
 10
0.0
 20
0.0
 30
0.0
  3
*D7
  1

  0
LINE
  5
153
330
152
100
AcDbEntity
  8
1
  6
Continuous
 62
     2
100
AcDbLine
 10
147.4375747553177
 20
360.2007529644002
 30
0.0
 11
137.7091984621112
 21
350.7245453577565
 31
0.0
  0
SOLID
  5
154
330
152
100
AcDbEntity
  8
1
 62
     2
100
AcDbTrace
 10
139.8948354539667
 20
353.4967849931983
 30
0.0
 11
140.5378700946776
 21
352.8366387391192
 31
0.0
 12
137.7091984621112
 22
350.7245453577565
 32
0.0
 13
137.7091984621112
 23
350.7245453577565
 33
0.0
  0
MTEXT
  5
155
330
152
100
AcDbEntity
  8
1
 62
     3
100
AcDbMText
 10
141.328600929274
 20
357.0421395355817
 30
0.0
 40
3.5
 41
0.0
 71
     7
 72
     1
  1
\C3; R\C3;\C3;1\C2;\H2.45;\S^ ;\C3;
  7
CONVERTER_11
 11
0.7163298034888627
 21
0.6977618595435031
 31
0.0
 73
     1
 44
0.60024009603842
  0
ENDBLK
  5
157
330
152
100
AcDbEntity
  8
0
100
AcDbBlockEnd
  0
ENDSEC
  0
SECTION
  2
ENTITIES
  0
INSERT
  5
6D
330
1F
100
AcDbEntity
  8
0
100
AcDbBlockReference
  2
Urheberrecht_DE-EN
 10
70.3105722819307
 20
342.942470164098
 30
0.0
  0
LINE
  5
71
330
1F
100
AcDbEntity
  8
VERERBUNG
  6
Continuous
 62
     7
100
AcDbLine
 10
79.4255282656
 20
303.3462799404
 30
0.0
 11
79.4255282656
 21
317.6523072173
 31
0.0
  0
LINE
  5
72
330
1F
100
AcDbEntity
  8
VERERBUNG
  6
Continuous
 62
     7
100
AcDbLine
 10
79.4255282656
 20
332.1923072173
 30
0.0
 11
79.4255282656
 21
346.4983343975
 31
0.0
  0
LINE
  5
73
330
1F
100
AcDbEntity
  8
VERERBUNG
  6
Continuous
 62
     7
100
AcDbLine
 10
80.4255282656
 20
317.2924255375
 30
0.0
 11
80.4255282656
 21
318.6523072173
 31
0.0
  0
LINE
  5
74
330
1F
100
AcDbEntity
  8
VERERBUNG
  6
Continuous
 62
     7
100
AcDbLine
 10
80.4255282656
 20
331.1923072173
 30
0.0
 11
80.4255282656
 21
332.5521888972
 31
0.0
  0
LINE
  5
75
330
1F
100
AcDbEntity
  8
VERERBUNG
  6
Continuous
 62
     9
100
AcDbLine
 10
80.5654852013
 20
347.6968824748
 30
0.0
 11
80.5654852013
 21
334.4843351487
 31
0.0
  0
LINE
  5
76
330
1F
100
AcDbEntity
  8
VERERBUNG
  6
Continuous
 62
     9
100
AcDbLine
 10
80.5654852013
 20
315.360279286
 30
0.0
 11
80.5654852013
 21
302.1477319598
 31
0.0
  0
LINE
  5
77
330
1F
100
AcDbEntity
  8
VERERBUNG
  6
Continuous
 62
     9
100
AcDbLine
 10
83.9255282656
 20
314.9659943354
 30
0.0
 11
83.9255282656
 21
318.6523072173
 31
0.0
  0
LINE
  5
78
330
1F
100
AcDbEntity
  8
VERERBUNG
  6
Continuous
 62
     9
100
AcDbLine
 10
83.9255282656
 20
331.1923072173
 30
0.0
 11
83.9255282656
 21
334.8786200993
 31
0.0
  0
LINE
  5
79
330
1F
100
AcDbEntity
  8
VERERBUNG
  6
Continuous
 62
     7
100
AcDbLine
 10
85.4255282656
 20
332.3640949359
 30
0.0
 11
85.4255282656
 21
317.4805194988
 31
0.0
  0
LWPOLYLINE
  5
7A
330
1F
100
AcDbEntity
  8
BEZUGSACHSEN
  6
DOT_CENTER
 62
     7
100
AcDbPolyline
 90
        2
 70
     0
 43
0.25
 10
102.4255282656
 20
324.9223072173
 10
102.4255282656
 20
318.1723072173
  0
LWPOLYLINE
  5
7B
330
1F
100
AcDbEntity
  8
BEZUGSACHSEN
  6
DOT_CENTER
 62
     7
100
AcDbPolyline
 90
        2
 70
     0
 43
0.25
 10
102.4255282656
 20
324.9223072173
 10
102.4255282656
 20
331.6723072173
  0
LINE
  5
7C
330
1F
100
AcDbEntity
  8
VERERBUNG
  6
Continuous
 62
     7
100
AcDbLine
 10
79.4255282656
 20
317.6523072173
 30
0.0
 11
80.4255282656
 21
318.6523072173
 31
0.0
  0
LINE
  5
7D
330
1F
100
AcDbEntity
  8
VERERBUNG
  6
Continuous
 62
     7
100
AcDbLine
 10
80.4255282656
 20
331.1923072173
 30
0.0
 11
79.4255282656
 21
332.1923072173
 31
0.0
  0
LINE
  5
7E
330
1F
100
AcDbEntity
  8
VERERBUNG
  6
Continuous
 62
     7
100
AcDbLine
 10
109.4255282656
 20
349.142731367
 30
0.0
 11
109.4255282656
 21
300.7018830677
 31
0.0
  0
LINE
  5
7F
330
1F
100
AcDbEntity
  8
VERERBUNG
  6
Continuous
 62
     9
100
AcDbLine
 10
110.0956384986
 20
300.8814385635
 30
0.0
 11
110.0956384986
 21
348.9631758712
 31
0.0
  0
LINE
  5
80
330
1F
100
AcDbEntity
  8
VERERBUNG
  6
Continuous
 62
     9
100
AcDbLine
 10
110.2509299257
 20
300.9018830677
 30
0.0
 11
110.2509299257
 21
348.942731367
 31
0.0
  0
LINE
  5
81
330
1F
100
AcDbEntity
  8
VERERBUNG
  6
Continuous
 62
     9
100
AcDbLine
 10
111.1233586351
 20
300.9018830677
 30
0.0
 11
111.1233586351
 21
348.942731367
 31
0.0
  0
LINE
  5
82
330
1F
100
AcDbEntity
  8
VERERBUNG
  6
Continuous
 62
     7
100
AcDbLine
 10
111.4255282656
 20
356.4223072173
 30
0.0
 11
111.4255282656
 21
293.4223072173
 31
0.0
  0
LWPOLYLINE
  5
83
330
1F
100
AcDbEntity
  8
BEZUGSACHSEN
  6
DOT_CENTER
 62
     7
100
AcDbPolyline
 90
        2
 70
     0
 43
0.25
 10
118.4255282656
 20
348.4229502975
 10
118.4255282656
 20
359.4223072173
  0
LINE
  5
84
330
1F
100
AcDbEntity
  8
VERERBUNG
  6
Continuous
 62
     7
100
AcDbLine
 10
131.3005282656
 20
353.8199024815
 30
0.0
 11
132.8030273404
 21
356.4223072173
 31
0.0
  0
LINE
  5
85
330
1F
100
AcDbEntity
  8
FASEN
  6
Continuous
 62
     9
100
AcDbLine
 10
123.5625386687
 20
304.6723072173
 30
0.0
 11
123.5625386687
 21
305.0723072173
 31
0.0
  0
LINE
  5
86
330
1F
100
AcDbEntity
  8
VERERBUNG
  6
Continuous
 62
     9
100
AcDbLine
 10
79.4255282656
 20
316.7457194308
 30
0.0
 11
80.4255282656
 21
317.2924255375
 31
0.0
  0
LINE
  5
87
330
1F
100
AcDbEntity
  8
0
  6
Continuous
 62
     7
100
AcDbLine
 10
154.9255282656
 20
292.9223072173
 30
0.0
 11
167.4072419367
 21
292.9223072173
 31
0.0
  0
LINE
  5
88
330
1F
100
AcDbEntity
  8
0
  6
Continuous
 62
     7
100
AcDbLine
 10
183.4169946455
 20
292.9223072173
 30
0.0
 11
189.4206519113
 21
292.9223072173
 31
0.0
  0
LINE
  5
89
330
1F
100
AcDbEntity
  8
0
  6
Continuous
 62
     7
100
AcDbLine
 10
205.43040462
 20
292.9223072173
 30
0.0
 11
212.0113147033
 21
292.9223072173
 31
0.0
  0
LINE
  5
8A
330
1F
100
AcDbEntity
  8
VERERBUNG
  6
Continuous
 62
     7
100
AcDbLine
 10
111.4255282656
 20
293.4223072173
 30
0.0
 11
126.0480291909
 21
293.4223072173
 31
0.0
  0
LINE
  5
8B
330
1F
100
AcDbEntity
  8
VERERBUNG
  6
Continuous
 62
     7
100
AcDbLine
 10
132.8030273404
 20
293.4223072173
 30
0.0
 11
137.4255282656
 21
293.4223072173
 31
0.0
  0
LINE
  5
8C
330
1F
100
AcDbEntity
  8
VERERBUNG
  6
Continuous
 62
     7
100
AcDbLine
 10
128.5505282656
 20
297.4223072173
 30
0.0
 11
130.3005282656
 21
297.4223072173
 31
0.0
  0
LINE
  5
8D
330
1F
100
AcDbEntity
  8
VERERBUNG
  6
Continuous
 62
     7
100
AcDbLine
 10
131.3005282656
 20
296.0247119532
 30
0.0
 11
132.8030273404
 21
293.4223072173
 31
0.0
  0
LINE
  5
8E
330
1F
100
AcDbEntity
  8
0
  6
Continuous
 62
     7
100
AcDbLine
 10
126.0480291909
 20
356.4223072173
 30
0.0
 11
126.0480291909
 21
332.9398072173
 31
0.0
  0
LINE
  5
8F
330
1F
100
AcDbEntity
  8
0
  6
Continuous
 62
     7
100
AcDbLine
 10
126.0480291909
 20
316.9048072173
 30
0.0
 11
126.0480291909
 21
305.0723072173
 31
0.0
  0
LINE
  5
90
330
1F
100
AcDbEntity
  8
0
  6
Continuous
 62
     7
100
AcDbLine
 10
126.0480291909
 20
300.463617555
 30
0.0
 11
126.0480291909
 21
293.4223072173
 31
0.0
  0
LINE
  5
91
330
1F
100
AcDbEntity
  8
0
  6
Continuous
 62
     7
100
AcDbLine
 10
127.5505282656
 20
353.819879945
 30
0.0
 11
127.5505282656
 21
332.9398072173
 31
0.0
  0
LINE
  5
92
330
1F
100
AcDbEntity
  8
0
  6
Continuous
 62
     7
100
AcDbLine
 10
127.5505282656
 20
316.9048072173
 30
0.0
 11
127.5505282656
 21
305.0723072173
 31
0.0
  0
LINE
  5
93
330
1F
100
AcDbEntity
  8
0
  6
Continuous
 62
     7
100
AcDbLine
 10
127.5505282656
 20
296.0247182659
 30
0.0
 11
127.5505282656
 21
304.4716959795
 31
0.0
  0
LINE
  5
94
330
1F
100
AcDbEntity
  8
0
  6
Continuous
 62
     9
100
AcDbLine
 10
128.5505282656
 20
297.4223072173
 30
0.0
 11
128.5505282656
 21
317.2223072173
 31
0.0
  0
LINE
  5
95
330
1F
100
AcDbEntity
  8
0
  6
Continuous
 62
     9
100
AcDbLine
 10
128.5505282656
 20
332.6223072173
 30
0.0
 11
128.5505282656
 21
352.4223072173
 31
0.0
  0
LINE
  5
96
330
1F
100
AcDbEntity
  8
0
  6
Continuous
 62
     7
100
AcDbLine
 10
138.4255282656
 20
299.4223072173
 30
0.0
 11
152.9255282656
 21
299.4223072173
 31
0.0
  0
LINE
  5
97
330
1F
100
AcDbEntity
  8
FASEN
  6
Continuous
 62
     7
100
AcDbLine
 10
116.7611407099
 20
300.463617555
 30
0.0
 11
126.0480291909
 21
300.463617555
 31
0.0
  0
LINE
  5
98
330
1F
100
AcDbEntity
  8
0
  6
Continuous
 62
     7
100
AcDbLine
 10
132.8030273404
 20
300.463617555
 30
0.0
 11
137.4255282656
 21
300.463617555
 31
0.0
  0
LINE
  5
99
330
1F
100
AcDbEntity
  8
VERERBUNG
  6
Continuous
 62
     7
100
AcDbLine
 10
111.1233586351
 20
300.9018830677
 30
0.0
 11
110.2509299257
 21
300.9018830677
 31
0.0
  0
LINE
  5
9A
330
1F
100
AcDbEntity
  8
VERERBUNG
  6
Continuous
 62
     7
100
AcDbLine
 10
80.5654852013
 20
302.1477319598
 30
0.0
 11
109.4255282656
 21
300.7018830677
 31
0.0
  0
LINE
  5
9B
330
1F
100
AcDbEntity
  8
VERERBUNG
  6
Continuous
 62
     9
100
AcDbLine
 10
80.4255282656
 20
332.5521888972
 30
0.0
 11
79.4255282656
 21
333.0988950039
 31
0.0
  0
LINE
  5
9C
330
1F
100
AcDbEntity
  8
0
  6
Continuous
 62
     9
100
AcDbLine
 10
130.3005282656
 20
297.4223072173
 30
0.0
 11
130.3005282656
 21
317.2223072173
 31
0.0
  0
LINE
  5
9D
330
1F
100
AcDbEntity
  8
0
  6
Continuous
 62
     9
100
AcDbLine
 10
130.3005282656
 20
332.6223072173
 30
0.0
 11
130.3005282656
 21
352.4223072173
 31
0.0
  0
LINE
  5
9E
330
1F
100
AcDbEntity
  8
0
  6
Continuous
 62
     7
100
AcDbLine
 10
131.3005282656
 20
296.0247182659
 30
0.0
 11
131.3005282656
 21
304.4716959795
 31
0.0
  0
LINE
  5
9F
330
1F
100
AcDbEntity
  8
0
  6
Continuous
 62
     7
100
AcDbLine
 10
131.3005282656
 20
305.0723072173
 30
0.0
 11
131.3005282656
 21
316.9048072173
 31
0.0
  0
LINE
  5
A0
330
1F
100
AcDbEntity
  8
0
  6
Continuous
 62
     7
100
AcDbLine
 10
131.3005282656
 20
332.9398072173
 30
0.0
 11
131.3005282656
 21
353.819879945
 31
0.0
  0
LINE
  5
A1
330
1F
100
AcDbEntity
  8
0
  6
Continuous
 62
     7
100
AcDbLine
 10
132.8030273404
 20
356.4223072173
 30
0.0
 11
132.8030273404
 21
332.9398072173
 31
0.0
  0
LINE
  5
A2
330
1F
100
AcDbEntity
  8
0
  6
Continuous
 62
     7
100
AcDbLine
 10
132.8030273404
 20
316.9048072173
 30
0.0
 11
132.8030273404
 21
305.0723072173
 31
0.0
  0
LINE
  5
A3
330
1F
100
AcDbEntity
  8
0
  6
Continuous
 62
     7
100
AcDbLine
 10
132.8030273404
 20
300.463617555
 30
0.0
 11
132.8030273404
 21
293.4223072173
 31
0.0
  0
LINE
  5
A4
330
1F
100
AcDbEntity
  8
FASEN
  6
Continuous
 62
     7
100
AcDbLine
 10
123.5625386687
 20
304.6723072173
 30
0.0
 11
127.5608935309
 21
304.6723072173
 31
0.0
  0
LINE
  5
A5
330
1F
100
AcDbEntity
  8
0
  6
Continuous
 62
     7
100
AcDbLine
 10
131.2901630004
 20
304.6723072173
 30
0.0
 11
137.4255282656
 21
304.6723072173
 31
0.0
  0
LINE
  5
A6
330
1F
100
AcDbEntity
  8
0
  6
Continuous
 62
     7
100
AcDbLine
 10
123.5625386687
 20
305.0723072173
 30
0.0
 11
127.5505282656
 21
305.0723072173
 31
0.0
  0
LINE
  5
A7
330
1F
100
AcDbEntity
  8
FASEN
  6
Continuous
 62
     7
100
AcDbLine
 10
127.5505282656
 20
305.0723072173
 30
0.0
 11
127.5608935309
 21
305.0723072173
 31
0.0
  0
LINE
  5
A8
330
1F
100
AcDbEntity
  8
FASEN
  6
Continuous
 62
     7
100
AcDbLine
 10
131.2901630004
 20
305.0723072173
 30
0.0
 11
131.3005282656
 21
305.0723072173
 31
0.0
  0
LINE
  5
A9
330
1F
100
AcDbEntity
  8
0
  6
Continuous
 62
     7
100
AcDbLine
 10
131.3005282656
 20
305.0723072173
 30
0.0
 11
137.4255282656
 21
305.0723072173
 31
0.0
  0
LINE
  5
AA
330
1F
100
AcDbEntity
  8
0
  6
Continuous
 62
     7
100
AcDbLine
 10
137.4255282656
 20
356.4222915203
 30
0.0
 11
137.4255282656
 21
332.9398072173
 31
0.0
  0
LINE
  5
AB
330
1F
100
AcDbEntity
  8
0
  6
Continuous
 62
     7
100
AcDbLine
 10
137.4255282656
 20
293.4223072613
 30
0.0
 11
137.4255282656
 21
316.9048072173
 31
0.0
  0
LINE
  5
AC
330
1F
100
AcDbEntity
  8
RUNDUNGEN
  6
Continuous
 62
     7
100
AcDbLine
 10
137.4255282656
 20
316.9048072173
 30
0.0
 11
137.4255282656
 21
322.6223072173
 31
0.0
  0
LINE
  5
AD
330
1F
100
AcDbEntity
  8
RUNDUNGEN
  6
Continuous
 62
     7
100
AcDbLine
 10
137.4255282656
 20
327.2223072173
 30
0.0
 11
137.4255282656
 21
332.9398072173
 31
0.0
  0
LINE
  5
AE
330
1F
100
AcDbEntity
  8
RUNDUNGEN
  6
Continuous
 62
     9
100
AcDbLine
 10
138.4255282656
 20
299.4223072173
 30
0.0
 11
138.4255282656
 21
350.4223072173
 31
0.0
  0
LINE
  5
AF
330
1F
100
AcDbEntity
  8
VERERBUNG
  6
Continuous
 62
     7
100
AcDbLine
 10
110.0956384986
 20
300.8814385635
 30
0.0
 11
109.4255282656
 21
300.7018830677
 31
0.0
  0
LWPOLYLINE
  5
B0
330
1F
100
AcDbEntity
  8
BOHRUNGEN
  6
DASHED
 62
     8
100
AcDbPolyline
 90
        2
 70
     0
 43
0.35
 10
221.4255282656
 20
312.4223072173
 10
188.7396969062
 20
312.4223072173
  0
LWPOLYLINE
  5
B1
330
1F
100
AcDbEntity
  8
BOHRUNGEN
  6
DASHED
 62
     8
100
AcDbPolyline
 90
        2
 70
     0
 43
0.35
 10
188.7396969062
 20
312.4223072173
 10
166.7262869316
 20
312.4223072173
  0
LWPOLYLINE
  5
B2
330
1F
100
AcDbEntity
  8
BOHRUNGEN
  6
DASHED
 62
     8
100
AcDbPolyline
 90
        2
 70
     0
 43
0.35
 10
166.7262869316
 20
312.4223072173
 10
165.4255282656
 20
312.4223072173
  0
LINE
  5
B3
330
1F
100
AcDbEntity
  8
VERERBUNG
  6
Continuous
 62
     7
100
AcDbLine
 10
126.0480291909
 20
293.4223072173
 30
0.0
 11
127.5505282656
 21
296.0247119532
 31
0.0
  0
LINE
  5
B4
330
1F
100
AcDbEntity
  8
VERERBUNG
  6
Continuous
 62
     9
100
AcDbLine
 10
84.9129353034
 20
315.6523072173
 30
0.0
 11
80.0972030761
 21
315.6523072173
 31
0.0
  0
LINE
  5
B5
330
1F
100
AcDbEntity
  8
0
  6
Continuous
 62
     7
100
AcDbLine
 10
137.4255282656
 20
316.9048072173
 30
0.0
 11
130.7164151562
 21
316.9048072173
 31
0.0
  0
LINE
  5
B6
330
1F
100
AcDbEntity
  8
0
  6
Continuous
 62
     7
100
AcDbLine
 10
124.3930282656
 20
316.9048072173
 30
0.0
 11
128.1346413751
 21
316.9048072173
 31
0.0
  0
LINE
  5
B7
330
1F
100
AcDbEntity
  8
0
  6
Continuous
 62
     7
100
AcDbLine
 10
128.5505282656
 20
317.2223072173
 30
0.0
 11
130.3005282656
 21
317.2223072173
 31
0.0
  0
LINE
  5
B8
330
1F
100
AcDbEntity
  8
VERERBUNG
  6
Continuous
 62
     7
100
AcDbLine
 10
83.9255282656
 20
318.6523072173
 30
0.0
 11
80.4255282656
 21
318.6523072173
 31
0.0
  0
LINE
  5
B9
330
1F
100
AcDbEntity
  8
VERERBUNG
  6
Continuous
 62
     7
100
AcDbLine
 10
126.0480291909
 20
356.4223072173
 30
0.0
 11
127.5505282656
 21
353.8199024815
 31
0.0
  0
LINE
  5
BA
330
1F
100
AcDbEntity
  8
RUNDUNGEN
  6
Continuous
 62
     9
100
AcDbLine
 10
152.9255282656
 20
299.4223072173
 30
0.0
 11
152.9255282656
 21
350.4223072173
 31
0.0
  0
LINE
  5
BB
330
1F
100
AcDbEntity
  8
RUNDUNGEN
  6
Continuous
 62
     7
100
AcDbLine
 10
153.9255282656
 20
355.9223072173
 30
0.0
 11
153.9255282656
 21
293.9223072173
 31
0.0
  0
LINE
  5
BC
330
1F
100
AcDbEntity
  8
RUNDUNGEN
  6
Continuous
 62
     9
100
AcDbLine
 10
154.9255282656
 20
356.9223072173
 30
0.0
 11
154.9255282656
 21
292.9223072173
 31
0.0
  0
LWPOLYLINE
  5
BD
330
1F
100
AcDbEntity
  8
BEZUGSACHSEN
  6
DOT_CENTER
 62
     7
100
AcDbPolyline
 90
        2
 70
     0
 43
0.25
 10
224.4255282656
 20
324.9223072173
 10
76.4255282656
 20
324.9223072173
  0
LINE
  5
BE
330
1F
100
AcDbEntity
  8
VERERBUNG
  6
Continuous
 62
     7
100
AcDbLine
 10
83.9255282656
 20
331.1923072173
 30
0.0
 11
80.4255282656
 21
331.1923072173
 31
0.0
  0
LINE
  5
BF
330
1F
100
AcDbEntity
  8
0
  6
Continuous
 62
     7
100
AcDbLine
 10
128.5505282656
 20
332.6223072173
 30
0.0
 11
130.3005282656
 21
332.6223072173
 31
0.0
  0
LINE
  5
C0
330
1F
100
AcDbEntity
  8
0
  6
Continuous
 62
     7
100
AcDbLine
 10
124.3930282656
 20
332.9398072173
 30
0.0
 11
128.1346413751
 21
332.9398072173
 31
0.0
  0
LINE
  5
C1
330
1F
100
AcDbEntity
  8
0
  6
Continuous
 62
     7
100
AcDbLine
 10
130.7164151562
 20
332.9398072173
 30
0.0
 11
137.4255282656
 21
332.9398072173
 31
0.0
  0
LINE
  5
C2
330
1F
100
AcDbEntity
  8
VERERBUNG
  6
Continuous
 62
     9
100
AcDbLine
 10
80.0972030761
 20
334.1923072173
 30
0.0
 11
84.9129353034
 21
334.1923072173
 31
0.0
  0
LWPOLYLINE
  5
C3
330
1F
100
AcDbEntity
  8
BOHRUNGEN
  6
DASHED
 62
     8
100
AcDbPolyline
 90
        2
 70
     0
 43
0.35
 10
166.7262869316
 20
312.4223072173
 10
167.4072419367
 20
292.9223072173
  0
LWPOLYLINE
  5
C4
330
1F
100
AcDbEntity
  8
BOHRUNGEN
  6
DASHED
 62
     8
100
AcDbPolyline
 90
        2
 70
     0
 43
0.35
 10
165.4255282656
 20
312.4223072173
 10
165.4255282656
 20
337.4223072173
  0
LWPOLYLINE
  5
C5
330
1F
100
AcDbEntity
  8
BOHRUNGEN
  6
DASHED
 62
     8
100
AcDbPolyline
 90
        2
 70
     0
 43
0.35
 10
221.4255282656
 20
337.4223072173
 10
165.4255282656
 20
337.4223072173
  0
LINE
  5
C6
330
1F
100
AcDbEntity
  8
VERERBUNG
  6
Continuous
 62
     7
100
AcDbLine
 10
110.0956384986
 20
348.9631758712
 30
0.0
 11
109.4255282656
 21
349.142731367
 31
0.0
  0
LWPOLYLINE
  5
C7
330
1F
100
AcDbEntity
  8
BEZUGSACHSEN
  6
DOT_CENTER
 62
     7
100
AcDbPolyline
 90
        2
 70
     0
 43
0.25
 10
175.5047240893208
 20
290.2704241239106
 10
174.5532103859437
 20
317.5182115353532
  0
LINE
  5
C8
330
1F
100
AcDbEntity
  8
VERERBUNG
  6
Continuous
 62
     7
100
AcDbLine
 10
111.1233586351
 20
348.942731367
 30
0.0
 11
110.2509299257
 21
348.942731367
 31
0.0
  0
LWPOLYLINE
  5
C9
330
1F
100
AcDbEntity
  8
BOHRUNGEN
  6
DASHED
 62
     8
100
AcDbPolyline
 90
        2
 70
     0
 43
0.35
 10
182.7360396404
 20
312.4223072173
 10
183.4169946455
 20
292.9223072173
  0
LINE
  5
CA
330
1F
100
AcDbEntity
  8
VERERBUNG
  6
Continuous
 62
     7
100
AcDbLine
 10
80.5654852013
 20
347.6968824748
 30
0.0
 11
109.4255282656
 21
349.142731367
 31
0.0
  0
LINE
  5
CB
330
1F
100
AcDbEntity
  8
0
  6
Continuous
 62
     7
100
AcDbLine
 10
138.4255282656
 20
350.4223072173
 30
0.0
 11
152.9255282656
 21
350.4223072173
 31
0.0
  0
LINE
  5
CC
330
1F
100
AcDbEntity
  8
VERERBUNG
  6
Continuous
 62
     7
100
AcDbLine
 10
128.5505282656
 20
352.4223072173
 30
0.0
 11
130.3005282656
 21
352.4223072173
 31
0.0
  0
LINE
  5
CD
330
1F
100
AcDbEntity
  8
VERERBUNG
  6
Continuous
 62
     7
100
AcDbLine
 10
111.4255282656
 20
356.4223072173
 30
0.0
 11
113.4255282656
 21
356.4223072173
 31
0.0
  0
LINE
  5
CE
330
1F
100
AcDbEntity
  8
VERERBUNG
  6
Continuous
 62
     7
100
AcDbLine
 10
123.4255282656
 20
356.4223072173
 30
0.0
 11
126.0480291909
 21
356.4223072173
 31
0.0
  0
LINE
  5
CF
330
1F
100
AcDbEntity
  8
VERERBUNG
  6
Continuous
 62
     7
100
AcDbLine
 10
132.8030273404
 20
356.4223072173
 30
0.0
 11
137.4255282656
 21
356.4223072173
 31
0.0
  0
LINE
  5
D0
330
1F
100
AcDbEntity
  8
0
  6
Continuous
 62
     7
100
AcDbLine
 10
154.9255282656
 20
356.9223072173
 30
0.0
 11
212.0113147033
 21
356.9223072173
 31
0.0
  0
LWPOLYLINE
  5
D1
330
1F
100
AcDbEntity
  8
BOHRUNGEN
  6
DASHED
 62
     8
100
AcDbPolyline
 90
        2
 70
     0
 43
0.35
 10
188.7396969062
 20
312.4223072173
 10
189.4206519113
 20
292.9223072173
  0
LWPOLYLINE
  5
D2
330
1F
100
AcDbEntity
  8
BEZUGSACHSEN
  6
DOT_CENTER
 62
     7
100
AcDbPolyline
 90
        2
 70
     0
 43
0.25
 10
197.4913222837266
 20
291.0382130513549
 10
196.5398085803831
 20
318.2860004628266
  0
LWPOLYLINE
  5
D3
330
1F
100
AcDbEntity
  8
BOHRUNGEN
  6
DASHED
 62
     8
100
AcDbPolyline
 90
        2
 70
     0
 43
0.35
 10
204.7494496149
 20
312.4223072173
 10
205.43040462
 20
292.9223072173
  0
LINE
  5
D4
330
1F
100
AcDbEntity
  8
RUNDUNGEN
  6
Continuous
 62
     9
100
AcDbLine
 10
212.0113147033
 20
292.9223072173
 30
0.0
 11
212.0113147033
 21
356.9223072173
 31
0.0
  0
LINE
  5
D5
330
1F
100
AcDbEntity
  8
RUNDUNGEN
  6
Continuous
 62
     9
100
AcDbLine
 10
212.7184214845
 20
293.2152004362
 30
0.0
 11
212.7184214845
 21
356.6294139985
 31
0.0
  0
LINE
  5
D6
330
1F
100
AcDbEntity
  8
0
  6
Continuous
 62
     7
100
AcDbLine
 10
212.7184214845
 20
293.2152004362
 30
0.0
 11
221.1326350468
 21
301.6294139985
 31
0.0
  0
LINE
  5
D7
330
1F
100
AcDbEntity
  8
0
  6
Continuous
 62
     7
100
AcDbLine
 10
212.7184214845
 20
356.6294139985
 30
0.0
 11
221.1326350468
 21
348.2152004362
 31
0.0
  0
LINE
  5
D8
330
1F
100
AcDbEntity
  8
RUNDUNGEN
  6
Continuous
 62
     9
100
AcDbLine
 10
221.1326350468
 20
301.6294139985
 30
0.0
 11
221.1326350468
 21
348.2152004362
 31
0.0
  0
LINE
  5
D9
330
1F
100
AcDbEntity
  8
RUNDUNGEN
  6
Continuous
 62
     7
100
AcDbLine
 10
221.4255282656
 20
347.508093655
 30
0.0
 11
221.4255282656
 21
302.3365207797
 31
0.0
  0
LWPOLYLINE
  5
DA
330
1F
100
AcDbEntity
  8
BOHRUNGEN
  6
DASHED
 62
     8
100
AcDbPolyline
 90
        2
 70
     0
 43
0.35
 10
205.7500591592
 20
312.4223072173
 10
206.4310141643
 20
292.9223072173
  0
LWPOLYLINE
  5
DB
330
1F
100
AcDbEntity
  8
BOHRUNGEN
  6
DASHED
 62
     8
100
AcDbPolyline
 90
        2
 70
     0
 43
0.35
 10
183.7366491847
 20
312.4223072173
 10
184.4176041898
 20
292.9223072173
  0
LWPOLYLINE
  5
DC
330
1F
100
AcDbEntity
  8
BOHRUNGEN
  6
DASHED
 62
     8
100
AcDbPolyline
 90
        2
 70
     0
 43
0.35
 10
187.7390873619
 20
312.4223072173
 10
188.420042367
 20
292.9223072173
  0
LWPOLYLINE
  5
DD
330
1F
100
AcDbEntity
  8
BOHRUNGEN
  6
DASHED
 62
     8
100
AcDbPolyline
 90
        2
 70
     0
 43
0.35
 10
165.7256773873
 20
312.4223072173
 10
166.4066323924
 20
292.9223072173
  0
ARC
  5
DE
330
1F
100
AcDbEntity
  8
FASEN
  6
Continuous
 62
     7
100
AcDbCircle
 10
29.8552877851
 20
304.8723072173
 30
0.0
 40
97.70581044213137
100
AcDbArc
 50
359.8827176822629
 51
0.11728231773715
  0
ARC
  5
DF
330
1F
100
AcDbEntity
  8
FASEN
  6
Continuous
 62
     7
100
AcDbCircle
 10
126.4695341813
 20
308.9917043741
 30
0.0
 40
12.92211935370023
100
AcDbArc
 50
219.3764519582005
 51
221.2968513340144
  0
ARC
  5
E0
330
1F
100
AcDbEntity
  8
FASEN
  6
Continuous
 62
     7
100
AcDbCircle
 10
123.5625386687
 20
297.0723072173
 30
0.0
 40
8.0
100
AcDbArc
 50
90.0
 51
152.2781454969008
  0
ARC
  5
E1
330
1F
100
AcDbEntity
  8
FASEN
  6
Continuous
 62
     7
100
AcDbCircle
 10
123.5625386687
 20
297.0723072173
 30
0.0
 40
7.599996372099952
100
AcDbArc
 50
90.0
 51
153.498256574603
  0
ARC
  5
E2
330
1F
100
AcDbEntity
  8
FASEN
  6
Continuous
 62
     7
100
AcDbCircle
 10
129.3529828025
 20
304.4716427839
 30
0.0
 40
1.947545463826496
100
AcDbArc
 50
0.00156498701871
 51
5.91393925810136
  0
ARC
  5
E3
330
1F
100
AcDbEntity
  8
VERERBUNG
  6
Continuous
 62
     7
100
AcDbCircle
 10
83.9255282656
 20
320.1523072173
 30
0.0
 40
1.5
100
AcDbArc
 50
270.0
 51
354.6662961831095
  0
ARC
  5
E4
330
1F
100
AcDbEntity
  8
VERERBUNG
  6
Continuous
 62
     7
100
AcDbCircle
 10
80.6255282656
 20
303.3462288645
 30
0.0
 40
1.200000000000003
100
AcDbArc
 50
180.0
 51
267.13195727179
  0
ARC
  5
E5
330
1F
100
AcDbEntity
  8
VERERBUNG
  6
Continuous
 62
     7
100
AcDbCircle
 10
128.5505282656
 20
296.4223072173
 30
0.0
 40
1.0
100
AcDbArc
 50
90.0
 51
180.0
  0
ARC
  5
E6
330
1F
100
AcDbEntity
  8
VERERBUNG
  6
Continuous
 62
     7
100
AcDbCircle
 10
110.2509299257
 20
300.3018830677
 30
0.0
 40
0.6000000000000227
100
AcDbArc
 50
90.0
 51
105.0000000028937
  0
ARC
  5
E7
330
1F
100
AcDbEntity
  8
VERERBUNG
  6
Continuous
 62
     7
100
AcDbCircle
 10
111.1233586351
 20
300.3018830677
 30
0.0
 40
0.6000000000004788
100
AcDbArc
 50
59.74152092740173
 51
90.0
  0
ARC
  5
E8
330
1F
100
AcDbEntity
  8
0
  6
Continuous
 62
     7
100
AcDbCircle
 10
-16.3230132071
 20
364.3873108217
 30
0.0
 40
156.0632957307651
100
AcDbArc
 50
335.8202227521872
 51
337.2043014056001
  0
ARC
  5
E9
330
1F
100
AcDbEntity
  8
VERERBUNG
  6
Continuous
 62
     7
100
AcDbCircle
 10
118.4069620852
 20
387.736855077
 30
0.0
 40
31.7138560895001
100
AcDbArc
 50
270.0335425002002
 51
279.1049739647992
  0
ARC
  5
EA
330
1F
100
AcDbEntity
  8
0
  6
Continuous
 62
     7
100
AcDbCircle
 10
124.3930282656
 20
324.9223072173
 30
0.0
 40
8.017499999999984
100
AcDbArc
 50
90.0
 51
270.0
  0
ARC
  5
EB
330
1F
100
AcDbEntity
  8
VERERBUNG
  6
Continuous
 62
     7
100
AcDbCircle
 10
83.9255282656
 20
329.6923072173
 30
0.0
 40
1.499999999999938
100
AcDbArc
 50
5.33370376199131
 51
90.0
  0
ARC
  5
EC
330
1F
100
AcDbEntity
  8
VERERBUNG
  6
Continuous
 62
     7
100
AcDbCircle
 10
80.6255282656
 20
346.4983855702
 30
0.0
 40
1.19999999996097
100
AcDbArc
 50
92.86804272844888
 51
180.0
  0
ARC
  5
ED
330
1F
100
AcDbEntity
  8
VERERBUNG
  6
Continuous
 62
     7
100
AcDbCircle
 10
128.5505282656
 20
353.4223072173
 30
0.0
 40
1.000000000000014
100
AcDbArc
 50
180.0
 51
270.0
  0
ARC
  5
EE
330
1F
100
AcDbEntity
  8
VERERBUNG
  6
Continuous
 62
     7
100
AcDbCircle
 10
110.2509299257
 20
349.542731367
 30
0.0
 40
0.6000000000355985
100
AcDbArc
 50
254.9999999971049
 51
270.0
  0
ARC
  5
EF
330
1F
100
AcDbEntity
  8
VERERBUNG
  6
Continuous
 62
     7
100
AcDbCircle
 10
111.1233586351
 20
349.542731367
 30
0.0
 40
0.5999999999999659
100
AcDbArc
 50
270.0
 51
300.2584790726009
  0
ARC
  5
F0
330
1F
100
AcDbEntity
  8
VERERBUNG
  6
Continuous
 62
     7
100
AcDbCircle
 10
185.3091256722
 20
-543.6127546992
 30
0.0
 40
884.3221864334638
100
AcDbArc
 50
96.58318095120576
 51
96.8023740697
  0
ARC
  5
F1
330
1F
100
AcDbEntity
  8
FASEN
  6
Continuous
 62
     7
100
AcDbCircle
 10
228.9957687462
 20
304.8723072173
 30
0.0
 40
97.70581044213137
100
AcDbArc
 50
179.8827176822629
 51
180.1172823177371
  0
ARC
  5
F2
330
1F
100
AcDbEntity
  8
FASEN
  6
Continuous
 62
     7
100
AcDbCircle
 10
129.4980737287
 20
304.4716427839
 30
0.0
 40
1.947545463803144
100
AcDbArc
 50
174.0860607415955
 51
179.9984350129813
  0
ARC
  5
F3
330
1F
100
AcDbEntity
  8
RUNDUNGEN
  6
Continuous
 62
     7
100
AcDbCircle
 10
154.9255282656
 20
293.9223072173
 30
0.0
 40
1.0
100
AcDbArc
 50
180.0
 51
270.0
  0
ARC
  5
F4
330
1F
100
AcDbEntity
  8
RUNDUNGEN
  6
Continuous
 62
     7
100
AcDbCircle
 10
138.4255282656
 20
298.4223072173
 30
0.0
 40
1.0
100
AcDbArc
 50
90.0
 51
180.0
  0
ARC
  5
F5
330
1F
100
AcDbEntity
  8
RUNDUNGEN
  6
Continuous
 62
     7
100
AcDbCircle
 10
152.9255282656
 20
298.4223072173
 30
0.0
 40
1.0
100
AcDbArc
 50
0.0
 51
90.0
  0
ARC
  5
F6
330
1F
100
AcDbEntity
  8
RUNDUNGEN
  6
Continuous
 62
     7
100
AcDbCircle
 10
220.4255282656
 20
302.3365207797
 30
0.0
 40
1.000000000019
100
AcDbArc
 50
315.0000000000011
 51
0.0
  0
ARC
  5
F7
330
1F
100
AcDbEntity
  8
RUNDUNGEN
  6
Continuous
 62
     7
100
AcDbCircle
 10
212.0113147033
 20
293.9223072173
 30
0.0
 40
1.0
100
AcDbArc
 50
270.0
 51
315.0000000040521
  0
ARC
  5
F8
330
1F
100
AcDbEntity
  8
VERERBUNG
  6
Continuous
 62
     7
100
AcDbCircle
 10
130.3005282656
 20
296.4223072173
 30
0.0
 40
1.0
100
AcDbArc
 50
0.0
 51
90.0
  0
ARC
  5
F9
330
1F
100
AcDbEntity
  8
VERERBUNG
  6
Continuous
 62
     7
100
AcDbCircle
 10
185.3091256722
 20
1193.4573691339
 30
0.0
 40
884.3221864334004
100
AcDbArc
 50
263.1976259303
 51
263.4168190487943
  0
ARC
  5
FA
330
1F
100
AcDbEntity
  8
0
  6
Continuous
 62
     7
100
AcDbCircle
 10
275.1740697382
 20
364.3873108216
 30
0.0
 40
156.0632957306004
100
AcDbArc
 50
202.7956985944
 51
204.1797772478093
  0
ARC
  5
FB
330
1F
100
AcDbEntity
  8
RUNDUNGEN
  6
Continuous
 62
     7
100
AcDbCircle
 10
154.9255282656
 20
355.9223072173
 30
0.0
 40
1.0
100
AcDbArc
 50
90.0
 51
180.0
  0
ARC
  5
FC
330
1F
100
AcDbEntity
  8
RUNDUNGEN
  6
Continuous
 62
     7
100
AcDbCircle
 10
138.4255282656
 20
351.4223072173
 30
0.0
 40
1.0
100
AcDbArc
 50
180.0
 51
270.0
  0
ARC
  5
FD
330
1F
100
AcDbEntity
  8
RUNDUNGEN
  6
Continuous
 62
     7
100
AcDbCircle
 10
152.9255282656
 20
351.4223072173
 30
0.0
 40
1.0
100
AcDbArc
 50
270.0
 51
0.0
  0
ARC
  5
FE
330
1F
100
AcDbEntity
  8
RUNDUNGEN
  6
Continuous
 62
     7
100
AcDbCircle
 10
220.4255282656
 20
347.508093655
 30
0.0
 40
1.0
100
AcDbArc
 50
0.0
 51
45.00000000000115
  0
ARC
  5
FF
330
1F
100
AcDbEntity
  8
RUNDUNGEN
  6
Continuous
 62
     7
100
AcDbCircle
 10
212.0113147033
 20
355.9223072173
 30
0.0
 40
1.00000000001904
100
AcDbArc
 50
45.00000000000115
 51
90.0
  0
ARC
  5
100
330
1F
100
AcDbEntity
  8
VERERBUNG
  6
Continuous
 62
     7
100
AcDbCircle
 10
130.3005282656
 20
353.4223072173
 30
0.0
 40
1.0
100
AcDbArc
 50
270.0
 51
0.0
  0
CIRCLE
  5
101
330
1F
100
AcDbEntity
  8
VERERBUNG
  6
Continuous
 62
     7
100
AcDbCircle
 10
102.4255282656
 20
324.9223072173
 30
0.0
 40
3.75
  0
SPLINE
  5
102
330
1F
100
AcDbEntity
  8
0
  6
Continuous
 62
     2
100
AcDbSpline
210
0.0
220
0.0
230
1.0
 70
     8
 71
     3
 72
    61
 73
    57
 74
    55
 42
0.0000000001
 43
0.0000000001
 44
0.00000001
 40
0.0
 40
0.0
 40
0.0
 40
0.0
 40
0.0152451008817296
 40
0.0611569470979681
 40
0.1378866305037015
 40
0.2451303748617459
 40
0.3825754537061123
 40
0.5503265859743158
 40
0.7483681644860036
 40
0.9757803364349416
 40
1.231627188175334
 40
1.51580226843492
 40
1.828009169291867
 40
2.166343296902588
 40
2.528756025939947
 40
2.914203901072426
 40
3.321591796691813
 40
3.748578146433895
 40
4.192638528944262
 40
4.651721496086031
 40
5.123958302276949
 40
5.6076997530868
 40
6.101181804276594
 40
6.601920121557812
 40
7.10769099983679
 40
7.618007786927598
 40
8.132347993640789
 40
8.64828512063721
 40
9.163515494371925
 40
9.6781228580073
 40
10.19220885536979
 40
10.70356008734311
 40
11.20985582143562
 40
11.71066970152396
 40
12.20564665071837
 40
12.69284669607861
 40
13.17006550457591
 40
13.63565118208977
 40
14.08807633700627
 40
14.52579984340416
 40
14.94708555768893
 40
15.34946838380104
 40
15.73062249504427
 40
16.08954967978016
 40
16.42528641778835
 40
16.73571563482036
 40
17.0188241978419
 40
17.27419622358801
 40
17.50160170359123
 40
17.69997724774926
 40
17.86827383913506
 40
18.00634493848753
 40
18.11417719889023
 40
18.19139375015674
 40
18.23763901515954
 40
18.25300796643381
 40
18.25300796643381
 40
18.25300796643381
 40
18.25300796643381
 10
184.4176041898
 20
292.9223072173
 30
0.0
 10
184.4127087777236
 20
292.92367052974
 30
0.0
 10
184.3930704388432
 20
292.9291395671324
 30
0.0
 10
184.3487764690371
 20
292.9414102823333
 30
0.0
 10
184.274906524957
 20
292.9617855772136
 30
0.0
 10
184.1715513086751
 20
292.9900097201007
 30
0.0
 10
184.0388228224315
 20
293.0258422343436
 30
0.0
 10
183.8766983800247
 20
293.0689066166203
 30
0.0
 10
183.6853586514223
 20
293.1187920244454
 30
0.0
 10
183.4652891238318
 20
293.1748678686874
 30
0.0
 10
183.2170077422994
 20
293.2364860597625
 30
0.0
 10
182.9408036725329
 20
293.302910528445
 30
0.0
 10
182.6372957165414
 20
293.3733541900176
 30
0.0
 10
182.30772442468
 20
293.4468005235566
 30
0.0
 10
181.9535799659906
 20
293.5221473161523
 30
0.0
 10
181.5760993575464
 20
293.5983250665466
 30
0.0
 10
181.17663883548
 20
293.6742739930851
 30
0.0
 10
180.7570616501322
 20
293.7488645122283
 30
0.0
 10
180.3195599691899
 20
293.8208804837787
 30
0.0
 10
179.8662189755663
 20
293.8892963221606
 30
0.0
 10
179.3988552008442
 20
293.9531318324814
 30
0.0
 10
178.9192272199767
 20
294.0115403158104
 30
0.0
 10
178.4293192306171
 20
294.0636656546569
 30
0.0
 10
177.9313517871972
 20
294.1088977563935
 30
0.0
 10
177.4271298467809
 20
294.1466134028541
 30
0.0
 10
176.9178343420452
 20
294.1763958823536
 30
0.0
 10
176.4047302752238
 20
294.1979041516731
 30
0.0
 10
175.8897039182582
 20
294.2110030779525
 30
0.0
 10
175.3744405957229
 20
294.2154662497032
 30
0.0
 10
174.8597922244968
 20
294.2112551716754
 30
0.0
 10
174.3465803328253
 20
294.198439895949
 30
0.0
 10
173.8364184710445
 20
294.1772689611402
 30
0.0
 10
173.3310945993217
 20
294.1479002737996
 30
0.0
 10
172.8317619302878
 20
294.1106870225663
 30
0.0
 10
172.3394303580557
 20
294.0660512416169
 30
0.0
 10
171.8556750420044
 20
294.0145910821091
 30
0.0
 10
171.3824928669277
 20
293.9568985482964
 30
0.0
 10
170.9216997284265
 20
293.8938029429605
 30
0.0
 10
170.4748714039789
 20
293.8261149954977
 30
0.0
 10
170.0435772854512
 20
293.7547542684894
 30
0.0
 10
169.6296749882727
 20
293.6806977929494
 30
0.0
 10
169.2352322027974
 20
293.6051257793536
 30
0.0
 10
168.8620608186579
 20
293.5291379445435
 30
0.0
 10
168.5114567820486
 20
293.4537738297336
 30
0.0
 10
168.1846230781512
 20
293.3800923336983
 30
0.0
 10
167.883079751635
 20
293.3092109423719
 30
0.0
 10
167.6081625057801
 20
293.2421721821337
 30
0.0
 10
167.3605994401086
 20
293.1798076620959
 30
0.0
 10
167.1407943538873
 20
293.1228994142909
 30
0.0
 10
166.9493811047172
 20
293.072149207723
 30
0.0
 10
166.7869631395795
 20
293.0282412384665
 30
0.0
 10
166.6538362722847
 20
292.9916390444421
 30
0.0
 10
166.5500715704939
 20
292.9627662096202
 30
0.0
 10
166.4758516355956
 20
292.9418972508336
 30
0.0
 10
166.4313171660658
 20
292.9293180520226
 30
0.0
 10
166.4115604707807
 20
292.9237068632314
 30
0.0
 10
166.4066323924
 20
292.9223072173
 30
0.0
 11
184.4176041898
 21
292.9223072173
 31
0.0
 11
184.402917494084
 21
292.9263955017617
 31
0.0
 11
184.3586745215931
 21
292.9386615935659
 31
0.0
 11
184.2847045068069
 21
292.9590547597762
 31
0.0
 11
184.181250935462
 21
292.9873139048433
 31
0.0
 11
184.0485540469836
 21
293.0231285036358
 31
0.0
 11
183.8864268427012
 21
293.0662006757291
 31
0.0
 11
183.6947896827809
 21
293.1161573144982
 31
0.0
 11
183.4744195992303
 21
293.1723117642454
 31
0.0
 11
183.2261028703535
 21
293.2339268087185
 31
0.0
 11
182.9498060918978
 21
293.300376537503
 31
0.0
 11
182.6456818919723
 21
293.3709571294697
 31
0.0
 11
182.3154467091806
 21
293.4445418150547
 31
0.0
 11
181.9609654502633
 21
293.5199475392719
 31
0.0
 11
181.5831330854258
 21
293.5961890537207
 31
0.0
 11
181.182913286916
 21
293.6722746001668
 31
0.0
 11
180.7625144704272
 21
293.7469885745015
 31
0.0
 11
180.3243494336627
 21
293.8191066989393
 31
0.0
 11
179.8704037528593
 21
293.8875938480959
 31
0.0
 11
179.4025096135852
 21
293.9514896660679
 31
0.0
 11
178.9223128678223
 21
294.0099437214479
 31
0.0
 11
178.4316008511597
 21
294.0621572402856
 31
0.0
 11
177.9329131665365
 21
294.1074281536713
 31
0.0
 11
177.4285501842347
 21
294.1451397354299
 31
0.0
 11
176.9191030688034
 21
294.1749199262512
 31
0.0
 11
176.4052146576183
 21
294.1964733271768
 31
0.0
 11
175.8894436934431
 21
294.2095665134632
 31
0.0
 11
175.3742325733935
 21
294.2140207020595
 31
0.0
 11
174.859642406505
 21
294.2098137020128
 31
0.0
 11
174.3457161364635
 21
294.1969995830248
 31
0.0
 11
173.8348053336032
 21
294.1757808657852
 31
0.0
 11
173.3293621605212
 21
294.1464113382948
 31
0.0
 11
172.8299325223797
 21
294.1092014063545
 31
0.0
 11
172.3369755415304
 21
294.0645293203746
 31
0.0
 11
171.8525094582162
 21
294.01298809108
 31
0.0
 11
171.3787962454024
 21
293.9552509003868
 31
0.0
 11
170.9175136967027
 21
293.8920968556139
 31
0.0
 11
170.4701896831267
 21
293.8243491790525
 31
0.0
 11
170.0383365652898
 21
293.752901627185
 31
0.0
 11
169.6236328390856
 21
293.6787229743747
 31
0.0
 11
169.2284370443989
 21
293.6030115313035
 31
0.0
 11
168.8549463294487
 21
293.5269645565864
 31
0.0
 11
168.5040322377908
 21
293.4515455654877
 31
0.0
 11
168.1765130053905
 21
293.3777193529593
 31
0.0
 11
167.8743192437332
 21
293.3066895760871
 31
0.0
 11
167.5992708893046
 21
293.2396160255456
 31
0.0
 11
167.3516328017037
 21
293.1772441640773
 31
0.0
 11
167.1314864189462
 21
293.120245721166
 31
0.0
 11
166.9397345710823
 21
293.0694118214458
 31
0.0
 11
166.7772718495148
 21
293.0254845318303
 31
0.0
 11
166.6441384949388
 21
292.988890292178
 31
0.0
 11
166.540255154489
 21
292.9599757982252
 31
0.0
 11
166.4659184533731
 21
292.9390843967236
 31
0.0
 11
166.4214171291617
 21
292.9265043856501
 31
0.0
 11
166.4066323924
 21
292.9223072173
 31
0.0
  0
SPLINE
  5
103
330
1F
100
AcDbEntity
  8
0
  6
Continuous
 62
     2
100
AcDbSpline
210
0.0
220
0.0
230
1.0
 70
     8
 71
     3
 72
    61
 73
    57
 74
    55
 42
0.0000000001
 43
0.0000000001
 44
0.00000001
 40
0.0
 40
0.0
 40
0.0
 40
0.0
 40
0.0152451008797035
 40
0.061156947081919
 40
0.1378866304555128
 40
0.2451303747813967
 40
0.382575453613717
 40
0.5503265858939794
 40
0.7483681644358926
 40
0.975780336403008
 40
1.231627188125222
 40
1.515802268354438
 40
1.828009169197155
 40
2.166343296805879
 40
2.528756025843237
 40
2.914203900975688
 40
3.321591796595103
 40
3.748578146337185
 40
4.192638528849517
 40
4.651721496005731
 40
5.123958302227626
 40
5.607699753056098
 40
6.101181804227267
 40
6.601920121477377
 40
7.107690999743884
 40
7.618007786847176
 40
8.132347993593676
 40
8.648285120623425
 40
9.16351549437059
 40
9.67812285799346
 40
10.19220885532472
 40
10.70356008727927
 40
11.20985582138846
 40
11.71066970149344
 40
12.20564665066914
 40
12.69284669599829
 40
13.17006550448115
 40
13.63565118199298
 40
14.08807633690942
 40
14.52579984330731
 40
14.94708555759211
 40
15.34946838370419
 40
15.73062249494745
 40
16.08954967968334
 40
16.42528641769153
 40
16.73571563472352
 40
17.01882419774713
 40
17.27419622350737
 40
17.50160170354282
 40
17.69997724773311
 40
17.86827383913297
 40
18.00634493848745
 40
18.11417719888717
 40
18.19139375013261
 40
18.23763901509027
 40
18.25300796633751
 40
18.25300796633751
 40
18.25300796633751
 40
18.25300796633751
 10
206.4310141643
 20
292.9223072173
 30
0.0
 10
206.4261187522243
 20
292.92367052974
 30
0.0
 10
206.4064804133493
 20
292.9291395671317
 30
0.0
 10
206.3621864435598
 20
292.9414102823324
 30
0.0
 10
206.2883164995075
 20
292.9617855772154
 30
0.0
 10
206.1849612832524
 20
292.9900097201042
 30
0.0
 10
206.0522327970199
 20
293.0258422343468
 30
0.0
 10
205.8901083546023
 20
293.0689066166222
 30
0.0
 10
205.698768625978
 20
293.1187920244433
 30
0.0
 10
205.4786990983765
 20
293.1748678686826
 30
0.0
 10
205.2304177168554
 20
293.2364860597616
 30
0.0
 10
204.9542136471113
 20
293.3029105284475
 30
0.0
 10
204.6507056911354
 20
293.3733541900189
 30
0.0
 10
204.3211343992794
 20
293.4468005235568
 30
0.0
 10
203.9669899405905
 20
293.5221473161523
 30
0.0
 10
203.5895093321464
 20
293.5983250665466
 30
0.0
 10
203.19004881008
 20
293.6742739930851
 30
0.0
 10
202.7704716247315
 20
293.7488645122284
 30
0.0
 10
202.3329699437839
 20
293.8208804837797
 30
0.0
 10
201.8796289501444
 20
293.8892963221621
 30
0.0
 10
201.4122651754003
 20
293.9531318324803
 30
0.0
 10
200.9326371945223
 20
294.011540315808
 30
0.0
 10
200.4427292051733
 20
294.0636656546564
 30
0.0
 10
199.9447617617743
 20
294.1088977563943
 30
0.0
 10
199.4405398213684
 20
294.146613402855
 30
0.0
 10
198.9312443166216
 20
294.1763958823541
 30
0.0
 10
198.4181402497737
 20
294.1979041516731
 30
0.0
 10
197.9031138927817
 20
294.2110030779521
 30
0.0
 10
197.3878505702355
 20
294.2154662497032
 30
0.0
 10
196.8732021990197
 20
294.2112551716755
 30
0.0
 10
196.3599903073691
 20
294.1984398959489
 30
0.0
 10
195.8498284455993
 20
294.1772689611391
 30
0.0
 10
195.3445045738718
 20
294.1479002737995
 30
0.0
 10
194.8451719048328
 20
294.110687022568
 30
0.0
 10
194.3528403326118
 20
294.0660512416176
 30
0.0
 10
193.8690850165824
 20
294.014591082108
 30
0.0
 10
193.3959028415215
 20
293.9568985482956
 30
0.0
 10
192.9351097030258
 20
293.8938029429604
 30
0.0
 10
192.4882813785789
 20
293.8261149954977
 30
0.0
 10
192.0569872600513
 20
293.7547542684894
 30
0.0
 10
191.6430849628726
 20
293.6806977929493
 30
0.0
 10
191.2486421773975
 20
293.6051257793537
 30
0.0
 10
190.8754707932578
 20
293.5291379445435
 30
0.0
 10
190.5248667566486
 20
293.4537738297336
 30
0.0
 10
190.1980330527511
 20
293.3800923336983
 30
0.0
 10
189.8964897262344
 20
293.3092109423718
 30
0.0
 10
189.6215724803742
 20
293.2421721821322
 30
0.0
 10
189.3740094146864
 20
293.179807662093
 30
0.0
 10
189.1542043284375
 20
293.1228994142903
 30
0.0
 10
188.9627910792396
 20
293.072149207725
 30
0.0
 10
188.8003731140854
 20
293.028241238468
 30
0.0
 10
188.6672462467862
 20
292.9916390444425
 30
0.0
 10
188.5634815450026
 20
292.9627662096229
 30
0.0
 10
188.4892616101272
 20
292.9418972508388
 30
0.0
 10
188.4447271406303
 20
292.9293180520266
 30
0.0
 10
188.4249704453713
 20
292.9237068632315
 30
0.0
 10
188.420042367
 20
292.9223072173
 30
0.0
 11
206.4310141643
 21
292.9223072173
 31
0.0
 11
206.4163274685861
 21
292.9263955017617
 31
0.0
 11
206.3720844961097
 21
292.9386615935659
 31
0.0
 11
206.2981144813569
 21
292.9590547597762
 31
0.0
 11
206.1946609100454
 21
292.9873139048433
 31
0.0
 11
206.0619640215794
 21
293.0231285036358
 31
0.0
 11
205.8998368172845
 21
293.0662006757291
 31
0.0
 11
205.708199657333
 21
293.1161573144982
 31
0.0
 11
205.4878295737636
 21
293.1723117642454
 31
0.0
 11
205.2395128449056
 21
293.2339268087185
 31
0.0
 11
204.9632160664811
 21
293.300376537503
 31
0.0
 11
204.6590918665702
 21
293.3709571294697
 31
0.0
 11
204.3288566837805
 21
293.4445418150547
 31
0.0
 11
203.9743754248633
 21
293.5199475392719
 31
0.0
 11
203.5965430600258
 21
293.5961890537207
 31
0.0
 11
203.196323261516
 21
293.6722746001668
 31
0.0
 11
202.7759244450272
 21
293.7469885745015
 31
0.0
 11
202.3377594082607
 21
293.8191066989393
 31
0.0
 11
201.8838137274427
 21
293.8875938480959
 31
0.0
 11
201.4159195881373
 21
293.9514896660679
 31
0.0
 11
200.9357228423557
 21
294.0099437214479
 31
0.0
 11
200.4450108257118
 21
294.0621572402856
 31
0.0
 11
199.9463231411198
 21
294.1074281536713
 31
0.0
 11
199.4419601588305
 21
294.1451397354299
 31
0.0
 11
198.9325130433867
 21
294.1749199262512
 31
0.0
 11
198.4186246321683
 21
294.1964733271768
 31
0.0
 11
197.9028536679598
 21
294.2095665134632
 31
0.0
 11
197.3876425478977
 21
294.2140207020595
 31
0.0
 11
196.8730523810217
 21
294.2098137020128
 31
0.0
 11
196.3591261110114
 21
294.1969995830248
 31
0.0
 11
195.84821530817
 21
294.1757808657852
 31
0.0
 11
195.3427721350712
 21
294.1464113382948
 31
0.0
 11
194.843342496913
 21
294.1092014063545
 31
0.0
 11
194.3503855160826
 21
294.0645293203746
 31
0.0
 11
193.8659194327996
 21
294.01298809108
 31
0.0
 11
193.3922062200003
 21
293.9552509003868
 31
0.0
 11
192.9309236713027
 21
293.8920968556139
 31
0.0
 11
192.4835996577267
 21
293.8243491790525
 31
0.0
 11
192.0517465398898
 21
293.752901627185
 31
0.0
 11
191.6370428136856
 21
293.6787229743747
 31
0.0
 11
191.2418470189989
 21
293.6030115313035
 31
0.0
 11
190.8683563040487
 21
293.5269645565864
 31
0.0
 11
190.5174422123908
 21
293.4515455654877
 31
0.0
 11
190.1899229799905
 21
293.3777193529593
 31
0.0
 11
189.8877292183332
 21
293.3066895760871
 31
0.0
 11
189.6126808639025
 21
293.2396160255456
 31
0.0
 11
189.365042776287
 21
293.1772441640773
 31
0.0
 11
189.1448963934963
 21
293.120245721166
 31
0.0
 11
188.953144545599
 21
293.0694118214458
 31
0.0
 11
188.7906818240169
 21
293.0254845318303
 31
0.0
 11
188.6575484694388
 21
292.988890292178
 31
0.0
 11
188.5536651289921
 21
292.9599757982252
 31
0.0
 11
188.4793284278981
 21
292.9390843967236
 31
0.0
 11
188.4348271037336
 21
292.9265043856501
 31
0.0
 11
188.420042367
 21
292.9223072173
 31
0.0
  0
SPLINE
  5
104
330
1F
100
AcDbEntity
  8
VERERBUNG
  6
Continuous
 62
     7
100
AcDbSpline
210
0.0
220
0.0
230
1.0
 70
     8
 71
     3
 72
    13
 73
     9
 74
     7
 42
0.0000000001
 43
0.0000000001
 44
0.00000001
 40
0.0
 40
0.0
 40
0.0
 40
0.0
 40
0.9581451161106568
 40
1.916374757502227
 40
2.72966892075396
 40
3.542928077665838
 40
4.28195173702027
 40
5.020980281036617
 40
5.020980281036617
 40
5.020980281036617
 40
5.020980281036617
 10
118.4255282656
 20
356.0229502975
 30
0.0
 10
118.1061340992947
 20
356.0257938352024
 30
0.0
 10
117.4673175904912
 20
356.0314811614574
 30
0.0
 10
116.5582534692878
 20
356.0750888800973
 30
0.0
 10
115.6989353620592
 20
356.1386452662812
 30
0.0
 10
114.9142968191401
 20
356.2176422822708
 30
0.0
 10
114.1561652916265
 20
356.3110533427263
 30
0.0
 10
113.6690744775208
 20
356.3852225107373
 30
0.0
 10
113.4255282656
 20
356.4223072173
 30
0.0
 11
118.4255282656
 21
356.0229502975
 31
0.0
 11
117.4674968738161
 21
356.0377122717344
 31
0.0
 11
116.5102851619042
 21
356.0818686327721
 31
0.0
 11
115.6992338315839
 21
356.1422270254371
 31
0.0
 11
114.8900220834983
 21
356.2232628388848
 31
0.0
 11
114.1566558450014
 21
356.314531285341
 31
0.0
 11
113.4255282656
 21
356.4223072173
 31
0.0
  0
SPLINE
  5
105
330
1F
100
AcDbEntity
  8
BOHRUNGEN
  6
Continuous
 62
     7
100
AcDbSpline
210
0.0
220
0.0
230
1.0
 70
     8
 71
     3
 72
    23
 73
    19
 74
    17
 42
0.0000000001
 43
0.0000000001
 44
0.00000001
 40
0.0
 40
0.0
 40
0.0
 40
0.0
 40
0.3129028531728786
 40
0.6258164207052694
 40
1.507039068343426
 40
2.388316267214068
 40
3.695094176676238
 40
5.001957537469705
 40
6.539792618090347
 40
8.077666142799206
 40
9.61433041903702
 40
11.15095985989981
 40
12.45904635062881
 40
13.76705234217731
 40
14.65514470018249
 40
15.54318623183054
 40
15.86059640515541
 40
16.17799608667383
 40
16.17799608667383
 40
16.17799608667383
 40
16.17799608667383
 10
189.4206519113
 20
292.9223072173
 30
0.0
 10
189.5218533548251
 20
292.9475483316465
 30
0.0
 10
189.7242597071958
 20
292.998031424641
 30
0.0
 10
190.2129790229716
 20
293.1142728692803
 30
0.0
 10
190.8885823248453
 20
293.2634816332458
 30
0.0
 10
191.8930550855667
 20
293.4583238318064
 30
0.0
 10
193.0436568639719
 20
293.6428028284637
 30
0.0
 10
194.418112532402
 20
293.8067217704789
 30
0.0
 10
195.8756298748145
 20
293.9140260283842
 30
0.0
 10
197.4132684030535
 20
293.9512073944024
 30
0.0
 10
198.9504405263819
 20
293.9117357316441
 30
0.0
 10
200.4074390250605
 20
293.8030914322773
 30
0.0
 10
201.7822930122732
 20
293.6391552419886
 30
0.0
 10
202.9361346817639
 20
293.4555029147954
 30
0.0
 10
203.9458960066614
 20
293.2619534864121
 30
0.0
 10
204.6278549018327
 20
293.113536337497
 30
0.0
 10
205.1221275396628
 20
292.9978809118996
 30
0.0
 10
205.3276467254589
 20
292.9474981712667
 30
0.0
 10
205.43040462
 20
292.9223072173
 30
0.0
 11
189.4206519113
 21
292.9223072173
 31
0.0
 11
189.7243913187224
 21
292.9974774767275
 31
0.0
 11
190.0287828113875
 21
293.0700082973419
 31
0.0
 11
190.8893310838074
 21
293.2597713747448
 31
0.0
 11
191.7544965837134
 21
293.4275157010924
 31
0.0
 11
193.0448407329959
 21
293.6341082495321
 31
0.0
 11
194.3425407430197
 21
293.7885962030056
 31
0.0
 11
195.8762332351279
 21
293.901397243952
 31
0.0
 11
197.4136607770744
 21
293.9384314344347
 31
0.0
 11
198.9498257093508
 21
293.8992600327525
 31
0.0
 11
200.4822190378571
 21
293.7852393097425
 31
0.0
 11
201.7811439011691
 21
293.6306933078609
 31
0.0
 11
203.0729444113368
 21
293.4254346518749
 31
0.0
 11
203.945175169844
 21
293.2583372543453
 31
0.0
 11
204.8129669500148
 21
293.0697764201304
 31
0.0
 11
205.1220005989393
 21
292.9973373287327
 31
0.0
 11
205.43040462
 21
292.9223072173
 31
0.0
  0
SPLINE
  5
106
330
1F
100
AcDbEntity
  8
BOHRUNGEN
  6
Continuous
 62
     7
100
AcDbSpline
210
0.0
220
0.0
230
1.0
 70
     8
 71
     3
 72
    23
 73
    19
 74
    17
 42
0.0000000001
 43
0.0000000001
 44
0.00000001
 40
0.0
 40
0.0
 40
0.0
 40
0.0
 40
0.3129028531728786
 40
0.6258164207052971
 40
1.507039068343454
 40
2.388316267214124
 40
3.695094176676294
 40
5.001957537469733
 40
6.539792618090376
 40
8.077666142799234
 40
9.614330419037048
 40
11.15095985989984
 40
12.45904635062881
 40
13.76705234217731
 40
14.65514470018249
 40
15.54318623183057
 40
15.86059640516761
 40
16.17799608677107
 40
16.17799608677107
 40
16.17799608677107
 40
16.17799608677107
 10
167.4072419367
 20
292.9223072173
 30
0.0
 10
167.5084433802251
 20
292.9475483316465
 30
0.0
 10
167.7108497325959
 20
292.9980314246411
 30
0.0
 10
168.1995690483715
 20
293.1142728692802
 30
0.0
 10
168.8751723502453
 20
293.2634816332458
 30
0.0
 10
169.8796451109665
 20
293.4583238318062
 30
0.0
 10
171.030246889372
 20
293.6428028284639
 30
0.0
 10
172.404702557802
 20
293.8067217704789
 30
0.0
 10
173.8622199002145
 20
293.9140260283841
 30
0.0
 10
175.3998584284536
 20
293.9512073944025
 30
0.0
 10
176.9370305517819
 20
293.9117357316439
 30
0.0
 10
178.3940290504605
 20
293.8030914322775
 30
0.0
 10
179.7688830376732
 20
293.6391552419885
 30
0.0
 10
180.922724707164
 20
293.4555029147957
 30
0.0
 10
181.9324860320612
 20
293.2619534864115
 30
0.0
 10
182.6144449272371
 20
293.1135363374975
 30
0.0
 10
183.1087175650978
 20
292.9978809118898
 30
0.0
 10
183.3142367509294
 20
292.9474981712652
 30
0.0
 10
183.4169946455
 20
292.9223072173
 30
0.0
 11
167.4072419367
 21
292.9223072173
 31
0.0
 11
167.7109813441224
 21
292.9974774767275
 31
0.0
 11
168.0153728367875
 21
293.0700082973419
 31
0.0
 11
168.8759211092074
 21
293.2597713747448
 31
0.0
 11
169.7410866091134
 21
293.4275157010924
 31
0.0
 11
171.0314307583959
 21
293.6341082495321
 31
0.0
 11
172.3291307684197
 21
293.7885962030056
 31
0.0
 11
173.8628232605279
 21
293.901397243952
 31
0.0
 11
175.4002508024744
 21
293.9384314344347
 31
0.0
 11
176.9364157347508
 21
293.8992600327525
 31
0.0
 11
178.4688090632571
 21
293.7852393097425
 31
0.0
 11
179.7677339265691
 21
293.6306933078609
 31
0.0
 11
181.0595344367368
 21
293.4254346518749
 31
0.0
 11
181.931765195244
 21
293.2583372543453
 31
0.0
 11
182.7995569754148
 21
293.0697764201304
 31
0.0
 11
183.1085906243518
 21
292.9973373287327
 31
0.0
 11
183.4169946455
 21
292.9223072173
 31
0.0
  0
SPLINE
  5
107
330
1F
100
AcDbEntity
  8
VERERBUNG
  6
Continuous
 62
     7
100
AcDbSpline
210
0.0
220
0.0
230
1.0
 70
     8
 71
     3
 72
    15
 73
    11
 74
     9
 42
0.0000000001
 43
0.0000000001
 44
0.00000001
 40
0.0
 40
0.0
 40
0.0
 40
0.0
 40
0.0705890228645101
 40
0.1413178421812917
 40
0.2119756690579087
 40
0.2826066759038642
 40
0.3532320942734497
 40
0.4238693692694899
 40
0.4944866364603916
 40
0.5650782700442517
 40
0.5650782700442517
 40
0.5650782700442517
 40
0.5650782700442517
 10
80.5654852013
 20
315.360279286
 30
0.0
 10
80.54222013198248
 20
315.3640213264131
 30
0.0
 10
80.495643918561
 20
315.3715128180799
 30
0.0
 10
80.42840990614087
 20
315.3941766228629
 30
0.0
 10
80.36422427894772
 20
315.4240047107494
 30
0.0
 10
80.30364764858834
 20
315.4605889679654
 30
0.0
 10
80.24669205583459
 20
315.5025054754609
 30
0.0
 10
80.19339466668134
 20
315.5489367233811
 30
0.0
 10
80.14329446773094
 20
315.5988015541482
 30
0.0
 10
80.11256501387432
 20
315.6344741547948
 30
0.0
 10
80.0972030761
 20
315.6523072173
 30
0.0
 11
80.5654852013
 21
315.360279286
 31
0.0
 11
80.49612745333589
 21
315.3734060885928
 31
0.0
 11
80.42889833521093
 21
315.3953790619485
 31
0.0
 11
80.36481272165796
 21
315.4251374663826
 31
0.0
 11
80.30424860012889
 21
315.46147926479
 31
0.0
 11
80.24730426612109
 21
315.5032559633705
 31
0.0
 11
80.1939213224382
 21
315.5495148645963
 31
0.0
 11
80.14395502340517
 21
315.5994164415899
 31
0.0
 11
80.0972030761
 21
315.6523072173
 31
0.0
  0
SPLINE
  5
108
330
1F
100
AcDbEntity
  8
VERERBUNG
  6
Continuous
 62
     7
100
AcDbSpline
210
0.0
220
0.0
230
1.0
 70
     8
 71
     3
 72
    15
 73
    11
 74
     9
 42
0.0000000001
 43
0.0000000001
 44
0.00000001
 40
0.0
 40
0.0
 40
0.0
 40
0.0
 40
0.0705917491350311
 40
0.1412091311533169
 40
0.2118461808084345
 40
0.2824713749051068
 40
0.3531025104726262
 40
0.4237604658572269
 40
0.4944892663342448
 40
0.5650782700988155
 40
0.5650782700988155
 40
0.5650782700988155
 40
0.5650782700988155
 10
80.0972030761
 20
334.1923072173
 30
0.0
 10
80.11256503836775
 20
334.2101403095488
 30
0.0
 10
80.14329454105348
 20
334.2458129694994
 30
0.0
 10
80.19339474336395
 20
334.2956777998988
 30
0.0
 10
80.24669205815901
 20
334.3421089630114
 30
0.0
 10
80.3036475644542
 20
334.3840254060141
 30
0.0
 10
80.36422419852317
 20
334.4206096788724
 30
0.0
 10
80.4284098967903
 20
334.4504378034629
 30
0.0
 10
80.49564393749876
 20
334.4731016185823
 30
0.0
 10
80.5422201383236
 20
334.4805931089456
 30
0.0
 10
80.5654852013
 20
334.4843351487
 30
0.0
 11
80.0972030761
 21
334.1923072173
 31
0.0
 11
80.14395509866688
 21
334.2451980807062
 31
0.0
 11
80.19392148299278
 21
334.2950997347921
 31
0.0
 11
80.24730426455231
 21
334.3413584790136
 31
0.0
 11
80.30424841677603
 21
334.3831350462339
 31
0.0
 11
80.36481264315184
 21
334.4194769200857
 31
0.0
 11
80.42889837203718
 21
334.4492353812752
 31
0.0
 11
80.49612747228983
 21
334.4712083486701
 31
0.0
 11
80.5654852013
 21
334.4843351487
 31
0.0
  0
SPLINE
  5
109
330
1F
100
AcDbEntity
  8
0
  6
Continuous
 62
     7
100
AcDbSpline
210
0.0
220
0.0
230
1.0
 70
     8
 71
     3
 72
    17
 73
    13
 74
    11
 42
0.0000000001
 43
0.0000000001
 44
0.00000001
 40
0.0
 40
0.0
 40
0.0
 40
0.0
 40
0.0680277950222245
 40
0.1360632351576823
 40
0.204081264135054
 40
0.2721696697588136
 40
0.3403702855559191
 40
0.4083585485503692
 40
0.4424627524017562
 40
0.4765773021354561
 40
0.5107086427046252
 40
0.5447868109551689
 40
0.5447868109551689
 40
0.5447868109551689
 40
0.5447868109551689
 10
128.1346413751
 20
332.9398072173
 30
0.0
 10
128.1470499976296
 20
332.9208218504594
 30
0.0
 10
128.1718686371972
 20
332.882848983161
 30
0.0
 10
128.2128101819943
 20
332.8284564519046
 30
0.0
 10
128.2570287186527
 20
332.7766615294024
 30
0.0
 10
128.3056088176552
 20
332.728787125949
 30
0.0
 10
128.3589416188411
 20
332.6862066608703
 30
0.0
 10
128.4080967030612
 20
332.6572664286887
 30
0.0
 10
128.4500619408298
 20
332.6397472818263
 30
0.0
 10
128.4827863424865
 20
332.6299293107788
 30
0.0
 10
128.5164138069412
 20
332.6235482824773
 30
0.0
 10
128.539162690633
 20
332.6227206906444
 30
0.0
 10
128.5505282656
 20
332.6223072173
 30
0.0
 11
128.1346413751
 21
332.9398072173
 31
0.0
 11
128.1724865583383
 21
332.8832782601077
 31
0.0
 11
128.2133577885232
 21
332.8288874184375
 31
0.0
 11
128.2577331736206
 21
332.7773386312216
 31
0.0
 11
128.3063747330272
 21
332.7296938027627
 31
0.0
 11
128.3599386539153
 21
332.687477332349
 31
0.0
 11
128.4187579204499
 21
332.6533789777063
 31
0.0
 11
128.4502570581819
 21
332.6403060651587
 31
0.0
 11
128.4829328635147
 21
332.6305032977237
 31
0.0
 11
128.5165145910957
 21
332.6244028074377
 31
0.0
 11
128.5505282656
 21
332.6223072173
 31
0.0
  0
SPLINE
  5
10A
330
1F
100
AcDbEntity
  8
0
  6
Continuous
 62
     7
100
AcDbSpline
210
0.0
220
0.0
230
1.0
 70
     8
 71
     3
 72
    17
 73
    13
 74
    11
 42
0.0000000001
 43
0.0000000001
 44
0.00000001
 40
0.0
 40
0.0
 40
0.0
 40
0.0
 40
0.0340790969987057
 40
0.0682097420654141
 40
0.1023154065447672
 40
0.1364128754559453
 40
0.2043992838424954
 40
0.272593567909945
 40
0.3406803506344206
 40
0.4086986202188944
 40
0.4767464406203274
 40
0.5447862542713457
 40
0.5447862542713457
 40
0.5447862542713457
 40
0.5447862542713457
 10
128.5505282656
 20
317.2223072173
 30
0.0
 10
128.5391623752039
 20
317.2218959496264
 30
0.0
 10
128.5164134023573
 20
317.2210727921955
 30
0.0
 10
128.482786038584
 20
317.2147049081407
 30
0.0
 10
128.4500695641184
 20
317.204876878714
 30
0.0
 10
128.4081185979674
 20
317.1873396444928
 30
0.0
 10
128.3589687581463
 20
317.1584037961431
 30
0.0
 10
128.3056275231177
 20
317.1158388972897
 30
0.0
 10
128.2570435917726
 20
317.067971618248
 30
0.0
 10
128.2128206876411
 20
317.0161755068082
 30
0.0
 10
128.1718746952257
 20
316.961775988714
 30
0.0
 10
128.1470519949919
 20
316.9237960629184
 30
0.0
 10
128.1346413751
 20
316.9048072173
 30
0.0
 11
128.5505282656
 21
317.2223072173
 31
0.0
 11
128.5165131954677
 21
317.2202191904465
 31
0.0
 11
128.482930792446
 21
317.2141263142819
 31
0.0
 11
128.4502659725299
 21
317.2043178541871
 31
0.0
 11
128.4187783579945
 21
317.1912347537512
 31
0.0
 11
128.3599624911922
 21
317.1571342326761
 31
0.0
 11
128.3063954511103
 21
317.1149319507906
 31
0.0
 11
128.2577490744014
 21
317.0672943604353
 31
0.0
 11
128.2133712905662
 21
317.0157473207614
 31
0.0
 11
128.1724926730757
 21
316.9613465441727
 31
0.0
 11
128.1346413751
 21
316.9048072173
 31
0.0
  0
SPLINE
  5
10B
330
1F
100
AcDbEntity
  8
0
  6
Continuous
 62
     7
100
AcDbSpline
210
0.0
220
0.0
230
1.0
 70
     8
 71
     3
 72
    17
 73
    13
 74
    11
 42
0.0000000001
 43
0.0000000001
 44
0.00000001
 40
0.0
 40
0.0
 40
0.0
 40
0.0
 40
0.0340781916365113
 40
0.0682095735767574
 40
0.1023243844943496
 40
0.1364288245601824
 40
0.2044171801144756
 40
0.2726179463531297
 40
0.3407061060430769
 40
0.4087238602590351
 40
0.4767591626878589
 40
0.5447868280963047
 40
0.5447868280963047
 40
0.5447868280963047
 40
0.5447868280963047
 10
130.3005282656
 20
332.6223072173
 30
0.0
 10
130.3118938482991
 20
332.6227207143507
 30
0.0
 10
130.334642753453
 20
332.623548353851
 30
0.0
 10
130.3682702963095
 20
332.6299295322534
 30
0.0
 10
130.4009949003411
 20
332.6397474286076
 30
0.0
 10
130.4429604064737
 20
332.6572664577274
 30
0.0
 10
130.4921155908053
 20
332.6862068785922
 30
0.0
 10
130.545448199388
 20
332.7287875755759
 30
0.0
 10
130.5940281521258
 20
332.7766619415743
 30
0.0
 10
130.6382465601743
 20
332.8284566854962
 30
0.0
 10
130.6791879766649
 20
332.8828490875781
 30
0.0
 10
130.7040065606989
 20
332.9208218845123
 30
0.0
 10
130.7164151562
 20
332.9398072173
 30
0.0
 11
130.3005282656
 21
332.6223072173
 31
0.0
 11
130.3345419585212
 21
332.6244028888097
 31
0.0
 11
130.3681237131561
 21
332.6305034616348
 31
0.0
 11
130.4007997952109
 21
332.6403062156095
 31
0.0
 11
130.4322991996464
 21
332.6533791017643
 31
0.0
 11
130.4911185139351
 21
332.6874775585854
 31
0.0
 11
130.5446824056546
 21
332.7296943090454
 31
0.0
 11
130.5933237184873
 21
332.7773390377766
 31
0.0
 11
130.6376989211106
 21
332.8288876195294
 31
0.0
 11
130.6785700567568
 21
332.8832783599875
 31
0.0
 11
130.7164151562
 21
332.9398072173
 31
0.0
  0
SPLINE
  5
10C
330
1F
100
AcDbEntity
  8
0
  6
Continuous
 62
     7
100
AcDbSpline
210
0.0
220
0.0
230
1.0
 70
     8
 71
     3
 72
    17
 73
    13
 74
    11
 42
0.0000000001
 43
0.0000000001
 44
0.00000001
 40
0.0
 40
0.0
 40
0.0
 40
0.0
 40
0.0680405844388957
 40
0.1360892264606993
 40
0.2041088007963878
 40
0.272196698964194
 40
0.3403905143549772
 40
0.4083768376823586
 40
0.4424735707594799
 40
0.4765783279776213
 40
0.5107080466342288
 40
0.5447863434426654
 40
0.5447863434426654
 40
0.5447863434426654
 40
0.5447863434426654
 10
130.7164151562
 20
316.9048072173
 30
0.0
 10
130.7040043839939
 20
316.9237962706586
 30
0.0
 10
130.6791813698584
 20
316.96177662612
 30
0.0
 10
130.6382347784795
 20
317.0161768973858
 30
0.0
 10
130.5940113747431
 20
317.067974001394
 30
0.0
 10
130.5454267130402
 20
317.1158415306674
 30
0.0
 10
130.4920841387613
 20
317.1584051102038
 30
0.0
 10
130.4429344183071
 20
317.1873400428959
 30
0.0
 10
130.4009845178353
 20
317.2048782478169
 30
0.0
 10
130.3682690096077
 20
317.2147067044336
 30
0.0
 10
130.3346422864951
 20
317.2210733442067
 30
0.0
 10
130.3118938892456
 20
317.221896133035
 30
0.0
 10
130.3005282656
 20
317.2223072173
 30
0.0
 11
130.7164151562
 21
316.9048072173
 31
0.0
 11
130.6785633973954
 21
316.9613471632337
 31
0.0
 11
130.6376843045701
 21
317.0157486103724
 31
0.0
 11
130.5933057581712
 21
317.0672967152099
 31
0.0
 11
130.5446582319696
 21
317.1149347259931
 31
0.0
 11
130.4910906624317
 21
317.1571355784886
 31
0.0
 11
130.4322746598089
 21
317.1912356957179
 31
0.0
 11
130.4007880177361
 21
317.2043192188485
 31
0.0
 11
130.3681241920108
 21
317.2141278351575
 31
0.0
 11
130.3345425746486
 21
317.2202198521405
 31
0.0
 11
130.3005282656
 21
317.2223072173
 31
0.0
  0
SPLINE
  5
10D
330
1F
100
AcDbEntity
  8
VERERBUNG
  6
Continuous
 62
     7
100
AcDbSpline
210
0.0
220
0.0
230
1.0
 70
     8
 71
     3
 72
     9
 73
     5
 74
     3
 42
0.0000000001
 43
0.0000000001
 44
0.00000001
 40
0.0
 40
0.0
 40
0.0
 40
0.0
 40
0.0774000574897512
 40
0.1547963631991666
 40
0.1547963631991666
 40
0.1547963631991666
 40
0.1547963631991666
 10
80.0022299426
 20
334.0700968976
 30
0.0
 10
80.01754990695844
 20
334.0908615502723
 30
0.0
 10
80.04818909307713
 20
334.1323898491006
 30
0.0
 10
80.08086534574912
 20
334.1723350839493
 30
0.0
 10
80.0972030761
 20
334.1923072173
 30
0.0
 11
80.0022299426
 21
334.0700968976
 31
0.0
 11
80.04869912699999
 21
334.1319950704375
 31
0.0
 11
80.0972030761
 21
334.1923072173
 31
0.0
  0
SPLINE
  5
10E
330
1F
100
AcDbEntity
  8
VERERBUNG
  6
Continuous
 62
     7
100
AcDbSpline
210
0.0
220
0.0
230
1.0
 70
     8
 71
     3
 72
    13
 73
     9
 74
     7
 42
0.0000000001
 43
0.0000000001
 44
0.00000001
 40
0.0
 40
0.0
 40
0.0
 40
0.0
 40
0.4765182418838042
 40
0.9529821705393706
 40
1.193158829894706
 40
1.433310795822546
 40
1.675484054863649
 40
1.917493731621309
 40
1.917493731621309
 40
1.917493731621309
 40
1.917493731621309
 10
84.9129353034
 20
334.1923072173
 30
0.0
 10
84.98475591605673
 20
334.0505090544692
 30
0.0
 10
85.12838895530517
 20
333.7669288908666
 30
0.0
 10
85.26281304919848
 20
333.3913149342728
 30
0.0
 10
85.34440775048634
 20
333.082838475176
 30
0.0
 10
85.3898130958471
 20
332.8461650325278
 30
0.0
 10
85.41968883367568
 20
332.606218581947
 30
0.0
 10
85.42358222675571
 20
332.444784637643
 30
0.0
 10
85.4255282656
 20
332.3640949359
 30
0.0
 11
84.9129353034
 21
334.1923072173
 31
0.0
 11
85.11932915396831
 21
333.7628060958863
 31
0.0
 11
85.28075934039364
 21
333.3145225135185
 31
0.0
 11
85.34171555993663
 21
333.0822098642759
 31
0.0
 11
85.38710343368537
 21
332.8463859730867
 31
0.0
 11
85.4156735903788
 21
332.6059038873899
 31
0.0
 11
85.4255282656
 21
332.3640949359
 31
0.0
  0
SPLINE
  5
10F
330
1F
100
AcDbEntity
  8
VERERBUNG
  6
Continuous
 62
     7
100
AcDbSpline
210
0.0
220
0.0
230
1.0
 70
     8
 71
     3
 72
    19
 73
    15
 74
    13
 42
0.0000000001
 43
0.0000000001
 44
0.00000001
 40
0.0
 40
0.0
 40
0.0
 40
0.0
 40
0.0835832283125032
 40
0.1672705448919771
 40
0.2499538624532328
 40
0.3326148850812135
 40
0.4138475639488726
 40
0.4950848398430483
 40
0.574937574080004
 40
0.6547985888542112
 40
0.8114954797207415
 40
0.9684466433665181
 40
1.123543258645505
 40
1.278502018211656
 40
1.278502018211656
 40
1.278502018211656
 40
1.278502018211656
 10
83.9255282656
 20
334.8786200993
 30
0.0
 10
83.9533269061926
 20
334.8808929799882
 30
0.0
 10
84.0089588057143
 20
334.8854415718391
 30
0.0
 10
84.09239020923783
 20
334.8800754438027
 30
0.0
 10
84.17429928264174
 20
334.8657712603807
 30
0.0
 10
84.25333575552084
 20
334.8425814691781
 30
0.0
 10
84.32903676353078
 20
334.8114767621593
 30
0.0
 10
84.40056640135832
 20
334.7737061131256
 30
0.0
 10
84.46810824352136
 20
334.7300708287621
 30
0.0
 10
84.55197768735314
 20
334.6659753420112
 30
0.0
 10
84.64756561739999
 20
334.5755521436775
 30
0.0
 10
84.74793989630302
 20
334.4555058034866
 30
0.0
 10
84.83698420755012
 20
334.3275070956773
 30
0.0
 10
84.88762577680792
 20
334.2373604832043
 30
0.0
 10
84.9129353034
 20
334.1923072173
 30
0.0
 11
83.9255282656
 21
334.8786200993
 31
0.0
 11
84.0089743423342
 21
334.8834063643166
 31
0.0
 11
84.09252003123731
 21
334.8785396588625
 31
0.0
 11
84.17396030536419
 21
334.8642563555655
 31
0.0
 11
84.25330514014041
 21
334.8410778772669
 31
0.0
 11
84.32848154761969
 21
334.8103003550384
 31
0.0
 11
84.40036591122555
 21
334.7724568184213
 31
0.0
 11
84.46749714117065
 21
334.7292149737431
 31
0.0
 11
84.53101389524895
 21
334.6808062593198
 31
0.0
 11
84.64525101474949
 21
334.5735505082597
 31
0.0
 11
84.74648473545696
 21
334.4536113505109
 31
0.0
 11
84.83488940642978
 21
334.3261767625013
 31
0.0
 11
84.9129353034
 21
334.1923072173
 31
0.0
  0
SPLINE
  5
110
330
1F
100
AcDbEntity
  8
VERERBUNG
  6
Continuous
 62
     7
100
AcDbSpline
210
0.0
220
0.0
230
1.0
 70
     8
 71
     3
 72
    43
 73
    39
 74
    37
 42
0.0000000001
 43
0.0000000001
 44
0.00000001
 40
0.0
 40
0.0
 40
0.0
 40
0.0
 40
0.4175881290579675
 40
0.8356316531790571
 40
1.253282832061193
 40
1.670787328105945
 40
2.088079154591788
 40
2.505458237199482
 40
2.922766757570999
 40
3.339867556136614
 40
3.548612846066129
 40
3.757291312506826
 40
3.966036487593184
 40
4.174848410737357
 40
4.592416990877997
 40
5.010187344174049
 40
5.428059866889824
 40
5.845880990837955
 40
6.263484877187206
 40
6.68110357879438
 40
7.097989619752015
 40
7.514858051265909
 40
7.930683045177837
 40
8.346557961801883
 40
8.761608457106393
 40
9.176458234649967
 40
9.383846863187244
 40
9.591169424665527
 40
9.798492920850252
 40
10.00588294528819
 40
10.42072923642693
 40
10.835777636527
 40
11.25173036428456
 40
11.66760664543562
 40
12.08452417592023
 40
12.50157511622212
 40
12.91952009639176
 40
13.33702821012782
 40
13.33702821012782
 40
13.33702821012782
 40
13.33702821012782
 10
98.1761545554
 20
324.9223072173
 30
0.0
 10
98.18007543482955
 20
325.0615624958833
 30
0.0
 10
98.18792146955052
 20
325.3402249160028
 30
0.0
 10
98.25207306962096
 20
325.754076974804
 30
0.0
 10
98.3534835262117
 20
326.159844286834
 30
0.0
 10
98.49493081922277
 20
326.5534175201162
 30
0.0
 10
98.67431085960763
 20
326.9310256627745
 30
0.0
 10
98.8899781544767
 20
327.2891110024373
 30
0.0
 10
99.13989826235866
 20
327.6240706879723
 30
0.0
 10
99.37456828734443
 20
327.881488176041
 30
0.0
 10
99.57673667265522
 20
328.0726977567892
 30
0.0
 10
99.7353202287451
 20
328.2085390916944
 30
0.0
 10
99.90040171427262
 20
328.3364412246019
 30
0.0
 10
100.1286522559235
 20
328.4959605936816
 30
0.0
 10
100.4284113839329
 20
328.6740277172365
 30
0.0
 10
100.8072641171778
 20
328.8515693945957
 30
0.0
 10
101.2018066306783
 20
328.9911210292804
 30
0.0
 10
101.6080195327537
 20
329.091500158644
 30
0.0
 10
102.022015657844
 20
329.1516700916602
 30
0.0
 10
102.4395912019929
 20
329.1712536707059
 30
0.0
 10
102.8568345195599
 20
329.149945136776
 30
0.0
 10
103.2694353950982
 20
329.0882318834263
 30
0.0
 10
103.6736972583636
 20
328.9865623940168
 30
0.0
 10
104.065562572746
 20
328.846175030049
 30
0.0
 10
104.4414679204201
 20
328.6682078570877
 30
0.0
 10
104.738584230657
 20
328.4901860389455
 30
0.0
 10
104.9647271491869
 20
328.3308939101406
 30
0.0
 10
105.1282427911886
 20
328.2032608132355
 30
0.0
 10
105.2853071410996
 20
328.0677670349183
 30
0.0
 10
105.4856371070739
 20
327.8770262153612
 30
0.0
 10
105.7181979981748
 20
327.6203459615702
 30
0.0
 10
105.9660173402964
 20
327.2863010533906
 30
0.0
 10
106.1799171553762
 20
326.9291449043926
 30
0.0
 10
106.3580175273973
 20
326.5522058183974
 30
0.0
 10
106.498571937943
 20
326.159243542297
 30
0.0
 10
106.5994213684528
 20
325.7537788238089
 30
0.0
 10
106.6631060553619
 20
325.3401306965009
 30
0.0
 10
106.6709713733374
 20
325.0615331499241
 30
0.0
 10
106.6749019759
 20
324.9223072173
 30
0.0
 11
98.1761545554
 21
324.9223072173
 31
0.0
 11
98.1966395083913
 21
325.339392594928
 31
0.0
 11
98.25831120898977
 21
325.7528620489447
 31
0.0
 11
98.36018221448724
 21
326.1578988441381
 31
0.0
 11
98.50128540426853
 21
326.5508363634095
 31
0.0
 11
98.68034977936337
 21
326.9277560073971
 31
0.0
 11
98.89570667186845
 21
327.2852846180691
 31
0.0
 11
99.14522238881273
 21
327.6197817154742
 31
0.0
 11
99.42624769901948
 21
327.9279989297684
 31
0.0
 11
99.57790158798812
 21
328.0714412318569
 31
0.0
 11
99.73638299193598
 21
328.2071996458088
 31
0.0
 11
99.90139674244266
 21
328.3350472514397
 31
0.0
 11
100.0725550111574
 21
328.4546602369294
 31
0.0
 11
100.4315306787063
 21
328.6679675017575
 31
0.0
 11
100.8098348343119
 21
328.8452188316388
 31
0.0
 11
101.2037772258195
 21
328.9845990218168
 31
0.0
 11
101.6094016378721
 21
329.0848154274812
 31
0.0
 11
102.0226591759273
 21
329.1449087976195
 31
0.0
 11
102.439821020508
 21
329.1644376316364
 31
0.0
 11
102.8561657334394
 21
329.1431996665872
 31
0.0
 11
103.2684418871768
 21
329.0814934087822
 31
0.0
 11
103.6717120793447
 21
328.9800854324156
 31
0.0
 11
104.0632063225441
 21
328.8397850267898
 31
0.0
 11
104.4383507797561
 21
328.6622081423829
 31
0.0
 11
104.7941833464838
 21
328.4489394799313
 31
0.0
 11
104.9637357088469
 21
328.3295156981134
 31
0.0
 11
105.1271673896331
 21
328.2019510861974
 31
0.0
 11
105.2841491159854
 21
328.0665266804881
 31
0.0
 11
105.4343436174618
 21
327.9235153733734
 31
0.0
 11
105.7129092034056
 21
327.6161090305642
 31
0.0
 11
105.9601641351285
 21
327.2827471053773
 31
0.0
 11
106.1739139845448
 21
326.9259170707621
 31
0.0
 11
106.3516042390997
 21
326.5499127427814
 31
0.0
 11
106.4919079008473
 21
326.1573122973848
 31
0.0
 11
106.5931606191234
 21
325.7527392213548
 31
0.0
 11
106.654465705558
 21
325.339314871774
 31
0.0
 11
106.6749019759
 21
324.9223072173
 31
0.0
  0
SPLINE
  5
111
330
1F
100
AcDbEntity
  8
VERERBUNG
  6
Continuous
 62
     7
100
AcDbSpline
210
0.0
220
0.0
230
1.0
 70
     8
 71
     3
 72
    13
 73
     9
 74
     7
 42
0.0000000001
 43
0.0000000001
 44
0.00000001
 40
0.0
 40
0.0
 40
0.0
 40
0.0
 40
0.2420096761428501
 40
0.4841829345765079
 40
0.7243349034836735
 40
0.9645115658399512
 40
1.44097549215356
 40
1.917493731722273
 40
1.917493731722273
 40
1.917493731722273
 40
1.917493731722273
 10
85.4255282656
 20
317.4805194988
 30
0.0
 10
85.42358222676266
 20
317.3998297972619
 30
0.0
 10
85.41968883369647
 20
317.2383958533657
 30
0.0
 10
85.38981309585571
 20
316.9984494021984
 30
0.0
 10
85.344407750173
 20
316.761775957783
 30
0.0
 10
85.26281304835523
 20
316.4532994975644
 30
0.0
 10
85.12838895426545
 20
316.0776855416462
 30
0.0
 10
84.98475591571153
 20
315.7941053794378
 30
0.0
 10
84.9129353034
 20
315.6523072173
 30
0.0
 11
85.4255282656
 21
317.4805194988
 31
0.0
 11
85.41567359041899
 21
317.2387105479238
 31
0.0
 11
85.3871034338607
 21
316.9982284628226
 31
0.0
 11
85.34171555956121
 21
316.7624045687055
 31
0.0
 11
85.28075933908858
 21
316.5300919166043
 31
0.0
 11
85.1193291530511
 21
316.0818083365859
 31
0.0
 11
84.9129353034
 21
315.6523072173
 31
0.0
  0
SPLINE
  5
112
330
1F
100
AcDbEntity
  8
VERERBUNG
  6
Continuous
 62
     7
100
AcDbSpline
210
0.0
220
0.0
230
1.0
 70
     8
 71
     3
 72
    19
 73
    15
 74
    13
 42
0.0000000001
 43
0.0000000001
 44
0.00000001
 40
0.0
 40
0.0
 40
0.0
 40
0.0
 40
0.1549595547009552
 40
0.3100569266449424
 40
0.4670093143341879
 40
0.6237075593682573
 40
0.7035716820240199
 40
0.7834274371419981
 40
0.8646682251250228
 40
0.9459045179973504
 40
1.028561641632498
 40
1.111240956024397
 40
1.194923428804954
 40
1.278501866400322
 40
1.278501866400322
 40
1.278501866400322
 40
1.278501866400322
 10
84.9129353034
 20
315.6523072173
 30
0.0
 10
84.88762565354219
 20
315.6072537165176
 30
0.0
 10
84.83698384404214
 20
315.5171066454694
 30
0.0
 10
84.74793892401864
 20
315.3891072208601
 30
0.0
 10
84.64756352456297
 20
315.2690603522478
 30
0.0
 10
84.55197407756498
 20
315.1786360390493
 30
0.0
 10
84.46810278667543
 20
315.1145388518559
 30
0.0
 10
84.40055792175411
 20
315.0709022485484
 30
0.0
 10
84.32902426208341
 20
315.0331318782312
 30
0.0
 10
84.25332129121549
 20
315.0020291445408
 30
0.0
 10
84.17428585134971
 20
314.978841114751
 30
0.0
 10
84.09238086433606
 20
314.9645382932388
 30
0.0
 10
84.00895398634944
 20
314.9591730968824
 30
0.0
 10
83.95332530562538
 20
314.9637215322597
 30
0.0
 10
83.9255282656
 20
314.9659943354
 30
0.0
 11
84.9129353034
 21
315.6523072173
 31
0.0
 11
84.83488900901536
 21
315.5184369833944
 31
0.0
 11
84.74648379271848
 21
315.3910018527772
 31
0.0
 11
84.64524897389126
 21
315.2710620201177
 31
0.0
 11
84.53101076913396
 21
315.1638054465635
 31
0.0
 11
84.46749156694287
 21
315.1153948171462
 31
0.0
 11
84.40035743541173
 21
315.0721518985465
 31
0.0
 11
84.32846906460873
 21
315.0343084344424
 31
0.0
 11
84.2532884214425
 21
315.0035317196608
 31
0.0
 11
84.17394689647973
 21
314.9803558161354
 31
0.0
 11
84.09251043212689
 21
314.9660739639438
 31
0.0
 11
84.00896954582583
 21
314.9612081067014
 31
0.0
 11
83.9255282656
 21
314.9659943354
 31
0.0
  0
SPLINE
  5
113
330
1F
100
AcDbEntity
  8
VERERBUNG
  6
Continuous
 62
     7
100
AcDbSpline
210
0.0
220
0.0
230
1.0
 70
     8
 71
     3
 72
    43
 73
    39
 74
    37
 42
0.0000000001
 43
0.0000000001
 44
0.00000001
 40
0.0
 40
0.0
 40
0.0
 40
0.0
 40
0.4175035109292506
 40
0.8354555648204545
 40
1.252511183671409
 40
1.669422664424579
 40
2.085295425732949
 40
2.501251326573076
 40
2.916298094063756
 40
3.331138757688258
 40
3.538526232909854
 40
3.745847790863108
 40
3.953170095023832
 40
4.160558348129799
 40
4.5754075443727
 40
4.990456744623017
 40
5.406332394427291
 40
5.822158816067415
 40
6.239027280506786
 40
6.655913113552735
 40
7.073532178544754
 40
7.491136194361387
 40
7.908956414478135
 40
8.326828662561066
 40
8.744600199968424
 40
9.162169349372675
 40
9.370981458418331
 40
9.579726706200555
 40
9.788406630765962
 40
9.997153926510457
 40
10.41425933411531
 40
10.83156890846456
 40
11.24894510859145
 40
11.66624011605883
 40
12.08375102629648
 40
12.50139861934926
 40
12.91943544781088
 40
13.33702799553201
 40
13.33702799553201
 40
13.33702799553201
 40
13.33702799553201
 10
106.6749019759
 20
324.9223072173
 30
0.0
 10
106.670997396404
 20
324.7830810104
 30
0.0
 10
106.663184042545
 20
324.5044790195701
 30
0.0
 10
106.5993944480716
 20
324.0908417364685
 30
0.0
 10
106.4985577832567
 20
323.6853762203369
 30
0.0
 10
106.3580319064289
 20
323.2924039653234
 30
0.0
 10
106.1799198579759
 20
322.9154716471417
 30
0.0
 10
105.9660063272969
 20
322.5583254607105
 30
0.0
 10
105.718204184216
 20
322.2242705994119
 30
0.0
 10
105.4856561138206
 20
321.9675820751053
 30
0.0
 10
105.285323602856
 20
321.7768485717448
 30
0.0
 10
105.1282549360925
 20
321.6413622415602
 30
0.0
 10
104.9647365600736
 20
321.5137341328431
 30
0.0
 10
104.7385922955038
 20
321.3544447612983
 30
0.0
 10
104.4414802178336
 20
321.176418024839
 30
0.0
 10
104.0655796918418
 20
320.9984410911061
 30
0.0
 10
103.6737140835062
 20
320.8580528254771
 30
0.0
 10
103.2694509156488
 20
320.7563856940673
 30
0.0
 10
102.8568498121156
 20
320.6946718188599
 30
0.0
 10
102.4396065656943
 20
320.6733611196685
 30
0.0
 10
102.0220308033758
 20
320.6929422077538
 30
0.0
 10
101.6080345494733
 20
320.7531110035087
 30
0.0
 10
101.2018224719746
 20
320.8534922352864
 30
0.0
 10
100.807280042707
 20
320.9930433481881
 30
0.0
 10
100.428423004414
 20
321.1705765688263
 30
0.0
 10
100.1286600733201
 20
321.3486391309187
 30
0.0
 10
99.90041047584508
 20
321.5081604563329
 30
0.0
 10
99.73533131135
 20
321.6360666064906
 30
0.0
 10
99.57675163865504
 20
321.7719143126285
 30
0.0
 10
99.37458572949346
 20
321.9631302117931
 30
0.0
 10
99.13990482552626
 20
322.2205402979785
 30
0.0
 10
98.88996986381188
 20
322.5554910206739
 30
0.0
 10
98.67431430911391
 20
322.9135848021538
 30
0.0
 10
98.49494384730491
 20
323.2911990108606
 30
0.0
 10
98.35347118103648
 20
323.6847639047783
 30
0.0
 10
98.25205086191637
 20
324.0905315331734
 30
0.0
 10
98.1879988921336
 20
324.5043941216924
 30
0.0
 10
98.18010126799598
 20
324.7830522370031
 30
0.0
 10
98.1761545554
 20
324.9223072173
 30
0.0
 11
106.6749019759
 21
324.9223072173
 31
0.0
 11
106.6545135933877
 21
324.5053018270509
 31
0.0
 11
106.5931530506267
 21
324.0918785534632
 31
0.0
 11
106.49189518971
 21
323.6873019416606
 31
0.0
 11
106.3516122590678
 21
323.2947005125314
 31
0.0
 11
106.1739174941829
 21
322.9187022091699
 31
0.0
 11
105.9601572964955
 21
322.5618746747385
 31
0.0
 11
105.7129139882493
 21
322.2285061613304
 31
0.0
 11
105.4343610105679
 21
321.9210959877492
 31
0.0
 11
105.284165444673
 21
321.7780894953641
 31
0.0
 11
105.1271803241894
 21
321.6426719915511
 31
0.0
 11
104.9637454486478
 21
321.5151118909741
 31
0.0
 11
104.7941921553897
 21
321.3956900827828
 31
0.0
 11
104.4383629017322
 21
321.182417023385
 31
0.0
 11
104.0632233165409
 21
321.0048328736111
 31
0.0
 11
103.6717290256231
 21
320.8645304278773
 31
0.0
 11
103.2684570794926
 21
320.7631235721022
 31
0.0
 11
102.8561809375685
 21
320.7014170129355
 31
0.0
 11
102.4398365318578
 21
320.6801771064431
 31
0.0
 11
102.0226742206352
 21
320.6997037431284
 31
0.0
 11
101.6094164400615
 21
320.7597963451812
 31
0.0
 11
101.2037931988956
 21
320.8600137217406
 31
0.0
 11
100.8098505551248
 21
320.9993923755466
 31
0.0
 11
100.4315421176571
 21
321.1766373574459
 31
0.0
 11
100.0725633308858
 21
321.3899404872457
 31
0.0
 11
99.9014057904787
 21
321.5095548394191
 31
0.0
 11
99.73639477121769
 21
321.6374060889011
 31
0.0
 11
99.5779164565009
 21
321.7731703503293
 31
0.0
 11
99.42626369499715
 21
321.9166167633515
 31
0.0
 11
99.14522768281472
 21
322.2248304569308
 31
0.0
 11
98.8957020159034
 21
322.559321446938
 31
0.0
 11
98.68035394920199
 21
322.9168520087091
 31
0.0
 11
98.50129304877242
 21
323.2937768250778
 31
0.0
 11
98.36017134593749
 21
323.6867145111763
 31
0.0
 11
98.25830696026792
 21
324.0917492737769
 31
0.0
 11
98.19668778762795
 21
324.5052197896706
 31
0.0
 11
98.1761545554
 21
324.9223072173
 31
0.0
  0
SPLINE
  5
114
330
1F
100
AcDbEntity
  8
VERERBUNG
  6
Continuous
 62
     7
100
AcDbSpline
210
0.0
220
0.0
230
1.0
 70
     8
 71
     3
 72
    23
 73
    19
 74
    17
 42
0.0000000001
 43
0.0000000001
 44
0.00000001
 40
0.0
 40
0.0
 40
0.0
 40
0.0
 40
0.0621269684898254
 40
0.1242824031245212
 40
0.1813135302924551
 40
0.2383411403790572
 40
0.2903938962714524
 40
0.3423956884328597
 40
0.391474707497784
 40
0.4404962287287833
 40
0.4905855734217863
 40
0.5407628275516575
 40
0.5956736074145347
 40
0.6506193812864616
 40
0.7116314425633079
 40
0.7726461253082445
 40
0.8391602986833352
 40
0.9056490031600639
 40
0.9056490031600639
 40
0.9056490031600639
 40
0.9056490031600639
 10
80.0022299426
 20
315.7745175371
 30
0.0
 10
79.98342304585528
 20
315.7658282839778
 30
0.0
 10
79.94580063517648
 20
315.748445796378
 30
0.0
 10
79.88875471062948
 20
315.7282044162514
 30
0.0
 10
79.83188835381345
 20
315.7131968499073
 30
0.0
 10
79.7769975162323
 20
315.7049396250711
 30
0.0
 10
79.72316506257872
 20
315.7036609143186
 30
0.0
 10
79.67228322851207
 20
315.7101659401541
 30
0.0
 10
79.62432564383576
 20
315.7253276737312
 30
0.0
 10
79.58044204935602
 20
315.7486895861528
 30
0.0
 10
79.541939755429
 20
315.7807269738041
 30
0.0
 10
79.50855214404805
 20
315.8205482365371
 30
0.0
 10
79.48146103486356
 20
315.8667733059947
 30
0.0
 10
79.45983135775722
 20
315.9196123318511
 30
0.0
 10
79.4438570449865
 20
315.9765271619464
 30
0.0
 10
79.4329612175666
 20
316.0384906330855
 30
0.0
 10
79.42657415814895
 20
316.1029285468423
 30
0.0
 10
79.42587685194027
 20
316.1472717431267
 30
0.0
 10
79.4255282656
 20
316.1694390956
 30
0.0
 11
80.0022299426
 21
315.7745175371
 31
0.0
 11
79.94543941016833
 21
315.7493263553122
 31
0.0
 11
79.88688038080866
 21
315.728490373572
 31
0.0
 11
79.83166666816624
 21
315.714207677668
 31
0.0
 11
79.77524188955968
 21
315.7059376914896
 31
0.0
 11
79.72319806739075
 21
315.7049733419459
 31
0.0
 11
79.67165375296513
 21
315.7118559314579
 31
0.0
 11
79.62488105918409
 21
315.7267241939267
 31
0.0
 11
79.58168509149809
 21
315.7499021558619
 31
0.0
 11
79.54303210439365
 21
315.7817594790338
 31
0.0
 11
79.51066967457746
 21
315.8201056648729
 31
0.0
 11
79.4826388498586
 21
315.8673228927747
 31
0.0
 11
79.46154494149016
 21
315.9180583349835
 31
0.0
 11
79.44484791671012
 21
315.9767412199224
 31
0.0
 11
79.43400504074921
 21
316.0367847337383
 31
0.0
 11
79.42749395955975
 21
316.1029794546873
 31
0.0
 11
79.4255282656
 21
316.1694390956
 31
0.0
  0
SPLINE
  5
115
330
1F
100
AcDbEntity
  8
VERERBUNG
  6
Continuous
 62
     7
100
AcDbSpline
210
0.0
220
0.0
230
1.0
 70
     8
 71
     3
 72
    23
 73
    19
 74
    17
 42
0.0000000001
 43
0.0000000001
 44
0.00000001
 40
0.0
 40
0.0
 40
0.0
 40
0.0
 40
0.0664886891169254
 40
0.13300285062683
 40
0.1940175413498662
 40
0.2550295990726767
 40
0.3099753628802898
 40
0.3648861554886924
 40
0.415063358021874
 40
0.4651526181033284
 40
0.5141740378635234
 40
0.5632529904995955
 40
0.6152549115689749
 40
0.6673077697930471
 40
0.7243355355969601
 40
0.7813668340125153
 40
0.8435221576047874
 40
0.9056490098004999
 40
0.9056490098004999
 40
0.9056490098004999
 40
0.9056490098004999
 10
79.4255282656
 20
333.6751753391
 30
0.0
 10
79.4258768529621
 20
333.6973426864535
 30
0.0
 10
79.42657416123318
 20
333.7416858736634
 30
0.0
 10
79.43296122040063
 20
333.8061237805215
 30
0.0
 10
79.44385702370084
 20
333.8680872529535
 30
0.0
 10
79.45983133128605
 20
333.9250020845556
 30
0.0
 10
79.4814610582719
 20
333.9778410912812
 30
0.0
 10
79.50855216740004
 20
334.024066134601
 30
0.0
 10
79.5419396499069
 20
334.0638874437647
 30
0.0
 10
79.58044182355802
 20
334.0959248663767
 30
0.0
 10
79.62432539123388
 20
334.1192866675814
 30
0.0
 10
79.67228298012557
 20
334.1344483157036
 30
0.0
 10
79.72316484981451
 20
334.1409534425171
 30
0.0
 10
79.77699743931163
 20
334.1396748511904
 30
0.0
 10
79.83188842361884
 20
334.1314176075972
 30
0.0
 10
79.88875483753431
 20
334.1164099756191
 30
0.0
 10
79.94580073837355
 20
334.0961685884761
 30
0.0
 10
79.98342308078423
 20
334.0787861338622
 30
0.0
 10
80.0022299426
 20
334.0700968976
 30
0.0
 11
79.4255282656
 21
333.6751753391
 31
0.0
 11
79.42749396190311
 21
333.7416349645769
 31
0.0
 11
79.43400503823193
 21
333.8078296740816
 31
0.0
 11
79.44484789934084
 21
333.8678731986867
 31
0.0
 11
79.46154492568759
 21
333.9265560794846
 31
0.0
 11
79.48263886330342
 21
333.977291498634
 31
0.0
 11
79.5106696897709
 21
334.02450874032
 31
0.0
 11
79.54303201180319
 21
334.0628549496076
 31
0.0
 11
79.58168488636952
 21
334.0947122762888
 31
0.0
 11
79.6248807895875
 21
334.1178901437594
 31
0.0
 11
79.6716534352066
 21
334.1327583384597
 31
0.0
 11
79.72319786790099
 21
334.1396410162175
 31
0.0
 11
79.77524179417216
 21
334.1386767612841
 31
0.0
 11
79.83166672939632
 21
334.1304067698974
 31
0.0
 11
79.88688059900012
 21
334.1161239969755
 31
0.0
 11
79.94543951683909
 21
334.0952880330576
 31
0.0
 11
80.0022299426
 21
334.0700968976
 31
0.0
  0
SPLINE
  5
116
330
1F
100
AcDbEntity
  8
VERERBUNG
  6
Continuous
 62
     7
100
AcDbSpline
210
0.0
220
0.0
230
1.0
 70
     8
 71
     3
 72
     9
 73
     5
 74
     3
 42
0.0000000001
 43
0.0000000001
 44
0.00000001
 40
0.0
 40
0.0
 40
0.0
 40
0.0
 40
0.077396305777578
 40
0.1547963632773387
 40
0.1547963632773387
 40
0.1547963632773387
 40
0.1547963632773387
 10
80.0972030761
 20
315.6523072173
 30
0.0
 10
80.08086534575199
 20
315.6722793506821
 30
0.0
 10
80.04818909309796
 20
315.7122245855788
 30
0.0
 10
80.01754990696153
 20
315.7537528844261
 30
0.0
 10
80.0022299426
 20
315.7745175371
 30
0.0
 11
80.0972030761
 21
315.6523072173
 31
0.0
 11
80.048699127
 21
315.71261936425
 31
0.0
 11
80.0022299426
 21
315.7745175371
 31
0.0
  0
SPLINE
  5
117
330
1F
100
AcDbEntity
  8
RUNDUNGEN
  6
Continuous
 62
     7
100
AcDbSpline
210
0.0
220
0.0
230
1.0
 70
     8
 71
     3
 72
    11
 73
     7
 74
     5
 42
0.0000000001
 43
0.0000000001
 44
0.00000001
 40
0.0
 40
0.0
 40
0.0
 40
0.0
 40
0.5749992462299183
 40
1.149999253378759
 40
1.724999654563753
 40
2.299998798451354
 40
2.299998798451354
 40
2.299998798451354
 40
2.299998798451354
 10
137.4305408285
 20
324.9222997053
 30
0.0
 10
137.4304014634373
 20
324.730633280051
 30
0.0
 10
137.4301227331275
 20
324.3473001759133
 30
0.0
 10
137.42842503582
 20
323.7723025183961
 30
0.0
 10
137.4262066802364
 20
323.1973066679746
 30
0.0
 10
137.4257544036473
 20
322.8139735611585
 30
0.0
 10
137.4255282656
 20
322.6223072173
 30
0.0
 11
137.4305408285
 21
324.9222997053
 31
0.0
 11
137.4299094667473
 21
324.3473008056947
 31
0.0
 11
137.4283382598178
 21
323.7723029452379
 31
0.0
 11
137.4264633359138
 21
323.1973056008759
 31
0.0
 11
137.4255282656
 21
322.6223072173
 31
0.0
  0
SPLINE
  5
118
330
1F
100
AcDbEntity
  8
RUNDUNGEN
  6
Continuous
 62
     7
100
AcDbSpline
210
0.0
220
0.0
230
1.0
 70
     8
 71
     3
 72
    11
 73
     7
 74
     5
 42
0.0000000001
 43
0.0000000001
 44
0.00000001
 40
0.0
 40
0.0
 40
0.0
 40
0.0
 40
0.5750028998121252
 40
1.150007057012339
 40
1.72501082015324
 40
2.300013822443318
 40
2.300013822443318
 40
2.300013822443318
 40
2.300013822443318
 10
137.4255282656
 20
327.2223072173
 30
0.0
 10
137.4257544064605
 20
327.0306396214682
 30
0.0
 10
137.426206688676
 20
326.6473040106752
 30
0.0
 10
137.4284250642182
 20
326.0723044043251
 30
0.0
 10
137.4301227600452
 20
325.4973029907496
 30
0.0
 10
137.4304014724099
 20
325.1139673825776
 30
0.0
 10
137.4305408285
 20
324.9222997053
 30
0.0
 11
137.4255282656
 21
327.2223072173
 31
0.0
 11
137.4264633462731
 21
326.6473050778114
 31
0.0
 11
137.4283382846428
 21
326.0723039774614
 31
0.0
 11
137.4299094894255
 21
325.4973023609926
 31
0.0
 11
137.4305408285
 21
324.9222997053
 31
0.0
  0
SPLINE
  5
119
330
1F
100
AcDbEntity
  8
VERERBUNG
  6
Continuous
 62
     7
100
AcDbSpline
210
0.0
220
0.0
230
1.0
 70
     8
 71
     3
 72
    11
 73
     7
 74
     5
 42
0.0000000001
 43
0.0000000001
 44
0.00000001
 40
0.0
 40
0.0
 40
0.0
 40
0.0
 40
0.5427795451559854
 40
1.085508812756518
 40
1.337448492055988
 40
1.589025708905133
 40
1.589025708905133
 40
1.589025708905133
 40
1.589025708905133
 10
80.0022299426
 20
315.7745175371
 30
0.0
 10
80.07996028008607
 20
315.9381378940716
 30
0.0
 10
80.23541375491332
 20
316.2653634518953
 30
0.0
 10
80.35933527701553
 20
316.6959763482484
 30
0.0
 10
80.41688964250073
 20
317.0406093743284
 30
0.0
 10
80.42265010681248
 20
317.2085271089493
 30
0.0
 10
80.4255282656
 20
317.2924255375
 30
0.0
 11
80.0022299426
 21
315.7745175371
 31
0.0
 11
80.22170081733752
 21
316.2709469578455
 31
0.0
 11
80.37232486047915
 21
316.7923560635752
 31
0.0
 11
80.41141713878663
 21
317.0412443834744
 31
0.0
 11
80.4255282656
 21
317.2924255375
 31
0.0
  0
SPLINE
  5
11A
330
1F
100
AcDbEntity
  8
VERERBUNG
  6
Continuous
 62
     7
100
AcDbSpline
210
0.0
220
0.0
230
1.0
 70
     8
 71
     3
 72
    11
 73
     7
 74
     5
 42
0.0000000001
 43
0.0000000001
 44
0.00000001
 40
0.0
 40
0.0
 40
0.0
 40
0.0
 40
0.4891002096563252
 40
0.9783817006611443
 40
1.283670603041466
 40
1.588797103068321
 40
1.588797103068321
 40
1.588797103068321
 40
1.588797103068321
 10
80.4255282656
 20
332.5521888972
 30
0.0
 10
80.41475750797638
 20
332.7153420905023
 30
0.0
 10
80.39321200062801
 20
333.0417089486222
 30
0.0
 10
80.26969847062907
 20
333.4543278511141
 30
0.0
 10
80.13691806719967
 20
333.7960430554928
 30
0.0
 10
80.04711802030025
 20
333.9787618211401
 30
0.0
 10
80.0022299426
 20
334.0700968976
 30
0.0
 11
80.4255282656
 21
332.5521888972
 31
0.0
 11
80.37507436165373
 21
333.0386798207149
 31
0.0
 11
80.2446061280302
 21
333.5102457412977
 31
0.0
 11
80.13287211028954
 21
333.794352804209
 31
0.0
 11
80.0022299426
 21
334.0700968976
 31
0.0
  0
DIMENSION
  5
125
330
1F
100
AcDbEntity
  8
1
100
AcDbDimension
  2
*D2
 10
233.969688263201
 20
337.4223072173
 30
0.0
 11
230.219688263201
 21
324.702978087338
 31
0.0
 70
    32
  1
<>
 71
     5
 42
-1.0
 53
90.0
  3
ME10_DIM_10
100
AcDbAlignedDimension
 13
221.4255282656
 23
312.4223072173
 33
0.0
 14
221.4255282656
 24
337.4223072173
 34
0.0
 50
90.0
100
AcDbRotatedDimension
  0
DIMENSION
  5
130
330
1F
100
AcDbEntity
  8
1
100
AcDbDimension
  2
*D3
 10
242.40700432592
 20
356.9223072173
 30
0.0
 11
238.65700432592
 21
325.571525329089
 31
0.0
 70
    32
  1
<>
 71
     5
 42
-1.0
 53
90.0
  3
ME10_DIM_11
100
AcDbAlignedDimension
 13
212.0113147033
 23
292.9223072173
 33
0.0
 14
212.0113147033
 24
356.9223072173
 34
0.0
 50
90.0
100
AcDbRotatedDimension
  0
DIMENSION
  5
13B
330
1F
100
AcDbEntity
  8
1
100
AcDbDimension
  2
*D4
 10
221.4255282656
 20
369.371121948792
 30
0.0
 11
180.740150161635
 21
373.121121948792
 31
0.0
 70
    32
  1
<>
 71
     5
 42
-1.0
 53
0.00013888888889
  3
ME10_DIM_12
100
AcDbAlignedDimension
 13
137.4255282656
 23
356.4222915203
 33
0.0
 14
221.4255282656
 24
347.508093655
 34
0.0
100
AcDbRotatedDimension
  0
DIMENSION
  5
146
330
1F
100
AcDbEntity
  8
1
100
AcDbDimension
  2
*D5
 10
221.4255282656
 20
377.188047124546
 30
0.0
 11
166.96747247102
 21
380.938047124546
 31
0.0
 70
    32
  1
<>
 71
     5
 42
-1.0
 53
0.00013888888889
  3
ME10_DIM_13
100
AcDbAlignedDimension
 13
111.4255282656
 23
356.4223072173
 33
0.0
 14
221.4255282656
 24
347.508093655
 34
0.0
100
AcDbRotatedDimension
  0
DIMENSION
  5
151
330
1F
100
AcDbEntity
  8
1
100
AcDbDimension
  2
*D6
 10
221.4255282656
 20
385.129050477693
 30
0.0
 11
158.03384369873
 21
388.879050477693
 31
0.0
 70
    32
  1
<>
 71
     5
 42
-1.0
 53
0.00013888888889
  3
ME10_DIM_14
100
AcDbAlignedDimension
 13
79.4255282656
 23
346.4983343975
 33
0.0
 14
221.4255282656
 24
347.508093655
 34
0.0
100
AcDbRotatedDimension
  0
INSERT
  5
158
330
1F
100
AcDbEntity
  8
1
100
AcDbBlockReference
  2
*D7
 10
0.0
 20
0.0
 30
0.0
  0
ENDSEC
  0
SECTION
  2
OBJECTS
  0
DICTIONARY
  5
C
330
0
100
AcDbDictionary
281
     1
  3
ACAD_GROUP
350
D
  3
ACAD_LAYOUT
350
1A
  3
ACAD_MLEADERSTYLE
350
15B
  3
ACAD_MLINESTYLE
350
17
  3
ACAD_PLOTSETTINGS
350
19
  3
ACAD_PLOTSTYLENAME
350
E
  3
ACAD_SCALELIST
350
4B
  3
ACAD_VISUALSTYLE
350
2A
  3
AcDbVariableDictionary
350
159
  0
DICTIONARY
  5
D
102
{ACAD_REACTORS
330
C
102
}
330
C
100
AcDbDictionary
281
     1
  0
DICTIONARY
  5
1A
102
{ACAD_REACTORS
330
C
102
}
330
C
100
AcDbDictionary
281
     1
  3
Layout1
350
1E
  3
Layout2
350
26
  3
Model
350
22
  0
DICTIONARY
  5
15B
102
{ACAD_REACTORS
330
C
102
}
330
C
100
AcDbDictionary
281
     1
  0
DICTIONARY
  5
17
102
{ACAD_REACTORS
330
C
102
}
330
C
100
AcDbDictionary
281
     1
  3
Standard
350
18
  0
DICTIONARY
  5
19
102
{ACAD_REACTORS
330
C
102
}
330
C
100
AcDbDictionary
281
     1
  0
ACDBDICTIONARYWDFLT
  5
E
102
{ACAD_REACTORS
330
C
102
}
330
C
100
AcDbDictionary
281
     1
  3
Normal
350
F
100
AcDbDictionaryWithDefault
340
F
  0
DICTIONARY
  5
4B
102
{ACAD_REACTORS
330
C
102
}
330
C
100
AcDbDictionary
281
     1
  3
A0
350
4C
  3
A1
350
4D
  3
A2
350
4E
  3
A3
350
4F
  3
A4
350
50
  3
A5
350
51
  3
A6
350
52
  3
A7
350
53
  3
A8
350
54
  3
A9
350
55
  3
B0
350
56
  3
B1
350
57
  3
B2
350
58
  3
B3
350
59
  3
B4
350
5A
  3
B5
350
5B
  3
B6
350
5C
  3
B7
350
5D
  3
B8
350
5E
  3
B9
350
5F
  3
C0
350
60
  3
C1
350
61
  3
C2
350
62
  3
C3
350
63
  3
C4
350
64
  3
C5
350
65
  3
C6
350
66
  3
C7
350
67
  3
C8
350
68
  3
C9
350
69
  3
D0
350
6A
  3
D1
350
6B
  3
D2
350
6C
  0
DICTIONARY
  5
2A
102
{ACAD_REACTORS
330
C
102
}
330
C
100
AcDbDictionary
281
     1
  3
2dWireframe
350
2F
  3
3D Hidden
350
31
  3
3dWireframe
350
30
  3
Basic
350
32
  3
Brighten
350
36
  3
ColorChange
350
3A
  3
Conceptual
350
34
  3
Dim
350
35
  3
Facepattern
350
39
  3
Flat
350
2B
  3
FlatWithEdges
350
2C
  3
Gouraud
350
2D
  3
GouraudWithEdges
350
2E
  3
Linepattern
350
38
  3
Realistic
350
33
  3
Thicken
350
37
  0
DICTIONARY
  5
159
102
{ACAD_REACTORS
330
C
102
}
330
C
100
AcDbDictionary
281
     1
  3
CANNOSCALE
350
15C
  0
LAYOUT
  5
1E
102
{ACAD_REACTORS
330
1A
102
}
330
1A
100
AcDbPlotSettings
  1

  2
none_device
  4

  6

 40
0.0
 41
0.0
 42
0.0
 43
0.0
 44
0.0
 45
0.0
 46
0.0
 47
0.0
 48
0.0
 49
0.0
140
0.0
141
0.0
142
1.0
143
1.0
 70
   688
 72
     0
 73
     0
 74
     5
  7

 75
    16
147
1.0
148
0.0
149
0.0
100
AcDbLayout
  1
Layout1
 70
     1
 71
     1
 10
0.0
 20
0.0
 11
12.0
 21
9.0
 12
0.0
 22
0.0
 32
0.0
 14
1.00000000000000E+20
 24
1.00000000000000E+20
 34
1.00000000000000E+20
 15
-1.00000000000000E+20
 25
-1.00000000000000E+20
 35
-1.00000000000000E+20
146
0.0
 13
0.0
 23
0.0
 33
0.0
 16
1.0
 26
0.0
 36
0.0
 17
0.0
 27
1.0
 37
0.0
 76
     0
330
1B
  0
LAYOUT
  5
26
102
{ACAD_REACTORS
330
1A
102
}
330
1A
100
AcDbPlotSettings
  1

  2
none_device
  4

  6

 40
0.0
 41
0.0
 42
0.0
 43
0.0
 44
0.0
 45
0.0
 46
0.0
 47
0.0
 48
0.0
 49
0.0
140
0.0
141
0.0
142
1.0
143
1.0
 70
   688
 72
     0
 73
     0
 74
     5
  7

 75
    16
147
1.0
148
0.0
149
0.0
100
AcDbLayout
  1
Layout2
 70
     1
 71
     2
 10
0.0
 20
0.0
 11
0.0
 21
0.0
 12
0.0
 22
0.0
 32
0.0
 14
0.0
 24
0.0
 34
0.0
 15
0.0
 25
0.0
 35
0.0
146
0.0
 13
0.0
 23
0.0
 33
0.0
 16
1.0
 26
0.0
 36
0.0
 17
0.0
 27
1.0
 37
0.0
 76
     0
330
23
  0
LAYOUT
  5
22
102
{ACAD_REACTORS
330
1A
102
}
330
1A
100
AcDbPlotSettings
  1

  2
none_device
  4

  6

 40
0.0
 41
0.0
 42
0.0
 43
0.0
 44
0.0
 45
0.0
 46
0.0
 47
0.0
 48
0.0
 49
0.0
140
0.0
141
0.0
142
1.0
143
1.0
 70
  1712
 72
     0
 73
     0
 74
     0
  7

 75
     0
147
1.0
148
0.0
149
0.0
100
AcDbLayout
  1
Model
 70
     1
 71
     0
 10
0.0
 20
0.0
 11
12.0
 21
9.0
 12
0.0
 22
0.0
 32
0.0
 14
56.3105722819307
 24
286.6530832467918
 34
0.0
 15
244.40700432592
 25
395.422470164098
 35
0.0
146
0.0
 13
0.0
 23
0.0
 33
0.0
 16
1.0
 26
0.0
 36
0.0
 17
0.0
 27
1.0
 37
0.0
 76
     0
330
1F
331
29
  0
MLINESTYLE
  5
18
102
{ACAD_REACTORS
330
17
102
}
330
17
100
AcDbMlineStyle
  2
Standard
 70
     0
  3

 62
   256
 51
90.0
 52
90.0
 71
     2
 49
0.5
 62
   256
  6
BYLAYER
 49
-0.5
 62
   256
  6
BYLAYER
  0
ACDBPLACEHOLDER
  5
F
102
{ACAD_REACTORS
330
E
102
}
330
E
  0
SCALE
  5
4C
102
{ACAD_REACTORS
330
4B
102
}
330
4B
100
AcDbScale
 70
     0
300
1:1
140
1.0
141
1.0
290
     1
  0
SCALE
  5
4D
102
{ACAD_REACTORS
330
4B
102
}
330
4B
100
AcDbScale
 70
     0
300
1:2
140
1.0
141
2.0
290
     0
  0
SCALE
  5
4E
102
{ACAD_REACTORS
330
4B
102
}
330
4B
100
AcDbScale
 70
     0
300
1:4
140
1.0
141
4.0
290
     0
  0
SCALE
  5
4F
102
{ACAD_REACTORS
330
4B
102
}
330
4B
100
AcDbScale
 70
     0
300
1:5
140
1.0
141
5.0
290
     0
  0
SCALE
  5
50
102
{ACAD_REACTORS
330
4B
102
}
330
4B
100
AcDbScale
 70
     0
300
1:8
140
1.0
141
8.0
290
     0
  0
SCALE
  5
51
102
{ACAD_REACTORS
330
4B
102
}
330
4B
100
AcDbScale
 70
     0
300
1:10
140
1.0
141
10.0
290
     0
  0
SCALE
  5
52
102
{ACAD_REACTORS
330
4B
102
}
330
4B
100
AcDbScale
 70
     0
300
1:16
140
1.0
141
16.0
290
     0
  0
SCALE
  5
53
102
{ACAD_REACTORS
330
4B
102
}
330
4B
100
AcDbScale
 70
     0
300
1:20
140
1.0
141
20.0
290
     0
  0
SCALE
  5
54
102
{ACAD_REACTORS
330
4B
102
}
330
4B
100
AcDbScale
 70
     0
300
1:30
140
1.0
141
30.0
290
     0
  0
SCALE
  5
55
102
{ACAD_REACTORS
330
4B
102
}
330
4B
100
AcDbScale
 70
     0
300
1:40
140
1.0
141
40.0
290
     0
  0
SCALE
  5
56
102
{ACAD_REACTORS
330
4B
102
}
330
4B
100
AcDbScale
 70
     0
300
1:50
140
1.0
141
50.0
290
     0
  0
SCALE
  5
57
102
{ACAD_REACTORS
330
4B
102
}
330
4B
100
AcDbScale
 70
     0
300
1:100
140
1.0
141
100.0
290
     0
  0
SCALE
  5
58
102
{ACAD_REACTORS
330
4B
102
}
330
4B
100
AcDbScale
 70
     0
300
2:1
140
2.0
141
1.0
290
     0
  0
SCALE
  5
59
102
{ACAD_REACTORS
330
4B
102
}
330
4B
100
AcDbScale
 70
     0
300
4:1
140
4.0
141
1.0
290
     0
  0
SCALE
  5
5A
102
{ACAD_REACTORS
330
4B
102
}
330
4B
100
AcDbScale
 70
     0
300
8:1
140
8.0
141
1.0
290
     0
  0
SCALE
  5
5B
102
{ACAD_REACTORS
330
4B
102
}
330
4B
100
AcDbScale
 70
     0
300
10:1
140
10.0
141
1.0
290
     0
  0
SCALE
  5
5C
102
{ACAD_REACTORS
330
4B
102
}
330
4B
100
AcDbScale
 70
     0
300
100:1
140
100.0
141
1.0
290
     0
  0
SCALE
  5
5D
102
{ACAD_REACTORS
330
4B
102
}
330
4B
100
AcDbScale
 70
     0
300
1/128" = 1'-0"
140
0.0078125
141
12.0
290
     0
  0
SCALE
  5
5E
102
{ACAD_REACTORS
330
4B
102
}
330
4B
100
AcDbScale
 70
     0
300
1/64" = 1'-0"
140
0.015625
141
12.0
290
     0
  0
SCALE
  5
5F
102
{ACAD_REACTORS
330
4B
102
}
330
4B
100
AcDbScale
 70
     0
300
1/32" = 1'-0"
140
0.03125
141
12.0
290
     0
  0
SCALE
  5
60
102
{ACAD_REACTORS
330
4B
102
}
330
4B
100
AcDbScale
 70
     0
300
1/16" = 1'-0"
140
0.0625
141
12.0
290
     0
  0
SCALE
  5
61
102
{ACAD_REACTORS
330
4B
102
}
330
4B
100
AcDbScale
 70
     0
300
3/32" = 1'-0"
140
0.09375
141
12.0
290
     0
  0
SCALE
  5
62
102
{ACAD_REACTORS
330
4B
102
}
330
4B
100
AcDbScale
 70
     0
300
1/8" = 1'-0"
140
0.125
141
12.0
290
     0
  0
SCALE
  5
63
102
{ACAD_REACTORS
330
4B
102
}
330
4B
100
AcDbScale
 70
     0
300
3/16" = 1'-0"
140
0.1875
141
12.0
290
     0
  0
SCALE
  5
64
102
{ACAD_REACTORS
330
4B
102
}
330
4B
100
AcDbScale
 70
     0
300
1/4" = 1'-0"
140
0.25
141
12.0
290
     0
  0
SCALE
  5
65
102
{ACAD_REACTORS
330
4B
102
}
330
4B
100
AcDbScale
 70
     0
300
3/8" = 1'-0"
140
0.375
141
12.0
290
     0
  0
SCALE
  5
66
102
{ACAD_REACTORS
330
4B
102
}
330
4B
100
AcDbScale
 70
     0
300
1/2" = 1'-0"
140
0.5
141
12.0
290
     0
  0
SCALE
  5
67
102
{ACAD_REACTORS
330
4B
102
}
330
4B
100
AcDbScale
 70
     0
300
3/4" = 1'-0"
140
0.75
141
12.0
290
     0
  0
SCALE
  5
68
102
{ACAD_REACTORS
330
4B
102
}
330
4B
100
AcDbScale
 70
     0
300
1" = 1'-0"
140
1.0
141
12.0
290
     0
  0
SCALE
  5
69
102
{ACAD_REACTORS
330
4B
102
}
330
4B
100
AcDbScale
 70
     0
300
1-1/2" = 1'-0"
140
1.5
141
12.0
290
     0
  0
SCALE
  5
6A
102
{ACAD_REACTORS
330
4B
102
}
330
4B
100
AcDbScale
 70
     0
300
3" = 1'-0"
140
3.0
141
12.0
290
     0
  0
SCALE
  5
6B
102
{ACAD_REACTORS
330
4B
102
}
330
4B
100
AcDbScale
 70
     0
300
6" = 1'-0"
140
6.0
141
12.0
290
     0
  0
SCALE
  5
6C
102
{ACAD_REACTORS
330
4B
102
}
330
4B
100
AcDbScale
 70
     0
300
1'-0" = 1'-0"
140
12.0
141
12.0
290
     0
  0
VISUALSTYLE
  5
2F
102
{ACAD_REACTORS
330
2A
102
}
330
2A
100
AcDbVisualStyle
  2
2dWireframe
 70
     4
 71
     0
 72
     2
 73
     0
 90
        0
 40
-0.6
 41
-30.0
 62
     5
 63
     7
 74
     1
 91
        4
 64
     7
 65
   257
 75
     1
175
     1
 42
1.0
 92
        0
 66
   257
 43
1.0
 76
     1
 77
     6
 78
     2
 67
     7
 79
     5
170
     0
171
     0
290
     0
174
     0
 93
        1
 44
0.0
173
     0
291
     0
 45
0.0
1001
ACAD
1000
AcDbSavedByObjectVersion
1070
     0
  0
VISUALSTYLE
  5
31
102
{ACAD_REACTORS
330
2A
102
}
330
2A
100
AcDbVisualStyle
  2
3D Hidden
 70
     6
 71
     1
 72
     2
 73
     2
 90
        0
 40
-0.6
 41
-30.0
 62
     5
 63
     7
 74
     2
 91
        2
 64
     7
 65
   257
 75
     2
175
     1
 42
40.0
 92
        0
 66
   257
 43
1.0
 76
     1
 77
     6
 78
     2
 67
     7
 79
     3
170
     0
171
     0
290
     0
174
     0
 93
        1
 44
0.0
173
     0
291
     0
 45
0.0
1001
ACAD
1000
AcDbSavedByObjectVersion
1070
     0
  0
VISUALSTYLE
  5
30
102
{ACAD_REACTORS
330
2A
102
}
330
2A
100
AcDbVisualStyle
  2
3dWireframe
 70
     5
 71
     0
 72
     2
 73
     0
 90
        0
 40
-0.6
 41
-30.0
 62
     5
 63
     7
 74
     1
 91
        4
 64
     7
 65
   257
 75
     1
175
     1
 42
1.0
 92
        0
 66
   257
 43
1.0
 76
     1
 77
     6
 78
     2
 67
     7
 79
     5
170
     0
171
     0
290
     0
174
     0
 93
        1
 44
0.0
173
     0
291
     0
 45
0.0
1001
ACAD
1000
AcDbSavedByObjectVersion
1070
     0
  0
VISUALSTYLE
  5
32
102
{ACAD_REACTORS
330
2A
102
}
330
2A
100
AcDbVisualStyle
  2
Basic
 70
     7
 71
     1
 72
     0
 73
     1
 90
        0
 40
-0.6
 41
-30.0
 62
     5
 63
     7
 74
     0
 91
        4
 64
     7
 65
   257
 75
     1
175
     1
 42
1.0
 92
        8
 66
     7
 43
1.0
 76
     1
 77
     6
 78
     2
 67
     7
 79
     5
170
     0
171
     0
290
     0
174
     0
 93
        1
 44
0.0
173
     0
291
     1
 45
0.0
1001
ACAD
1000
AcDbSavedByObjectVersion
1070
     0
  0
VISUALSTYLE
  5
36
102
{ACAD_REACTORS
330
2A
102
}
330
2A
100
AcDbVisualStyle
  2
Brighten
 70
    12
 71
     2
 72
     2
 73
     0
 90
        0
 40
-0.6
 41
-30.0
 62
     5
 63
     7
 74
     1
 91
        4
 64
     7
 65
   257
 75
     1
175
     1
 42
1.0
 92
        8
 66
     7
 43
1.0
 76
     1
 77
     6
 78
     2
 67
     7
 79
     5
170
     0
171
     0
290
     0
174
     0
 93
        1
 44
50.0
173
     0
291
     1
 45
0.0
1001
ACAD
1000
AcDbSavedByObjectVersion
1070
     0
  0
VISUALSTYLE
  5
3A
102
{ACAD_REACTORS
330
2A
102
}
330
2A
100
AcDbVisualStyle
  2
ColorChange
 70
    16
 71
     2
 72
     2
 73
     3
 90
        0
 40
-0.6
 41
-30.0
 62
     5
 63
     8
 74
     1
 91
        4
 64
     7
 65
   257
 75
     1
175
     1
 42
1.0
 92
        8
 66
     8
 43
1.0
 76
     1
 77
     6
 78
     2
 67
     7
 79
     5
170
     0
171
     0
290
     0
174
     0
 93
        1
 44
0.0
173
     0
291
     1
 45
0.0
1001
ACAD
1000
AcDbSavedByObjectVersion
1070
     0
  0
VISUALSTYLE
  5
34
102
{ACAD_REACTORS
330
2A
102
}
330
2A
100
AcDbVisualStyle
  2
Conceptual
 70
     9
 71
     3
 72
     2
 73
     0
 90
        0
 40
-0.6
 41
-30.0
 62
     5
 63
     7
 74
     2
 91
        2
 64
     7
 65
   257
 75
     1
175
     1
 42
40.0
 92
        8
 66
     7
 43
1.0
 76
     1
 77
     6
 78
     2
 67
     7
 79
     3
170
     0
171
     0
290
     0
174
     0
 93
        1
 44
0.0
173
     0
291
     0
 45
0.0
1001
ACAD
1000
AcDbSavedByObjectVersion
1070
     0
  0
VISUALSTYLE
  5
35
102
{ACAD_REACTORS
330
2A
102
}
330
2A
100
AcDbVisualStyle
  2
Dim
 70
    11
 71
     2
 72
     2
 73
     0
 90
        0
 40
-0.6
 41
-30.0
 62
     5
 63
     7
 74
     1
 91
        4
 64
     7
 65
   257
 75
     1
175
     1
 42
1.0
 92
        8
 66
     7
 43
1.0
 76
     1
 77
     6
 78
     2
 67
     7
 79
     5
170
     0
171
     0
290
     0
174
     0
 93
        1
 44
-50.0
173
     0
291
     1
 45
0.0
1001
ACAD
1000
AcDbSavedByObjectVersion
1070
     0
  0
VISUALSTYLE
  5
39
102
{ACAD_REACTORS
330
2A
102
}
330
2A
100
AcDbVisualStyle
  2
Facepattern
 70
    15
 71
     2
 72
     2
 73
     0
 90
        0
 40
-0.6
 41
-30.0
 62
     5
 63
     7
 74
     1
 91
        4
 64
     7
 65
   257
 75
     1
175
     1
 42
1.0
 92
        8
 66
     7
 43
1.0
 76
     1
 77
     6
 78
     2
 67
     7
 79
     5
170
     0
171
     0
290
     0
174
     0
 93
        1
 44
0.0
173
     0
291
     1
 45
0.0
1001
ACAD
1000
AcDbSavedByObjectVersion
1070
     0
  0
VISUALSTYLE
  5
2B
102
{ACAD_REACTORS
330
2A
102
}
330
2A
100
AcDbVisualStyle
  2
Flat
 70
     0
 71
     2
 72
     1
 73
     1
 90
        2
 40
-0.6
 41
30.0
 62
     5
 63
     7
 74
     0
 91
        4
 64
     7
 65
   257
 75
     1
175
     1
 42
1.0
 92
        8
 66
     7
 43
1.0
 76
     1
 77
     6
 78
     2
 67
     7
 79
     5
170
     0
171
     0
290
     0
174
     0
 93
       13
 44
0.0
173
     0
291
     1
 45
0.0
1001
ACAD
1000
AcDbSavedByObjectVersion
1070
     0
  0
VISUALSTYLE
  5
2C
102
{ACAD_REACTORS
330
2A
102
}
330
2A
100
AcDbVisualStyle
  2
FlatWithEdges
 70
     1
 71
     2
 72
     1
 73
     1
 90
        2
 40
-0.6
 41
30.0
 62
     5
 63
     7
 74
     1
 91
        4
 64
     7
 65
   257
 75
     1
175
     1
 42
1.0
 92
        0
 66
   257
 43
1.0
 76
     1
 77
     6
 78
     2
 67
     7
 79
     5
170
     0
171
     0
290
     0
174
     0
 93
       13
 44
0.0
173
     0
291
     1
 45
0.0
1001
ACAD
1000
AcDbSavedByObjectVersion
1070
     0
  0
VISUALSTYLE
  5
2D
102
{ACAD_REACTORS
330
2A
102
}
330
2A
100
AcDbVisualStyle
  2
Gouraud
 70
     2
 71
     2
 72
     2
 73
     1
 90
        2
 40
-0.6
 41
30.0
 62
     5
 63
     7
 74
     0
 91
        4
 64
     7
 65
   257
 75
     1
175
     1
 42
1.0
 92
        0
 66
     7
 43
1.0
 76
     1
 77
     6
 78
     2
 67
     7
 79
     5
170
     0
171
     0
290
     0
174
     0
 93
       13
 44
0.0
173
     0
291
     1
 45
0.0
1001
ACAD
1000
AcDbSavedByObjectVersion
1070
     0
  0
VISUALSTYLE
  5
2E
102
{ACAD_REACTORS
330
2A
102
}
330
2A
100
AcDbVisualStyle
  2
GouraudWithEdges
 70
     3
 71
     2
 72
     2
 73
     1
 90
        2
 40
-0.6
 41
30.0
 62
     5
 63
     7
 74
     1
 91
        4
 64
     7
 65
   257
 75
     1
175
     1
 42
1.0
 92
        0
 66
   257
 43
1.0
 76
     1
 77
     6
 78
     2
 67
     7
 79
     5
170
     0
171
     0
290
     0
174
     0
 93
       13
 44
0.0
173
     0
291
     1
 45
0.0
1001
ACAD
1000
AcDbSavedByObjectVersion
1070
     0
  0
VISUALSTYLE
  5
38
102
{ACAD_REACTORS
330
2A
102
}
330
2A
100
AcDbVisualStyle
  2
Linepattern
 70
    14
 71
     2
 72
     2
 73
     0
 90
        0
 40
-0.6
 41
-30.0
 62
     5
 63
     7
 74
     1
 91
        4
 64
     7
 65
   257
 75
     7
175
     7
 42
1.0
 92
        8
 66
     7
 43
1.0
 76
     1
 77
     6
 78
     2
 67
     7
 79
     5
170
     0
171
     0
290
     0
174
     0
 93
        1
 44
0.0
173
     0
291
     1
 45
0.0
1001
ACAD
1000
AcDbSavedByObjectVersion
1070
     0
  0
VISUALSTYLE
  5
33
102
{ACAD_REACTORS
330
2A
102
}
330
2A
100
AcDbVisualStyle
  2
Realistic
 70
     8
 71
     2
 72
     2
 73
     0
 90
        0
 40
-0.6
 41
-30.0
 62
     5
 63
     7
 74
     1
 91
        0
 64
     7
 65
   257
 75
     1
175
     1
 42
1.0
 92
        8
 66
     8
 43
1.0
 76
     1
 77
     6
 78
     2
 67
     7
 79
     5
170
     0
171
     0
290
     0
174
     0
 93
       13
 44
0.0
173
     0
291
     0
 45
0.0
1001
ACAD
1000
AcDbSavedByObjectVersion
1070
     0
  0
VISUALSTYLE
  5
37
102
{ACAD_REACTORS
330
2A
102
}
330
2A
100
AcDbVisualStyle
  2
Thicken
 70
    13
 71
     2
 72
     2
 73
     0
 90
        0
 40
-0.6
 41
-30.0
 62
     5
 63
     7
 74
     1
 91
        4
 64
     7
 65
   257
 75
     1
175
     1
 42
1.0
 92
       12
 66
     7
 43
1.0
 76
     1
 77
     6
 78
     2
 67
     7
 79
     5
170
     0
171
     0
290
     0
174
     0
 93
        1
 44
0.0
173
     0
291
     1
 45
0.0
1001
ACAD
1000
AcDbSavedByObjectVersion
1070
     0
  0
DICTIONARYVAR
  5
15C
102
{ACAD_REACTORS
330
159
102
}
330
159
100
DictionaryVariables
280
     0
  1
1:1
  0
ENDSEC
  0
EOF
