  0
SECTION
  2
HEADER
  9
$ACADVER
  1
AC1015
  9
$ACADMAINTVER
 70
     6
  9
$DWGCODEPAGE
  3
ANSI_1252
  9
$INSBASE
 10
0.0
 20
0.0
 30
0.0
  9
$EXTMIN
 10
62.6080063360742
 20
276.4483716506898
 30
0.0
  9
$EXTMAX
 10
242.396097032115
 20
385.217758567996
 30
0.0
  9
$LIMMIN
 10
0.0
 20
0.0
  9
$LIMMAX
 10
12.0
 20
9.0
  9
$ORTHOMODE
 70
     0
  9
$REGENMODE
 70
     1
  9
$FILLMODE
 70
     1
  9
$QTEXTMODE
 70
     0
  9
$MIRRTEXT
 70
     1
  9
$LTSCALE
 40
1.0
  9
$ATTMODE
 70
     1
  9
$TEXTSIZE
 40
0.2
  9
$TRACEWID
 40
0.05
  9
$TEXTSTYLE
  7
Standard
  9
$CLAYER
  8
0
  9
$CELTYPE
  6
ByLayer
  9
$CECOLOR
 62
   256
  9
$CELTSCALE
 40
1.0
  9
$DISPSILH
 70
     0
  9
$DIMSCALE
 40
1.0
  9
$DIMASZ
 40
0.18
  9
$DIMEXO
 40
0.0625
  9
$DIMDLI
 40
0.38
  9
$DIMRND
 40
0.0
  9
$DIMDLE
 40
0.0
  9
$DIMEXE
 40
0.18
  9
$DIMTP
 40
0.0
  9
$DIMTM
 40
0.0
  9
$DIMTXT
 40
0.18
  9
$DIMCEN
 40
0.09
  9
$DIMTSZ
 40
0.0
  9
$DIMTOL
 70
     0
  9
$DIMLIM
 70
     0
  9
$DIMTIH
 70
     1
  9
$DIMTOH
 70
     1
  9
$DIMSE1
 70
     0
  9
$DIMSE2
 70
     0
  9
$DIMTAD
 70
     0
  9
$DIMZIN
 70
     0
  9
$DIMBLK
  1

  9
$DIMASO
 70
     1
  9
$DIMSHO
 70
     1
  9
$DIMPOST
  1

  9
$DIMAPOST
  1

  9
$DIMALT
 70
     0
  9
$DIMALTD
 70
     2
  9
$DIMALTF
 40
25.4
  9
$DIMLFAC
 40
1.0
  9
$DIMTOFL
 70
     0
  9
$DIMTVP
 40
0.0
  9
$DIMTIX
 70
     0
  9
$DIMSOXD
 70
     0
  9
$DIMSAH
 70
     0
  9
$DIMBLK1
  1

  9
$DIMBLK2
  1

  9
$DIMSTYLE
  2
Standard
  9
$DIMCLRD
 70
     0
  9
$DIMCLRE
 70
     0
  9
$DIMCLRT
 70
     0
  9
$DIMTFAC
 40
1.0
  9
$DIMGAP
 40
0.09
  9
$DIMJUST
 70
     0
  9
$DIMSD1
 70
     0
  9
$DIMSD2
 70
     0
  9
$DIMTOLJ
 70
     1
  9
$DIMTZIN
 70
     0
  9
$DIMALTZ
 70
     0
  9
$DIMALTTZ
 70
     0
  9
$DIMUPT
 70
     0
  9
$DIMDEC
 70
     4
  9
$DIMTDEC
 70
     4
  9
$DIMALTU
 70
     2
  9
$DIMALTTD
 70
     2
  9
$DIMTXSTY
  7
Standard
  9
$DIMAUNIT
 70
     0
  9
$DIMADEC
 70
     0
  9
$DIMALTRND
 40
0.0
  9
$DIMAZIN
 70
     0
  9
$DIMDSEP
 70
    46
  9
$DIMATFIT
 70
     3
  9
$DIMFRAC
 70
     0
  9
$DIMLDRBLK
  1

  9
$DIMLUNIT
 70
     2
  9
$DIMLWD
 70
    -2
  9
$DIMLWE
 70
    -2
  9
$DIMTMOVE
 70
     0
  9
$LUNITS
 70
     2
  9
$LUPREC
 70
     4
  9
$SKETCHINC
 40
0.1
  9
$FILLETRAD
 40
0.5
  9
$AUNITS
 70
     0
  9
$AUPREC
 70
     0
  9
$MENU
  1
.
  9
$ELEVATION
 40
0.0
  9
$PELEVATION
 40
0.0
  9
$THICKNESS
 40
0.0
  9
$LIMCHECK
 70
     0
  9
$CHAMFERA
 40
0.5
  9
$CHAMFERB
 40
0.5
  9
$CHAMFERC
 40
1.0
  9
$CHAMFERD
 40
0.0
  9
$SKPOLY
 70
     0
  9
$TDCREATE
 40
2456749.752486817
  9
$TDUCREATE
 40
2456749.669153484
  9
$TDUPDATE
 40
2456749.752486829
  9
$TDUUPDATE
 40
2456749.669153495
  9
$TDINDWG
 40
0.0000000116
  9
$TDUSRTIMER
 40
0.0000000116
  9
$USRTIMER
 70
     1
  9
$ANGBASE
 50
0.0
  9
$ANGDIR
 70
     0
  9
$PDMODE
 70
     0
  9
$PDSIZE
 40
0.0
  9
$PLINEWID
 40
0.0
  9
$SPLFRAME
 70
     0
  9
$SPLINETYPE
 70
     6
  9
$SPLINESEGS
 70
     8
  9
$HANDSEED
  5
14D
  9
$SURFTAB1
 70
     6
  9
$SURFTAB2
 70
     6
  9
$SURFTYPE
 70
     6
  9
$SURFU
 70
     6
  9
$SURFV
 70
     6
  9
$UCSBASE
  2

  9
$UCSNAME
  2

  9
$UCSORG
 10
0.0
 20
0.0
 30
0.0
  9
$UCSXDIR
 10
1.0
 20
0.0
 30
0.0
  9
$UCSYDIR
 10
0.0
 20
1.0
 30
0.0
  9
$UCSORTHOREF
  2

  9
$UCSORTHOVIEW
 70
     0
  9
$UCSORGTOP
 10
0.0
 20
0.0
 30
0.0
  9
$UCSORGBOTTOM
 10
0.0
 20
0.0
 30
0.0
  9
$UCSORGLEFT
 10
0.0
 20
0.0
 30
0.0
  9
$UCSORGRIGHT
 10
0.0
 20
0.0
 30
0.0
  9
$UCSORGFRONT
 10
0.0
 20
0.0
 30
0.0
  9
$UCSORGBACK
 10
0.0
 20
0.0
 30
0.0
  9
$PUCSBASE
  2

  9
$PUCSNAME
  2

  9
$PUCSORG
 10
0.0
 20
0.0
 30
0.0
  9
$PUCSXDIR
 10
1.0
 20
0.0
 30
0.0
  9
$PUCSYDIR
 10
0.0
 20
1.0
 30
0.0
  9
$PUCSORTHOREF
  2

  9
$PUCSORTHOVIEW
 70
     0
  9
$PUCSORGTOP
 10
0.0
 20
0.0
 30
0.0
  9
$PUCSORGBOTTOM
 10
0.0
 20
0.0
 30
0.0
  9
$PUCSORGLEFT
 10
0.0
 20
0.0
 30
0.0
  9
$PUCSORGRIGHT
 10
0.0
 20
0.0
 30
0.0
  9
$PUCSORGFRONT
 10
0.0
 20
0.0
 30
0.0
  9
$PUCSORGBACK
 10
0.0
 20
0.0
 30
0.0
  9
$USERI1
 70
     0
  9
$USERI2
 70
     0
  9
$USERI3
 70
     0
  9
$USERI4
 70
     0
  9
$USERI5
 70
     0
  9
$USERR1
 40
16.5
  9
$USERR2
 40
0.0
  9
$USERR3
 40
0.0
  9
$USERR4
 40
0.0
  9
$USERR5
 40
0.0
  9
$WORLDVIEW
 70
     1
  9
$SHADEDGE
 70
     3
  9
$SHADEDIF
 70
    70
  9
$TILEMODE
 70
     1
  9
$MAXACTVP
 70
    64
  9
$PINSBASE
 10
0.0
 20
0.0
 30
0.0
  9
$PLIMCHECK
 70
     0
  9
$PEXTMIN
 10
1.00000000000000E+20
 20
1.00000000000000E+20
 30
1.00000000000000E+20
  9
$PEXTMAX
 10
-1.00000000000000E+20
 20
-1.00000000000000E+20
 30
-1.00000000000000E+20
  9
$PLIMMIN
 10
0.0
 20
0.0
  9
$PLIMMAX
 10
12.0
 20
9.0
  9
$UNITMODE
 70
     0
  9
$VISRETAIN
 70
     1
  9
$PLINEGEN
 70
     0
  9
$PSLTSCALE
 70
     1
  9
$TREEDEPTH
 70
  3020
  9
$CMLSTYLE
  2
Standard
  9
$CMLJUST
 70
     0
  9
$CMLSCALE
 40
1.0
  9
$PROXYGRAPHICS
 70
     1
  9
$MEASUREMENT
 70
     1
  9
$CELWEIGHT
370
    -1
  9
$ENDCAPS
280
     0
  9
$JOINSTYLE
280
     0
  9
$LWDISPLAY
290
     0
  9
$INSUNITS
 70
     1
  9
$HYPERLINKBASE
  1

  9
$STYLESHEET
  1

  9
$XEDIT
290
     1
  9
$CEPSNTYPE
380
     0
  9
$PSTYLEMODE
290
     1
  9
$FINGERPRINTGUID
  2
{70E3ED68-4C80-4A65-A133-0DEED5940642}
  9
$VERSIONGUID
  2
{FAEB1C32-E019-11D5-929B-00C0DF256EC4}
  9
$EXTNAMES
290
     1
  9
$PSVPSCALE
 40
0.0
  9
$OLESTARTUP
290
     0
  0
ENDSEC
  0
SECTION
  2
CLASSES
  0
CLASS
  1
ACDBDICTIONARYWDFLT
  2
AcDbDictionaryWithDefault
  3
ObjectDBX Classes
 90
        0
280
     0
281
     0
  0
CLASS
  1
VISUALSTYLE
  2
AcDbVisualStyle
  3
ObjectDBX Classes
 90
     4095
280
     0
281
     0
  0
CLASS
  1
SCALE
  2
AcDbScale
  3
ObjectDBX Classes
 90
     1153
280
     0
281
     0
  0
CLASS
  1

  2
exOdDbPolyline
  3

 90
        0
280
     0
281
     1
  0
CLASS
  1

  2
exOdDbCircle
  3

 90
        0
280
     0
281
     1
  0
CLASS
  1

  2
exOdDbSpline
  3

 90
        0
280
     0
281
     1
  0
CLASS
  1
DICTIONARYVAR
  2
AcDbDictionaryVar
  3
ObjectDBX Classes
 90
        0
280
     0
281
     0
  0
CLASS
  1
ACDBPLACEHOLDER
  2
AcDbPlaceHolder
  3
ObjectDBX Classes
 90
        0
280
     0
281
     0
  0
CLASS
  1
LAYOUT
  2
AcDbLayout
  3
ObjectDBX Classes
 90
        0
280
     0
281
     0
  0
ENDSEC
  0
SECTION
  2
TABLES
  0
TABLE
  2
VPORT
  5
8
330
0
100
AcDbSymbolTable
 70
     1
  0
VPORT
  5
29
330
8
100
AcDbSymbolTableRecord
100
AcDbViewportTableRecord
  2
*Active
 70
     0
 10
0.0
 20
0.0
 11
1.0
 21
1.0
 12
152.5020516840946
 22
330.8330651093429
 13
0.0
 23
0.0
 14
0.5
 24
0.5
 15
0.5
 25
0.5
 16
0.0
 26
0.0
 36
1.0
 17
0.0
 27
0.0
 37
0.0
 40
123.397731330096
 41
1.60267857142857
 42
50.0
 43
0.0
 44
0.0
 50
0.0
 51
0.0
 71
     0
 72
   100
 73
     1
 74
     3
 75
     0
 76
     0
 77
     0
 78
     0
281
     0
 65
     1
110
0.0
120
0.0
130
0.0
111
1.0
121
0.0
131
0.0
112
0.0
122
1.0
132
0.0
 79
     0
146
0.0
  0
ENDTAB
  0
TABLE
  2
LTYPE
  5
5
330
0
100
AcDbSymbolTable
 70
     8
  0
LTYPE
  5
14
330
5
100
AcDbSymbolTableRecord
100
AcDbLinetypeTableRecord
  2
ByBlock
 70
     0
  3

 72
    65
 73
     0
 40
0.0
  0
LTYPE
  5
15
330
5
100
AcDbSymbolTableRecord
100
AcDbLinetypeTableRecord
  2
ByLayer
 70
     0
  3

 72
    65
 73
     0
 40
0.0
  0
LTYPE
  5
16
330
5
100
AcDbSymbolTableRecord
100
AcDbLinetypeTableRecord
  2
Continuous
 70
     0
  3
Solid line
 72
    65
 73
     0
 40
0.0
  0
LTYPE
  5
3B
330
5
100
AcDbSymbolTableRecord
100
AcDbLinetypeTableRecord
  2
DASHED
 70
     0
  3
Dashed
 72
    65
 73
     2
 40
15.0
 49
7.0
 74
     0
 49
-8.0
 74
     0
  0
LTYPE
  5
3C
330
5
100
AcDbSymbolTableRecord
100
AcDbLinetypeTableRecord
  2
DOTTED
 70
     0
  3
Dotted
 72
    65
 73
     2
 40
1.0
 49
0.0
 74
     0
 49
-1.0
 74
     0
  0
LTYPE
  5
3D
330
5
100
AcDbSymbolTableRecord
100
AcDbLinetypeTableRecord
  2
DOT_CENTER
 70
     0
  3
Dot_Center
 72
    65
 73
     4
 40
14.0
 49
12.0
 74
     0
 49
-1.0
 74
     0
 49
0.0
 74
     0
 49
-1.0
 74
     0
  0
LTYPE
  5
3E
330
5
100
AcDbSymbolTableRecord
100
AcDbLinetypeTableRecord
  2
LONG_DASHED
 70
     0
  3
Long_Dashed
 72
    65
 73
     2
 40
15.0
 49
10.0
 74
     0
 49
-5.0
 74
     0
  0
LTYPE
  5
3F
330
5
100
AcDbSymbolTableRecord
100
AcDbLinetypeTableRecord
  2
DASH_CENTER
 70
     0
  3
Dash_Center
 72
    65
 73
     4
 40
14.0
 49
11.0
 74
     0
 49
-1.0
 74
     0
 49
1.0
 74
     0
 49
-1.0
 74
     0
  0
LTYPE
  5
40
330
5
100
AcDbSymbolTableRecord
100
AcDbLinetypeTableRecord
  2
PHANTOM
 70
     0
  3
Phantom
 72
    65
 73
     6
 40
13.0
 49
10.0
 74
     0
 49
-1.0
 74
     0
 49
0.0
 74
     0
 49
-1.0
 74
     0
 49
0.0
 74
     0
 49
-1.0
 74
     0
  0
LTYPE
  5
41
330
5
100
AcDbSymbolTableRecord
100
AcDbLinetypeTableRecord
  2
CENTER_DASH_DASH
 70
     0
  3
Center_Dash_Dash
 72
    65
 73
     6
 40
14.0
 49
9.0
 74
     0
 49
-1.0
 74
     0
 49
1.0
 74
     0
 49
-1.0
 74
     0
 49
1.0
 74
     0
 49
-1.0
 74
     0
  0
ENDTAB
  0
TABLE
  2
LAYER
  5
2
330
0
100
AcDbSymbolTable
 70
     7
  0
LAYER
  5
10
330
2
100
AcDbSymbolTableRecord
100
AcDbLayerTableRecord
  2
0
 70
     0
 62
     7
  6
Continuous
370
    -3
390
F
  0
LAYER
  5
42
330
2
100
AcDbSymbolTableRecord
100
AcDbLayerTableRecord
  2
1
 70
     0
 62
     7
  6
Continuous
370
    -3
390
F
  0
LAYER
  5
43
330
2
100
AcDbSymbolTableRecord
100
AcDbLayerTableRecord
  2
BEZUGSACHSEN
 70
     0
 62
     7
  6
Continuous
370
    -3
390
F
  0
LAYER
  5
44
330
2
100
AcDbSymbolTableRecord
100
AcDbLayerTableRecord
  2
BOHRUNGEN
 70
     0
 62
     7
  6
Continuous
370
    -3
390
F
  0
LAYER
  5
45
330
2
100
AcDbSymbolTableRecord
100
AcDbLayerTableRecord
  2
FASEN
 70
     0
 62
     7
  6
Continuous
370
    -3
390
F
  0
LAYER
  5
46
330
2
100
AcDbSymbolTableRecord
100
AcDbLayerTableRecord
  2
RUNDUNGEN
 70
     0
 62
     7
  6
Continuous
370
    -3
390
F
  0
LAYER
  5
47
330
2
100
AcDbSymbolTableRecord
100
AcDbLayerTableRecord
  2
VERERBUNG
 70
     0
 62
     7
  6
Continuous
370
    -3
390
F
  0
ENDTAB
  0
TABLE
  2
STYLE
  5
3
330
0
100
AcDbSymbolTable
 70
     2
  0
STYLE
  5
11
330
3
100
AcDbSymbolTableRecord
100
AcDbTextStyleTableRecord
  2
Standard
 70
     0
 40
0.0
 41
1.0
 50
0.0
 71
     0
 42
0.2
  3
txt
  4

  0
STYLE
  5
6E
330
3
100
AcDbSymbolTableRecord
100
AcDbTextStyleTableRecord
  2
CONVERTER_11
 70
     0
 40
0.0
 41
0.72
 50
0.0
 71
     0
 42
0.2
  3
txt.shx
  4

  0
ENDTAB
  0
TABLE
  2
VIEW
  5
6
330
0
100
AcDbSymbolTable
 70
     0
  0
ENDTAB
  0
TABLE
  2
UCS
  5
7
330
0
100
AcDbSymbolTable
 70
     0
  0
ENDTAB
  0
TABLE
  2
APPID
  5
9
330
0
100
AcDbSymbolTable
 70
     1
  0
APPID
  5
12
330
9
100
AcDbSymbolTableRecord
100
AcDbRegAppTableRecord
  2
ACAD
 70
     0
  0
ENDTAB
  0
TABLE
  2
DIMSTYLE
  5
A
330
0
100
AcDbSymbolTable
 70
     6
100
AcDbDimStyleTable
  0
DIMSTYLE
105
27
330
A
100
AcDbSymbolTableRecord
100
AcDbDimStyleTableRecord
  2
Standard
 70
     0
340
11
  0
DIMSTYLE
105
114
102
{ACAD_REACTORS
330
115
102
}
330
A
100
AcDbSymbolTableRecord
100
AcDbDimStyleTableRecord
  2
ME10_DIM_10
 70
     0
  3
\U+2300<>
 41
3.5
 42
2.0
 44
2.0
 71
     1
 73
     0
 74
     0
 77
     1
 78
     8
140
3.5
146
0.7
147
2.0
172
     1
173
     1
176
     2
177
     2
178
     3
271
     2
272
     0
340
6E
  0
DIMSTYLE
105
11F
102
{ACAD_REACTORS
330
120
102
}
330
A
100
AcDbSymbolTableRecord
100
AcDbDimStyleTableRecord
  2
ME10_DIM_11
 70
     0
  3
\U+2300<>
 41
3.5
 42
2.0
 44
2.0
 71
     1
 73
     0
 74
     0
 77
     1
 78
     8
140
3.5
146
0.7
147
2.0
172
     1
173
     1
176
     2
177
     2
178
     3
271
     2
272
     0
340
6E
  0
DIMSTYLE
105
12A
102
{ACAD_REACTORS
330
12B
102
}
330
A
100
AcDbSymbolTableRecord
100
AcDbDimStyleTableRecord
  2
ME10_DIM_12
 70
     0
  3
<>
 41
3.5
 42
2.0
 44
2.0
 71
     1
 73
     0
 74
     0
 77
     1
 78
     8
140
3.5
146
0.7
147
2.0
172
     1
173
     1
176
     2
177
     2
178
     3
271
     2
272
     0
340
6E
  0
DIMSTYLE
105
135
102
{ACAD_REACTORS
330
136
102
}
330
A
100
AcDbSymbolTableRecord
100
AcDbDimStyleTableRecord
  2
ME10_DIM_13
 70
     0
  3
<>
 41
3.5
 42
2.0
 44
2.0
 71
     1
 73
     0
 74
     0
 77
     1
 78
     8
140
3.5
146
0.7
147
2.0
172
     1
173
     1
176
     2
177
     2
178
     3
271
     2
272
     0
340
6E
  0
DIMSTYLE
105
140
102
{ACAD_REACTORS
330
141
102
}
330
A
100
AcDbSymbolTableRecord
100
AcDbDimStyleTableRecord
  2
ME10_DIM_14
 70
     0
  3
<>
 41
3.5
 42
2.0
 44
2.0
 71
     1
 73
     0
 74
     0
 77
     1
 78
     8
140
3.5
146
0.7
147
2.0
172
     1
173
     1
176
     2
177
     2
178
     3
271
     2
272
     0
340
6E
  0
ENDTAB
  0
TABLE
  2
BLOCK_RECORD
  5
1
330
0
100
AcDbSymbolTable
 70
     8
  0
BLOCK_RECORD
  5
1F
330
1
100
AcDbSymbolTableRecord
100
AcDbBlockTableRecord
  2
*Model_Space
340
22
  0
BLOCK_RECORD
  5
1B
330
1
100
AcDbSymbolTableRecord
100
AcDbBlockTableRecord
  2
*Paper_Space
340
1E
  0
BLOCK_RECORD
  5
23
330
1
100
AcDbSymbolTableRecord
100
AcDbBlockTableRecord
  2
*Paper_Space0
340
26
  0
BLOCK_RECORD
  5
48
330
1
100
AcDbSymbolTableRecord
100
AcDbBlockTableRecord
  2
Urheberrecht_DE-EN
340
0
102
{BLKREFS
331
6D
102
}
  0
BLOCK_RECORD
  5
10B
330
1
100
AcDbSymbolTableRecord
100
AcDbBlockTableRecord
  2
*D2
340
0
  0
BLOCK_RECORD
  5
116
330
1
100
AcDbSymbolTableRecord
100
AcDbBlockTableRecord
  2
*D3
340
0
  0
BLOCK_RECORD
  5
121
330
1
100
AcDbSymbolTableRecord
100
AcDbBlockTableRecord
  2
*D4
340
0
  0
BLOCK_RECORD
  5
12C
330
1
100
AcDbSymbolTableRecord
100
AcDbBlockTableRecord
  2
*D5
340
0
  0
BLOCK_RECORD
  5
137
330
1
100
AcDbSymbolTableRecord
100
AcDbBlockTableRecord
  2
*D6
340
0
  0
BLOCK_RECORD
  5
142
330
1
100
AcDbSymbolTableRecord
100
AcDbBlockTableRecord
  2
*D7
340
0
102
{BLKREFS
331
148
102
}
  0
ENDTAB
  0
ENDSEC
  0
SECTION
  2
BLOCKS
  0
BLOCK
  5
20
330
1F
100
AcDbEntity
  8
0
100
AcDbBlockBegin
  2
*Model_Space
 70
     0
 10
0.0
 20
0.0
 30
0.0
  3
*Model_Space
  1

  0
ENDBLK
  5
21
330
1F
100
AcDbEntity
  8
0
100
AcDbBlockEnd
  0
BLOCK
  5
1C
330
1B
100
AcDbEntity
 67
     1
  8
0
100
AcDbBlockBegin
  2
*Paper_Space
 70
     0
 10
0.0
 20
0.0
 30
0.0
  3
*Paper_Space
  1

  0
ENDBLK
  5
1D
330
1B
100
AcDbEntity
 67
     1
  8
0
100
AcDbBlockEnd
  0
BLOCK
  5
24
330
23
100
AcDbEntity
  8
0
100
AcDbBlockBegin
  2
*Paper_Space0
 70
     0
 10
0.0
 20
0.0
 30
0.0
  3
*Paper_Space0
  1

  0
ENDBLK
  5
25
330
23
100
AcDbEntity
  8
0
100
AcDbBlockEnd
  0
BLOCK
  5
49
330
48
100
AcDbEntity
  8
0
100
AcDbBlockBegin
  2
Urheberrecht_DE-EN
 70
     0
 10
76.6080063360742
 20
332.737758567996
 30
0.0
  3
Urheberrecht_DE-EN
  1

  0
MTEXT
  5
6F
330
48
100
AcDbEntity
  8
1
 62
     1
100
AcDbMText
 10
76.6080063360742
 20
332.737758567996
 30
0.0
 40
2.0
 41
0.0
 71
     7
 72
     1
  1
We own the copyright of this document. It \Pdetermined and may neither be copied or \Pmade accessible to outsiders without our\Ppermission.
  7
CONVERTER_11
 11
0.0
 21
1.0
 31
0.0
 73
     1
 44
0.90036014405762
  0
MTEXT
  5
70
330
48
100
AcDbEntity
  8
1
 62
     1
100
AcDbMText
 10
76.6080063360742
 20
276.4483716506898
 30
0.0
 40
2.0
 41
0.0
 71
     7
 72
     1
  1
F\U+00fcr diese Unterlage behalten wir das Ur-\Pheberrecht. Sie darf nur f\U+00fcr den von uns \Pbestimmten Zweck benutzt und ohne unsere \PZustimmung weder vervielf\U+00e4ltigt noch\PDritten zug\U+00e4nglich gemacht werden.
  7
CONVERTER_11
 11
0.0
 21
1.0
 31
0.0
 73
     1
 44
0.90036014405762
  0
ENDBLK
  5
4A
330
48
100
AcDbEntity
  8
0
100
AcDbBlockEnd
  0
BLOCK
  5
112
330
10B
100
AcDbEntity
  8
0
100
AcDbBlockBegin
  2
*D2
 70
     1
 10
0.0
 20
0.0
 30
0.0
  3
*D2
  1

  0
LINE
  5
10C
330
10B
100
AcDbEntity
  8
1
  6
Continuous
 62
     2
100
AcDbLine
 10
231.042682156868
 20
319.7680810922
 30
0.0
 11
231.042682156868
 21
299.7680810922
 31
0.0
  0
LINE
  5
10D
330
10B
100
AcDbEntity
  8
1
  6
Continuous
 62
     2
100
AcDbLine
 10
220.6261319978
 20
319.7680810922
 30
0.0
 11
233.042682156868
 21
319.7680810922
 31
0.0
  0
LINE
  5
10E
330
10B
100
AcDbEntity
  8
1
  6
Continuous
 62
     2
100
AcDbLine
 10
220.6261319978
 20
299.7680810922
 30
0.0
 11
233.042682156868
 21
299.7680810922
 31
0.0
  0
SOLID
  5
10F
330
10B
100
AcDbEntity
  8
1
 62
     2
100
AcDbTrace
 10
231.5034658984239
 20
316.2680810922
 30
0.0
 11
230.5818984153121
 21
316.2680810922
 31
0.0
 12
231.042682156868
 22
319.7680810922
 32
0.0
 13
231.042682156868
 23
319.7680810922
 33
0.0
  0
SOLID
  5
110
330
10B
100
AcDbEntity
  8
1
 62
     2
100
AcDbTrace
 10
230.5818984153121
 20
303.2680810922
 30
0.0
 11
231.5034658984239
 21
303.2680810922
 31
0.0
 12
231.042682156868
 22
299.7680810922
 32
0.0
 13
231.042682156868
 23
299.7680810922
 33
0.0
  0
MTEXT
  5
111
330
10B
100
AcDbEntity
  8
1
 62
     3
100
AcDbMText
 10
229.042682156868
 20
300.889632131427
 30
0.0
 40
3.5
 41
0.0
 71
     7
 72
     1
  1
\C3;%%c\C3;\C3;20\C2;\H2.45;\S^ ;\C3;
  7
CONVERTER_11
 11
0.0
 21
1.0
 31
0.0
 73
     1
 44
0.60024009603842
  0
ENDBLK
  5
113
330
10B
100
AcDbEntity
  8
0
100
AcDbBlockEnd
  0
BLOCK
  5
11D
330
116
100
AcDbEntity
  8
0
100
AcDbBlockBegin
  2
*D3
 70
     1
 10
0.0
 20
0.0
 30
0.0
  3
*D3
  1

  0
LINE
  5
117
330
116
100
AcDbEntity
  8
1
  6
Continuous
 62
     2
100
AcDbLine
 10
240.396097032115
 20
335.7680810922
 30
0.0
 11
240.396097032115
 21
283.7680810922
 31
0.0
  0
LINE
  5
118
330
116
100
AcDbEntity
  8
1
  6
Continuous
 62
     2
100
AcDbLine
 10
207.5373958121
 20
335.7680810922
 30
0.0
 11
242.396097032115
 21
335.7680810922
 31
0.0
  0
LINE
  5
119
330
116
100
AcDbEntity
  8
1
  6
Continuous
 62
     2
100
AcDbLine
 10
207.5373958121
 20
283.7680810922
 30
0.0
 11
242.396097032115
 21
283.7680810922
 31
0.0
  0
SOLID
  5
11A
330
116
100
AcDbEntity
  8
1
 62
     2
100
AcDbTrace
 10
240.8568807736709
 20
332.2680810922
 30
0.0
 11
239.9353132905591
 21
332.2680810922
 31
0.0
 12
240.396097032115
 22
335.7680810922
 32
0.0
 13
240.396097032115
 23
335.7680810922
 33
0.0
  0
SOLID
  5
11B
330
116
100
AcDbEntity
  8
1
 62
     2
100
AcDbTrace
 10
239.9353132905591
 20
287.2680810922
 30
0.0
 11
240.8568807736709
 21
287.2680810922
 31
0.0
 12
240.396097032115
 22
283.7680810922
 32
0.0
 13
240.396097032115
 23
283.7680810922
 33
0.0
  0
MTEXT
  5
11C
330
116
100
AcDbEntity
  8
1
 62
     3
100
AcDbMText
 10
238.396097032115
 20
301.419070709271
 30
0.0
 40
3.5
 41
0.0
 71
     7
 72
     1
  1
\C3;%%c\C3;\C3;52\C2;\H2.45;\S^ ;\C3;
  7
CONVERTER_11
 11
0.0
 21
1.0
 31
0.0
 73
     1
 44
0.60024009603842
  0
ENDBLK
  5
11E
330
116
100
AcDbEntity
  8
0
100
AcDbBlockEnd
  0
BLOCK
  5
128
330
121
100
AcDbEntity
  8
0
100
AcDbBlockBegin
  2
*D4
 70
     1
 10
0.0
 20
0.0
 30
0.0
  3
*D4
  1

  0
LINE
  5
122
330
121
100
AcDbEntity
  8
1
  6
Continuous
 62
     2
100
AcDbLine
 10
218.6261319978
 20
353.813713832286
 30
0.0
 11
144.6261319978
 21
353.813713832286
 31
0.0
  0
LINE
  5
123
330
121
100
AcDbEntity
  8
1
  6
Continuous
 62
     2
100
AcDbLine
 10
218.6261319978
 20
331.1310108314
 30
0.0
 11
218.6261319978
 21
355.813713832286
 31
0.0
  0
LINE
  5
124
330
121
100
AcDbEntity
  8
1
  6
Continuous
 62
     2
100
AcDbLine
 10
144.6261319978
 20
343.2680321867
 30
0.0
 11
144.6261319978
 21
355.813713832286
 31
0.0
  0
SOLID
  5
125
330
121
100
AcDbEntity
  8
1
 62
     2
100
AcDbTrace
 10
215.1261319978
 20
353.3529300907301
 30
0.0
 11
215.1261319978
 21
354.2744975738419
 31
0.0
 12
218.6261319978
 22
353.813713832286
 32
0.0
 13
218.6261319978
 23
353.813713832286
 33
0.0
  0
SOLID
  5
126
330
121
100
AcDbEntity
  8
1
 62
     2
100
AcDbTrace
 10
148.1261319978
 20
354.2744975738419
 30
0.0
 11
148.1261319978
 21
353.3529300907301
 31
0.0
 12
144.6261319978
 22
353.813713832286
 32
0.0
 13
144.6261319978
 23
353.813713832286
 33
0.0
  0
MTEXT
  5
127
330
121
100
AcDbEntity
  8
1
 62
     3
100
AcDbMText
 10
180.630200812172
 20
355.813713832286
 30
0.0
 40
3.5
 41
0.0
 71
     7
 72
     1
  1
\C3;\C3;\C3;74\C2;\H2.45;\S^ ;\C3;
  7
CONVERTER_11
 11
0.9999999999970619
 21
2.424068405545306E-6
 31
0.0
 73
     1
 44
0.60024009603842
  0
ENDBLK
  5
129
330
121
100
AcDbEntity
  8
0
100
AcDbBlockEnd
  0
BLOCK
  5
133
330
12C
100
AcDbEntity
  8
0
100
AcDbBlockBegin
  2
*D5
 70
     1
 10
0.0
 20
0.0
 30
0.0
  3
*D5
  1

  0
LINE
  5
12D
330
12C
100
AcDbEntity
  8
1
  6
Continuous
 62
     2
100
AcDbLine
 10
218.6261319978
 20
361.230856456959
 30
0.0
 11
118.6261319978
 21
361.230856456959
 31
0.0
  0
LINE
  5
12E
330
12C
100
AcDbEntity
  8
1
  6
Continuous
 62
     2
100
AcDbLine
 10
218.6261319978
 20
331.1310108314
 30
0.0
 11
218.6261319978
 21
363.230856456959
 31
0.0
  0
LINE
  5
12F
330
12C
100
AcDbEntity
  8
1
  6
Continuous
 62
     2
100
AcDbLine
 10
118.6261319978
 20
343.2680810922
 30
0.0
 11
118.6261319978
 21
363.230856456959
 31
0.0
  0
SOLID
  5
130
330
12C
100
AcDbEntity
  8
1
 62
     2
100
AcDbTrace
 10
215.1261319978
 20
360.7700727154031
 30
0.0
 11
215.1261319978
 21
361.6916401985148
 31
0.0
 12
218.6261319978
 22
361.230856456959
 32
0.0
 13
218.6261319978
 23
361.230856456959
 33
0.0
  0
SOLID
  5
131
330
12C
100
AcDbEntity
  8
1
 62
     2
100
AcDbTrace
 10
122.1261319978
 20
361.6916401985148
 30
0.0
 11
122.1261319978
 21
360.7700727154031
 31
0.0
 12
118.6261319978
 22
361.230856456959
 32
0.0
 13
118.6261319978
 23
361.230856456959
 33
0.0
  0
MTEXT
  5
132
330
12C
100
AcDbEntity
  8
1
 62
     3
100
AcDbMText
 10
167.12400340696
 20
363.230856456959
 30
0.0
 40
3.5
 41
0.0
 71
     7
 72
     1
  1
\C3;\C3;\C3;100\C2;\H2.45;\S^ ;\C3;
  7
CONVERTER_11
 11
0.9999999999970619
 21
2.424068405545306E-6
 31
0.0
 73
     1
 44
0.60024009603842
  0
ENDBLK
  5
134
330
12C
100
AcDbEntity
  8
0
100
AcDbBlockEnd
  0
BLOCK
  5
13E
330
137
100
AcDbEntity
  8
0
100
AcDbBlockBegin
  2
*D6
 70
     1
 10
0.0
 20
0.0
 30
0.0
  3
*D6
  1

  0
LINE
  5
138
330
137
100
AcDbEntity
  8
1
  6
Continuous
 62
     2
100
AcDbLine
 10
218.6261319978
 20
367.963339762432
 30
0.0
 11
86.6261319978
 21
367.963339762432
 31
0.0
  0
LINE
  5
139
330
137
100
AcDbEntity
  8
1
  6
Continuous
 62
     2
100
AcDbLine
 10
218.6261319978
 20
331.1310108314
 30
0.0
 11
218.6261319978
 21
369.963339762432
 31
0.0
  0
LINE
  5
13A
330
137
100
AcDbEntity
  8
1
  6
Continuous
 62
     2
100
AcDbLine
 10
86.6261319978
 20
333.3441082724
 30
0.0
 11
86.6261319978
 21
369.963339762432
 31
0.0
  0
SOLID
  5
13B
330
137
100
AcDbEntity
  8
1
 62
     2
100
AcDbTrace
 10
215.1261319978
 20
367.5025560208761
 30
0.0
 11
215.1261319978
 21
368.4241235039879
 31
0.0
 12
218.6261319978
 22
367.963339762432
 32
0.0
 13
218.6261319978
 23
367.963339762432
 33
0.0
  0
SOLID
  5
13C
330
137
100
AcDbEntity
  8
1
 62
     2
100
AcDbTrace
 10
90.1261319978
 20
368.4241235039879
 30
0.0
 11
90.1261319978
 21
367.5025560208761
 31
0.0
 12
86.6261319978
 22
367.963339762432
 32
0.0
 13
86.6261319978
 23
367.963339762432
 33
0.0
  0
MTEXT
  5
13D
330
137
100
AcDbEntity
  8
1
 62
     3
100
AcDbMText
 10
156.397674072817
 20
369.963339762432
 30
0.0
 40
3.5
 41
0.0
 71
     7
 72
     1
  1
\C3;\C3;\C3;132\C2;\H2.45;\S^ ;\C3;
  7
CONVERTER_11
 11
0.9999999999970619
 21
2.424068405545306E-6
 31
0.0
 73
     1
 44
0.60024009603842
  0
ENDBLK
  5
13F
330
137
100
AcDbEntity
  8
0
100
AcDbBlockEnd
  0
BLOCK
  5
146
330
142
100
AcDbEntity
  8
0
100
AcDbBlockBegin
  2
*D7
 70
     1
 10
0.0
 20
0.0
 30
0.0
  3
*D7
  1

  0
LINE
  5
143
330
142
100
AcDbEntity
  8
1
  6
Continuous
 62
     2
100
AcDbLine
 10
154.201905140801
 20
341.5441772743476
 30
0.0
 11
144.7524845716268
 21
336.2815215637341
 31
0.0
  0
SOLID
  5
144
330
142
100
AcDbEntity
  8
1
 62
     2
100
AcDbTrace
 10
147.5860518432168
 20
338.3870424431975
 30
0.0
 11
148.0344492832492
 21
337.581917383532
 31
0.0
 12
144.7524845716268
 22
336.2815215637341
 32
0.0
 13
144.7524845716268
 23
336.2815215637341
 33
0.0
  0
MTEXT
  5
145
330
142
100
AcDbEntity
  8
1
 62
     3
100
AcDbMText
 10
147.4801860196496
 20
340.0899104293886
 30
0.0
 40
3.5
 41
0.0
 71
     7
 72
     1
  1
\C3; R\C3;\C3;1\C2;\H2.45;\S^ ;\C3;
  7
CONVERTER_11
 11
0.8736474261732021
 21
0.4865595284658799
 31
0.0
 73
     1
 44
0.60024009603842
  0
ENDBLK
  5
147
330
142
100
AcDbEntity
  8
0
100
AcDbBlockEnd
  0
ENDSEC
  0
SECTION
  2
ENTITIES
  0
INSERT
  5
6D
330
1F
100
AcDbEntity
  8
0
100
AcDbBlockReference
  2
Urheberrecht_DE-EN
 10
76.6080063360742
 20
332.737758567996
 30
0.0
  0
LINE
  5
71
330
1F
100
AcDbEntity
  8
VERERBUNG
  6
Continuous
 62
     7
100
AcDbLine
 10
86.6261319978
 20
288.1924978729
 30
0.0
 11
86.6261319978
 21
302.4980810922
 31
0.0
  0
LINE
  5
72
330
1F
100
AcDbEntity
  8
VERERBUNG
  6
Continuous
 62
     7
100
AcDbLine
 10
86.6261319978
 20
317.0380810922
 30
0.0
 11
86.6261319978
 21
331.3441082724
 31
0.0
  0
LINE
  5
73
330
1F
100
AcDbEntity
  8
VERERBUNG
  6
Continuous
 62
     7
100
AcDbLine
 10
87.6261319978
 20
302.1381994123
 30
0.0
 11
87.6261319978
 21
303.4980810922
 31
0.0
  0
LINE
  5
74
330
1F
100
AcDbEntity
  8
VERERBUNG
  6
Continuous
 62
     7
100
AcDbLine
 10
87.6261319978
 20
316.0380810922
 30
0.0
 11
87.6261319978
 21
317.3979627721
 31
0.0
  0
LINE
  5
75
330
1F
100
AcDbEntity
  8
VERERBUNG
  6
Continuous
 62
     9
100
AcDbLine
 10
87.7660889335
 20
332.5426563497
 30
0.0
 11
87.7660889335
 21
319.3301090235
 31
0.0
  0
LINE
  5
76
330
1F
100
AcDbEntity
  8
VERERBUNG
  6
Continuous
 62
     9
100
AcDbLine
 10
87.7660889335
 20
300.2060531609
 30
0.0
 11
87.7660889335
 21
286.9935058347
 31
0.0
  0
LINE
  5
77
330
1F
100
AcDbEntity
  8
VERERBUNG
  6
Continuous
 62
     9
100
AcDbLine
 10
91.1261319978
 20
299.8117682103
 30
0.0
 11
91.1261319978
 21
303.4980810922
 31
0.0
  0
LINE
  5
78
330
1F
100
AcDbEntity
  8
VERERBUNG
  6
Continuous
 62
     9
100
AcDbLine
 10
91.1261319978
 20
316.0380810922
 30
0.0
 11
91.1261319978
 21
319.7243939741
 31
0.0
  0
LINE
  5
79
330
1F
100
AcDbEntity
  8
VERERBUNG
  6
Continuous
 62
     7
100
AcDbLine
 10
92.6261319978
 20
317.2098688108
 30
0.0
 11
92.6261319978
 21
302.3262933736
 31
0.0
  0
LWPOLYLINE
  5
7A
330
1F
100
AcDbEntity
  8
BEZUGSACHSEN
  6
DOT_CENTER
 62
     7
100
AcDbPolyline
 90
        2
 70
     0
 43
0.25
 10
109.6261319978
 20
309.7680810922
 10
109.6261319978
 20
303.0180810922
  0
LWPOLYLINE
  5
7B
330
1F
100
AcDbEntity
  8
BEZUGSACHSEN
  6
DOT_CENTER
 62
     7
100
AcDbPolyline
 90
        2
 70
     0
 43
0.25
 10
109.6261319978
 20
309.7680810922
 10
109.6261319978
 20
316.5180810922
  0
LINE
  5
7C
330
1F
100
AcDbEntity
  8
VERERBUNG
  6
Continuous
 62
     7
100
AcDbLine
 10
86.6261319978
 20
302.4980810922
 30
0.0
 11
87.6261319978
 21
303.4980810922
 31
0.0
  0
LINE
  5
7D
330
1F
100
AcDbEntity
  8
VERERBUNG
  6
Continuous
 62
     7
100
AcDbLine
 10
87.6261319978
 20
316.0380810922
 30
0.0
 11
86.6261319978
 21
317.0380810922
 31
0.0
  0
LINE
  5
7E
330
1F
100
AcDbEntity
  8
VERERBUNG
  6
Continuous
 62
     7
100
AcDbLine
 10
116.6261319978
 20
333.9885052419
 30
0.0
 11
116.6261319978
 21
285.5476569425
 31
0.0
  0
LINE
  5
7F
330
1F
100
AcDbEntity
  8
VERERBUNG
  6
Continuous
 62
     9
100
AcDbLine
 10
117.2962422308
 20
285.7272124383
 30
0.0
 11
117.2962422308
 21
333.8089497461
 31
0.0
  0
LINE
  5
80
330
1F
100
AcDbEntity
  8
VERERBUNG
  6
Continuous
 62
     9
100
AcDbLine
 10
117.4515336579
 20
285.7476569425
 30
0.0
 11
117.4515336579
 21
333.7885052419
 31
0.0
  0
LINE
  5
81
330
1F
100
AcDbEntity
  8
VERERBUNG
  6
Continuous
 62
     9
100
AcDbLine
 10
118.3239623673
 20
285.7476569425
 30
0.0
 11
118.3239623673
 21
333.7885052419
 31
0.0
  0
LINE
  5
82
330
1F
100
AcDbEntity
  8
VERERBUNG
  6
Continuous
 62
     7
100
AcDbLine
 10
118.6261319978
 20
341.2680810922
 30
0.0
 11
118.6261319978
 21
278.2680810922
 31
0.0
  0
LINE
  5
83
330
1F
100
AcDbEntity
  8
VERERBUNG
  6
Continuous
 62
     7
100
AcDbLine
 10
118.6261319978
 20
278.2680810922
 30
0.0
 11
133.248632923
 21
278.2680810922
 31
0.0
  0
LINE
  5
84
330
1F
100
AcDbEntity
  8
VERERBUNG
  6
Continuous
 62
     7
100
AcDbLine
 10
140.0036310726
 20
278.2680810922
 30
0.0
 11
144.6261319978
 21
278.2680810922
 31
0.0
  0
LWPOLYLINE
  5
85
330
1F
100
AcDbEntity
  8
BEZUGSACHSEN
  6
DOT_CENTER
 62
     7
100
AcDbPolyline
 90
        2
 70
     0
 43
0.25
 10
125.6261319978
 20
333.2687241724
 10
125.6261319978
 20
344.2680810922
  0
LINE
  5
86
330
1F
100
AcDbEntity
  8
VERERBUNG
  6
Continuous
 62
     7
100
AcDbLine
 10
138.5011319978
 20
338.6656763564
 30
0.0
 11
140.0036310726
 21
341.2680810922
 31
0.0
  0
LINE
  5
87
330
1F
100
AcDbEntity
  8
VERERBUNG
  6
Continuous
 62
     9
100
AcDbLine
 10
86.6261319978
 20
301.5914933056
 30
0.0
 11
87.6261319978
 21
302.1381994123
 31
0.0
  0
LINE
  5
88
330
1F
100
AcDbEntity
  8
VERERBUNG
  6
Continuous
 62
     7
100
AcDbLine
 10
135.7511319978
 20
282.2680810922
 30
0.0
 11
137.5011319978
 21
282.2680810922
 31
0.0
  0
LINE
  5
89
330
1F
100
AcDbEntity
  8
VERERBUNG
  6
Continuous
 62
     7
100
AcDbLine
 10
138.5011319978
 20
280.870485828
 30
0.0
 11
140.0036310726
 21
278.2680810922
 31
0.0
  0
LINE
  5
8A
330
1F
100
AcDbEntity
  8
FASEN
  6
Continuous
 62
     9
100
AcDbLine
 10
130.7631424008
 20
289.5180810922
 30
0.0
 11
130.7631424008
 21
289.9180810922
 31
0.0
  0
LINE
  5
8B
330
1F
100
AcDbEntity
  8
0
  6
Continuous
 62
     7
100
AcDbLine
 10
133.248632923
 20
341.2680810922
 30
0.0
 11
133.248632923
 21
317.7855810922
 31
0.0
  0
LINE
  5
8C
330
1F
100
AcDbEntity
  8
0
  6
Continuous
 62
     7
100
AcDbLine
 10
133.248632923
 20
301.7505810922
 30
0.0
 11
133.248632923
 21
289.9180810922
 31
0.0
  0
LINE
  5
8D
330
1F
100
AcDbEntity
  8
0
  6
Continuous
 62
     7
100
AcDbLine
 10
133.248632923
 20
285.3093914298
 30
0.0
 11
133.248632923
 21
278.2680810922
 31
0.0
  0
LINE
  5
8E
330
1F
100
AcDbEntity
  8
0
  6
Continuous
 62
     7
100
AcDbLine
 10
145.6261319978
 20
283.7680810922
 30
0.0
 11
186.6218651877
 21
283.7680810922
 31
0.0
  0
LINE
  5
8F
330
1F
100
AcDbEntity
  8
0
  6
Continuous
 62
     7
100
AcDbLine
 10
200.6303988079
 20
283.7680810922
 30
0.0
 11
205.5373958121
 21
283.7680810922
 31
0.0
  0
LINE
  5
90
330
1F
100
AcDbEntity
  8
FASEN
  6
Continuous
 62
     7
100
AcDbLine
 10
123.961744442
 20
285.3093914298
 30
0.0
 11
133.248632923
 21
285.3093914298
 31
0.0
  0
LINE
  5
91
330
1F
100
AcDbEntity
  8
0
  6
Continuous
 62
     7
100
AcDbLine
 10
140.0036310726
 20
285.3093914298
 30
0.0
 11
144.6261319978
 21
285.3093914298
 31
0.0
  0
LINE
  5
92
330
1F
100
AcDbEntity
  8
VERERBUNG
  6
Continuous
 62
     7
100
AcDbLine
 10
118.3239623673
 20
285.7476569425
 30
0.0
 11
117.4515336579
 21
285.7476569425
 31
0.0
  0
LINE
  5
93
330
1F
100
AcDbEntity
  8
VERERBUNG
  6
Continuous
 62
     7
100
AcDbLine
 10
87.7660889335
 20
286.9935058347
 30
0.0
 11
116.6261319978
 21
285.5476569425
 31
0.0
  0
LINE
  5
94
330
1F
100
AcDbEntity
  8
VERERBUNG
  6
Continuous
 62
     9
100
AcDbLine
 10
87.6261319978
 20
317.3979627721
 30
0.0
 11
86.6261319978
 21
317.9446688788
 31
0.0
  0
LINE
  5
95
330
1F
100
AcDbEntity
  8
0
  6
Continuous
 62
     7
100
AcDbLine
 10
134.7511319978
 20
338.6656538199
 30
0.0
 11
134.7511319978
 21
317.7855810922
 31
0.0
  0
LINE
  5
96
330
1F
100
AcDbEntity
  8
0
  6
Continuous
 62
     7
100
AcDbLine
 10
134.7511319978
 20
301.7505810922
 30
0.0
 11
134.7511319978
 21
289.9180810922
 31
0.0
  0
LINE
  5
97
330
1F
100
AcDbEntity
  8
0
  6
Continuous
 62
     7
100
AcDbLine
 10
134.7511319978
 20
280.8704921407
 30
0.0
 11
134.7511319978
 21
289.3174698544
 31
0.0
  0
LINE
  5
98
330
1F
100
AcDbEntity
  8
0
  6
Continuous
 62
     9
100
AcDbLine
 10
135.7511319978
 20
282.2680810922
 30
0.0
 11
135.7511319978
 21
302.0680810922
 31
0.0
  0
LINE
  5
99
330
1F
100
AcDbEntity
  8
0
  6
Continuous
 62
     9
100
AcDbLine
 10
135.7511319978
 20
317.4680810922
 30
0.0
 11
135.7511319978
 21
337.2680810922
 31
0.0
  0
LINE
  5
9A
330
1F
100
AcDbEntity
  8
0
  6
Continuous
 62
     9
100
AcDbLine
 10
137.5011319978
 20
282.2680810922
 30
0.0
 11
137.5011319978
 21
302.0680810922
 31
0.0
  0
LINE
  5
9B
330
1F
100
AcDbEntity
  8
0
  6
Continuous
 62
     9
100
AcDbLine
 10
137.5011319978
 20
317.4680810922
 30
0.0
 11
137.5011319978
 21
337.2680810922
 31
0.0
  0
LINE
  5
9C
330
1F
100
AcDbEntity
  8
FASEN
  6
Continuous
 62
     7
100
AcDbLine
 10
130.7631424008
 20
289.5180810922
 30
0.0
 11
134.7614972631
 21
289.5180810922
 31
0.0
  0
LINE
  5
9D
330
1F
100
AcDbEntity
  8
FASEN
  6
Continuous
 62
     7
100
AcDbLine
 10
138.4907667325
 20
289.5180810922
 30
0.0
 11
144.6261319978
 21
289.5180810922
 31
0.0
  0
LINE
  5
9E
330
1F
100
AcDbEntity
  8
0
  6
Continuous
 62
     7
100
AcDbLine
 10
130.7631424008
 20
289.9180810922
 30
0.0
 11
134.7511319978
 21
289.9180810922
 31
0.0
  0
LINE
  5
9F
330
1F
100
AcDbEntity
  8
FASEN
  6
Continuous
 62
     7
100
AcDbLine
 10
134.7511319978
 20
289.9180810922
 30
0.0
 11
134.7614972631
 21
289.9180810922
 31
0.0
  0
LINE
  5
A0
330
1F
100
AcDbEntity
  8
FASEN
  6
Continuous
 62
     7
100
AcDbLine
 10
138.4907667325
 20
289.9180810922
 30
0.0
 11
138.5011319978
 21
289.9180810922
 31
0.0
  0
LINE
  5
A1
330
1F
100
AcDbEntity
  8
0
  6
Continuous
 62
     7
100
AcDbLine
 10
138.5011319978
 20
289.9180810922
 30
0.0
 11
144.6261319978
 21
289.9180810922
 31
0.0
  0
LINE
  5
A2
330
1F
100
AcDbEntity
  8
0
  6
Continuous
 62
     7
100
AcDbLine
 10
138.5011319978
 20
280.8704921407
 30
0.0
 11
138.5011319978
 21
289.3174698544
 31
0.0
  0
LINE
  5
A3
330
1F
100
AcDbEntity
  8
0
  6
Continuous
 62
     7
100
AcDbLine
 10
138.5011319978
 20
289.9180810922
 30
0.0
 11
138.5011319978
 21
301.7505810922
 31
0.0
  0
LINE
  5
A4
330
1F
100
AcDbEntity
  8
0
  6
Continuous
 62
     7
100
AcDbLine
 10
138.5011319978
 20
317.7855810922
 30
0.0
 11
138.5011319978
 21
338.6656538199
 31
0.0
  0
LINE
  5
A5
330
1F
100
AcDbEntity
  8
0
  6
Continuous
 62
     7
100
AcDbLine
 10
140.0036310726
 20
341.2680810922
 30
0.0
 11
140.0036310726
 21
317.7855810922
 31
0.0
  0
LINE
  5
A6
330
1F
100
AcDbEntity
  8
0
  6
Continuous
 62
     7
100
AcDbLine
 10
140.0036310726
 20
301.7505810922
 30
0.0
 11
140.0036310726
 21
289.9180810922
 31
0.0
  0
LINE
  5
A7
330
1F
100
AcDbEntity
  8
0
  6
Continuous
 62
     7
100
AcDbLine
 10
140.0036310726
 20
285.3093914298
 30
0.0
 11
140.0036310726
 21
278.2680810922
 31
0.0
  0
LINE
  5
A8
330
1F
100
AcDbEntity
  8
VERERBUNG
  6
Continuous
 62
     7
100
AcDbLine
 10
117.2962422308
 20
285.7272124383
 30
0.0
 11
116.6261319978
 21
285.5476569425
 31
0.0
  0
LINE
  5
A9
330
1F
100
AcDbEntity
  8
0
  6
Continuous
 62
     7
100
AcDbLine
 10
144.6261319978
 20
341.2680321867
 30
0.0
 11
144.6261319978
 21
317.7855810922
 31
0.0
  0
LINE
  5
AA
330
1F
100
AcDbEntity
  8
0
  6
Continuous
 62
     7
100
AcDbLine
 10
144.6261319978
 20
301.7505810922
 30
0.0
 11
144.6261319978
 21
289.9180810922
 31
0.0
  0
LINE
  5
AB
330
1F
100
AcDbEntity
  8
0
  6
Continuous
 62
     7
100
AcDbLine
 10
144.6261319978
 20
285.3093914298
 30
0.0
 11
144.6261319978
 21
278.268120154
 31
0.0
  0
LINE
  5
AC
330
1F
100
AcDbEntity
  8
FASEN
  6
Continuous
 62
     7
100
AcDbLine
 10
144.6261319978
 20
285.3093914298
 30
0.0
 11
144.6261319978
 21
289.9180810922
 31
0.0
  0
LINE
  5
AD
330
1F
100
AcDbEntity
  8
RUNDUNGEN
  6
Continuous
 62
     7
100
AcDbLine
 10
144.6261319978
 20
301.7505810922
 30
0.0
 11
144.6261319978
 21
304.107674187
 31
0.0
  0
LINE
  5
AE
330
1F
100
AcDbEntity
  8
RUNDUNGEN
  6
Continuous
 62
     7
100
AcDbLine
 10
144.6261319978
 20
315.4284900655
 30
0.0
 11
144.6261319978
 21
317.7855810922
 31
0.0
  0
LINE
  5
AF
330
1F
100
AcDbEntity
  8
RUNDUNGEN
  6
Continuous
 62
     9
100
AcDbLine
 10
145.6261319978
 20
335.7680810922
 30
0.0
 11
145.6261319978
 21
283.7680810922
 31
0.0
  0
LWPOLYLINE
  5
B0
330
1F
100
AcDbEntity
  8
BOHRUNGEN
  6
DASHED
 62
     8
100
AcDbPolyline
 90
        2
 70
     0
 43
0.35
 10
218.6261319978
 20
299.7680810922
 10
186.0631328758
 20
299.7680810922
  0
LWPOLYLINE
  5
B1
330
1F
100
AcDbEntity
  8
BOHRUNGEN
  6
DASHED
 62
     8
100
AcDbPolyline
 90
        2
 70
     0
 43
0.35
 10
186.0631328758
 20
299.7680810922
 10
168.6261319978
 20
299.7680810922
  0
LINE
  5
B2
330
1F
100
AcDbEntity
  8
VERERBUNG
  6
Continuous
 62
     9
100
AcDbLine
 10
92.1135390355
 20
300.4980810922
 30
0.0
 11
87.2978068082
 21
300.4980810922
 31
0.0
  0
LINE
  5
B3
330
1F
100
AcDbEntity
  8
0
  6
Continuous
 62
     7
100
AcDbLine
 10
144.6261319978
 20
301.7505810922
 30
0.0
 11
137.9170188883
 21
301.7505810922
 31
0.0
  0
LINE
  5
B4
330
1F
100
AcDbEntity
  8
0
  6
Continuous
 62
     7
100
AcDbLine
 10
131.5936319978
 20
301.7505810922
 30
0.0
 11
135.3352451073
 21
301.7505810922
 31
0.0
  0
LINE
  5
B5
330
1F
100
AcDbEntity
  8
0
  6
Continuous
 62
     7
100
AcDbLine
 10
135.7511319978
 20
302.0680810922
 30
0.0
 11
137.5011319978
 21
302.0680810922
 31
0.0
  0
LINE
  5
B6
330
1F
100
AcDbEntity
  8
VERERBUNG
  6
Continuous
 62
     7
100
AcDbLine
 10
133.248632923
 20
278.2680810922
 30
0.0
 11
134.7511319978
 21
280.870485828
 31
0.0
  0
LINE
  5
B7
330
1F
100
AcDbEntity
  8
VERERBUNG
  6
Continuous
 62
     7
100
AcDbLine
 10
91.1261319978
 20
303.4980810922
 30
0.0
 11
87.6261319978
 21
303.4980810922
 31
0.0
  0
LINE
  5
B8
330
1F
100
AcDbEntity
  8
VERERBUNG
  6
Continuous
 62
     7
100
AcDbLine
 10
133.248632923
 20
341.2680810922
 30
0.0
 11
134.7511319978
 21
338.6656763564
 31
0.0
  0
LWPOLYLINE
  5
B9
330
1F
100
AcDbEntity
  8
BEZUGSACHSEN
  6
DOT_CENTER
 62
     7
100
AcDbPolyline
 90
        2
 70
     0
 43
0.25
 10
221.6261319978
 20
309.7680810922
 10
83.6261319978
 20
309.7680810922
  0
LINE
  5
BA
330
1F
100
AcDbEntity
  8
VERERBUNG
  6
Continuous
 62
     7
100
AcDbLine
 10
91.1261319978
 20
316.0380810922
 30
0.0
 11
87.6261319978
 21
316.0380810922
 31
0.0
  0
LINE
  5
BB
330
1F
100
AcDbEntity
  8
0
  6
Continuous
 62
     7
100
AcDbLine
 10
135.7511319978
 20
317.4680810922
 30
0.0
 11
137.5011319978
 21
317.4680810922
 31
0.0
  0
LINE
  5
BC
330
1F
100
AcDbEntity
  8
0
  6
Continuous
 62
     7
100
AcDbLine
 10
131.5936319978
 20
317.7855810922
 30
0.0
 11
135.3352451073
 21
317.7855810922
 31
0.0
  0
LINE
  5
BD
330
1F
100
AcDbEntity
  8
0
  6
Continuous
 62
     7
100
AcDbLine
 10
137.9170188883
 20
317.7855810922
 30
0.0
 11
144.6261319978
 21
317.7855810922
 31
0.0
  0
LINE
  5
BE
330
1F
100
AcDbEntity
  8
VERERBUNG
  6
Continuous
 62
     9
100
AcDbLine
 10
87.2978068082
 20
319.0380810922
 30
0.0
 11
92.1135390355
 21
319.0380810922
 31
0.0
  0
LWPOLYLINE
  5
BF
330
1F
100
AcDbEntity
  8
BOHRUNGEN
  6
DASHED
 62
     8
100
AcDbPolyline
 90
        2
 70
     0
 43
0.35
 10
218.6261319978
 20
319.7680810922
 10
168.6261319978
 20
319.7680810922
  0
LWPOLYLINE
  5
C0
330
1F
100
AcDbEntity
  8
BOHRUNGEN
  6
DASHED
 62
     8
100
AcDbPolyline
 90
        2
 70
     0
 43
0.35
 10
168.6261319978
 20
299.7680810922
 10
168.6261319978
 20
319.7680810922
  0
LINE
  5
C1
330
1F
100
AcDbEntity
  8
VERERBUNG
  6
Continuous
 62
     7
100
AcDbLine
 10
117.2962422308
 20
333.8089497461
 30
0.0
 11
116.6261319978
 21
333.9885052419
 31
0.0
  0
LINE
  5
C2
330
1F
100
AcDbEntity
  8
VERERBUNG
  6
Continuous
 62
     7
100
AcDbLine
 10
87.7660889335
 20
332.5426563497
 30
0.0
 11
116.6261319978
 21
333.9885052419
 31
0.0
  0
LINE
  5
C3
330
1F
100
AcDbEntity
  8
VERERBUNG
  6
Continuous
 62
     7
100
AcDbLine
 10
118.3239623673
 20
333.7885052419
 30
0.0
 11
117.4515336579
 21
333.7885052419
 31
0.0
  0
LINE
  5
C4
330
1F
100
AcDbEntity
  8
0
  6
Continuous
 62
     7
100
AcDbLine
 10
145.6261319978
 20
335.7680810922
 30
0.0
 11
205.5373958121
 21
335.7680810922
 31
0.0
  0
LINE
  5
C5
330
1F
100
AcDbEntity
  8
VERERBUNG
  6
Continuous
 62
     7
100
AcDbLine
 10
135.7511319978
 20
337.2680810922
 30
0.0
 11
137.5011319978
 21
337.2680810922
 31
0.0
  0
LWPOLYLINE
  5
C6
330
1F
100
AcDbEntity
  8
BOHRUNGEN
  6
DASHED
 62
     8
100
AcDbPolyline
 90
        2
 70
     0
 43
0.35
 10
186.0631328758
 20
299.7680810922
 10
186.6218651877
 20
283.7680810922
  0
LINE
  5
C7
330
1F
100
AcDbEntity
  8
VERERBUNG
  6
Continuous
 62
     7
100
AcDbLine
 10
118.6261319978
 20
341.2680810922
 30
0.0
 11
120.6261319978
 21
341.2680810922
 31
0.0
  0
LINE
  5
C8
330
1F
100
AcDbEntity
  8
VERERBUNG
  6
Continuous
 62
     7
100
AcDbLine
 10
130.6261319978
 20
341.2680810922
 30
0.0
 11
133.248632923
 21
341.2680810922
 31
0.0
  0
LINE
  5
C9
330
1F
100
AcDbEntity
  8
VERERBUNG
  6
Continuous
 62
     7
100
AcDbLine
 10
140.0036310726
 20
341.2680810922
 30
0.0
 11
144.6261319978
 21
341.2680810922
 31
0.0
  0
LWPOLYLINE
  5
CA
330
1F
100
AcDbEntity
  8
BEZUGSACHSEN
  6
DOT_CENTER
 62
     7
100
AcDbPolyline
 90
        2
 70
     0
 43
0.25
 10
193.7418757271911
 20
280.4536143427985
 10
192.9070678407411
 20
304.3593844215679
  0
LINE
  5
CB
330
1F
100
AcDbEntity
  8
0
  6
Continuous
 62
     7
100
AcDbLine
 10
205.9600140738
 20
283.8617733052
 30
0.0
 11
218.0487502595
 21
289.498843566
 31
0.0
  0
LWPOLYLINE
  5
CC
330
1F
100
AcDbEntity
  8
BOHRUNGEN
  6
DASHED
 62
     8
100
AcDbPolyline
 90
        2
 70
     0
 43
0.35
 10
200.071666496
 20
299.7680810922
 10
200.6303988079
 20
283.7680810922
  0
LINE
  5
CD
330
1F
100
AcDbEntity
  8
0
  6
Continuous
 62
     7
100
AcDbLine
 10
205.9600140738
 20
335.6743888792
 30
0.0
 11
218.0487502595
 21
330.0373186184
 31
0.0
  0
LINE
  5
CE
330
1F
100
AcDbEntity
  8
RUNDUNGEN
  6
Continuous
 62
     9
100
AcDbLine
 10
205.5373958121
 20
283.7680810922
 30
0.0
 11
205.5373958121
 21
335.7680810922
 31
0.0
  0
LINE
  5
CF
330
1F
100
AcDbEntity
  8
RUNDUNGEN
  6
Continuous
 62
     9
100
AcDbLine
 10
205.9600140738
 20
283.8617733052
 30
0.0
 11
205.9600140738
 21
335.6743888792
 31
0.0
  0
LINE
  5
D0
330
1F
100
AcDbEntity
  8
RUNDUNGEN
  6
Continuous
 62
     9
100
AcDbLine
 10
218.0487502595
 20
289.498843566
 30
0.0
 11
218.0487502595
 21
330.0373186184
 31
0.0
  0
LINE
  5
D1
330
1F
100
AcDbEntity
  8
RUNDUNGEN
  6
Continuous
 62
     7
100
AcDbLine
 10
218.6261319978
 20
329.1310108314
 30
0.0
 11
218.6261319978
 21
290.405151353
 31
0.0
  0
LWPOLYLINE
  5
D2
330
1F
100
AcDbEntity
  8
BOHRUNGEN
  6
DASHED
 62
     8
100
AcDbPolyline
 90
        2
 70
     0
 43
0.35
 10
201.0722760403
 20
299.7680810922
 10
201.6310083522
 20
283.7680810922
  0
LWPOLYLINE
  5
D3
330
1F
100
AcDbEntity
  8
BOHRUNGEN
  6
DASHED
 62
     8
100
AcDbPolyline
 90
        2
 70
     0
 43
0.35
 10
185.0625233315
 20
299.7680810922
 10
185.6212556434
 20
283.7680810922
  0
ARC
  5
D4
330
1F
100
AcDbEntity
  8
FASEN
  6
Continuous
 62
     7
100
AcDbCircle
 10
37.0558915173
 20
289.7180810922
 30
0.0
 40
97.70581044213138
100
AcDbArc
 50
359.8827176822629
 51
0.11728231773712
  0
ARC
  5
D5
330
1F
100
AcDbEntity
  8
FASEN
  6
Continuous
 62
     7
100
AcDbCircle
 10
133.6701379136
 20
293.8374782491
 30
0.0
 40
12.92211935379971
100
AcDbArc
 50
219.3764519581998
 51
221.2968513340955
  0
ARC
  5
D6
330
1F
100
AcDbEntity
  8
FASEN
  6
Continuous
 62
     7
100
AcDbCircle
 10
130.7631424008
 20
281.9180810922
 30
0.0
 40
8.0
100
AcDbArc
 50
90.0
 51
152.2781454969004
  0
ARC
  5
D7
330
1F
100
AcDbEntity
  8
FASEN
  6
Continuous
 62
     7
100
AcDbCircle
 10
130.7631424008
 20
281.9180810922
 30
0.0
 40
7.599996372100009
100
AcDbArc
 50
90.0
 51
153.498256574603
  0
ARC
  5
D8
330
1F
100
AcDbEntity
  8
FASEN
  6
Continuous
 62
     7
100
AcDbCircle
 10
136.5535865347
 20
289.3174166587
 30
0.0
 40
1.947545463826499
100
AcDbArc
 50
0.00156498996029
 51
5.91393926133212
  0
ARC
  5
D9
330
1F
100
AcDbEntity
  8
VERERBUNG
  6
Continuous
 62
     7
100
AcDbCircle
 10
91.1261319978
 20
304.9980810922
 30
0.0
 40
1.5
100
AcDbArc
 50
270.0
 51
354.6670371750983
  0
ARC
  5
DA
330
1F
100
AcDbEntity
  8
VERERBUNG
  6
Continuous
 62
     7
100
AcDbCircle
 10
87.8261319978
 20
288.1920027393
 30
0.0
 40
1.200000000000003
100
AcDbArc
 50
180.0
 51
267.1319572715504
  0
ARC
  5
DB
330
1F
100
AcDbEntity
  8
VERERBUNG
  6
Continuous
 62
     7
100
AcDbCircle
 10
135.7511319978
 20
281.2680810922
 30
0.0
 40
1.0
100
AcDbArc
 50
90.0
 51
180.0
  0
ARC
  5
DC
330
1F
100
AcDbEntity
  8
VERERBUNG
  6
Continuous
 62
     7
100
AcDbCircle
 10
117.4515336579
 20
285.1476569425
 30
0.0
 40
0.5999999999999659
100
AcDbArc
 50
90.0
 51
105.0000000028938
  0
ARC
  5
DD
330
1F
100
AcDbEntity
  8
VERERBUNG
  6
Continuous
 62
     7
100
AcDbCircle
 10
118.3239623673
 20
285.1476569425
 30
0.0
 40
0.600000000000437
100
AcDbArc
 50
59.74152092739783
 51
90.0
  0
ARC
  5
DE
330
1F
100
AcDbEntity
  8
0
  6
Continuous
 62
     7
100
AcDbCircle
 10
-9.1224094748
 20
349.2330846965
 30
0.0
 40
156.0632957305827
100
AcDbArc
 50
335.8202227521571
 51
337.2043014055999
  0
ARC
  5
DF
330
1F
100
AcDbEntity
  8
VERERBUNG
  6
Continuous
 62
     7
100
AcDbCircle
 10
125.6075658197
 20
372.582628952
 30
0.0
 40
31.7138560894998
100
AcDbArc
 50
270.0335424960991
 51
279.1049739606
  0
ARC
  5
E0
330
1F
100
AcDbEntity
  8
0
  6
Continuous
 62
     7
100
AcDbCircle
 10
131.5936319978
 20
309.7680810922
 30
0.0
 40
8.017499999999984
100
AcDbArc
 50
90.0
 51
270.0
  0
ARC
  5
E1
330
1F
100
AcDbEntity
  8
VERERBUNG
  6
Continuous
 62
     7
100
AcDbCircle
 10
91.1261319978
 20
314.5380810922
 30
0.0
 40
1.500000000000026
100
AcDbArc
 50
5.3329627698127
 51
90.0
  0
ARC
  5
E2
330
1F
100
AcDbEntity
  8
VERERBUNG
  6
Continuous
 62
     7
100
AcDbCircle
 10
87.8261319978
 20
331.3441594451
 30
0.0
 40
1.199999999960971
100
AcDbArc
 50
92.86804272844957
 51
180.0
  0
ARC
  5
E3
330
1F
100
AcDbEntity
  8
VERERBUNG
  6
Continuous
 62
     7
100
AcDbCircle
 10
135.7511319978
 20
338.2680810922
 30
0.0
 40
1.0
100
AcDbArc
 50
180.0
 51
270.0
  0
ARC
  5
E4
330
1F
100
AcDbEntity
  8
VERERBUNG
  6
Continuous
 62
     7
100
AcDbCircle
 10
117.4515336579
 20
334.3885052419
 30
0.0
 40
0.6000000000356498
100
AcDbArc
 50
254.9999999971076
 51
270.0
  0
ARC
  5
E5
330
1F
100
AcDbEntity
  8
VERERBUNG
  6
Continuous
 62
     7
100
AcDbCircle
 10
118.3239623673
 20
334.3885052419
 30
0.0
 40
0.6000000000000227
100
AcDbArc
 50
270.0
 51
300.2584790725995
  0
ARC
  5
E6
330
1F
100
AcDbEntity
  8
VERERBUNG
  6
Continuous
 62
     7
100
AcDbCircle
 10
192.5097294044
 20
-558.7669808249
 30
0.0
 40
884.3221864339606
100
AcDbArc
 50
96.58318095120204
 51
96.8023740697
  0
ARC
  5
E7
330
1F
100
AcDbEntity
  8
FASEN
  6
Continuous
 62
     7
100
AcDbCircle
 10
236.1963724783
 20
289.7180810922
 30
0.0
 40
97.70581044213137
100
AcDbArc
 50
179.8827176822629
 51
180.1172823177371
  0
ARC
  5
E8
330
1F
100
AcDbEntity
  8
FASEN
  6
Continuous
 62
     7
100
AcDbCircle
 10
136.6986774609
 20
289.3174166587
 30
0.0
 40
1.947545463813437
100
AcDbArc
 50
174.0860607386679
 51
179.9984350100397
  0
ARC
  5
E9
330
1F
100
AcDbEntity
  8
RUNDUNGEN
  6
Continuous
 62
     7
100
AcDbCircle
 10
145.6261319978
 20
282.7680810922
 30
0.0
 40
1.0
100
AcDbArc
 50
90.0
 51
180.0
  0
ARC
  5
EA
330
1F
100
AcDbEntity
  8
RUNDUNGEN
  6
Continuous
 62
     7
100
AcDbCircle
 10
217.6261319978
 20
290.405151353
 30
0.0
 40
0.999999999949584
100
AcDbArc
 50
294.9999999987737
 51
0.0
  0
ARC
  5
EB
330
1F
100
AcDbEntity
  8
RUNDUNGEN
  6
Continuous
 62
     7
100
AcDbCircle
 10
205.5373958121
 20
284.7680810922
 30
0.0
 40
1.0
100
AcDbArc
 50
270.0
 51
294.9999999987752
  0
ARC
  5
EC
330
1F
100
AcDbEntity
  8
VERERBUNG
  6
Continuous
 62
     7
100
AcDbCircle
 10
137.5011319978
 20
281.2680810922
 30
0.0
 40
1.0
100
AcDbArc
 50
0.0
 51
90.0
  0
ARC
  5
ED
330
1F
100
AcDbEntity
  8
VERERBUNG
  6
Continuous
 62
     7
100
AcDbCircle
 10
192.5097294044
 20
1178.3031430093
 30
0.0
 40
884.3221864338998
100
AcDbArc
 50
263.1976259303
 51
263.4168190487979
  0
ARC
  5
EE
330
1F
100
AcDbEntity
  8
0
  6
Continuous
 62
     7
100
AcDbCircle
 10
282.3746734706
 20
349.2330846965
 30
0.0
 40
156.0632957307998
100
AcDbArc
 50
202.7956985943999
 51
204.1797772478128
  0
ARC
  5
EF
330
1F
100
AcDbEntity
  8
RUNDUNGEN
  6
Continuous
 62
     7
100
AcDbCircle
 10
145.6261319978
 20
336.7680810922
 30
0.0
 40
1.0
100
AcDbArc
 50
180.0
 51
270.0
  0
ARC
  5
F0
330
1F
100
AcDbEntity
  8
RUNDUNGEN
  6
Continuous
 62
     7
100
AcDbCircle
 10
217.6261319978
 20
329.1310108314
 30
0.0
 40
1.0
100
AcDbArc
 50
0.0
 51
65.00000000122631
  0
ARC
  5
F1
330
1F
100
AcDbEntity
  8
RUNDUNGEN
  6
Continuous
 62
     7
100
AcDbCircle
 10
205.5373958121
 20
334.7680810922
 30
0.0
 40
0.999999999949596
100
AcDbArc
 50
65.00000000122483
 51
90.0
  0
ARC
  5
F2
330
1F
100
AcDbEntity
  8
VERERBUNG
  6
Continuous
 62
     7
100
AcDbCircle
 10
137.5011319978
 20
338.2680810922
 30
0.0
 40
1.0
100
AcDbArc
 50
270.0
 51
0.0
  0
CIRCLE
  5
F3
330
1F
100
AcDbEntity
  8
VERERBUNG
  6
Continuous
 62
     7
100
AcDbCircle
 10
109.6261319978
 20
309.7680810922
 30
0.0
 40
3.75
  0
SPLINE
  5
F4
330
1F
100
AcDbEntity
  8
0
  6
Continuous
 62
     2
100
AcDbSpline
210
0.0
220
0.0
230
1.0
 70
     8
 71
     3
 72
    59
 73
    55
 74
    53
 42
0.0000000001
 43
0.0000000001
 44
0.00000001
 40
0.0
 40
0.0
 40
0.0
 40
0.0
 40
0.0146427360542105
 40
0.0587413464098632
 40
0.1324522012392555
 40
0.2355347790779955
 40
0.3677310738885972
 40
0.5291080116279325
 40
0.7196205498798933
 40
0.9384439474395031
 40
1.184723337329179
 40
1.458249628852463
 40
1.758568299285609
 40
2.083572384567515
 40
2.431057483143451
 40
2.800047507934049
 40
3.189408344306373
 40
3.596098368864259
 40
4.017046526191452
 40
4.450920647129554
 40
4.896469301402739
 40
5.350974445310488
 40
5.811770066374671
 40
6.277820195688736
 40
6.748299481579886
 40
7.221565542391462
 40
7.695946336446271
 40
8.17044507243125
 40
8.644257589796794
 40
9.11667461510282
 40
9.58682374165307
 40
10.05308722928567
 40
10.51390400311751
 40
10.96870915625751
 40
11.41674816184965
 40
11.85554122442339
 40
12.28255839971953
 40
12.69683794555457
 40
13.0973351226878
 40
13.4811545573291
 40
13.84538735845807
 40
14.18897111992256
 40
14.51097140327322
 40
14.80916692217573
 40
15.08139500399297
 40
15.32705002452721
 40
15.54575746894011
 40
15.73653709785953
 40
15.89844105772235
 40
16.03127166693065
 40
16.1349539197975
 40
16.20916115530627
 40
16.25360079660341
 40
16.26837059929959
 40
16.26837059929959
 40
16.26837059929959
 40
16.26837059929959
 10
201.6310083522
 20
283.7680810922
 30
0.0
 10
201.6263389753149
 20
283.7695024381782
 30
0.0
 10
201.6076071287451
 20
283.7752043627479
 30
0.0
 10
201.5653501816188
 20
283.787996525183
 30
0.0
 10
201.4948507826457
 20
283.8092407928077
 30
0.0
 10
201.3961480925299
 20
283.8386705331391
 30
0.0
 10
201.2693175477103
 20
283.8760317539653
 30
0.0
 10
201.1143217348344
 20
283.9209114187026
 30
0.0
 10
200.931313792593
 20
283.972861873091
 30
0.0
 10
200.7207046016185
 20
284.0312018088991
 30
0.0
 10
200.4829624046383
 20
284.0952258472104
 30
0.0
 10
200.2184020197689
 20
284.1640990763239
 30
0.0
 10
199.9277620135467
 20
284.236908047977
 30
0.0
 10
199.6124203723947
 20
284.3125005525042
 30
0.0
 10
199.2739317943416
 20
284.3896426350879
 30
0.0
 10
198.9135473456151
 20
284.4671360658895
 30
0.0
 10
198.5328250029144
 20
284.5437718430601
 30
0.0
 10
198.1340480127097
 20
284.6182936415683
 30
0.0
 10
197.7195759079983
 20
284.6893601774536
 30
0.0
 10
197.2912377922858
 20
284.7559008900795
 30
0.0
 10
196.8507822157392
 20
284.8169273081204
 30
0.0
 10
196.4004499083121
 20
284.8716006924963
 30
0.0
 10
195.9424227841937
 20
284.919016777449
 30
0.0
 10
195.4783073643007
 20
284.9586075531682
 30
0.0
 10
195.0093911797169
 20
284.9898946621585
 30
0.0
 10
194.5371985379335
 20
285.0125697619602
 30
0.0
 10
194.0633195391952
 20
285.0262821483764
 30
0.0
 10
193.5890830480606
 20
285.0309609894476
 30
0.0
 10
193.1154985238475
 20
285.0265566398392
 30
0.0
 10
192.6435338431236
 20
285.0131500338382
 30
0.0
 10
192.1744257008363
 20
284.990848948037
 30
0.0
 10
191.7096764206399
 20
284.9600284225193
 30
0.0
 10
191.2506771502413
 20
284.9210122075535
 30
0.0
 10
190.798508731237
 20
284.874265752968
 30
0.0
 10
190.3545355544369
 20
284.82034836649
 30
0.0
 10
189.9207243616816
 20
284.760131706671
 30
0.0
 10
189.499099211471
 20
284.694416218283
 30
0.0
 10
189.0911619691929
 20
284.6241286135288
 30
0.0
 10
188.6984986191345
 20
284.5502845190879
 30
0.0
 10
188.323278982809
 20
284.4741685663017
 30
0.0
 10
187.9676683009961
 20
284.3969908596806
 30
0.0
 10
187.6331481559627
 20
284.3199327491531
 30
0.0
 10
187.3209413168065
 20
284.2441762627379
 30
0.0
 10
187.0326113361715
 20
284.1709642615247
 30
0.0
 10
186.7696074185673
 20
284.1014709650058
 30
0.0
 10
186.5327824559332
 20
284.0366608692037
 30
0.0
 10
186.3225875093524
 20
283.9774238281509
 30
0.0
 10
186.1396152090452
 20
283.9245276741734
 30
0.0
 10
185.9843960357537
 20
283.8787148706294
 30
0.0
 10
185.857208318042
 20
283.8404955680272
 30
0.0
 10
185.7581219053585
 20
283.8103398640399
 30
0.0
 10
185.6872902043642
 20
283.7885424495852
 30
0.0
 10
185.6448028355179
 20
283.7754045503398
 30
0.0
 10
185.625956791319
 20
283.769543205382
 30
0.0
 10
185.6212556434
 20
283.7680810922
 30
0.0
 11
201.6310083522
 21
283.7680810922
 31
0.0
 11
201.6169996793854
 21
283.7723433457269
 31
0.0
 11
201.5747955190062
 21
283.7851299121925
 31
0.0
 11
201.5042164174544
 21
283.8063873942596
 31
0.0
 11
201.4054339571296
 21
283.835849970285
 31
0.0
 11
201.2786222761794
 21
283.8731950895944
 31
0.0
 11
201.1236147012056
 21
283.9180857092701
 31
0.0
 11
200.9403412628253
 21
283.9701037255285
 31
0.0
 11
200.7294596177967
 21
284.0285212837587
 31
0.0
 11
200.4916487866963
 21
284.092548984762
 31
0.0
 11
200.2269456206677
 21
284.1614610014857
 31
0.0
 11
199.9356272388232
 21
284.2344329427387
 31
0.0
 11
199.6195740048052
 21
284.3101825877325
 31
0.0
 11
199.2807717916444
 21
284.3873768497581
 31
0.0
 11
198.9200252600502
 21
284.4649370092327
 31
0.0
 11
198.5383197177211
 21
284.5417662995831
 31
0.0
 11
198.1385442737749
 21
284.6164413991312
 31
0.0
 11
197.7236475749326
 21
284.6875615822506
 31
0.0
 11
197.2949126224825
 21
284.7541430614125
 31
0.0
 11
196.8535795672924
 21
284.8152882797152
 31
0.0
 11
196.4023827970574
 21
284.8700276656094
 31
0.0
 11
195.9440352859166
 21
284.9174635531096
 31
0.0
 11
195.4796701174753
 21
284.957057913468
 31
0.0
 11
195.0102344803433
 21
284.9883778918069
 31
0.0
 11
194.5375118733715
 21
285.0110516910877
 31
0.0
 11
194.0633295992677
 21
285.0247742525793
 31
0.0
 11
193.5888538661004
 21
285.0294464133947
 31
0.0
 11
193.1150618192796
 21
285.025042099417
 31
0.0
 11
192.6428354555993
 21
285.0116216953882
 31
0.0
 11
192.1732157076959
 21
284.9893171313923
 31
0.0
 11
191.7079743928679
 21
284.9584600596506
 31
0.0
 11
191.2488125972566
 21
284.9194402634472
 31
0.0
 11
190.796417597485
 21
284.8726803286271
 31
0.0
 11
190.3516423945801
 21
284.8186991336339
 31
0.0
 11
189.9170166970558
 21
284.7583679243444
 31
0.0
 11
189.495091311551
 21
284.6926211596748
 31
0.0
 11
189.0868247291916
 21
284.6222937835978
 31
0.0
 11
188.6932215957943
 21
284.5483034986169
 31
0.0
 11
188.3170634982757
 21
284.4719985572335
 31
0.0
 11
187.9611150156081
 21
284.3947573046228
 31
0.0
 11
187.6262957483889
 21
284.3176479054493
 31
0.0
 11
187.3133727264054
 21
284.2417310773369
 31
0.0
 11
187.0243476734818
 21
284.1683479302523
 31
0.0
 11
186.7611526408294
 21
284.0988029569113
 31
0.0
 11
186.5242063004545
 21
284.0339737898906
 31
0.0
 11
186.3136991588144
 21
283.9746468182827
 31
0.0
 11
186.1304224361613
 21
283.9216703164715
 31
0.0
 11
185.9751428720726
 21
283.875832022484
 31
0.0
 11
185.8479285682198
 21
283.8376156433005
 31
0.0
 11
185.7487408711518
 21
283.8074194463564
 31
0.0
 11
185.6778127462943
 21
283.7856039723516
 31
0.0
 11
185.6353596826772
 21
283.7724655132281
 31
0.0
 11
185.6212556434
 21
283.7680810922
 31
0.0
  0
SPLINE
  5
F5
330
1F
100
AcDbEntity
  8
VERERBUNG
  6
Continuous
 62
     7
100
AcDbSpline
210
0.0
220
0.0
230
1.0
 70
     8
 71
     3
 72
    13
 73
     9
 74
     7
 42
0.0000000001
 43
0.0000000001
 44
0.00000001
 40
0.0
 40
0.0
 40
0.0
 40
0.0
 40
0.9581451161705777
 40
1.916374757543963
 40
2.72966892080726
 40
3.542928077724322
 40
4.281951737045677
 40
5.020980281037097
 40
5.020980281037097
 40
5.020980281037097
 40
5.020980281037097
 10
125.6261319978
 20
340.8687241724
 30
0.0
 10
125.3067378314747
 20
340.8715677101021
 30
0.0
 10
124.6679213226573
 20
340.877255036356
 30
0.0
 10
123.7588572014361
 20
340.9208627549983
 30
0.0
 10
122.8995390942081
 20
340.9844191411812
 30
0.0
 10
122.1149005512941
 20
341.0634161571679
 30
0.0
 10
121.3567690237987
 20
341.1568272176273
 30
0.0
 10
120.8696782097124
 20
341.2309963856376
 30
0.0
 10
120.6261319978
 20
341.2680810922
 30
0.0
 11
125.6261319978
 21
340.8687241724
 31
0.0
 11
124.6681006059562
 21
340.8834861466345
 31
0.0
 11
123.7108888940625
 21
340.9276425076721
 31
0.0
 11
122.8998375637306
 21
340.9880009003372
 31
0.0
 11
122.0906258156397
 21
341.0690367137848
 31
0.0
 11
121.3572595771762
 21
341.160305160241
 31
0.0
 11
120.6261319978
 21
341.2680810922
 31
0.0
  0
SPLINE
  5
F6
330
1F
100
AcDbEntity
  8
BOHRUNGEN
  6
Continuous
 62
     7
100
AcDbSpline
210
0.0
220
0.0
230
1.0
 70
     8
 71
     3
 72
    23
 73
    19
 74
    17
 42
0.0000000001
 43
0.0000000001
 44
0.00000001
 40
0.0
 40
0.0
 40
0.0
 40
0.0
 40
0.2750934986559939
 40
0.5501980023883023
 40
1.323428200881239
 40
2.096712390832218
 40
3.241400241204883
 40
4.38617272290102
 40
5.732683758744009
 40
7.079231620421186
 40
8.424639840903085
 40
9.770015560046215
 40
10.91594419229672
 40
12.06179319545061
 40
12.84146893514805
 40
13.62109460322421
 40
13.90041894315808
 40
14.17973254785195
 40
14.17973254785195
 40
14.17973254785195
 40
14.17973254785195
 10
186.6218651877
 20
283.7680810922
 30
0.0
 10
186.7104201882213
 20
283.7918853194575
 30
0.0
 10
186.8875337318941
 20
283.8394947262574
 30
0.0
 10
187.3148552368988
 20
283.9490807137913
 30
0.0
 10
187.9056003320916
 20
284.0898464855308
 30
0.0
 10
188.783712650177
 20
284.2737841288385
 30
0.0
 10
189.7899515173804
 20
284.448184636332
 30
0.0
 10
190.9923481529933
 20
284.6033520029131
 30
0.0
 10
192.2682004738097
 20
284.7050063619517
 30
0.0
 10
193.6145438440454
 20
284.7402292911718
 30
0.0
 10
194.960437234972
 20
284.7026651968778
 30
0.0
 10
196.2357822676589
 20
284.5996453287795
 30
0.0
 10
197.438555931845
 20
284.444473190123
 30
0.0
 10
198.4478655517445
 20
284.2709221949716
 30
0.0
 10
199.3309943136749
 20
284.088300587706
 30
0.0
 10
199.927749170934
 20
283.9483381271341
 30
0.0
 10
200.3603228550501
 20
283.8393429231861
 30
0.0
 10
200.5403746436238
 20
283.7918347315434
 30
0.0
 10
200.6303988079
 20
283.7680810922
 30
0.0
 11
186.6218651877
 21
283.7680810922
 31
0.0
 11
186.887665132625
 21
283.8389811788055
 31
0.0
 11
187.1541170869752
 21
283.9074344036874
 31
0.0
 11
187.9063534059496
 21
284.0863909913764
 31
0.0
 11
188.6632293371243
 21
284.2448437074675
 31
0.0
 11
189.7911560302892
 21
284.4400145291518
 31
0.0
 11
190.926552838693
 21
284.5862271220264
 31
0.0
 11
192.2688203084232
 21
284.6930447673438
 31
0.0
 11
193.6149118509241
 21
284.7280976273517
 31
0.0
 11
194.959804673757
 21
284.6908608869868
 31
0.0
 11
196.3008337856122
 21
284.582801890061
 31
0.0
 11
197.4373897926108
 21
284.4365388627202
 31
0.0
 11
198.5667291335362
 21
284.2427281533489
 31
0.0
 11
199.330271395226
 21
284.0849388201025
 31
0.0
 11
200.0893660456928
 21
283.9071988584845
 31
0.0
 11
200.3601964284753
 21
283.8388395822936
 31
0.0
 11
200.6303988079
 21
283.7680810922
 31
0.0
  0
SPLINE
  5
F7
330
1F
100
AcDbEntity
  8
VERERBUNG
  6
Continuous
 62
     7
100
AcDbSpline
210
0.0
220
0.0
230
1.0
 70
     8
 71
     3
 72
    13
 73
     9
 74
     7
 42
0.0000000001
 43
0.0000000001
 44
0.00000001
 40
0.0
 40
0.0
 40
0.0
 40
0.0
 40
0.4765182419318452
 40
0.95298217065491
 40
1.193158830022257
 40
1.433310795951699
 40
1.675484054980441
 40
1.917493731650691
 40
1.917493731650691
 40
1.917493731650691
 40
1.917493731650691
 10
92.1135390355
 20
319.0380810922
 30
0.0
 10
92.18535964816722
 20
318.8962829293567
 30
0.0
 10
92.3289926874395
 20
318.6127027657234
 30
0.0
 10
92.46341678138198
 20
318.2370888091023
 30
0.0
 10
92.54501148268538
 20
317.928612349981
 30
0.0
 10
92.59041682804593
 20
317.6919389073323
 30
0.0
 10
92.62029256587257
 20
317.4519924567844
 30
0.0
 10
92.62418595895491
 20
317.2905585125139
 30
0.0
 10
92.6261319978
 20
317.2098688108
 30
0.0
 11
92.1135390355
 21
319.0380810922
 31
0.0
 11
92.31993288610434
 21
318.6085799707503
 31
0.0
 11
92.48136307258241
 21
318.1602963883297
 31
0.0
 11
92.54231929213525
 21
317.9279837390773
 31
0.0
 11
92.58770716588538
 21
317.6921598478868
 31
0.0
 11
92.61627732257881
 21
317.4516777622024
 31
0.0
 11
92.6261319978
 21
317.2098688108
 31
0.0
  0
SPLINE
  5
F8
330
1F
100
AcDbEntity
  8
VERERBUNG
  6
Continuous
 62
     7
100
AcDbSpline
210
0.0
220
0.0
230
1.0
 70
     8
 71
     3
 72
    19
 73
    15
 74
    13
 42
0.0000000001
 43
0.0000000001
 44
0.00000001
 40
0.0
 40
0.0
 40
0.0
 40
0.0
 40
0.0835832282583681
 40
0.1672705448715636
 40
0.2499538624541133
 40
0.3326148850851132
 40
0.4138475639518893
 40
0.4950848398412845
 40
0.5749375740705724
 40
0.6547985888393152
 40
0.8114954797068924
 40
0.9684466433674717
 40
1.123543258655612
 40
1.278502018116253
 40
1.278502018116253
 40
1.278502018116253
 40
1.278502018116253
 10
91.1261319978
 20
319.7243939741
 30
0.0
 10
91.15393063837234
 20
319.7266668548231
 30
0.0
 10
91.20956253788275
 20
319.7312154467466
 30
0.0
 10
91.29299394140945
 20
319.7258493187005
 30
0.0
 10
91.37490301483277
 20
319.711545135284
 30
0.0
 10
91.45393948771967
 20
319.6883553440783
 30
0.0
 10
91.52964049572888
 20
319.6572506370602
 30
0.0
 10
91.60117013354724
 20
319.6194799880169
 30
0.0
 10
91.66871197568429
 20
319.5758447036231
 30
0.0
 10
91.75258141947724
 20
319.5117492168286
 30
0.0
 10
91.84816934950499
 20
319.4213260184731
 30
0.0
 10
91.94854362842051
 20
319.3012796782842
 30
0.0
 10
92.0375879396992
 20
319.1732809705288
 30
0.0
 10
92.08822950893048
 20
319.0831343580769
 30
0.0
 10
92.1135390355
 20
319.0380810922
 30
0.0
 11
91.1261319978
 21
319.7243939741
 31
0.0
 11
91.20957807447496
 21
319.7291802392041
 31
0.0
 11
91.29312376341258
 21
319.7243135337625
 31
0.0
 11
91.37456403756109
 21
319.7100302304655
 31
0.0
 11
91.45390887234042
 21
319.6868517521668
 31
0.0
 11
91.52908527981809
 21
319.6560742299367
 31
0.0
 11
91.60096964341265
 21
319.6182306933085
 31
0.0
 11
91.66810087333205
 21
319.5749888486045
 31
0.0
 11
91.7316176273816
 21
319.5265801341524
 31
0.0
 11
91.84585474685673
 21
319.4193243830638
 31
0.0
 11
91.94708846758223
 21
319.2993852253109
 31
0.0
 11
92.0354931385893
 21
319.1719506373138
 31
0.0
 11
92.1135390355
 21
319.0380810922
 31
0.0
  0
SPLINE
  5
F9
330
1F
100
AcDbEntity
  8
VERERBUNG
  6
Continuous
 62
     7
100
AcDbSpline
210
0.0
220
0.0
230
1.0
 70
     8
 71
     3
 72
    13
 73
     9
 74
     7
 42
0.0000000001
 43
0.0000000001
 44
0.00000001
 40
0.0
 40
0.0
 40
0.0
 40
0.0
 40
0.2420096760820219
 40
0.4841829345389356
 40
0.7243349034436453
 40
0.9645115657846344
 40
1.440975492113231
 40
1.917493731669688
 40
1.917493731669688
 40
1.917493731669688
 40
1.917493731669688
 10
92.6261319978
 20
302.3262933736
 30
0.0
 10
92.62418595896162
 20
302.2456036720823
 30
0.0
 10
92.6202925658926
 20
302.0841697281988
 30
0.0
 10
92.59041682805781
 20
301.8442232770443
 30
0.0
 10
92.54501148237519
 20
301.6075498326267
 30
0.0
 10
92.46341678054766
 20
301.2990733724122
 30
0.0
 10
92.32899268648006
 20
300.9234594164876
 30
0.0
 10
92.18535964784834
 20
300.6398792543154
 30
0.0
 10
92.1135390355
 20
300.4980810922
 30
0.0
 11
92.6261319978
 21
302.3262933736
 31
0.0
 11
92.61627732261898
 21
302.0844844227847
 31
0.0
 11
92.5877071660607
 21
301.8440023376601
 31
0.0
 11
92.5423192917612
 21
301.6081784435455
 31
0.0
 11
92.48136307128858
 21
301.3758657914601
 31
0.0
 11
92.3199328852386
 21
300.9275822114303
 31
0.0
 11
92.1135390355
 21
300.4980810922
 31
0.0
  0
SPLINE
  5
FA
330
1F
100
AcDbEntity
  8
VERERBUNG
  6
Continuous
 62
     7
100
AcDbSpline
210
0.0
220
0.0
230
1.0
 70
     8
 71
     3
 72
    19
 73
    15
 74
    13
 42
0.0000000001
 43
0.0000000001
 44
0.00000001
 40
0.0
 40
0.0
 40
0.0
 40
0.0
 40
0.1549595547211572
 40
0.3100569266466771
 40
0.4670093143138205
 40
0.6237075593634456
 40
0.7035716820529735
 40
0.7834274371938867
 40
0.864668225162712
 40
0.9459045180062131
 40
1.028561641629109
 40
1.111240956036472
 40
1.194923428848752
 40
1.278501866386586
 40
1.278501866386586
 40
1.278501866386586
 40
1.278501866386586
 10
92.1135390355
 20
300.4980810922
 30
0.0
 10
92.0882293856724
 20
300.4530275913918
 30
0.0
 10
92.03758757623923
 20
300.3628805203036
 30
0.0
 10
91.94854265615055
 20
300.2348810957442
 30
0.0
 10
91.84816725671155
 20
300.1148342271337
 30
0.0
 10
91.75257780971967
 20
300.0244099139143
 30
0.0
 10
91.66870651881769
 20
299.9603127266976
 30
0.0
 10
91.6011616538938
 20
299.9166761233685
 30
0.0
 10
91.52962799423968
 20
299.878905753034
 30
0.0
 10
91.45392502339392
 20
299.8478030193373
 30
0.0
 10
91.37488958353643
 20
299.8246149895477
 30
0.0
 10
91.29298459650566
 20
299.8103121680567
 30
0.0
 10
91.20955771851888
 20
299.80494697176
 30
0.0
 10
91.15392903780531
 20
299.8094954071531
 30
0.0
 10
91.1261319978
 20
299.8117682103
 30
0.0
 11
92.1135390355
 21
300.4980810922
 31
0.0
 11
92.03549274117732
 21
300.3642108582349
 31
0.0
 11
91.94708752486343
 21
300.2367757276519
 31
0.0
 11
91.84585270604913
 21
300.1168358950105
 31
0.0
 11
91.7316145012944
 21
300.0095793214308
 31
0.0
 11
91.66809529908265
 21
299.9611686919849
 31
0.0
 11
91.60096116754086
 21
299.9179257733593
 31
0.0
 11
91.52907279675979
 21
299.8800823092441
 31
0.0
 11
91.45389215362542
 21
299.8493055944608
 31
0.0
 11
91.37455062867451
 21
299.8261296909384
 31
0.0
 11
91.29311416430217
 21
299.8118478387685
 31
0.0
 11
91.2095732779666
 21
299.8069819815732
 31
0.0
 11
91.1261319978
 21
299.8117682103
 31
0.0
  0
SPLINE
  5
FB
330
1F
100
AcDbEntity
  8
VERERBUNG
  6
Continuous
 62
     7
100
AcDbSpline
210
0.0
220
0.0
230
1.0
 70
     8
 71
     3
 72
    15
 73
    11
 74
     9
 42
0.0000000001
 43
0.0000000001
 44
0.00000001
 40
0.0
 40
0.0
 40
0.0
 40
0.0
 40
0.0705917491929456
 40
0.1412091312201602
 40
0.211846180875315
 40
0.2824713749719758
 40
0.3531025105394661
 40
0.4237604659240908
 40
0.4944892663972236
 40
0.5650782701455048
 40
0.5650782701455048
 40
0.5650782701455048
 40
0.5650782701455048
 10
87.2978068082
 20
319.0380810922
 30
0.0
 10
87.31316877050034
 20
319.0559141844458
 30
0.0
 10
87.34389827324065
 20
319.0915868443782
 30
0.0
 10
87.39399847556035
 20
319.1414516747976
 30
0.0
 10
87.44729579035939
 20
319.1878828379114
 30
0.0
 10
87.50425129665406
 20
319.2297992809142
 30
0.0
 10
87.56482793072328
 20
319.2663835537729
 30
0.0
 10
87.62901362898893
 20
319.2962116783606
 30
0.0
 10
87.69624766969176
 20
319.3188754934874
 30
0.0
 10
87.74282387052264
 20
319.3263669837809
 30
0.0
 10
87.7660889335
 20
319.3301090235
 30
0.0
 11
87.2978068082
 21
319.0380810922
 31
0.0
 11
87.34455883085438
 21
319.0909719556061
 31
0.0
 11
87.39452521519279
 21
319.1408736096922
 31
0.0
 11
87.44790799675232
 21
319.1871323539137
 31
0.0
 11
87.50485214897603
 21
319.228908921134
 31
0.0
 11
87.56541637535183
 21
319.2652507949857
 31
0.0
 11
87.62950210423718
 21
319.2950092561753
 31
0.0
 11
87.69673120448982
 21
319.3169822235577
 31
0.0
 11
87.7660889335
 21
319.3301090235
 31
0.0
  0
SPLINE
  5
FC
330
1F
100
AcDbEntity
  8
VERERBUNG
  6
Continuous
 62
     7
100
AcDbSpline
210
0.0
220
0.0
230
1.0
 70
     8
 71
     3
 72
     9
 73
     5
 74
     3
 42
0.0000000001
 43
0.0000000001
 44
0.00000001
 40
0.0
 40
0.0
 40
0.0
 40
0.0
 40
0.0774000575072269
 40
0.154796363218497
 40
0.154796363218497
 40
0.154796363218497
 40
0.154796363218497
 10
87.2028336748
 20
318.9158707724
 30
0.0
 10
87.21815363912219
 20
318.9366354251067
 30
0.0
 10
87.24879282516528
 20
318.9781637239996
 30
0.0
 10
87.28146907784628
 20
319.0181089588505
 30
0.0
 10
87.2978068082
 20
319.0380810922
 30
0.0
 11
87.2028336748
 21
318.9158707724
 31
0.0
 11
87.2493028591125
 21
318.977768945325
 31
0.0
 11
87.2978068082
 21
319.0380810922
 31
0.0
  0
SPLINE
  5
FD
330
1F
100
AcDbEntity
  8
VERERBUNG
  6
Continuous
 62
     7
100
AcDbSpline
210
0.0
220
0.0
230
1.0
 70
     8
 71
     3
 72
    43
 73
    39
 74
    37
 42
0.0000000001
 43
0.0000000001
 44
0.00000001
 40
0.0
 40
0.0
 40
0.0
 40
0.0
 40
0.4175881290592446
 40
0.8356316531850994
 40
1.253282832062908
 40
1.670787328088686
 40
2.088079154553632
 40
2.505458237154832
 40
2.922766757528006
 40
3.339867556074196
 40
3.548612845985984
 40
3.757291312425405
 40
3.966036487540851
 40
4.17484841072405
 40
4.592416990903569
 40
5.010187344199003
 40
5.428059866903623
 40
5.845880990843819
 40
6.263484877191234
 40
6.681103578798996
 40
7.09798961975295
 40
7.514858051249615
 40
7.930683045133161
 40
8.346557961730474
 40
8.761608457015088
 40
9.17645823456544
 40
9.3838468631228
 40
9.591169424620631
 40
9.798492920813574
 40
10.00588294525238
 40
10.42072923639338
 40
10.83577763649857
 40
11.25173036425082
 40
11.66760664538709
 40
12.08452417586287
 40
12.50157511616329
 40
12.91952009633282
 40
13.33702821006888
 40
13.33702821006888
 40
13.33702821006888
 40
13.33702821006888
 10
105.3767582875
 20
309.7680810922
 30
0.0
 10
105.3806791669369
 20
309.9073363707838
 30
0.0
 10
105.3885252016725
 20
310.1859987909054
 30
0.0
 10
105.4526768017898
 20
310.5998508496991
 30
0.0
 10
105.554087258359
 20
311.0056181617263
 30
0.0
 10
105.6955345513472
 20
311.3991913950028
 30
0.0
 10
105.8749145917613
 20
311.7767995376316
 30
0.0
 10
106.0905818866523
 20
312.1348848772687
 30
0.0
 10
106.3405019944916
 20
312.4698445628232
 30
0.0
 10
106.5751720194452
 20
312.727262050908
 30
0.0
 10
106.7773404047612
 20
312.9184716316323
 30
0.0
 10
106.9359239608674
 20
313.0543129665235
 30
0.0
 10
107.1010054464142
 20
313.182215099442
 30
0.0
 10
107.3292559880882
 20
313.3417344685509
 30
0.0
 10
107.6290151161152
 20
313.5198015921276
 30
0.0
 10
108.0078678493734
 20
313.6973432694817
 30
0.0
 10
108.4024103628801
 20
313.8368949041309
 30
0.0
 10
108.808623264957
 20
313.9372740334572
 30
0.0
 10
109.2226193900452
 20
313.9974439664601
 30
0.0
 10
109.6401949341909
 20
314.0170275455184
 30
0.0
 10
110.0574382517527
 20
313.9957190116268
 30
0.0
 10
110.4700391272796
 20
313.9340057583025
 30
0.0
 10
110.8743009905149
 20
313.8323362688665
 30
0.0
 10
111.266166304861
 20
313.6919489048755
 30
0.0
 10
111.6420716525316
 20
313.5139817319418
 30
0.0
 10
111.9391879627899
 20
313.3359599138307
 30
0.0
 10
112.1653308813491
 20
313.1766677850406
 30
0.0
 10
112.3288465233744
 20
313.0490346881397
 30
0.0
 10
112.4859108732969
 20
312.9135409098207
 30
0.0
 10
112.6862408392679
 20
312.7228000902543
 30
0.0
 10
112.918801730336
 20
312.4661198364285
 30
0.0
 10
113.1666210724205
 20
312.1320749282229
 30
0.0
 10
113.3805208875238
 20
311.7749187792472
 30
0.0
 10
113.5586212595864
 20
311.3979796932815
 30
0.0
 10
113.699175670144
 20
311.0050174171934
 30
0.0
 10
113.8000251006529
 20
310.5995526987084
 30
0.0
 10
113.8637097875619
 20
310.1859045714009
 30
0.0
 10
113.8715751055373
 20
309.9073070248241
 30
0.0
 10
113.8755057081
 20
309.7680810922
 30
0.0
 11
105.3767582875
 21
309.7680810922
 31
0.0
 11
105.3972432405173
 21
310.185166469828
 31
0.0
 11
105.4589149411481
 21
310.5986359238447
 31
0.0
 11
105.5607859466362
 21
311.003672719036
 31
0.0
 11
105.7018891364019
 21
311.3966102382929
 31
0.0
 11
105.880953511513
 21
311.7735298822496
 31
0.0
 11
106.0963104040318
 21
312.1310584929057
 31
0.0
 11
106.3458261209515
 21
312.4655555903312
 31
0.0
 11
106.6268514311262
 21
312.7737728046284
 31
0.0
 11
106.7785053200905
 21
312.9172151066956
 31
0.0
 11
106.9369867240485
 21
313.0529735206338
 31
0.0
 11
107.1020004745807
 21
313.1808211262793
 31
0.0
 11
107.2731587433241
 21
313.3004341117961
 31
0.0
 11
107.6321344109022
 21
313.5137413766512
 31
0.0
 11
108.0104385665119
 21
313.6909927065221
 31
0.0
 11
108.4043809580195
 21
313.8303728966668
 31
0.0
 11
108.8100053700721
 21
313.930589302298
 31
0.0
 11
109.2232629081273
 21
313.9906826724236
 31
0.0
 11
109.640424752708
 21
314.0102115064532
 31
0.0
 11
110.0567694656373
 21
313.9889735414353
 31
0.0
 11
110.4690456193601
 21
313.9272672836489
 31
0.0
 11
110.8723158114946
 21
313.825859307266
 31
0.0
 11
111.2638100546607
 21
313.6855589016265
 31
0.0
 11
111.6389545118623
 21
313.5079820172442
 31
0.0
 11
111.9947870786171
 21
313.2947133548246
 31
0.0
 11
112.1643394410089
 21
313.1752895730125
 31
0.0
 11
112.3277711218206
 21
313.0477249610974
 31
0.0
 11
112.484752848183
 21
312.9123005553873
 31
0.0
 11
112.6349473496551
 21
312.7692892482669
 31
0.0
 11
112.9135129355669
 21
312.4618829054256
 31
0.0
 11
113.1607678672652
 21
312.128520980214
 31
0.0
 11
113.3745177166972
 21
311.7716909456145
 31
0.0
 11
113.5522079712829
 21
311.3956866176646
 31
0.0
 11
113.6925116330452
 21
311.0030861722827
 31
0.0
 11
113.7937643513234
 21
310.5985130962547
 31
0.0
 11
113.855069437758
 21
310.1850887466741
 31
0.0
 11
113.8755057081
 21
309.7680810922
 31
0.0
  0
SPLINE
  5
FE
330
1F
100
AcDbEntity
  8
VERERBUNG
  6
Continuous
 62
     7
100
AcDbSpline
210
0.0
220
0.0
230
1.0
 70
     8
 71
     3
 72
    43
 73
    39
 74
    37
 42
0.0000000001
 43
0.0000000001
 44
0.00000001
 40
0.0
 40
0.0
 40
0.0
 40
0.0
 40
0.4175035109343048
 40
0.8354555648349145
 40
1.252511183710843
 40
1.66942266448062
 40
2.085295425771991
 40
2.501251326585339
 40
2.916298094066757
 40
3.331138757709342
 40
3.538526232951676
 40
3.745847790924209
 40
3.953170095093433
 40
4.160558348199286
 40
4.575407544429378
 40
4.990456744654828
 40
5.406332394437283
 40
5.822158816067441
 40
6.239027280504641
 40
6.655913113550469
 40
7.073532178542483
 40
7.491136194359138
 40
7.908956414475846
 40
8.326828662558803
 40
8.744600199966124
 40
9.162169349370446
 40
9.370981458415201
 40
9.579726706190684
 40
9.788406630740688
 40
9.99715392647376
 40
10.41425933410237
 40
10.83156890848267
 40
11.24894510859075
 40
11.66624011603647
 40
12.08375102629415
 40
12.50139861935821
 40
12.91943544779735
 40
13.33702799558293
 40
13.33702799558293
 40
13.33702799558293
 40
13.33702799558293
 10
113.8755057081
 20
309.7680810922
 30
0.0
 10
113.8716011285757
 20
309.6288548853
 30
0.0
 10
113.8637877746601
 20
309.3502528944686
 30
0.0
 10
113.7999981802536
 20
308.9366156113467
 30
0.0
 10
113.6991615154567
 20
308.5311500951908
 30
0.0
 10
113.5586356386364
 20
308.1381778401658
 30
0.0
 10
113.3805235901784
 20
307.7612455219958
 30
0.0
 10
113.1666100594917
 20
307.4040993355899
 30
0.0
 10
112.9188079164076
 20
307.0700444743015
 30
0.0
 10
112.6862598459926
 20
306.8133559499981
 30
0.0
 10
112.4859273349939
 20
306.6226224466454
 30
0.0
 10
112.3288586682064
 20
306.4871361164638
 30
0.0
 10
112.165340292177
 20
306.3595080077457
 30
0.0
 10
111.9391960276142
 20
306.2002186361941
 30
0.0
 10
111.6420839499795
 20
306.022191899702
 30
0.0
 10
111.2661834240251
 20
305.8442149659328
 30
0.0
 10
110.8743178157001
 20
305.7038267003252
 30
0.0
 10
110.4700546478449
 20
305.6021595689542
 30
0.0
 10
110.0574535443147
 20
305.54044569376
 30
0.0
 10
109.6402102978943
 20
305.5191349945685
 30
0.0
 10
109.2226345355758
 20
305.5387160826538
 30
0.0
 10
108.8086382816733
 20
305.5988848784087
 30
0.0
 10
108.4024262041746
 20
305.6992661101865
 30
0.0
 10
108.0078837749071
 20
305.838817223088
 30
0.0
 10
107.6290267366139
 20
306.0163504437262
 30
0.0
 10
107.3292638055204
 20
306.1944130058186
 30
0.0
 10
107.1010142080474
 20
306.3539343312312
 30
0.0
 10
106.9359350435539
 20
306.4818404813781
 30
0.0
 10
106.7773553708535
 20
306.6176881874922
 30
0.0
 10
106.5751894616724
 20
306.8089040866348
 30
0.0
 10
106.3405085576846
 20
307.066314172822
 30
0.0
 10
106.0905735959559
 20
307.4012648955221
 30
0.0
 10
105.8749180412636
 20
307.7593586770022
 30
0.0
 10
105.6955475794702
 20
308.1369728857086
 30
0.0
 10
105.5540749131897
 20
308.5305377796241
 30
0.0
 10
105.4526545940486
 20
308.9363054080193
 30
0.0
 10
105.3886026243136
 20
309.3501679965614
 30
0.0
 10
105.3807050001229
 20
309.6288261118831
 30
0.0
 10
105.3767582875
 20
309.7680810922
 30
0.0
 11
113.8755057081
 21
309.7680810922
 31
0.0
 11
113.8551173255284
 21
309.3510757019488
 31
0.0
 11
113.7937567828018
 21
308.9376524283465
 31
0.0
 11
113.6924989219069
 21
308.5330758165126
 31
0.0
 11
113.5522159912678
 21
308.1404743873647
 31
0.0
 11
113.3745212263829
 21
307.764476084022
 31
0.0
 11
113.1607610286955
 21
307.4076485496219
 31
0.0
 11
112.9135177204452
 21
307.0742800362283
 31
0.0
 11
112.6349647427346
 21
306.7668698626492
 31
0.0
 11
112.484769176811
 21
306.6238633702641
 31
0.0
 11
112.3277840563019
 21
306.4884458664512
 31
0.0
 11
112.1643491807502
 21
306.3608857658733
 31
0.0
 11
111.9947958874964
 21
306.2414639576762
 31
0.0
 11
111.638966633873
 21
306.0281908982462
 31
0.0
 11
111.2638270487208
 21
305.8506067484478
 31
0.0
 11
110.8723327578206
 21
305.7103043027298
 31
0.0
 11
110.4690608116926
 21
305.6088974469855
 31
0.0
 11
110.0567846697685
 21
305.5471908878334
 31
0.0
 11
109.6404402640578
 21
305.5259509813432
 31
0.0
 11
109.2232779528352
 21
305.5454776180284
 31
0.0
 11
108.8100201722615
 21
305.6055702200812
 31
0.0
 11
108.4043969310956
 21
305.7057875966406
 31
0.0
 11
108.0104542873248
 21
305.8451662504465
 31
0.0
 11
107.6321458498572
 21
306.0224112323458
 31
0.0
 11
107.2731670630858
 21
306.2357143621457
 31
0.0
 11
107.1020095226787
 21
306.3553287143176
 31
0.0
 11
106.9369985034177
 21
306.4831799637886
 31
0.0
 11
106.7785201887001
 21
306.6189442251921
 31
0.0
 11
106.6268674271905
 21
306.7623906381915
 31
0.0
 11
106.3458314149759
 21
307.0706043317737
 31
0.0
 11
106.0963057480401
 21
307.4050953218014
 31
0.0
 11
105.8809576813524
 21
307.7626258835587
 31
0.0
 11
105.7018967809391
 21
308.1395506999111
 31
0.0
 11
105.5607750780885
 21
308.5324883860253
 31
0.0
 11
105.4589106924096
 21
308.9375231486352
 31
0.0
 11
105.3972915197894
 21
309.3509936645091
 31
0.0
 11
105.3767582875
 21
309.7680810922
 31
0.0
  0
SPLINE
  5
FF
330
1F
100
AcDbEntity
  8
0
  6
Continuous
 62
     7
100
AcDbSpline
210
0.0
220
0.0
230
1.0
 70
     8
 71
     3
 72
    17
 73
    13
 74
    11
 42
0.0000000001
 43
0.0000000001
 44
0.00000001
 40
0.0
 40
0.0
 40
0.0
 40
0.0
 40
0.0680277950559317
 40
0.1360632351357414
 40
0.2040812640857338
 40
0.27216966972989
 40
0.3403702855761007
 40
0.4083585485774933
 40
0.4424627523990372
 40
0.476577302101986
 40
0.5107086426706864
 40
0.5447868110069168
 40
0.5447868110069168
 40
0.5447868110069168
 40
0.5447868110069168
 10
135.3352451073
 20
317.7855810922
 30
0.0
 10
135.3476537298173
 20
317.7665957253378
 30
0.0
 10
135.3724723693439
 20
317.728622858021
 30
0.0
 10
135.4134139141245
 20
317.6742303267716
 30
0.0
 10
135.4576324507688
 20
317.6224354042849
 30
0.0
 10
135.506212549783
 20
317.5745610008232
 30
0.0
 10
135.5595453509842
 20
317.531980535724
 30
0.0
 10
135.6087004352077
 20
317.5030403035282
 30
0.0
 10
135.6506656729669
 20
317.4855211566886
 30
0.0
 10
135.6833900746096
 20
317.4757031856653
 30
0.0
 10
135.717017539084
 20
317.4693221573722
 30
0.0
 10
135.7397664228043
 20
317.468494565543
 30
0.0
 10
135.7511319978
 20
317.4680810922
 30
0.0
 11
135.3352451073
 21
317.7855810922
 31
0.0
 11
135.3730902905102
 21
317.7290521349483
 31
0.0
 11
135.4139615206483
 21
317.6746612933125
 31
0.0
 11
135.4583369057262
 21
317.6231125061161
 31
0.0
 11
135.5069784651472
 21
317.5754676776427
 31
0.0
 11
135.5605423860704
 21
317.533251207194
 31
0.0
 11
135.61936165261
 21
317.4991528525463
 31
0.0
 11
135.6508607903191
 21
317.4860799400215
 31
0.0
 11
135.6835365956273
 21
317.4762771726112
 31
0.0
 11
135.7171183232097
 21
317.4701766823362
 31
0.0
 11
135.7511319978
 21
317.4680810922
 31
0.0
  0
SPLINE
  5
100
330
1F
100
AcDbEntity
  8
VERERBUNG
  6
Continuous
 62
     7
100
AcDbSpline
210
0.0
220
0.0
230
1.0
 70
     8
 71
     3
 72
    23
 73
    19
 74
    17
 42
0.0000000001
 43
0.0000000001
 44
0.00000001
 40
0.0
 40
0.0
 40
0.0
 40
0.0
 40
0.0621269685143955
 40
0.1242824031427783
 40
0.181313530313602
 40
0.2383411404021471
 40
0.2903938962963992
 40
0.3423956884751905
 40
0.3914747075660634
 40
0.4404962288177899
 40
0.4905855735308763
 40
0.5407628276681543
 40
0.5956736075029178
 40
0.6506193813491937
 40
0.7116314426420524
 40
0.7726461254003341
 40
0.8391602987536961
 40
0.9056490032902574
 40
0.9056490032902574
 40
0.9056490032902574
 40
0.9056490032902574
 10
87.2028336748
 20
300.620291412
 30
0.0
 10
87.18402677805811
 20
300.6116021588507
 30
0.0
 10
87.14640436739438
 20
300.5942196712011
 30
0.0
 10
87.08935844282229
 20
300.57397829112
 30
0.0
 10
87.0324920860148
 20
300.5589707247542
 30
0.0
 10
86.97760124843296
 20
300.550713499896
 30
0.0
 10
86.92376879477001
 20
300.5494347891713
 30
0.0
 10
86.87288696069376
 20
300.5559398150313
 30
0.0
 10
86.82492937598857
 20
300.5711015485792
 30
0.0
 10
86.78104578146824
 20
300.5944634609772
 30
0.0
 10
86.74254348753345
 20
300.6265008486486
 30
0.0
 10
86.70915587617066
 20
300.6663221113961
 30
0.0
 10
86.6820647670087
 20
300.7125471808487
 30
0.0
 10
86.66043508992406
 20
300.7653862066998
 30
0.0
 10
86.64446077714129
 20
300.8223010367916
 30
0.0
 10
86.63356494969987
 20
300.8842645079308
 30
0.0
 10
86.62717789032331
 20
300.9487024217096
 30
0.0
 10
86.62648058413188
 20
300.9930456180068
 30
0.0
 10
86.6261319978
 20
301.0152129705
 30
0.0
 11
87.2028336748
 21
300.620291412
 31
0.0
 11
87.14604314236834
 21
300.5951002301516
 31
0.0
 11
87.08748411300866
 21
300.5742642484302
 31
0.0
 11
87.03227040036623
 21
300.5599815525147
 31
0.0
 11
86.97584562175966
 21
300.551711566323
 31
0.0
 11
86.92380179958853
 21
300.550747216798
 31
0.0
 11
86.8722574851474
 21
300.5576298063252
 31
0.0
 11
86.82548479133348
 21
300.5724980687762
 31
0.0
 11
86.78228882361483
 21
300.5956760306944
 31
0.0
 11
86.74363583649753
 21
300.6275333538823
 31
0.0
 11
86.71127340669182
 21
300.6658795397399
 31
0.0
 11
86.68324258200371
 21
300.7130967676272
 31
0.0
 11
86.66214867365656
 21
300.7638322098172
 31
0.0
 11
86.64545164886356
 21
300.822515094769
 31
0.0
 11
86.63460877289114
 21
300.8825586085964
 31
0.0
 11
86.62809769173295
 21
300.9487533295266
 31
0.0
 11
86.6261319978
 21
301.0152129705
 31
0.0
  0
SPLINE
  5
101
330
1F
100
AcDbEntity
  8
VERERBUNG
  6
Continuous
 62
     7
100
AcDbSpline
210
0.0
220
0.0
230
1.0
 70
     8
 71
     3
 72
     9
 73
     5
 74
     3
 42
0.0000000001
 43
0.0000000001
 44
0.00000001
 40
0.0
 40
0.0
 40
0.0
 40
0.0
 40
0.0773963057405144
 40
0.15479636321773
 40
0.15479636321773
 40
0.15479636321773
 40
0.15479636321773
 10
87.2978068082
 20
300.4980810922
 30
0.0
 10
87.28146907784918
 20
300.5180532255642
 30
0.0
 10
87.24879282518648
 20
300.5579984604293
 30
0.0
 10
87.21815363912535
 20
300.5995267593082
 30
0.0
 10
87.2028336748
 20
300.620291412
 30
0.0
 11
87.2978068082
 21
300.4980810922
 31
0.0
 11
87.24930285911249
 21
300.5583932391125
 31
0.0
 11
87.2028336748
 21
300.620291412
 31
0.0
  0
SPLINE
  5
102
330
1F
100
AcDbEntity
  8
0
  6
Continuous
 62
     7
100
AcDbSpline
210
0.0
220
0.0
230
1.0
 70
     8
 71
     3
 72
    17
 73
    13
 74
    11
 42
0.0000000001
 43
0.0000000001
 44
0.00000001
 40
0.0
 40
0.0
 40
0.0
 40
0.0
 40
0.0340790970019581
 40
0.0682097420878327
 40
0.1023154065977225
 40
0.1364128755343143
 40
0.2043992839270837
 40
0.272593567962195
 40
0.3406803506550227
 40
0.4086986202466515
 40
0.4767464406875237
 40
0.5447862542549653
 40
0.5447862542549653
 40
0.5447862542549653
 40
0.5447862542549653
 10
135.7511319978
 20
302.0680810922
 30
0.0
 10
135.7397661074028
 20
302.067669824519
 30
0.0
 10
135.7170171345487
 20
302.066846667073
 30
0.0
 10
135.6833897707687
 20
302.0604787829568
 30
0.0
 10
135.6506732962837
 20
302.050650753515
 30
0.0
 10
135.6087223301049
 20
302.0331135193071
 30
0.0
 10
135.5595724902621
 20
302.0041776709953
 30
0.0
 10
135.5062312552296
 20
301.9616127721746
 30
0.0
 10
135.4576473239086
 20
301.9137454931341
 30
0.0
 10
135.4134244197971
 20
301.8619493816709
 30
0.0
 10
135.372478427384
 20
301.8075498635907
 30
0.0
 10
135.3476557271706
 20
301.7695699377993
 30
0.0
 10
135.3352451073
 20
301.7505810922
 30
0.0
 11
135.7511319978
 21
302.0680810922
 31
0.0
 11
135.7171169276662
 21
302.0659930653184
 31
0.0
 11
135.6835345246335
 21
302.0599001891069
 31
0.0
 11
135.6508697046919
 21
302.050091728991
 31
0.0
 11
135.6193820901277
 21
302.0370086285579
 31
0.0
 11
135.5605662232984
 21
302.002908107517
 31
0.0
 11
135.506999183227
 21
301.9607058256706
 31
0.0
 11
135.4583528065483
 21
301.9130682353296
 31
0.0
 11
135.4139750227245
 21
301.8615211956364
 31
0.0
 11
135.3730964052142
 21
301.8071204190133
 31
0.0
 11
135.3352451073
 21
301.7505810922
 31
0.0
  0
SPLINE
  5
103
330
1F
100
AcDbEntity
  8
VERERBUNG
  6
Continuous
 62
     7
100
AcDbSpline
210
0.0
220
0.0
230
1.0
 70
     8
 71
     3
 72
    15
 73
    11
 74
     9
 42
0.0000000001
 43
0.0000000001
 44
0.00000001
 40
0.0
 40
0.0
 40
0.0
 40
0.0
 40
0.0705890228551218
 40
0.1413178421918901
 40
0.2119756690929239
 40
0.2826066759468918
 40
0.3532320943124602
 40
0.4238693693053688
 40
0.4944866365050955
 40
0.5650782701470718
 40
0.5650782701470718
 40
0.5650782701470718
 40
0.5650782701470718
 10
87.7660889335
 20
300.2060531609
 30
0.0
 10
87.74282386418015
 20
300.2097952012856
 30
0.0
 10
87.69624765074437
 20
300.2172866928987
 30
0.0
 10
87.62901363832705
 20
300.2399504977355
 30
0.0
 10
87.56482801110577
 20
300.2697785855945
 30
0.0
 10
87.50425138071836
 20
300.3063628427867
 30
0.0
 10
87.4472957879842
 20
300.3482793503118
 30
0.0
 10
87.393998398864
 20
300.3947105982708
 30
0.0
 10
87.34389819991819
 20
300.4445754290697
 30
0.0
 10
87.31316874600694
 20
300.4802480296976
 30
0.0
 10
87.2978068082
 20
300.4980810922
 30
0.0
 11
87.7660889335
 21
300.2060531609
 31
0.0
 11
87.6967311855338
 21
300.2191799634314
 31
0.0
 11
87.62950206739427
 21
300.2411529368068
 31
0.0
 11
87.56541645381004
 21
300.2709113412316
 31
0.0
 11
87.50485233226222
 21
300.3072531396233
 31
0.0
 11
87.44790799827317
 21
300.3490298382226
 31
0.0
 11
87.39452505462151
 21
300.3952887394796
 31
0.0
 11
87.3445587555906
 21
300.4451903164879
 31
0.0
 11
87.2978068082
 21
300.4980810922
 31
0.0
  0
SPLINE
  5
104
330
1F
100
AcDbEntity
  8
0
  6
Continuous
 62
     7
100
AcDbSpline
210
0.0
220
0.0
230
1.0
 70
     8
 71
     3
 72
    17
 73
    13
 74
    11
 42
0.0000000001
 43
0.0000000001
 44
0.00000001
 40
0.0
 40
0.0
 40
0.0
 40
0.0
 40
0.0340781916100192
 40
0.0682095735148984
 40
0.1023243844360024
 40
0.1364288245254608
 40
0.2044171801020339
 40
0.2726179463235104
 40
0.3407061059707734
 40
0.4087238601706
 40
0.476759162637102
 40
0.5447868280329969
 40
0.5447868280329969
 40
0.5447868280329969
 40
0.5447868280329969
 10
137.5011319978
 20
317.4680810922
 30
0.0
 10
137.5124975804903
 20
317.4684945892504
 30
0.0
 10
137.5352464856238
 20
317.46932222875
 30
0.0
 10
137.5688740284594
 20
317.4757034071584
 30
0.0
 10
137.6015986324878
 20
317.4855213035115
 30
0.0
 10
137.6435641386418
 20
317.5030403326225
 30
0.0
 10
137.6927193229893
 20
317.5319807534808
 30
0.0
 10
137.7460519315649
 20
317.5745614504535
 30
0.0
 10
137.7946318842859
 20
317.6224358164334
 30
0.0
 10
137.838850292324
 20
317.674230560354
 30
0.0
 10
137.8797917088306
 20
317.7286229624292
 30
0.0
 10
137.9046102928238
 20
317.7665957594007
 30
0.0
 10
137.9170188883
 20
317.7855810922
 30
0.0
 11
137.5011319978
 21
317.4680810922
 31
0.0
 11
137.5351456906947
 21
317.4701767637098
 31
0.0
 11
137.5687274452936
 21
317.4762773365348
 31
0.0
 11
137.6014035273521
 21
317.4860800905095
 31
0.0
 11
137.6329029318131
 21
317.4991529766643
 31
0.0
 11
137.6917222461288
 21
317.5332514334833
 31
0.0
 11
137.7452861378379
 21
317.5754681839288
 31
0.0
 11
137.7939274506405
 21
317.6231129126298
 31
0.0
 11
137.8383026532523
 21
317.6746614943712
 31
0.0
 11
137.8791737889183
 21
317.7290522348615
 31
0.0
 11
137.9170188883
 21
317.7855810922
 31
0.0
  0
SPLINE
  5
105
330
1F
100
AcDbEntity
  8
VERERBUNG
  6
Continuous
 62
     7
100
AcDbSpline
210
0.0
220
0.0
230
1.0
 70
     8
 71
     3
 72
    23
 73
    19
 74
    17
 42
0.0000000001
 43
0.0000000001
 44
0.00000001
 40
0.0
 40
0.0
 40
0.0
 40
0.0
 40
0.0664886891767443
 40
0.1330028506632898
 40
0.194017541396902
 40
0.2550295991523248
 40
0.3099753629843897
 40
0.3648861556108983
 40
0.4150633581506274
 40
0.4651526182241471
 40
0.5141740379689277
 40
0.5632529905950365
 40
0.6152549116626159
 40
0.6673077698865096
 40
0.7243355356832183
 40
0.7813668340759425
 40
0.8435221576453689
 40
0.9056490099052462
 40
0.9056490099052462
 40
0.9056490099052462
 40
0.9056490099052462
 10
86.6261319978
 20
318.5209492139
 30
0.0
 10
86.6264805851537
 20
318.5431165612735
 30
0.0
 10
86.62717789340752
 20
318.5874597484955
 30
0.0
 10
86.6335649525197
 20
318.6518976553745
 30
0.0
 10
86.644460755804
 20
318.7138611278172
 30
0.0
 10
86.66043506339904
 20
318.7707759594413
 30
0.0
 10
86.68206479042394
 20
318.8236149661786
 30
0.0
 10
86.70915589958608
 20
318.8698400094965
 30
0.0
 10
86.74254338210142
 20
318.9096613186592
 30
0.0
 10
86.78104555575436
 20
318.9416987412621
 30
0.0
 10
86.82492912343676
 20
318.9650605424334
 30
0.0
 10
86.87288671233006
 20
318.9802221905178
 30
0.0
 10
86.92376858201521
 20
318.9867273173169
 30
0.0
 10
86.97760117150845
 20
318.9854487260018
 30
0.0
 10
87.0324921558104
 20
318.9771914824453
 30
0.0
 10
87.08935856971631
 20
318.9621838504904
 30
0.0
 10
87.14640447053746
 20
318.9419424632789
 30
0.0
 10
87.18402681296345
 20
318.9245600086672
 30
0.0
 10
87.2028336748
 20
318.9158707724
 30
0.0
 11
86.6261319978
 21
318.5209492139
 31
0.0
 11
86.62809769407392
 21
318.5874088394376
 31
0.0
 11
86.63460877035482
 21
318.6536035489235
 31
0.0
 11
86.64545163144612
 21
318.7136470735425
 31
0.0
 11
86.66214865780695
 21
318.7723299543704
 31
0.0
 11
86.68324259545653
 21
318.8230653735322
 31
0.0
 11
86.71127342195652
 21
318.8702826152199
 31
0.0
 11
86.74363574400138
 21
318.9086288245056
 31
0.0
 11
86.78228861856951
 21
318.940486151172
 31
0.0
 11
86.8254845217875
 21
318.9636640186101
 31
0.0
 11
86.87225716740657
 21
318.9785322132775
 31
0.0
 11
86.923801600101
 21
318.9854148910215
 31
0.0
 11
86.97584552637218
 21
318.9844506360985
 31
0.0
 11
87.03227046159344
 21
318.9761806447418
 31
0.0
 11
87.08748433117725
 21
318.9618978718337
 31
0.0
 11
87.1460432489808
 21
318.9410619078844
 31
0.0
 11
87.2028336748
 21
318.9158707724
 31
0.0
  0
SPLINE
  5
106
330
1F
100
AcDbEntity
  8
0
  6
Continuous
 62
     7
100
AcDbSpline
210
0.0
220
0.0
230
1.0
 70
     8
 71
     3
 72
    17
 73
    13
 74
    11
 42
0.0000000001
 43
0.0000000001
 44
0.00000001
 40
0.0
 40
0.0
 40
0.0
 40
0.0
 40
0.0680405843391984
 40
0.1360892263693038
 40
0.2041088006997932
 40
0.2721966988712395
 40
0.3403905143053939
 40
0.4083768376638411
 40
0.4424735707388004
 40
0.4765783279569411
 40
0.5107080466076462
 40
0.5447863433303662
 40
0.5447863433303662
 40
0.5447863433303662
 40
0.5447863433303662
 10
137.9170188883
 20
301.7505810922
 30
0.0
 10
137.9046081161234
 20
301.7695701455382
 30
0.0
 10
137.8797851020273
 20
301.8075505009889
 30
0.0
 10
137.838838510687
 20
301.8619507722443
 30
0.0
 10
137.7946151069405
 20
301.9137478762478
 30
0.0
 10
137.7460304452075
 20
301.9616154055103
 30
0.0
 10
137.6926878709063
 20
302.0041789850589
 30
0.0
 10
137.6435381504284
 20
302.0331139177616
 30
0.0
 10
137.6015882499339
 20
302.0506521226554
 30
0.0
 10
137.5688727417077
 20
302.0604805792599
 30
0.0
 10
137.5352460186355
 20
302.0668472190799
 30
0.0
 10
137.5124976214168
 20
302.0676700079264
 30
0.0
 10
137.5011319978
 20
302.0680810922
 30
0.0
 11
137.9170188883
 21
301.7505810922
 31
0.0
 11
137.8791671295829
 21
301.8071210380723
 31
0.0
 11
137.8382880367701
 21
301.8615224852308
 31
0.0
 11
137.7939094903687
 21
301.9130705900592
 31
0.0
 11
137.7452619641496
 21
301.9607086008297
 31
0.0
 11
137.6916943945725
 21
302.0029094533456
 31
0.0
 11
137.6328783919156
 21
302.0370095705779
 31
0.0
 11
137.6013917498369
 21
302.0500930936889
 31
0.0
 11
137.5687279241108
 21
302.059901709995
 31
0.0
 11
137.5351463067611
 21
302.0659937270138
 31
0.0
 11
137.5011319978
 21
302.0680810922
 31
0.0
  0
SPLINE
  5
107
330
1F
100
AcDbEntity
  8
RUNDUNGEN
  6
Continuous
 62
     7
100
AcDbSpline
210
0.0
220
0.0
230
1.0
 70
     8
 71
     3
 72
    15
 73
    11
 74
     9
 42
0.0000000001
 43
0.0000000001
 44
0.00000001
 40
0.0
 40
0.0
 40
0.0
 40
0.0
 40
0.7080681471030005
 40
1.416168963066849
 40
2.124208008682599
 40
2.832239761960152
 40
3.540336416512329
 40
4.24845821455593
 40
4.95657267994412
 40
5.664610262235978
 40
5.664610262235978
 40
5.664610262235978
 40
5.664610262235978
 10
144.8261319978
 20
309.7680815479
 30
0.0
 10
144.8246666634676
 20
309.5320559654263
 30
0.0
 10
144.8217359271952
 20
309.0599939107261
 30
0.0
 10
144.8004384197353
 20
308.352188013062
 30
0.0
 10
144.7697994055835
 20
307.6447871002414
 30
0.0
 10
144.7328193030491
 20
306.9376930654309
 30
0.0
 10
144.6940735737474
 20
306.2306674933099
 30
0.0
 10
144.6593993751254
 20
305.5234127330041
 30
0.0
 10
144.6322967821723
 20
304.8157654300825
 30
0.0
 10
144.6281868515479
 20
304.3437082093429
 30
0.0
 10
144.6261319978
 20
304.107692413
 30
0.0
 11
144.8261319978
 21
309.7680815479
 31
0.0
 11
144.8189191483354
 21
309.0600501391726
 31
0.0
 11
144.7988806580074
 21
308.3522329138425
 31
0.0
 11
144.7687424619233
 21
307.6448355861311
 31
0.0
 11
144.7325264368327
 21
306.9377306694632
 31
0.0
 11
144.6947528464671
 21
306.2306422534508
 31
0.0
 11
144.6606610899279
 21
305.5233415868312
 31
0.0
 11
144.6357856989951
 21
304.8156641807923
 31
0.0
 11
144.6261319978
 21
304.107692413
 31
0.0
  0
SPLINE
  5
108
330
1F
100
AcDbEntity
  8
RUNDUNGEN
  6
Continuous
 62
     7
100
AcDbSpline
210
0.0
220
0.0
230
1.0
 70
     8
 71
     3
 72
    15
 73
    11
 74
     9
 42
0.0000000001
 43
0.0000000001
 44
0.00000001
 40
0.0
 40
0.0
 40
0.0
 40
0.0
 40
0.70803746852343
 40
1.416151820222252
 40
2.124273504066419
 40
2.832370044447176
 40
3.540401683846988
 40
4.248440615609658
 40
4.956541317696072
 40
5.664609350850258
 40
5.664609350850258
 40
5.664609350850258
 40
5.664609350850258
 10
144.6261319978
 20
315.4284697714
 30
0.0
 10
144.6281868509787
 20
315.1924540129808
 30
0.0
 10
144.632296780465
 20
314.7203968680625
 30
0.0
 10
144.6593993662335
 20
314.0127496788612
 30
0.0
 10
144.6940735562214
 20
313.3054950322826
 30
0.0
 10
144.7328192779193
 20
312.5984695739977
 30
0.0
 10
144.7697993770146
 20
311.8913756531404
 30
0.0
 10
144.8004383935499
 20
311.183974854417
 30
0.0
 10
144.8217359103447
 20
310.4761690710274
 30
0.0
 10
144.8246666578509
 20
310.0041070923504
 30
0.0
 10
144.8261319978
 20
309.7680815479
 30
0.0
 11
144.6261319978
 21
315.4284697714
 31
0.0
 11
144.6357856963754
 21
314.720498117351
 31
0.0
 11
144.6606610808029
 21
314.012820824843
 31
0.0
 11
144.6947528291127
 21
313.3055202721587
 31
0.0
 11
144.7325264123908
 21
312.598431970102
 31
0.0
 11
144.7687424343235
 21
311.8913271672993
 31
0.0
 11
144.7988806329807
 21
311.1839299536539
 31
0.0
 11
144.8189191327382
 21
310.4761128425138
 31
0.0
 11
144.8261319978
 21
309.7680815479
 31
0.0
  0
SPLINE
  5
109
330
1F
100
AcDbEntity
  8
VERERBUNG
  6
Continuous
 62
     7
100
AcDbSpline
210
0.0
220
0.0
230
1.0
 70
     8
 71
     3
 72
    11
 73
     7
 74
     5
 42
0.0000000001
 43
0.0000000001
 44
0.00000001
 40
0.0
 40
0.0
 40
0.0
 40
0.0
 40
0.4891002096563252
 40
0.9783817006614768
 40
1.283670603030414
 40
1.588797102977601
 40
1.588797102977601
 40
1.588797102977601
 40
1.588797102977601
 10
87.6261319978
 20
317.3979627721
 30
0.0
 10
87.61536124017653
 20
317.5611159654024
 30
0.0
 10
87.5938157328285
 20
317.8874828235228
 30
0.0
 10
87.47030220282849
 20
318.3001017260096
 30
0.0
 10
87.33752179941597
 20
318.6418169303637
 30
0.0
 10
87.24772175250231
 20
318.8245356959705
 30
0.0
 10
87.2028336748
 20
318.9158707724
 30
0.0
 11
87.6261319978
 21
317.3979627721
 31
0.0
 11
87.57567809385374
 21
317.884453695615
 31
0.0
 11
87.4452098602302
 21
318.3560196161981
 31
0.0
 11
87.33347584248956
 21
318.6401266790972
 31
0.0
 11
87.2028336748
 21
318.9158707724
 31
0.0
  0
SPLINE
  5
10A
330
1F
100
AcDbEntity
  8
VERERBUNG
  6
Continuous
 62
     7
100
AcDbSpline
210
0.0
220
0.0
230
1.0
 70
     8
 71
     3
 72
    11
 73
     7
 74
     5
 42
0.0000000001
 43
0.0000000001
 44
0.00000001
 40
0.0
 40
0.0
 40
0.0
 40
0.0
 40
0.5427795451560546
 40
1.085508812756579
 40
1.337448492043635
 40
1.589025708805493
 40
1.589025708805493
 40
1.589025708805493
 40
1.589025708805493
 10
87.2028336748
 20
300.620291412
 30
0.0
 10
87.28056401228622
 20
300.7839117689715
 30
0.0
 10
87.43601748711376
 20
301.1111373267952
 30
0.0
 10
87.55993900921327
 20
301.5417502231446
 30
0.0
 10
87.61749337469652
 20
301.8863832491911
 30
0.0
 10
87.62325383901138
 20
302.0543009837786
 30
0.0
 10
87.6261319978
 20
302.1381994123
 30
0.0
 11
87.2028336748
 21
300.620291412
 31
0.0
 11
87.42230454953757
 21
301.1167208327455
 31
0.0
 11
87.57292859267918
 21
301.6381299384752
 31
0.0
 11
87.61202087098663
 21
301.8870182583619
 31
0.0
 11
87.6261319978
 21
302.1381994123
 31
0.0
  0
DIMENSION
  5
115
330
1F
100
AcDbEntity
  8
1
100
AcDbDimension
  2
*D2
 10
231.042682156868
 20
319.7680810922
 30
0.0
 11
227.292682156868
 21
309.744632131427
 31
0.0
 70
    32
  1
<>
 71
     5
 42
-1.0
 53
90.0
  3
ME10_DIM_10
100
AcDbAlignedDimension
 13
218.6261319978
 23
299.7680810922
 33
0.0
 14
218.6261319978
 24
319.7680810922
 34
0.0
 50
90.0
100
AcDbRotatedDimension
  0
DIMENSION
  5
120
330
1F
100
AcDbEntity
  8
1
100
AcDbDimension
  2
*D3
 10
240.396097032115
 20
335.7680810922
 30
0.0
 11
236.646097032115
 21
310.274070709271
 31
0.0
 70
    32
  1
<>
 71
     5
 42
-1.0
 53
90.0
  3
ME10_DIM_11
100
AcDbAlignedDimension
 13
205.5373958121
 23
283.7680810922
 33
0.0
 14
205.5373958121
 24
335.7680810922
 34
0.0
 50
90.0
100
AcDbRotatedDimension
  0
DIMENSION
  5
12B
330
1F
100
AcDbEntity
  8
1
100
AcDbDimension
  2
*D4
 10
218.6261319978
 20
353.813713832286
 30
0.0
 11
182.730200812172
 21
357.563713832286
 31
0.0
 70
    32
  1
<>
 71
     5
 42
-1.0
 53
0.00013888888889
  3
ME10_DIM_12
100
AcDbAlignedDimension
 13
144.6261319978
 23
341.2680321867
 33
0.0
 14
218.6261319978
 24
329.1310108314
 34
0.0
100
AcDbRotatedDimension
  0
DIMENSION
  5
136
330
1F
100
AcDbEntity
  8
1
100
AcDbDimension
  2
*D5
 10
218.6261319978
 20
361.230856456959
 30
0.0
 11
170.06400340696
 21
364.980856456959
 31
0.0
 70
    32
  1
<>
 71
     5
 42
-1.0
 53
0.00013888888889
  3
ME10_DIM_13
100
AcDbAlignedDimension
 13
118.6261319978
 23
341.2680810922
 33
0.0
 14
218.6261319978
 24
329.1310108314
 34
0.0
100
AcDbRotatedDimension
  0
DIMENSION
  5
141
330
1F
100
AcDbEntity
  8
1
100
AcDbDimension
  2
*D6
 10
218.6261319978
 20
367.963339762432
 30
0.0
 11
159.337674072817
 21
371.713339762432
 31
0.0
 70
    32
  1
<>
 71
     5
 42
-1.0
 53
0.00013888888889
  3
ME10_DIM_14
100
AcDbAlignedDimension
 13
86.6261319978
 23
331.3441082724
 33
0.0
 14
218.6261319978
 24
329.1310108314
 34
0.0
100
AcDbRotatedDimension
  0
INSERT
  5
148
330
1F
100
AcDbEntity
  8
1
100
AcDbBlockReference
  2
*D7
 10
0.0
 20
0.0
 30
0.0
  0
ENDSEC
  0
SECTION
  2
OBJECTS
  0
DICTIONARY
  5
C
330
0
100
AcDbDictionary
281
     1
  3
ACAD_GROUP
350
D
  3
ACAD_LAYOUT
350
1A
  3
ACAD_MLEADERSTYLE
350
14B
  3
ACAD_MLINESTYLE
350
17
  3
ACAD_PLOTSETTINGS
350
19
  3
ACAD_PLOTSTYLENAME
350
E
  3
ACAD_SCALELIST
350
4B
  3
ACAD_VISUALSTYLE
350
2A
  3
AcDbVariableDictionary
350
149
  0
DICTIONARY
  5
D
102
{ACAD_REACTORS
330
C
102
}
330
C
100
AcDbDictionary
281
     1
  0
DICTIONARY
  5
1A
102
{ACAD_REACTORS
330
C
102
}
330
C
100
AcDbDictionary
281
     1
  3
Layout1
350
1E
  3
Layout2
350
26
  3
Model
350
22
  0
DICTIONARY
  5
14B
102
{ACAD_REACTORS
330
C
102
}
330
C
100
AcDbDictionary
281
     1
  0
DICTIONARY
  5
17
102
{ACAD_REACTORS
330
C
102
}
330
C
100
AcDbDictionary
281
     1
  3
Standard
350
18
  0
DICTIONARY
  5
19
102
{ACAD_REACTORS
330
C
102
}
330
C
100
AcDbDictionary
281
     1
  0
ACDBDICTIONARYWDFLT
  5
E
102
{ACAD_REACTORS
330
C
102
}
330
C
100
AcDbDictionary
281
     1
  3
Normal
350
F
100
AcDbDictionaryWithDefault
340
F
  0
DICTIONARY
  5
4B
102
{ACAD_REACTORS
330
C
102
}
330
C
100
AcDbDictionary
281
     1
  3
A0
350
4C
  3
A1
350
4D
  3
A2
350
4E
  3
A3
350
4F
  3
A4
350
50
  3
A5
350
51
  3
A6
350
52
  3
A7
350
53
  3
A8
350
54
  3
A9
350
55
  3
B0
350
56
  3
B1
350
57
  3
B2
350
58
  3
B3
350
59
  3
B4
350
5A
  3
B5
350
5B
  3
B6
350
5C
  3
B7
350
5D
  3
B8
350
5E
  3
B9
350
5F
  3
C0
350
60
  3
C1
350
61
  3
C2
350
62
  3
C3
350
63
  3
C4
350
64
  3
C5
350
65
  3
C6
350
66
  3
C7
350
67
  3
C8
350
68
  3
C9
350
69
  3
D0
350
6A
  3
D1
350
6B
  3
D2
350
6C
  0
DICTIONARY
  5
2A
102
{ACAD_REACTORS
330
C
102
}
330
C
100
AcDbDictionary
281
     1
  3
2dWireframe
350
2F
  3
3D Hidden
350
31
  3
3dWireframe
350
30
  3
Basic
350
32
  3
Brighten
350
36
  3
ColorChange
350
3A
  3
Conceptual
350
34
  3
Dim
350
35
  3
Facepattern
350
39
  3
Flat
350
2B
  3
FlatWithEdges
350
2C
  3
Gouraud
350
2D
  3
GouraudWithEdges
350
2E
  3
Linepattern
350
38
  3
Realistic
350
33
  3
Thicken
350
37
  0
DICTIONARY
  5
149
102
{ACAD_REACTORS
330
C
102
}
330
C
100
AcDbDictionary
281
     1
  3
CANNOSCALE
350
14C
  0
LAYOUT
  5
1E
102
{ACAD_REACTORS
330
1A
102
}
330
1A
100
AcDbPlotSettings
  1

  2
none_device
  4

  6

 40
0.0
 41
0.0
 42
0.0
 43
0.0
 44
0.0
 45
0.0
 46
0.0
 47
0.0
 48
0.0
 49
0.0
140
0.0
141
0.0
142
1.0
143
1.0
 70
   688
 72
     0
 73
     0
 74
     5
  7

 75
    16
147
1.0
148
0.0
149
0.0
100
AcDbLayout
  1
Layout1
 70
     1
 71
     1
 10
0.0
 20
0.0
 11
12.0
 21
9.0
 12
0.0
 22
0.0
 32
0.0
 14
1.00000000000000E+20
 24
1.00000000000000E+20
 34
1.00000000000000E+20
 15
-1.00000000000000E+20
 25
-1.00000000000000E+20
 35
-1.00000000000000E+20
146
0.0
 13
0.0
 23
0.0
 33
0.0
 16
1.0
 26
0.0
 36
0.0
 17
0.0
 27
1.0
 37
0.0
 76
     0
330
1B
  0
LAYOUT
  5
26
102
{ACAD_REACTORS
330
1A
102
}
330
1A
100
AcDbPlotSettings
  1

  2
none_device
  4

  6

 40
0.0
 41
0.0
 42
0.0
 43
0.0
 44
0.0
 45
0.0
 46
0.0
 47
0.0
 48
0.0
 49
0.0
140
0.0
141
0.0
142
1.0
143
1.0
 70
   688
 72
     0
 73
     0
 74
     5
  7

 75
    16
147
1.0
148
0.0
149
0.0
100
AcDbLayout
  1
Layout2
 70
     1
 71
     2
 10
0.0
 20
0.0
 11
0.0
 21
0.0
 12
0.0
 22
0.0
 32
0.0
 14
0.0
 24
0.0
 34
0.0
 15
0.0
 25
0.0
 35
0.0
146
0.0
 13
0.0
 23
0.0
 33
0.0
 16
1.0
 26
0.0
 36
0.0
 17
0.0
 27
1.0
 37
0.0
 76
     0
330
23
  0
LAYOUT
  5
22
102
{ACAD_REACTORS
330
1A
102
}
330
1A
100
AcDbPlotSettings
  1

  2
none_device
  4

  6

 40
0.0
 41
0.0
 42
0.0
 43
0.0
 44
0.0
 45
0.0
 46
0.0
 47
0.0
 48
0.0
 49
0.0
140
0.0
141
0.0
142
1.0
143
1.0
 70
  1712
 72
     0
 73
     0
 74
     0
  7

 75
     0
147
1.0
148
0.0
149
0.0
100
AcDbLayout
  1
Model
 70
     1
 71
     0
 10
0.0
 20
0.0
 11
12.0
 21
9.0
 12
0.0
 22
0.0
 32
0.0
 14
62.6080063360742
 24
276.4483716506898
 34
0.0
 15
242.396097032115
 25
385.217758567996
 35
0.0
146
0.0
 13
0.0
 23
0.0
 33
0.0
 16
1.0
 26
0.0
 36
0.0
 17
0.0
 27
1.0
 37
0.0
 76
     0
330
1F
331
29
  0
MLINESTYLE
  5
18
102
{ACAD_REACTORS
330
17
102
}
330
17
100
AcDbMlineStyle
  2
Standard
 70
     0
  3

 62
   256
 51
90.0
 52
90.0
 71
     2
 49
0.5
 62
   256
  6
BYLAYER
 49
-0.5
 62
   256
  6
BYLAYER
  0
ACDBPLACEHOLDER
  5
F
102
{ACAD_REACTORS
330
E
102
}
330
E
  0
SCALE
  5
4C
102
{ACAD_REACTORS
330
4B
102
}
330
4B
100
AcDbScale
 70
     0
300
1:1
140
1.0
141
1.0
290
     1
  0
SCALE
  5
4D
102
{ACAD_REACTORS
330
4B
102
}
330
4B
100
AcDbScale
 70
     0
300
1:2
140
1.0
141
2.0
290
     0
  0
SCALE
  5
4E
102
{ACAD_REACTORS
330
4B
102
}
330
4B
100
AcDbScale
 70
     0
300
1:4
140
1.0
141
4.0
290
     0
  0
SCALE
  5
4F
102
{ACAD_REACTORS
330
4B
102
}
330
4B
100
AcDbScale
 70
     0
300
1:5
140
1.0
141
5.0
290
     0
  0
SCALE
  5
50
102
{ACAD_REACTORS
330
4B
102
}
330
4B
100
AcDbScale
 70
     0
300
1:8
140
1.0
141
8.0
290
     0
  0
SCALE
  5
51
102
{ACAD_REACTORS
330
4B
102
}
330
4B
100
AcDbScale
 70
     0
300
1:10
140
1.0
141
10.0
290
     0
  0
SCALE
  5
52
102
{ACAD_REACTORS
330
4B
102
}
330
4B
100
AcDbScale
 70
     0
300
1:16
140
1.0
141
16.0
290
     0
  0
SCALE
  5
53
102
{ACAD_REACTORS
330
4B
102
}
330
4B
100
AcDbScale
 70
     0
300
1:20
140
1.0
141
20.0
290
     0
  0
SCALE
  5
54
102
{ACAD_REACTORS
330
4B
102
}
330
4B
100
AcDbScale
 70
     0
300
1:30
140
1.0
141
30.0
290
     0
  0
SCALE
  5
55
102
{ACAD_REACTORS
330
4B
102
}
330
4B
100
AcDbScale
 70
     0
300
1:40
140
1.0
141
40.0
290
     0
  0
SCALE
  5
56
102
{ACAD_REACTORS
330
4B
102
}
330
4B
100
AcDbScale
 70
     0
300
1:50
140
1.0
141
50.0
290
     0
  0
SCALE
  5
57
102
{ACAD_REACTORS
330
4B
102
}
330
4B
100
AcDbScale
 70
     0
300
1:100
140
1.0
141
100.0
290
     0
  0
SCALE
  5
58
102
{ACAD_REACTORS
330
4B
102
}
330
4B
100
AcDbScale
 70
     0
300
2:1
140
2.0
141
1.0
290
     0
  0
SCALE
  5
59
102
{ACAD_REACTORS
330
4B
102
}
330
4B
100
AcDbScale
 70
     0
300
4:1
140
4.0
141
1.0
290
     0
  0
SCALE
  5
5A
102
{ACAD_REACTORS
330
4B
102
}
330
4B
100
AcDbScale
 70
     0
300
8:1
140
8.0
141
1.0
290
     0
  0
SCALE
  5
5B
102
{ACAD_REACTORS
330
4B
102
}
330
4B
100
AcDbScale
 70
     0
300
10:1
140
10.0
141
1.0
290
     0
  0
SCALE
  5
5C
102
{ACAD_REACTORS
330
4B
102
}
330
4B
100
AcDbScale
 70
     0
300
100:1
140
100.0
141
1.0
290
     0
  0
SCALE
  5
5D
102
{ACAD_REACTORS
330
4B
102
}
330
4B
100
AcDbScale
 70
     0
300
1/128" = 1'-0"
140
0.0078125
141
12.0
290
     0
  0
SCALE
  5
5E
102
{ACAD_REACTORS
330
4B
102
}
330
4B
100
AcDbScale
 70
     0
300
1/64" = 1'-0"
140
0.015625
141
12.0
290
     0
  0
SCALE
  5
5F
102
{ACAD_REACTORS
330
4B
102
}
330
4B
100
AcDbScale
 70
     0
300
1/32" = 1'-0"
140
0.03125
141
12.0
290
     0
  0
SCALE
  5
60
102
{ACAD_REACTORS
330
4B
102
}
330
4B
100
AcDbScale
 70
     0
300
1/16" = 1'-0"
140
0.0625
141
12.0
290
     0
  0
SCALE
  5
61
102
{ACAD_REACTORS
330
4B
102
}
330
4B
100
AcDbScale
 70
     0
300
3/32" = 1'-0"
140
0.09375
141
12.0
290
     0
  0
SCALE
  5
62
102
{ACAD_REACTORS
330
4B
102
}
330
4B
100
AcDbScale
 70
     0
300
1/8" = 1'-0"
140
0.125
141
12.0
290
     0
  0
SCALE
  5
63
102
{ACAD_REACTORS
330
4B
102
}
330
4B
100
AcDbScale
 70
     0
300
3/16" = 1'-0"
140
0.1875
141
12.0
290
     0
  0
SCALE
  5
64
102
{ACAD_REACTORS
330
4B
102
}
330
4B
100
AcDbScale
 70
     0
300
1/4" = 1'-0"
140
0.25
141
12.0
290
     0
  0
SCALE
  5
65
102
{ACAD_REACTORS
330
4B
102
}
330
4B
100
AcDbScale
 70
     0
300
3/8" = 1'-0"
140
0.375
141
12.0
290
     0
  0
SCALE
  5
66
102
{ACAD_REACTORS
330
4B
102
}
330
4B
100
AcDbScale
 70
     0
300
1/2" = 1'-0"
140
0.5
141
12.0
290
     0
  0
SCALE
  5
67
102
{ACAD_REACTORS
330
4B
102
}
330
4B
100
AcDbScale
 70
     0
300
3/4" = 1'-0"
140
0.75
141
12.0
290
     0
  0
SCALE
  5
68
102
{ACAD_REACTORS
330
4B
102
}
330
4B
100
AcDbScale
 70
     0
300
1" = 1'-0"
140
1.0
141
12.0
290
     0
  0
SCALE
  5
69
102
{ACAD_REACTORS
330
4B
102
}
330
4B
100
AcDbScale
 70
     0
300
1-1/2" = 1'-0"
140
1.5
141
12.0
290
     0
  0
SCALE
  5
6A
102
{ACAD_REACTORS
330
4B
102
}
330
4B
100
AcDbScale
 70
     0
300
3" = 1'-0"
140
3.0
141
12.0
290
     0
  0
SCALE
  5
6B
102
{ACAD_REACTORS
330
4B
102
}
330
4B
100
AcDbScale
 70
     0
300
6" = 1'-0"
140
6.0
141
12.0
290
     0
  0
SCALE
  5
6C
102
{ACAD_REACTORS
330
4B
102
}
330
4B
100
AcDbScale
 70
     0
300
1'-0" = 1'-0"
140
12.0
141
12.0
290
     0
  0
VISUALSTYLE
  5
2F
102
{ACAD_REACTORS
330
2A
102
}
330
2A
100
AcDbVisualStyle
  2
2dWireframe
 70
     4
 71
     0
 72
     2
 73
     0
 90
        0
 40
-0.6
 41
-30.0
 62
     5
 63
     7
 74
     1
 91
        4
 64
     7
 65
   257
 75
     1
175
     1
 42
1.0
 92
        0
 66
   257
 43
1.0
 76
     1
 77
     6
 78
     2
 67
     7
 79
     5
170
     0
171
     0
290
     0
174
     0
 93
        1
 44
0.0
173
     0
291
     0
 45
0.0
1001
ACAD
1000
AcDbSavedByObjectVersion
1070
     0
  0
VISUALSTYLE
  5
31
102
{ACAD_REACTORS
330
2A
102
}
330
2A
100
AcDbVisualStyle
  2
3D Hidden
 70
     6
 71
     1
 72
     2
 73
     2
 90
        0
 40
-0.6
 41
-30.0
 62
     5
 63
     7
 74
     2
 91
        2
 64
     7
 65
   257
 75
     2
175
     1
 42
40.0
 92
        0
 66
   257
 43
1.0
 76
     1
 77
     6
 78
     2
 67
     7
 79
     3
170
     0
171
     0
290
     0
174
     0
 93
        1
 44
0.0
173
     0
291
     0
 45
0.0
1001
ACAD
1000
AcDbSavedByObjectVersion
1070
     0
  0
VISUALSTYLE
  5
30
102
{ACAD_REACTORS
330
2A
102
}
330
2A
100
AcDbVisualStyle
  2
3dWireframe
 70
     5
 71
     0
 72
     2
 73
     0
 90
        0
 40
-0.6
 41
-30.0
 62
     5
 63
     7
 74
     1
 91
        4
 64
     7
 65
   257
 75
     1
175
     1
 42
1.0
 92
        0
 66
   257
 43
1.0
 76
     1
 77
     6
 78
     2
 67
     7
 79
     5
170
     0
171
     0
290
     0
174
     0
 93
        1
 44
0.0
173
     0
291
     0
 45
0.0
1001
ACAD
1000
AcDbSavedByObjectVersion
1070
     0
  0
VISUALSTYLE
  5
32
102
{ACAD_REACTORS
330
2A
102
}
330
2A
100
AcDbVisualStyle
  2
Basic
 70
     7
 71
     1
 72
     0
 73
     1
 90
        0
 40
-0.6
 41
-30.0
 62
     5
 63
     7
 74
     0
 91
        4
 64
     7
 65
   257
 75
     1
175
     1
 42
1.0
 92
        8
 66
     7
 43
1.0
 76
     1
 77
     6
 78
     2
 67
     7
 79
     5
170
     0
171
     0
290
     0
174
     0
 93
        1
 44
0.0
173
     0
291
     1
 45
0.0
1001
ACAD
1000
AcDbSavedByObjectVersion
1070
     0
  0
VISUALSTYLE
  5
36
102
{ACAD_REACTORS
330
2A
102
}
330
2A
100
AcDbVisualStyle
  2
Brighten
 70
    12
 71
     2
 72
     2
 73
     0
 90
        0
 40
-0.6
 41
-30.0
 62
     5
 63
     7
 74
     1
 91
        4
 64
     7
 65
   257
 75
     1
175
     1
 42
1.0
 92
        8
 66
     7
 43
1.0
 76
     1
 77
     6
 78
     2
 67
     7
 79
     5
170
     0
171
     0
290
     0
174
     0
 93
        1
 44
50.0
173
     0
291
     1
 45
0.0
1001
ACAD
1000
AcDbSavedByObjectVersion
1070
     0
  0
VISUALSTYLE
  5
3A
102
{ACAD_REACTORS
330
2A
102
}
330
2A
100
AcDbVisualStyle
  2
ColorChange
 70
    16
 71
     2
 72
     2
 73
     3
 90
        0
 40
-0.6
 41
-30.0
 62
     5
 63
     8
 74
     1
 91
        4
 64
     7
 65
   257
 75
     1
175
     1
 42
1.0
 92
        8
 66
     8
 43
1.0
 76
     1
 77
     6
 78
     2
 67
     7
 79
     5
170
     0
171
     0
290
     0
174
     0
 93
        1
 44
0.0
173
     0
291
     1
 45
0.0
1001
ACAD
1000
AcDbSavedByObjectVersion
1070
     0
  0
VISUALSTYLE
  5
34
102
{ACAD_REACTORS
330
2A
102
}
330
2A
100
AcDbVisualStyle
  2
Conceptual
 70
     9
 71
     3
 72
     2
 73
     0
 90
        0
 40
-0.6
 41
-30.0
 62
     5
 63
     7
 74
     2
 91
        2
 64
     7
 65
   257
 75
     1
175
     1
 42
40.0
 92
        8
 66
     7
 43
1.0
 76
     1
 77
     6
 78
     2
 67
     7
 79
     3
170
     0
171
     0
290
     0
174
     0
 93
        1
 44
0.0
173
     0
291
     0
 45
0.0
1001
ACAD
1000
AcDbSavedByObjectVersion
1070
     0
  0
VISUALSTYLE
  5
35
102
{ACAD_REACTORS
330
2A
102
}
330
2A
100
AcDbVisualStyle
  2
Dim
 70
    11
 71
     2
 72
     2
 73
     0
 90
        0
 40
-0.6
 41
-30.0
 62
     5
 63
     7
 74
     1
 91
        4
 64
     7
 65
   257
 75
     1
175
     1
 42
1.0
 92
        8
 66
     7
 43
1.0
 76
     1
 77
     6
 78
     2
 67
     7
 79
     5
170
     0
171
     0
290
     0
174
     0
 93
        1
 44
-50.0
173
     0
291
     1
 45
0.0
1001
ACAD
1000
AcDbSavedByObjectVersion
1070
     0
  0
VISUALSTYLE
  5
39
102
{ACAD_REACTORS
330
2A
102
}
330
2A
100
AcDbVisualStyle
  2
Facepattern
 70
    15
 71
     2
 72
     2
 73
     0
 90
        0
 40
-0.6
 41
-30.0
 62
     5
 63
     7
 74
     1
 91
        4
 64
     7
 65
   257
 75
     1
175
     1
 42
1.0
 92
        8
 66
     7
 43
1.0
 76
     1
 77
     6
 78
     2
 67
     7
 79
     5
170
     0
171
     0
290
     0
174
     0
 93
        1
 44
0.0
173
     0
291
     1
 45
0.0
1001
ACAD
1000
AcDbSavedByObjectVersion
1070
     0
  0
VISUALSTYLE
  5
2B
102
{ACAD_REACTORS
330
2A
102
}
330
2A
100
AcDbVisualStyle
  2
Flat
 70
     0
 71
     2
 72
     1
 73
     1
 90
        2
 40
-0.6
 41
30.0
 62
     5
 63
     7
 74
     0
 91
        4
 64
     7
 65
   257
 75
     1
175
     1
 42
1.0
 92
        8
 66
     7
 43
1.0
 76
     1
 77
     6
 78
     2
 67
     7
 79
     5
170
     0
171
     0
290
     0
174
     0
 93
       13
 44
0.0
173
     0
291
     1
 45
0.0
1001
ACAD
1000
AcDbSavedByObjectVersion
1070
     0
  0
VISUALSTYLE
  5
2C
102
{ACAD_REACTORS
330
2A
102
}
330
2A
100
AcDbVisualStyle
  2
FlatWithEdges
 70
     1
 71
     2
 72
     1
 73
     1
 90
        2
 40
-0.6
 41
30.0
 62
     5
 63
     7
 74
     1
 91
        4
 64
     7
 65
   257
 75
     1
175
     1
 42
1.0
 92
        0
 66
   257
 43
1.0
 76
     1
 77
     6
 78
     2
 67
     7
 79
     5
170
     0
171
     0
290
     0
174
     0
 93
       13
 44
0.0
173
     0
291
     1
 45
0.0
1001
ACAD
1000
AcDbSavedByObjectVersion
1070
     0
  0
VISUALSTYLE
  5
2D
102
{ACAD_REACTORS
330
2A
102
}
330
2A
100
AcDbVisualStyle
  2
Gouraud
 70
     2
 71
     2
 72
     2
 73
     1
 90
        2
 40
-0.6
 41
30.0
 62
     5
 63
     7
 74
     0
 91
        4
 64
     7
 65
   257
 75
     1
175
     1
 42
1.0
 92
        0
 66
     7
 43
1.0
 76
     1
 77
     6
 78
     2
 67
     7
 79
     5
170
     0
171
     0
290
     0
174
     0
 93
       13
 44
0.0
173
     0
291
     1
 45
0.0
1001
ACAD
1000
AcDbSavedByObjectVersion
1070
     0
  0
VISUALSTYLE
  5
2E
102
{ACAD_REACTORS
330
2A
102
}
330
2A
100
AcDbVisualStyle
  2
GouraudWithEdges
 70
     3
 71
     2
 72
     2
 73
     1
 90
        2
 40
-0.6
 41
30.0
 62
     5
 63
     7
 74
     1
 91
        4
 64
     7
 65
   257
 75
     1
175
     1
 42
1.0
 92
        0
 66
   257
 43
1.0
 76
     1
 77
     6
 78
     2
 67
     7
 79
     5
170
     0
171
     0
290
     0
174
     0
 93
       13
 44
0.0
173
     0
291
     1
 45
0.0
1001
ACAD
1000
AcDbSavedByObjectVersion
1070
     0
  0
VISUALSTYLE
  5
38
102
{ACAD_REACTORS
330
2A
102
}
330
2A
100
AcDbVisualStyle
  2
Linepattern
 70
    14
 71
     2
 72
     2
 73
     0
 90
        0
 40
-0.6
 41
-30.0
 62
     5
 63
     7
 74
     1
 91
        4
 64
     7
 65
   257
 75
     7
175
     7
 42
1.0
 92
        8
 66
     7
 43
1.0
 76
     1
 77
     6
 78
     2
 67
     7
 79
     5
170
     0
171
     0
290
     0
174
     0
 93
        1
 44
0.0
173
     0
291
     1
 45
0.0
1001
ACAD
1000
AcDbSavedByObjectVersion
1070
     0
  0
VISUALSTYLE
  5
33
102
{ACAD_REACTORS
330
2A
102
}
330
2A
100
AcDbVisualStyle
  2
Realistic
 70
     8
 71
     2
 72
     2
 73
     0
 90
        0
 40
-0.6
 41
-30.0
 62
     5
 63
     7
 74
     1
 91
        0
 64
     7
 65
   257
 75
     1
175
     1
 42
1.0
 92
        8
 66
     8
 43
1.0
 76
     1
 77
     6
 78
     2
 67
     7
 79
     5
170
     0
171
     0
290
     0
174
     0
 93
       13
 44
0.0
173
     0
291
     0
 45
0.0
1001
ACAD
1000
AcDbSavedByObjectVersion
1070
     0
  0
VISUALSTYLE
  5
37
102
{ACAD_REACTORS
330
2A
102
}
330
2A
100
AcDbVisualStyle
  2
Thicken
 70
    13
 71
     2
 72
     2
 73
     0
 90
        0
 40
-0.6
 41
-30.0
 62
     5
 63
     7
 74
     1
 91
        4
 64
     7
 65
   257
 75
     1
175
     1
 42
1.0
 92
       12
 66
     7
 43
1.0
 76
     1
 77
     6
 78
     2
 67
     7
 79
     5
170
     0
171
     0
290
     0
174
     0
 93
        1
 44
0.0
173
     0
291
     1
 45
0.0
1001
ACAD
1000
AcDbSavedByObjectVersion
1070
     0
  0
DICTIONARYVAR
  5
14C
102
{ACAD_REACTORS
330
149
102
}
330
149
100
DictionaryVariables
280
     0
  1
1:1
  0
ENDSEC
  0
EOF
