  0
SECTION
  2
HEADER
  9
$ACADVER
  1
AC1015
  9
$ACADMAINTVER
 70
     6
  9
$DWGCODEPAGE
  3
ANSI_1252
  9
$INSBASE
 10
0.0
 20
0.0
 30
0.0
  9
$EXTMIN
 10
34.1182196478697
 20
252.7383230728
 30
0.0
  9
$EXTMAX
 10
250.01919805441
 20
381.744460048464
 30
0.0
  9
$LIMMIN
 10
0.0
 20
0.0
  9
$LIMMAX
 10
12.0
 20
9.0
  9
$ORTHOMODE
 70
     0
  9
$REGENMODE
 70
     1
  9
$FILLMODE
 70
     1
  9
$QTEXTMODE
 70
     0
  9
$MIRRTEXT
 70
     1
  9
$LTSCALE
 40
1.0
  9
$ATTMODE
 70
     1
  9
$TEXTSIZE
 40
0.2
  9
$TRACEWID
 40
0.05
  9
$TEXTSTYLE
  7
Standard
  9
$CLAYER
  8
0
  9
$CELTYPE
  6
ByLayer
  9
$CECOLOR
 62
   256
  9
$CELTSCALE
 40
1.0
  9
$DISPSILH
 70
     0
  9
$DIMSCALE
 40
1.0
  9
$DIMASZ
 40
0.18
  9
$DIMEXO
 40
0.0625
  9
$DIMDLI
 40
0.38
  9
$DIMRND
 40
0.0
  9
$DIMDLE
 40
0.0
  9
$DIMEXE
 40
0.18
  9
$DIMTP
 40
0.0
  9
$DIMTM
 40
0.0
  9
$DIMTXT
 40
0.18
  9
$DIMCEN
 40
0.09
  9
$DIMTSZ
 40
0.0
  9
$DIMTOL
 70
     0
  9
$DIMLIM
 70
     0
  9
$DIMTIH
 70
     1
  9
$DIMTOH
 70
     1
  9
$DIMSE1
 70
     0
  9
$DIMSE2
 70
     0
  9
$DIMTAD
 70
     0
  9
$DIMZIN
 70
     0
  9
$DIMBLK
  1

  9
$DIMASO
 70
     1
  9
$DIMSHO
 70
     1
  9
$DIMPOST
  1

  9
$DIMAPOST
  1

  9
$DIMALT
 70
     0
  9
$DIMALTD
 70
     2
  9
$DIMALTF
 40
25.4
  9
$DIMLFAC
 40
1.0
  9
$DIMTOFL
 70
     0
  9
$DIMTVP
 40
0.0
  9
$DIMTIX
 70
     0
  9
$DIMSOXD
 70
     0
  9
$DIMSAH
 70
     0
  9
$DIMBLK1
  1

  9
$DIMBLK2
  1

  9
$DIMSTYLE
  2
Standard
  9
$DIMCLRD
 70
     0
  9
$DIMCLRE
 70
     0
  9
$DIMCLRT
 70
     0
  9
$DIMTFAC
 40
1.0
  9
$DIMGAP
 40
0.09
  9
$DIMJUST
 70
     0
  9
$DIMSD1
 70
     0
  9
$DIMSD2
 70
     0
  9
$DIMTOLJ
 70
     1
  9
$DIMTZIN
 70
     0
  9
$DIMALTZ
 70
     0
  9
$DIMALTTZ
 70
     0
  9
$DIMUPT
 70
     0
  9
$DIMDEC
 70
     4
  9
$DIMTDEC
 70
     4
  9
$DIMALTU
 70
     2
  9
$DIMALTTD
 70
     2
  9
$DIMTXSTY
  7
Standard
  9
$DIMAUNIT
 70
     0
  9
$DIMADEC
 70
     0
  9
$DIMALTRND
 40
0.0
  9
$DIMAZIN
 70
     0
  9
$DIMDSEP
 70
    46
  9
$DIMATFIT
 70
     3
  9
$DIMFRAC
 70
     0
  9
$DIMLDRBLK
  1

  9
$DIMLUNIT
 70
     2
  9
$DIMLWD
 70
    -2
  9
$DIMLWE
 70
    -2
  9
$DIMTMOVE
 70
     0
  9
$LUNITS
 70
     2
  9
$LUPREC
 70
     4
  9
$SKETCHINC
 40
0.1
  9
$FILLETRAD
 40
0.5
  9
$AUNITS
 70
     0
  9
$AUPREC
 70
     0
  9
$MENU
  1
.
  9
$ELEVATION
 40
0.0
  9
$PELEVATION
 40
0.0
  9
$THICKNESS
 40
0.0
  9
$LIMCHECK
 70
     0
  9
$CHAMFERA
 40
0.5
  9
$CHAMFERB
 40
0.5
  9
$CHAMFERC
 40
1.0
  9
$CHAMFERD
 40
0.0
  9
$SKPOLY
 70
     0
  9
$TDCREATE
 40
2456748.736774815
  9
$TDUCREATE
 40
2456748.653441481
  9
$TDUPDATE
 40
2456748.736774826
  9
$TDUUPDATE
 40
2456748.653441493
  9
$TDINDWG
 40
0.0000000116
  9
$TDUSRTIMER
 40
0.0000000116
  9
$USRTIMER
 70
     1
  9
$ANGBASE
 50
0.0
  9
$ANGDIR
 70
     0
  9
$PDMODE
 70
     0
  9
$PDSIZE
 40
0.0
  9
$PLINEWID
 40
0.0
  9
$SPLFRAME
 70
     0
  9
$SPLINETYPE
 70
     6
  9
$SPLINESEGS
 70
     8
  9
$HANDSEED
  5
151
  9
$SURFTAB1
 70
     6
  9
$SURFTAB2
 70
     6
  9
$SURFTYPE
 70
     6
  9
$SURFU
 70
     6
  9
$SURFV
 70
     6
  9
$UCSBASE
  2

  9
$UCSNAME
  2

  9
$UCSORG
 10
0.0
 20
0.0
 30
0.0
  9
$UCSXDIR
 10
1.0
 20
0.0
 30
0.0
  9
$UCSYDIR
 10
0.0
 20
1.0
 30
0.0
  9
$UCSORTHOREF
  2

  9
$UCSORTHOVIEW
 70
     0
  9
$UCSORGTOP
 10
0.0
 20
0.0
 30
0.0
  9
$UCSORGBOTTOM
 10
0.0
 20
0.0
 30
0.0
  9
$UCSORGLEFT
 10
0.0
 20
0.0
 30
0.0
  9
$UCSORGRIGHT
 10
0.0
 20
0.0
 30
0.0
  9
$UCSORGFRONT
 10
0.0
 20
0.0
 30
0.0
  9
$UCSORGBACK
 10
0.0
 20
0.0
 30
0.0
  9
$PUCSBASE
  2

  9
$PUCSNAME
  2

  9
$PUCSORG
 10
0.0
 20
0.0
 30
0.0
  9
$PUCSXDIR
 10
1.0
 20
0.0
 30
0.0
  9
$PUCSYDIR
 10
0.0
 20
1.0
 30
0.0
  9
$PUCSORTHOREF
  2

  9
$PUCSORTHOVIEW
 70
     0
  9
$PUCSORGTOP
 10
0.0
 20
0.0
 30
0.0
  9
$PUCSORGBOTTOM
 10
0.0
 20
0.0
 30
0.0
  9
$PUCSORGLEFT
 10
0.0
 20
0.0
 30
0.0
  9
$PUCSORGRIGHT
 10
0.0
 20
0.0
 30
0.0
  9
$PUCSORGFRONT
 10
0.0
 20
0.0
 30
0.0
  9
$PUCSORGBACK
 10
0.0
 20
0.0
 30
0.0
  9
$USERI1
 70
     0
  9
$USERI2
 70
     0
  9
$USERI3
 70
     0
  9
$USERI4
 70
     0
  9
$USERI5
 70
     0
  9
$USERR1
 40
16.5
  9
$USERR2
 40
0.0
  9
$USERR3
 40
0.0
  9
$USERR4
 40
0.0
  9
$USERR5
 40
0.0
  9
$WORLDVIEW
 70
     1
  9
$SHADEDGE
 70
     3
  9
$SHADEDIF
 70
    70
  9
$TILEMODE
 70
     1
  9
$MAXACTVP
 70
    64
  9
$PINSBASE
 10
0.0
 20
0.0
 30
0.0
  9
$PLIMCHECK
 70
     0
  9
$PEXTMIN
 10
1.00000000000000E+20
 20
1.00000000000000E+20
 30
1.00000000000000E+20
  9
$PEXTMAX
 10
-1.00000000000000E+20
 20
-1.00000000000000E+20
 30
-1.00000000000000E+20
  9
$PLIMMIN
 10
0.0
 20
0.0
  9
$PLIMMAX
 10
12.0
 20
9.0
  9
$UNITMODE
 70
     0
  9
$VISRETAIN
 70
     1
  9
$PLINEGEN
 70
     0
  9
$PSLTSCALE
 70
     1
  9
$TREEDEPTH
 70
  3020
  9
$CMLSTYLE
  2
Standard
  9
$CMLJUST
 70
     0
  9
$CMLSCALE
 40
1.0
  9
$PROXYGRAPHICS
 70
     1
  9
$MEASUREMENT
 70
     1
  9
$CELWEIGHT
370
    -1
  9
$ENDCAPS
280
     0
  9
$JOINSTYLE
280
     0
  9
$LWDISPLAY
290
     0
  9
$INSUNITS
 70
     1
  9
$HYPERLINKBASE
  1

  9
$STYLESHEET
  1

  9
$XEDIT
290
     1
  9
$CEPSNTYPE
380
     0
  9
$PSTYLEMODE
290
     1
  9
$FINGERPRINTGUID
  2
{6DA12B30-3E4A-489D-9E7A-C783250BDF30}
  9
$VERSIONGUID
  2
{FAEB1C32-E019-11D5-929B-00C0DF256EC4}
  9
$EXTNAMES
290
     1
  9
$PSVPSCALE
 40
0.0
  9
$OLESTARTUP
290
     0
  0
ENDSEC
  0
SECTION
  2
CLASSES
  0
CLASS
  1
ACDBDICTIONARYWDFLT
  2
AcDbDictionaryWithDefault
  3
ObjectDBX Classes
 90
        0
280
     0
281
     0
  0
CLASS
  1
VISUALSTYLE
  2
AcDbVisualStyle
  3
ObjectDBX Classes
 90
     4095
280
     0
281
     0
  0
CLASS
  1
SCALE
  2
AcDbScale
  3
ObjectDBX Classes
 90
     1153
280
     0
281
     0
  0
CLASS
  1

  2
exOdDbPolyline
  3

 90
        0
280
     0
281
     1
  0
CLASS
  1

  2
exOdDbCircle
  3

 90
        0
280
     0
281
     1
  0
CLASS
  1

  2
exOdDbSpline
  3

 90
        0
280
     0
281
     1
  0
CLASS
  1
DICTIONARYVAR
  2
AcDbDictionaryVar
  3
ObjectDBX Classes
 90
        0
280
     0
281
     0
  0
CLASS
  1
ACDBPLACEHOLDER
  2
AcDbPlaceHolder
  3
ObjectDBX Classes
 90
        0
280
     0
281
     0
  0
CLASS
  1
LAYOUT
  2
AcDbLayout
  3
ObjectDBX Classes
 90
        0
280
     0
281
     0
  0
ENDSEC
  0
SECTION
  2
TABLES
  0
TABLE
  2
VPORT
  5
8
330
0
100
AcDbSymbolTable
 70
     1
  0
VPORT
  5
29
330
8
100
AcDbSymbolTableRecord
100
AcDbViewportTableRecord
  2
*Active
 70
     0
 10
0.0
 20
0.0
 11
1.0
 21
1.0
 12
142.0687088511399
 22
317.241391560632
 13
0.0
 23
0.0
 14
0.5
 24
0.5
 15
0.5
 25
0.5
 16
0.0
 26
0.0
 36
1.0
 17
0.0
 27
0.0
 37
0.0
 40
148.183847017748
 41
1.60267857142857
 42
50.0
 43
0.0
 44
0.0
 50
0.0
 51
0.0
 71
     0
 72
   100
 73
     1
 74
     3
 75
     0
 76
     0
 77
     0
 78
     0
281
     0
 65
     1
110
0.0
120
0.0
130
0.0
111
1.0
121
0.0
131
0.0
112
0.0
122
1.0
132
0.0
 79
     0
146
0.0
  0
ENDTAB
  0
TABLE
  2
LTYPE
  5
5
330
0
100
AcDbSymbolTable
 70
     8
  0
LTYPE
  5
14
330
5
100
AcDbSymbolTableRecord
100
AcDbLinetypeTableRecord
  2
ByBlock
 70
     0
  3

 72
    65
 73
     0
 40
0.0
  0
LTYPE
  5
15
330
5
100
AcDbSymbolTableRecord
100
AcDbLinetypeTableRecord
  2
ByLayer
 70
     0
  3

 72
    65
 73
     0
 40
0.0
  0
LTYPE
  5
16
330
5
100
AcDbSymbolTableRecord
100
AcDbLinetypeTableRecord
  2
Continuous
 70
     0
  3
Solid line
 72
    65
 73
     0
 40
0.0
  0
LTYPE
  5
3B
330
5
100
AcDbSymbolTableRecord
100
AcDbLinetypeTableRecord
  2
DASHED
 70
     0
  3
Dashed
 72
    65
 73
     2
 40
15.0
 49
7.0
 74
     0
 49
-8.0
 74
     0
  0
LTYPE
  5
3C
330
5
100
AcDbSymbolTableRecord
100
AcDbLinetypeTableRecord
  2
DOTTED
 70
     0
  3
Dotted
 72
    65
 73
     2
 40
1.0
 49
0.0
 74
     0
 49
-1.0
 74
     0
  0
LTYPE
  5
3D
330
5
100
AcDbSymbolTableRecord
100
AcDbLinetypeTableRecord
  2
DOT_CENTER
 70
     0
  3
Dot_Center
 72
    65
 73
     4
 40
14.0
 49
12.0
 74
     0
 49
-1.0
 74
     0
 49
0.0
 74
     0
 49
-1.0
 74
     0
  0
LTYPE
  5
3E
330
5
100
AcDbSymbolTableRecord
100
AcDbLinetypeTableRecord
  2
LONG_DASHED
 70
     0
  3
Long_Dashed
 72
    65
 73
     2
 40
15.0
 49
10.0
 74
     0
 49
-5.0
 74
     0
  0
LTYPE
  5
3F
330
5
100
AcDbSymbolTableRecord
100
AcDbLinetypeTableRecord
  2
DASH_CENTER
 70
     0
  3
Dash_Center
 72
    65
 73
     4
 40
14.0
 49
11.0
 74
     0
 49
-1.0
 74
     0
 49
1.0
 74
     0
 49
-1.0
 74
     0
  0
LTYPE
  5
40
330
5
100
AcDbSymbolTableRecord
100
AcDbLinetypeTableRecord
  2
PHANTOM
 70
     0
  3
Phantom
 72
    65
 73
     6
 40
13.0
 49
10.0
 74
     0
 49
-1.0
 74
     0
 49
0.0
 74
     0
 49
-1.0
 74
     0
 49
0.0
 74
     0
 49
-1.0
 74
     0
  0
LTYPE
  5
41
330
5
100
AcDbSymbolTableRecord
100
AcDbLinetypeTableRecord
  2
CENTER_DASH_DASH
 70
     0
  3
Center_Dash_Dash
 72
    65
 73
     6
 40
14.0
 49
9.0
 74
     0
 49
-1.0
 74
     0
 49
1.0
 74
     0
 49
-1.0
 74
     0
 49
1.0
 74
     0
 49
-1.0
 74
     0
  0
ENDTAB
  0
TABLE
  2
LAYER
  5
2
330
0
100
AcDbSymbolTable
 70
     7
  0
LAYER
  5
10
330
2
100
AcDbSymbolTableRecord
100
AcDbLayerTableRecord
  2
0
 70
     0
 62
     7
  6
Continuous
370
    -3
390
F
  0
LAYER
  5
42
330
2
100
AcDbSymbolTableRecord
100
AcDbLayerTableRecord
  2
1
 70
     0
 62
     7
  6
Continuous
370
    -3
390
F
  0
LAYER
  5
43
330
2
100
AcDbSymbolTableRecord
100
AcDbLayerTableRecord
  2
BEZUGSACHSEN
 70
     0
 62
     7
  6
Continuous
370
    -3
390
F
  0
LAYER
  5
44
330
2
100
AcDbSymbolTableRecord
100
AcDbLayerTableRecord
  2
DEFAULT_2
 70
     0
 62
     7
  6
Continuous
370
    -3
390
F
  0
LAYER
  5
45
330
2
100
AcDbSymbolTableRecord
100
AcDbLayerTableRecord
  2
FASEN
 70
     0
 62
     7
  6
Continuous
370
    -3
390
F
  0
LAYER
  5
46
330
2
100
AcDbSymbolTableRecord
100
AcDbLayerTableRecord
  2
GEWINDE
 70
     0
 62
     7
  6
Continuous
370
    -3
390
F
  0
LAYER
  5
47
330
2
100
AcDbSymbolTableRecord
100
AcDbLayerTableRecord
  2
RUNDUNGEN
 70
     0
 62
     7
  6
Continuous
370
    -3
390
F
  0
ENDTAB
  0
TABLE
  2
STYLE
  5
3
330
0
100
AcDbSymbolTable
 70
     2
  0
STYLE
  5
11
330
3
100
AcDbSymbolTableRecord
100
AcDbTextStyleTableRecord
  2
Standard
 70
     0
 40
0.0
 41
1.0
 50
0.0
 71
     0
 42
0.2
  3
txt
  4

  0
STYLE
  5
6E
330
3
100
AcDbSymbolTableRecord
100
AcDbTextStyleTableRecord
  2
CONVERTER_11
 70
     0
 40
0.0
 41
0.72
 50
0.0
 71
     0
 42
0.2
  3
txt.shx
  4

  0
ENDTAB
  0
TABLE
  2
VIEW
  5
6
330
0
100
AcDbSymbolTable
 70
     0
  0
ENDTAB
  0
TABLE
  2
UCS
  5
7
330
0
100
AcDbSymbolTable
 70
     0
  0
ENDTAB
  0
TABLE
  2
APPID
  5
9
330
0
100
AcDbSymbolTable
 70
     1
  0
APPID
  5
12
330
9
100
AcDbSymbolTableRecord
100
AcDbRegAppTableRecord
  2
ACAD
 70
     0
  0
ENDTAB
  0
TABLE
  2
DIMSTYLE
  5
A
330
0
100
AcDbSymbolTable
 70
     6
100
AcDbDimStyleTable
  0
DIMSTYLE
105
27
330
A
100
AcDbSymbolTableRecord
100
AcDbDimStyleTableRecord
  2
Standard
 70
     0
340
11
  0
DIMSTYLE
105
118
102
{ACAD_REACTORS
330
119
102
}
330
A
100
AcDbSymbolTableRecord
100
AcDbDimStyleTableRecord
  2
ME10_DIM_10
 70
     0
  3
<>
 41
3.5
 42
2.0
 44
2.0
 71
     1
 73
     0
 74
     0
 77
     1
 78
     8
140
3.5
146
0.7
147
2.0
172
     1
173
     1
176
     2
177
     2
178
     3
271
     2
272
     0
340
6E
  0
DIMSTYLE
105
123
102
{ACAD_REACTORS
330
124
102
}
330
A
100
AcDbSymbolTableRecord
100
AcDbDimStyleTableRecord
  2
ME10_DIM_11
 70
     0
  3
<>
 41
3.5
 42
2.0
 44
2.0
 71
     1
 73
     0
 74
     0
 77
     1
 78
     8
140
3.5
146
0.7
147
2.0
172
     1
173
     1
176
     2
177
     2
178
     3
271
     2
272
     0
340
6E
  0
DIMSTYLE
105
12E
102
{ACAD_REACTORS
330
12F
102
}
330
A
100
AcDbSymbolTableRecord
100
AcDbDimStyleTableRecord
  2
ME10_DIM_12
 70
     0
  3
<>
 41
3.5
 42
2.0
 44
2.0
 71
     1
 73
     0
 74
     0
 77
     1
 78
     8
140
3.5
146
0.7
147
2.0
172
     1
173
     1
176
     2
177
     2
178
     3
271
     2
272
     0
340
6E
  0
DIMSTYLE
105
139
102
{ACAD_REACTORS
330
13A
102
}
330
A
100
AcDbSymbolTableRecord
100
AcDbDimStyleTableRecord
  2
ME10_DIM_13
 70
     0
  3
\U+2300<>
 41
3.5
 42
2.0
 44
2.0
 71
     1
 73
     0
 74
     0
 77
     1
 78
     8
140
3.5
146
0.7
147
2.0
172
     1
173
     1
176
     2
177
     2
178
     3
271
     2
272
     0
340
6E
  0
DIMSTYLE
105
144
102
{ACAD_REACTORS
330
145
102
}
330
A
100
AcDbSymbolTableRecord
100
AcDbDimStyleTableRecord
  2
ME10_DIM_14
 70
     0
  3
\U+2300<>
 41
3.5
 42
2.0
 44
2.0
 71
     1
 73
     0
 74
     0
 77
     1
 78
     8
140
3.5
146
0.7
147
2.0
172
     1
173
     1
176
     2
177
     2
178
     3
271
     2
272
     0
340
6E
  0
ENDTAB
  0
TABLE
  2
BLOCK_RECORD
  5
1
330
0
100
AcDbSymbolTable
 70
     8
  0
BLOCK_RECORD
  5
1F
330
1
100
AcDbSymbolTableRecord
100
AcDbBlockTableRecord
  2
*Model_Space
340
22
  0
BLOCK_RECORD
  5
1B
330
1
100
AcDbSymbolTableRecord
100
AcDbBlockTableRecord
  2
*Paper_Space
340
1E
  0
BLOCK_RECORD
  5
23
330
1
100
AcDbSymbolTableRecord
100
AcDbBlockTableRecord
  2
*Paper_Space0
340
26
  0
BLOCK_RECORD
  5
48
330
1
100
AcDbSymbolTableRecord
100
AcDbBlockTableRecord
  2
Urheberrecht_DE-EN
340
0
102
{BLKREFS
331
6D
102
}
  0
BLOCK_RECORD
  5
10F
330
1
100
AcDbSymbolTableRecord
100
AcDbBlockTableRecord
  2
*D2
340
0
  0
BLOCK_RECORD
  5
11A
330
1
100
AcDbSymbolTableRecord
100
AcDbBlockTableRecord
  2
*D3
340
0
  0
BLOCK_RECORD
  5
125
330
1
100
AcDbSymbolTableRecord
100
AcDbBlockTableRecord
  2
*D4
340
0
  0
BLOCK_RECORD
  5
130
330
1
100
AcDbSymbolTableRecord
100
AcDbBlockTableRecord
  2
*D5
340
0
  0
BLOCK_RECORD
  5
13B
330
1
100
AcDbSymbolTableRecord
100
AcDbBlockTableRecord
  2
*D6
340
0
  0
BLOCK_RECORD
  5
146
330
1
100
AcDbSymbolTableRecord
100
AcDbBlockTableRecord
  2
*D7
340
0
102
{BLKREFS
331
14C
102
}
  0
ENDTAB
  0
ENDSEC
  0
SECTION
  2
BLOCKS
  0
BLOCK
  5
20
330
1F
100
AcDbEntity
  8
0
100
AcDbBlockBegin
  2
*Model_Space
 70
     0
 10
0.0
 20
0.0
 30
0.0
  3
*Model_Space
  1

  0
ENDBLK
  5
21
330
1F
100
AcDbEntity
  8
0
100
AcDbBlockEnd
  0
BLOCK
  5
1C
330
1B
100
AcDbEntity
 67
     1
  8
0
100
AcDbBlockBegin
  2
*Paper_Space
 70
     0
 10
0.0
 20
0.0
 30
0.0
  3
*Paper_Space
  1

  0
ENDBLK
  5
1D
330
1B
100
AcDbEntity
 67
     1
  8
0
100
AcDbBlockEnd
  0
BLOCK
  5
24
330
23
100
AcDbEntity
  8
0
100
AcDbBlockBegin
  2
*Paper_Space0
 70
     0
 10
0.0
 20
0.0
 30
0.0
  3
*Paper_Space0
  1

  0
ENDBLK
  5
25
330
23
100
AcDbEntity
  8
0
100
AcDbBlockEnd
  0
BLOCK
  5
49
330
48
100
AcDbEntity
  8
0
100
AcDbBlockBegin
  2
Urheberrecht_DE-EN
 70
     0
 10
48.1182196478697
 20
317.827850059314
 30
0.0
  3
Urheberrecht_DE-EN
  1

  0
MTEXT
  5
6F
330
48
100
AcDbEntity
  8
1
 62
     1
100
AcDbMText
 10
48.1182196478697
 20
261.5384631420078
 30
0.0
 40
2.0
 41
0.0
 71
     7
 72
     1
  1
F\U+00fcr diese Unterlage behalten wir das Ur-\Pheberrecht. Sie darf nur f\U+00fcr den von uns \Pbestimmten Zweck benutzt und ohne unsere \PZustimmung weder vervielf\U+00e4ltigt noch\PDritten zug\U+00e4nglich gemacht werden.
  7
CONVERTER_11
 11
0.0
 21
1.0
 31
0.0
 73
     1
 44
0.90036014405762
  0
MTEXT
  5
70
330
48
100
AcDbEntity
  8
1
 62
     1
100
AcDbMText
 10
48.1182196478697
 20
317.827850059314
 30
0.0
 40
2.0
 41
0.0
 71
     7
 72
     1
  1
We own the copyright of this document. It \Pdetermined and may neither be copied or \Pmade accessible to outsiders without our\Ppermission.
  7
CONVERTER_11
 11
0.0
 21
1.0
 31
0.0
 73
     1
 44
0.90036014405762
  0
ENDBLK
  5
4A
330
48
100
AcDbEntity
  8
0
100
AcDbBlockEnd
  0
BLOCK
  5
116
330
10F
100
AcDbEntity
  8
0
100
AcDbBlockBegin
  2
*D2
 70
     1
 10
0.0
 20
0.0
 30
0.0
  3
*D2
  1

  0
LINE
  5
110
330
10F
100
AcDbEntity
  8
1
  6
Continuous
 62
     2
100
AcDbLine
 10
228.4751070664
 20
376.244460048464
 30
0.0
 11
58.4751070664
 21
376.244460048464
 31
0.0
  0
LINE
  5
111
330
10F
100
AcDbEntity
  8
1
  6
Continuous
 62
     2
100
AcDbLine
 10
228.4751070664
 20
327.3241095104
 30
0.0
 11
228.4751070664
 21
378.244460048464
 31
0.0
  0
LINE
  5
112
330
10F
100
AcDbEntity
  8
1
  6
Continuous
 62
     2
100
AcDbLine
 10
58.4751070664
 20
338.3385146354
 30
0.0
 11
58.4751070664
 21
378.244460048464
 31
0.0
  0
SOLID
  5
113
330
10F
100
AcDbEntity
  8
1
 62
     2
100
AcDbTrace
 10
224.9751070664
 20
375.7836763069081
 30
0.0
 11
224.9751070664
 21
376.7052437900199
 31
0.0
 12
228.4751070664
 22
376.244460048464
 32
0.0
 13
228.4751070664
 23
376.244460048464
 33
0.0
  0
SOLID
  5
114
330
10F
100
AcDbEntity
  8
1
 62
     2
100
AcDbTrace
 10
61.9751070664
 20
376.7052437900199
 30
0.0
 11
61.9751070664
 21
375.7836763069081
 31
0.0
 12
58.4751070664
 22
376.244460048464
 32
0.0
 13
58.4751070664
 23
376.244460048464
 33
0.0
  0
MTEXT
  5
115
330
10F
100
AcDbEntity
  8
1
 62
     3
100
AcDbMText
 10
151.530280715019
 20
378.244460048464
 30
0.0
 40
3.5
 41
0.0
 71
     7
 72
     1
  1
\C3;\C3;\C3;170\C2;\H2.45;\S^ ;\C3;
  7
CONVERTER_11
 11
0.9999999999970619
 21
2.424068405545306E-6
 31
0.0
 73
     1
 44
0.60024009603842
  0
ENDBLK
  5
117
330
10F
100
AcDbEntity
  8
0
100
AcDbBlockEnd
  0
BLOCK
  5
121
330
11A
100
AcDbEntity
  8
0
100
AcDbBlockBegin
  2
*D3
 70
     1
 10
0.0
 20
0.0
 30
0.0
  3
*D3
  1

  0
LINE
  5
11B
330
11A
100
AcDbEntity
  8
1
  6
Continuous
 62
     2
100
AcDbLine
 10
228.4751070664
 20
368.386209556087
 30
0.0
 11
108.4751070664
 21
368.386209556087
 31
0.0
  0
LINE
  5
11C
330
11A
100
AcDbEntity
  8
1
  6
Continuous
 62
     2
100
AcDbLine
 10
228.4751070664
 20
327.3241095104
 30
0.0
 11
228.4751070664
 21
370.386209556087
 31
0.0
  0
LINE
  5
11D
330
11A
100
AcDbEntity
  8
1
  6
Continuous
 62
     2
100
AcDbLine
 10
108.4751070664
 20
354.7383230728
 30
0.0
 11
108.4751070664
 21
370.386209556087
 31
0.0
  0
SOLID
  5
11E
330
11A
100
AcDbEntity
  8
1
 62
     2
100
AcDbTrace
 10
224.9751070664
 20
367.9254258145311
 30
0.0
 11
224.9751070664
 21
368.8469932976429
 31
0.0
 12
228.4751070664
 22
368.386209556087
 32
0.0
 13
228.4751070664
 23
368.386209556087
 33
0.0
  0
SOLID
  5
11F
330
11A
100
AcDbEntity
  8
1
 62
     2
100
AcDbTrace
 10
111.9751070664
 20
368.8469932976429
 30
0.0
 11
111.9751070664
 21
367.9254258145311
 31
0.0
 12
108.4751070664
 22
368.386209556087
 32
0.0
 13
108.4751070664
 23
368.386209556087
 33
0.0
  0
MTEXT
  5
120
330
11A
100
AcDbEntity
  8
1
 62
     3
100
AcDbMText
 10
167.794973876542
 20
370.386209556087
 30
0.0
 40
3.5
 41
0.0
 71
     7
 72
     1
  1
\C3;\C3;\C3;120\C2;\H2.45;\S^ ;\C3;
  7
CONVERTER_11
 11
0.9999999999970619
 21
2.424068405545306E-6
 31
0.0
 73
     1
 44
0.60024009603842
  0
ENDBLK
  5
122
330
11A
100
AcDbEntity
  8
0
100
AcDbBlockEnd
  0
BLOCK
  5
12C
330
125
100
AcDbEntity
  8
0
100
AcDbBlockBegin
  2
*D4
 70
     1
 10
0.0
 20
0.0
 30
0.0
  3
*D4
  1

  0
LINE
  5
126
330
125
100
AcDbEntity
  8
1
  6
Continuous
 62
     2
100
AcDbLine
 10
228.4751070664
 20
361.32710318158
 30
0.0
 11
137.4751070664
 21
361.32710318158
 31
0.0
  0
LINE
  5
127
330
125
100
AcDbEntity
  8
1
  6
Continuous
 62
     2
100
AcDbLine
 10
228.4751070664
 20
327.3241095104
 30
0.0
 11
228.4751070664
 21
363.32710318158
 31
0.0
  0
LINE
  5
128
330
125
100
AcDbEntity
  8
1
  6
Continuous
 62
     2
100
AcDbLine
 10
137.4751070664
 20
354.7382861517
 30
0.0
 11
137.4751070664
 21
363.32710318158
 31
0.0
  0
SOLID
  5
129
330
125
100
AcDbEntity
  8
1
 62
     2
100
AcDbTrace
 10
224.9751070664
 20
360.8663194400241
 30
0.0
 11
224.9751070664
 21
361.7878869231359
 31
0.0
 12
228.4751070664
 22
361.32710318158
 32
0.0
 13
228.4751070664
 23
361.32710318158
 33
0.0
  0
SOLID
  5
12A
330
125
100
AcDbEntity
  8
1
 62
     2
100
AcDbTrace
 10
140.9751070664
 20
361.7878869231359
 30
0.0
 11
140.9751070664
 21
360.8663194400241
 31
0.0
 12
137.4751070664
 22
361.32710318158
 32
0.0
 13
137.4751070664
 23
361.32710318158
 33
0.0
  0
MTEXT
  5
12B
330
125
100
AcDbEntity
  8
1
 62
     3
100
AcDbMText
 10
180.3174253979346
 20
363.32710318158
 30
0.0
 40
3.5
 41
0.0
 71
     7
 72
     1
  1
\C3;\C3;\C3;91\C2;\H2.45;\S^ ;\C3;
  7
CONVERTER_11
 11
0.9999999999970619
 21
2.424068405545306E-6
 31
0.0
 73
     1
 44
0.60024009603842
  0
ENDBLK
  5
12D
330
125
100
AcDbEntity
  8
0
100
AcDbBlockEnd
  0
BLOCK
  5
137
330
130
100
AcDbEntity
  8
0
100
AcDbBlockBegin
  2
*D5
 70
     1
 10
0.0
 20
0.0
 30
0.0
  3
*D5
  1

  0
LINE
  5
131
330
130
100
AcDbEntity
  8
1
  6
Continuous
 62
     2
100
AcDbLine
 10
248.01919805441
 20
335.2383230728
 30
0.0
 11
248.01919805441
 21
270.2383230728
 31
0.0
  0
LINE
  5
132
330
130
100
AcDbEntity
  8
1
  6
Continuous
 62
     2
100
AcDbLine
 10
220.560893504
 20
335.2383230728
 30
0.0
 11
250.01919805441
 21
335.2383230728
 31
0.0
  0
LINE
  5
133
330
130
100
AcDbEntity
  8
1
  6
Continuous
 62
     2
100
AcDbLine
 10
220.560893504
 20
270.2383230728
 30
0.0
 11
250.01919805441
 21
270.2383230728
 31
0.0
  0
SOLID
  5
134
330
130
100
AcDbEntity
  8
1
 62
     2
100
AcDbTrace
 10
248.4799817959659
 20
331.7383230728
 30
0.0
 11
247.5584143128541
 21
331.7383230728
 31
0.0
 12
248.01919805441
 22
335.2383230728
 32
0.0
 13
248.01919805441
 23
335.2383230728
 33
0.0
  0
SOLID
  5
135
330
130
100
AcDbEntity
  8
1
 62
     2
100
AcDbTrace
 10
247.5584143128541
 20
273.7383230728
 30
0.0
 11
248.4799817959659
 21
273.7383230728
 31
0.0
 12
248.01919805441
 22
270.2383230728
 32
0.0
 13
248.01919805441
 23
270.2383230728
 33
0.0
  0
MTEXT
  5
136
330
130
100
AcDbEntity
  8
1
 62
     3
100
AcDbMText
 10
246.01919805441
 20
294.134582577157
 30
0.0
 40
3.5
 41
0.0
 71
     7
 72
     1
  1
\C3;%%c\C3;\C3;65\C2;\H2.45;\S^ ;\C3;
  7
CONVERTER_11
 11
0.0
 21
1.0
 31
0.0
 73
     1
 44
0.60024009603842
  0
ENDBLK
  5
138
330
130
100
AcDbEntity
  8
0
100
AcDbBlockEnd
  0
BLOCK
  5
142
330
13B
100
AcDbEntity
  8
0
100
AcDbBlockBegin
  2
*D6
 70
     1
 10
0.0
 20
0.0
 30
0.0
  3
*D6
  1

  0
LINE
  5
13C
330
13B
100
AcDbEntity
  8
1
  6
Continuous
 62
     2
100
AcDbLine
 10
239.494994130476
 20
315.2383230728
 30
0.0
 11
239.494994130476
 21
290.2383230728
 31
0.0
  0
LINE
  5
13D
330
13B
100
AcDbEntity
  8
1
  6
Continuous
 62
     2
100
AcDbLine
 10
230.4751070664
 20
315.2383230728
 30
0.0
 11
241.494994130476
 21
315.2383230728
 31
0.0
  0
LINE
  5
13E
330
13B
100
AcDbEntity
  8
1
  6
Continuous
 62
     2
100
AcDbLine
 10
230.4751070664
 20
290.2383230728
 30
0.0
 11
241.494994130476
 21
290.2383230728
 31
0.0
  0
SOLID
  5
13F
330
13B
100
AcDbEntity
  8
1
 62
     2
100
AcDbTrace
 10
239.9557778720319
 20
311.7383230728
 30
0.0
 11
239.0342103889201
 21
311.7383230728
 31
0.0
 12
239.494994130476
 22
315.2383230728
 32
0.0
 13
239.494994130476
 23
315.2383230728
 33
0.0
  0
SOLID
  5
140
330
13B
100
AcDbEntity
  8
1
 62
     2
100
AcDbTrace
 10
239.0342103889201
 20
293.7383230728
 30
0.0
 11
239.9557778720319
 21
293.7383230728
 31
0.0
 12
239.494994130476
 22
290.2383230728
 32
0.0
 13
239.494994130476
 23
290.2383230728
 33
0.0
  0
MTEXT
  5
141
330
13B
100
AcDbEntity
  8
1
 62
     3
100
AcDbMText
 10
237.494994130476
 20
293.335438459288
 30
0.0
 40
3.5
 41
0.0
 71
     7
 72
     1
  1
\C3;%%c\C3;\C3;25\C2;\H2.45;\S^ ;\C3;
  7
CONVERTER_11
 11
0.0
 21
1.0
 31
0.0
 73
     1
 44
0.60024009603842
  0
ENDBLK
  5
143
330
13B
100
AcDbEntity
  8
0
100
AcDbBlockEnd
  0
BLOCK
  5
14A
330
146
100
AcDbEntity
  8
0
100
AcDbBlockBegin
  2
*D7
 70
     1
 10
0.0
 20
0.0
 30
0.0
  3
*D7
  1

  0
LINE
  5
147
330
146
100
AcDbEntity
  8
1
  6
Continuous
 62
     2
100
AcDbLine
 10
149.3264033230751
 20
344.5939676401791
 30
0.0
 11
138.2556085733225
 21
337.5558181861471
 31
0.0
  0
SOLID
  5
148
330
146
100
AcDbEntity
  8
1
 62
     2
100
AcDbTrace
 10
140.962046590794
 20
339.82242686743
 30
0.0
 11
141.4564684461595
 21
339.0447163461781
 31
0.0
 12
138.2556085733225
 22
337.5558181861471
 32
0.0
 13
138.2556085733225
 23
337.5558181861471
 33
0.0
  0
MTEXT
  5
149
330
146
100
AcDbEntity
  8
1
 62
     3
100
AcDbMText
 10
141.9916656046869
 20
342.3009297856173
 30
0.0
 40
3.5
 41
0.0
 71
     7
 72
     1
  1
\C3; R\C3;\C3;5\C2;\H2.45;\S^ ;\C3;
  7
CONVERTER_11
 11
0.8438996986155041
 21
0.5365009773305743
 31
0.0
 73
     1
 44
0.60024009603842
  0
ENDBLK
  5
14B
330
146
100
AcDbEntity
  8
0
100
AcDbBlockEnd
  0
ENDSEC
  0
SECTION
  2
ENTITIES
  0
INSERT
  5
6D
330
1F
100
AcDbEntity
  8
0
100
AcDbBlockReference
  2
Urheberrecht_DE-EN
 10
48.1182196478697
 20
317.827850059314
 30
0.0
  0
LINE
  5
71
330
1F
100
AcDbEntity
  8
0
  6
Continuous
 62
     7
100
AcDbLine
 10
190.4799834207906
 20
270.2383230728
 30
0.0
 11
191.4805929650894
 21
270.2383230728
 31
0.0
  0
LINE
  5
72
330
1F
100
AcDbEntity
  8
0
  6
Continuous
 62
     7
100
AcDbLine
 10
191.4805929650894
 20
270.2383230728
 30
0.0
 11
212.4799834207906
 21
270.2383230728
 31
0.0
  0
LINE
  5
73
330
1F
100
AcDbEntity
  8
0
  6
Continuous
 62
     7
100
AcDbLine
 10
213.4805929650894
 20
270.2383230728
 30
0.0
 11
218.560893504
 21
270.2383230728
 31
0.0
  0
LINE
  5
74
330
1F
100
AcDbEntity
  8
0
  6
Continuous
 62
     7
100
AcDbLine
 10
212.4799834207906
 20
270.2383230728
 30
0.0
 11
213.4805929650894
 21
270.2383230728
 31
0.0
  0
LWPOLYLINE
  5
75
330
1F
100
AcDbEntity
  8
DEFAULT_2
  6
DASHED
 62
     8
100
AcDbPolyline
 90
        2
 70
     0
 43
0.35
 10
172.7712057778757
 20
290.2383230728
 10
173.7718153221745
 20
290.2383230728
  0
LWPOLYLINE
  5
76
330
1F
100
AcDbEntity
  8
DEFAULT_2
  6
DASHED
 62
     8
100
AcDbPolyline
 90
        2
 70
     0
 43
0.35
 10
173.7718153221745
 20
290.2383230728
 10
174.4751070664
 20
290.2383230728
  0
LWPOLYLINE
  5
77
330
1F
100
AcDbEntity
  8
DEFAULT_2
  6
DASHED
 62
     8
100
AcDbPolyline
 90
        2
 70
     0
 43
0.35
 10
194.7712057778757
 20
290.2383230728
 10
195.7718153221745
 20
290.2383230728
  0
LWPOLYLINE
  5
78
330
1F
100
AcDbEntity
  8
DEFAULT_2
  6
DASHED
 62
     8
100
AcDbPolyline
 90
        2
 70
     0
 43
0.35
 10
195.7718153221745
 20
290.2383230728
 10
228.4751070664
 20
290.2383230728
  0
LWPOLYLINE
  5
79
330
1F
100
AcDbEntity
  8
GEWINDE
  6
DASHED
 62
     8
100
AcDbPolyline
 90
        2
 70
     0
 43
0.35
 10
190.7821775752545
 20
290.2383230728
 10
191.4805929650894
 20
270.2383230728
  0
LWPOLYLINE
  5
7A
330
1F
100
AcDbEntity
  8
GEWINDE
  6
DASHED
 62
     8
100
AcDbPolyline
 90
        2
 70
     0
 43
0.35
 10
172.7712057778757
 20
290.2383230728
 10
173.4696211677106
 20
270.2383230728
  0
LWPOLYLINE
  5
7B
330
1F
100
AcDbEntity
  8
GEWINDE
  6
DASHED
 62
     8
100
AcDbPolyline
 90
        2
 70
     0
 43
0.35
 10
194.7712057778757
 20
290.2383230728
 10
195.4696211677106
 20
270.2383230728
  0
LWPOLYLINE
  5
7C
330
1F
100
AcDbEntity
  8
GEWINDE
  6
DASHED
 62
     8
100
AcDbPolyline
 90
        2
 70
     0
 43
0.35
 10
212.7821775752544
 20
290.2383230728
 10
213.4805929650894
 20
270.2383230728
  0
LINE
  5
7D
330
1F
100
AcDbEntity
  8
RUNDUNGEN
  6
Continuous
 62
     7
100
AcDbLine
 10
228.4751070664
 20
325.3241095104
 30
0.0
 11
228.4751070664
 21
280.1525366352
 31
0.0
  0
LINE
  5
7E
330
1F
100
AcDbEntity
  8
RUNDUNGEN
  6
Continuous
 62
     9
100
AcDbLine
 10
228.1822138476
 20
279.445429854
 30
0.0
 11
228.1822138476
 21
326.0312162916
 31
0.0
  0
LINE
  5
7F
330
1F
100
AcDbEntity
  8
RUNDUNGEN
  6
Continuous
 62
     7
100
AcDbLine
 10
228.1822138476
 20
326.0312162916
 30
0.0
 11
219.2680002852
 21
334.9454298539999
 31
0.0
  0
LINE
  5
80
330
1F
100
AcDbEntity
  8
0
  6
Continuous
 62
     7
100
AcDbLine
 10
219.2680002852
 20
334.9454298539999
 30
0.0
 11
228.1822138476
 21
326.0312162916
 31
0.0
  0
LINE
  5
81
330
1F
100
AcDbEntity
  8
0
  6
Continuous
 62
     7
100
AcDbLine
 10
219.2680002852
 20
270.5312162916
 30
0.0
 11
228.1822138476
 21
279.445429854
 31
0.0
  0
LINE
  5
82
330
1F
100
AcDbEntity
  8
RUNDUNGEN
  6
Continuous
 62
     9
100
AcDbLine
 10
219.2680002852
 20
270.5312162916
 30
0.0
 11
219.2680002852
 21
334.9454298539999
 31
0.0
  0
LINE
  5
83
330
1F
100
AcDbEntity
  8
RUNDUNGEN
  6
Continuous
 62
     9
100
AcDbLine
 10
218.560893504
 20
270.2383230728
 30
0.0
 11
218.560893504
 21
335.2383230728
 31
0.0
  0
LWPOLYLINE
  5
84
330
1F
100
AcDbEntity
  8
GEWINDE
  6
DASHED
 62
     8
100
AcDbPolyline
 90
        2
 70
     0
 43
0.35
 10
211.7815680309556
 20
290.2383230728
 10
212.4799834207906
 20
270.2383230728
  0
LINE
  5
85
330
1F
100
AcDbEntity
  8
BEZUGSACHSEN
  6
Continuous
 62
     7
100
AcDbLine
 10
131.7227023306
 20
352.7383230728
 30
0.0
 11
137.4751070664
 21
352.7383230728
 31
0.0
  0
LINE
  5
86
330
1F
100
AcDbEntity
  8
BEZUGSACHSEN
  6
Continuous
 62
     7
100
AcDbLine
 10
110.4751070664
 20
352.7383230728
 30
0.0
 11
108.4751070664
 21
352.7383230728
 31
0.0
  0
LINE
  5
87
330
1F
100
AcDbEntity
  8
BEZUGSACHSEN
  6
Continuous
 62
     7
100
AcDbLine
 10
125.2275118022
 20
352.7383230728
 30
0.0
 11
120.4751070664
 21
352.7383230728
 31
0.0
  0
LWPOLYLINE
  5
88
330
1F
100
AcDbEntity
  8
GEWINDE
  6
DOT_CENTER
 62
     7
100
AcDbPolyline
 90
        2
 70
     0
 43
0.25
 10
204.5798055565075
 20
267.2401505917427
 10
203.5712888968594
 20
296.1202890974673
  0
LINE
  5
89
330
1F
100
AcDbEntity
  8
BEZUGSACHSEN
  6
Continuous
 62
     7
100
AcDbLine
 10
127.6001070664
 20
348.7383230728
 30
0.0
 11
129.3501070664
 21
348.7383230728
 31
0.0
  0
LWPOLYLINE
  5
8A
330
1F
100
AcDbEntity
  8
GEWINDE
  6
DASHED
 62
     8
100
AcDbPolyline
 90
        2
 70
     0
 43
0.35
 10
195.7718153221745
 20
290.2383230728
 10
196.4702307120094
 20
270.2383230728
  0
LINE
  5
8B
330
1F
100
AcDbEntity
  8
BEZUGSACHSEN
  6
Continuous
 62
     7
100
AcDbLine
 10
107.7745357777
 20
340.4205730728
 30
0.0
 11
106.8531697255
 21
340.4205730728
 31
0.0
  0
LINE
  5
8C
330
1F
100
AcDbEntity
  8
BEZUGSACHSEN
  6
Continuous
 62
     7
100
AcDbLine
 10
105.9751070664
 20
340.6205730728
 30
0.0
 11
60.3750325816
 21
338.3360093411
 31
0.0
  0
LINE
  5
8D
330
1F
100
AcDbEntity
  8
0
  6
Continuous
 62
     7
100
AcDbLine
 10
142.4751070664
 20
335.2383230728
 30
0.0
 11
218.560893504
 21
335.2383230728
 31
0.0
  0
LINE
  5
8E
330
1F
100
AcDbEntity
  8
RUNDUNGEN
  6
Continuous
 62
     7
100
AcDbLine
 10
218.560893504
 20
335.2383230728
 30
0.0
 11
142.4751070664
 21
335.2383230728
 31
0.0
  0
LWPOLYLINE
  5
8F
330
1F
100
AcDbEntity
  8
GEWINDE
  6
DASHED
 62
     8
100
AcDbPolyline
 90
        2
 70
     0
 43
0.35
 10
189.7815680309556
 20
290.2383230728
 10
190.4799834207906
 20
270.2383230728
  0
LINE
  5
90
330
1F
100
AcDbEntity
  8
BEZUGSACHSEN
  6
Continuous
 62
     7
100
AcDbLine
 10
106.5943506804
 20
340.4546472465
 30
0.0
 11
105.9751070664
 21
340.6205730728
 31
0.0
  0
LWPOLYLINE
  5
91
330
1F
100
AcDbEntity
  8
GEWINDE
  6
DOT_CENTER
 62
     7
100
AcDbPolyline
 90
        2
 70
     0
 43
0.25
 10
182.5798055565075
 20
267.2401505917428
 10
181.5712888968593
 20
296.1202890974674
  0
LINE
  5
92
330
1F
100
AcDbEntity
  8
BEZUGSACHSEN
  6
Continuous
 62
     7
100
AcDbLine
 10
125.2275118022
 20
352.7383230728
 30
0.0
 11
126.6001070664
 21
350.360918337
 31
0.0
  0
LINE
  5
93
330
1F
100
AcDbEntity
  8
BEZUGSACHSEN
  6
Continuous
 62
     9
100
AcDbLine
 10
59.7420599934
 20
317.7483230728
 30
0.0
 11
68.0289530133
 21
317.7483230728
 31
0.0
  0
LINE
  5
94
330
1F
100
AcDbEntity
  8
BEZUGSACHSEN
  6
Continuous
 62
     7
100
AcDbLine
 10
125.2275118022
 20
252.7383230728
 30
0.0
 11
126.6001070664
 21
255.1157278086
 31
0.0
  0
LWPOLYLINE
  5
95
330
1F
100
AcDbEntity
  8
GEWINDE
  6
DASHED
 62
     8
100
AcDbPolyline
 90
        2
 70
     0
 43
0.35
 10
173.7718153221745
 20
290.2383230728
 10
174.4702307120094
 20
270.2383230728
  0
LWPOLYLINE
  5
96
330
1F
100
AcDbEntity
  8
DEFAULT_2
  6
DASHED
 62
     8
100
AcDbPolyline
 90
        2
 70
     0
 43
0.35
 10
172.4751070664
 20
315.2383230728
 10
172.4751070664
 20
290.2383230728
  0
LWPOLYLINE
  5
97
330
1F
100
AcDbEntity
  8
DEFAULT_2
  6
DASHED
 62
     8
100
AcDbPolyline
 90
        2
 70
     0
 43
0.35
 10
228.4751070664
 20
315.2383230728
 10
172.4751070664
 20
315.2383230728
  0
LINE
  5
98
330
1F
100
AcDbEntity
  8
BEZUGSACHSEN
  6
Continuous
 62
     7
100
AcDbLine
 10
66.4751070664
 20
312.7483230728
 30
0.0
 11
60.4751070664
 21
312.7483230728
 31
0.0
  0
LINE
  5
99
330
1F
100
AcDbEntity
  8
0
  6
Continuous
 62
     7
100
AcDbLine
 10
123.4751070664
 20
312.7383230728
 30
0.0
 11
137.4751070664
 21
312.7383230728
 31
0.0
  0
LINE
  5
9A
330
1F
100
AcDbEntity
  8
FASEN
  6
Continuous
 62
     7
100
AcDbLine
 10
123.4751070664
 20
312.3383230728
 30
0.0
 11
137.4751070664
 21
312.3383230728
 31
0.0
  0
LINE
  5
9B
330
1F
100
AcDbEntity
  8
RUNDUNGEN
  6
Continuous
 62
     9
100
AcDbLine
 10
142.4751070664
 20
335.2383230728
 30
0.0
 11
142.4751070664
 21
270.2383230728
 31
0.0
  0
LINE
  5
9C
330
1F
100
AcDbEntity
  8
FASEN
  6
Continuous
 62
     7
100
AcDbLine
 10
137.4751070664
 20
292.7383230728
 30
0.0
 11
137.4751070664
 21
312.7383230728
 31
0.0
  0
LINE
  5
9D
330
1F
100
AcDbEntity
  8
FASEN
  6
Continuous
 62
     7
100
AcDbLine
 10
137.4751070664
 20
263.9085664421
 30
0.0
 11
137.4751070664
 21
271.2383230728
 31
0.0
  0
LINE
  5
9E
330
1F
100
AcDbEntity
  8
0
  6
Continuous
 62
     7
100
AcDbLine
 10
137.4751070664
 20
263.9085664421
 30
0.0
 11
137.4751070664
 21
252.7383249406
 31
0.0
  0
LINE
  5
9F
330
1F
100
AcDbEntity
  8
0
  6
Continuous
 62
     7
100
AcDbLine
 10
137.4751070664
 20
292.7383230728
 30
0.0
 11
137.4751070664
 21
271.2383230728
 31
0.0
  0
LINE
  5
A0
330
1F
100
AcDbEntity
  8
0
  6
Continuous
 62
     7
100
AcDbLine
 10
137.4751070664
 20
352.7382861517
 30
0.0
 11
137.4751070664
 21
312.7383230728
 31
0.0
  0
LWPOLYLINE
  5
A1
330
1F
100
AcDbEntity
  8
BEZUGSACHSEN
  6
DOT_CENTER
 62
     7
100
AcDbPolyline
 90
        2
 70
     0
 43
0.25
 10
231.4751070664
 20
302.7383230728
 10
55.4751070664
 20
302.7383230728
  0
LINE
  5
A2
330
1F
100
AcDbEntity
  8
0
  6
Continuous
 62
     7
100
AcDbLine
 10
131.7227023306
 20
263.9085664421
 30
0.0
 11
131.7227023306
 21
252.7383230728
 31
0.0
  0
LINE
  5
A3
330
1F
100
AcDbEntity
  8
0
  6
Continuous
 62
     7
100
AcDbLine
 10
131.7227023306
 20
292.7383230728
 30
0.0
 11
131.7227023306
 21
271.2383230728
 31
0.0
  0
LINE
  5
A4
330
1F
100
AcDbEntity
  8
0
  6
Continuous
 62
     7
100
AcDbLine
 10
131.7227023306
 20
352.7383230728
 30
0.0
 11
131.7227023306
 21
312.7383230728
 31
0.0
  0
LINE
  5
A5
330
1F
100
AcDbEntity
  8
0
  6
Continuous
 62
     7
100
AcDbLine
 10
130.3501070664
 20
312.7383230728
 30
0.0
 11
130.3501070664
 21
350.3608849105
 31
0.0
  0
LINE
  5
A6
330
1F
100
AcDbEntity
  8
0
  6
Continuous
 62
     7
100
AcDbLine
 10
130.3501070664
 20
271.2383230728
 30
0.0
 11
130.3501070664
 21
292.7383230728
 31
0.0
  0
LINE
  5
A7
330
1F
100
AcDbEntity
  8
0
  6
Continuous
 62
     7
100
AcDbLine
 10
130.3501070664
 20
255.1157653426
 30
0.0
 11
130.3501070664
 21
267.8563793196
 31
0.0
  0
LINE
  5
A8
330
1F
100
AcDbEntity
  8
0
  6
Continuous
 62
     9
100
AcDbLine
 10
129.3501070664
 20
312.7383230728
 30
0.0
 11
129.3501070664
 21
348.7383230728
 31
0.0
  0
LINE
  5
A9
330
1F
100
AcDbEntity
  8
0
  6
Continuous
 62
     9
100
AcDbLine
 10
129.3501070664
 20
271.2383230728
 30
0.0
 11
129.3501070664
 21
292.7383230728
 31
0.0
  0
LINE
  5
AA
330
1F
100
AcDbEntity
  8
0
  6
Continuous
 62
     9
100
AcDbLine
 10
129.3501070664
 20
256.7383230728
 30
0.0
 11
129.3501070664
 21
269.2159424891
 31
0.0
  0
LINE
  5
AB
330
1F
100
AcDbEntity
  8
FASEN
  6
Continuous
 62
     7
100
AcDbLine
 10
137.4751070664
 20
293.1383230728
 30
0.0
 11
123.4751070664
 21
293.1383230728
 31
0.0
  0
LINE
  5
AC
330
1F
100
AcDbEntity
  8
0
  6
Continuous
 62
     7
100
AcDbLine
 10
123.4751070664
 20
292.7383230728
 30
0.0
 11
137.4751070664
 21
292.7383230728
 31
0.0
  0
LINE
  5
AD
330
1F
100
AcDbEntity
  8
BEZUGSACHSEN
  6
Continuous
 62
     7
100
AcDbLine
 10
66.4751070664
 20
292.7283230728
 30
0.0
 11
60.4751070664
 21
292.7283230728
 31
0.0
  0
LINE
  5
AE
330
1F
100
AcDbEntity
  8
0
  6
Continuous
 62
     9
100
AcDbLine
 10
127.6001070664
 20
312.7383230728
 30
0.0
 11
127.6001070664
 21
348.7383230728
 31
0.0
  0
LINE
  5
AF
330
1F
100
AcDbEntity
  8
0
  6
Continuous
 62
     9
100
AcDbLine
 10
127.6001070664
 20
271.2383230728
 30
0.0
 11
127.6001070664
 21
292.7383230728
 31
0.0
  0
LINE
  5
B0
330
1F
100
AcDbEntity
  8
0
  6
Continuous
 62
     9
100
AcDbLine
 10
127.6001070664
 20
256.7383230728
 30
0.0
 11
127.6001070664
 21
269.2159424891
 31
0.0
  0
LINE
  5
B1
330
1F
100
AcDbEntity
  8
0
  6
Continuous
 62
     7
100
AcDbLine
 10
126.6001070664
 20
255.1157653426
 30
0.0
 11
126.6001070664
 21
267.8563793196
 31
0.0
  0
LINE
  5
B2
330
1F
100
AcDbEntity
  8
0
  6
Continuous
 62
     7
100
AcDbLine
 10
126.6001070664
 20
292.7383230728
 30
0.0
 11
126.6001070664
 21
271.2383230728
 31
0.0
  0
LINE
  5
B3
330
1F
100
AcDbEntity
  8
0
  6
Continuous
 62
     7
100
AcDbLine
 10
126.6001070664
 20
350.3608849105
 30
0.0
 11
126.6001070664
 21
312.7383230728
 31
0.0
  0
LINE
  5
B4
330
1F
100
AcDbEntity
  8
0
  6
Continuous
 62
     7
100
AcDbLine
 10
125.2275118022
 20
263.9085664421
 30
0.0
 11
125.2275118022
 21
252.7383230728
 31
0.0
  0
LINE
  5
B5
330
1F
100
AcDbEntity
  8
0
  6
Continuous
 62
     7
100
AcDbLine
 10
125.2275118022
 20
292.7383230728
 30
0.0
 11
125.2275118022
 21
271.2383230728
 31
0.0
  0
LINE
  5
B6
330
1F
100
AcDbEntity
  8
0
  6
Continuous
 62
     7
100
AcDbLine
 10
125.2275118022
 20
352.7383230728
 30
0.0
 11
125.2275118022
 21
312.7383230728
 31
0.0
  0
LINE
  5
B7
330
1F
100
AcDbEntity
  8
FASEN
  6
Continuous
 62
     9
100
AcDbLine
 10
123.4751070664
 20
312.3383230728
 30
0.0
 11
123.4751070664
 21
312.7383230728
 31
0.0
  0
LINE
  5
B8
330
1F
100
AcDbEntity
  8
FASEN
  6
Continuous
 62
     9
100
AcDbLine
 10
123.4751070664
 20
293.1383230728
 30
0.0
 11
123.4751070664
 21
292.7383230728
 31
0.0
  0
LWPOLYLINE
  5
B9
330
1F
100
AcDbEntity
  8
DEFAULT_2
  6
DASHED
 62
     8
100
AcDbPolyline
 90
        2
 70
     0
 43
0.35
 10
174.4751070664
 20
290.2383230728
 10
194.7712057778757
 20
290.2383230728
  0
LWPOLYLINE
  5
BA
330
1F
100
AcDbEntity
  8
DEFAULT_2
  6
DASHED
 62
     8
100
AcDbPolyline
 90
        2
 70
     0
 43
0.35
 10
172.4751070664
 20
290.2383230728
 10
172.7712057778757
 20
290.2383230728
  0
LINE
  5
BB
330
1F
100
AcDbEntity
  8
BEZUGSACHSEN
  6
Continuous
 62
     9
100
AcDbLine
 10
68.0289530133
 20
287.7283230728
 30
0.0
 11
59.7420599934
 21
287.7283230728
 31
0.0
  0
LINE
  5
BC
330
1F
100
AcDbEntity
  8
FASEN
  6
Continuous
 62
     9
100
AcDbLine
 10
121.4469809882
 20
270.8383230728
 30
0.0
 11
121.4469809882
 21
271.2383230728
 31
0.0
  0
LINE
  5
BD
330
1F
100
AcDbEntity
  8
BEZUGSACHSEN
  6
Continuous
 62
     9
100
AcDbLine
 10
60.4751070664
 20
315.1419630212
 30
0.0
 11
58.4751070664
 21
316.1845070418
 31
0.0
  0
LINE
  5
BE
330
1F
100
AcDbEntity
  8
BEZUGSACHSEN
  6
Continuous
 62
     9
100
AcDbLine
 10
58.4751070664
 20
289.2921391038
 30
0.0
 11
60.4751070664
 21
290.3346831244
 31
0.0
  0
LWPOLYLINE
  5
BF
330
1F
100
AcDbEntity
  8
BEZUGSACHSEN
  6
DOT_CENTER
 62
     7
100
AcDbPolyline
 90
        2
 70
     0
 43
0.25
 10
115.4751070664
 20
344.8876949281
 10
115.4751070664
 20
355.7383230728
  0
LINE
  5
C0
330
1F
100
AcDbEntity
  8
BEZUGSACHSEN
  6
Continuous
 62
     7
100
AcDbLine
 10
130.3501070664
 20
255.1157278086
 30
0.0
 11
131.7227023306
 21
252.7383230728
 31
0.0
  0
LINE
  5
C1
330
1F
100
AcDbEntity
  8
BEZUGSACHSEN
  6
Continuous
 62
     7
100
AcDbLine
 10
130.3501070664
 20
350.360918337
 30
0.0
 11
131.7227023306
 21
352.7383230728
 31
0.0
  0
LINE
  5
C2
330
1F
100
AcDbEntity
  8
BEZUGSACHSEN
  6
Continuous
 62
     7
100
AcDbLine
 10
108.4751070664
 20
352.7383230728
 30
0.0
 11
108.4751070664
 21
252.7383230728
 31
0.0
  0
LINE
  5
C3
330
1F
100
AcDbEntity
  8
BEZUGSACHSEN
  6
Continuous
 62
     9
100
AcDbLine
 10
107.7745357777
 20
265.0560730728
 30
0.0
 11
107.7745357777
 21
340.4205730728
 31
0.0
  0
LINE
  5
C4
330
1F
100
AcDbEntity
  8
BEZUGSACHSEN
  6
Continuous
 62
     9
100
AcDbLine
 10
106.8531697255
 20
265.0560730728
 30
0.0
 11
106.8531697255
 21
340.4205730728
 31
0.0
  0
LINE
  5
C5
330
1F
100
AcDbEntity
  8
BEZUGSACHSEN
  6
Continuous
 62
     9
100
AcDbLine
 10
106.5943506804
 20
265.0219988991
 30
0.0
 11
106.5943506804
 21
340.4546472465
 31
0.0
  0
LINE
  5
C6
330
1F
100
AcDbEntity
  8
BEZUGSACHSEN
  6
Continuous
 62
     7
100
AcDbLine
 10
105.9751070664
 20
340.6205730728
 30
0.0
 11
105.9751070664
 21
264.8560730728
 31
0.0
  0
LINE
  5
C7
330
1F
100
AcDbEntity
  8
0
  6
Continuous
 62
     7
100
AcDbLine
 10
121.4469809882
 20
271.2383230728
 30
0.0
 11
137.4751070664
 21
271.2383230728
 31
0.0
  0
LINE
  5
C8
330
1F
100
AcDbEntity
  8
FASEN
  6
Continuous
 62
     7
100
AcDbLine
 10
121.4469809882
 20
270.8383230728
 30
0.0
 11
137.4751070664
 21
270.8383230728
 31
0.0
  0
LINE
  5
C9
330
1F
100
AcDbEntity
  8
0
  6
Continuous
 62
     7
100
AcDbLine
 10
142.4751070664
 20
270.2383230728
 30
0.0
 11
190.4799834207906
 21
270.2383230728
 31
0.0
  0
LINE
  5
CA
330
1F
100
AcDbEntity
  8
GEWINDE
  6
Continuous
 62
     7
100
AcDbLine
 10
174.4751070664
 20
270.2383230728
 30
0.0
 11
142.4751070664
 21
270.2383230728
 31
0.0
  0
LINE
  5
CB
330
1F
100
AcDbEntity
  8
0
  6
Continuous
 62
     7
100
AcDbLine
 10
127.6001070664
 20
269.2159424891
 30
0.0
 11
129.3501070664
 21
269.2159424891
 31
0.0
  0
LINE
  5
CC
330
1F
100
AcDbEntity
  8
BEZUGSACHSEN
  6
Continuous
 62
     7
100
AcDbLine
 10
106.5943506804
 20
265.0219988991
 30
0.0
 11
105.9751070664
 21
264.8560730728
 31
0.0
  0
LINE
  5
CD
330
1F
100
AcDbEntity
  8
BEZUGSACHSEN
  6
Continuous
 62
     7
100
AcDbLine
 10
105.9751070664
 20
264.8560730728
 30
0.0
 11
60.3750325816
 21
267.1406368045
 31
0.0
  0
LINE
  5
CE
330
1F
100
AcDbEntity
  8
BEZUGSACHSEN
  6
Continuous
 62
     7
100
AcDbLine
 10
107.7745357777
 20
265.0560730728
 30
0.0
 11
106.8531697255
 21
265.0560730728
 31
0.0
  0
LINE
  5
CF
330
1F
100
AcDbEntity
  8
0
  6
Continuous
 62
     7
100
AcDbLine
 10
131.7227023306
 20
263.9085664421
 30
0.0
 11
137.4751070664
 21
263.9085664421
 31
0.0
  0
LINE
  5
D0
330
1F
100
AcDbEntity
  8
FASEN
  6
Continuous
 62
     7
100
AcDbLine
 10
113.8765930308
 20
263.9085664421
 30
0.0
 11
125.2275118022
 21
263.9085664421
 31
0.0
  0
LWPOLYLINE
  5
D1
330
1F
100
AcDbEntity
  8
BEZUGSACHSEN
  6
DOT_CENTER
 62
     7
100
AcDbPolyline
 90
        2
 70
     0
 43
0.25
 10
93.4751070664
 20
302.7383230728
 10
93.4751070664
 20
311.7383230728
  0
LWPOLYLINE
  5
D2
330
1F
100
AcDbEntity
  8
BEZUGSACHSEN
  6
DOT_CENTER
 62
     7
100
AcDbPolyline
 90
        2
 70
     0
 43
0.25
 10
93.4751070664
 20
302.7383230728
 10
93.4751070664
 20
293.7383230728
  0
LINE
  5
D3
330
1F
100
AcDbEntity
  8
BEZUGSACHSEN
  6
Continuous
 62
     7
100
AcDbLine
 10
60.4751070664
 20
312.7483230728
 30
0.0
 11
58.4751070664
 21
314.7483230728
 31
0.0
  0
LINE
  5
D4
330
1F
100
AcDbEntity
  8
BEZUGSACHSEN
  6
Continuous
 62
     7
100
AcDbLine
 10
127.6001070664
 20
256.7383230728
 30
0.0
 11
129.3501070664
 21
256.7383230728
 31
0.0
  0
LINE
  5
D5
330
1F
100
AcDbEntity
  8
BEZUGSACHSEN
  6
Continuous
 62
     7
100
AcDbLine
 10
58.4751070664
 20
290.7283230728
 30
0.0
 11
60.4751070664
 21
292.7283230728
 31
0.0
  0
LINE
  5
D6
330
1F
100
AcDbEntity
  8
BEZUGSACHSEN
  6
Continuous
 62
     7
100
AcDbLine
 10
131.7227023306
 20
252.7383230728
 30
0.0
 11
137.4751070664
 21
252.7383230728
 31
0.0
  0
LINE
  5
D7
330
1F
100
AcDbEntity
  8
BEZUGSACHSEN
  6
Continuous
 62
     7
100
AcDbLine
 10
125.2275118022
 20
252.7383230728
 30
0.0
 11
108.4751070664
 21
252.7383230728
 31
0.0
  0
LINE
  5
D8
330
1F
100
AcDbEntity
  8
BEZUGSACHSEN
  6
Continuous
 62
     7
100
AcDbLine
 10
59.620949742
 20
317.9806590683
 30
0.0
 11
59.7420599934
 21
317.7483230728
 31
0.0
  0
LINE
  5
D9
330
1F
100
AcDbEntity
  8
BEZUGSACHSEN
  6
Continuous
 62
     7
100
AcDbLine
 10
59.7420599934
 20
287.7283230728
 30
0.0
 11
59.620949742
 21
287.4959870774
 31
0.0
  0
LINE
  5
DA
330
1F
100
AcDbEntity
  8
BEZUGSACHSEN
  6
Continuous
 62
     7
100
AcDbLine
 10
68.4751070664
 20
315.6079785986
 30
0.0
 11
68.4751070664
 21
289.868667547
 31
0.0
  0
LINE
  5
DB
330
1F
100
AcDbEntity
  8
BEZUGSACHSEN
  6
Continuous
 62
     9
100
AcDbLine
 10
66.4751070664
 20
312.7483230728
 30
0.0
 11
66.4751070664
 21
319.0969706602
 31
0.0
  0
LINE
  5
DC
330
1F
100
AcDbEntity
  8
BEZUGSACHSEN
  6
Continuous
 62
     9
100
AcDbLine
 10
66.4751070664
 20
286.3796754854
 30
0.0
 11
66.4751070664
 21
292.7283230728
 31
0.0
  0
LINE
  5
DD
330
1F
100
AcDbEntity
  8
BEZUGSACHSEN
  6
Continuous
 62
     7
100
AcDbLine
 10
60.4751070664
 20
312.7483230728
 30
0.0
 11
60.4751070664
 21
315.1419630212
 31
0.0
  0
LINE
  5
DE
330
1F
100
AcDbEntity
  8
BEZUGSACHSEN
  6
Continuous
 62
     7
100
AcDbLine
 10
60.4751070664
 20
290.3346831244
 30
0.0
 11
60.4751070664
 21
292.7283230728
 31
0.0
  0
LINE
  5
DF
330
1F
100
AcDbEntity
  8
BEZUGSACHSEN
  6
Continuous
 62
     9
100
AcDbLine
 10
60.3750325816
 20
287.0617906865
 30
0.0
 11
60.3750325816
 21
267.1406368045
 31
0.0
  0
LINE
  5
E0
330
1F
100
AcDbEntity
  8
BEZUGSACHSEN
  6
Continuous
 62
     9
100
AcDbLine
 10
60.3750325816
 20
338.3360093411
 30
0.0
 11
60.3750325816
 21
318.4148554591
 31
0.0
  0
LINE
  5
E1
330
1F
100
AcDbEntity
  8
BEZUGSACHSEN
  6
Continuous
 62
     7
100
AcDbLine
 10
58.4751070664
 20
314.7483230728
 30
0.0
 11
58.4751070664
 21
336.3385146354
 31
0.0
  0
LINE
  5
E2
330
1F
100
AcDbEntity
  8
BEZUGSACHSEN
  6
Continuous
 62
     7
100
AcDbLine
 10
58.4751070664
 20
269.1381535542
 30
0.0
 11
58.4751070664
 21
290.7283230728
 31
0.0
  0
ARC
  5
E3
330
1F
100
AcDbEntity
  8
RUNDUNGEN
  6
Continuous
 62
     7
100
AcDbCircle
 10
218.560893504
 20
334.2383230728
 30
0.0
 40
1.00000000001896
100
AcDbArc
 50
44.99999999999655
 51
90.0
  0
ARC
  5
E4
330
1F
100
AcDbEntity
  8
BEZUGSACHSEN
  6
Continuous
 62
     7
100
AcDbCircle
 10
129.3501070664
 20
349.7383230728
 30
0.0
 40
1.0
100
AcDbArc
 50
270.0
 51
0.0
  0
ARC
  5
E5
330
1F
100
AcDbEntity
  8
RUNDUNGEN
  6
Continuous
 62
     7
100
AcDbCircle
 10
227.4751070664
 20
325.3241095104
 30
0.0
 40
1.0
100
AcDbArc
 50
0.0
 51
45.00000000000115
  0
ARC
  5
E6
330
1F
100
AcDbEntity
  8
RUNDUNGEN
  6
Continuous
 62
     7
100
AcDbCircle
 10
142.4751070664
 20
340.2383230728
 30
0.0
 40
5.0
100
AcDbArc
 50
180.0
 51
270.0
  0
ARC
  5
E7
330
1F
100
AcDbEntity
  8
0
  6
Continuous
 62
     7
100
AcDbCircle
 10
373.0728869489
 20
372.1727906632
 30
0.0
 40
264.5204223902001
100
AcDbArc
 50
203.4229294508999
 51
204.1599235294009
  0
ARC
  5
E8
330
1F
100
AcDbEntity
  8
BEZUGSACHSEN
  6
Continuous
 62
     7
100
AcDbCircle
 10
244.8051536646
 20
1908.7810823626
 30
0.0
 40
1632.172763697801
100
AcDbArc
 50
263.5119093102
 51
263.7273810162
  0
ARC
  5
E9
330
1F
100
AcDbEntity
  8
RUNDUNGEN
  6
Continuous
 62
     7
100
AcDbCircle
 10
218.560893504
 20
271.2383230728
 30
0.0
 40
1.0
100
AcDbArc
 50
270.0
 51
315.0000000000011
  0
ARC
  5
EA
330
1F
100
AcDbEntity
  8
RUNDUNGEN
  6
Continuous
 62
     7
100
AcDbCircle
 10
227.4751070664
 20
280.1525366352
 30
0.0
 40
1.00000000001904
100
AcDbArc
 50
314.9999999999989
 51
0.0
  0
ARC
  5
EB
330
1F
100
AcDbEntity
  8
BEZUGSACHSEN
  6
Continuous
 62
     7
100
AcDbCircle
 10
129.3501070664
 20
255.7383230728
 30
0.0
 40
1.0
100
AcDbArc
 50
0.0
 51
90.0
  0
ARC
  5
EC
330
1F
100
AcDbEntity
  8
RUNDUNGEN
  6
Continuous
 62
     7
100
AcDbCircle
 10
142.4751070664
 20
265.2383230728
 30
0.0
 40
5.0
100
AcDbArc
 50
90.0
 51
180.0
  0
ARC
  5
ED
330
1F
100
AcDbEntity
  8
BEZUGSACHSEN
  6
Continuous
 62
     7
100
AcDbCircle
 10
244.8051536646
 20
-1303.3044362172
 30
0.0
 40
1632.172763698
100
AcDbArc
 50
96.2726189838
 51
96.48809068979999
  0
ARC
  5
EE
330
1F
100
AcDbEntity
  8
BEZUGSACHSEN
  6
Continuous
 62
     7
100
AcDbCircle
 10
107.7745357777
 20
341.4205730728
 30
0.0
 40
1.0
100
AcDbArc
 50
270.0
 51
314.4783570872776
  0
ARC
  5
EF
330
1F
100
AcDbEntity
  8
BEZUGSACHSEN
  6
Continuous
 62
     7
100
AcDbCircle
 10
106.8531697255
 20
341.4205730728
 30
0.0
 40
1.000000000009914
100
AcDbArc
 50
255.0000000003019
 51
270.0
  0
ARC
  5
F0
330
1F
100
AcDbEntity
  8
BEZUGSACHSEN
  6
Continuous
 62
     7
100
AcDbCircle
 10
127.6001070664
 20
349.7383230728
 30
0.0
 40
1.0
100
AcDbArc
 50
180.0
 51
270.0
  0
ARC
  5
F1
330
1F
100
AcDbEntity
  8
BEZUGSACHSEN
  6
Continuous
 62
     7
100
AcDbCircle
 10
60.4751070664
 20
336.3385146359
 30
0.0
 40
1.999999999952488
100
AcDbArc
 50
92.86812048930264
 51
180.0000000143254
  0
ARC
  5
F2
330
1F
100
AcDbEntity
  8
BEZUGSACHSEN
  6
Continuous
 62
     7
100
AcDbCircle
 10
66.4751070664
 20
310.7483230728
 30
0.0
 40
2.000000000000022
100
AcDbArc
 50
4.76494791109042
 51
90.0
  0
ARC
  5
F3
330
1F
100
AcDbEntity
  8
FASEN
  6
Continuous
 62
     7
100
AcDbCircle
 10
123.4751070664
 20
302.7383230728
 30
0.0
 40
9.599999195900011
100
AcDbArc
 50
90.0
 51
270.0
  0
ARC
  5
F4
330
1F
100
AcDbEntity
  8
0
  6
Continuous
 62
     7
100
AcDbCircle
 10
123.4751070664
 20
302.7383230728
 30
0.0
 40
10.0
100
AcDbArc
 50
90.0
 51
270.0
  0
ARC
  5
F5
330
1F
100
AcDbEntity
  8
BEZUGSACHSEN
  6
Continuous
 62
     7
100
AcDbCircle
 10
115.4598990653
 20
402.7910926389
 30
0.0
 40
50.30340000969741
100
AcDbArc
 50
270.0173219760583
 51
275.7218485012678
  0
ARC
  5
F6
330
1F
100
AcDbEntity
  8
BEZUGSACHSEN
  6
Continuous
 62
     7
100
AcDbCircle
 10
115.4903150775
 20
402.7910928396
 30
0.0
 40
50.30340021035254
100
AcDbArc
 50
264.2781515101899
 51
269.9826780126003
  0
ARC
  5
F7
330
1F
100
AcDbEntity
  8
0
  6
Continuous
 62
     7
100
AcDbCircle
 10
-116.1226728161
 20
372.1727906632
 30
0.0
 40
264.5204223901892
100
AcDbArc
 50
335.840076470599
 51
336.5770705490999
  0
ARC
  5
F8
330
1F
100
AcDbEntity
  8
BEZUGSACHSEN
  6
Continuous
 62
     7
100
AcDbCircle
 10
107.7745357777
 20
264.0560730728
 30
0.0
 40
0.9999999999996884
100
AcDbArc
 50
45.52164291272234
 51
90.0
  0
ARC
  5
F9
330
1F
100
AcDbEntity
  8
BEZUGSACHSEN
  6
Continuous
 62
     7
100
AcDbCircle
 10
106.8531697255
 20
264.0560730728
 30
0.0
 40
1.0
100
AcDbArc
 50
90.0
 51
104.9999999996981
  0
ARC
  5
FA
330
1F
100
AcDbEntity
  8
BEZUGSACHSEN
  6
Continuous
 62
     7
100
AcDbCircle
 10
127.6001070664
 20
255.7383230728
 30
0.0
 40
0.9999999999999716
100
AcDbArc
 50
90.0
 51
180.0
  0
ARC
  5
FB
330
1F
100
AcDbEntity
  8
BEZUGSACHSEN
  6
Continuous
 62
     7
100
AcDbCircle
 10
60.4751070664
 20
269.1381315097
 30
0.0
 40
2.0
100
AcDbArc
 50
180.0
 51
267.1318795106974
  0
ARC
  5
FC
330
1F
100
AcDbEntity
  8
BEZUGSACHSEN
  6
Continuous
 62
     7
100
AcDbCircle
 10
66.4751070664
 20
294.7283230728
 30
0.0
 40
2.0
100
AcDbArc
 50
270.0
 51
355.2350520603931
  0
ARC
  5
FD
330
1F
100
AcDbEntity
  8
FASEN
  6
Continuous
 62
     7
100
AcDbCircle
 10
121.4469809882
 20
263.2383230728
 30
0.0
 40
7.599982194900008
100
AcDbArc
 50
90.0
 51
174.9405171273009
  0
ARC
  5
FE
330
1F
100
AcDbEntity
  8
FASEN
  6
Continuous
 62
     7
100
AcDbCircle
 10
121.4469809882
 20
263.2383230728
 30
0.0
 40
8.0
100
AcDbArc
 50
90.0
 51
172.8323734889967
  0
ARC
  5
FF
330
1F
100
AcDbEntity
  8
FASEN
  6
Continuous
 62
     7
100
AcDbCircle
 10
126.3757610892
 20
278.2695863428
 30
0.0
 40
19.03859487300014
100
AcDbArc
 50
227.4837701983003
 51
228.9651953375289
  0
CIRCLE
  5
100
330
1F
100
AcDbEntity
  8
BEZUGSACHSEN
  6
Continuous
 62
     7
100
AcDbCircle
 10
93.4751070664
 20
302.7383230728
 30
0.0
 40
6.0
  0
SPLINE
  5
101
330
1F
100
AcDbEntity
  8
BEZUGSACHSEN
  6
Continuous
 62
     7
100
AcDbSpline
210
0.0
220
0.0
230
1.0
 70
     8
 71
     3
 72
    11
 73
     7
 74
     5
 42
0.0000000001
 43
0.0000000001
 44
0.00000001
 40
0.0
 40
0.0
 40
0.0
 40
0.0
 40
0.824919236672416
 40
1.650116891930991
 40
2.190492152293447
 40
2.730585915378195
 40
2.730585915378195
 40
2.730585915378195
 40
2.730585915378195
 10
60.4751070664
 20
315.1419630212
 30
0.0
 10
60.45737376206182
 20
315.4171533131769
 30
0.0
 10
60.42190116821587
 20
315.9676267766376
 30
0.0
 10
60.21346635158051
 20
316.6723603617907
 30
0.0
 10
59.9832399206007
 20
317.2645740868707
 30
0.0
 10
59.82243933779879
 20
317.5871014203159
 30
0.0
 10
59.7420599932854
 20
317.748323072615
 30
0.0
 11
60.4751070664
 21
315.1419630212
 31
0.0
 11
60.39153161228429
 21
315.9626376768959
 31
0.0
 11
60.17357017017249
 21
316.7585296167953
 31
0.0
 11
59.97563509161326
 21
317.261348795713
 31
0.0
 11
59.7420599932854
 21
317.748323072615
 31
0.0
  0
SPLINE
  5
102
330
1F
100
AcDbEntity
  8
BEZUGSACHSEN
  6
Continuous
 62
     7
100
AcDbSpline
210
0.0
220
0.0
230
1.0
 70
     8
 71
     3
 72
    11
 73
     7
 74
     5
 42
0.0000000001
 43
0.0000000001
 44
0.00000001
 40
0.0
 40
0.0
 40
0.0
 40
0.0
 40
0.9140556660003332
 40
1.828030949185877
 40
2.279806974871061
 40
2.730944124762503
 40
2.730944124762503
 40
2.730944124762503
 40
2.730944124762503
 10
59.7420599932854
 20
287.728323072985
 30
0.0
 10
59.87471470024878
 20
288.0030396706516
 30
0.0
 10
60.14001244841036
 20
288.5524487071788
 30
0.0
 10
60.355367661723
 20
289.2851596282837
 30
0.0
 10
60.45906187538537
 20
289.8831048343897
 30
0.0
 10
60.46976119290648
 20
290.1842280498165
 30
0.0
 10
60.4751070664
 20
290.3346831244
 30
0.0
 11
59.7420599932854
 21
287.728323072985
 31
0.0
 11
60.11686752306086
 21
288.5619999145555
 31
0.0
 11
60.37615888345873
 21
289.4384237895709
 31
0.0
 11
60.44887585695736
 21
289.8843092223327
 31
0.0
 11
60.4751070664
 21
290.3346831244
 31
0.0
  0
SPLINE
  5
103
330
1F
100
AcDbEntity
  8
BEZUGSACHSEN
  6
Continuous
 62
     7
100
AcDbSpline
210
0.0
220
0.0
230
1.0
 70
     8
 71
     3
 72
    15
 73
    11
 74
     9
 42
0.0000000001
 43
0.0000000001
 44
0.00000001
 40
0.0
 40
0.0
 40
0.0
 40
0.0
 40
0.1110944830730592
 40
0.2222295180791961
 40
0.3333620401246274
 40
0.4444752609550667
 40
0.5555842177693909
 40
0.666730035372386
 40
0.7779450181341901
 40
0.8889820870601008
 40
0.8889820870601008
 40
0.8889820870601008
 40
0.8889820870601008
 10
59.620949742
 20
317.9806590683
 30
0.0
 10
59.64633510154467
 20
318.0076354339776
 30
0.0
 10
59.69711508684935
 20
318.0615980123004
 30
0.0
 10
59.77936785610117
 20
318.1364799756711
 30
0.0
 10
59.86636450805673
 20
318.2057666845722
 30
0.0
 10
59.95866934849715
 20
318.2678618476465
 30
0.0
 10
60.05611937049548
 20
318.3216413397698
 30
0.0
 10
60.15853228436634
 20
318.3652315853759
 30
0.0
 10
60.26504878292009
 20
318.3982501412312
 30
0.0
 10
60.33839088560863
 20
318.4093233078514
 30
0.0
 10
60.3750325816
 20
318.4148554591
 30
0.0
 11
59.620949742
 21
317.9806590683
 31
0.0
 11
59.6981185190269
 21
318.0605775519032
 31
0.0
 11
59.78015841927827
 21
318.1355472175858
 31
0.0
 11
59.86725556789143
 21
318.2045727502505
 31
0.0
 11
59.95952738947859
 21
318.2664763752194
 31
0.0
 11
60.05693029757407
 21
318.3199354603118
 31
0.0
 11
60.15919852097434
 21
318.3634625007946
 31
0.0
 11
60.26569038906651
 21
318.3955289072186
 31
0.0
 11
60.3750325816
 21
318.4148554591
 31
0.0
  0
SPLINE
  5
104
330
1F
100
AcDbEntity
  8
BEZUGSACHSEN
  6
Continuous
 62
     7
100
AcDbSpline
210
0.0
220
0.0
230
1.0
 70
     8
 71
     3
 72
    19
 73
    15
 74
    13
 42
0.0000000001
 43
0.0000000001
 44
0.00000001
 40
0.0
 40
0.0
 40
0.0
 40
0.0
 40
0.2679411643344711
 40
0.5361267936840792
 40
0.8065304773436863
 40
1.076465993191164
 40
1.213913376105242
 40
1.351353104840992
 40
1.491586367037349
 40
1.631807897544572
 40
1.775491562767292
 40
1.91921920474857
 40
2.065713007377545
 40
2.211936409302195
 40
2.211936409302195
 40
2.211936409302195
 40
2.211936409302195
 10
68.0289530133
 20
287.7283230728
 30
0.0
 10
67.99505876950106
 20
287.6456514930964
 30
0.0
 10
67.92723935736478
 20
287.4802329055293
 30
0.0
 10
67.80260085109262
 20
287.2415669318637
 30
0.0
 10
67.6576900517939
 20
287.0138789358489
 30
0.0
 10
67.5146464202781
 20
286.8380744445361
 30
0.0
 10
67.38554003334893
 20
286.7101247254361
 30
0.0
 10
67.27942493426231
 20
286.6210377046372
 30
0.0
 10
67.16461550661103
 20
286.5417360642961
 30
0.0
 10
67.04015589437817
 20
286.47406559683
 30
0.0
 10
66.90730233923959
 20
286.4212629101337
 30
0.0
 10
66.76665154036155
 20
286.3860966461453
 30
0.0
 10
66.6213261572687
 20
286.3697444442616
 30
0.0
 10
66.52381673822713
 20
286.376367177628
 30
0.0
 10
66.4751070664
 20
286.3796754854
 30
0.0
 11
68.0289530133
 21
287.7283230728
 31
0.0
 11
67.92351575358353
 21
287.4819991969609
 31
0.0
 11
67.79964623802422
 21
287.2441339516964
 31
0.0
 11
67.65330075174593
 21
287.0167550811242
 31
0.0
 11
67.48204856062313
 21
286.808097778948
 31
0.0
 11
67.38425612192114
 21
286.711514022536
 31
0.0
 11
67.27883913264158
 21
286.6233270767549
 31
0.0
 11
67.16330048891685
 21
286.5438526177604
 31
0.0
 11
67.03997847902187
 21
286.4771161247955
 31
0.0
 11
66.906347790822
 21
286.4243161738195
 31
0.0
 11
66.76692008961423
 21
286.3894227474269
 31
0.0
 11
66.62122565109605
 21
286.3741399206737
 31
0.0
 11
66.4751070664
 21
286.3796754854
 31
0.0
  0
SPLINE
  5
105
330
1F
100
AcDbEntity
  8
BEZUGSACHSEN
  6
Continuous
 62
     7
100
AcDbSpline
210
0.0
220
0.0
230
1.0
 70
     8
 71
     3
 72
    11
 73
     7
 74
     5
 42
0.0000000001
 43
0.0000000001
 44
0.00000001
 40
0.0
 40
0.0
 40
0.0
 40
0.0
 40
0.552126940703641
 40
1.105196183339654
 40
1.651906304698615
 40
2.198197048720035
 40
2.198197048720035
 40
2.198197048720035
 40
2.198197048720035
 10
68.4751070664
 20
289.868667547
 30
0.0
 10
68.46852162877224
 20
289.684532356589
 30
0.0
 10
68.45533951430679
 20
289.3159477166125
 30
0.0
 10
68.35785115050955
 20
288.7725233119269
 30
0.0
 10
68.21821383747704
 20
288.2412491824099
 30
0.0
 10
68.09202381526153
 20
287.8992547023159
 30
0.0
 10
68.0289530133
 20
287.7283230728
 30
0.0
 11
68.4751070664
 21
289.868667547
 31
0.0
 11
68.44236248397318
 21
289.3175124409069
 31
0.0
 11
68.35029583102983
 21
288.7721599690451
 31
0.0
 11
68.20980434619639
 21
288.2438096122877
 31
0.0
 11
68.0289530133
 21
287.7283230728
 31
0.0
  0
SPLINE
  5
106
330
1F
100
AcDbEntity
  8
BEZUGSACHSEN
  6
Continuous
 62
     7
100
AcDbSpline
210
0.0
220
0.0
230
1.0
 70
     8
 71
     3
 72
    19
 73
    15
 74
    13
 42
0.0000000001
 43
0.0000000001
 44
0.00000001
 40
0.0
 40
0.0
 40
0.0
 40
0.0
 40
0.1462385987780197
 40
0.2927479274808349
 40
0.4364790706193226
 40
0.5801659236393468
 40
0.7203799972705847
 40
0.8606059382502897
 40
0.9980411883669609
 40
1.135484020399337
 40
1.405415631065777
 40
1.675815514095067
 40
1.943997429546283
 40
2.211934834775387
 40
2.211934834775387
 40
2.211934834775387
 40
2.211934834775387
 10
66.4751070664
 20
319.0969706602
 30
0.0
 10
66.5238218717383
 20
319.1002787375464
 30
0.0
 10
66.62134166760339
 20
319.1069010164471
 30
0.0
 10
66.76667792791713
 20
319.090541703686
 30
0.0
 10
66.90733486504331
 20
319.0553699376211
 30
0.0
 10
67.04018699849547
 20
319.0025642509964
 30
0.0
 10
67.16464146154631
 20
318.9348924632448
 30
0.0
 10
67.27944401869401
 20
318.855592261843
 30
0.0
 10
67.38555395647387
 20
318.7665076222808
 30
0.0
 10
67.51465642166666
 20
318.6385600867328
 30
0.0
 10
67.65769627156402
 20
318.4627577978108
 30
0.0
 10
67.80260387325154
 20
318.2350723319
 30
0.0
 10
67.9272406216962
 20
317.9964097124129
 30
0.0
 10
67.99505919286695
 20
317.8309934719745
 30
0.0
 10
68.0289530133
 20
317.7483230728
 30
0.0
 11
66.4751070664
 21
319.0969706602
 31
0.0
 11
66.62124092821905
 21
319.1025043933349
 31
0.0
 11
66.76695028906569
 21
319.0872149996709
 31
0.0
 11
66.9063803706228
 21
319.0523166635376
 31
0.0
 11
67.04001270755172
 21
318.9995122105273
 31
0.0
 11
67.16332649835135
 21
318.9327761974392
 31
0.0
 11
67.27885760965921
 21
318.8533037063268
 31
0.0
 11
67.38427015943365
 21
318.7651184336069
 31
0.0
 11
67.48205866312783
 21
318.6685371692627
 31
0.0
 11
67.65330705901768
 21
318.4598818042654
 31
0.0
 11
67.79964947955233
 21
318.2325054803126
 31
0.0
 11
67.92351710535908
 21
317.9946434382544
 31
0.0
 11
68.0289530133
 21
317.7483230728
 31
0.0
  0
SPLINE
  5
107
330
1F
100
AcDbEntity
  8
0
  6
Continuous
 62
     7
100
AcDbSpline
210
0.0
220
0.0
230
1.0
 70
     8
 71
     3
 72
    19
 73
    15
 74
    13
 42
0.0000000001
 43
0.0000000001
 44
0.00000001
 40
0.0
 40
0.0
 40
0.0
 40
0.0
 40
0.2323383481439976
 40
0.465212595775062
 40
0.6980761133579906
 40
0.9303535187932066
 40
1.046733461852027
 40
1.163080940920661
 40
1.279447997487982
 40
1.395808629590228
 40
1.512165904568447
 40
1.628566140412674
 40
1.745106920605356
 40
1.861351602868363
 40
1.861351602868363
 40
1.861351602868363
 40
1.861351602868363
 10
130.3501070664
 20
267.8563793196
 30
0.0
 10
130.347263440794
 20
267.9338796332682
 30
0.0
 10
130.3415696306239
 20
268.0890590187763
 30
0.0
 10
130.2950326547894
 20
268.3180792328225
 30
0.0
 10
130.2201389090332
 20
268.5390047947326
 30
0.0
 10
130.1301416047814
 20
268.7117908589427
 30
0.0
 10
130.0414896669695
 20
268.8391507846467
 30
0.0
 10
129.966185402612
 20
268.9281186835511
 30
0.0
 10
129.8820974287952
 20
269.0088763535099
 30
0.0
 10
129.7893286949666
 20
269.0795609198921
 30
0.0
 10
129.6883528827213
 20
269.1381571440653
 30
0.0
 10
129.5801658332082
 20
269.1820103952221
 30
0.0
 10
129.4665567238538
 20
269.2104151546723
 30
0.0
 10
129.3888906890618
 20
269.2141016073194
 30
0.0
 10
129.3501070664
 20
269.2159424891
 30
0.0
 11
130.3501070664
 21
267.8563793196
 31
0.0
 11
130.3352609122822
 21
268.0882428564621
 31
0.0
 11
130.2903009106936
 21
268.316735774223
 31
0.0
 11
130.2145424320112
 21
268.5369313026263
 31
0.0
 11
130.1066520208336
 21
268.7426312108705
 31
0.0
 11
130.0400246969894
 21
268.8380518106576
 31
0.0
 11
129.9647252404226
 21
268.9267463861759
 31
0.0
 11
129.8806493740921
 21
269.0071984871735
 31
0.0
 11
129.7879615481228
 21
269.0775459364542
 31
0.0
 11
129.6871731132182
 21
269.1356897824729
 31
0.0
 11
129.5793003844266
 21
269.1794217992071
 31
0.0
 11
129.4659770958727
 21
269.206617124527
 31
0.0
 11
129.3501070664
 21
269.2159424891
 31
0.0
  0
SPLINE
  5
108
330
1F
100
AcDbEntity
  8
BEZUGSACHSEN
  6
Continuous
 62
     7
100
AcDbSpline
210
0.0
220
0.0
230
1.0
 70
     8
 71
     3
 72
    11
 73
     7
 74
     5
 42
0.0000000001
 43
0.0000000001
 44
0.00000001
 40
0.0
 40
0.0
 40
0.0
 40
0.0
 40
0.5462907431194486
 40
1.09300086362245
 40
1.64607010713209
 40
2.198197048705703
 40
2.198197048705703
 40
2.198197048705703
 40
2.198197048705703
 10
68.0289530133
 20
317.7483230728
 30
0.0
 10
68.09202381515854
 20
317.5773914435664
 30
0.0
 10
68.21821383717344
 20
317.2353969640229
 30
0.0
 10
68.35785115015037
 20
316.7041228348019
 30
0.0
 10
68.4553395142114
 20
316.1606984298601
 30
0.0
 10
68.46852162874049
 20
315.7921137893013
 30
0.0
 10
68.4751070664
 20
315.6079785986
 30
0.0
 11
68.0289530133
 21
317.7483230728
 31
0.0
 11
68.20980434590429
 21
317.2328365341656
 31
0.0
 11
68.35029583057751
 21
316.7044861782514
 31
0.0
 11
68.44236248383282
 21
316.1591337055563
 31
0.0
 11
68.4751070664
 21
315.6079785986
 31
0.0
  0
SPLINE
  5
109
330
1F
100
AcDbEntity
  8
0
  6
Continuous
 62
     7
100
AcDbSpline
210
0.0
220
0.0
230
1.0
 70
     8
 71
     3
 72
    19
 73
    15
 74
    13
 42
0.0000000001
 43
0.0000000001
 44
0.00000001
 40
0.0
 40
0.0
 40
0.0
 40
0.0
 40
0.1162460235697723
 40
0.2327881717864165
 40
0.349189004585432
 40
0.4655468550769838
 40
0.581907137026792
 40
0.6982738489685306
 40
0.8146206073230066
 40
0.9309998278573467
 40
1.163276323454605
 40
1.396138921755488
 40
1.629013178048329
 40
1.861351539792979
 40
1.861351539792979
 40
1.861351539792979
 40
1.861351539792979
 10
127.6001070664
 20
269.2159424891
 30
0.0
 10
127.5613229955597
 20
269.2141015422121
 30
0.0
 10
127.4836560554951
 20
269.2104149588159
 30
0.0
 10
127.3700459704273
 20
269.1820094738571
 30
0.0
 10
127.2618582824782
 20
269.1381555596176
 30
0.0
 10
127.1608824165095
 20
269.0795588713591
 30
0.0
 10
127.0681139597557
 20
269.0088740100251
 30
0.0
 10
126.984026580737
 20
268.9281164049423
 30
0.0
 10
126.908722937348
 20
268.8391487661999
 30
0.0
 10
126.820071693189
 20
268.71178931846
 30
0.0
 10
126.7300749474801
 20
268.5390039403929
 30
0.0
 10
126.6551814283547
 20
268.3180789502288
 30
0.0
 10
126.6086445030281
 20
268.0890590306282
 30
0.0
 10
126.60295069231
 20
267.9338796377681
 30
0.0
 10
126.6001070664
 20
267.8563793196
 30
0.0
 11
127.6001070664
 21
269.2159424891
 31
0.0
 11
127.4842357148496
 21
269.206616831715
 31
0.0
 11
127.3709111901615
 21
269.17942079496
 31
0.0
 11
127.2630380575503
 21
269.1356881854227
 31
0.0
 11
127.1622493180255
 21
269.0775437157284
 31
0.0
 11
127.0695620129447
 21
269.0071961593225
 31
0.0
 11
126.9854866472859
 21
268.9267440335739
 31
0.0
 11
126.9101878893404
 21
268.8380498103603
 31
0.0
 11
126.8435611600289
 21
268.7426296766702
 31
0.0
 11
126.7356713739545
 21
268.5369304679509
 31
0.0
 11
126.6599132371419
 21
268.3167357940958
 31
0.0
 11
126.6149532233428
 21
268.0882428699097
 31
0.0
 11
126.6001070664
 21
267.8563793196
 31
0.0
  0
SPLINE
  5
10A
330
1F
100
AcDbEntity
  8
BEZUGSACHSEN
  6
Continuous
 62
     7
100
AcDbSpline
210
0.0
220
0.0
230
1.0
 70
     8
 71
     3
 72
    27
 73
    23
 74
    21
 42
0.0000000001
 43
0.0000000001
 44
0.00000001
 40
0.0
 40
0.0
 40
0.0
 40
0.0
 40
0.1260969825525347
 40
0.2522464959195262
 40
0.3668867952504606
 40
0.4815825893953796
 40
0.5839596006875057
 40
0.685948916135804
 40
0.7334568410412583
 40
0.780956884870297
 40
0.8274002264131952
 40
0.8738421606884229
 40
0.9204907318699013
 40
0.9671431399041909
 40
1.015111401801801
 40
1.06308749712761
 40
1.165500418761427
 40
1.268190479000096
 40
1.380949153941113
 40
1.493646517803435
 40
1.615655563738953
 40
1.737631867610291
 40
1.737631867610291
 40
1.737631867610291
 40
1.737631867610291
 10
58.4751070664
 20
317.372555559
 30
0.0
 10
58.47583560787628
 20
317.4145984870609
 30
0.0
 10
58.47729299433237
 20
317.4987018578705
 30
0.0
 10
58.49073755628078
 20
317.620449185433
 30
0.0
 10
58.51369298956632
 20
317.7368669018114
 30
0.0
 10
58.54765888990194
 20
317.8424423596044
 30
0.0
 10
58.59388464874941
 20
317.9386004218671
 30
0.0
 10
58.64242781730048
 20
318.0077697875375
 30
0.0
 10
58.68786714286887
 20
318.0553072691308
 30
0.0
 10
58.72377322096371
 20
318.0860025525883
 30
0.0
 10
58.76242065205445
 20
318.11253758829
 30
0.0
 10
58.80337513925801
 20
318.1347659341838
 30
0.0
 10
58.84651476543337
 20
318.1525591510613
 30
0.0
 10
58.89169540004698
 20
318.1660925581223
 30
0.0
 10
58.93840262303856
 20
318.1752896834566
 30
0.0
 10
59.00422661425497
 20
318.1822450038372
 30
0.0
 10
59.08895436627724
 20
318.1803797472022
 30
0.0
 10
59.19378596979648
 20
318.1634650862646
 30
0.0
 10
59.29936521215649
 20
318.1340504534075
 30
0.0
 10
59.40752315023918
 20
318.092298815943
 30
0.0
 10
59.51517541146066
 20
318.041502988742
 30
0.0
 10
59.58569478631277
 20
318.0009385605746
 30
0.0
 10
59.620949742
 20
317.9806590683
 30
0.0
 11
58.4751070664
 21
317.372555559
 31
0.0
 11
58.47923842596465
 21
317.498584844791
 31
0.0
 11
58.49300518508566
 21
317.623980921548
 31
0.0
 11
58.51585676116779
 21
317.7363206015424
 31
0.0
 11
58.55149495053866
 21
317.8453391534173
 31
0.0
 11
58.5963947153388
 21
317.937344933464
 31
0.0
 11
58.65556714429294
 21
318.020413845322
 31
0.0
 11
58.68841964445447
 21
318.0547317147483
 31
0.0
 11
58.72455673938128
 21
318.0855596977185
 31
0.0
 11
58.76284400424272
 21
318.1118478951291
 31
0.0
 11
58.80366661217998
 21
318.1339921481178
 31
0.0
 11
58.84677275579803
 21
318.1518232887334
 31
0.0
 11
58.89145232784237
 21
318.1652465155188
 31
0.0
 11
58.93850313359825
 21
318.1745833151418
 31
0.0
 11
58.9862070208774
 21
318.179686731759
 31
0.0
 11
59.08860666176802
 21
318.178037470395
 31
0.0
 11
59.19007091210758
 21
318.1622180401002
 31
0.0
 11
59.29879462856153
 21
318.1323236885452
 31
0.0
 11
59.40411262083867
 21
318.0922136358872
 31
0.0
 11
59.51440530670874
 21
318.0400434266326
 31
0.0
 11
59.620949742
 21
317.9806590683
 31
0.0
  0
SPLINE
  5
10B
330
1F
100
AcDbEntity
  8
BEZUGSACHSEN
  6
Continuous
 62
     7
100
AcDbSpline
210
0.0
220
0.0
230
1.0
 70
     8
 71
     3
 72
    15
 73
    11
 74
     9
 42
0.0000000001
 43
0.0000000001
 44
0.00000001
 40
0.0
 40
0.0
 40
0.0
 40
0.0
 40
0.1110371613193968
 40
0.2222522336982562
 40
0.333398019132603
 40
0.444506947408374
 40
0.5556201064440178
 40
0.6667525641494257
 40
0.7778876032942591
 40
0.8889820915415231
 40
0.8889820915415231
 40
0.8889820915415231
 40
0.8889820915415231
 10
60.3750325816
 20
287.0617906865
 30
0.0
 10
60.33839085474122
 20
287.0673228393496
 30
0.0
 10
60.26504869123347
 20
287.078396009029
 30
0.0
 10
60.15853214123364
 20
287.111414572529
 30
0.0
 10
60.05611923349326
 20
287.1550048599814
 30
0.0
 10
59.95866926788969
 20
287.2087843678023
 30
0.0
 10
59.86636447217322
 20
287.2708795031652
 30
0.0
 10
59.77936784404941
 20
287.340166176817
 30
0.0
 10
59.69711508858384
 20
287.4150481284428
 30
0.0
 10
59.64633510220177
 20
287.4690107099863
 30
0.0
 10
59.620949742
 20
287.4959870774
 30
0.0
 11
60.3750325816
 21
287.0617906865
 31
0.0
 11
60.26569029655124
 21
287.081117245795
 31
0.0
 11
60.15919834296315
 21
287.1131836791051
 31
0.0
 11
60.05693016236743
 21
287.1567107380163
 31
0.0
 11
59.95952729594309
 21
287.2101698397195
 31
0.0
 11
59.86725552917107
 21
287.2720734354765
 31
0.0
 11
59.78015842576438
 21
287.3410989215944
 31
0.0
 11
59.69811852127783
 21
287.4160685887776
 31
0.0
 11
59.620949742
 21
287.4959870774
 31
0.0
  0
SPLINE
  5
10C
330
1F
100
AcDbEntity
  8
BEZUGSACHSEN
  6
Continuous
 62
     7
100
AcDbSpline
210
0.0
220
0.0
230
1.0
 70
     8
 71
     3
 72
    27
 73
    23
 74
    21
 42
0.0000000001
 43
0.0000000001
 44
0.00000001
 40
0.0
 40
0.0
 40
0.0
 40
0.0
 40
0.1219765139942372
 40
0.2439857715228497
 40
0.3566831398802994
 40
0.4694418150046992
 40
0.5721317673312812
 40
0.6745445881519855
 40
0.7225206521561285
 40
0.7704888798001283
 40
0.8171412936315195
 40
0.863789873458705
 40
0.9102318001295884
 40
0.9566751324735568
 40
1.004175175803105
 40
1.051683100177819
 40
1.15367238877152
 40
1.256049376716815
 40
1.370745138137965
 40
1.485385401918948
 40
1.61153490395465
 40
1.737631875999519
 40
1.737631875999519
 40
1.737631875999519
 40
1.737631875999519
 10
59.620949742
 20
287.4959870774
 30
0.0
 10
59.58569472439952
 20
287.475707552101
 30
0.0
 10
59.51517522529568
 20
287.4351430576407
 30
0.0
 10
59.40752282209148
 20
287.3843471967469
 30
0.0
 10
59.29936480622149
 20
287.3425955608769
 30
0.0
 10
59.19378558525129
 20
287.3131809757512
 30
0.0
 10
59.08895404010126
 20
287.2962663884087
 30
0.0
 10
59.0042263702577
 20
287.2944011651905
 30
0.0
 10
58.93840243385309
 20
287.3013564731738
 30
0.0
 10
58.8916952306366
 20
287.3105536003006
 30
0.0
 10
58.84651461333025
 20
287.3240870452801
 30
0.0
 10
58.80337500267685
 20
287.3418803040997
 30
0.0
 10
58.76242052610459
 20
287.3641086618384
 30
0.0
 10
58.7237730996415
 20
287.3906436935625
 30
0.0
 10
58.6878670210043
 20
287.4213389710813
 30
0.0
 10
58.64242769945653
 20
287.4688764441695
 30
0.0
 10
58.59388455936954
 20
287.5380458112553
 30
0.0
 10
58.54765885040734
 20
287.6342038659702
 30
0.0
 10
58.51369297662495
 20
287.7397792989664
 30
0.0
 10
58.4907375524473
 20
287.8561969898751
 30
0.0
 10
58.47729299409754
 20
287.9779442985308
 30
0.0
 10
58.4758356077996
 20
288.062047662048
 30
0.0
 10
58.4751070664
 20
288.1040905866
 30
0.0
 11
59.620949742
 21
287.4959870774
 31
0.0
 11
59.51440511793945
 21
287.4366026261524
 31
0.0
 11
59.40411222877079
 21
287.384432351843
 31
0.0
 11
59.29879422091835
 21
287.3443223274515
 31
0.0
 11
59.1900704923753
 21
287.3144280191721
 31
0.0
 11
59.08860634025416
 21
287.2986086594134
 31
0.0
 11
58.98620679966977
 21
287.2969594303332
 31
0.0
 11
58.93850294345722
 21
287.3020628428956
 31
0.0
 11
58.89145217319577
 21
287.3113996454056
 31
0.0
 11
58.84677260576235
 21
287.3248229076864
 31
0.0
 11
58.80366646916641
 21
287.3426540878959
 31
0.0
 11
58.76284387636955
 21
287.3647983528475
 31
0.0
 11
58.7245566198234
 21
287.3910865461172
 31
0.0
 11
58.68841952281285
 21
287.4219145258751
 31
0.0
 11
58.65556702244097
 21
287.4562323943653
 31
0.0
 11
58.59639462818715
 21
287.5393012979702
 31
0.0
 11
58.55149490458609
 21
287.6313070721439
 31
0.0
 11
58.51585674501858
 21
287.7403255993336
 31
0.0
 11
58.49300518165235
 21
287.8526652456367
 31
0.0
 11
58.4792384253298
 21
287.9780613113015
 31
0.0
 11
58.4751070664
 21
288.1040905866
 31
0.0
  0
SPLINE
  5
10D
330
1F
100
AcDbEntity
  8
BEZUGSACHSEN
  6
Continuous
 62
     7
100
AcDbSpline
210
0.0
220
0.0
230
1.0
 70
     8
 71
     3
 72
    47
 73
    43
 74
    41
 42
0.0000000001
 43
0.0000000001
 44
0.00000001
 40
0.0
 40
0.0
 40
0.0
 40
0.0
 40
0.630239321394691
 40
1.260854867291827
 40
1.577476088390045
 40
1.893930800225977
 40
2.210999113872695
 40
2.528183472208543
 40
3.164887038233461
 40
3.801951183366729
 40
4.442851001592773
 40
5.083381259772166
 40
5.404527292294944
 40
5.725573838736611
 40
6.046670710003612
 40
6.367871027123495
 40
7.009090242523728
 40
7.650619763950673
 40
8.290330346485636
 40
8.929958764456554
 40
9.568647011310354
 40
10.20735923009527
 40
10.84445705813005
 40
11.48152626494185
 40
12.11643462221119
 40
12.75141965577962
 40
13.38691908736304
 40
14.02211738528558
 40
14.34050449138948
 40
14.65879153787214
 40
14.977615868645
 40
15.2965377494248
 40
15.93537694099413
 40
16.57458694063913
 40
17.21386274986515
 40
17.85277859069457
 40
18.1721986007895
 40
18.49150024073604
 40
18.81067156632617
 40
19.13001452418105
 40
19.76719627021367
 40
20.40398968279813
 40
20.40398968279813
 40
20.40398968279813
 40
20.40398968279813
 10
99.9745207042
 20
302.7383230915
 30
0.0
 10
99.96865150245435
 20
302.5281670696318
 30
0.0
 10
99.95690959531382
 20
302.1077295722114
 30
0.0
 10
99.87746285275807
 20
301.5865661299607
 30
0.0
 10
99.78673134769666
 20
301.175174662513
 30
0.0
 10
99.70312596540401
 20
300.8695368222058
 30
0.0
 10
99.60477402403767
 20
300.5681529760101
 30
0.0
 10
99.45375521318337
 20
300.1721797964213
 30
0.0
 10
99.22847262557752
 20
299.6910729877524
 30
0.0
 10
98.90209459080893
 20
299.1414387627733
 30
0.0
 10
98.52222752873826
 20
298.6257109001336
 30
0.0
 10
98.16397308943439
 20
298.2281854979385
 30
0.0
 10
97.8547923517595
 20
297.932632143001
 30
0.0
 10
97.61186739573904
 20
297.7224472345575
 30
0.0
 10
97.35881849243869
 20
297.5245377702126
 30
0.0
 10
97.00903598400225
 20
297.2779144187067
 30
0.0
 10
96.54955074624078
 20
297.0027078094162
 30
0.0
 10
95.96915503925678
 20
296.7286677027238
 30
0.0
 10
95.3650007314105
 20
296.5134792254024
 30
0.0
 10
94.7435855840136
 20
296.3588173863975
 30
0.0
 10
94.1103163725941
 20
296.2660070133762
 30
0.0
 10
93.4718569081655
 20
296.2354962635567
 30
0.0
 10
92.8340238946011
 20
296.2675980059018
 30
0.0
 10
92.20359390758338
 20
296.3614110682383
 30
0.0
 10
91.58602023806924
 20
296.5161248845154
 30
0.0
 10
90.9868768266336
 20
296.7299214565896
 30
0.0
 10
90.41141960517558
 20
297.001242825042
 30
0.0
 10
89.95573421223929
 20
297.2730877086902
 30
0.0
 10
89.60847831451886
 20
297.5165482612897
 30
0.0
 10
89.35685873323685
 20
297.7120307876235
 30
0.0
 10
89.11498368297745
 20
297.9197238463364
 30
0.0
 10
88.80604739930459
 20
298.2125613944917
 30
0.0
 10
88.44720464241377
 20
298.6070190434318
 30
0.0
 10
88.0649777371643
 20
299.12050370937
 30
0.0
 10
87.73535329190065
 20
299.669271488073
 30
0.0
 10
87.50686584598036
 20
300.1513349045632
 30
0.0
 10
87.35336434602036
 20
300.5487444637398
 30
0.0
 10
87.25310754309704
 20
300.8520268270321
 30
0.0
 10
87.16779105017157
 20
301.1598506987358
 30
0.0
 10
87.0750285948024
 20
301.5748915658426
 30
0.0
 10
86.993736227845
 20
302.1011643649315
 30
0.0
 10
86.98169642835671
 20
302.5259800146505
 30
0.0
 10
86.9756783636
 20
302.7383230933
 30
0.0
 11
99.9745207042
 21
302.7383230915
 31
0.0
 11
99.94398112547876
 21
302.1088241348975
 31
0.0
 11
99.85264984995194
 21
301.4848573370326
 31
0.0
 11
99.78415511126543
 21
301.1757336264862
 31
0.0
 11
99.70073628642868
 21
300.8704716335915
 31
0.0
 11
99.60234954258961
 21
300.5690543743718
 31
0.0
 11
99.48931891148706
 21
300.2726931191351
 31
0.0
 11
99.21933877497226
 21
299.6960631191557
 31
0.0
 11
98.89400215310152
 21
299.1483343473314
 31
0.0
 11
98.5139656582704
 21
298.632267646605
 31
0.0
 11
98.08511516057544
 21
298.156488010355
 31
0.0
 11
97.8529780262011
 21
297.934571077586
 31
0.0
 11
97.61019553287488
 21
297.7245055023091
 31
0.0
 11
97.35726592460125
 21
297.5266929294124
 31
0.0
 11
97.09475152878973
 21
297.3416096084199
 31
0.0
 11
96.54469334718581
 21
297.0120673819161
 31
0.0
 11
95.96455251549982
 21
296.7382120509967
 31
0.0
 11
95.36194720519292
 21
296.5235111674467
 31
0.0
 11
94.74124793488375
 21
296.3690542837748
 31
0.0
 11
94.10931912099262
 21
296.2763793095728
 31
0.0
 11
93.47133299383013
 21
296.2459326353152
 31
0.0
 11
92.83503800568644
 21
296.2779065395163
 31
0.0
 11
92.20491473154752
 21
296.3717246276244
 31
0.0
 11
91.58903082329155
 21
296.5259829618622
 31
0.0
 11
90.9909983534705
 21
296.739438244991
 31
0.0
 11
90.41616260492796
 21
297.0104057517892
 31
0.0
 11
89.87069591741566
 21
297.3358945695664
 31
0.0
 11
89.60999362466741
 21
297.5186639977787
 31
0.0
 11
89.35864437288463
 21
297.7139335488789
 31
0.0
 11
89.11676107454603
 21
297.9216386857379
 31
0.0
 11
88.88530524324743
 21
298.1410455320258
 31
0.0
 11
88.4553822123672
 21
298.6135724626908
 31
0.0
 11
88.0737610729094
 21
299.1263635795845
 31
0.0
 11
87.74452959873035
 21
299.6743418607887
 31
0.0
 11
87.47091529158632
 21
300.2517054053504
 31
0.0
 11
87.35582303912636
 21
300.5496700278691
 31
0.0
 11
87.25558335069947
 21
300.8528292964667
 31
0.0
 11
87.17041627048083
 21
301.1604279042757
 31
0.0
 11
87.10045324299739
 21
301.472012723413
 31
0.0
 11
87.0069643460169
 21
302.1022986931272
 31
0.0
 11
86.9756783636
 21
302.7383230933
 31
0.0
  0
SPLINE
  5
10E
330
1F
100
AcDbEntity
  8
BEZUGSACHSEN
  6
Continuous
 62
     7
100
AcDbSpline
210
0.0
220
0.0
230
1.0
 70
     8
 71
     3
 72
    47
 73
    43
 74
    41
 42
0.0000000001
 43
0.0000000001
 44
0.00000001
 40
0.0
 40
0.0
 40
0.0
 40
0.0
 40
0.6366022431461787
 40
1.273595002083001
 40
1.592921746302271
 40
1.912076344794073
 40
2.231392290339205
 40
2.550826842654414
 40
3.189774321081211
 40
3.829081696910328
 40
4.468337152411467
 40
5.107221744687808
 40
5.426176341194296
 40
5.745033356751449
 40
6.063356731518708
 40
6.381780214809561
 40
7.01705919557944
 40
7.652639340904996
 40
8.287532214174043
 40
8.922347946454204
 40
9.559226748520071
 40
10.1961343592876
 40
10.83451785493543
 40
11.47287689964386
 40
12.11234487356535
 40
12.75189588941374
 40
13.3935430051436
 40
14.03487957351076
 40
14.35615205766728
 40
14.67732107706582
 40
14.99840882466705
 40
15.3195960411576
 40
15.96011121021219
 40
16.60099592083239
 40
17.2380910807158
 40
17.87482555192548
 40
18.19205670325172
 40
18.50917199093008
 40
18.82571084621735
 40
19.14241581821081
 40
19.77338974991251
 40
20.40398930738725
 40
20.40398930738725
 40
20.40398930738725
 40
20.40398930738725
 10
86.9756914721
 20
302.7383230534
 30
0.0
 10
86.9816971159863
 20
302.9506028630833
 30
0.0
 10
86.99371208784699
 20
303.3752927028796
 30
0.0
 10
87.0749774330592
 20
303.9014354639621
 30
0.0
 10
87.1676970296594
 20
304.316409840068
 30
0.0
 10
87.25298999379378
 20
304.6242338157649
 30
0.0
 10
87.3532286072037
 20
304.927526492562
 30
0.0
 10
87.5067141563195
 20
305.3249638551241
 30
0.0
 10
87.73518610310589
 20
305.8070634320051
 30
0.0
 10
88.0648010636877
 20
306.3558793048221
 30
0.0
 10
88.44702828075809
 20
306.8694148441788
 30
0.0
 10
88.80588297787965
 20
307.2639176062703
 30
0.0
 10
89.11483633146922
 20
307.5567909043048
 30
0.0
 10
89.35673144045536
 20
307.7645127254137
 30
0.0
 10
89.60837469392715
 20
307.960022122551
 30
0.0
 10
89.95566880105486
 20
308.2035173252345
 30
0.0
 10
90.41140913580102
 20
308.4753993952812
 30
0.0
 10
90.98688856049874
 20
308.7467285077931
 30
0.0
 10
91.58599932568367
 20
308.9605121386011
 30
0.0
 10
92.2034497281567
 20
309.115201869971
 30
0.0
 10
92.83372028984482
 20
309.2090088536262
 30
0.0
 10
93.47131422455386
 20
309.2411355784325
 30
0.0
 10
94.10949286877052
 20
309.2107060054822
 30
0.0
 10
94.74250528995887
 20
309.1180347503185
 30
0.0
 10
95.36373897439745
 20
308.9635427890905
 30
0.0
 10
95.96787472637813
 20
308.7485056565497
 30
0.0
 10
96.54835379995811
 20
308.4745822908196
 30
0.0
 10
97.0079828241838
 20
308.1994154127599
 30
0.0
 10
97.35788181284725
 20
307.9528057139025
 30
0.0
 10
97.61101344199648
 20
307.7549015215317
 30
0.0
 10
97.85401208135063
 20
307.5447229921298
 30
0.0
 10
98.16325642485532
 20
307.2492036519749
 30
0.0
 10
98.521576615649
 20
306.8517326692124
 30
0.0
 10
98.90152703399018
 20
306.3360659076774
 30
0.0
 10
99.22800006360873
 20
305.7864697512419
 30
0.0
 10
99.45337120360625
 20
305.3053642095574
 30
0.0
 10
99.60446218676395
 20
304.9093740219457
 30
0.0
 10
99.70287510431335
 20
304.6079476711519
 30
0.0
 10
99.78654188248291
 20
304.3022523032136
 30
0.0
 10
99.8773612399141
 20
303.8907002854694
 30
0.0
 10
99.95687621552136
 20
303.3692750689215
 30
0.0
 10
99.96864850018943
 20
302.948598779756
 30
0.0
 10
99.9745328958
 20
302.7383230534
 30
0.0
 11
86.9756914721
 21
302.7383230534
 31
0.0
 11
87.0069401431398
 21
303.3741578877218
 31
0.0
 11
87.10038134551341
 21
304.0042598767973
 31
0.0
 11
87.1703218525463
 21
304.3158331347153
 31
0.0
 11
87.25546319151148
 21
304.6234215124829
 31
0.0
 11
87.35568772962475
 21
304.9266008571608
 31
0.0
 11
87.47076761935398
 21
305.2245858436832
 31
0.0
 11
87.7443635136008
 21
305.8019931235466
 31
0.0
 11
88.07358302729642
 21
306.3500154156037
 31
0.0
 11
88.4552072826263
 21
306.8628608749108
 31
0.0
 11
88.88514191875267
 21
307.3354386260872
 31
0.0
 11
89.11661417983505
 21
307.5548756944737
 31
0.0
 11
89.358516580876
 21
307.7626087557341
 31
0.0
 11
89.60989038801586
 21
307.9579059139501
 31
0.0
 11
89.87061966628065
 21
308.1407002195687
 31
0.0
 11
90.4161533104635
 21
308.4662342830284
 31
0.0
 11
90.99106313059264
 21
308.7372339506502
 31
0.0
 11
91.58900931837073
 21
308.9506568103665
 31
0.0
 11
92.20480185061301
 21
309.1048987345799
 31
0.0
 11
92.83473413257198
 21
309.1987066695684
 31
0.0
 11
93.47083725427838
 21
309.2307085946507
 31
0.0
 11
94.10849821328246
 21
309.2003443248992
 31
0.0
 11
94.74011574619094
 21
309.1078156153887
 31
0.0
 11
95.36068861831583
 21
308.9535152587659
 31
0.0
 11
95.96318942546964
 21
308.7389965433779
 31
0.0
 11
96.54349662185078
 21
308.4652182042919
 31
0.0
 11
97.09372160989881
 21
308.1357260853383
 31
0.0
 11
97.35632891404626
 21
307.9506493096897
 31
0.0
 11
97.60934937143811
 21
307.7528357935624
 31
0.0
 11
97.85219767280243
 21
307.5427833139672
 31
0.0
 11
98.08440010820946
 21
307.3208750963906
 31
0.0
 11
98.51331616594369
 21
306.8451748785993
 31
0.0
 11
98.89342682461678
 21
306.3291815652028
 31
0.0
 11
99.21886597034197
 21
305.7814776258555
 31
0.0
 11
99.48894682847164
 21
305.2048606672959
 31
0.0
 11
99.60203727365582
 21
304.9084721476467
 31
0.0
 11
99.70048137699501
 21
304.6070242015647
 31
0.0
 11
99.78396418236925
 21
304.3016924670309
 31
0.0
 11
99.8525136058035
 21
303.9924950934453
 31
0.0
 11
99.94394068368777
 21
303.368180115316
 31
0.0
 11
99.9745328958
 21
302.7383230534
 31
0.0
  0
DIMENSION
  5
119
330
1F
100
AcDbEntity
  8
1
100
AcDbDimension
  2
*D2
 10
228.4751070664
 20
376.244460048464
 30
0.0
 11
154.470280715019
 21
379.994460048464
 31
0.0
 70
    32
  1
<>
 71
     5
 42
-1.0
 53
0.00013888888889
  3
ME10_DIM_10
100
AcDbAlignedDimension
 13
58.4751070664
 23
336.3385146354
 33
0.0
 14
228.4751070664
 24
325.3241095104
 34
0.0
100
AcDbRotatedDimension
  0
DIMENSION
  5
124
330
1F
100
AcDbEntity
  8
1
100
AcDbDimension
  2
*D3
 10
228.4751070664
 20
368.386209556087
 30
0.0
 11
170.734973876542
 21
372.136209556087
 31
0.0
 70
    32
  1
<>
 71
     5
 42
-1.0
 53
0.00013888888889
  3
ME10_DIM_11
100
AcDbAlignedDimension
 13
108.4751070664
 23
352.7383230728
 33
0.0
 14
228.4751070664
 24
325.3241095104
 34
0.0
100
AcDbRotatedDimension
  0
DIMENSION
  5
12F
330
1F
100
AcDbEntity
  8
1
100
AcDbDimension
  2
*D4
 10
228.4751070664
 20
361.32710318158
 30
0.0
 11
181.9974253979346
 21
365.07710318158
 31
0.0
 70
    32
  1
<>
 71
     5
 42
-1.0
 53
0.00013888888889
  3
ME10_DIM_12
100
AcDbAlignedDimension
 13
137.4751070664
 23
352.7382861517
 33
0.0
 14
228.4751070664
 24
325.3241095104
 34
0.0
100
AcDbRotatedDimension
  0
DIMENSION
  5
13A
330
1F
100
AcDbEntity
  8
1
100
AcDbDimension
  2
*D5
 10
248.01919805441
 20
335.2383230728
 30
0.0
 11
244.26919805441
 21
302.989582577157
 31
0.0
 70
    32
  1
<>
 71
     5
 42
-1.0
 53
90.0
  3
ME10_DIM_13
100
AcDbAlignedDimension
 13
218.560893504
 23
270.2383230728
 33
0.0
 14
218.560893504
 24
335.2383230728
 34
0.0
 50
90.0
100
AcDbRotatedDimension
  0
DIMENSION
  5
145
330
1F
100
AcDbEntity
  8
1
100
AcDbDimension
  2
*D6
 10
239.494994130476
 20
315.2383230728
 30
0.0
 11
235.744994130476
 21
302.190438459288
 31
0.0
 70
    32
  1
<>
 71
     5
 42
-1.0
 53
90.0
  3
ME10_DIM_14
100
AcDbAlignedDimension
 13
228.4751070664
 23
290.2383230728
 33
0.0
 14
228.4751070664
 24
315.2383230728
 34
0.0
 50
90.0
100
AcDbRotatedDimension
  0
INSERT
  5
14C
330
1F
100
AcDbEntity
  8
1
100
AcDbBlockReference
  2
*D7
 10
0.0
 20
0.0
 30
0.0
  0
ENDSEC
  0
SECTION
  2
OBJECTS
  0
DICTIONARY
  5
C
330
0
100
AcDbDictionary
281
     1
  3
ACAD_GROUP
350
D
  3
ACAD_LAYOUT
350
1A
  3
ACAD_MLEADERSTYLE
350
14F
  3
ACAD_MLINESTYLE
350
17
  3
ACAD_PLOTSETTINGS
350
19
  3
ACAD_PLOTSTYLENAME
350
E
  3
ACAD_SCALELIST
350
4B
  3
ACAD_VISUALSTYLE
350
2A
  3
AcDbVariableDictionary
350
14D
  0
DICTIONARY
  5
D
102
{ACAD_REACTORS
330
C
102
}
330
C
100
AcDbDictionary
281
     1
  0
DICTIONARY
  5
1A
102
{ACAD_REACTORS
330
C
102
}
330
C
100
AcDbDictionary
281
     1
  3
Layout1
350
1E
  3
Layout2
350
26
  3
Model
350
22
  0
DICTIONARY
  5
14F
102
{ACAD_REACTORS
330
C
102
}
330
C
100
AcDbDictionary
281
     1
  0
DICTIONARY
  5
17
102
{ACAD_REACTORS
330
C
102
}
330
C
100
AcDbDictionary
281
     1
  3
Standard
350
18
  0
DICTIONARY
  5
19
102
{ACAD_REACTORS
330
C
102
}
330
C
100
AcDbDictionary
281
     1
  0
ACDBDICTIONARYWDFLT
  5
E
102
{ACAD_REACTORS
330
C
102
}
330
C
100
AcDbDictionary
281
     1
  3
Normal
350
F
100
AcDbDictionaryWithDefault
340
F
  0
DICTIONARY
  5
4B
102
{ACAD_REACTORS
330
C
102
}
330
C
100
AcDbDictionary
281
     1
  3
A0
350
4C
  3
A1
350
4D
  3
A2
350
4E
  3
A3
350
4F
  3
A4
350
50
  3
A5
350
51
  3
A6
350
52
  3
A7
350
53
  3
A8
350
54
  3
A9
350
55
  3
B0
350
56
  3
B1
350
57
  3
B2
350
58
  3
B3
350
59
  3
B4
350
5A
  3
B5
350
5B
  3
B6
350
5C
  3
B7
350
5D
  3
B8
350
5E
  3
B9
350
5F
  3
C0
350
60
  3
C1
350
61
  3
C2
350
62
  3
C3
350
63
  3
C4
350
64
  3
C5
350
65
  3
C6
350
66
  3
C7
350
67
  3
C8
350
68
  3
C9
350
69
  3
D0
350
6A
  3
D1
350
6B
  3
D2
350
6C
  0
DICTIONARY
  5
2A
102
{ACAD_REACTORS
330
C
102
}
330
C
100
AcDbDictionary
281
     1
  3
2dWireframe
350
2F
  3
3D Hidden
350
31
  3
3dWireframe
350
30
  3
Basic
350
32
  3
Brighten
350
36
  3
ColorChange
350
3A
  3
Conceptual
350
34
  3
Dim
350
35
  3
Facepattern
350
39
  3
Flat
350
2B
  3
FlatWithEdges
350
2C
  3
Gouraud
350
2D
  3
GouraudWithEdges
350
2E
  3
Linepattern
350
38
  3
Realistic
350
33
  3
Thicken
350
37
  0
DICTIONARY
  5
14D
102
{ACAD_REACTORS
330
C
102
}
330
C
100
AcDbDictionary
281
     1
  3
CANNOSCALE
350
150
  0
LAYOUT
  5
1E
102
{ACAD_REACTORS
330
1A
102
}
330
1A
100
AcDbPlotSettings
  1

  2
none_device
  4

  6

 40
0.0
 41
0.0
 42
0.0
 43
0.0
 44
0.0
 45
0.0
 46
0.0
 47
0.0
 48
0.0
 49
0.0
140
0.0
141
0.0
142
1.0
143
1.0
 70
   688
 72
     0
 73
     0
 74
     5
  7

 75
    16
147
1.0
148
0.0
149
0.0
100
AcDbLayout
  1
Layout1
 70
     1
 71
     1
 10
0.0
 20
0.0
 11
12.0
 21
9.0
 12
0.0
 22
0.0
 32
0.0
 14
1.00000000000000E+20
 24
1.00000000000000E+20
 34
1.00000000000000E+20
 15
-1.00000000000000E+20
 25
-1.00000000000000E+20
 35
-1.00000000000000E+20
146
0.0
 13
0.0
 23
0.0
 33
0.0
 16
1.0
 26
0.0
 36
0.0
 17
0.0
 27
1.0
 37
0.0
 76
     0
330
1B
  0
LAYOUT
  5
26
102
{ACAD_REACTORS
330
1A
102
}
330
1A
100
AcDbPlotSettings
  1

  2
none_device
  4

  6

 40
0.0
 41
0.0
 42
0.0
 43
0.0
 44
0.0
 45
0.0
 46
0.0
 47
0.0
 48
0.0
 49
0.0
140
0.0
141
0.0
142
1.0
143
1.0
 70
   688
 72
     0
 73
     0
 74
     5
  7

 75
    16
147
1.0
148
0.0
149
0.0
100
AcDbLayout
  1
Layout2
 70
     1
 71
     2
 10
0.0
 20
0.0
 11
0.0
 21
0.0
 12
0.0
 22
0.0
 32
0.0
 14
0.0
 24
0.0
 34
0.0
 15
0.0
 25
0.0
 35
0.0
146
0.0
 13
0.0
 23
0.0
 33
0.0
 16
1.0
 26
0.0
 36
0.0
 17
0.0
 27
1.0
 37
0.0
 76
     0
330
23
  0
LAYOUT
  5
22
102
{ACAD_REACTORS
330
1A
102
}
330
1A
100
AcDbPlotSettings
  1

  2
none_device
  4

  6

 40
0.0
 41
0.0
 42
0.0
 43
0.0
 44
0.0
 45
0.0
 46
0.0
 47
0.0
 48
0.0
 49
0.0
140
0.0
141
0.0
142
1.0
143
1.0
 70
  1712
 72
     0
 73
     0
 74
     0
  7

 75
     0
147
1.0
148
0.0
149
0.0
100
AcDbLayout
  1
Model
 70
     1
 71
     0
 10
0.0
 20
0.0
 11
12.0
 21
9.0
 12
0.0
 22
0.0
 32
0.0
 14
34.1182196478697
 24
252.7383230728
 34
0.0
 15
250.01919805441
 25
381.744460048464
 35
0.0
146
0.0
 13
0.0
 23
0.0
 33
0.0
 16
1.0
 26
0.0
 36
0.0
 17
0.0
 27
1.0
 37
0.0
 76
     0
330
1F
331
29
  0
MLINESTYLE
  5
18
102
{ACAD_REACTORS
330
17
102
}
330
17
100
AcDbMlineStyle
  2
Standard
 70
     0
  3

 62
   256
 51
90.0
 52
90.0
 71
     2
 49
0.5
 62
   256
  6
BYLAYER
 49
-0.5
 62
   256
  6
BYLAYER
  0
ACDBPLACEHOLDER
  5
F
102
{ACAD_REACTORS
330
E
102
}
330
E
  0
SCALE
  5
4C
102
{ACAD_REACTORS
330
4B
102
}
330
4B
100
AcDbScale
 70
     0
300
1:1
140
1.0
141
1.0
290
     1
  0
SCALE
  5
4D
102
{ACAD_REACTORS
330
4B
102
}
330
4B
100
AcDbScale
 70
     0
300
1:2
140
1.0
141
2.0
290
     0
  0
SCALE
  5
4E
102
{ACAD_REACTORS
330
4B
102
}
330
4B
100
AcDbScale
 70
     0
300
1:4
140
1.0
141
4.0
290
     0
  0
SCALE
  5
4F
102
{ACAD_REACTORS
330
4B
102
}
330
4B
100
AcDbScale
 70
     0
300
1:5
140
1.0
141
5.0
290
     0
  0
SCALE
  5
50
102
{ACAD_REACTORS
330
4B
102
}
330
4B
100
AcDbScale
 70
     0
300
1:8
140
1.0
141
8.0
290
     0
  0
SCALE
  5
51
102
{ACAD_REACTORS
330
4B
102
}
330
4B
100
AcDbScale
 70
     0
300
1:10
140
1.0
141
10.0
290
     0
  0
SCALE
  5
52
102
{ACAD_REACTORS
330
4B
102
}
330
4B
100
AcDbScale
 70
     0
300
1:16
140
1.0
141
16.0
290
     0
  0
SCALE
  5
53
102
{ACAD_REACTORS
330
4B
102
}
330
4B
100
AcDbScale
 70
     0
300
1:20
140
1.0
141
20.0
290
     0
  0
SCALE
  5
54
102
{ACAD_REACTORS
330
4B
102
}
330
4B
100
AcDbScale
 70
     0
300
1:30
140
1.0
141
30.0
290
     0
  0
SCALE
  5
55
102
{ACAD_REACTORS
330
4B
102
}
330
4B
100
AcDbScale
 70
     0
300
1:40
140
1.0
141
40.0
290
     0
  0
SCALE
  5
56
102
{ACAD_REACTORS
330
4B
102
}
330
4B
100
AcDbScale
 70
     0
300
1:50
140
1.0
141
50.0
290
     0
  0
SCALE
  5
57
102
{ACAD_REACTORS
330
4B
102
}
330
4B
100
AcDbScale
 70
     0
300
1:100
140
1.0
141
100.0
290
     0
  0
SCALE
  5
58
102
{ACAD_REACTORS
330
4B
102
}
330
4B
100
AcDbScale
 70
     0
300
2:1
140
2.0
141
1.0
290
     0
  0
SCALE
  5
59
102
{ACAD_REACTORS
330
4B
102
}
330
4B
100
AcDbScale
 70
     0
300
4:1
140
4.0
141
1.0
290
     0
  0
SCALE
  5
5A
102
{ACAD_REACTORS
330
4B
102
}
330
4B
100
AcDbScale
 70
     0
300
8:1
140
8.0
141
1.0
290
     0
  0
SCALE
  5
5B
102
{ACAD_REACTORS
330
4B
102
}
330
4B
100
AcDbScale
 70
     0
300
10:1
140
10.0
141
1.0
290
     0
  0
SCALE
  5
5C
102
{ACAD_REACTORS
330
4B
102
}
330
4B
100
AcDbScale
 70
     0
300
100:1
140
100.0
141
1.0
290
     0
  0
SCALE
  5
5D
102
{ACAD_REACTORS
330
4B
102
}
330
4B
100
AcDbScale
 70
     0
300
1/128" = 1'-0"
140
0.0078125
141
12.0
290
     0
  0
SCALE
  5
5E
102
{ACAD_REACTORS
330
4B
102
}
330
4B
100
AcDbScale
 70
     0
300
1/64" = 1'-0"
140
0.015625
141
12.0
290
     0
  0
SCALE
  5
5F
102
{ACAD_REACTORS
330
4B
102
}
330
4B
100
AcDbScale
 70
     0
300
1/32" = 1'-0"
140
0.03125
141
12.0
290
     0
  0
SCALE
  5
60
102
{ACAD_REACTORS
330
4B
102
}
330
4B
100
AcDbScale
 70
     0
300
1/16" = 1'-0"
140
0.0625
141
12.0
290
     0
  0
SCALE
  5
61
102
{ACAD_REACTORS
330
4B
102
}
330
4B
100
AcDbScale
 70
     0
300
3/32" = 1'-0"
140
0.09375
141
12.0
290
     0
  0
SCALE
  5
62
102
{ACAD_REACTORS
330
4B
102
}
330
4B
100
AcDbScale
 70
     0
300
1/8" = 1'-0"
140
0.125
141
12.0
290
     0
  0
SCALE
  5
63
102
{ACAD_REACTORS
330
4B
102
}
330
4B
100
AcDbScale
 70
     0
300
3/16" = 1'-0"
140
0.1875
141
12.0
290
     0
  0
SCALE
  5
64
102
{ACAD_REACTORS
330
4B
102
}
330
4B
100
AcDbScale
 70
     0
300
1/4" = 1'-0"
140
0.25
141
12.0
290
     0
  0
SCALE
  5
65
102
{ACAD_REACTORS
330
4B
102
}
330
4B
100
AcDbScale
 70
     0
300
3/8" = 1'-0"
140
0.375
141
12.0
290
     0
  0
SCALE
  5
66
102
{ACAD_REACTORS
330
4B
102
}
330
4B
100
AcDbScale
 70
     0
300
1/2" = 1'-0"
140
0.5
141
12.0
290
     0
  0
SCALE
  5
67
102
{ACAD_REACTORS
330
4B
102
}
330
4B
100
AcDbScale
 70
     0
300
3/4" = 1'-0"
140
0.75
141
12.0
290
     0
  0
SCALE
  5
68
102
{ACAD_REACTORS
330
4B
102
}
330
4B
100
AcDbScale
 70
     0
300
1" = 1'-0"
140
1.0
141
12.0
290
     0
  0
SCALE
  5
69
102
{ACAD_REACTORS
330
4B
102
}
330
4B
100
AcDbScale
 70
     0
300
1-1/2" = 1'-0"
140
1.5
141
12.0
290
     0
  0
SCALE
  5
6A
102
{ACAD_REACTORS
330
4B
102
}
330
4B
100
AcDbScale
 70
     0
300
3" = 1'-0"
140
3.0
141
12.0
290
     0
  0
SCALE
  5
6B
102
{ACAD_REACTORS
330
4B
102
}
330
4B
100
AcDbScale
 70
     0
300
6" = 1'-0"
140
6.0
141
12.0
290
     0
  0
SCALE
  5
6C
102
{ACAD_REACTORS
330
4B
102
}
330
4B
100
AcDbScale
 70
     0
300
1'-0" = 1'-0"
140
12.0
141
12.0
290
     0
  0
VISUALSTYLE
  5
2F
102
{ACAD_REACTORS
330
2A
102
}
330
2A
100
AcDbVisualStyle
  2
2dWireframe
 70
     4
 71
     0
 72
     2
 73
     0
 90
        0
 40
-0.6
 41
-30.0
 62
     5
 63
     7
 74
     1
 91
        4
 64
     7
 65
   257
 75
     1
175
     1
 42
1.0
 92
        0
 66
   257
 43
1.0
 76
     1
 77
     6
 78
     2
 67
     7
 79
     5
170
     0
171
     0
290
     0
174
     0
 93
        1
 44
0.0
173
     0
291
     0
 45
0.0
1001
ACAD
1000
AcDbSavedByObjectVersion
1070
     0
  0
VISUALSTYLE
  5
31
102
{ACAD_REACTORS
330
2A
102
}
330
2A
100
AcDbVisualStyle
  2
3D Hidden
 70
     6
 71
     1
 72
     2
 73
     2
 90
        0
 40
-0.6
 41
-30.0
 62
     5
 63
     7
 74
     2
 91
        2
 64
     7
 65
   257
 75
     2
175
     1
 42
40.0
 92
        0
 66
   257
 43
1.0
 76
     1
 77
     6
 78
     2
 67
     7
 79
     3
170
     0
171
     0
290
     0
174
     0
 93
        1
 44
0.0
173
     0
291
     0
 45
0.0
1001
ACAD
1000
AcDbSavedByObjectVersion
1070
     0
  0
VISUALSTYLE
  5
30
102
{ACAD_REACTORS
330
2A
102
}
330
2A
100
AcDbVisualStyle
  2
3dWireframe
 70
     5
 71
     0
 72
     2
 73
     0
 90
        0
 40
-0.6
 41
-30.0
 62
     5
 63
     7
 74
     1
 91
        4
 64
     7
 65
   257
 75
     1
175
     1
 42
1.0
 92
        0
 66
   257
 43
1.0
 76
     1
 77
     6
 78
     2
 67
     7
 79
     5
170
     0
171
     0
290
     0
174
     0
 93
        1
 44
0.0
173
     0
291
     0
 45
0.0
1001
ACAD
1000
AcDbSavedByObjectVersion
1070
     0
  0
VISUALSTYLE
  5
32
102
{ACAD_REACTORS
330
2A
102
}
330
2A
100
AcDbVisualStyle
  2
Basic
 70
     7
 71
     1
 72
     0
 73
     1
 90
        0
 40
-0.6
 41
-30.0
 62
     5
 63
     7
 74
     0
 91
        4
 64
     7
 65
   257
 75
     1
175
     1
 42
1.0
 92
        8
 66
     7
 43
1.0
 76
     1
 77
     6
 78
     2
 67
     7
 79
     5
170
     0
171
     0
290
     0
174
     0
 93
        1
 44
0.0
173
     0
291
     1
 45
0.0
1001
ACAD
1000
AcDbSavedByObjectVersion
1070
     0
  0
VISUALSTYLE
  5
36
102
{ACAD_REACTORS
330
2A
102
}
330
2A
100
AcDbVisualStyle
  2
Brighten
 70
    12
 71
     2
 72
     2
 73
     0
 90
        0
 40
-0.6
 41
-30.0
 62
     5
 63
     7
 74
     1
 91
        4
 64
     7
 65
   257
 75
     1
175
     1
 42
1.0
 92
        8
 66
     7
 43
1.0
 76
     1
 77
     6
 78
     2
 67
     7
 79
     5
170
     0
171
     0
290
     0
174
     0
 93
        1
 44
50.0
173
     0
291
     1
 45
0.0
1001
ACAD
1000
AcDbSavedByObjectVersion
1070
     0
  0
VISUALSTYLE
  5
3A
102
{ACAD_REACTORS
330
2A
102
}
330
2A
100
AcDbVisualStyle
  2
ColorChange
 70
    16
 71
     2
 72
     2
 73
     3
 90
        0
 40
-0.6
 41
-30.0
 62
     5
 63
     8
 74
     1
 91
        4
 64
     7
 65
   257
 75
     1
175
     1
 42
1.0
 92
        8
 66
     8
 43
1.0
 76
     1
 77
     6
 78
     2
 67
     7
 79
     5
170
     0
171
     0
290
     0
174
     0
 93
        1
 44
0.0
173
     0
291
     1
 45
0.0
1001
ACAD
1000
AcDbSavedByObjectVersion
1070
     0
  0
VISUALSTYLE
  5
34
102
{ACAD_REACTORS
330
2A
102
}
330
2A
100
AcDbVisualStyle
  2
Conceptual
 70
     9
 71
     3
 72
     2
 73
     0
 90
        0
 40
-0.6
 41
-30.0
 62
     5
 63
     7
 74
     2
 91
        2
 64
     7
 65
   257
 75
     1
175
     1
 42
40.0
 92
        8
 66
     7
 43
1.0
 76
     1
 77
     6
 78
     2
 67
     7
 79
     3
170
     0
171
     0
290
     0
174
     0
 93
        1
 44
0.0
173
     0
291
     0
 45
0.0
1001
ACAD
1000
AcDbSavedByObjectVersion
1070
     0
  0
VISUALSTYLE
  5
35
102
{ACAD_REACTORS
330
2A
102
}
330
2A
100
AcDbVisualStyle
  2
Dim
 70
    11
 71
     2
 72
     2
 73
     0
 90
        0
 40
-0.6
 41
-30.0
 62
     5
 63
     7
 74
     1
 91
        4
 64
     7
 65
   257
 75
     1
175
     1
 42
1.0
 92
        8
 66
     7
 43
1.0
 76
     1
 77
     6
 78
     2
 67
     7
 79
     5
170
     0
171
     0
290
     0
174
     0
 93
        1
 44
-50.0
173
     0
291
     1
 45
0.0
1001
ACAD
1000
AcDbSavedByObjectVersion
1070
     0
  0
VISUALSTYLE
  5
39
102
{ACAD_REACTORS
330
2A
102
}
330
2A
100
AcDbVisualStyle
  2
Facepattern
 70
    15
 71
     2
 72
     2
 73
     0
 90
        0
 40
-0.6
 41
-30.0
 62
     5
 63
     7
 74
     1
 91
        4
 64
     7
 65
   257
 75
     1
175
     1
 42
1.0
 92
        8
 66
     7
 43
1.0
 76
     1
 77
     6
 78
     2
 67
     7
 79
     5
170
     0
171
     0
290
     0
174
     0
 93
        1
 44
0.0
173
     0
291
     1
 45
0.0
1001
ACAD
1000
AcDbSavedByObjectVersion
1070
     0
  0
VISUALSTYLE
  5
2B
102
{ACAD_REACTORS
330
2A
102
}
330
2A
100
AcDbVisualStyle
  2
Flat
 70
     0
 71
     2
 72
     1
 73
     1
 90
        2
 40
-0.6
 41
30.0
 62
     5
 63
     7
 74
     0
 91
        4
 64
     7
 65
   257
 75
     1
175
     1
 42
1.0
 92
        8
 66
     7
 43
1.0
 76
     1
 77
     6
 78
     2
 67
     7
 79
     5
170
     0
171
     0
290
     0
174
     0
 93
       13
 44
0.0
173
     0
291
     1
 45
0.0
1001
ACAD
1000
AcDbSavedByObjectVersion
1070
     0
  0
VISUALSTYLE
  5
2C
102
{ACAD_REACTORS
330
2A
102
}
330
2A
100
AcDbVisualStyle
  2
FlatWithEdges
 70
     1
 71
     2
 72
     1
 73
     1
 90
        2
 40
-0.6
 41
30.0
 62
     5
 63
     7
 74
     1
 91
        4
 64
     7
 65
   257
 75
     1
175
     1
 42
1.0
 92
        0
 66
   257
 43
1.0
 76
     1
 77
     6
 78
     2
 67
     7
 79
     5
170
     0
171
     0
290
     0
174
     0
 93
       13
 44
0.0
173
     0
291
     1
 45
0.0
1001
ACAD
1000
AcDbSavedByObjectVersion
1070
     0
  0
VISUALSTYLE
  5
2D
102
{ACAD_REACTORS
330
2A
102
}
330
2A
100
AcDbVisualStyle
  2
Gouraud
 70
     2
 71
     2
 72
     2
 73
     1
 90
        2
 40
-0.6
 41
30.0
 62
     5
 63
     7
 74
     0
 91
        4
 64
     7
 65
   257
 75
     1
175
     1
 42
1.0
 92
        0
 66
     7
 43
1.0
 76
     1
 77
     6
 78
     2
 67
     7
 79
     5
170
     0
171
     0
290
     0
174
     0
 93
       13
 44
0.0
173
     0
291
     1
 45
0.0
1001
ACAD
1000
AcDbSavedByObjectVersion
1070
     0
  0
VISUALSTYLE
  5
2E
102
{ACAD_REACTORS
330
2A
102
}
330
2A
100
AcDbVisualStyle
  2
GouraudWithEdges
 70
     3
 71
     2
 72
     2
 73
     1
 90
        2
 40
-0.6
 41
30.0
 62
     5
 63
     7
 74
     1
 91
        4
 64
     7
 65
   257
 75
     1
175
     1
 42
1.0
 92
        0
 66
   257
 43
1.0
 76
     1
 77
     6
 78
     2
 67
     7
 79
     5
170
     0
171
     0
290
     0
174
     0
 93
       13
 44
0.0
173
     0
291
     1
 45
0.0
1001
ACAD
1000
AcDbSavedByObjectVersion
1070
     0
  0
VISUALSTYLE
  5
38
102
{ACAD_REACTORS
330
2A
102
}
330
2A
100
AcDbVisualStyle
  2
Linepattern
 70
    14
 71
     2
 72
     2
 73
     0
 90
        0
 40
-0.6
 41
-30.0
 62
     5
 63
     7
 74
     1
 91
        4
 64
     7
 65
   257
 75
     7
175
     7
 42
1.0
 92
        8
 66
     7
 43
1.0
 76
     1
 77
     6
 78
     2
 67
     7
 79
     5
170
     0
171
     0
290
     0
174
     0
 93
        1
 44
0.0
173
     0
291
     1
 45
0.0
1001
ACAD
1000
AcDbSavedByObjectVersion
1070
     0
  0
VISUALSTYLE
  5
33
102
{ACAD_REACTORS
330
2A
102
}
330
2A
100
AcDbVisualStyle
  2
Realistic
 70
     8
 71
     2
 72
     2
 73
     0
 90
        0
 40
-0.6
 41
-30.0
 62
     5
 63
     7
 74
     1
 91
        0
 64
     7
 65
   257
 75
     1
175
     1
 42
1.0
 92
        8
 66
     8
 43
1.0
 76
     1
 77
     6
 78
     2
 67
     7
 79
     5
170
     0
171
     0
290
     0
174
     0
 93
       13
 44
0.0
173
     0
291
     0
 45
0.0
1001
ACAD
1000
AcDbSavedByObjectVersion
1070
     0
  0
VISUALSTYLE
  5
37
102
{ACAD_REACTORS
330
2A
102
}
330
2A
100
AcDbVisualStyle
  2
Thicken
 70
    13
 71
     2
 72
     2
 73
     0
 90
        0
 40
-0.6
 41
-30.0
 62
     5
 63
     7
 74
     1
 91
        4
 64
     7
 65
   257
 75
     1
175
     1
 42
1.0
 92
       12
 66
     7
 43
1.0
 76
     1
 77
     6
 78
     2
 67
     7
 79
     5
170
     0
171
     0
290
     0
174
     0
 93
        1
 44
0.0
173
     0
291
     1
 45
0.0
1001
ACAD
1000
AcDbSavedByObjectVersion
1070
     0
  0
DICTIONARYVAR
  5
150
102
{ACAD_REACTORS
330
14D
102
}
330
14D
100
DictionaryVariables
280
     0
  1
1:1
  0
ENDSEC
  0
EOF
