  0
SECTION
  2
HEADER
  9
$ACADVER
  1
AC1015
  9
$ACADMAINTVER
 70
     6
  9
$DWGCODEPAGE
  3
ANSI_1252
  9
$INSBASE
 10
0.0
 20
0.0
 30
0.0
  9
$EXTMIN
 10
19.5418326499292
 20
275.409813303
 30
0.0
  9
$EXTMAX
 10
273.036004278459
 20
401.200901537877
 30
0.0
  9
$LIMMIN
 10
0.0
 20
0.0
  9
$LIMMAX
 10
12.0
 20
9.0
  9
$ORTHOMODE
 70
     0
  9
$REGENMODE
 70
     1
  9
$FILLMODE
 70
     1
  9
$QTEXTMODE
 70
     0
  9
$MIRRTEXT
 70
     1
  9
$LTSCALE
 40
1.0
  9
$ATTMODE
 70
     1
  9
$TEXTSIZE
 40
0.2
  9
$TRACEWID
 40
0.05
  9
$TEXTSTYLE
  7
Standard
  9
$CLAYER
  8
0
  9
$CELTYPE
  6
ByLayer
  9
$CECOLOR
 62
   256
  9
$CELTSCALE
 40
1.0
  9
$DISPSILH
 70
     0
  9
$DIMSCALE
 40
1.0
  9
$DIMASZ
 40
0.18
  9
$DIMEXO
 40
0.0625
  9
$DIMDLI
 40
0.38
  9
$DIMRND
 40
0.0
  9
$DIMDLE
 40
0.0
  9
$DIMEXE
 40
0.18
  9
$DIMTP
 40
0.0
  9
$DIMTM
 40
0.0
  9
$DIMTXT
 40
0.18
  9
$DIMCEN
 40
0.09
  9
$DIMTSZ
 40
0.0
  9
$DIMTOL
 70
     0
  9
$DIMLIM
 70
     0
  9
$DIMTIH
 70
     1
  9
$DIMTOH
 70
     1
  9
$DIMSE1
 70
     0
  9
$DIMSE2
 70
     0
  9
$DIMTAD
 70
     0
  9
$DIMZIN
 70
     0
  9
$DIMBLK
  1

  9
$DIMASO
 70
     1
  9
$DIMSHO
 70
     1
  9
$DIMPOST
  1

  9
$DIMAPOST
  1

  9
$DIMALT
 70
     0
  9
$DIMALTD
 70
     2
  9
$DIMALTF
 40
25.4
  9
$DIMLFAC
 40
1.0
  9
$DIMTOFL
 70
     0
  9
$DIMTVP
 40
0.0
  9
$DIMTIX
 70
     0
  9
$DIMSOXD
 70
     0
  9
$DIMSAH
 70
     0
  9
$DIMBLK1
  1

  9
$DIMBLK2
  1

  9
$DIMSTYLE
  2
Standard
  9
$DIMCLRD
 70
     0
  9
$DIMCLRE
 70
     0
  9
$DIMCLRT
 70
     0
  9
$DIMTFAC
 40
1.0
  9
$DIMGAP
 40
0.09
  9
$DIMJUST
 70
     0
  9
$DIMSD1
 70
     0
  9
$DIMSD2
 70
     0
  9
$DIMTOLJ
 70
     1
  9
$DIMTZIN
 70
     0
  9
$DIMALTZ
 70
     0
  9
$DIMALTTZ
 70
     0
  9
$DIMUPT
 70
     0
  9
$DIMDEC
 70
     4
  9
$DIMTDEC
 70
     4
  9
$DIMALTU
 70
     2
  9
$DIMALTTD
 70
     2
  9
$DIMTXSTY
  7
Standard
  9
$DIMAUNIT
 70
     0
  9
$DIMADEC
 70
     0
  9
$DIMALTRND
 40
0.0
  9
$DIMAZIN
 70
     0
  9
$DIMDSEP
 70
    46
  9
$DIMATFIT
 70
     3
  9
$DIMFRAC
 70
     0
  9
$DIMLDRBLK
  1

  9
$DIMLUNIT
 70
     2
  9
$DIMLWD
 70
    -2
  9
$DIMLWE
 70
    -2
  9
$DIMTMOVE
 70
     0
  9
$LUNITS
 70
     2
  9
$LUPREC
 70
     4
  9
$SKETCHINC
 40
0.1
  9
$FILLETRAD
 40
0.5
  9
$AUNITS
 70
     0
  9
$AUPREC
 70
     0
  9
$MENU
  1
.
  9
$ELEVATION
 40
0.0
  9
$PELEVATION
 40
0.0
  9
$THICKNESS
 40
0.0
  9
$LIMCHECK
 70
     0
  9
$CHAMFERA
 40
0.5
  9
$CHAMFERB
 40
0.5
  9
$CHAMFERC
 40
1.0
  9
$CHAMFERD
 40
0.0
  9
$SKPOLY
 70
     0
  9
$TDCREATE
 40
2456748.734040012
  9
$TDUCREATE
 40
2456748.650706678
  9
$TDUPDATE
 40
2456748.734040023
  9
$TDUUPDATE
 40
2456748.65070669
  9
$TDINDWG
 40
0.0000000116
  9
$TDUSRTIMER
 40
0.0000000116
  9
$USRTIMER
 70
     1
  9
$ANGBASE
 50
0.0
  9
$ANGDIR
 70
     0
  9
$PDMODE
 70
     0
  9
$PDSIZE
 40
0.0
  9
$PLINEWID
 40
0.0
  9
$SPLFRAME
 70
     0
  9
$SPLINETYPE
 70
     6
  9
$SPLINESEGS
 70
     8
  9
$HANDSEED
  5
14F
  9
$SURFTAB1
 70
     6
  9
$SURFTAB2
 70
     6
  9
$SURFTYPE
 70
     6
  9
$SURFU
 70
     6
  9
$SURFV
 70
     6
  9
$UCSBASE
  2

  9
$UCSNAME
  2

  9
$UCSORG
 10
0.0
 20
0.0
 30
0.0
  9
$UCSXDIR
 10
1.0
 20
0.0
 30
0.0
  9
$UCSYDIR
 10
0.0
 20
1.0
 30
0.0
  9
$UCSORTHOREF
  2

  9
$UCSORTHOVIEW
 70
     0
  9
$UCSORGTOP
 10
0.0
 20
0.0
 30
0.0
  9
$UCSORGBOTTOM
 10
0.0
 20
0.0
 30
0.0
  9
$UCSORGLEFT
 10
0.0
 20
0.0
 30
0.0
  9
$UCSORGRIGHT
 10
0.0
 20
0.0
 30
0.0
  9
$UCSORGFRONT
 10
0.0
 20
0.0
 30
0.0
  9
$UCSORGBACK
 10
0.0
 20
0.0
 30
0.0
  9
$PUCSBASE
  2

  9
$PUCSNAME
  2

  9
$PUCSORG
 10
0.0
 20
0.0
 30
0.0
  9
$PUCSXDIR
 10
1.0
 20
0.0
 30
0.0
  9
$PUCSYDIR
 10
0.0
 20
1.0
 30
0.0
  9
$PUCSORTHOREF
  2

  9
$PUCSORTHOVIEW
 70
     0
  9
$PUCSORGTOP
 10
0.0
 20
0.0
 30
0.0
  9
$PUCSORGBOTTOM
 10
0.0
 20
0.0
 30
0.0
  9
$PUCSORGLEFT
 10
0.0
 20
0.0
 30
0.0
  9
$PUCSORGRIGHT
 10
0.0
 20
0.0
 30
0.0
  9
$PUCSORGFRONT
 10
0.0
 20
0.0
 30
0.0
  9
$PUCSORGBACK
 10
0.0
 20
0.0
 30
0.0
  9
$USERI1
 70
     0
  9
$USERI2
 70
     0
  9
$USERI3
 70
     0
  9
$USERI4
 70
     0
  9
$USERI5
 70
     0
  9
$USERR1
 40
16.5
  9
$USERR2
 40
0.0
  9
$USERR3
 40
0.0
  9
$USERR4
 40
0.0
  9
$USERR5
 40
0.0
  9
$WORLDVIEW
 70
     1
  9
$SHADEDGE
 70
     3
  9
$SHADEDIF
 70
    70
  9
$TILEMODE
 70
     1
  9
$MAXACTVP
 70
    64
  9
$PINSBASE
 10
0.0
 20
0.0
 30
0.0
  9
$PLIMCHECK
 70
     0
  9
$PEXTMIN
 10
1.00000000000000E+20
 20
1.00000000000000E+20
 30
1.00000000000000E+20
  9
$PEXTMAX
 10
-1.00000000000000E+20
 20
-1.00000000000000E+20
 30
-1.00000000000000E+20
  9
$PLIMMIN
 10
0.0
 20
0.0
  9
$PLIMMAX
 10
12.0
 20
9.0
  9
$UNITMODE
 70
     0
  9
$VISRETAIN
 70
     1
  9
$PLINEGEN
 70
     0
  9
$PSLTSCALE
 70
     1
  9
$TREEDEPTH
 70
  3020
  9
$CMLSTYLE
  2
Standard
  9
$CMLJUST
 70
     0
  9
$CMLSCALE
 40
1.0
  9
$PROXYGRAPHICS
 70
     1
  9
$MEASUREMENT
 70
     1
  9
$CELWEIGHT
370
    -1
  9
$ENDCAPS
280
     0
  9
$JOINSTYLE
280
     0
  9
$LWDISPLAY
290
     0
  9
$INSUNITS
 70
     1
  9
$HYPERLINKBASE
  1

  9
$STYLESHEET
  1

  9
$XEDIT
290
     1
  9
$CEPSNTYPE
380
     0
  9
$PSTYLEMODE
290
     1
  9
$FINGERPRINTGUID
  2
{16861CE3-4162-4D27-9B4D-17F96588384C}
  9
$VERSIONGUID
  2
{FAEB1C32-E019-11D5-929B-00C0DF256EC4}
  9
$EXTNAMES
290
     1
  9
$PSVPSCALE
 40
0.0
  9
$OLESTARTUP
290
     0
  0
ENDSEC
  0
SECTION
  2
CLASSES
  0
CLASS
  1
ACDBDICTIONARYWDFLT
  2
AcDbDictionaryWithDefault
  3
ObjectDBX Classes
 90
        0
280
     0
281
     0
  0
CLASS
  1
VISUALSTYLE
  2
AcDbVisualStyle
  3
ObjectDBX Classes
 90
     4095
280
     0
281
     0
  0
CLASS
  1
SCALE
  2
AcDbScale
  3
ObjectDBX Classes
 90
     1153
280
     0
281
     0
  0
CLASS
  1

  2
exOdDbPolyline
  3

 90
        0
280
     0
281
     1
  0
CLASS
  1

  2
exOdDbCircle
  3

 90
        0
280
     0
281
     1
  0
CLASS
  1

  2
exOdDbSpline
  3

 90
        0
280
     0
281
     1
  0
CLASS
  1
DICTIONARYVAR
  2
AcDbDictionaryVar
  3
ObjectDBX Classes
 90
        0
280
     0
281
     0
  0
CLASS
  1
ACDBPLACEHOLDER
  2
AcDbPlaceHolder
  3
ObjectDBX Classes
 90
        0
280
     0
281
     0
  0
CLASS
  1
LAYOUT
  2
AcDbLayout
  3
ObjectDBX Classes
 90
        0
280
     0
281
     0
  0
ENDSEC
  0
SECTION
  2
TABLES
  0
TABLE
  2
VPORT
  5
8
330
0
100
AcDbSymbolTable
 70
     1
  0
VPORT
  5
29
330
8
100
AcDbSymbolTableRecord
100
AcDbViewportTableRecord
  2
*Active
 70
     0
 10
0.0
 20
0.0
 11
1.0
 21
1.0
 12
146.2889184641941
 22
338.3053574204385
 13
0.0
 23
0.0
 14
0.5
 24
0.5
 15
0.5
 25
0.5
 16
0.0
 26
0.0
 36
1.0
 17
0.0
 27
0.0
 37
0.0
 40
173.9859718364061
 41
1.60267857142857
 42
50.0
 43
0.0
 44
0.0
 50
0.0
 51
0.0
 71
     0
 72
   100
 73
     1
 74
     3
 75
     0
 76
     0
 77
     0
 78
     0
281
     0
 65
     1
110
0.0
120
0.0
130
0.0
111
1.0
121
0.0
131
0.0
112
0.0
122
1.0
132
0.0
 79
     0
146
0.0
  0
ENDTAB
  0
TABLE
  2
LTYPE
  5
5
330
0
100
AcDbSymbolTable
 70
     8
  0
LTYPE
  5
14
330
5
100
AcDbSymbolTableRecord
100
AcDbLinetypeTableRecord
  2
ByBlock
 70
     0
  3

 72
    65
 73
     0
 40
0.0
  0
LTYPE
  5
15
330
5
100
AcDbSymbolTableRecord
100
AcDbLinetypeTableRecord
  2
ByLayer
 70
     0
  3

 72
    65
 73
     0
 40
0.0
  0
LTYPE
  5
16
330
5
100
AcDbSymbolTableRecord
100
AcDbLinetypeTableRecord
  2
Continuous
 70
     0
  3
Solid line
 72
    65
 73
     0
 40
0.0
  0
LTYPE
  5
3B
330
5
100
AcDbSymbolTableRecord
100
AcDbLinetypeTableRecord
  2
DASHED
 70
     0
  3
Dashed
 72
    65
 73
     2
 40
15.0
 49
7.0
 74
     0
 49
-8.0
 74
     0
  0
LTYPE
  5
3C
330
5
100
AcDbSymbolTableRecord
100
AcDbLinetypeTableRecord
  2
DOTTED
 70
     0
  3
Dotted
 72
    65
 73
     2
 40
1.0
 49
0.0
 74
     0
 49
-1.0
 74
     0
  0
LTYPE
  5
3D
330
5
100
AcDbSymbolTableRecord
100
AcDbLinetypeTableRecord
  2
DOT_CENTER
 70
     0
  3
Dot_Center
 72
    65
 73
     4
 40
14.0
 49
12.0
 74
     0
 49
-1.0
 74
     0
 49
0.0
 74
     0
 49
-1.0
 74
     0
  0
LTYPE
  5
3E
330
5
100
AcDbSymbolTableRecord
100
AcDbLinetypeTableRecord
  2
LONG_DASHED
 70
     0
  3
Long_Dashed
 72
    65
 73
     2
 40
15.0
 49
10.0
 74
     0
 49
-5.0
 74
     0
  0
LTYPE
  5
3F
330
5
100
AcDbSymbolTableRecord
100
AcDbLinetypeTableRecord
  2
DASH_CENTER
 70
     0
  3
Dash_Center
 72
    65
 73
     4
 40
14.0
 49
11.0
 74
     0
 49
-1.0
 74
     0
 49
1.0
 74
     0
 49
-1.0
 74
     0
  0
LTYPE
  5
40
330
5
100
AcDbSymbolTableRecord
100
AcDbLinetypeTableRecord
  2
PHANTOM
 70
     0
  3
Phantom
 72
    65
 73
     6
 40
13.0
 49
10.0
 74
     0
 49
-1.0
 74
     0
 49
0.0
 74
     0
 49
-1.0
 74
     0
 49
0.0
 74
     0
 49
-1.0
 74
     0
  0
LTYPE
  5
41
330
5
100
AcDbSymbolTableRecord
100
AcDbLinetypeTableRecord
  2
CENTER_DASH_DASH
 70
     0
  3
Center_Dash_Dash
 72
    65
 73
     6
 40
14.0
 49
9.0
 74
     0
 49
-1.0
 74
     0
 49
1.0
 74
     0
 49
-1.0
 74
     0
 49
1.0
 74
     0
 49
-1.0
 74
     0
  0
ENDTAB
  0
TABLE
  2
LAYER
  5
2
330
0
100
AcDbSymbolTable
 70
     7
  0
LAYER
  5
10
330
2
100
AcDbSymbolTableRecord
100
AcDbLayerTableRecord
  2
0
 70
     0
 62
     7
  6
Continuous
370
    -3
390
F
  0
LAYER
  5
42
330
2
100
AcDbSymbolTableRecord
100
AcDbLayerTableRecord
  2
1
 70
     0
 62
     7
  6
Continuous
370
    -3
390
F
  0
LAYER
  5
43
330
2
100
AcDbSymbolTableRecord
100
AcDbLayerTableRecord
  2
BEZUGSACHSEN
 70
     0
 62
     7
  6
Continuous
370
    -3
390
F
  0
LAYER
  5
44
330
2
100
AcDbSymbolTableRecord
100
AcDbLayerTableRecord
  2
DEFAULT_2
 70
     0
 62
     7
  6
Continuous
370
    -3
390
F
  0
LAYER
  5
45
330
2
100
AcDbSymbolTableRecord
100
AcDbLayerTableRecord
  2
FASEN
 70
     0
 62
     7
  6
Continuous
370
    -3
390
F
  0
LAYER
  5
46
330
2
100
AcDbSymbolTableRecord
100
AcDbLayerTableRecord
  2
GEWINDE
 70
     0
 62
     7
  6
Continuous
370
    -3
390
F
  0
LAYER
  5
47
330
2
100
AcDbSymbolTableRecord
100
AcDbLayerTableRecord
  2
RUNDUNGEN
 70
     0
 62
     7
  6
Continuous
370
    -3
390
F
  0
ENDTAB
  0
TABLE
  2
STYLE
  5
3
330
0
100
AcDbSymbolTable
 70
     2
  0
STYLE
  5
11
330
3
100
AcDbSymbolTableRecord
100
AcDbTextStyleTableRecord
  2
Standard
 70
     0
 40
0.0
 41
1.0
 50
0.0
 71
     0
 42
0.2
  3
txt
  4

  0
STYLE
  5
6E
330
3
100
AcDbSymbolTableRecord
100
AcDbTextStyleTableRecord
  2
CONVERTER_11
 70
     0
 40
0.0
 41
0.72
 50
0.0
 71
     0
 42
0.2
  3
txt.shx
  4

  0
ENDTAB
  0
TABLE
  2
VIEW
  5
6
330
0
100
AcDbSymbolTable
 70
     0
  0
ENDTAB
  0
TABLE
  2
UCS
  5
7
330
0
100
AcDbSymbolTable
 70
     0
  0
ENDTAB
  0
TABLE
  2
APPID
  5
9
330
0
100
AcDbSymbolTable
 70
     1
  0
APPID
  5
12
330
9
100
AcDbSymbolTableRecord
100
AcDbRegAppTableRecord
  2
ACAD
 70
     0
  0
ENDTAB
  0
TABLE
  2
DIMSTYLE
  5
A
330
0
100
AcDbSymbolTable
 70
     6
100
AcDbDimStyleTable
  0
DIMSTYLE
105
27
330
A
100
AcDbSymbolTableRecord
100
AcDbDimStyleTableRecord
  2
Standard
 70
     0
340
11
  0
DIMSTYLE
105
116
102
{ACAD_REACTORS
330
117
102
}
330
A
100
AcDbSymbolTableRecord
100
AcDbDimStyleTableRecord
  2
ME10_DIM_10
 70
     0
  3
\U+2300<>
 41
3.5
 42
2.0
 44
2.0
 71
     1
 73
     0
 74
     0
 77
     1
 78
     8
140
3.5
146
0.7
147
2.0
172
     1
173
     1
176
     2
177
     2
178
     3
271
     2
272
     0
340
6E
  0
DIMSTYLE
105
121
102
{ACAD_REACTORS
330
122
102
}
330
A
100
AcDbSymbolTableRecord
100
AcDbDimStyleTableRecord
  2
ME10_DIM_11
 70
     0
  3
\U+2300<>
 41
3.5
 42
2.0
 44
2.0
 71
     1
 73
     0
 74
     0
 77
     1
 78
     8
140
3.5
146
0.7
147
2.0
172
     1
173
     1
176
     2
177
     2
178
     3
271
     2
272
     0
340
6E
  0
DIMSTYLE
105
12C
102
{ACAD_REACTORS
330
12D
102
}
330
A
100
AcDbSymbolTableRecord
100
AcDbDimStyleTableRecord
  2
ME10_DIM_12
 70
     0
  3
<>
 41
3.5
 42
2.0
 44
2.0
 71
     1
 73
     0
 74
     0
 77
     1
 78
     8
140
3.5
146
0.7
147
2.0
172
     1
173
     1
176
     2
177
     2
178
     3
271
     2
272
     0
340
6E
  0
DIMSTYLE
105
137
102
{ACAD_REACTORS
330
138
102
}
330
A
100
AcDbSymbolTableRecord
100
AcDbDimStyleTableRecord
  2
ME10_DIM_13
 70
     0
  3
<>
 41
3.5
 42
2.0
 44
2.0
 71
     1
 73
     0
 74
     0
 77
     1
 78
     8
140
3.5
146
0.7
147
2.0
172
     1
173
     1
176
     2
177
     2
178
     3
271
     2
272
     0
340
6E
  0
DIMSTYLE
105
142
102
{ACAD_REACTORS
330
143
102
}
330
A
100
AcDbSymbolTableRecord
100
AcDbDimStyleTableRecord
  2
ME10_DIM_14
 70
     0
  3
<>
 41
3.5
 42
2.0
 44
2.0
 71
     1
 73
     0
 74
     0
 77
     1
 78
     8
140
3.5
146
0.7
147
2.0
172
     1
173
     1
176
     2
177
     2
178
     3
271
     2
272
     0
340
6E
  0
ENDTAB
  0
TABLE
  2
BLOCK_RECORD
  5
1
330
0
100
AcDbSymbolTable
 70
     8
  0
BLOCK_RECORD
  5
1F
330
1
100
AcDbSymbolTableRecord
100
AcDbBlockTableRecord
  2
*Model_Space
340
22
  0
BLOCK_RECORD
  5
1B
330
1
100
AcDbSymbolTableRecord
100
AcDbBlockTableRecord
  2
*Paper_Space
340
1E
  0
BLOCK_RECORD
  5
23
330
1
100
AcDbSymbolTableRecord
100
AcDbBlockTableRecord
  2
*Paper_Space0
340
26
  0
BLOCK_RECORD
  5
48
330
1
100
AcDbSymbolTableRecord
100
AcDbBlockTableRecord
  2
Urheberrecht_DE-EN
340
0
102
{BLKREFS
331
6D
102
}
  0
BLOCK_RECORD
  5
10D
330
1
100
AcDbSymbolTableRecord
100
AcDbBlockTableRecord
  2
*D2
340
0
  0
BLOCK_RECORD
  5
118
330
1
100
AcDbSymbolTableRecord
100
AcDbBlockTableRecord
  2
*D3
340
0
  0
BLOCK_RECORD
  5
123
330
1
100
AcDbSymbolTableRecord
100
AcDbBlockTableRecord
  2
*D4
340
0
  0
BLOCK_RECORD
  5
12E
330
1
100
AcDbSymbolTableRecord
100
AcDbBlockTableRecord
  2
*D5
340
0
  0
BLOCK_RECORD
  5
139
330
1
100
AcDbSymbolTableRecord
100
AcDbBlockTableRecord
  2
*D6
340
0
  0
BLOCK_RECORD
  5
144
330
1
100
AcDbSymbolTableRecord
100
AcDbBlockTableRecord
  2
*D7
340
0
102
{BLKREFS
331
14A
102
}
  0
ENDTAB
  0
ENDSEC
  0
SECTION
  2
BLOCKS
  0
BLOCK
  5
20
330
1F
100
AcDbEntity
  8
0
100
AcDbBlockBegin
  2
*Model_Space
 70
     0
 10
0.0
 20
0.0
 30
0.0
  3
*Model_Space
  1

  0
ENDBLK
  5
21
330
1F
100
AcDbEntity
  8
0
100
AcDbBlockEnd
  0
BLOCK
  5
1C
330
1B
100
AcDbEntity
 67
     1
  8
0
100
AcDbBlockBegin
  2
*Paper_Space
 70
     0
 10
0.0
 20
0.0
 30
0.0
  3
*Paper_Space
  1

  0
ENDBLK
  5
1D
330
1B
100
AcDbEntity
 67
     1
  8
0
100
AcDbBlockEnd
  0
BLOCK
  5
24
330
23
100
AcDbEntity
  8
0
100
AcDbBlockBegin
  2
*Paper_Space0
 70
     0
 10
0.0
 20
0.0
 30
0.0
  3
*Paper_Space0
  1

  0
ENDBLK
  5
25
330
23
100
AcDbEntity
  8
0
100
AcDbBlockEnd
  0
BLOCK
  5
49
330
48
100
AcDbEntity
  8
0
100
AcDbBlockBegin
  2
Urheberrecht_DE-EN
 70
     0
 10
33.5418326499292
 20
339.811010382948
 30
0.0
  3
Urheberrecht_DE-EN
  1

  0
MTEXT
  5
6F
330
48
100
AcDbEntity
  8
1
 62
     1
100
AcDbMText
 10
33.5418326499292
 20
339.811010382948
 30
0.0
 40
2.0
 41
0.0
 71
     7
 72
     1
  1
We own the copyright of this document. It \Pdetermined and may neither be copied or \Pmade accessible to outsiders without our\Ppermission.
  7
CONVERTER_11
 11
0.0
 21
1.0
 31
0.0
 73
     1
 44
0.90036014405762
  0
MTEXT
  5
70
330
48
100
AcDbEntity
  8
1
 62
     1
100
AcDbMText
 10
33.5418326499292
 20
283.5216234656418
 30
0.0
 40
2.0
 41
0.0
 71
     7
 72
     1
  1
F\U+00fcr diese Unterlage behalten wir das Ur-\Pheberrecht. Sie darf nur f\U+00fcr den von uns \Pbestimmten Zweck benutzt und ohne unsere \PZustimmung weder vervielf\U+00e4ltigt noch\PDritten zug\U+00e4nglich gemacht werden.
  7
CONVERTER_11
 11
0.0
 21
1.0
 31
0.0
 73
     1
 44
0.90036014405762
  0
ENDBLK
  5
4A
330
48
100
AcDbEntity
  8
0
100
AcDbBlockEnd
  0
BLOCK
  5
114
330
10D
100
AcDbEntity
  8
0
100
AcDbBlockBegin
  2
*D2
 70
     1
 10
0.0
 20
0.0
 30
0.0
  3
*D2
  1

  0
LINE
  5
10E
330
10D
100
AcDbEntity
  8
1
  6
Continuous
 62
     2
100
AcDbLine
 10
262.55406957744
 20
341.409813303
 30
0.0
 11
262.55406957744
 21
309.409813303
 31
0.0
  0
LINE
  5
10F
330
10D
100
AcDbEntity
  8
1
  6
Continuous
 62
     2
100
AcDbLine
 10
252.6157571601
 20
341.409813303
 30
0.0
 11
264.55406957744
 21
341.409813303
 31
0.0
  0
LINE
  5
110
330
10D
100
AcDbEntity
  8
1
  6
Continuous
 62
     2
100
AcDbLine
 10
252.6157571601
 20
309.409813303
 30
0.0
 11
264.55406957744
 21
309.409813303
 31
0.0
  0
SOLID
  5
111
330
10D
100
AcDbEntity
  8
1
 62
     2
100
AcDbTrace
 10
263.0148533189958
 20
337.909813303
 30
0.0
 11
262.0932858358841
 21
337.909813303
 31
0.0
 12
262.55406957744
 22
341.409813303
 32
0.0
 13
262.55406957744
 23
341.409813303
 33
0.0
  0
SOLID
  5
112
330
10D
100
AcDbEntity
  8
1
 62
     2
100
AcDbTrace
 10
262.0932858358841
 20
312.909813303
 30
0.0
 11
263.0148533189958
 21
312.909813303
 31
0.0
 12
262.55406957744
 22
309.409813303
 32
0.0
 13
262.55406957744
 23
309.409813303
 33
0.0
  0
MTEXT
  5
113
330
10D
100
AcDbEntity
  8
1
 62
     3
100
AcDbMText
 10
260.55406957744
 20
316.869940254471
 30
0.0
 40
3.5
 41
0.0
 71
     7
 72
     1
  1
\C3;%%c\C3;\C3;32\C2;\H2.45;\S^ ;\C3;
  7
CONVERTER_11
 11
0.0
 21
1.0
 31
0.0
 73
     1
 44
0.60024009603842
  0
ENDBLK
  5
115
330
10D
100
AcDbEntity
  8
0
100
AcDbBlockEnd
  0
BLOCK
  5
11F
330
118
100
AcDbEntity
  8
0
100
AcDbBlockBegin
  2
*D3
 70
     1
 10
0.0
 20
0.0
 30
0.0
  3
*D3
  1

  0
LINE
  5
119
330
118
100
AcDbEntity
  8
1
  6
Continuous
 62
     2
100
AcDbLine
 10
271.036004278459
 20
361.409813303
 30
0.0
 11
271.036004278459
 21
289.409813303
 31
0.0
  0
LINE
  5
11A
330
118
100
AcDbEntity
  8
1
  6
Continuous
 62
     2
100
AcDbLine
 10
244.2015435977
 20
361.409813303
 30
0.0
 11
273.036004278459
 21
361.409813303
 31
0.0
  0
LINE
  5
11B
330
118
100
AcDbEntity
  8
1
  6
Continuous
 62
     2
100
AcDbLine
 10
244.2015435977
 20
289.409813303
 30
0.0
 11
273.036004278459
 21
289.409813303
 31
0.0
  0
SOLID
  5
11C
330
118
100
AcDbEntity
  8
1
 62
     2
100
AcDbTrace
 10
271.4967880200149
 20
357.909813303
 30
0.0
 11
270.5752205369031
 21
357.909813303
 31
0.0
 12
271.036004278459
 22
361.409813303
 32
0.0
 13
271.036004278459
 23
361.409813303
 33
0.0
  0
SOLID
  5
11D
330
118
100
AcDbEntity
  8
1
 62
     2
100
AcDbTrace
 10
270.5752205369031
 20
292.909813303
 30
0.0
 11
271.4967880200149
 21
292.909813303
 31
0.0
 12
271.036004278459
 22
289.409813303
 32
0.0
 13
271.036004278459
 23
289.409813303
 33
0.0
  0
MTEXT
  5
11E
330
118
100
AcDbEntity
  8
1
 62
     3
100
AcDbMText
 10
269.036004278459
 20
317.475792733115
 30
0.0
 40
3.5
 41
0.0
 71
     7
 72
     1
  1
\C3;%%c\C3;\C3;72\C2;\H2.45;\S^ ;\C3;
  7
CONVERTER_11
 11
0.0
 21
1.0
 31
0.0
 73
     1
 44
0.60024009603842
  0
ENDBLK
  5
120
330
118
100
AcDbEntity
  8
0
100
AcDbBlockEnd
  0
BLOCK
  5
12A
330
123
100
AcDbEntity
  8
0
100
AcDbBlockBegin
  2
*D4
 70
     1
 10
0.0
 20
0.0
 30
0.0
  3
*D4
  1

  0
LINE
  5
124
330
123
100
AcDbEntity
  8
1
  6
Continuous
 62
     2
100
AcDbLine
 10
250.6157571601
 20
381.917757648721
 30
0.0
 11
119.6157571601
 21
381.917757648721
 31
0.0
  0
LINE
  5
125
330
123
100
AcDbEntity
  8
1
  6
Continuous
 62
     2
100
AcDbLine
 10
250.6157571601
 20
354.9955997406
 30
0.0
 11
250.6157571601
 21
383.917757648721
 31
0.0
  0
LINE
  5
126
330
123
100
AcDbEntity
  8
1
  6
Continuous
 62
     2
100
AcDbLine
 10
119.6157571601
 20
377.4097763819
 30
0.0
 11
119.6157571601
 21
383.917757648721
 31
0.0
  0
SOLID
  5
127
330
123
100
AcDbEntity
  8
1
 62
     2
100
AcDbTrace
 10
247.1157571601
 20
381.4569739071651
 30
0.0
 11
247.1157571601
 21
382.3785413902769
 31
0.0
 12
250.6157571601
 22
381.917757648721
 32
0.0
 13
250.6157571601
 23
381.917757648721
 33
0.0
  0
SOLID
  5
128
330
123
100
AcDbEntity
  8
1
 62
     2
100
AcDbTrace
 10
123.1157571601
 20
382.3785413902769
 30
0.0
 11
123.1157571601
 21
381.4569739071651
 31
0.0
 12
119.6157571601
 22
381.917757648721
 32
0.0
 13
119.6157571601
 23
381.917757648721
 33
0.0
  0
MTEXT
  5
129
330
123
100
AcDbEntity
  8
1
 62
     3
100
AcDbMText
 10
182.484952310981
 20
383.917757648721
 30
0.0
 40
3.5
 41
0.0
 71
     7
 72
     1
  1
\C3;\C3;\C3;131\C2;\H2.45;\S^ ;\C3;
  7
CONVERTER_11
 11
0.9999999999970619
 21
2.424068405545306E-6
 31
0.0
 73
     1
 44
0.60024009603842
  0
ENDBLK
  5
12B
330
123
100
AcDbEntity
  8
0
100
AcDbBlockEnd
  0
BLOCK
  5
135
330
12E
100
AcDbEntity
  8
0
100
AcDbBlockBegin
  2
*D5
 70
     1
 10
0.0
 20
0.0
 30
0.0
  3
*D5
  1

  0
LINE
  5
12F
330
12E
100
AcDbEntity
  8
1
  6
Continuous
 62
     2
100
AcDbLine
 10
250.6157571601
 20
389.03652427279
 30
0.0
 11
90.6157571601
 21
389.03652427279
 31
0.0
  0
LINE
  5
130
330
12E
100
AcDbEntity
  8
1
  6
Continuous
 62
     2
100
AcDbLine
 10
250.6157571601
 20
354.9955997406
 30
0.0
 11
250.6157571601
 21
391.03652427279
 31
0.0
  0
LINE
  5
131
330
12E
100
AcDbEntity
  8
1
  6
Continuous
 62
     2
100
AcDbLine
 10
90.6157571601
 20
377.409813303
 30
0.0
 11
90.6157571601
 21
391.03652427279
 31
0.0
  0
SOLID
  5
132
330
12E
100
AcDbEntity
  8
1
 62
     2
100
AcDbTrace
 10
247.1157571601
 20
388.5757405312341
 30
0.0
 11
247.1157571601
 21
389.4973080143459
 31
0.0
 12
250.6157571601
 22
389.03652427279
 32
0.0
 13
250.6157571601
 23
389.03652427279
 33
0.0
  0
SOLID
  5
133
330
12E
100
AcDbEntity
  8
1
 62
     2
100
AcDbTrace
 10
94.1157571601
 20
389.4973080143459
 30
0.0
 11
94.1157571601
 21
388.5757405312341
 31
0.0
 12
90.6157571601
 22
389.03652427279
 32
0.0
 13
90.6157571601
 23
389.03652427279
 33
0.0
  0
MTEXT
  5
134
330
12E
100
AcDbEntity
  8
1
 62
     3
100
AcDbMText
 10
168.130345302164
 20
391.03652427279
 30
0.0
 40
3.5
 41
0.0
 71
     7
 72
     1
  1
\C3;\C3;\C3;160\C2;\H2.45;\S^ ;\C3;
  7
CONVERTER_11
 11
0.9999999999970619
 21
2.424068405545306E-6
 31
0.0
 73
     1
 44
0.60024009603842
  0
ENDBLK
  5
136
330
12E
100
AcDbEntity
  8
0
100
AcDbBlockEnd
  0
BLOCK
  5
140
330
139
100
AcDbEntity
  8
0
100
AcDbBlockBegin
  2
*D6
 70
     1
 10
0.0
 20
0.0
 30
0.0
  3
*D6
  1

  0
LINE
  5
13A
330
139
100
AcDbEntity
  8
1
  6
Continuous
 62
     2
100
AcDbLine
 10
250.6157571601
 20
395.700901537877
 30
0.0
 11
40.61575716009999
 21
395.700901537877
 31
0.0
  0
LINE
  5
13B
330
139
100
AcDbEntity
  8
1
  6
Continuous
 62
     2
100
AcDbLine
 10
250.6157571601
 20
354.9955997406
 30
0.0
 11
250.6157571601
 21
397.700901537877
 31
0.0
  0
LINE
  5
13C
330
139
100
AcDbEntity
  8
1
  6
Continuous
 62
     2
100
AcDbLine
 10
40.61575716009999
 20
361.0100048656
 30
0.0
 11
40.61575716009999
 21
397.700901537877
 31
0.0
  0
SOLID
  5
13D
330
139
100
AcDbEntity
  8
1
 62
     2
100
AcDbTrace
 10
247.1157571601
 20
395.2401177963211
 30
0.0
 11
247.1157571601
 21
396.1616852794328
 31
0.0
 12
250.6157571601
 22
395.700901537877
 32
0.0
 13
250.6157571601
 23
395.700901537877
 33
0.0
  0
SOLID
  5
13E
330
139
100
AcDbEntity
  8
1
 62
     2
100
AcDbTrace
 10
44.11575716009999
 20
396.1616852794328
 30
0.0
 11
44.11575716009999
 21
395.2401177963211
 31
0.0
 12
40.61575716009999
 22
395.700901537877
 32
0.0
 13
40.61575716009999
 23
395.700901537877
 33
0.0
  0
MTEXT
  5
13F
330
139
100
AcDbEntity
  8
1
 62
     3
100
AcDbMText
 10
153.741348934364
 20
397.700901537877
 30
0.0
 40
3.5
 41
0.0
 71
     7
 72
     1
  1
\C3;\C3;\C3;210\C2;\H2.45;\S^ ;\C3;
  7
CONVERTER_11
 11
0.9999999999970619
 21
2.424068405545306E-6
 31
0.0
 73
     1
 44
0.60024009603842
  0
ENDBLK
  5
141
330
139
100
AcDbEntity
  8
0
100
AcDbBlockEnd
  0
BLOCK
  5
148
330
144
100
AcDbEntity
  8
0
100
AcDbBlockBegin
  2
*D7
 70
     1
 10
0.0
 20
0.0
 30
0.0
  3
*D7
  1

  0
LINE
  5
145
330
144
100
AcDbEntity
  8
1
  6
Continuous
 62
     2
100
AcDbLine
 10
131.0195701648004
 20
371.5957882115998
 30
0.0
 11
120.7301072959134
 21
363.2631126288103
 31
0.0
  0
SOLID
  5
146
330
144
100
AcDbEntity
  8
1
 62
     2
100
AcDbTrace
 10
123.1600724988021
 20
365.8238919573023
 30
0.0
 11
123.740051902886
 21
365.1077142441839
 31
0.0
 12
120.7301072959134
 22
363.2631126288103
 32
0.0
 13
120.7301072959134
 23
363.2631126288103
 33
0.0
  0
MTEXT
  5
147
330
144
100
AcDbEntity
  8
1
 62
     3
100
AcDbMText
 10
123.9945854966715
 20
368.4803443567769
 30
0.0
 40
3.5
 41
0.0
 71
     7
 72
     1
  1
\C3; R\C3;\C3;5\C2;\H2.45;\S^ ;\C3;
  7
CONVERTER_11
 11
0.7771299728373272
 21
0.6293401348379547
 31
0.0
 73
     1
 44
0.60024009603842
  0
ENDBLK
  5
149
330
144
100
AcDbEntity
  8
0
100
AcDbBlockEnd
  0
ENDSEC
  0
SECTION
  2
ENTITIES
  0
INSERT
  5
6D
330
1F
100
AcDbEntity
  8
0
100
AcDbBlockReference
  2
Urheberrecht_DE-EN
 10
33.5418326499292
 20
339.811010382948
 30
0.0
  0
LINE
  5
71
330
1F
100
AcDbEntity
  8
BEZUGSACHSEN
  6
Continuous
 62
     7
100
AcDbLine
 10
40.6157571601
 20
291.8096217401
 30
0.0
 11
40.6157571601
 21
313.399813303
 31
0.0
  0
LINE
  5
72
330
1F
100
AcDbEntity
  8
BEZUGSACHSEN
  6
Continuous
 62
     7
100
AcDbLine
 10
40.6157571601
 20
337.419813303
 30
0.0
 11
40.6157571601
 21
359.0100048656
 31
0.0
  0
LINE
  5
73
330
1F
100
AcDbEntity
  8
BEZUGSACHSEN
  6
Continuous
 62
     9
100
AcDbLine
 10
42.5156826753
 20
361.0074995713
 30
0.0
 11
42.5156826753
 21
341.0863456893
 31
0.0
  0
LINE
  5
74
330
1F
100
AcDbEntity
  8
BEZUGSACHSEN
  6
Continuous
 62
     9
100
AcDbLine
 10
42.5156826753
 20
309.7332809167
 30
0.0
 11
42.5156826753
 21
289.8121270347
 31
0.0
  0
LINE
  5
75
330
1F
100
AcDbEntity
  8
BEZUGSACHSEN
  6
Continuous
 62
     7
100
AcDbLine
 10
42.6157571601
 20
313.0061733546
 30
0.0
 11
42.6157571601
 21
315.399813303
 31
0.0
  0
LINE
  5
76
330
1F
100
AcDbEntity
  8
BEZUGSACHSEN
  6
Continuous
 62
     7
100
AcDbLine
 10
42.6157571601
 20
335.419813303
 30
0.0
 11
42.6157571601
 21
337.8134532514
 31
0.0
  0
LINE
  5
77
330
1F
100
AcDbEntity
  8
BEZUGSACHSEN
  6
Continuous
 62
     9
100
AcDbLine
 10
48.6157571601
 20
309.0511657156
 30
0.0
 11
48.6157571601
 21
315.399813303
 31
0.0
  0
LINE
  5
78
330
1F
100
AcDbEntity
  8
BEZUGSACHSEN
  6
Continuous
 62
     9
100
AcDbLine
 10
48.6157571601
 20
335.419813303
 30
0.0
 11
48.6157571601
 21
341.7684608904
 31
0.0
  0
LINE
  5
79
330
1F
100
AcDbEntity
  8
BEZUGSACHSEN
  6
Continuous
 62
     7
100
AcDbLine
 10
50.6157571601
 20
338.2794688288
 30
0.0
 11
50.6157571601
 21
312.5401577772
 31
0.0
  0
LINE
  5
7A
330
1F
100
AcDbEntity
  8
BEZUGSACHSEN
  6
Continuous
 62
     7
100
AcDbLine
 10
41.8827100871
 20
310.399813303
 30
0.0
 11
41.7615998357
 21
310.1674773075
 31
0.0
  0
LINE
  5
7B
330
1F
100
AcDbEntity
  8
BEZUGSACHSEN
  6
Continuous
 62
     7
100
AcDbLine
 10
41.7615998357
 20
340.6521492984
 30
0.0
 11
41.8827100871
 21
340.419813303
 31
0.0
  0
LWPOLYLINE
  5
7C
330
1F
100
AcDbEntity
  8
BEZUGSACHSEN
  6
DOT_CENTER
 62
     7
100
AcDbPolyline
 90
        2
 70
     0
 43
0.25
 10
75.6157571601
 20
325.409813303
 10
75.6157571601
 20
316.409813303
  0
LWPOLYLINE
  5
7D
330
1F
100
AcDbEntity
  8
BEZUGSACHSEN
  6
DOT_CENTER
 62
     7
100
AcDbPolyline
 90
        2
 70
     0
 43
0.25
 10
75.6157571601
 20
325.409813303
 10
75.6157571601
 20
334.409813303
  0
LINE
  5
7E
330
1F
100
AcDbEntity
  8
BEZUGSACHSEN
  6
Continuous
 62
     7
100
AcDbLine
 10
40.6157571601
 20
313.399813303
 30
0.0
 11
42.6157571601
 21
315.399813303
 31
0.0
  0
LINE
  5
7F
330
1F
100
AcDbEntity
  8
BEZUGSACHSEN
  6
Continuous
 62
     7
100
AcDbLine
 10
42.6157571601
 20
335.419813303
 30
0.0
 11
40.6157571601
 21
337.419813303
 31
0.0
  0
LINE
  5
80
330
1F
100
AcDbEntity
  8
BEZUGSACHSEN
  6
Continuous
 62
     7
100
AcDbLine
 10
88.1157571601
 20
363.292063303
 30
0.0
 11
88.1157571601
 21
287.527563303
 31
0.0
  0
LINE
  5
81
330
1F
100
AcDbEntity
  8
BEZUGSACHSEN
  6
Continuous
 62
     9
100
AcDbLine
 10
88.7350007741
 20
287.6934891293
 30
0.0
 11
88.7350007741
 21
363.1261374767
 31
0.0
  0
LINE
  5
82
330
1F
100
AcDbEntity
  8
BEZUGSACHSEN
  6
Continuous
 62
     9
100
AcDbLine
 10
88.9938198192
 20
287.727563303
 30
0.0
 11
88.9938198192
 21
363.092063303
 31
0.0
  0
LINE
  5
83
330
1F
100
AcDbEntity
  8
BEZUGSACHSEN
  6
Continuous
 62
     9
100
AcDbLine
 10
89.9151858714
 20
287.727563303
 30
0.0
 11
89.9151858714
 21
363.092063303
 31
0.0
  0
LINE
  5
84
330
1F
100
AcDbEntity
  8
BEZUGSACHSEN
  6
Continuous
 62
     7
100
AcDbLine
 10
90.6157571601
 20
375.409813303
 30
0.0
 11
90.6157571601
 21
275.409813303
 31
0.0
  0
LWPOLYLINE
  5
85
330
1F
100
AcDbEntity
  8
BEZUGSACHSEN
  6
DOT_CENTER
 62
     7
100
AcDbPolyline
 90
        2
 70
     0
 43
0.25
 10
97.6157571601
 20
367.5591851583
 10
97.6157571601
 20
378.409813303
  0
LINE
  5
86
330
1F
100
AcDbEntity
  8
BEZUGSACHSEN
  6
Continuous
 62
     7
100
AcDbLine
 10
112.4907571601
 20
373.0324085672
 30
0.0
 11
113.8633524243
 21
375.409813303
 31
0.0
  0
LINE
  5
87
330
1F
100
AcDbEntity
  8
BEZUGSACHSEN
  6
Continuous
 62
     7
100
AcDbLine
 10
107.3681618959
 20
275.409813303
 30
0.0
 11
90.6157571601
 21
275.409813303
 31
0.0
  0
LINE
  5
88
330
1F
100
AcDbEntity
  8
BEZUGSACHSEN
  6
Continuous
 62
     7
100
AcDbLine
 10
113.8633524243
 20
275.409813303
 30
0.0
 11
119.6157571601
 21
275.409813303
 31
0.0
  0
LINE
  5
89
330
1F
100
AcDbEntity
  8
BEZUGSACHSEN
  6
Continuous
 62
     7
100
AcDbLine
 10
109.7407571601
 20
279.409813303
 30
0.0
 11
111.4907571601
 21
279.409813303
 31
0.0
  0
LINE
  5
8A
330
1F
100
AcDbEntity
  8
BEZUGSACHSEN
  6
Continuous
 62
     7
100
AcDbLine
 10
112.4907571601
 20
277.7872180388
 30
0.0
 11
113.8633524243
 21
275.409813303
 31
0.0
  0
LINE
  5
8B
330
1F
100
AcDbEntity
  8
FASEN
  6
Continuous
 62
     9
100
AcDbLine
 10
103.5876310819
 20
293.509813303
 30
0.0
 11
103.5876310819
 21
293.909813303
 31
0.0
  0
LINE
  5
8C
330
1F
100
AcDbEntity
  8
FASEN
  6
Continuous
 62
     9
100
AcDbLine
 10
105.6157571601
 20
315.809813303
 30
0.0
 11
105.6157571601
 21
315.409813303
 31
0.0
  0
LINE
  5
8D
330
1F
100
AcDbEntity
  8
FASEN
  6
Continuous
 62
     9
100
AcDbLine
 10
105.6157571601
 20
335.009813303
 30
0.0
 11
105.6157571601
 21
335.409813303
 31
0.0
  0
LINE
  5
8E
330
1F
100
AcDbEntity
  8
0
  6
Continuous
 62
     7
100
AcDbLine
 10
107.3681618959
 20
375.409813303
 30
0.0
 11
107.3681618959
 21
335.409813303
 31
0.0
  0
LINE
  5
8F
330
1F
100
AcDbEntity
  8
0
  6
Continuous
 62
     7
100
AcDbLine
 10
107.3681618959
 20
315.409813303
 30
0.0
 11
107.3681618959
 21
293.909813303
 31
0.0
  0
LINE
  5
90
330
1F
100
AcDbEntity
  8
0
  6
Continuous
 62
     7
100
AcDbLine
 10
107.3681618959
 20
286.5800566723
 30
0.0
 11
107.3681618959
 21
275.409813303
 31
0.0
  0
LINE
  5
91
330
1F
100
AcDbEntity
  8
FASEN
  6
Continuous
 62
     7
100
AcDbLine
 10
96.0172431245
 20
286.5800566723
 30
0.0
 11
107.3681618959
 21
286.5800566723
 31
0.0
  0
LINE
  5
92
330
1F
100
AcDbEntity
  8
0
  6
Continuous
 62
     7
100
AcDbLine
 10
113.8633524243
 20
286.5800566723
 30
0.0
 11
119.6157571601
 21
286.5800566723
 31
0.0
  0
LINE
  5
93
330
1F
100
AcDbEntity
  8
BEZUGSACHSEN
  6
Continuous
 62
     7
100
AcDbLine
 10
88.1157571601
 20
287.527563303
 30
0.0
 11
42.5156826753
 21
289.8121270347
 31
0.0
  0
LINE
  5
94
330
1F
100
AcDbEntity
  8
0
  6
Continuous
 62
     7
100
AcDbLine
 10
108.7407571601
 20
373.0323751407
 30
0.0
 11
108.7407571601
 21
335.409813303
 31
0.0
  0
LINE
  5
95
330
1F
100
AcDbEntity
  8
0
  6
Continuous
 62
     7
100
AcDbLine
 10
108.7407571601
 20
315.409813303
 30
0.0
 11
108.7407571601
 21
293.909813303
 31
0.0
  0
LINE
  5
96
330
1F
100
AcDbEntity
  8
0
  6
Continuous
 62
     7
100
AcDbLine
 10
108.7407571601
 20
277.7872555728
 30
0.0
 11
108.7407571601
 21
290.5278695498
 31
0.0
  0
LINE
  5
97
330
1F
100
AcDbEntity
  8
0
  6
Continuous
 62
     9
100
AcDbLine
 10
109.7407571601
 20
279.409813303
 30
0.0
 11
109.7407571601
 21
291.8874327193
 31
0.0
  0
LINE
  5
98
330
1F
100
AcDbEntity
  8
0
  6
Continuous
 62
     9
100
AcDbLine
 10
109.7407571601
 20
293.909813303
 30
0.0
 11
109.7407571601
 21
315.409813303
 31
0.0
  0
LINE
  5
99
330
1F
100
AcDbEntity
  8
0
  6
Continuous
 62
     9
100
AcDbLine
 10
109.7407571601
 20
335.409813303
 30
0.0
 11
109.7407571601
 21
371.409813303
 31
0.0
  0
LINE
  5
9A
330
1F
100
AcDbEntity
  8
0
  6
Continuous
 62
     9
100
AcDbLine
 10
111.4907571601
 20
279.409813303
 30
0.0
 11
111.4907571601
 21
291.8874327193
 31
0.0
  0
LINE
  5
9B
330
1F
100
AcDbEntity
  8
0
  6
Continuous
 62
     9
100
AcDbLine
 10
111.4907571601
 20
293.909813303
 30
0.0
 11
111.4907571601
 21
315.409813303
 31
0.0
  0
LINE
  5
9C
330
1F
100
AcDbEntity
  8
0
  6
Continuous
 62
     9
100
AcDbLine
 10
111.4907571601
 20
335.409813303
 30
0.0
 11
111.4907571601
 21
371.409813303
 31
0.0
  0
LINE
  5
9D
330
1F
100
AcDbEntity
  8
0
  6
Continuous
 62
     7
100
AcDbLine
 10
112.4907571601
 20
277.7872555728
 30
0.0
 11
112.4907571601
 21
290.5278695498
 31
0.0
  0
LINE
  5
9E
330
1F
100
AcDbEntity
  8
0
  6
Continuous
 62
     7
100
AcDbLine
 10
112.4907571601
 20
293.909813303
 30
0.0
 11
112.4907571601
 21
315.409813303
 31
0.0
  0
LINE
  5
9F
330
1F
100
AcDbEntity
  8
0
  6
Continuous
 62
     7
100
AcDbLine
 10
112.4907571601
 20
335.409813303
 30
0.0
 11
112.4907571601
 21
373.0323751407
 31
0.0
  0
LINE
  5
A0
330
1F
100
AcDbEntity
  8
0
  6
Continuous
 62
     7
100
AcDbLine
 10
113.8633524243
 20
375.409813303
 30
0.0
 11
113.8633524243
 21
335.409813303
 31
0.0
  0
LINE
  5
A1
330
1F
100
AcDbEntity
  8
0
  6
Continuous
 62
     7
100
AcDbLine
 10
113.8633524243
 20
315.409813303
 30
0.0
 11
113.8633524243
 21
293.909813303
 31
0.0
  0
LINE
  5
A2
330
1F
100
AcDbEntity
  8
0
  6
Continuous
 62
     7
100
AcDbLine
 10
113.8633524243
 20
286.5800566723
 30
0.0
 11
113.8633524243
 21
275.409813303
 31
0.0
  0
LINE
  5
A3
330
1F
100
AcDbEntity
  8
BEZUGSACHSEN
  6
Continuous
 62
     9
100
AcDbLine
 10
40.6157571601
 20
311.963629334
 30
0.0
 11
42.6157571601
 21
313.0061733546
 31
0.0
  0
LINE
  5
A4
330
1F
100
AcDbEntity
  8
BEZUGSACHSEN
  6
Continuous
 62
     7
100
AcDbLine
 10
89.9151858714
 20
287.727563303
 30
0.0
 11
88.9938198192
 21
287.727563303
 31
0.0
  0
LINE
  5
A5
330
1F
100
AcDbEntity
  8
0
  6
Continuous
 62
     7
100
AcDbLine
 10
124.6157571601
 20
289.409813303
 30
0.0
 11
189.8657571601
 21
289.409813303
 31
0.0
  0
LINE
  5
A6
330
1F
100
AcDbEntity
  8
0
  6
Continuous
 62
     7
100
AcDbLine
 10
207.3657571601
 20
289.409813303
 30
0.0
 11
217.8657571601
 21
289.409813303
 31
0.0
  0
LINE
  5
A7
330
1F
100
AcDbEntity
  8
0
  6
Continuous
 62
     7
100
AcDbLine
 10
235.3657571601
 20
289.409813303
 30
0.0
 11
242.2015435977
 21
289.409813303
 31
0.0
  0
LINE
  5
A8
330
1F
100
AcDbEntity
  8
0
  6
Continuous
 62
     7
100
AcDbLine
 10
109.7407571601
 20
291.8874327193
 30
0.0
 11
111.4907571601
 21
291.8874327193
 31
0.0
  0
LINE
  5
A9
330
1F
100
AcDbEntity
  8
FASEN
  6
Continuous
 62
     7
100
AcDbLine
 10
103.5876310819
 20
293.509813303
 30
0.0
 11
119.6157571601
 21
293.509813303
 31
0.0
  0
LINE
  5
AA
330
1F
100
AcDbEntity
  8
0
  6
Continuous
 62
     7
100
AcDbLine
 10
103.5876310819
 20
293.909813303
 30
0.0
 11
119.6157571601
 21
293.909813303
 31
0.0
  0
LINE
  5
AB
330
1F
100
AcDbEntity
  8
BEZUGSACHSEN
  6
Continuous
 62
     9
100
AcDbLine
 10
42.6157571601
 20
337.8134532514
 30
0.0
 11
40.6157571601
 21
338.855997272
 31
0.0
  0
LINE
  5
AC
330
1F
100
AcDbEntity
  8
0
  6
Continuous
 62
     7
100
AcDbLine
 10
119.6157571601
 20
375.4097763819
 30
0.0
 11
119.6157571601
 21
335.409813303
 31
0.0
  0
LINE
  5
AD
330
1F
100
AcDbEntity
  8
0
  6
Continuous
 62
     7
100
AcDbLine
 10
119.6157571601
 20
315.409813303
 30
0.0
 11
119.6157571601
 21
293.909813303
 31
0.0
  0
LINE
  5
AE
330
1F
100
AcDbEntity
  8
0
  6
Continuous
 62
     7
100
AcDbLine
 10
119.6157571601
 20
286.5800566723
 30
0.0
 11
119.6157571601
 21
275.4098151708
 31
0.0
  0
LINE
  5
AF
330
1F
100
AcDbEntity
  8
FASEN
  6
Continuous
 62
     7
100
AcDbLine
 10
119.6157571601
 20
286.5800566723
 30
0.0
 11
119.6157571601
 21
293.909813303
 31
0.0
  0
LINE
  5
B0
330
1F
100
AcDbEntity
  8
FASEN
  6
Continuous
 62
     7
100
AcDbLine
 10
119.6157571601
 20
315.409813303
 30
0.0
 11
119.6157571601
 21
335.409813303
 31
0.0
  0
LINE
  5
B1
330
1F
100
AcDbEntity
  8
RUNDUNGEN
  6
Continuous
 62
     9
100
AcDbLine
 10
124.6157571601
 20
361.409813303
 30
0.0
 11
124.6157571601
 21
289.409813303
 31
0.0
  0
LINE
  5
B2
330
1F
100
AcDbEntity
  8
BEZUGSACHSEN
  6
Continuous
 62
     7
100
AcDbLine
 10
88.7350007741
 20
287.6934891293
 30
0.0
 11
88.1157571601
 21
287.527563303
 31
0.0
  0
LWPOLYLINE
  5
B3
330
1F
100
AcDbEntity
  8
GEWINDE
  6
DASHED
 62
     8
100
AcDbPolyline
 90
        2
 70
     0
 43
0.35
 10
250.6157571601
 20
309.409813303
 10
235.3657571601
 20
309.409813303
  0
LWPOLYLINE
  5
B4
330
1F
100
AcDbEntity
  8
GEWINDE
  6
DASHED
 62
     8
100
AcDbPolyline
 90
        2
 70
     0
 43
0.35
 10
189.8657571601
 20
309.409813303
 10
186.6157571601
 20
309.409813303
  0
LWPOLYLINE
  5
B5
330
1F
100
AcDbEntity
  8
DEFAULT_2
  6
DASHED
 62
     8
100
AcDbPolyline
 90
        2
 70
     0
 43
0.35
 10
189.8657571601
 20
309.409813303
 10
235.3657571601
 20
309.409813303
  0
LINE
  5
B6
330
1F
100
AcDbEntity
  8
BEZUGSACHSEN
  6
Continuous
 62
     9
100
AcDbLine
 10
50.169603107
 20
310.399813303
 30
0.0
 11
41.8827100871
 21
310.399813303
 31
0.0
  0
LINE
  5
B7
330
1F
100
AcDbEntity
  8
BEZUGSACHSEN
  6
Continuous
 62
     7
100
AcDbLine
 10
107.3681618959
 20
275.409813303
 30
0.0
 11
108.7407571601
 21
277.7872180388
 31
0.0
  0
LINE
  5
B8
330
1F
100
AcDbEntity
  8
BEZUGSACHSEN
  6
Continuous
 62
     7
100
AcDbLine
 10
48.6157571601
 20
315.399813303
 30
0.0
 11
42.6157571601
 21
315.399813303
 31
0.0
  0
LINE
  5
B9
330
1F
100
AcDbEntity
  8
0
  6
Continuous
 62
     7
100
AcDbLine
 10
105.6157571601
 20
315.409813303
 30
0.0
 11
119.6157571601
 21
315.409813303
 31
0.0
  0
LINE
  5
BA
330
1F
100
AcDbEntity
  8
FASEN
  6
Continuous
 62
     7
100
AcDbLine
 10
119.6157571601
 20
315.809813303
 30
0.0
 11
105.6157571601
 21
315.809813303
 31
0.0
  0
LINE
  5
BB
330
1F
100
AcDbEntity
  8
BEZUGSACHSEN
  6
Continuous
 62
     7
100
AcDbLine
 10
107.3681618959
 20
375.409813303
 30
0.0
 11
108.7407571601
 21
373.0324085672
 31
0.0
  0
LWPOLYLINE
  5
BC
330
1F
100
AcDbEntity
  8
BEZUGSACHSEN
  6
DOT_CENTER
 62
     7
100
AcDbPolyline
 90
        2
 70
     0
 43
0.25
 10
253.6157571601
 20
325.409813303
 10
37.6157571601
 20
325.409813303
  0
LINE
  5
BD
330
1F
100
AcDbEntity
  8
FASEN
  6
Continuous
 62
     7
100
AcDbLine
 10
105.6157571601
 20
335.009813303
 30
0.0
 11
119.6157571601
 21
335.009813303
 31
0.0
  0
LINE
  5
BE
330
1F
100
AcDbEntity
  8
0
  6
Continuous
 62
     7
100
AcDbLine
 10
105.6157571601
 20
335.409813303
 30
0.0
 11
119.6157571601
 21
335.409813303
 31
0.0
  0
LINE
  5
BF
330
1F
100
AcDbEntity
  8
BEZUGSACHSEN
  6
Continuous
 62
     7
100
AcDbLine
 10
48.6157571601
 20
335.419813303
 30
0.0
 11
42.6157571601
 21
335.419813303
 31
0.0
  0
LINE
  5
C0
330
1F
100
AcDbEntity
  8
BEZUGSACHSEN
  6
Continuous
 62
     9
100
AcDbLine
 10
41.8827100871
 20
340.419813303
 30
0.0
 11
50.169603107
 21
340.419813303
 31
0.0
  0
LWPOLYLINE
  5
C1
330
1F
100
AcDbEntity
  8
DEFAULT_2
  6
DASHED
 62
     8
100
AcDbPolyline
 90
        2
 70
     0
 43
0.35
 10
250.6157571601
 20
341.409813303
 10
186.6157571601
 20
341.409813303
  0
LINE
  5
C2
330
1F
100
AcDbEntity
  8
BEZUGSACHSEN
  6
Continuous
 62
     7
100
AcDbLine
 10
88.7350007741
 20
363.1261374767
 30
0.0
 11
88.1157571601
 21
363.292063303
 31
0.0
  0
LINE
  5
C3
330
1F
100
AcDbEntity
  8
RUNDUNGEN
  6
Continuous
 62
     7
100
AcDbLine
 10
242.2015435977
 20
361.409813303
 30
0.0
 11
124.6157571601
 21
361.409813303
 31
0.0
  0
LINE
  5
C4
330
1F
100
AcDbEntity
  8
0
  6
Continuous
 62
     7
100
AcDbLine
 10
124.6157571601
 20
361.409813303
 30
0.0
 11
242.2015435977
 21
361.409813303
 31
0.0
  0
LINE
  5
C5
330
1F
100
AcDbEntity
  8
BEZUGSACHSEN
  6
Continuous
 62
     7
100
AcDbLine
 10
89.9151858714
 20
363.092063303
 30
0.0
 11
88.9938198192
 21
363.092063303
 31
0.0
  0
LWPOLYLINE
  5
C6
330
1F
100
AcDbEntity
  8
DEFAULT_2
  6
DASHED
 62
     8
100
AcDbPolyline
 90
        2
 70
     0
 43
0.35
 10
186.6157571601
 20
341.409813303
 10
186.6157571601
 20
309.409813303
  0
LWPOLYLINE
  5
C7
330
1F
100
AcDbEntity
  8
GEWINDE
  6
DASHED
 62
     8
100
AcDbPolyline
 90
        2
 70
     0
 43
0.35
 10
189.8657571601
 20
309.409813303
 10
189.8657571601
 20
289.409813303
  0
LINE
  5
C8
330
1F
100
AcDbEntity
  8
BEZUGSACHSEN
  6
Continuous
 62
     7
100
AcDbLine
 10
88.1157571601
 20
363.292063303
 30
0.0
 11
42.5156826753
 21
361.0074995713
 31
0.0
  0
LINE
  5
C9
330
1F
100
AcDbEntity
  8
BEZUGSACHSEN
  6
Continuous
 62
     7
100
AcDbLine
 10
109.7407571601
 20
371.409813303
 30
0.0
 11
111.4907571601
 21
371.409813303
 31
0.0
  0
LWPOLYLINE
  5
CA
330
1F
100
AcDbEntity
  8
GEWINDE
  6
DOT_CENTER
 62
     7
100
AcDbPolyline
 90
        2
 70
     0
 43
0.25
 10
198.6157571601
 20
286.409813303
 10
198.6157571601
 20
315.0162954718
  0
LINE
  5
CB
330
1F
100
AcDbEntity
  8
BEZUGSACHSEN
  6
Continuous
 62
     7
100
AcDbLine
 10
107.3681618959
 20
375.409813303
 30
0.0
 11
102.6157571601
 21
375.409813303
 31
0.0
  0
LINE
  5
CC
330
1F
100
AcDbEntity
  8
BEZUGSACHSEN
  6
Continuous
 62
     7
100
AcDbLine
 10
92.6157571601
 20
375.409813303
 30
0.0
 11
90.6157571601
 21
375.409813303
 31
0.0
  0
LINE
  5
CD
330
1F
100
AcDbEntity
  8
BEZUGSACHSEN
  6
Continuous
 62
     7
100
AcDbLine
 10
113.8633524243
 20
375.409813303
 30
0.0
 11
119.6157571601
 21
375.409813303
 31
0.0
  0
LWPOLYLINE
  5
CE
330
1F
100
AcDbEntity
  8
GEWINDE
  6
DASHED
 62
     8
100
AcDbPolyline
 90
        2
 70
     0
 43
0.35
 10
207.3657571601
 20
309.409813303
 10
207.3657571601
 20
289.409813303
  0
LWPOLYLINE
  5
CF
330
1F
100
AcDbEntity
  8
GEWINDE
  6
DASHED
 62
     8
100
AcDbPolyline
 90
        2
 70
     0
 43
0.35
 10
217.8657571601
 20
309.409813303
 10
217.8657571601
 20
289.409813303
  0
LWPOLYLINE
  5
D0
330
1F
100
AcDbEntity
  8
GEWINDE
  6
DOT_CENTER
 62
     7
100
AcDbPolyline
 90
        2
 70
     0
 43
0.25
 10
226.6157571601
 20
286.409813303
 10
226.6157571601
 20
315.0162954718
  0
LWPOLYLINE
  5
D1
330
1F
100
AcDbEntity
  8
GEWINDE
  6
DASHED
 62
     8
100
AcDbPolyline
 90
        2
 70
     0
 43
0.35
 10
235.3657571601
 20
309.409813303
 10
235.3657571601
 20
289.409813303
  0
LINE
  5
D2
330
1F
100
AcDbEntity
  8
0
  6
Continuous
 62
     7
100
AcDbLine
 10
242.9086503789
 20
289.7027065218
 30
0.0
 11
250.3228639413
 21
297.1169200842
 31
0.0
  0
LINE
  5
D3
330
1F
100
AcDbEntity
  8
0
  6
Continuous
 62
     7
100
AcDbLine
 10
242.9086503789
 20
361.1169200842
 30
0.0
 11
250.3228639413
 21
353.7027065218
 31
0.0
  0
LINE
  5
D4
330
1F
100
AcDbEntity
  8
RUNDUNGEN
  6
Continuous
 62
     7
100
AcDbLine
 10
250.3228639413
 20
353.7027065218
 30
0.0
 11
242.9086503789
 21
361.1169200842
 31
0.0
  0
LINE
  5
D5
330
1F
100
AcDbEntity
  8
RUNDUNGEN
  6
Continuous
 62
     9
100
AcDbLine
 10
242.2015435977
 20
289.409813303
 30
0.0
 11
242.2015435977
 21
361.409813303
 31
0.0
  0
LINE
  5
D6
330
1F
100
AcDbEntity
  8
RUNDUNGEN
  6
Continuous
 62
     9
100
AcDbLine
 10
242.9086503789
 20
289.7027065218
 30
0.0
 11
242.9086503789
 21
361.1169200842
 31
0.0
  0
LINE
  5
D7
330
1F
100
AcDbEntity
  8
RUNDUNGEN
  6
Continuous
 62
     9
100
AcDbLine
 10
250.3228639413
 20
297.1169200842
 30
0.0
 11
250.3228639413
 21
353.7027065218
 31
0.0
  0
LINE
  5
D8
330
1F
100
AcDbEntity
  8
RUNDUNGEN
  6
Continuous
 62
     7
100
AcDbLine
 10
250.6157571601
 20
352.9955997406
 30
0.0
 11
250.6157571601
 21
297.8240268654
 31
0.0
  0
LWPOLYLINE
  5
D9
330
1F
100
AcDbEntity
  8
GEWINDE
  6
DASHED
 62
     8
100
AcDbPolyline
 90
        2
 70
     0
 43
0.35
 10
236.6157571601
 20
309.409813303
 10
236.6157571601
 20
289.409813303
  0
LWPOLYLINE
  5
DA
330
1F
100
AcDbEntity
  8
GEWINDE
  6
DASHED
 62
     8
100
AcDbPolyline
 90
        2
 70
     0
 43
0.35
 10
208.6157571601
 20
309.409813303
 10
208.6157571601
 20
289.409813303
  0
LWPOLYLINE
  5
DB
330
1F
100
AcDbEntity
  8
GEWINDE
  6
DASHED
 62
     8
100
AcDbPolyline
 90
        2
 70
     0
 43
0.35
 10
216.6157571601
 20
309.409813303
 10
216.6157571601
 20
289.409813303
  0
LWPOLYLINE
  5
DC
330
1F
100
AcDbEntity
  8
GEWINDE
  6
DASHED
 62
     8
100
AcDbPolyline
 90
        2
 70
     0
 43
0.35
 10
188.6157571601
 20
309.409813303
 10
188.6157571601
 20
289.409813303
  0
ARC
  5
DD
330
1F
100
AcDbEntity
  8
FASEN
  6
Continuous
 62
     7
100
AcDbCircle
 10
108.5164111831
 20
300.9410765732
 30
0.0
 40
19.03859487330007
100
AcDbArc
 50
227.4837701983003
 51
228.9651953374702
  0
ARC
  5
DE
330
1F
100
AcDbEntity
  8
FASEN
  6
Continuous
 62
     7
100
AcDbCircle
 10
103.5876310819
 20
285.909813303
 30
0.0
 40
8.0
100
AcDbArc
 50
90.0
 51
172.8323734889971
  0
ARC
  5
DF
330
1F
100
AcDbEntity
  8
FASEN
  6
Continuous
 62
     7
100
AcDbCircle
 10
103.5876310819
 20
285.909813303
 30
0.0
 40
7.599982194899951
100
AcDbArc
 50
90.0
 51
174.9405171273017
  0
ARC
  5
E0
330
1F
100
AcDbEntity
  8
BEZUGSACHSEN
  6
Continuous
 62
     7
100
AcDbCircle
 10
48.6157571601
 20
317.399813303
 30
0.0
 40
2.0
100
AcDbArc
 50
270.0
 51
355.2355361864949
  0
ARC
  5
E1
330
1F
100
AcDbEntity
  8
BEZUGSACHSEN
  6
Continuous
 62
     7
100
AcDbCircle
 10
42.6157571601
 20
291.8096217399
 30
0.0
 40
2.0
100
AcDbArc
 50
179.9999999942711
 51
267.1318795106972
  0
ARC
  5
E2
330
1F
100
AcDbEntity
  8
BEZUGSACHSEN
  6
Continuous
 62
     7
100
AcDbCircle
 10
109.7407571601
 20
278.409813303
 30
0.0
 40
1.0
100
AcDbArc
 50
90.0
 51
180.0
  0
ARC
  5
E3
330
1F
100
AcDbEntity
  8
BEZUGSACHSEN
  6
Continuous
 62
     7
100
AcDbCircle
 10
88.9938198192
 20
286.727563303
 30
0.0
 40
1.0
100
AcDbArc
 50
90.0
 51
104.9999999996981
  0
ARC
  5
E4
330
1F
100
AcDbEntity
  8
BEZUGSACHSEN
  6
Continuous
 62
     7
100
AcDbCircle
 10
89.9151858714
 20
286.727563303
 30
0.0
 40
0.9999999999998127
100
AcDbArc
 50
45.49026120128689
 51
90.0
  0
ARC
  5
E5
330
1F
100
AcDbEntity
  8
0
  6
Continuous
 62
     7
100
AcDbCircle
 10
-133.982022724
 20
394.8442808941
 30
0.0
 40
264.5204223919355
100
AcDbArc
 50
335.8400764706025
 51
336.5770705491001
  0
ARC
  5
E6
330
1F
100
AcDbEntity
  8
BEZUGSACHSEN
  6
Continuous
 62
     7
100
AcDbCircle
 10
97.6309651712
 20
425.4625830698
 30
0.0
 40
50.30340021035248
100
AcDbArc
 50
264.2781515101899
 51
269.9826780125999
  0
ARC
  5
E7
330
1F
100
AcDbEntity
  8
BEZUGSACHSEN
  6
Continuous
 62
     7
100
AcDbCircle
 10
97.600549159
 20
425.4625828691
 30
0.0
 40
50.30340000969741
100
AcDbArc
 50
270.017321976058
 51
275.7218485012679
  0
ARC
  5
E8
330
1F
100
AcDbEntity
  8
0
  6
Continuous
 62
     7
100
AcDbCircle
 10
105.6157571601
 20
325.409813303
 30
0.0
 40
10.0
100
AcDbArc
 50
90.0
 51
270.0
  0
ARC
  5
E9
330
1F
100
AcDbEntity
  8
FASEN
  6
Continuous
 62
     7
100
AcDbCircle
 10
105.6157571601
 20
325.409813303
 30
0.0
 40
9.599999195899954
100
AcDbArc
 50
90.0
 51
270.0
  0
ARC
  5
EA
330
1F
100
AcDbEntity
  8
BEZUGSACHSEN
  6
Continuous
 62
     7
100
AcDbCircle
 10
48.6157571601
 20
333.419813303
 30
0.0
 40
1.999999999999923
100
AcDbArc
 50
4.76494791109066
 51
90.0
  0
ARC
  5
EB
330
1F
100
AcDbEntity
  8
BEZUGSACHSEN
  6
Continuous
 62
     7
100
AcDbCircle
 10
42.6157571601
 20
359.0100048661
 30
0.0
 40
1.999999999952489
100
AcDbArc
 50
92.86812048930284
 51
180.0000000143238
  0
ARC
  5
EC
330
1F
100
AcDbEntity
  8
BEZUGSACHSEN
  6
Continuous
 62
     7
100
AcDbCircle
 10
109.7407571601
 20
372.409813303
 30
0.0
 40
1.0
100
AcDbArc
 50
180.0
 51
270.0
  0
ARC
  5
ED
330
1F
100
AcDbEntity
  8
BEZUGSACHSEN
  6
Continuous
 62
     7
100
AcDbCircle
 10
88.9938198192
 20
364.092063303
 30
0.0
 40
1.000000000009859
100
AcDbArc
 50
255.000000000301
 51
270.0
  0
ARC
  5
EE
330
1F
100
AcDbEntity
  8
BEZUGSACHSEN
  6
Continuous
 62
     7
100
AcDbCircle
 10
89.9151858714
 20
364.092063303
 30
0.0
 40
1.0
100
AcDbArc
 50
270.0
 51
314.5097387987131
  0
ARC
  5
EF
330
1F
100
AcDbEntity
  8
BEZUGSACHSEN
  6
Continuous
 62
     7
100
AcDbCircle
 10
226.9458037625
 20
-1280.6329460247
 30
0.0
 40
1632.1727637359
100
AcDbArc
 50
96.2726189838
 51
96.48809068979999
  0
ARC
  5
F0
330
1F
100
AcDbEntity
  8
RUNDUNGEN
  6
Continuous
 62
     7
100
AcDbCircle
 10
124.6157571601
 20
284.409813303
 30
0.0
 40
5.0
100
AcDbArc
 50
90.0
 51
180.0
  0
ARC
  5
F1
330
1F
100
AcDbEntity
  8
BEZUGSACHSEN
  6
Continuous
 62
     7
100
AcDbCircle
 10
111.4907571601
 20
278.409813303
 30
0.0
 40
1.0
100
AcDbArc
 50
0.0
 51
90.0
  0
ARC
  5
F2
330
1F
100
AcDbEntity
  8
RUNDUNGEN
  6
Continuous
 62
     7
100
AcDbCircle
 10
249.6157571601
 20
297.8240268654
 30
0.0
 40
1.00000000001904
100
AcDbArc
 50
314.9999999999989
 51
0.0
  0
ARC
  5
F3
330
1F
100
AcDbEntity
  8
RUNDUNGEN
  6
Continuous
 62
     7
100
AcDbCircle
 10
242.2015435977
 20
290.409813303
 30
0.0
 40
1.0
100
AcDbArc
 50
270.0
 51
314.9999999999989
  0
ARC
  5
F4
330
1F
100
AcDbEntity
  8
RUNDUNGEN
  6
Continuous
 62
     7
100
AcDbCircle
 10
124.6157571601
 20
366.409813303
 30
0.0
 40
5.000000000000316
100
AcDbArc
 50
183.6119562409012
 51
270.0
  0
ARC
  5
F5
330
1F
100
AcDbEntity
  8
BEZUGSACHSEN
  6
Continuous
 62
     7
100
AcDbCircle
 10
111.4907571601
 20
372.409813303
 30
0.0
 40
1.0
100
AcDbArc
 50
270.0
 51
0.0
  0
ARC
  5
F6
330
1F
100
AcDbEntity
  8
BEZUGSACHSEN
  6
Continuous
 62
     7
100
AcDbCircle
 10
226.9458037625
 20
1931.4525726305
 30
0.0
 40
1632.1727637357
100
AcDbArc
 50
263.5119093102
 51
263.7273810162
  0
ARC
  5
F7
330
1F
100
AcDbEntity
  8
RUNDUNGEN
  6
Continuous
 62
     7
100
AcDbCircle
 10
242.2015435977
 20
360.409813303
 30
0.0
 40
1.000000000019
100
AcDbArc
 50
44.99999999999885
 51
90.0
  0
ARC
  5
F8
330
1F
100
AcDbEntity
  8
RUNDUNGEN
  6
Continuous
 62
     7
100
AcDbCircle
 10
249.6157571601
 20
352.9955997406
 30
0.0
 40
1.0
100
AcDbArc
 50
0.0
 51
44.99999999999885
  0
ARC
  5
F9
330
1F
100
AcDbEntity
  8
0
  6
Continuous
 62
     7
100
AcDbCircle
 10
355.2135370438
 20
394.8442808939
 30
0.0
 40
264.5204223915997
100
AcDbArc
 50
203.4229294509001
 51
204.1599235293934
  0
CIRCLE
  5
FA
330
1F
100
AcDbEntity
  8
BEZUGSACHSEN
  6
Continuous
 62
     7
100
AcDbCircle
 10
75.6157571601
 20
325.409813303
 30
0.0
 40
6.0
  0
SPLINE
  5
FB
330
1F
100
AcDbEntity
  8
0
  6
Continuous
 62
     2
100
AcDbSpline
210
0.0
220
0.0
230
1.0
 70
     8
 71
     3
 72
    69
 73
    65
 74
    63
 42
0.0000000001
 43
0.0000000001
 44
0.00000001
 40
0.0
 40
0.0
 40
0.0
 40
0.0
 40
0.0129388210625444
 40
0.0518039921827976
 40
0.1166165119473717
 40
0.2071890057922922
 40
0.3233378769054776
 40
0.4651023077991386
 40
0.6324447481008523
 40
0.8247951265961248
 40
1.041582000086521
 40
1.282755716543659
 40
1.548146699316817
 40
1.836574542993623
 40
2.146799317432148
 40
2.478340546901311
 40
2.830635007866998
 40
3.202010819258833
 40
3.590704206993036
 40
3.995670247124145
 40
4.415896271340928
 40
4.849755637132164
 40
5.295528891516557
 40
5.751712691517557
 40
6.216956730144162
 40
6.690284565256591
 40
7.170654205889388
 40
7.656364854401697
 40
8.145879099113598
 40
8.638957768049188
 40
9.135330241641217
 40
9.63328929346353
 40
10.13119372206306
 40
10.62909837886484
 40
11.12705793291214
 40
11.62343026735097
 40
12.1165075751334
 40
12.60602073503019
 40
13.09173184307198
 40
13.57210175122551
 40
14.04542801285055
 40
14.51067034316268
 40
14.96685408177631
 40
15.41262765206507
 40
15.84648622258462
 40
16.26671102429406
 40
16.67167642491857
 40
17.06036990321228
 40
17.4317462968013
 40
17.7840409102272
 40
18.11558125422413
 40
18.4258054351587
 40
18.71423409899576
 40
18.9796256653116
 40
19.22079819486686
 40
19.43758381516041
 40
19.62993461489715
 40
19.79727780036492
 40
19.93904176121053
 40
20.05518974397664
 40
20.14576191946585
 40
20.21057410936076
 40
20.24943834689999
 40
20.26237656452141
 40
20.26237656452141
 40
20.26237656452141
 40
20.26237656452141
 10
208.6157571601
 20
289.4097938719
 30
0.0
 10
208.6116023806965
 20
289.4109511378224
 30
0.0
 10
208.5949676224987
 20
289.4155845580166
 30
0.0
 10
208.5575060148113
 20
289.4259612063297
 30
0.0
 10
208.4950866987438
 20
289.4431775409913
 30
0.0
 10
208.4077850273936
 20
289.467067404612
 30
0.0
 10
208.2956749737617
 20
289.4974805740875
 30
0.0
 10
208.1587524925863
 20
289.534167292297
 30
0.0
 10
207.9971425172998
 20
289.5768555474767
 30
0.0
 10
207.811146188682
 20
289.6251364403279
 30
0.0
 10
207.6010703027009
 20
289.6785958874045
 30
0.0
 10
207.3670724762707
 20
289.7367609722318
 30
0.0
 10
207.1095152051961
 20
289.7991219549066
 30
0.0
 10
206.8291366914025
 20
289.8650130174113
 30
0.0
 10
206.5267789814762
 20
289.9337282324078
 30
0.0
 10
206.203080761118
 20
290.0045600394773
 30
0.0
 10
205.8588348187716
 20
290.0767889756205
 30
0.0
 10
205.4952597964091
 20
290.1495969505996
 30
0.0
 10
205.1137380045334
 20
290.2221101037732
 30
0.0
 10
204.7154559647967
 20
290.2935371403595
 30
0.0
 10
204.3015704774466
 20
290.3631114212592
 30
0.0
 10
203.8734808150083
 20
290.4300793406748
 30
0.0
 10
203.4327585202074
 20
290.4936469922793
 30
0.0
 10
202.9809159871542
 20
290.5531646747892
 30
0.0
 10
202.5192309284846
 20
290.6080113815965
 30
0.0
 10
202.0488504456503
 20
290.6576692773377
 30
0.0
 10
201.5710507252866
 20
290.7016249485304
 30
0.0
 10
201.087318427332
 20
290.7395082421988
 30
0.0
 10
200.5988777649005
 20
290.7709339139107
 30
0.0
 10
200.1064922939291
 20
290.7956431075108
 30
0.0
 10
199.6109911306321
 20
290.8134262908871
 30
0.0
 10
199.1136786844022
 20
290.8241925825945
 30
0.0
 10
198.6157516280784
 20
290.827792515972
 30
0.0
 10
198.117824405316
 20
290.8241924270202
 30
0.0
 10
197.6205117660228
 20
290.813425945435
 30
0.0
 10
197.1250109408896
 20
290.7956426228218
 30
0.0
 10
196.6326263364399
 20
290.7709333546543
 30
0.0
 10
196.1441863451208
 20
290.7395075619348
 30
0.0
 10
195.660454179394
 20
290.7016241099075
 30
0.0
 10
195.182654748726
 20
290.6576683725062
 30
0.0
 10
194.7122752734807
 20
290.6080105015578
 30
0.0
 10
194.2505913371539
 20
290.5531637931927
 30
0.0
 10
193.7987492990068
 20
290.4936460661887
 30
0.0
 10
193.3580271895318
 20
290.4300783930527
 30
0.0
 10
192.9299380966695
 20
290.3631105023654
 30
0.0
 10
192.516053496123
 20
290.2935362895238
 30
0.0
 10
192.1177720459439
 20
290.2221093113399
 30
0.0
 10
191.7362502498114
 20
290.1495961209203
 30
0.0
 10
191.3726749684431
 20
290.0767880382955
 30
0.0
 10
191.0284290828535
 20
290.0045590768368
 30
0.0
 10
190.704731298615
 20
289.9337273451787
 30
0.0
 10
190.4023738122366
 20
289.8650121371994
 30
0.0
 10
190.1219950460884
 20
289.799120968188
 30
0.0
 10
189.864437707802
 20
289.7367599562222
 30
0.0
 10
189.6304404839504
 20
289.678595012492
 30
0.0
 10
189.4203652578508
 20
289.625135700987
 30
0.0
 10
189.2343689627496
 20
289.5768547942832
 30
0.0
 10
189.0727587633336
 20
289.5341664787373
 30
0.0
 10
188.9358364822055
 20
289.4974798036377
 30
0.0
 10
188.8237269718408
 20
289.4670667663915
 30
0.0
 10
188.7364257907868
 20
289.4431770516177
 30
0.0
 10
188.6740069824207
 20
289.4259608592615
 30
0.0
 10
188.6365459881716
 20
289.4155843273076
 30
0.0
 10
188.6199117412949
 20
289.410950980785
 30
0.0
 10
188.6157571601
 20
289.4097937529
 30
0.0
 11
208.6157571601
 21
289.4097938719
 31
0.0
 11
208.6032924081938
 21
289.4132641817427
 31
0.0
 11
208.56583986455
 21
289.4236472689917
 31
0.0
 11
208.5033594500116
 21
289.4408769096538
 31
0.0
 11
208.4160004963429
 21
289.4647890374384
 31
0.0
 11
208.303901507031
 21
289.4951926039416
 31
0.0
 11
208.1669682615335
 21
289.5318864746033
 31
0.0
 11
208.0051739921499
 21
289.5746194445533
 31
0.0
 11
207.8189944696656
 21
289.6229501130238
 31
0.0
 11
207.6089018204433
 21
289.6764068923925
 31
0.0
 11
207.3748510531569
 21
289.7345876438693
 31
0.0
 11
207.1169122571092
 21
289.7970372333858
 31
0.0
 11
206.8361329584166
 21
289.8630190978166
 31
0.0
 11
206.5336202380875
 21
289.9317611134583
 31
0.0
 11
206.2097419598833
 21
290.00263034335
 31
0.0
 11
205.8649543319668
 21
290.0749689835281
 31
0.0
 11
205.5008061573512
 21
290.1478805752751
 31
0.0
 11
205.1189472721782
 21
290.2204501383349
 31
0.0
 11
204.7203390502517
 21
290.2919272610533
 31
0.0
 11
204.3059265269831
 21
290.3615847946525
 31
0.0
 11
203.8772778543129
 21
290.4286240719674
 31
0.0
 11
203.4360698762604
 21
290.4922582956779
 31
0.0
 11
202.9837910877458
 21
290.5518196660713
 31
0.0
 11
202.5217947152162
 21
290.6066955920048
 31
0.0
 11
202.0510812523834
 21
290.6563753202666
 31
0.0
 11
201.5727317958333
 21
290.7003842859438
 31
0.0
 11
201.0885025863833
 21
290.7382908393834
 31
0.0
 11
200.5999978529256
 21
290.769712506514
 31
0.0
 11
200.1075386324217
 21
290.7944206003284
 31
0.0
 11
199.6114858464926
 21
290.8122325657424
 31
0.0
 11
199.1136431473294
 21
290.8229965882993
 31
0.0
 11
198.6157517043083
 21
290.8265925562416
 31
0.0
 11
198.1178600342373
 21
290.8229964279327
 31
0.0
 11
197.6200168367574
 21
290.8122322191861
 31
0.0
 11
197.1239641954116
 21
290.794420105045
 31
0.0
 11
196.6315063409827
 21
290.7697119472577
 31
0.0
 11
196.14300270005
 21
290.7382901951167
 31
0.0
 11
195.6587730444375
 21
290.7003834529646
 31
0.0
 11
195.18042333115
 21
290.6563743578
 31
0.0
 11
194.7097114430172
 21
290.6066947008527
 31
0.0
 11
194.2477167809876
 21
290.5518188576214
 31
0.0
 11
193.7954380664396
 21
290.4922573957321
 31
0.0
 11
193.3542297843537
 21
290.4286230670507
 31
0.0
 11
192.9255819071336
 21
290.3615838504087
 31
0.0
 11
192.511170601215
 21
290.29192644952
 31
0.0
 11
192.1125630173864
 21
290.2204493915411
 31
0.0
 11
191.7307040506988
 21
290.1478797723584
 31
0.0
 11
191.3665553147499
 21
290.0749680186968
 31
0.0
 11
191.0217675453
 21
290.0026293106167
 31
0.0
 11
190.6978901378771
 21
289.9317602436084
 31
0.0
 11
190.3953780049167
 21
289.86301832155
 31
0.0
 11
190.1145979166596
 21
289.7970362318504
 31
0.0
 11
189.8566585576598
 21
289.7345864876527
 31
0.0
 11
189.6226089457255
 21
289.6764060084051
 31
0.0
 11
189.4125175173677
 21
289.6229495130405
 31
0.0
 11
189.2263375917689
 21
289.5746187209576
 31
0.0
 11
189.0645426034832
 21
289.53188555482
 31
0.0
 11
188.9276098147648
 21
289.4951917955624
 31
0.0
 11
188.8155116848071
 21
289.4647884542885
 31
0.0
 11
188.7281530360019
 21
289.4408764185789
 31
0.0
 11
188.6656729435083
 21
289.4236468509417
 31
0.0
 11
188.6282213180823
 21
289.4132639461239
 31
0.0
 11
188.6157571601
 21
289.4097937529
 31
0.0
  0
SPLINE
  5
FC
330
1F
100
AcDbEntity
  8
0
  6
Continuous
 62
     2
100
AcDbSpline
210
0.0
220
0.0
230
1.0
 70
     8
 71
     3
 72
    69
 73
    65
 74
    63
 42
0.0000000001
 43
0.0000000001
 44
0.00000001
 40
0.0
 40
0.0
 40
0.0
 40
0.0
 40
0.0129388210625718
 40
0.0518039921828249
 40
0.116616511947399
 40
0.2071890057923196
 40
0.3233378769054776
 40
0.4651023077991386
 40
0.6324447481008523
 40
0.8247951265961248
 40
1.041582000086493
 40
1.282755716543659
 40
1.548146699316844
 40
1.836574542993623
 40
2.14679931743212
 40
2.478340546901311
 40
2.830635007866998
 40
3.202010819258805
 40
3.590704206993064
 40
3.995670247124145
 40
4.415896271340928
 40
4.849755637132136
 40
5.295528891516557
 40
5.751712691517557
 40
6.21695673014419
 40
6.690284565256619
 40
7.170654205889416
 40
7.656364854401668
 40
8.145879099113598
 40
8.638957768049188
 40
9.135330241641189
 40
9.63328929346353
 40
10.13119372206303
 40
10.62909837886481
 40
11.12705793291214
 40
11.62343026735094
 40
12.1165075751334
 40
12.60602073503016
 40
13.09173184307201
 40
13.57210175122551
 40
14.04542801285055
 40
14.51067034316268
 40
14.96685408177631
 40
15.41262765206504
 40
15.84648622258461
 40
16.26671102429409
 40
16.67167642491854
 40
17.0603699032123
 40
17.4317462968013
 40
17.78404091022717
 40
18.11558125422413
 40
18.42580543515873
 40
18.71423409899576
 40
18.9796256653116
 40
19.22079819486683
 40
19.43758381516043
 40
19.62993461489714
 40
19.79727780036495
 40
19.93904176121049
 40
20.0551897439766
 40
20.14576191946579
 40
20.21057410936076
 40
20.24943834689999
 40
20.26237656452141
 40
20.26237656452141
 40
20.26237656452141
 40
20.26237656452141
 10
236.6157571601
 20
289.4097938719
 30
0.0
 10
236.6116023806965
 20
289.4109511378224
 30
0.0
 10
236.5949676224987
 20
289.4155845580166
 30
0.0
 10
236.5575060148113
 20
289.4259612063296
 30
0.0
 10
236.4950866987438
 20
289.4431775409914
 30
0.0
 10
236.4077850273936
 20
289.467067404612
 30
0.0
 10
236.2956749737617
 20
289.4974805740875
 30
0.0
 10
236.1587524925862
 20
289.534167292297
 30
0.0
 10
235.9971425172999
 20
289.5768555474766
 30
0.0
 10
235.811146188682
 20
289.6251364403281
 30
0.0
 10
235.6010703027009
 20
289.6785958874044
 30
0.0
 10
235.3670724762707
 20
289.7367609722319
 30
0.0
 10
235.1095152051961
 20
289.7991219549066
 30
0.0
 10
234.8291366914025
 20
289.8650130174113
 30
0.0
 10
234.5267789814762
 20
289.9337282324076
 30
0.0
 10
234.203080761118
 20
290.0045600394773
 30
0.0
 10
233.8588348187717
 20
290.0767889756205
 30
0.0
 10
233.4952597964091
 20
290.1495969505995
 30
0.0
 10
233.1137380045334
 20
290.2221101037732
 30
0.0
 10
232.7154559647967
 20
290.2935371403595
 30
0.0
 10
232.3015704774466
 20
290.3631114212592
 30
0.0
 10
231.8734808150083
 20
290.4300793406748
 30
0.0
 10
231.4327585202074
 20
290.4936469922793
 30
0.0
 10
230.9809159871541
 20
290.5531646747892
 30
0.0
 10
230.5192309284847
 20
290.6080113815966
 30
0.0
 10
230.0488504456502
 20
290.6576692773377
 30
0.0
 10
229.5710507252866
 20
290.7016249485303
 30
0.0
 10
229.087318427332
 20
290.7395082421989
 30
0.0
 10
228.5988777649005
 20
290.7709339139107
 30
0.0
 10
228.1064922939292
 20
290.7956431075107
 30
0.0
 10
227.6109911306321
 20
290.8134262908872
 30
0.0
 10
227.1136786844023
 20
290.8241925825946
 30
0.0
 10
226.6157516280783
 20
290.827792515972
 30
0.0
 10
226.117824405316
 20
290.8241924270202
 30
0.0
 10
225.6205117660229
 20
290.813425945435
 30
0.0
 10
225.1250109408896
 20
290.7956426228217
 30
0.0
 10
224.6326263364399
 20
290.7709333546543
 30
0.0
 10
224.1441863451208
 20
290.7395075619348
 30
0.0
 10
223.660454179394
 20
290.7016241099074
 30
0.0
 10
223.1826547487259
 20
290.6576683725062
 30
0.0
 10
222.7122752734808
 20
290.6080105015578
 30
0.0
 10
222.2505913371539
 20
290.5531637931927
 30
0.0
 10
221.7987492990068
 20
290.4936460661887
 30
0.0
 10
221.3580271895317
 20
290.4300783930526
 30
0.0
 10
220.9299380966696
 20
290.3631105023655
 30
0.0
 10
220.5160534961229
 20
290.2935362895237
 30
0.0
 10
220.1177720459438
 20
290.2221093113399
 30
0.0
 10
219.7362502498115
 20
290.1495961209203
 30
0.0
 10
219.3726749684431
 20
290.0767880382956
 30
0.0
 10
219.0284290828536
 20
290.0045590768368
 30
0.0
 10
218.7047312986151
 20
289.9337273451787
 30
0.0
 10
218.4023738122366
 20
289.8650121371994
 30
0.0
 10
218.1219950460884
 20
289.799120968188
 30
0.0
 10
217.864437707802
 20
289.7367599562223
 30
0.0
 10
217.6304404839503
 20
289.6785950124918
 30
0.0
 10
217.4203652578508
 20
289.6251357009871
 30
0.0
 10
217.2343689627497
 20
289.5768547942833
 30
0.0
 10
217.0727587633335
 20
289.5341664787372
 30
0.0
 10
216.9358364822055
 20
289.4974798036378
 30
0.0
 10
216.8237269718408
 20
289.4670667663914
 30
0.0
 10
216.7364257907869
 20
289.4431770516178
 30
0.0
 10
216.6740069824206
 20
289.4259608592614
 30
0.0
 10
216.6365459881716
 20
289.4155843273076
 30
0.0
 10
216.6199117412949
 20
289.4109509807851
 30
0.0
 10
216.6157571601
 20
289.4097937529
 30
0.0
 11
236.6157571601
 21
289.4097938719
 31
0.0
 11
236.6032924081937
 21
289.4132641817427
 31
0.0
 11
236.56583986455
 21
289.4236472689917
 31
0.0
 11
236.5033594500116
 21
289.4408769096538
 31
0.0
 11
236.4160004963429
 21
289.4647890374384
 31
0.0
 11
236.303901507031
 21
289.4951926039416
 31
0.0
 11
236.1669682615335
 21
289.5318864746033
 31
0.0
 11
236.0051739921499
 21
289.5746194445533
 31
0.0
 11
235.8189944696656
 21
289.6229501130238
 31
0.0
 11
235.6089018204433
 21
289.6764068923925
 31
0.0
 11
235.3748510531569
 21
289.7345876438693
 31
0.0
 11
235.1169122571092
 21
289.7970372333858
 31
0.0
 11
234.8361329584166
 21
289.8630190978166
 31
0.0
 11
234.5336202380875
 21
289.9317611134583
 31
0.0
 11
234.2097419598833
 21
290.00263034335
 31
0.0
 11
233.8649543319668
 21
290.0749689835281
 31
0.0
 11
233.5008061573513
 21
290.1478805752751
 31
0.0
 11
233.1189472721782
 21
290.2204501383349
 31
0.0
 11
232.7203390502517
 21
290.2919272610533
 31
0.0
 11
232.3059265269831
 21
290.3615847946525
 31
0.0
 11
231.877277854313
 21
290.4286240719674
 31
0.0
 11
231.4360698762604
 21
290.4922582956779
 31
0.0
 11
230.9837910877458
 21
290.5518196660713
 31
0.0
 11
230.5217947152161
 21
290.6066955920048
 31
0.0
 11
230.0510812523833
 21
290.6563753202666
 31
0.0
 11
229.5727317958333
 21
290.7003842859438
 31
0.0
 11
229.0885025863834
 21
290.7382908393834
 31
0.0
 11
228.5999978529256
 21
290.769712506514
 31
0.0
 11
228.1075386324217
 21
290.7944206003284
 31
0.0
 11
227.6114858464927
 21
290.8122325657424
 31
0.0
 11
227.1136431473294
 21
290.8229965882993
 31
0.0
 11
226.6157517043083
 21
290.8265925562416
 31
0.0
 11
226.1178600342373
 21
290.8229964279327
 31
0.0
 11
225.6200168367574
 21
290.8122322191861
 31
0.0
 11
225.1239641954117
 21
290.794420105045
 31
0.0
 11
224.6315063409827
 21
290.7697119472577
 31
0.0
 11
224.14300270005
 21
290.7382901951167
 31
0.0
 11
223.6587730444375
 21
290.7003834529646
 31
0.0
 11
223.18042333115
 21
290.6563743578
 31
0.0
 11
222.7097114430172
 21
290.6066947008527
 31
0.0
 11
222.2477167809876
 21
290.5518188576214
 31
0.0
 11
221.7954380664396
 21
290.4922573957321
 31
0.0
 11
221.3542297843537
 21
290.4286230670507
 31
0.0
 11
220.9255819071336
 21
290.3615838504087
 31
0.0
 11
220.5111706012149
 21
290.29192644952
 31
0.0
 11
220.1125630173864
 21
290.2204493915411
 31
0.0
 11
219.7307040506987
 21
290.1478797723584
 31
0.0
 11
219.3665553147499
 21
290.0749680186968
 31
0.0
 11
219.0217675453
 21
290.0026293106167
 31
0.0
 11
218.6978901378771
 21
289.9317602436084
 31
0.0
 11
218.3953780049167
 21
289.86301832155
 31
0.0
 11
218.1145979166596
 21
289.7970362318504
 31
0.0
 11
217.8566585576598
 21
289.7345864876527
 31
0.0
 11
217.6226089457255
 21
289.6764060084051
 31
0.0
 11
217.4125175173677
 21
289.6229495130405
 31
0.0
 11
217.2263375917689
 21
289.5746187209576
 31
0.0
 11
217.0645426034832
 21
289.53188555482
 31
0.0
 11
216.9276098147649
 21
289.4951917955624
 31
0.0
 11
216.8155116848072
 21
289.4647884542885
 31
0.0
 11
216.728153036002
 21
289.4408764185789
 31
0.0
 11
216.6656729435083
 21
289.4236468509417
 31
0.0
 11
216.6282213180823
 21
289.4132639461239
 31
0.0
 11
216.6157571601
 21
289.4097937529
 31
0.0
  0
SPLINE
  5
FD
330
1F
100
AcDbEntity
  8
GEWINDE
  6
Continuous
 62
     7
100
AcDbSpline
210
0.0
220
0.0
230
1.0
 70
     8
 71
     3
 72
    23
 73
    19
 74
    17
 42
0.0000000001
 43
0.0000000001
 44
0.00000001
 40
0.0
 40
0.0
 40
0.0
 40
0.0
 40
0.3436931825631439
 40
0.6873972743648713
 40
1.653101610828981
 40
2.618860907678021
 40
4.047444027406217
 40
5.476113721360113
 40
7.156504929910347
 40
8.836934912439686
 40
10.51736493462979
 40
12.19775618257874
 40
13.62642590617921
 40
15.05500905562751
 40
16.02076837168154
 40
16.98647272747855
 40
17.33017686092785
 40
17.67387008558583
 40
17.67387008558583
 40
17.67387008558583
 40
17.67387008558583
 10
217.8657571601
 20
289.409813303
 30
0.0
 10
217.9771453938217
 20
289.4366057942797
 30
0.0
 10
218.1999253968627
 20
289.4901916272652
 30
0.0
 10
218.7370088471228
 20
289.6134281656979
 30
0.0
 10
219.4788077437433
 20
289.7715737507106
 30
0.0
 10
220.5797507732158
 20
289.9779522488149
 30
0.0
 10
221.8393254618926
 20
290.173499606627
 30
0.0
 10
223.3421956396064
 20
290.3476071542437
 30
0.0
 10
224.9351860470225
 20
290.4622527415891
 30
0.0
 10
226.6157570430443
 20
290.5029257855495
 30
0.0
 10
228.2963280525927
 20
290.4622527554836
 30
0.0
 10
229.8893184969498
 20
290.3476071752775
 30
0.0
 10
231.3921887079186
 20
290.1734996282014
 30
0.0
 10
232.6517634229563
 20
289.977952269599
 30
0.0
 10
233.7527064757161
 20
289.771573772254
 30
0.0
 10
234.4945053990035
 20
289.6134281840354
 30
0.0
 10
235.031588882787
 20
289.4901916380469
 30
0.0
 10
235.2543689128132
 20
289.4366057978852
 30
0.0
 10
235.3657571601
 20
289.409813303
 30
0.0
 11
217.8657571601
 21
289.409813303
 31
0.0
 11
218.2000597367869
 21
289.4896054765567
 31
0.0
 11
218.535027934647
 21
289.5666042372196
 31
0.0
 11
219.4795699199442
 21
289.767664684539
 31
0.0
 11
220.428810196627
 21
289.9455239451178
 31
0.0
 11
221.840531728043
 21
290.1643664631731
 31
0.0
 11
223.259744864116
 21
290.3284736501583
 31
0.0
 11
224.9358139337888
 21
290.4489190214218
 31
0.0
 11
226.6157570298882
 21
290.489368002268
 31
0.0
 11
228.2957001659709
 21
290.4489190343388
 31
0.0
 11
229.9717692756537
 21
290.3284736701666
 31
0.0
 11
231.3909824417213
 21
290.1643664844827
 31
0.0
 11
232.8027040031625
 21
289.945523966106
 31
0.0
 11
233.7519442994363
 21
289.7676647058039
 31
0.0
 11
234.6964863042034
 21
289.5666042570929
 31
0.0
 11
235.0314545426585
 21
289.4896054871259
 31
0.0
 11
235.3657571601
 21
289.409813303
 31
0.0
  0
SPLINE
  5
FE
330
1F
100
AcDbEntity
  8
GEWINDE
  6
Continuous
 62
     7
100
AcDbSpline
210
0.0
220
0.0
230
1.0
 70
     8
 71
     3
 72
    23
 73
    19
 74
    17
 42
0.0000000001
 43
0.0000000001
 44
0.00000001
 40
0.0
 40
0.0
 40
0.0
 40
0.0
 40
0.3436931825631716
 40
0.6873972743648713
 40
1.653101610828981
 40
2.618860907678021
 40
4.047444027406246
 40
5.476113721360141
 40
7.156504929910319
 40
8.836934912439688
 40
10.51736493462979
 40
12.19775618257875
 40
13.62642590617921
 40
15.05500905562752
 40
16.02076837168154
 40
16.98647272747856
 40
17.33017686092785
 40
17.67387008558584
 40
17.67387008558584
 40
17.67387008558584
 40
17.67387008558584
 10
189.8657571601
 20
289.409813303
 30
0.0
 10
189.9771453938216
 20
289.4366057942797
 30
0.0
 10
190.1999253968626
 20
289.4901916272651
 30
0.0
 10
190.7370088471229
 20
289.6134281656981
 30
0.0
 10
191.4788077437432
 20
289.7715737507104
 30
0.0
 10
192.5797507732159
 20
289.977952248815
 30
0.0
 10
193.8393254618927
 20
290.1734996066271
 30
0.0
 10
195.3421956396064
 20
290.3476071542436
 30
0.0
 10
196.9351860470225
 20
290.4622527415892
 30
0.0
 10
198.6157570430443
 20
290.5029257855495
 30
0.0
 10
200.2963280525927
 20
290.4622527554836
 30
0.0
 10
201.8893184969499
 20
290.3476071752775
 30
0.0
 10
203.3921887079187
 20
290.1734996282014
 30
0.0
 10
204.6517634229563
 20
289.9779522695991
 30
0.0
 10
205.7527064757163
 20
289.7715737722541
 30
0.0
 10
206.4945053990034
 20
289.6134281840353
 30
0.0
 10
207.031588882787
 20
289.4901916380469
 30
0.0
 10
207.2543689128132
 20
289.4366057978852
 30
0.0
 10
207.3657571601
 20
289.409813303
 30
0.0
 11
189.8657571601
 21
289.409813303
 31
0.0
 11
190.2000597367869
 21
289.4896054765567
 31
0.0
 11
190.535027934647
 21
289.5666042372196
 31
0.0
 11
191.4795699199442
 21
289.767664684539
 31
0.0
 11
192.428810196627
 21
289.9455239451178
 31
0.0
 11
193.840531728043
 21
290.1643664631731
 31
0.0
 11
195.259744864116
 21
290.3284736501583
 31
0.0
 11
196.9358139337888
 21
290.4489190214218
 31
0.0
 11
198.6157570298882
 21
290.489368002268
 31
0.0
 11
200.2957001659709
 21
290.4489190343388
 31
0.0
 11
201.9717692756537
 21
290.3284736701666
 31
0.0
 11
203.3909824417213
 21
290.1643664844827
 31
0.0
 11
204.8027040031625
 21
289.945523966106
 31
0.0
 11
205.7519442994363
 21
289.7676647058039
 31
0.0
 11
206.6964863042034
 21
289.5666042570929
 31
0.0
 11
207.0314545426585
 21
289.4896054871259
 31
0.0
 11
207.3657571601
 21
289.409813303
 31
0.0
  0
SPLINE
  5
FF
330
1F
100
AcDbEntity
  8
BEZUGSACHSEN
  6
Continuous
 62
     7
100
AcDbSpline
210
0.0
220
0.0
230
1.0
 70
     8
 71
     3
 72
    47
 73
    43
 74
    41
 42
0.0000000001
 43
0.0000000001
 44
0.00000001
 40
0.0
 40
0.0
 40
0.0
 40
0.0
 40
0.6366022431434506
 40
1.273595002081913
 40
1.592921746297435
 40
1.91207634478566
 40
2.231392290335355
 40
2.55082684266038
 40
3.189774321099613
 40
3.829081696930881
 40
4.468337152429527
 40
5.107221744686206
 40
5.426176341173036
 40
5.745033356719182
 40
6.063356731498001
 40
6.381780214811067
 40
7.017059195604096
 40
7.652639340920254
 40
8.28753221415987
 40
8.922347946421809
 40
9.559226748506166
 40
10.19613435930491
 40
10.83451785496738
 40
11.47287689967787
 40
12.11234487359935
 40
12.75189588944773
 40
13.39354300517758
 40
14.03487957354474
 40
14.3561520577013
 40
14.67732107709982
 40
14.99840882470106
 40
15.31959604119161
 40
15.96011121024638
 40
16.60099592087031
 40
17.23809108076953
 40
17.87482555200799
 40
18.19205670334637
 40
18.5091719910227
 40
18.82571084628822
 40
19.142415818254
 40
19.77338974992696
 40
20.40398930739756
 40
20.40398930739756
 40
20.40398930739756
 40
20.40398930739756
 10
69.1163415658
 20
325.4098132836
 30
0.0
 10
69.12234720966036
 20
325.6220930932839
 30
0.0
 10
69.13436218146924
 20
326.0467829330831
 30
0.0
 10
69.21562752672801
 20
326.572925694158
 30
0.0
 10
69.30834712329654
 20
326.9879000702679
 30
0.0
 10
69.39364008741394
 20
327.2957240459691
 30
0.0
 10
69.49387870084212
 20
327.5990167227646
 30
0.0
 10
69.64736424999745
 20
327.9964540853209
 30
0.0
 10
69.87583619680322
 20
328.4785536622004
 30
0.0
 10
70.20545115738685
 20
329.0273695350207
 30
0.0
 10
70.58767837445299
 20
329.5409050743721
 30
0.0
 10
70.94653307155218
 20
329.9354078364639
 30
0.0
 10
71.25548642510975
 20
330.2282811345078
 30
0.0
 10
71.49738153408367
 20
330.4360029556215
 30
0.0
 10
71.7490247875692
 20
330.6315123527543
 30
0.0
 10
72.09631889472602
 20
330.8750075554289
 30
0.0
 10
72.5520592294865
 20
331.1468896254735
 30
0.0
 10
73.12753865417616
 20
331.4182187379892
 30
0.0
 10
73.7266494193389
 20
331.632002368803
 30
0.0
 10
74.34409982180173
 20
331.7866921001751
 30
0.0
 10
74.97437038350118
 20
331.8804990838266
 30
0.0
 10
75.61196431823156
 20
331.9126258086323
 30
0.0
 10
76.25014296246427
 20
331.882196235683
 30
0.0
 10
76.88315538365822
 20
331.7895249805188
 30
0.0
 10
77.50438906809738
 20
331.6350330192905
 30
0.0
 10
78.10852482007813
 20
331.4199958867497
 30
0.0
 10
78.68900389365808
 20
331.1460725210196
 30
0.0
 10
79.14863291788382
 20
330.8709056429601
 30
0.0
 10
79.49853190654726
 20
330.6242959441026
 30
0.0
 10
79.75166353569645
 20
330.4263917517316
 30
0.0
 10
79.99466217505062
 20
330.2162132223298
 30
0.0
 10
80.30390651855537
 20
329.9206938821748
 30
0.0
 10
80.66222670935002
 20
329.5232228994113
 30
0.0
 10
81.04217712767866
 20
329.0075561378571
 30
0.0
 10
81.3686501572519
 20
328.4579599813753
 30
0.0
 10
81.5940212972333
 20
327.9768544396649
 30
0.0
 10
81.74511228042411
 20
327.5808642520525
 30
0.0
 10
81.84352519800095
 20
327.2794379012715
 30
0.0
 10
81.92719197618229
 20
326.9737425333541
 30
0.0
 10
82.01801133361657
 20
326.5621905156371
 30
0.0
 10
82.0975263092221
 20
326.0407652991092
 30
0.0
 10
82.10929859388958
 20
325.6200890099545
 30
0.0
 10
82.1151829895
 20
325.4098132836
 30
0.0
 11
69.1163415658
 21
325.4098132836
 31
0.0
 11
69.14759023678423
 21
326.0456481179218
 31
0.0
 11
69.24103143916902
 21
326.6757501069973
 31
0.0
 11
69.31097194618454
 21
326.9873233649154
 31
0.0
 11
69.39611328513652
 21
327.2949117426829
 31
0.0
 11
69.49633782326433
 21
327.5980910873608
 31
0.0
 11
69.61141771302066
 21
327.8960760738833
 31
0.0
 11
69.88501360729664
 21
328.4734833537466
 31
0.0
 11
70.21423312099644
 21
329.0215056458037
 31
0.0
 11
70.59585737632214
 21
329.5343511051108
 31
0.0
 11
71.02579201241929
 21
330.0069288562872
 31
0.0
 11
71.25726427347459
 21
330.2263659246736
 31
0.0
 11
71.49916667450103
 21
330.4340989859341
 31
0.0
 11
71.75054048165552
 21
330.6293961441501
 31
0.0
 11
72.01126975994744
 21
330.8121904497687
 31
0.0
 11
72.55680340415725
 21
331.1377245132284
 31
0.0
 11
73.13171322427597
 21
331.4087241808503
 31
0.0
 11
73.72965941202285
 21
331.6221470405665
 31
0.0
 11
74.34545194424632
 21
331.7763889647799
 31
0.0
 11
74.97538422622398
 21
331.8701968997685
 31
0.0
 11
75.61148734796164
 21
331.9021988248507
 31
0.0
 11
76.24914830698037
 21
331.8718345550992
 31
0.0
 11
76.88076583989093
 21
331.7793058455887
 31
0.0
 11
77.50133871201581
 21
331.6250054889659
 31
0.0
 11
78.10383951916963
 21
331.4104867735779
 31
0.0
 11
78.68414671555077
 21
331.1367084344919
 31
0.0
 11
79.2343717035988
 21
330.8072163155384
 31
0.0
 11
79.49697900774626
 21
330.6221395398896
 31
0.0
 11
79.7499994651381
 21
330.4243260237624
 31
0.0
 11
79.99284776650242
 21
330.2142735441672
 31
0.0
 11
80.22505020190945
 21
329.9923653265906
 31
0.0
 11
80.65396625964118
 21
329.5166651087968
 31
0.0
 11
81.03407691829665
 21
329.0006717953827
 31
0.0
 11
81.35951606398685
 21
328.4529678559962
 31
0.0
 11
81.6295969221117
 21
327.8763508974025
 31
0.0
 11
81.74268736731874
 21
327.5799623777491
 31
0.0
 11
81.84113147068257
 21
327.2785144316773
 31
0.0
 11
81.92461427606767
 21
326.973182697169
 31
0.0
 11
81.9931636995035
 21
326.6639853236121
 31
0.0
 11
82.08459077738777
 21
326.0396703455118
 31
0.0
 11
82.1151829895
 21
325.4098132836
 31
0.0
  0
SPLINE
  5
100
330
1F
100
AcDbEntity
  8
BEZUGSACHSEN
  6
Continuous
 62
     7
100
AcDbSpline
210
0.0
220
0.0
230
1.0
 70
     8
 71
     3
 72
    47
 73
    43
 74
    41
 42
0.0000000001
 43
0.0000000001
 44
0.00000001
 40
0.0
 40
0.0
 40
0.0
 40
0.0
 40
0.630239321446331
 40
1.260854867307795
 40
1.57747608840273
 40
1.893930800244092
 40
2.210999113893905
 40
2.528183472228301
 40
3.164887038238712
 40
3.801951183351985
 40
4.442851001567544
 40
5.083381259745295
 40
5.404527292269193
 40
5.725573838719119
 40
6.046670710005576
 40
6.367871027144132
 40
7.009090242539989
 40
7.650619763935283
 40
8.29033034645579
 40
8.92995876443847
 40
9.568647011323204
 40
10.20735923012678
 40
10.84445705814276
 40
11.48152626492365
 40
12.11643462217891
 40
12.75141965574539
 40
13.38691908732882
 40
14.02211738525135
 40
14.34050449135562
 40
14.65879153784019
 40
14.97761586861636
 40
15.29653774940124
 40
15.93537694099392
 40
16.5745869406695
 40
17.21386274990833
 40
17.85277859072753
 40
18.17219860081214
 40
18.49150024075072
 40
18.81067156633782
 40
19.13001452419241
 40
19.76719627022686
 40
20.40398968281562
 40
20.40398968281562
 40
20.40398968281562
 40
20.40398968281562
 10
82.1151707979
 20
325.4098133217
 30
0.0
 10
82.10930159615579
 20
325.1996572998145
 30
0.0
 10
82.0975596890189
 20
324.7792198023882
 30
0.0
 10
82.01811294643505
 20
324.258056360136
 30
0.0
 10
81.92738144133313
 20
323.8466648927088
 30
0.0
 10
81.84377605901382
 20
323.5410270524072
 30
0.0
 10
81.74542411763846
 20
323.2396432062123
 30
0.0
 10
81.59440530679169
 20
322.8436700266254
 30
0.0
 10
81.36912271921904
 20
322.3625632179551
 30
0.0
 10
81.04274468449093
 20
321.8129289929686
 30
0.0
 10
80.66287762243525
 20
321.2972011303302
 30
0.0
 10
80.30462318313376
 20
320.8996757281378
 30
0.0
 10
79.99544244545692
 20
320.6041223731986
 30
0.0
 10
79.7525174894248
 20
320.3939374647535
 30
0.0
 10
79.49946858610133
 20
320.196028000413
 30
0.0
 10
79.14968607764456
 20
319.9494046489166
 30
0.0
 10
78.69020083989352
 20
319.6741980396224
 30
0.0
 10
78.10980513293258
 20
319.4001579329196
 30
0.0
 10
77.50565082509785
 20
319.1849694555986
 30
0.0
 10
76.88423567769063
 20
319.0303076165957
 30
0.0
 10
76.25096646625005
 20
318.9374972435772
 30
0.0
 10
75.61250700181142
 20
318.9069864937569
 30
0.0
 10
74.97467398825714
 20
318.9390882361006
 30
0.0
 10
74.34424400126133
 20
319.03290129844
 30
0.0
 10
73.7266703317635
 20
319.1876151147173
 30
0.0
 10
73.12752692033303
 20
319.4014116867899
 30
0.0
 10
72.55206969887557
 20
319.672733055242
 30
0.0
 10
72.09638430593915
 20
319.9445779388903
 30
0.0
 10
71.7491284082182
 20
320.1880384914901
 30
0.0
 10
71.49750882692696
 20
320.3835210178146
 30
0.0
 10
71.25563377663948
 20
320.5912140764995
 30
0.0
 10
70.94669749292144
 20
320.884051624623
 30
0.0
 10
70.58785473601128
 20
321.2785092735753
 30
0.0
 10
70.20562783076994
 20
321.791993939547
 30
0.0
 10
69.87600338550627
 20
322.3407617182626
 30
0.0
 10
69.64751593960275
 20
322.8228251347589
 30
0.0
 10
69.4940144396824
 20
323.2202346939409
 30
0.0
 10
69.39375763678687
 20
323.5235170572347
 30
0.0
 10
69.30844114387142
 20
323.831340928937
 30
0.0
 10
69.21567868850144
 20
324.2463817960435
 30
0.0
 10
69.13438632155176
 20
324.7726545951329
 30
0.0
 10
69.1223465219923
 20
325.1974702448506
 30
0.0
 10
69.1163284572
 20
325.4098133235
 30
0.0
 11
82.1151707979
 21
325.4098133217
 31
0.0
 11
82.08463121917463
 21
324.7803143650461
 31
0.0
 11
81.99329994361878
 21
324.1563475672215
 31
0.0
 11
81.92480520490358
 21
323.8472238566848
 31
0.0
 11
81.84138638004123
 21
323.5419618637915
 31
0.0
 11
81.74299963619201
 21
323.2405446045718
 31
0.0
 11
81.62996900509368
 21
322.944183349335
 31
0.0
 11
81.35998886861297
 21
322.3675533493557
 31
0.0
 11
81.03465224678139
 21
321.8198245775314
 31
0.0
 11
80.65461575196787
 21
321.303757876805
 31
0.0
 11
80.22576525427543
 21
320.827978240555
 31
0.0
 11
79.99362811989954
 21
320.606061307786
 31
0.0
 11
79.75084562656235
 21
320.3959957325092
 31
0.0
 11
79.49791601826402
 21
320.1981831596125
 31
0.0
 11
79.23540162242969
 21
320.0130998386199
 31
0.0
 11
78.68534344083088
 21
319.6835576121161
 31
0.0
 11
78.10520260917988
 21
319.4097022811967
 31
0.0
 11
77.50259729888833
 21
319.1950013976467
 31
0.0
 11
76.88189802856704
 21
319.0405445139748
 31
0.0
 11
76.24996921464465
 21
318.9478695397728
 31
0.0
 11
75.61198308746347
 21
318.9174228655152
 31
0.0
 11
74.97568809933861
 21
318.9493967697163
 31
0.0
 11
74.34556482523094
 21
319.0432148578244
 31
0.0
 11
73.72968091698948
 21
319.1974731920621
 31
0.0
 11
73.1316484471705
 21
319.410928475191
 31
0.0
 11
72.55681269862795
 21
319.6818959819892
 31
0.0
 11
72.01134601111566
 21
320.0073847997664
 31
0.0
 11
71.75064371836585
 21
320.1901542279771
 31
0.0
 11
71.49929446657217
 21
320.3854237790664
 31
0.0
 11
71.25741116820808
 21
320.5931289159008
 31
0.0
 11
71.02595533688081
 21
320.8125357621658
 31
0.0
 11
70.59603230597138
 21
321.2850626928358
 31
0.0
 11
70.21441116650941
 21
321.7978538097645
 31
0.0
 11
69.88517969233453
 21
322.3458320909862
 31
0.0
 11
69.61156538521965
 21
322.9231956355504
 31
0.0
 11
69.49647313278834
 21
323.2211602580691
 31
0.0
 11
69.39623344438697
 21
323.5243195266668
 31
0.0
 11
69.31106636417927
 21
323.8319181344756
 31
0.0
 11
69.24110333669739
 21
324.143502953613
 31
0.0
 11
69.14761443970441
 21
324.7737889233272
 31
0.0
 11
69.1163284572
 21
325.4098133235
 31
0.0
  0
SPLINE
  5
101
330
1F
100
AcDbEntity
  8
BEZUGSACHSEN
  6
Continuous
 62
     7
100
AcDbSpline
210
0.0
220
0.0
230
1.0
 70
     8
 71
     3
 72
    27
 73
    23
 74
    21
 42
0.0000000001
 43
0.0000000001
 44
0.00000001
 40
0.0
 40
0.0
 40
0.0
 40
0.0
 40
0.1219765139750138
 40
0.2439857715266127
 40
0.3566831398722522
 40
0.4694418149729721
 40
0.5721317672923798
 40
0.6745445881113097
 40
0.7225206521179076
 40
0.7704888797665765
 40
0.8171412936009118
 40
0.863789873428649
 40
0.9102318000995386
 40
0.9566751324435071
 40
1.004175175773097
 40
1.05168310014777
 40
1.153672388741522
 40
1.256049376686765
 40
1.370745138107965
 40
1.485385401888892
 40
1.611534903924595
 40
1.737631875969463
 40
1.737631875969463
 40
1.737631875969463
 40
1.737631875969463
 10
41.7615998357
 20
310.1674773075
 30
0.0
 10
41.72634481808786
 20
310.1471977822346
 30
0.0
 10
41.65582531894851
 20
310.1066332878346
 30
0.0
 10
41.54817291574291
 20
310.055837426955
 30
0.0
 10
41.44001489987997
 20
310.0140857910783
 30
0.0
 10
41.33443567893111
 20
309.984671205933
 30
0.0
 10
41.22960413379952
 20
309.9677566185462
 30
0.0
 10
41.14487646395496
 20
309.9658913953187
 30
0.0
 10
41.07905252755179
 20
309.9728467033381
 30
0.0
 10
41.03234532433756
 20
309.9820438304916
 30
0.0
 10
40.98716470703145
 20
309.9955772754795
 30
0.0
 10
40.94402509637705
 20
310.0133705342997
 30
0.0
 10
40.90307061980459
 20
310.0355988920383
 30
0.0
 10
40.86442319334148
 20
310.0621339237626
 30
0.0
 10
40.82851711470435
 20
310.0928292012814
 30
0.0
 10
40.78307779315644
 20
310.1403666743693
 30
0.0
 10
40.73453465306957
 20
310.2095360414553
 30
0.0
 10
40.68830894410731
 20
310.3056940961703
 30
0.0
 10
40.65434307032497
 20
310.4112695291664
 30
0.0
 10
40.63138764614729
 20
310.5276872200752
 30
0.0
 10
40.61794308779756
 20
310.6494345287309
 30
0.0
 10
40.61648570149961
 20
310.733537892248
 30
0.0
 10
40.6157571601
 20
310.7755808168
 30
0.0
 11
41.7615998357
 21
310.1674773075
 31
0.0
 11
41.6550552116127
 21
310.1080928563399
 31
0.0
 11
41.54476232241266
 21
310.0559225820431
 31
0.0
 11
41.43944431457397
 21
310.0158125576486
 31
0.0
 11
41.33072058606085
 21
309.9859182493497
 31
0.0
 11
41.22925643395235
 21
309.9700988895565
 31
0.0
 11
41.12685689336976
 21
309.9684496604744
 31
0.0
 11
41.07915303715721
 21
309.9735530730599
 31
0.0
 11
41.03210226689576
 21
309.9828898755939
 31
0.0
 11
40.98742269946234
 21
309.9963131378849
 31
0.0
 11
40.94431656286642
 21
310.0141443180959
 31
0.0
 11
40.90349397006955
 21
310.0362885830475
 31
0.0
 11
40.86520671352341
 21
310.0625767763171
 31
0.0
 11
40.82906961651285
 21
310.0934047560752
 31
0.0
 11
40.79621711614097
 21
310.1277226245653
 31
0.0
 11
40.73704472188714
 21
310.2107915281703
 31
0.0
 11
40.69214499828608
 21
310.3027973023439
 31
0.0
 11
40.65650683871858
 21
310.4118158295337
 31
0.0
 11
40.63365527535235
 21
310.5241554758367
 31
0.0
 11
40.61988851902981
 21
310.6495515415015
 31
0.0
 11
40.6157571601
 21
310.7755808168
 31
0.0
  0
SPLINE
  5
102
330
1F
100
AcDbEntity
  8
BEZUGSACHSEN
  6
Continuous
 62
     7
100
AcDbSpline
210
0.0
220
0.0
230
1.0
 70
     8
 71
     3
 72
    27
 73
    23
 74
    21
 42
0.0000000001
 43
0.0000000001
 44
0.00000001
 40
0.0
 40
0.0
 40
0.0
 40
0.0
 40
0.1260969825524776
 40
0.2522464959194699
 40
0.3668867952475649
 40
0.4815825893734093
 40
0.583959600634677
 40
0.6859489160817757
 40
0.733456841003942
 40
0.7809568848485177
 40
0.8274002263972337
 40
0.8738421606731389
 40
0.9204907318546238
 40
0.9671431398889065
 40
1.015111401785799
 40
1.063087497106549
 40
1.165500418707486
 40
1.268190478907766
 40
1.380949153832637
 40
1.493646517711148
 40
1.615655563695246
 40
1.737631867634637
 40
1.737631867634637
 40
1.737631867634637
 40
1.737631867634637
 10
40.6157571601
 20
340.0440457892
 30
0.0
 10
40.61648570157628
 20
340.086088717261
 30
0.0
 10
40.61794308803236
 20
340.1701920880706
 30
0.0
 10
40.6313876499807
 20
340.2919394156321
 30
0.0
 10
40.65434308326459
 20
340.4083571320032
 30
0.0
 10
40.68830898359799
 20
340.5139325897791
 30
0.0
 10
40.73453474245638
 20
340.6100906520184
 30
0.0
 10
40.78307791101108
 20
340.6792600176772
 30
0.0
 10
40.82851723656847
 20
340.7267974992943
 30
0.0
 10
40.86442331465956
 20
340.7574927827763
 30
0.0
 10
40.90307074575227
 20
340.7840278184888
 30
0.0
 10
40.94402523295783
 20
340.8062561643837
 30
0.0
 10
40.98716485913337
 20
340.8240493812613
 30
0.0
 10
41.03234549374678
 20
340.8375827883223
 30
0.0
 10
41.07905271673641
 20
340.8467799136561
 30
0.0
 10
41.14487670793986
 20
340.8537352340368
 30
0.0
 10
41.22960445993687
 20
340.851869977403
 30
0.0
 10
41.33443606342609
 20
340.8349553164618
 30
0.0
 10
41.44001530577211
 20
340.8055406836025
 30
0.0
 10
41.54817324387004
 20
340.7637890461356
 30
0.0
 10
41.65582550514689
 20
340.7129932189439
 30
0.0
 10
41.72634488000628
 20
340.6724287907096
 30
0.0
 10
41.7615998357
 20
340.6521492984
 30
0.0
 11
40.6157571601
 21
340.0440457892
 31
0.0
 11
40.61988851966465
 21
340.170075074991
 31
0.0
 11
40.63365527878566
 21
340.295471151748
 31
0.0
 11
40.6565068548678
 21
340.4078108317395
 31
0.0
 11
40.69214504423866
 21
340.5168293835943
 31
0.0
 11
40.7370448090388
 21
340.6088351636067
 31
0.0
 11
40.79621723799294
 21
340.6919040754632
 31
0.0
 11
40.82906973815447
 21
340.7262219449127
 31
0.0
 11
40.86520683308129
 21
340.7570499279068
 31
0.0
 11
40.90349409794273
 21
340.7833381253277
 31
0.0
 11
40.94431670587998
 21
340.8054823783178
 31
0.0
 11
40.98742284949804
 21
340.8233135189334
 31
0.0
 11
41.03210242154238
 21
340.8367367457188
 31
0.0
 11
41.07915322729752
 21
340.8460735453418
 31
0.0
 11
41.12685711457159
 21
340.851176961959
 31
0.0
 11
41.22925675542932
 21
340.849527700595
 31
0.0
 11
41.33072100573003
 21
340.8337082703002
 31
0.0
 11
41.43944472216722
 21
340.8038139187451
 31
0.0
 11
41.54476271446173
 21
340.7637038660872
 31
0.0
 11
41.65505540037962
 21
340.7115336568202
 31
0.0
 11
41.7615998357
 21
340.6521492984
 31
0.0
  0
SPLINE
  5
103
330
1F
100
AcDbEntity
  8
0
  6
Continuous
 62
     7
100
AcDbSpline
210
0.0
220
0.0
230
1.0
 70
     8
 71
     3
 72
    19
 73
    15
 74
    13
 42
0.0000000001
 43
0.0000000001
 44
0.00000001
 40
0.0
 40
0.0
 40
0.0
 40
0.0
 40
0.11624602359783
 40
0.2327881718534043
 40
0.3491890046375468
 40
0.4655468550877767
 40
0.5819071370171732
 40
0.6982738489559587
 40
0.8146206073109931
 40
0.9309998278486629
 40
1.1632763234631
 40
1.396138921790245
 40
1.629013178111159
 40
1.861351539794946
 40
1.861351539794946
 40
1.861351539794946
 40
1.861351539794946
 10
109.7407571601
 20
291.8874327193
 30
0.0
 10
109.7019730892505
 20
291.8855917724043
 30
0.0
 10
109.6243061491639
 20
291.881905188992
 30
0.0
 10
109.5106960640882
 20
291.8534997039966
 30
0.0
 10
109.40250837614
 20
291.8096457897748
 30
0.0
 10
109.3015325101862
 20
291.7510491015398
 30
0.0
 10
109.2087640534493
 20
291.680364240219
 30
0.0
 10
109.1246766744362
 20
291.5996066351415
 30
0.0
 10
109.0493730310472
 20
291.5106389963987
 30
0.0
 10
108.9607217868799
 20
291.3832795486564
 30
0.0
 10
108.8707250411387
 20
291.2104941705896
 30
0.0
 10
108.7958315219873
 20
290.9895691804057
 30
0.0
 10
108.7492945967125
 20
290.7605492607963
 30
0.0
 10
108.7436007860045
 20
290.6053698679474
 30
0.0
 10
108.7407571601
 20
290.5278695498
 30
0.0
 11
109.7407571601
 21
291.8874327193
 31
0.0
 11
109.6248858085235
 21
291.878107061889
 31
0.0
 11
109.5115612838032
 21
291.8509110251017
 31
0.0
 11
109.4036881512034
 21
291.8071784155757
 31
0.0
 11
109.3028994117089
 21
291.7490339459118
 31
0.0
 11
109.2102121066426
 21
291.6786863895204
 31
0.0
 11
109.1261367409858
 21
291.5982342637739
 31
0.0
 11
109.0508379830396
 21
291.5095400405602
 31
0.0
 11
108.9842112537222
 21
291.4141199068702
 31
0.0
 11
108.8763214676168
 21
291.2084206981477
 31
0.0
 11
108.8005633307869
 21
290.9882260242709
 31
0.0
 11
108.7556033170172
 21
290.7597331000504
 31
0.0
 11
108.7407571601
 21
290.5278695498
 31
0.0
  0
SPLINE
  5
104
330
1F
100
AcDbEntity
  8
BEZUGSACHSEN
  6
Continuous
 62
     7
100
AcDbSpline
210
0.0
220
0.0
230
1.0
 70
     8
 71
     3
 72
    15
 73
    11
 74
     9
 42
0.0000000001
 43
0.0000000001
 44
0.00000001
 40
0.0
 40
0.0
 40
0.0
 40
0.0
 40
0.1110371613193898
 40
0.222252233698256
 40
0.3333980191345184
 40
0.4445069474230587
 40
0.5556201064838036
 40
0.6667525641981937
 40
0.7778876033107951
 40
0.888982091476992
 40
0.888982091476992
 40
0.888982091476992
 40
0.888982091476992
 10
42.5156826753
 20
309.7332809167
 30
0.0
 10
42.47904094844123
 20
309.7388130695497
 30
0.0
 10
42.40569878493348
 20
309.7498862392289
 30
0.0
 10
42.29918223493297
 20
309.7829048027291
 30
0.0
 10
42.19676932718828
 20
309.8264950901839
 30
0.0
 10
42.09931936157082
 20
309.8802745980062
 30
0.0
 10
42.00701456583049
 20
309.942369733361
 30
0.0
 10
41.92001793769565
 20
310.0116564070018
 30
0.0
 10
41.83776518228105
 20
310.0865383586305
 30
0.0
 10
41.78698519589712
 20
310.1405009401196
 30
0.0
 10
41.7615998357
 20
310.1674773075
 30
0.0
 11
42.5156826753
 21
309.7332809167
 31
0.0
 11
42.40634039025124
 21
309.752607475995
 31
0.0
 11
42.29984843666315
 21
309.7846739093051
 31
0.0
 11
42.19758025606534
 21
309.8282009682163
 31
0.0
 11
42.10017738962644
 21
309.8816600699195
 31
0.0
 11
42.00790562282419
 21
309.9435636656765
 31
0.0
 11
41.92080851940604
 21
310.0125891517944
 31
0.0
 11
41.83876861495178
 21
310.0875588189651
 31
0.0
 11
41.7615998357
 21
310.1674773075
 31
0.0
  0
SPLINE
  5
105
330
1F
100
AcDbEntity
  8
BEZUGSACHSEN
  6
Continuous
 62
     7
100
AcDbSpline
210
0.0
220
0.0
230
1.0
 70
     8
 71
     3
 72
    11
 73
     7
 74
     5
 42
0.0000000001
 43
0.0000000001
 44
0.00000001
 40
0.0
 40
0.0
 40
0.0
 40
0.0
 40
0.546290743102647
 40
1.093000863635431
 40
1.646070107182718
 40
2.198197048697392
 40
2.198197048697392
 40
2.198197048697392
 40
2.198197048697392
 10
50.169603107
 20
340.419813303
 30
0.0
 10
50.23267390883117
 20
340.2488816737629
 30
0.0
 10
50.35886393079664
 20
339.9068871941976
 30
0.0
 10
50.49850124383413
 20
339.3756130649779
 30
0.0
 10
50.59598960790485
 20
338.8321886600326
 30
0.0
 10
50.60917172243868
 20
338.4636040194815
 30
0.0
 10
50.6157571601
 20
338.2794688288
 30
0.0
 11
50.169603107
 21
340.419813303
 31
0.0
 11
50.35045443954479
 21
339.9043267643626
 31
0.0
 11
50.49094592425224
 21
339.3759764084266
 31
0.0
 11
50.58301257752967
 21
338.830623935697
 31
0.0
 11
50.6157571601
 21
338.2794688288
 31
0.0
  0
SPLINE
  5
106
330
1F
100
AcDbEntity
  8
0
  6
Continuous
 62
     7
100
AcDbSpline
210
0.0
220
0.0
230
1.0
 70
     8
 71
     3
 72
    19
 73
    15
 74
    13
 42
0.0000000001
 43
0.0000000001
 44
0.00000001
 40
0.0
 40
0.0
 40
0.0
 40
0.0
 40
0.2323383481416614
 40
0.4652125957589276
 40
0.6980761133201772
 40
0.9303535187532059
 40
1.046733461818854
 40
1.163080940899832
 40
1.279447997489411
 40
1.39580862960627
 40
1.512165904568228
 40
1.628566140383473
 40
1.745106920562004
 40
1.861351602822943
 40
1.861351602822943
 40
1.861351602822943
 40
1.861351602822943
 10
112.4907571601
 20
290.5278695498
 30
0.0
 10
112.4879135344941
 20
290.6053698634674
 30
0.0
 10
112.4822197243244
 20
290.7605492489703
 30
0.0
 10
112.4356827484761
 20
290.9895694630025
 30
0.0
 10
112.3607890026693
 20
291.2104950248832
 30
0.0
 10
112.2707916984054
 20
291.3832810890751
 30
0.0
 10
112.1821397606307
 20
291.5106410148111
 30
0.0
 10
112.1068354962861
 20
291.599608913746
 30
0.0
 10
112.0227475224475
 20
291.6803665837076
 30
0.0
 10
111.9299787886059
 20
291.7510511500823
 30
0.0
 10
111.8290029763775
 20
291.8096473742628
 30
0.0
 10
111.7208159268875
 20
291.853500625425
 30
0.0
 10
111.6072068175478
 20
291.881905384873
 30
0.0
 10
111.5295407827611
 20
291.8855918375195
 30
0.0
 10
111.4907571601
 20
291.8874327193
 30
0.0
 11
112.4907571601
 21
290.5278695498
 31
0.0
 11
112.4759110059797
 21
290.7597330866596
 31
0.0
 11
112.4309510043736
 21
290.988226004403
 31
0.0
 11
112.3551925256562
 21
291.2084215327714
 31
0.0
 11
112.2473021144736
 21
291.4141214410104
 31
0.0
 11
112.1806747906501
 21
291.5095420408203
 31
0.0
 11
112.1053753340934
 21
291.5982366163634
 31
0.0
 11
112.0212994677427
 21
291.6786887173719
 31
0.0
 11
111.9286116417561
 21
291.7490361666542
 31
0.0
 11
111.8278232068703
 21
291.8071800126729
 31
0.0
 11
111.71995047811
 21
291.8509120294071
 31
0.0
 11
111.6066271895706
 21
291.878107354727
 31
0.0
 11
111.4907571601
 21
291.8874327193
 31
0.0
  0
SPLINE
  5
107
330
1F
100
AcDbEntity
  8
BEZUGSACHSEN
  6
Continuous
 62
     7
100
AcDbSpline
210
0.0
220
0.0
230
1.0
 70
     8
 71
     3
 72
    19
 73
    15
 74
    13
 42
0.0000000001
 43
0.0000000001
 44
0.00000001
 40
0.0
 40
0.0
 40
0.0
 40
0.0
 40
0.1462385987758662
 40
0.2927479274637649
 40
0.4364790705718414
 40
0.5801659235750026
 40
0.7203799972239806
 40
0.8606059382357552
 40
0.9980411883792104
 40
1.135484020429
 40
1.405415631090962
 40
1.675815514090899
 40
1.943997429526793
 40
2.211934834753596
 40
2.211934834753596
 40
2.211934834753596
 40
2.211934834753596
 10
48.6157571601
 20
341.7684608904
 30
0.0
 10
48.66447196543759
 20
341.7717689677465
 30
0.0
 10
48.76199176129694
 20
341.7783912466468
 30
0.0
 10
48.90732802159511
 20
341.762031933888
 30
0.0
 10
49.04798495869949
 20
341.7268601678195
 30
0.0
 10
49.18083709213775
 20
341.6740544811881
 30
0.0
 10
49.3052915552027
 20
341.6063826934409
 30
0.0
 10
49.42009411237942
 20
341.527082492035
 30
0.0
 10
49.52620405017056
 20
341.4379978524457
 30
0.0
 10
49.65530651535557
 20
341.3100503168717
 30
0.0
 10
49.79834636525703
 20
341.1342480279622
 30
0.0
 10
49.94325396695604
 20
340.9065625620776
 30
0.0
 10
50.06789071539885
 20
340.6678999426068
 30
0.0
 10
50.13570928656728
 20
340.5024837021738
 30
0.0
 10
50.169603107
 20
340.419813303
 30
0.0
 11
48.6157571601
 21
341.7684608904
 31
0.0
 11
48.7618910219169
 21
341.7739946235349
 31
0.0
 11
48.90760038274855
 21
341.7587052298709
 31
0.0
 11
49.04703046427431
 21
341.7238068937376
 31
0.0
 11
49.18066280118508
 21
341.6710024407272
 31
0.0
 11
49.30397659200405
 21
341.6042664276376
 31
0.0
 11
49.41950770334305
 21
341.5247939365139
 31
0.0
 11
49.52492025313163
 21
341.4366086637692
 31
0.0
 11
49.62270875682783
 21
341.3400273994022
 31
0.0
 11
49.79395715271768
 21
341.1313720344107
 31
0.0
 11
49.94029957325233
 21
340.9039957104928
 31
0.0
 11
50.06416719905909
 21
340.6661336684519
 31
0.0
 11
50.169603107
 21
340.419813303
 31
0.0
  0
SPLINE
  5
108
330
1F
100
AcDbEntity
  8
BEZUGSACHSEN
  6
Continuous
 62
     7
100
AcDbSpline
210
0.0
220
0.0
230
1.0
 70
     8
 71
     3
 72
    11
 73
     7
 74
     5
 42
0.0000000001
 43
0.0000000001
 44
0.00000001
 40
0.0
 40
0.0
 40
0.0
 40
0.0
 40
0.5521269407036968
 40
1.105196183339713
 40
1.651906304698725
 40
2.198197048720094
 40
2.198197048720094
 40
2.198197048720094
 40
2.198197048720094
 10
50.6157571601
 20
312.5401577772
 30
0.0
 10
50.60917172247225
 20
312.3560225867891
 30
0.0
 10
50.59598960800683
 20
311.9874379468125
 30
0.0
 10
50.49850124420951
 20
311.4440135421268
 30
0.0
 10
50.35886393117708
 20
310.91273941261
 30
0.0
 10
50.23267390896153
 20
310.5707449325158
 30
0.0
 10
50.169603107
 20
310.399813303
 30
0.0
 11
50.6157571601
 21
312.5401577772
 31
0.0
 11
50.5830125776732
 21
311.9890026711069
 31
0.0
 11
50.49094592472982
 21
311.4436501992451
 31
0.0
 11
50.3504544398964
 21
310.9152998424877
 31
0.0
 11
50.169603107
 21
310.399813303
 31
0.0
  0
SPLINE
  5
109
330
1F
100
AcDbEntity
  8
BEZUGSACHSEN
  6
Continuous
 62
     7
100
AcDbSpline
210
0.0
220
0.0
230
1.0
 70
     8
 71
     3
 72
    19
 73
    15
 74
    13
 42
0.0000000001
 43
0.0000000001
 44
0.00000001
 40
0.0
 40
0.0
 40
0.0
 40
0.0
 40
0.2679411643353891
 40
0.5361267936930487
 40
0.806530477371639
 40
1.076465993222683
 40
1.21391337612063
 40
1.35135310483731
 40
1.49158636702438
 40
1.631807897530184
 40
1.775491562752869
 40
1.919219204734162
 40
2.065713007363131
 40
2.211936409287772
 40
2.211936409287772
 40
2.211936409287772
 40
2.211936409287772
 10
50.169603107
 20
310.399813303
 30
0.0
 10
50.13570886320091
 20
310.3171417232961
 30
0.0
 10
50.06788945106345
 20
310.1517231357262
 30
0.0
 10
49.94325094477439
 20
309.9130571620581
 30
0.0
 10
49.79834014543795
 20
309.685369166055
 30
0.0
 10
49.65529651391581
 20
309.5095646747471
 30
0.0
 10
49.5261901270121
 20
309.381614955637
 30
0.0
 10
49.42007502794819
 20
309.2925279348337
 30
0.0
 10
49.30526560030755
 20
309.2132262944939
 30
0.0
 10
49.18080598807773
 20
309.1455558270298
 30
0.0
 10
49.04795243293955
 20
309.0927531403336
 30
0.0
 10
48.90730163406158
 20
309.0575868763453
 30
0.0
 10
48.76197625096867
 20
309.0412346744616
 30
0.0
 10
48.66446683192711
 20
309.0478574078279
 30
0.0
 10
48.6157571601
 20
309.0511657156
 30
0.0
 11
50.169603107
 21
310.399813303
 31
0.0
 11
50.06416584728107
 21
310.1534894271609
 31
0.0
 11
49.94029633170444
 21
309.9156241818964
 31
0.0
 11
49.79395084539116
 21
309.6882453113242
 31
0.0
 11
49.62269865426266
 21
309.479588009148
 31
0.0
 11
49.52490621558335
 21
309.383004252736
 31
0.0
 11
49.41948922632865
 21
309.2948173069549
 31
0.0
 11
49.30395058261523
 21
309.2153428479603
 31
0.0
 11
49.18062857272187
 21
309.1486063549954
 31
0.0
 11
49.04699788452201
 21
309.0958064040195
 31
0.0
 11
48.90757018331423
 21
309.0609129776269
 31
0.0
 11
48.76187574479605
 21
309.0456301508737
 31
0.0
 11
48.6157571601
 21
309.0511657156
 31
0.0
  0
SPLINE
  5
10A
330
1F
100
AcDbEntity
  8
BEZUGSACHSEN
  6
Continuous
 62
     7
100
AcDbSpline
210
0.0
220
0.0
230
1.0
 70
     8
 71
     3
 72
    15
 73
    11
 74
     9
 42
0.0000000001
 43
0.0000000001
 44
0.00000001
 40
0.0
 40
0.0
 40
0.0
 40
0.0
 40
0.1110944831359915
 40
0.2222295181505314
 40
0.3333620401944016
 40
0.4444752610127271
 40
0.5555842178005261
 40
0.6667300353929886
 40
0.7779450181856992
 40
0.8889820871372637
 40
0.8889820871372637
 40
0.8889820871372637
 40
0.8889820871372637
 10
41.7615998357
 20
340.6521492984
 30
0.0
 10
41.78698519524119
 20
340.67912566411
 30
0.0
 10
41.83776518052644
 20
340.7330882424843
 30
0.0
 10
41.92001794979955
 20
340.8079702058686
 30
0.0
 10
42.00701460175237
 20
340.8772569147691
 30
0.0
 10
42.09931944217732
 20
340.9393520778421
 30
0.0
 10
42.1967694641522
 20
340.9931315699737
 30
0.0
 10
42.29918237801998
 20
341.036721815584
 30
0.0
 10
42.40569887659294
 20
341.0697403714294
 30
0.0
 10
42.47904097930016
 20
341.0808135380509
 30
0.0
 10
42.5156826753
 20
341.0863456893
 30
0.0
 11
41.7615998357
 21
340.6521492984
 31
0.0
 11
41.83876861272689
 21
340.7320677820907
 31
0.0
 11
41.92080851297827
 21
340.8070374477858
 31
0.0
 11
42.00790566158935
 21
340.8760629804505
 31
0.0
 11
42.10017748316193
 21
340.9379666054195
 31
0.0
 11
42.19758039122718
 21
340.9914256905118
 31
0.0
 11
42.299848614616
 21
341.0349527309946
 31
0.0
 11
42.40634048274046
 21
341.0670191374185
 31
0.0
 11
42.5156826753
 21
341.0863456893
 31
0.0
  0
SPLINE
  5
10B
330
1F
100
AcDbEntity
  8
BEZUGSACHSEN
  6
Continuous
 62
     7
100
AcDbSpline
210
0.0
220
0.0
230
1.0
 70
     8
 71
     3
 72
    11
 73
     7
 74
     5
 42
0.0000000001
 43
0.0000000001
 44
0.00000001
 40
0.0
 40
0.0
 40
0.0
 40
0.0
 40
0.9140556660003477
 40
1.828030949185895
 40
2.279806974871075
 40
2.730944124762517
 40
2.730944124762517
 40
2.730944124762517
 40
2.730944124762517
 10
41.8827100869854
 20
310.399813303185
 30
0.0
 10
42.01536479394878
 20
310.6745299008516
 30
0.0
 10
42.28066254211038
 20
311.2239389373788
 30
0.0
 10
42.49601775542307
 20
311.9566498584837
 30
0.0
 10
42.59971196908538
 20
312.5545950645897
 30
0.0
 10
42.61041128660649
 20
312.8557182800164
 30
0.0
 10
42.6157571601
 20
313.0061733546
 30
0.0
 11
41.8827100869854
 21
310.399813303185
 31
0.0
 11
42.25751761676089
 21
311.2334901447555
 31
0.0
 11
42.51680897715877
 21
312.1099140197709
 31
0.0
 11
42.58952595065738
 21
312.5557994525327
 31
0.0
 11
42.6157571601
 21
313.0061733546
 31
0.0
  0
SPLINE
  5
10C
330
1F
100
AcDbEntity
  8
BEZUGSACHSEN
  6
Continuous
 62
     7
100
AcDbSpline
210
0.0
220
0.0
230
1.0
 70
     8
 71
     3
 72
    11
 73
     7
 74
     5
 42
0.0000000001
 43
0.0000000001
 44
0.00000001
 40
0.0
 40
0.0
 40
0.0
 40
0.0
 40
0.824919236672416
 40
1.650116891930981
 40
2.190492152293428
 40
2.730585915378207
 40
2.730585915378207
 40
2.730585915378207
 40
2.730585915378207
 10
42.6157571601
 20
337.8134532514
 30
0.0
 10
42.59802385576182
 20
338.0886435433768
 30
0.0
 10
42.56255126191587
 20
338.6391170068376
 30
0.0
 10
42.3541164452805
 20
339.3438505919906
 30
0.0
 10
42.12389001430081
 20
339.9360643170708
 30
0.0
 10
41.96308943149883
 20
340.258591650516
 30
0.0
 10
41.8827100869854
 20
340.419813302815
 30
0.0
 11
42.6157571601
 21
337.8134532514
 31
0.0
 11
42.53218170598429
 21
338.6341279070959
 31
0.0
 11
42.31422026387253
 21
339.4300198469953
 31
0.0
 11
42.11628518531333
 21
339.932839025913
 31
0.0
 11
41.8827100869854
 21
340.419813302815
 31
0.0
  0
DIMENSION
  5
117
330
1F
100
AcDbEntity
  8
1
100
AcDbDimension
  2
*D2
 10
262.55406957744
 20
341.409813303
 30
0.0
 11
258.80406957744
 21
325.724940254471
 31
0.0
 70
    32
  1
<>
 71
     5
 42
-1.0
 53
90.0
  3
ME10_DIM_10
100
AcDbAlignedDimension
 13
250.6157571601
 23
309.409813303
 33
0.0
 14
250.6157571601
 24
341.409813303
 34
0.0
 50
90.0
100
AcDbRotatedDimension
  0
DIMENSION
  5
122
330
1F
100
AcDbEntity
  8
1
100
AcDbDimension
  2
*D3
 10
271.036004278459
 20
361.409813303
 30
0.0
 11
267.286004278459
 21
326.330792733115
 31
0.0
 70
    32
  1
<>
 71
     5
 42
-1.0
 53
90.0
  3
ME10_DIM_11
100
AcDbAlignedDimension
 13
242.2015435977
 23
289.409813303
 33
0.0
 14
242.2015435977
 24
361.409813303
 34
0.0
 50
90.0
100
AcDbRotatedDimension
  0
DIMENSION
  5
12D
330
1F
100
AcDbEntity
  8
1
100
AcDbDimension
  2
*D4
 10
250.6157571601
 20
381.917757648721
 30
0.0
 11
185.004952310981
 21
385.667757648721
 31
0.0
 70
    32
  1
<>
 71
     5
 42
-1.0
 53
0.00013888888889
  3
ME10_DIM_12
100
AcDbAlignedDimension
 13
119.6157571601
 23
375.4097763819
 33
0.0
 14
250.6157571601
 24
352.9955997406
 34
0.0
100
AcDbRotatedDimension
  0
DIMENSION
  5
138
330
1F
100
AcDbEntity
  8
1
100
AcDbDimension
  2
*D5
 10
250.6157571601
 20
389.03652427279
 30
0.0
 11
171.070345302164
 21
392.78652427279
 31
0.0
 70
    32
  1
<>
 71
     5
 42
-1.0
 53
0.00013888888889
  3
ME10_DIM_13
100
AcDbAlignedDimension
 13
90.6157571601
 23
375.409813303
 33
0.0
 14
250.6157571601
 24
352.9955997406
 34
0.0
100
AcDbRotatedDimension
  0
DIMENSION
  5
143
330
1F
100
AcDbEntity
  8
1
100
AcDbDimension
  2
*D6
 10
250.6157571601
 20
395.700901537877
 30
0.0
 11
156.681348934364
 21
399.450901537877
 31
0.0
 70
    32
  1
<>
 71
     5
 42
-1.0
 53
0.00013888888889
  3
ME10_DIM_14
100
AcDbAlignedDimension
 13
40.6157571601
 23
359.0100048656
 33
0.0
 14
250.6157571601
 24
352.9955997406
 34
0.0
100
AcDbRotatedDimension
  0
INSERT
  5
14A
330
1F
100
AcDbEntity
  8
1
100
AcDbBlockReference
  2
*D7
 10
0.0
 20
0.0
 30
0.0
  0
ENDSEC
  0
SECTION
  2
OBJECTS
  0
DICTIONARY
  5
C
330
0
100
AcDbDictionary
281
     1
  3
ACAD_GROUP
350
D
  3
ACAD_LAYOUT
350
1A
  3
ACAD_MLEADERSTYLE
350
14D
  3
ACAD_MLINESTYLE
350
17
  3
ACAD_PLOTSETTINGS
350
19
  3
ACAD_PLOTSTYLENAME
350
E
  3
ACAD_SCALELIST
350
4B
  3
ACAD_VISUALSTYLE
350
2A
  3
AcDbVariableDictionary
350
14B
  0
DICTIONARY
  5
D
102
{ACAD_REACTORS
330
C
102
}
330
C
100
AcDbDictionary
281
     1
  0
DICTIONARY
  5
1A
102
{ACAD_REACTORS
330
C
102
}
330
C
100
AcDbDictionary
281
     1
  3
Layout1
350
1E
  3
Layout2
350
26
  3
Model
350
22
  0
DICTIONARY
  5
14D
102
{ACAD_REACTORS
330
C
102
}
330
C
100
AcDbDictionary
281
     1
  0
DICTIONARY
  5
17
102
{ACAD_REACTORS
330
C
102
}
330
C
100
AcDbDictionary
281
     1
  3
Standard
350
18
  0
DICTIONARY
  5
19
102
{ACAD_REACTORS
330
C
102
}
330
C
100
AcDbDictionary
281
     1
  0
ACDBDICTIONARYWDFLT
  5
E
102
{ACAD_REACTORS
330
C
102
}
330
C
100
AcDbDictionary
281
     1
  3
Normal
350
F
100
AcDbDictionaryWithDefault
340
F
  0
DICTIONARY
  5
4B
102
{ACAD_REACTORS
330
C
102
}
330
C
100
AcDbDictionary
281
     1
  3
A0
350
4C
  3
A1
350
4D
  3
A2
350
4E
  3
A3
350
4F
  3
A4
350
50
  3
A5
350
51
  3
A6
350
52
  3
A7
350
53
  3
A8
350
54
  3
A9
350
55
  3
B0
350
56
  3
B1
350
57
  3
B2
350
58
  3
B3
350
59
  3
B4
350
5A
  3
B5
350
5B
  3
B6
350
5C
  3
B7
350
5D
  3
B8
350
5E
  3
B9
350
5F
  3
C0
350
60
  3
C1
350
61
  3
C2
350
62
  3
C3
350
63
  3
C4
350
64
  3
C5
350
65
  3
C6
350
66
  3
C7
350
67
  3
C8
350
68
  3
C9
350
69
  3
D0
350
6A
  3
D1
350
6B
  3
D2
350
6C
  0
DICTIONARY
  5
2A
102
{ACAD_REACTORS
330
C
102
}
330
C
100
AcDbDictionary
281
     1
  3
2dWireframe
350
2F
  3
3D Hidden
350
31
  3
3dWireframe
350
30
  3
Basic
350
32
  3
Brighten
350
36
  3
ColorChange
350
3A
  3
Conceptual
350
34
  3
Dim
350
35
  3
Facepattern
350
39
  3
Flat
350
2B
  3
FlatWithEdges
350
2C
  3
Gouraud
350
2D
  3
GouraudWithEdges
350
2E
  3
Linepattern
350
38
  3
Realistic
350
33
  3
Thicken
350
37
  0
DICTIONARY
  5
14B
102
{ACAD_REACTORS
330
C
102
}
330
C
100
AcDbDictionary
281
     1
  3
CANNOSCALE
350
14E
  0
LAYOUT
  5
1E
102
{ACAD_REACTORS
330
1A
102
}
330
1A
100
AcDbPlotSettings
  1

  2
none_device
  4

  6

 40
0.0
 41
0.0
 42
0.0
 43
0.0
 44
0.0
 45
0.0
 46
0.0
 47
0.0
 48
0.0
 49
0.0
140
0.0
141
0.0
142
1.0
143
1.0
 70
   688
 72
     0
 73
     0
 74
     5
  7

 75
    16
147
1.0
148
0.0
149
0.0
100
AcDbLayout
  1
Layout1
 70
     1
 71
     1
 10
0.0
 20
0.0
 11
12.0
 21
9.0
 12
0.0
 22
0.0
 32
0.0
 14
1.00000000000000E+20
 24
1.00000000000000E+20
 34
1.00000000000000E+20
 15
-1.00000000000000E+20
 25
-1.00000000000000E+20
 35
-1.00000000000000E+20
146
0.0
 13
0.0
 23
0.0
 33
0.0
 16
1.0
 26
0.0
 36
0.0
 17
0.0
 27
1.0
 37
0.0
 76
     0
330
1B
  0
LAYOUT
  5
26
102
{ACAD_REACTORS
330
1A
102
}
330
1A
100
AcDbPlotSettings
  1

  2
none_device
  4

  6

 40
0.0
 41
0.0
 42
0.0
 43
0.0
 44
0.0
 45
0.0
 46
0.0
 47
0.0
 48
0.0
 49
0.0
140
0.0
141
0.0
142
1.0
143
1.0
 70
   688
 72
     0
 73
     0
 74
     5
  7

 75
    16
147
1.0
148
0.0
149
0.0
100
AcDbLayout
  1
Layout2
 70
     1
 71
     2
 10
0.0
 20
0.0
 11
0.0
 21
0.0
 12
0.0
 22
0.0
 32
0.0
 14
0.0
 24
0.0
 34
0.0
 15
0.0
 25
0.0
 35
0.0
146
0.0
 13
0.0
 23
0.0
 33
0.0
 16
1.0
 26
0.0
 36
0.0
 17
0.0
 27
1.0
 37
0.0
 76
     0
330
23
  0
LAYOUT
  5
22
102
{ACAD_REACTORS
330
1A
102
}
330
1A
100
AcDbPlotSettings
  1

  2
none_device
  4

  6

 40
0.0
 41
0.0
 42
0.0
 43
0.0
 44
0.0
 45
0.0
 46
0.0
 47
0.0
 48
0.0
 49
0.0
140
0.0
141
0.0
142
1.0
143
1.0
 70
  1712
 72
     0
 73
     0
 74
     0
  7

 75
     0
147
1.0
148
0.0
149
0.0
100
AcDbLayout
  1
Model
 70
     1
 71
     0
 10
0.0
 20
0.0
 11
12.0
 21
9.0
 12
0.0
 22
0.0
 32
0.0
 14
19.5418326499292
 24
275.409813303
 34
0.0
 15
273.036004278459
 25
401.200901537877
 35
0.0
146
0.0
 13
0.0
 23
0.0
 33
0.0
 16
1.0
 26
0.0
 36
0.0
 17
0.0
 27
1.0
 37
0.0
 76
     0
330
1F
331
29
  0
MLINESTYLE
  5
18
102
{ACAD_REACTORS
330
17
102
}
330
17
100
AcDbMlineStyle
  2
Standard
 70
     0
  3

 62
   256
 51
90.0
 52
90.0
 71
     2
 49
0.5
 62
   256
  6
BYLAYER
 49
-0.5
 62
   256
  6
BYLAYER
  0
ACDBPLACEHOLDER
  5
F
102
{ACAD_REACTORS
330
E
102
}
330
E
  0
SCALE
  5
4C
102
{ACAD_REACTORS
330
4B
102
}
330
4B
100
AcDbScale
 70
     0
300
1:1
140
1.0
141
1.0
290
     1
  0
SCALE
  5
4D
102
{ACAD_REACTORS
330
4B
102
}
330
4B
100
AcDbScale
 70
     0
300
1:2
140
1.0
141
2.0
290
     0
  0
SCALE
  5
4E
102
{ACAD_REACTORS
330
4B
102
}
330
4B
100
AcDbScale
 70
     0
300
1:4
140
1.0
141
4.0
290
     0
  0
SCALE
  5
4F
102
{ACAD_REACTORS
330
4B
102
}
330
4B
100
AcDbScale
 70
     0
300
1:5
140
1.0
141
5.0
290
     0
  0
SCALE
  5
50
102
{ACAD_REACTORS
330
4B
102
}
330
4B
100
AcDbScale
 70
     0
300
1:8
140
1.0
141
8.0
290
     0
  0
SCALE
  5
51
102
{ACAD_REACTORS
330
4B
102
}
330
4B
100
AcDbScale
 70
     0
300
1:10
140
1.0
141
10.0
290
     0
  0
SCALE
  5
52
102
{ACAD_REACTORS
330
4B
102
}
330
4B
100
AcDbScale
 70
     0
300
1:16
140
1.0
141
16.0
290
     0
  0
SCALE
  5
53
102
{ACAD_REACTORS
330
4B
102
}
330
4B
100
AcDbScale
 70
     0
300
1:20
140
1.0
141
20.0
290
     0
  0
SCALE
  5
54
102
{ACAD_REACTORS
330
4B
102
}
330
4B
100
AcDbScale
 70
     0
300
1:30
140
1.0
141
30.0
290
     0
  0
SCALE
  5
55
102
{ACAD_REACTORS
330
4B
102
}
330
4B
100
AcDbScale
 70
     0
300
1:40
140
1.0
141
40.0
290
     0
  0
SCALE
  5
56
102
{ACAD_REACTORS
330
4B
102
}
330
4B
100
AcDbScale
 70
     0
300
1:50
140
1.0
141
50.0
290
     0
  0
SCALE
  5
57
102
{ACAD_REACTORS
330
4B
102
}
330
4B
100
AcDbScale
 70
     0
300
1:100
140
1.0
141
100.0
290
     0
  0
SCALE
  5
58
102
{ACAD_REACTORS
330
4B
102
}
330
4B
100
AcDbScale
 70
     0
300
2:1
140
2.0
141
1.0
290
     0
  0
SCALE
  5
59
102
{ACAD_REACTORS
330
4B
102
}
330
4B
100
AcDbScale
 70
     0
300
4:1
140
4.0
141
1.0
290
     0
  0
SCALE
  5
5A
102
{ACAD_REACTORS
330
4B
102
}
330
4B
100
AcDbScale
 70
     0
300
8:1
140
8.0
141
1.0
290
     0
  0
SCALE
  5
5B
102
{ACAD_REACTORS
330
4B
102
}
330
4B
100
AcDbScale
 70
     0
300
10:1
140
10.0
141
1.0
290
     0
  0
SCALE
  5
5C
102
{ACAD_REACTORS
330
4B
102
}
330
4B
100
AcDbScale
 70
     0
300
100:1
140
100.0
141
1.0
290
     0
  0
SCALE
  5
5D
102
{ACAD_REACTORS
330
4B
102
}
330
4B
100
AcDbScale
 70
     0
300
1/128" = 1'-0"
140
0.0078125
141
12.0
290
     0
  0
SCALE
  5
5E
102
{ACAD_REACTORS
330
4B
102
}
330
4B
100
AcDbScale
 70
     0
300
1/64" = 1'-0"
140
0.015625
141
12.0
290
     0
  0
SCALE
  5
5F
102
{ACAD_REACTORS
330
4B
102
}
330
4B
100
AcDbScale
 70
     0
300
1/32" = 1'-0"
140
0.03125
141
12.0
290
     0
  0
SCALE
  5
60
102
{ACAD_REACTORS
330
4B
102
}
330
4B
100
AcDbScale
 70
     0
300
1/16" = 1'-0"
140
0.0625
141
12.0
290
     0
  0
SCALE
  5
61
102
{ACAD_REACTORS
330
4B
102
}
330
4B
100
AcDbScale
 70
     0
300
3/32" = 1'-0"
140
0.09375
141
12.0
290
     0
  0
SCALE
  5
62
102
{ACAD_REACTORS
330
4B
102
}
330
4B
100
AcDbScale
 70
     0
300
1/8" = 1'-0"
140
0.125
141
12.0
290
     0
  0
SCALE
  5
63
102
{ACAD_REACTORS
330
4B
102
}
330
4B
100
AcDbScale
 70
     0
300
3/16" = 1'-0"
140
0.1875
141
12.0
290
     0
  0
SCALE
  5
64
102
{ACAD_REACTORS
330
4B
102
}
330
4B
100
AcDbScale
 70
     0
300
1/4" = 1'-0"
140
0.25
141
12.0
290
     0
  0
SCALE
  5
65
102
{ACAD_REACTORS
330
4B
102
}
330
4B
100
AcDbScale
 70
     0
300
3/8" = 1'-0"
140
0.375
141
12.0
290
     0
  0
SCALE
  5
66
102
{ACAD_REACTORS
330
4B
102
}
330
4B
100
AcDbScale
 70
     0
300
1/2" = 1'-0"
140
0.5
141
12.0
290
     0
  0
SCALE
  5
67
102
{ACAD_REACTORS
330
4B
102
}
330
4B
100
AcDbScale
 70
     0
300
3/4" = 1'-0"
140
0.75
141
12.0
290
     0
  0
SCALE
  5
68
102
{ACAD_REACTORS
330
4B
102
}
330
4B
100
AcDbScale
 70
     0
300
1" = 1'-0"
140
1.0
141
12.0
290
     0
  0
SCALE
  5
69
102
{ACAD_REACTORS
330
4B
102
}
330
4B
100
AcDbScale
 70
     0
300
1-1/2" = 1'-0"
140
1.5
141
12.0
290
     0
  0
SCALE
  5
6A
102
{ACAD_REACTORS
330
4B
102
}
330
4B
100
AcDbScale
 70
     0
300
3" = 1'-0"
140
3.0
141
12.0
290
     0
  0
SCALE
  5
6B
102
{ACAD_REACTORS
330
4B
102
}
330
4B
100
AcDbScale
 70
     0
300
6" = 1'-0"
140
6.0
141
12.0
290
     0
  0
SCALE
  5
6C
102
{ACAD_REACTORS
330
4B
102
}
330
4B
100
AcDbScale
 70
     0
300
1'-0" = 1'-0"
140
12.0
141
12.0
290
     0
  0
VISUALSTYLE
  5
2F
102
{ACAD_REACTORS
330
2A
102
}
330
2A
100
AcDbVisualStyle
  2
2dWireframe
 70
     4
 71
     0
 72
     2
 73
     0
 90
        0
 40
-0.6
 41
-30.0
 62
     5
 63
     7
 74
     1
 91
        4
 64
     7
 65
   257
 75
     1
175
     1
 42
1.0
 92
        0
 66
   257
 43
1.0
 76
     1
 77
     6
 78
     2
 67
     7
 79
     5
170
     0
171
     0
290
     0
174
     0
 93
        1
 44
0.0
173
     0
291
     0
 45
0.0
1001
ACAD
1000
AcDbSavedByObjectVersion
1070
     0
  0
VISUALSTYLE
  5
31
102
{ACAD_REACTORS
330
2A
102
}
330
2A
100
AcDbVisualStyle
  2
3D Hidden
 70
     6
 71
     1
 72
     2
 73
     2
 90
        0
 40
-0.6
 41
-30.0
 62
     5
 63
     7
 74
     2
 91
        2
 64
     7
 65
   257
 75
     2
175
     1
 42
40.0
 92
        0
 66
   257
 43
1.0
 76
     1
 77
     6
 78
     2
 67
     7
 79
     3
170
     0
171
     0
290
     0
174
     0
 93
        1
 44
0.0
173
     0
291
     0
 45
0.0
1001
ACAD
1000
AcDbSavedByObjectVersion
1070
     0
  0
VISUALSTYLE
  5
30
102
{ACAD_REACTORS
330
2A
102
}
330
2A
100
AcDbVisualStyle
  2
3dWireframe
 70
     5
 71
     0
 72
     2
 73
     0
 90
        0
 40
-0.6
 41
-30.0
 62
     5
 63
     7
 74
     1
 91
        4
 64
     7
 65
   257
 75
     1
175
     1
 42
1.0
 92
        0
 66
   257
 43
1.0
 76
     1
 77
     6
 78
     2
 67
     7
 79
     5
170
     0
171
     0
290
     0
174
     0
 93
        1
 44
0.0
173
     0
291
     0
 45
0.0
1001
ACAD
1000
AcDbSavedByObjectVersion
1070
     0
  0
VISUALSTYLE
  5
32
102
{ACAD_REACTORS
330
2A
102
}
330
2A
100
AcDbVisualStyle
  2
Basic
 70
     7
 71
     1
 72
     0
 73
     1
 90
        0
 40
-0.6
 41
-30.0
 62
     5
 63
     7
 74
     0
 91
        4
 64
     7
 65
   257
 75
     1
175
     1
 42
1.0
 92
        8
 66
     7
 43
1.0
 76
     1
 77
     6
 78
     2
 67
     7
 79
     5
170
     0
171
     0
290
     0
174
     0
 93
        1
 44
0.0
173
     0
291
     1
 45
0.0
1001
ACAD
1000
AcDbSavedByObjectVersion
1070
     0
  0
VISUALSTYLE
  5
36
102
{ACAD_REACTORS
330
2A
102
}
330
2A
100
AcDbVisualStyle
  2
Brighten
 70
    12
 71
     2
 72
     2
 73
     0
 90
        0
 40
-0.6
 41
-30.0
 62
     5
 63
     7
 74
     1
 91
        4
 64
     7
 65
   257
 75
     1
175
     1
 42
1.0
 92
        8
 66
     7
 43
1.0
 76
     1
 77
     6
 78
     2
 67
     7
 79
     5
170
     0
171
     0
290
     0
174
     0
 93
        1
 44
50.0
173
     0
291
     1
 45
0.0
1001
ACAD
1000
AcDbSavedByObjectVersion
1070
     0
  0
VISUALSTYLE
  5
3A
102
{ACAD_REACTORS
330
2A
102
}
330
2A
100
AcDbVisualStyle
  2
ColorChange
 70
    16
 71
     2
 72
     2
 73
     3
 90
        0
 40
-0.6
 41
-30.0
 62
     5
 63
     8
 74
     1
 91
        4
 64
     7
 65
   257
 75
     1
175
     1
 42
1.0
 92
        8
 66
     8
 43
1.0
 76
     1
 77
     6
 78
     2
 67
     7
 79
     5
170
     0
171
     0
290
     0
174
     0
 93
        1
 44
0.0
173
     0
291
     1
 45
0.0
1001
ACAD
1000
AcDbSavedByObjectVersion
1070
     0
  0
VISUALSTYLE
  5
34
102
{ACAD_REACTORS
330
2A
102
}
330
2A
100
AcDbVisualStyle
  2
Conceptual
 70
     9
 71
     3
 72
     2
 73
     0
 90
        0
 40
-0.6
 41
-30.0
 62
     5
 63
     7
 74
     2
 91
        2
 64
     7
 65
   257
 75
     1
175
     1
 42
40.0
 92
        8
 66
     7
 43
1.0
 76
     1
 77
     6
 78
     2
 67
     7
 79
     3
170
     0
171
     0
290
     0
174
     0
 93
        1
 44
0.0
173
     0
291
     0
 45
0.0
1001
ACAD
1000
AcDbSavedByObjectVersion
1070
     0
  0
VISUALSTYLE
  5
35
102
{ACAD_REACTORS
330
2A
102
}
330
2A
100
AcDbVisualStyle
  2
Dim
 70
    11
 71
     2
 72
     2
 73
     0
 90
        0
 40
-0.6
 41
-30.0
 62
     5
 63
     7
 74
     1
 91
        4
 64
     7
 65
   257
 75
     1
175
     1
 42
1.0
 92
        8
 66
     7
 43
1.0
 76
     1
 77
     6
 78
     2
 67
     7
 79
     5
170
     0
171
     0
290
     0
174
     0
 93
        1
 44
-50.0
173
     0
291
     1
 45
0.0
1001
ACAD
1000
AcDbSavedByObjectVersion
1070
     0
  0
VISUALSTYLE
  5
39
102
{ACAD_REACTORS
330
2A
102
}
330
2A
100
AcDbVisualStyle
  2
Facepattern
 70
    15
 71
     2
 72
     2
 73
     0
 90
        0
 40
-0.6
 41
-30.0
 62
     5
 63
     7
 74
     1
 91
        4
 64
     7
 65
   257
 75
     1
175
     1
 42
1.0
 92
        8
 66
     7
 43
1.0
 76
     1
 77
     6
 78
     2
 67
     7
 79
     5
170
     0
171
     0
290
     0
174
     0
 93
        1
 44
0.0
173
     0
291
     1
 45
0.0
1001
ACAD
1000
AcDbSavedByObjectVersion
1070
     0
  0
VISUALSTYLE
  5
2B
102
{ACAD_REACTORS
330
2A
102
}
330
2A
100
AcDbVisualStyle
  2
Flat
 70
     0
 71
     2
 72
     1
 73
     1
 90
        2
 40
-0.6
 41
30.0
 62
     5
 63
     7
 74
     0
 91
        4
 64
     7
 65
   257
 75
     1
175
     1
 42
1.0
 92
        8
 66
     7
 43
1.0
 76
     1
 77
     6
 78
     2
 67
     7
 79
     5
170
     0
171
     0
290
     0
174
     0
 93
       13
 44
0.0
173
     0
291
     1
 45
0.0
1001
ACAD
1000
AcDbSavedByObjectVersion
1070
     0
  0
VISUALSTYLE
  5
2C
102
{ACAD_REACTORS
330
2A
102
}
330
2A
100
AcDbVisualStyle
  2
FlatWithEdges
 70
     1
 71
     2
 72
     1
 73
     1
 90
        2
 40
-0.6
 41
30.0
 62
     5
 63
     7
 74
     1
 91
        4
 64
     7
 65
   257
 75
     1
175
     1
 42
1.0
 92
        0
 66
   257
 43
1.0
 76
     1
 77
     6
 78
     2
 67
     7
 79
     5
170
     0
171
     0
290
     0
174
     0
 93
       13
 44
0.0
173
     0
291
     1
 45
0.0
1001
ACAD
1000
AcDbSavedByObjectVersion
1070
     0
  0
VISUALSTYLE
  5
2D
102
{ACAD_REACTORS
330
2A
102
}
330
2A
100
AcDbVisualStyle
  2
Gouraud
 70
     2
 71
     2
 72
     2
 73
     1
 90
        2
 40
-0.6
 41
30.0
 62
     5
 63
     7
 74
     0
 91
        4
 64
     7
 65
   257
 75
     1
175
     1
 42
1.0
 92
        0
 66
     7
 43
1.0
 76
     1
 77
     6
 78
     2
 67
     7
 79
     5
170
     0
171
     0
290
     0
174
     0
 93
       13
 44
0.0
173
     0
291
     1
 45
0.0
1001
ACAD
1000
AcDbSavedByObjectVersion
1070
     0
  0
VISUALSTYLE
  5
2E
102
{ACAD_REACTORS
330
2A
102
}
330
2A
100
AcDbVisualStyle
  2
GouraudWithEdges
 70
     3
 71
     2
 72
     2
 73
     1
 90
        2
 40
-0.6
 41
30.0
 62
     5
 63
     7
 74
     1
 91
        4
 64
     7
 65
   257
 75
     1
175
     1
 42
1.0
 92
        0
 66
   257
 43
1.0
 76
     1
 77
     6
 78
     2
 67
     7
 79
     5
170
     0
171
     0
290
     0
174
     0
 93
       13
 44
0.0
173
     0
291
     1
 45
0.0
1001
ACAD
1000
AcDbSavedByObjectVersion
1070
     0
  0
VISUALSTYLE
  5
38
102
{ACAD_REACTORS
330
2A
102
}
330
2A
100
AcDbVisualStyle
  2
Linepattern
 70
    14
 71
     2
 72
     2
 73
     0
 90
        0
 40
-0.6
 41
-30.0
 62
     5
 63
     7
 74
     1
 91
        4
 64
     7
 65
   257
 75
     7
175
     7
 42
1.0
 92
        8
 66
     7
 43
1.0
 76
     1
 77
     6
 78
     2
 67
     7
 79
     5
170
     0
171
     0
290
     0
174
     0
 93
        1
 44
0.0
173
     0
291
     1
 45
0.0
1001
ACAD
1000
AcDbSavedByObjectVersion
1070
     0
  0
VISUALSTYLE
  5
33
102
{ACAD_REACTORS
330
2A
102
}
330
2A
100
AcDbVisualStyle
  2
Realistic
 70
     8
 71
     2
 72
     2
 73
     0
 90
        0
 40
-0.6
 41
-30.0
 62
     5
 63
     7
 74
     1
 91
        0
 64
     7
 65
   257
 75
     1
175
     1
 42
1.0
 92
        8
 66
     8
 43
1.0
 76
     1
 77
     6
 78
     2
 67
     7
 79
     5
170
     0
171
     0
290
     0
174
     0
 93
       13
 44
0.0
173
     0
291
     0
 45
0.0
1001
ACAD
1000
AcDbSavedByObjectVersion
1070
     0
  0
VISUALSTYLE
  5
37
102
{ACAD_REACTORS
330
2A
102
}
330
2A
100
AcDbVisualStyle
  2
Thicken
 70
    13
 71
     2
 72
     2
 73
     0
 90
        0
 40
-0.6
 41
-30.0
 62
     5
 63
     7
 74
     1
 91
        4
 64
     7
 65
   257
 75
     1
175
     1
 42
1.0
 92
       12
 66
     7
 43
1.0
 76
     1
 77
     6
 78
     2
 67
     7
 79
     5
170
     0
171
     0
290
     0
174
     0
 93
        1
 44
0.0
173
     0
291
     1
 45
0.0
1001
ACAD
1000
AcDbSavedByObjectVersion
1070
     0
  0
DICTIONARYVAR
  5
14E
102
{ACAD_REACTORS
330
14B
102
}
330
14B
100
DictionaryVariables
280
     0
  1
1:1
  0
ENDSEC
  0
EOF
